  0
SECTION
  2
HEADER
  9
$ACADVER
  1
AC1015
  9
$ACADMAINTVER
 70
               6
  9
$DWGCODEPAGE
  3
ANSI_932
  9
$INSBASE
 10
0.0
 20
0.0
 30
0.0
  9
$EXTMIN
 10
-975.00000000024124
 20
-1431.5255224711129
 30
-14.834305555555554
  9
$EXTMAX
 10
975.00000000024113
 20
1405.9972926412995
 30
14.834305555555554
  9
$LIMMIN
 10
0.0
 20
0.0
  9
$LIMMAX
 10
0.0
 20
0.0
  9
$ORTHOMODE
 70
               0
  9
$REGENMODE
 70
               1
  9
$FILLMODE
 70
               1
  9
$QTEXTMODE
 70
               0
  9
$MIRRTEXT
 70
               1
  9
$LTSCALE
 40
50.799999999999997
  9
$ATTMODE
 70
               1
  9
$TEXTSIZE
 40
0.2
  9
$TRACEWID
 40
1.0
  9
$TEXTSTYLE
  7
Standard
  9
$CLAYER
  8
ADF70-0903
  9
$CELTYPE
  6
Continuous
  9
$CECOLOR
 62
             256
  9
$CELTSCALE
 40
1.0
  9
$DISPSILH
 70
               0
  9
$DIMSCALE
 40
1.0
  9
$DIMASZ
 40
31.75
  9
$DIMEXO
 40
0.0
  9
$DIMDLI
 40
6.9999999999999396
  9
$DIMRND
 40
0.0
  9
$DIMDLE
 40
0.0
  9
$DIMEXE
 40
19.999999999996199
  9
$DIMTP
 40
0.0
  9
$DIMTM
 40
0.0
  9
$DIMTXT
 40
24.432617187500004
  9
$DIMCEN
 40
0.0
  9
$DIMTSZ
 40
0.0
  9
$DIMTOL
 70
               0
  9
$DIMLIM
 70
               0
  9
$DIMTIH
 70
               0
  9
$DIMTOH
 70
               0
  9
$DIMSE1
 70
               0
  9
$DIMSE2
 70
               0
  9
$DIMTAD
 70
               1
  9
$DIMZIN
 70
              11
  9
$DIMBLK
  1
VW_FILLEDARROW
  9
$DIMASO
 70
               1
  9
$DIMSHO
 70
               1
  9
$DIMPOST
  1
<>
  9
$DIMAPOST
  1
[]
  9
$DIMALT
 70
               0
  9
$DIMALTD
 70
               1
  9
$DIMALTF
 40
1.0
  9
$DIMLFAC
 40
1.0
  9
$DIMTOFL
 70
               0
  9
$DIMTVP
 40
0.0
  9
$DIMTIX
 70
               1
  9
$DIMSOXD
 70
               0
  9
$DIMSAH
 70
               0
  9
$DIMBLK1
  1

  9
$DIMBLK2
  1

  9
$DIMSTYLE
  2
JIS
  9
$DIMCLRD
 70
               0
  9
$DIMCLRE
 70
               0
  9
$DIMCLRT
 70
               0
  9
$DIMTFAC
 40
1.0
  9
$DIMGAP
 40
1.00000000000108
  9
$DIMJUST
 70
               0
  9
$DIMSD1
 70
               0
  9
$DIMSD2
 70
               0
  9
$DIMTOLJ
 70
               1
  9
$DIMTZIN
 70
              11
  9
$DIMALTZ
 70
              11
  9
$DIMALTTZ
 70
              11
  9
$DIMUPT
 70
               0
  9
$DIMDEC
 70
               1
  9
$DIMTDEC
 70
               1
  9
$DIMALTU
 70
               2
  9
$DIMALTTD
 70
               2
  9
$DIMTXSTY
  7
ＭＳ ゴシック
  9
$DIMAUNIT
 70
               0
  9
$DIMADEC
 70
               2
  9
$DIMALTRND
 40
0.0
  9
$DIMAZIN
 70
               0
  9
$DIMDSEP
 70
              46
  9
$DIMATFIT
 70
               0
  9
$DIMFRAC
 70
               2
  9
$DIMLDRBLK
  1

  9
$DIMLUNIT
 70
               2
  9
$DIMLWD
 70
              -2
  9
$DIMLWE
 70
              -2
  9
$DIMTMOVE
 70
               0
  9
$LUNITS
 70
               2
  9
$LUPREC
 70
               4
  9
$SKETCHINC
 40
0.1
  9
$FILLETRAD
 40
0.0
  9
$AUNITS
 70
               0
  9
$AUPREC
 70
               0
  9
$MENU
  1
acad
  9
$ELEVATION
 40
0.0
  9
$PELEVATION
 40
0.0
  9
$THICKNESS
 40
0.0
  9
$LIMCHECK
 70
               0
  9
$CHAMFERA
 40
0.0
  9
$CHAMFERB
 40
0.0
  9
$CHAMFERC
 40
0.0
  9
$CHAMFERD
 40
0.0
  9
$SKPOLY
 70
               0
  9
$TDCREATE
 40
2456046.427465278
  9
$TDUCREATE
 40
0.000000000
  9
$TDUPDATE
 40
2456046.427465278
  9
$TDUUPDATE
 40
0.000000000
  9
$TDINDWG
 40
0.0000000000
  9
$TDUSRTIMER
 40
0.0000000000
  9
$USRTIMER
 70
               1
  9
$ANGBASE
 50
0.0
  9
$ANGDIR
 70
               0
  9
$PDMODE
 70
               1
  9
$PDSIZE
 40
-2.0
  9
$PLINEWID
 40
0.0
  9
$SPLFRAME
 70
               0
  9
$SPLINETYPE
 70
               6
  9
$SPLINESEGS
 70
               8
  9
$HANDSEED
  5
117
  9
$SURFTAB1
 70
               6
  9
$SURFTAB2
 70
               6
  9
$SURFTYPE
 70
               6
  9
$SURFU
 70
               6
  9
$SURFV
 70
               6
  9
$UCSBASE
  2

  9
$UCSNAME
  2

  9
$UCSORG
 10
0.0
 20
0.0
 30
0.0
  9
$UCSXDIR
 10
1.0
 20
0.0
 30
0.0
  9
$UCSYDIR
 10
0.0
 20
1.0
 30
0.0
  9
$UCSORTHOREF
  2

  9
$UCSORTHOVIEW
 70
               0
  9
$UCSORGTOP
 10
0.0
 20
0.0
 30
0.0
  9
$UCSORGBOTTOM
 10
0.0
 20
0.0
 30
0.0
  9
$UCSORGLEFT
 10
0.0
 20
0.0
 30
0.0
  9
$UCSORGRIGHT
 10
0.0
 20
0.0
 30
0.0
  9
$UCSORGFRONT
 10
0.0
 20
0.0
 30
0.0
  9
$UCSORGBACK
 10
0.0
 20
0.0
 30
0.0
  9
$PUCSBASE
  2

  9
$PUCSNAME
  2

  9
$PUCSORG
 10
0.0
 20
0.0
 30
0.0
  9
$PUCSXDIR
 10
1.0
 20
0.0
 30
0.0
  9
$PUCSYDIR
 10
0.0
 20
1.0
 30
0.0
  9
$PUCSORTHOREF
  2

  9
$PUCSORTHOVIEW
 70
               0
  9
$PUCSORGTOP
 10
0.0
 20
0.0
 30
0.0
  9
$PUCSORGBOTTOM
 10
0.0
 20
0.0
 30
0.0
  9
$PUCSORGLEFT
 10
0.0
 20
0.0
 30
0.0
  9
$PUCSORGRIGHT
 10
0.0
 20
0.0
 30
0.0
  9
$PUCSORGFRONT
 10
0.0
 20
0.0
 30
0.0
  9
$PUCSORGBACK
 10
0.0
 20
0.0
 30
0.0
  9
$USERI1
 70
               0
  9
$USERI2
 70
               0
  9
$USERI3
 70
               0
  9
$USERI4
 70
               0
  9
$USERI5
 70
               0
  9
$USERR1
 40
0.0
  9
$USERR2
 40
0.0
  9
$USERR3
 40
0.0
  9
$USERR4
 40
0.0
  9
$USERR5
 40
0.0
  9
$WORLDVIEW
 70
               1
  9
$SHADEDGE
 70
               3
  9
$SHADEDIF
 70
              70
  9
$TILEMODE
 70
               1
  9
$MAXACTVP
 70
              64
  9
$PINSBASE
 10
0.0
 20
0.0
 30
0.0
  9
$PLIMCHECK
 70
               0
  9
$PEXTMIN
 10
1.0000000000000000E+20
 20
1.0000000000000000E+20
 30
1.0000000000000000E+20
  9
$PEXTMAX
 10
-1.0000000000000000E+20
 20
-1.0000000000000000E+20
 30
-1.0000000000000000E+20
  9
$PLIMMIN
 10
0.0
 20
0.0
  9
$PLIMMAX
 10
12.0
 20
9.0
  9
$UNITMODE
 70
               0
  9
$VISRETAIN
 70
               0
  9
$PLINEGEN
 70
               1
  9
$PSLTSCALE
 70
               0
  9
$TREEDEPTH
 70
            3020
  9
$CMLSTYLE
  2
Standard
  9
$CMLJUST
 70
               0
  9
$CMLSCALE
 40
1.0
  9
$PROXYGRAPHICS
 70
               0
  9
$MEASUREMENT
 70
               1
  9
$CELWEIGHT
370
               0
  9
$ENDCAPS
280
               0
  9
$JOINSTYLE
280
               0
  9
$LWDISPLAY
290
               1
  9
$INSUNITS
 70
               4
  9
$HYPERLINKBASE
  1

  9
$STYLESHEET
  1

  9
$XEDIT
290
               1
  9
$CEPSNTYPE
380
               0
  9
$PSTYLEMODE
290
               1
  9
$FINGERPRINTGUID
  2

  9
$VERSIONGUID
  2

  9
$EXTNAMES
290
               1
  9
$PSVPSCALE
 40
0.0
  0
ENDSEC
  0
SECTION
  2
CLASSES
  0
CLASS
  1
LWPOLYLINE
  2
AcDbPolyline
  3
AutoCAD 2000
 90
        0
280
               0
281
               1
  0
CLASS
  1
IMAGE
  2
AcDbRasterImage
  3
ISM
 90
      127
280
               0
281
               1
  0
CLASS
  1
OLE2FRAME
  2
AcDbOle2Frame
  3
AutoCAD 2000
 90
        0
280
               0
281
               1
  0
CLASS
  1
HATCH
  2
AcDbHatch
  3
AutoCAD 2000
 90
        0
280
               0
281
               1
  0
CLASS
  1
DICTIONARYVAR
  2
AcDbDictionaryVar
  3
AutoCAD 2000
 90
        0
280
               0
281
               0
  0
CLASS
  1
RASTERVARIABLES
  2
AcDbRasterVariables
  3
ISM
 90
        0
280
               0
281
               0
  0
CLASS
  1
IMAGEDEF
  2
AcDbRasterImageDef
  3
ISM
 90
        0
280
               0
281
               0
  0
CLASS
  1
IMAGEDEF_REACTOR
  2
AcDbRasterImageDefReactor
  3
ISM
 90
        1
280
               0
281
               0
  0
CLASS
  1
IDBUFFER
  2
AcDbIdBuffer
  3
AutoCAD 2000
 90
        0
280
               0
281
               0
  0
CLASS
  1
SPATIAL_FILTER
  2
AcDbSpatialFilter
  3
AutoCAD 2000
 90
        0
280
               0
281
               0
  0
CLASS
  1
XRECORD
  2
AcDbXrecord
  3
AutoCAD 2000
 90
        0
280
               0
281
               0
  0
CLASS
  1
SORTENTSTABLE
  2
AcDbSortentsTable
  3
AutoCAD 2000
 90
        0
280
               0
281
               0
  0
CLASS
  1
LAYER_INDEX
  2
AcDbLayerIndex
  3
AutoCAD 2000
 90
        0
280
               0
281
               0
  0
CLASS
  1
SPATIAL_INDEX
  2
AcDbSpatialIndex
  3
AutoCAD 2000
 90
        0
280
               0
281
               0
  0
CLASS
  1
OBJECT_PTR
  2
CAseDLPNTableRecord
  3
"ASE-LPNTableRecord"
 90
        1
280
               0
281
               0
  0
CLASS
  1
LAYOUT
  2
AcDbLayout
  3
AutoCAD 2000
 90
        0
280
               0
281
               0
  0
CLASS
  1
PLOTSETTINGS
  2
AcDbPlotSettings
  3
AutoCAD 2000
 90
        0
280
               0
281
               0
  0
CLASS
  1
ACDBDICTIONARYWDFLT
  2
AcDbDictionaryWithDefault
  3
AutoCAD 2000
 90
        0
280
               0
281
               0
  0
CLASS
  1
ACDBPLACEHOLDER
  2
AcDbPlaceHolder
  3
AutoCAD 2000
 90
        0
280
               0
281
               0
  0
ENDSEC
  0
SECTION
  2
TABLES
  0
TABLE
  2
VPORT
  5
7
100
AcDbSymbolTable
 70
               1
  0
VPORT
  5
15
100
AcDbSymbolTableRecord
100
AcDbViewportTableRecord
  2
*ACTIVE
 70
               0
 10
0.0
 20
0.0
 11
1.0
 21
1.0
 12
0.0
 22
-12.764114914906713
 13
0.0
 23
0.0
 14
1.0
 24
1.0
 15
0.0
 25
0.0
 16
0.0
 26
0.0
 36
1.0
 17
0.0
 27
0.0
 37
0.0
 40
2837.5228151124124
 41
0.688564
 42
50.0
 43
0.0
 44
0.0
 50
0.0
 51
0.0
 71
               0
 72
            2000
 73
               1
 74
               1
 75
               0
 76
               0
 77
               0
 78
               0
281
               0
 65
               0
110
0.0
120
0.0
130
0.0
111
1.0
121
0.0
131
0.0
112
0.0
122
1.0
132
0.0
345
0
346
0
 79
               0
146
0.0
  0
ENDTAB
  0
TABLE
  2
LTYPE
  5
4
100
AcDbSymbolTable
 70
              15
  0
LTYPE
  5
11
100
AcDbSymbolTableRecord
100
AcDbLinetypeTableRecord
  2
ByBlock
 70
              64
  3

 72
              65
 73
               0
 40
0.0
  0
LTYPE
  5
12
100
AcDbSymbolTableRecord
100
AcDbLinetypeTableRecord
  2
ByLayer
 70
              64
  3

 72
              65
 73
               0
 40
0.0
  0
LTYPE
  5
13
100
AcDbSymbolTableRecord
100
AcDbLinetypeTableRecord
  2
Continuous
 70
              64
  3
Solid line
 72
              65
 73
               0
 40
0.0
  0
LTYPE
  5
2E
100
AcDbSymbolTableRecord
100
AcDbLinetypeTableRecord
  2
STYLE_01
 70
               0
  3

 72
              65
 73
               2
 40
0.41664
 49
0.20828
 74
               0
 49
-0.20836
 74
               0
  0
LTYPE
  5
2F
100
AcDbSymbolTableRecord
100
AcDbLinetypeTableRecord
  2
STYLE_02
 70
               0
  3

 72
              65
 73
               2
 40
0.6944250000000001
 49
0.48607
 74
               0
 49
-0.2083550000000001
 74
               0
  0
LTYPE
  5
30
100
AcDbSymbolTableRecord
100
AcDbLinetypeTableRecord
  2
STYLE_03
 70
               0
  3

 72
              65
 73
               2
 40
1.25
 49
1.0416400000000001
 74
               0
 49
-0.2083599999999999
 74
               0
  0
LTYPE
  5
31
100
AcDbSymbolTableRecord
100
AcDbLinetypeTableRecord
  2
STYLE_04
 70
               0
  3

 72
              65
 73
               2
 40
1.5277099999999999
 49
1.3194249999999998
 74
               0
 49
-0.208285
 74
               0
  0
LTYPE
  5
32
100
AcDbSymbolTableRecord
100
AcDbLinetypeTableRecord
  2
STYLE_05
 70
               0
  3

 72
              65
 73
               2
 40
0.20828
 49
0.069425
 74
               0
 49
-0.138855
 74
               0
  0
LTYPE
  5
33
100
AcDbSymbolTableRecord
100
AcDbLinetypeTableRecord
  2
STYLE_06
 70
               0
  3

 72
              65
 73
               4
 40
1.0416400000000001
 49
0.625
 74
               0
 49
-0.20828
 74
               0
 49
0.06943
 74
               0
 49
-0.13893
 74
               0
  0
LTYPE
  5
34
100
AcDbSymbolTableRecord
100
AcDbLinetypeTableRecord
  2
STYLE_07
 70
               0
  3

 72
              65
 73
               6
 40
1.875
 49
0.625
 74
               0
 49
-0.20828
 74
               0
 49
0.6250000000000001
 74
               0
 49
-0.2083599999999999
 74
               0
 49
0.06943
 74
               0
 49
-0.1389299999999999
 74
               0
  0
LTYPE
  5
35
100
AcDbSymbolTableRecord
100
AcDbLinetypeTableRecord
  2
STYLE_08
 70
               0
  3

 72
              65
 73
               6
 40
1.25
 49
0.625
 74
               0
 49
-0.20828
 74
               0
 49
0.06943
 74
               0
 49
-0.13893
 74
               0
 49
0.0694299999999999
 74
               0
 49
-0.13893
 74
               0
  0
LTYPE
  5
36
100
AcDbSymbolTableRecord
100
AcDbLinetypeTableRecord
  2
STYLE_09
 70
               0
  3

 72
              65
 73
               4
 40
5.0
 49
3.75
 74
               0
 49
-0.2777849999999998
 74
               0
 49
0.6944300000000003
 74
               0
 49
-0.2777849999999998
 74
               0
  0
LTYPE
  5
37
100
AcDbSymbolTableRecord
100
AcDbLinetypeTableRecord
  2
STYLE_10
 70
               0
  3

 72
              65
 73
               6
 40
5.9375
 49
3.75
 74
               0
 49
-0.2777849999999998
 74
               0
 49
0.6944300000000003
 74
               0
 49
-0.2777849999999998
 74
               0
 49
0.625
 74
               0
 49
-0.3125
 74
               0
  0
LTYPE
  5
38
100
AcDbSymbolTableRecord
100
AcDbLinetypeTableRecord
  2
STYLE_11
 70
               0
  3

 72
              65
 73
               2
 40
0.0694444881889764
 49
0.0347222440944882
 74
               0
 49
-0.0347222440944882
 74
               0
  0
LTYPE
  5
39
100
AcDbSymbolTableRecord
100
AcDbLinetypeTableRecord
  2
STYLE_12
 70
               0
  3

 72
              65
 73
               2
 40
0.3937007874015748
 49
0.1968503937007874
 74
               0
 49
-0.1968503937007874
 74
               0
  0
ENDTAB
  0
TABLE
  2
LAYER
  5
2
100
AcDbSymbolTable
 70
               5
  0
LAYER
  5
14
100
AcDbSymbolTableRecord
100
AcDbLayerTableRecord
  2
0
 70
               0
 62
               7
  6
Continuous
290
               1
370
              -3
390
1D
  0
LAYER
  5
3A
100
AcDbSymbolTableRecord
100
AcDbLayerTableRecord
  2
Defpoints
 70
               0
 62
               7
  6
Continuous
290
               0
370
              -3
390
1D
  0
LAYER
  5
3B
100
AcDbSymbolTableRecord
100
AcDbLayerTableRecord
  2
template
 70
               0
 62
               7
  6
Continuous
290
               1
370
              -3
390
1D
  0
LAYER
  5
3C
100
AcDbSymbolTableRecord
100
AcDbLayerTableRecord
  2
notes
 70
               0
 62
               7
  6
Continuous
290
               1
370
              -3
390
1D
  0
LAYER
  5
3D
100
AcDbSymbolTableRecord
100
AcDbLayerTableRecord
  2
ADF70-0903
 70
               0
 62
               7
  6
Continuous
290
               1
370
              -3
390
1D
  0
ENDTAB
  0
TABLE
  2
STYLE
  5
3
100
AcDbSymbolTable
 70
               2
  0
STYLE
  5
17
100
AcDbSymbolTableRecord
100
AcDbTextStyleTableRecord
  2
Standard
 70
               0
 40
0.0
 41
1.0
 50
0.0
 71
               0
 42
0.0
  3
txt
  4
BIGFONT.SHX
  0
STYLE
  5
2D
100
AcDbSymbolTableRecord
100
AcDbTextStyleTableRecord
  2
ＭＳ ゴシック
 70
               0
 40
0.0
 41
1.0
 50
0.0
 71
               0
 42
0.0
  3

  4
ＭＳ ゴシック
1001
ACAD
1000
ＭＳ ゴシック
1071
        0
  0
ENDTAB
  0
TABLE
  2
VIEW
  5
5
100
AcDbSymbolTable
 70
               0
  0
ENDTAB
  0
TABLE
  2
UCS
  5
6
100
AcDbSymbolTable
 70
               0
  0
ENDTAB
  0
TABLE
  2
APPID
  5
8
100
AcDbSymbolTable
 70
               1
  0
APPID
  5
16
100
AcDbSymbolTableRecord
100
AcDbRegAppTableRecord
  2
ACAD
 70
               0
  0
ENDTAB
  0
TABLE
  2
DIMSTYLE
  5
9
100
AcDbSymbolTable
 70
               3
100
AcDbDimStyleTable
 71
               0
  0
DIMSTYLE
105
18
100
AcDbSymbolTableRecord
100
AcDbDimStyleTableRecord
  2
Standard
 70
               0
  3

  4

 40
1.0
 41
0.18
 42
0.0625
 43
0.38
 44
0.18
 45
0.0
 46
0.0
 47
0.0
 48
0.0
 71
               0
 72
               0
 73
               1
 74
               1
 75
               0
 76
               0
 77
               0
 78
               0
 79
               0
140
0.18
141
0.09
142
0.0
143
25.399999999999999
144
1.0
145
0.0
146
1.0
147
0.09
148
0.0
170
               0
171
               2
172
               0
173
               0
174
               0
175
               0
176
               0
177
               0
178
               0
179
               0
271
               4
272
               4
273
               2
274
               2
275
               0
276
               0
277
               2
278
              46
279
               0
280
               0
281
               0
282
               0
283
               1
284
               0
285
               0
286
               0
288
               0
289
               3
340
17
341
0
342
0
343
0
344
0
371
              -2
372
              -2
  0
DIMSTYLE
105
46
100
AcDbSymbolTableRecord
100
AcDbDimStyleTableRecord
  2
Tform線あり
 70
               0
  3
<>
  4
[]
 40
1.0
 41
9.9993896484374982
 42
24.999999999999996
 43
0.9999999999999999
 44
0.0
 45
0.0
 46
0.0
 47
0.0
 48
0.0
 71
               0
 72
               0
 73
               0
 74
               0
 75
               0
 76
               0
 77
               1
 78
              11
 79
               0
140
24.432617187500004
141
0.0
142
0.0
143
1.0
144
1.0
145
0.0
146
1.0
147
0.4999999999999999
148
0.0
170
               0
171
               1
172
               0
173
               0
174
               1
175
               0
176
               0
177
               0
178
               0
179
               2
271
               1
272
               1
273
               2
274
               2
275
               0
276
               2
277
               2
278
              46
279
               0
280
               0
281
               0
282
               0
283
               1
284
              11
285
              11
286
              11
288
               0
289
               0
340
2D
341
3E
342
3E
343
0
344
0
371
              -2
372
              -2
  0
DIMSTYLE
105
4B
100
AcDbSymbolTableRecord
100
AcDbDimStyleTableRecord
  2
JIS
 70
               0
  3
<>
  4
[]
 40
1.0
 41
31.75
 42
0.0
 43
6.9999999999999396
 44
19.999999999996199
 45
0.0
 46
0.0
 47
0.0
 48
0.0
 71
               0
 72
               0
 73
               0
 74
               0
 75
               0
 76
               0
 77
               1
 78
              11
 79
               0
140
24.432617187500004
141
0.0
142
0.0
143
1.0
144
1.0
145
0.0
146
1.0
147
1.00000000000108
148
0.0
170
               0
171
               1
172
               0
173
               0
174
               1
175
               0
176
               0
177
               0
178
               0
179
               2
271
               1
272
               1
273
               2
274
               2
275
               0
276
               2
277
               2
278
              46
279
               0
280
               0
281
               0
282
               0
283
               1
284
              11
285
              11
286
              11
288
               0
289
               0
340
2D
341
47
342
47
343
0
344
0
371
              -2
372
              -2
  0
ENDTAB
  0
TABLE
  2
BLOCK_RECORD
  5
1
100
AcDbSymbolTable
 70
              12
  0
BLOCK_RECORD
  5
A
100
AcDbSymbolTableRecord
100
AcDbBlockTableRecord
  2
*MODEL_SPACE
340
20
  0
BLOCK_RECORD
  5
B
100
AcDbSymbolTableRecord
100
AcDbBlockTableRecord
  2
*PAPER_SPACE
340
21
  0
BLOCK_RECORD
  5
3E
100
AcDbSymbolTableRecord
100
AcDbBlockTableRecord
  2
_DOT
340
0
  0
BLOCK_RECORD
  5
47
100
AcDbSymbolTableRecord
100
AcDbBlockTableRecord
  2
VW_FILLEDARROW
340
0
  0
BLOCK_RECORD
  5
23
100
AcDbSymbolTableRecord
100
AcDbBlockTableRecord
  2
グループ
340
0
102
{BLKREFS
331
D3
102
}
  0
BLOCK_RECORD
  5
24
100
AcDbSymbolTableRecord
100
AcDbBlockTableRecord
  2
*D3
340
0
  0
BLOCK_RECORD
  5
25
100
AcDbSymbolTableRecord
100
AcDbBlockTableRecord
  2
*D4
340
0
  0
BLOCK_RECORD
  5
26
100
AcDbSymbolTableRecord
100
AcDbBlockTableRecord
  2
*D5
340
0
  0
BLOCK_RECORD
  5
27
100
AcDbSymbolTableRecord
100
AcDbBlockTableRecord
  2
*D6
340
0
  0
BLOCK_RECORD
  5
28
100
AcDbSymbolTableRecord
100
AcDbBlockTableRecord
  2
*D7
340
0
  0
BLOCK_RECORD
  5
29
100
AcDbSymbolTableRecord
100
AcDbBlockTableRecord
  2
*D8
340
0
  0
BLOCK_RECORD
  5
2A
100
AcDbSymbolTableRecord
100
AcDbBlockTableRecord
  2
*D9
340
0
  0
BLOCK_RECORD
  5
2B
100
AcDbSymbolTableRecord
100
AcDbBlockTableRecord
  2
*D10
340
0
  0
BLOCK_RECORD
  5
2C
100
AcDbSymbolTableRecord
100
AcDbBlockTableRecord
  2
*D11
340
0
  0
ENDTAB
  0
ENDSEC
  0
SECTION
  2
BLOCKS
  0
BLOCK
  5
D
100
AcDbEntity
  8
0
390
0
100
AcDbBlockBegin
  2
*MODEL_SPACE
 70
               0
 10
0.0
 20
0.0
 30
0.0
  3
*MODEL_SPACE
  1

  0
ENDBLK
  5
E
100
AcDbEntity
  8
0
390
0
100
AcDbBlockEnd
  0
BLOCK
  5
F
100
AcDbEntity
 67
               1
  8
0
390
0
100
AcDbBlockBegin
  2
*PAPER_SPACE
 70
               0
 10
0.0
 20
0.0
 30
0.0
  3
*PAPER_SPACE
  1

  0
ENDBLK
  5
10
100
AcDbEntity
 67
               1
  8
0
390
0
100
AcDbBlockEnd
  0
BLOCK
  5
3F
100
AcDbEntity
  8
0
390
0
100
AcDbBlockBegin
  2
_DOT
 70
               0
 10
0.0
 20
0.0
 30
0.0
  3
_DOT
  1

  0
POLYLINE
  5
40
100
AcDbEntity
  8
0
370
              -2
390
0
  6
ByBlock
 62
               0
100
AcDb2dPolyline
 66
               1
 10
0.0
 20
0.0
 30
0.0
 70
               1
 40
0.5
 41
0.5
  0
VERTEX
  5
41
100
AcDbEntity
  8
0
370
              -2
390
0
  6
ByBlock
 62
               0
100
AcDbVertex
100
AcDb2dVertex
 10
-0.25
 20
0.0
 30
0.0
 42
1.0
  0
VERTEX
  5
42
100
AcDbEntity
  8
0
370
              -2
390
0
  6
ByBlock
 62
               0
100
AcDbVertex
100
AcDb2dVertex
 10
0.25
 20
0.0
 30
0.0
 42
1.0
  0
SEQEND
  5
43
100
AcDbEntity
  8
0
390
0
  0
LINE
  5
44
100
AcDbEntity
  8
0
370
              -2
390
0
  6
ByBlock
 62
               0
100
AcDbLine
 10
-0.5
 20
0.0
 30
0.0
 11
-1.0
 21
0.0
 31
0.0
  0
ENDBLK
  5
45
100
AcDbEntity
  8
0
390
0
100
AcDbBlockEnd
  0
BLOCK
  5
48
100
AcDbEntity
  8
0
370
              -2
390
0
  6
ByBlock
 62
               0
100
AcDbBlockBegin
  2
VW_FILLEDARROW
 70
               0
 10
0.0
 20
0.0
 30
0.0
  3
VW_FILLEDARROW
  1

  0
SOLID
  5
49
100
AcDbEntity
  8
0
370
              -2
390
0
 62
               0
100
AcDbTrace
 10
0.0
 20
0.0
 30
0.0
 11
-0.9921874999999999
 21
-0.2658558393652545
 31
0.0
 12
-0.9921874999999999
 22
0.2658558393652548
 32
0.0
 13
-0.9921874999999999
 23
0.2658558393652548
 33
0.0
  0
ENDBLK
  5
4A
100
AcDbEntity
  8
0
390
0
100
AcDbBlockEnd
  0
BLOCK
  5
4C
100
AcDbEntity
  8
template
390
0
100
AcDbBlockBegin
  2
グループ
 70
               0
 10
0.0
 20
0.0
 30
0.0
  3
グループ
  1

  0
LWPOLYLINE
  5
4D
100
AcDbEntity
  8
0
370
              15
390
0
  6
Continuous
 62
               7
100
AcDbPolyline
 90
        8
 70
             129
 10
1649.643152147074
 20
-1290.691544515096
 10
1649.643152147074
 20
-1296.6889332086719
 10
1640.1419552290706
 20
-1296.6889332086719
 10
1640.1419552290706
 20
-1321.1398964721807
 10
1631.7865779672879
 20
-1321.1398964721807
 10
1631.7865779672879
 20
-1296.6889332086719
 10
1622.4536210209785
 20
-1296.6889332086719
 10
1622.4536210209785
 20
-1290.691544515096
  0
LWPOLYLINE
  5
4E
100
AcDbEntity
  8
0
370
              15
390
0
  6
Continuous
 62
               7
100
AcDbPolyline
 90
      101
 70
             128
 10
1662.3714439776309
 20
-1291.4197930080325
 10
1662.3867940064133
 20
-1291.4154322513482
 42
-0.0222221607816904
 10
1662.676798583087
 20
-1291.3468077861028
 10
1662.6925923470799
 20
-1291.343804363006
 42
-0.0146883565589265
 10
1662.9552950523048
 20
-1291.3018011760564
 42
-0.0127458844182574
 10
1663.2199340194654
 20
-1291.2742642079834
 10
1663.2823890977706
 20
-1291.2693707853957
 42
-0.0198099018571542
 10
1663.6732382072385
 20
-1291.2542856279993
 10
1663.7250496766912
 20
-1291.2543394036643
 42
-0.0147617382761703
 10
1664.2196731376687
 20
-1291.2694594289092
 10
1664.2923645925432
 20
-1291.2738320357969
 42
-0.0162624549001521
 10
1664.6825182220048
 20
-1291.310064911069
 10
1664.804050613254
 20
-1291.3253514700643
 42
-0.0080020874671323
 10
1664.9496296443556
 20
-1291.346034317334
 10
1664.9879491149643
 20
-1291.3521055951471
 42
-0.0053821929655985
 10
1665.0564332202655
 20
-1291.3637131189666
 10
1664.3300275210668
 20
-1293.5446415746806
 42
0.0108667757395532
 10
1664.2627104509354
 20
-1293.5314544594605
 10
1664.2252424277465
 20
-1293.5249567168662
 42
0.0170663203311358
 10
1664.0820256408333
 20
-1293.5051271195748
 10
1664.0141503081479
 20
-1293.498079948987
 42
0.0220162375273771
 10
1663.7337709002941
 20
-1293.4813975882169
 10
1663.6559153332396
 20
-1293.4801982209503
 42
0.0282606915784849
 10
1663.3202790096627
 20
-1293.4940014979193
 10
1663.2763657358926
 20
-1293.4983014879226
 42
0.0169677213682767
 10
1663.0304412409314
 20
-1293.5308385374751
 42
0.0190576269871836
 10
1662.7875332783476
 20
-1293.5809854095824
 10
1662.7812740902405
 20
-1293.5825283836907
 42
0.0213685642842313
 10
1662.5308896057638
 20
-1293.6557286687951
 10
1662.5253997108466
 20
-1293.6575916648544
 42
0.0237595297590964
 10
1662.2719048259485
 20
-1293.7572761867498
 10
1662.2668027519182
 20
-1293.7595679622282
 42
0.0261857468812339
 10
1662.0146319756871
 20
-1293.8891042996033
 10
1662.0042057866003
 20
-1293.8951697740715
 42
0.0272553062022832
 10
1661.7677760113629
 20
-1294.0505419800156
 10
1661.7330129978538
 20
-1294.0762031281074
 42
0.0325996893172668
 10
1661.5828576542017
 20
-1294.2029510010791
 10
1661.5591482250786
 20
-1294.2257690295919
 42
0.0138050960639124
 10
1661.4672650688685
 20
-1294.3192186911438
 42
0.0125280103814947
 10
1661.3804225360323
 20
-1294.4173820177471
 10
1661.3567420911268
 20
-1294.445540515931
 42
0.0205218024737315
 10
1661.2316420156128
 20
-1294.6073338301608
 10
1661.2091756751261
 20
-1294.6389935599871
 42
0.0163110129575832
 10
1661.0534652958791
 20
-1294.8743239950497
 10
1661.0507413998237
 20
-1294.8787477570424
 42
0.0131897341897672
 10
1660.9039408789176
 20
-1295.1318798494067
 10
1660.9022407835512
 20
-1295.1349980885425
 42
0.0107895576058308
 10
1660.7644640813471
 20
-1295.4012132981643
 10
1660.7637311918154
 20
-1295.4027075308243
 42
0.0091371507218282
 10
1660.6352512431633
 20
-1295.6772327285896
 10
1660.6055056117568
 20
-1295.7439392357428
 42
0.0135418326353339
 10
1660.4337916726847
 20
-1296.158877021013
 10
1660.4001868642517
 20
-1296.2467431632908
 42
0.0092834542413025
 10
1660.2289578043301
 20
-1296.7206416615982
 10
1660.2033406766143
 20
-1296.7958827313857
 42
0.0054261043579957
 10
1660.0957025283192
 20
-1297.1236467044564
 10
1660.0781765421541
 20
-1297.1790348666475
 42
0.0008225090816255
 10
1660.0095064903119
 20
-1297.3973036248358
 10
1659.0248173583784
 20
-1300.4221949180924
 10
1662.2574411984524
 20
-1300.4221949180924
 10
1661.753248768599
 20
-1302.3266732164448
 10
1658.4971924866154
 20
-1302.3266732164448
 10
1652.6680434542618
 20
-1321.1398962824496
 10
1650.8429458439514
 20
-1321.1398962824496
 10
1656.6776238794523
 20
-1302.3266732164448
 10
1654.272507510412
 20
-1302.3266732164448
 10
1654.7766999402654
 20
-1300.4221949180924
 10
1657.2052487512155
 20
-1300.4221949180924
 10
1658.0654036694041
 20
-1297.7857819173935
 42
-0.0005863560648369
 10
1658.1021383475804
 20
-1297.6689554971874
 10
1658.178226181268
 20
-1297.4279631977163
 42
-0.0087522378924718
 10
1658.3776943247281
 20
-1296.8326871105608
 10
1658.4699586001402
 20
-1296.5725469420515
 42
-0.0077400953830751
 10
1658.7278922592693
 20
-1295.8795422645085
 10
1658.7436572308584
 20
-1295.8391113810962
 42
-0.0082369946326237
 10
1658.9907417014601
 20
-1295.2350323149267
 42
-0.008572523836312
 10
1659.2579877974654
 20
-1294.6396062756346
 10
1659.3596173984697
 20
-1294.4231851736565
 42
-0.0168109410598061
 10
1659.6465618272005
 20
-1293.8619776475502
 10
1659.7724052175431
 20
-1293.6350136147623
 42
-0.000781772686992
 10
1659.8266895677161
 20
-1293.5374693695217
 10
1659.8268178737171
 20
-1293.5372396608145
 42
-0.0036626142168776
 10
1659.8817057377546
 20
-1293.4406417808168
 42
-0.0080221150672031
 10
1659.9388299931609
 20
-1293.3453625460645
 10
1659.9695299445225
 20
-1293.2959715969419
 42
-0.0202139325578509
 10
1660.0971856843271
 20
-1293.1079899962633
 10
1660.1512531495168
 20
-1293.0349111320195
 42
-0.024932379179833
 10
1660.4104159432377
 20
-1292.7188658898633
 10
1660.4345557573631
 20
-1292.6922516169525
 42
-0.0242132121536735
 10
1660.7742364989017
 20
-1292.3523681307515
 10
1660.822148071662
 20
-1292.3088589945569
 42
-0.0251017527853458
 10
1661.1061297722965
 20
-1292.0758662487979
 10
1661.107575249101
 20
-1292.0747969912256
 42
-0.0130868069043075
 10
1661.4058358990676
 20
-1291.8660165226763
 10
1661.4073977182088
 20
-1291.8649830824022
 42
-0.0290329526390538
 10
1661.7185088596036
 20
-1291.6841575807721
 10
1661.7483544215968
 20
-1291.6690551979289
 42
-0.0160250190044594
 10
1662.0142588353542
 20
-1291.545039087719
 42
-0.0267600374777982
 10
1662.2895349128241
 20
-1291.4442907671701
 10
1662.3162708323439
 20
-1291.4360982083449
 42
-0.0049981587669942
 10
1662.3714439776309
 20
-1291.4197930080325
 42
-0.0049981587669942
  0
LWPOLYLINE
  5
4F
100
AcDbEntity
  8
0
370
              15
390
0
  6
Continuous
 62
               7
100
AcDbPolyline
 90
      118
 70
             128
 10
1682.1858115420778
 20
-1300.4961782459197
 10
1684.0609334665774
 20
-1300.4961782459197
 10
1683.2228945609772
 20
-1303.1777447723198
 42
-0.0010587229216207
 10
1683.2543503765548
 20
-1303.1408402389577
 10
1683.3125444671814
 20
-1303.0728579827887
 42
-0.0071874740408392
 10
1683.4629196852754
 20
-1302.9022172907639
 10
1683.6046424585415
 20
-1302.7459811494464
 42
-0.0148118053510019
 10
1684.054771751262
 20
-1302.2783673034257
 10
1684.1419940861604
 20
-1302.1929699825757
 42
-0.0086273358689484
 10
1684.4775428871644
 20
-1301.8755943485635
 10
1684.5213766033846
 20
-1301.8355447042356
 42
-0.0103138323114036
 10
1684.7794003056238
 20
-1301.6093815668921
 10
1684.8251747119518
 20
-1301.570899519631
 42
-0.0060206748560735
 10
1684.9980227760632
 20
-1301.4291048688774
 10
1685.0000539069508
 20
-1301.4274791632447
 42
-0.0067069027286464
 10
1685.1723467216116
 20
-1301.2933285294512
 10
1685.174895487555
 20
-1301.2913983595627
 42
-0.0076184352036406
 10
1685.3458007534089
 20
-1301.1660234843321
 42
-0.0089652861668738
 10
1685.5207617161525
 20
-1301.0463902239937
 10
1685.5571134362851
 20
-1301.0224790105187
 42
-0.0156916245933787
 10
1685.7530729334485
 20
-1300.9022165240422
 42
-0.0023299011061682
 10
1685.9533349774124
 20
-1300.7890385845103
 10
1685.9687191098083
 20
-1300.7804385894367
 42
-0.010766934148709
 10
1686.2029559349103
 20
-1300.6560384560869
 10
1686.2252207359843
 20
-1300.6448217061372
 42
-0.0078058045896103
 10
1686.5088108539421
 20
-1300.5074602504965
 10
1686.5187179416462
 20
-1300.5028511226303
 42
-0.0181829330472595
 10
1686.8290273462599
 20
-1300.3719873815355
 10
1686.8830827888282
 20
-1300.3514722615914
 42
-0.0208411536030332
 10
1687.2321677562791
 20
-1300.2353817990979
 10
1687.2465238564089
 20
-1300.2312633541437
 42
-0.0222799817133198
 10
1687.5752436503237
 20
-1300.1526217880041
 10
1687.5841326135615
 20
-1300.150909777419
 42
-0.0215509523883952
 10
1687.9006035818406
 20
-1300.103994088885
 10
1687.9430855428941
 20
-1300.0995565620935
 42
-0.0182545924868855
 10
1688.1771943221947
 20
-1300.0837127367031
 10
1688.2165953385354
 20
-1300.0824881916242
 42
-0.0072962856538881
 10
1688.3725182182316
 20
-1300.0799188631017
 10
1688.4016178888098
 20
-1300.079864027698
 42
-0.0059227516306571
 10
1688.4993673879485
 20
-1300.0808377394883
 10
1688.5286096053651
 20
-1300.0814755060903
 42
-0.0011833111903555
 10
1688.5678608891531
 20
-1300.0824245104018
 10
1687.7724742935457
 20
-1302.6211584555008
 42
0.014393205157343
 10
1687.7460729111949
 20
-1302.6109594854554
 10
1687.7388009387778
 20
-1302.608388266598
 42
0.0234388603471135
 10
1687.6969700728471
 20
-1302.595769030883
 10
1687.6882884099332
 20
-1302.5935880688778
 42
0.0199162742991377
 10
1687.6279995758514
 20
-1302.5809713335425
 10
1687.6071856380468
 20
-1302.5774741341143
 42
0.0293643550670446
 10
1687.5041107792865
 20
-1302.566324088461
 10
1687.4794255985673
 20
-1302.5651124714425
 42
0.021460668687038
 10
1687.3262846826144
 20
-1302.5641739110251
 10
1687.316912771797
 20
-1302.5645188225694
 42
0.0167564054187359
 10
1687.1453925806863
 20
-1302.5765958649376
 10
1687.1369327879297
 20
-1302.5774772053646
 42
0.0137677553246536
 10
1686.9495794746683
 20
-1302.6022265139075
 10
1686.9422277351568
 20
-1302.603404433876
 42
0.0118497261482014
 10
1686.7417299710555
 20
-1302.640421784065
 10
1686.7355799638085
 20
-1302.6417086467852
 42
0.0106421143890559
 10
1686.5246990765243
 20
-1302.6905410223599
 10
1686.5197902681343
 20
-1302.6917883650451
 42
0.0099746379703739
 10
1686.3013317989678
 20
-1302.751962893361
 10
1686.2397837588014
 20
-1302.7702447719905
 42
0.0191613675859925
 10
1685.9037992962913
 20
-1302.8842221522757
 10
1685.8157395235353
 20
-1302.9179090626037
 42
0.0205274080148997
 10
1685.43043275164
 20
-1303.0837374704281
 10
1685.372783469662
 20
-1303.1114054349985
 42
0.0181256912188117
 10
1685.1145065289909
 20
-1303.2470892539782
 10
1685.0615511456708
 20
-1303.2774068671965
 42
0.0140709242417689
 10
1684.9165962110485
 20
-1303.3659015406274
 10
1684.890347342427
 20
-1303.3829583593449
 42
0.0086667884403852
 10
1684.8014211808875
 20
-1303.4429610272257
 42
0.0036408192030204
 10
1684.7139879428332
 20
-1303.505141885033
 10
1684.6787610683855
 20
-1303.5305828309308
 42
0.0052260781268245
 10
1684.5225323710192
 20
-1303.6459152175464
 10
1684.506325514735
 20
-1303.6581433281831
 42
0.0050024435885235
 10
1684.3203221717001
 20
-1303.8014258964265
 10
1684.3050040151609
 20
-1303.8134719188911
 42
0.0136138710278928
 10
1684.0945627468359
 20
-1303.9884384238042
 10
1684.0608948710419
 20
-1304.0180173965186
 42
0.0172815186911075
 10
1683.7964913293827
 20
-1304.2670140691389
 10
1683.7939289835369
 20
-1304.2695998862891
 42
0.0189403857990061
 10
1683.5433471849547
 20
-1304.542405151097
 10
1683.5107156914264
 20
-1304.5807490825853
 42
0.0185044199503834
 10
1683.3187592524416
 20
-1304.8239976637137
 42
0.0088565243903277
 10
1683.1402991458115
 20
-1305.0775140838664
 10
1683.1311211661648
 20
-1305.0910554636237
 42
0.015719534722756
 10
1682.9479005598309
 20
-1305.3805776729391
 10
1682.9018176179068
 20
-1305.4587298699482
 42
0.0095451879780775
 10
1682.7367320677622
 20
-1305.7513245123168
 10
1682.7255841488304
 20
-1305.7719951844526
 42
0.0100351706252726
 10
1682.5935403996732
 20
-1306.0290507449395
 42
0.0086935915415936
 10
1682.4712092478867
 20
-1306.2908838903272
 10
1682.4678885064648
 20
-1306.2983262133157
 42
0.0072580174864116
 10
1682.3475420545265
 20
-1306.5789182048829
 10
1682.3442804212136
 20
-1306.5868382309168
 42
0.0060005122615582
 10
1682.2250797528679
 20
-1306.8864479015294
 10
1682.2218687745292
 20
-1306.8948094294265
 42
0.0049017786984816
 10
1682.1029686156696
 20
-1307.213738410037
 10
1682.0998028092813
 20
-1307.2224913472614
 42
0.003941516759841
 10
1681.9803665312356
 20
-1307.5610334096427
 10
1681.9772354285724
 20
-1307.5701366105507
 42
0.0031035838761923
 10
1681.8564306428825
 20
-1307.9285764723145
 10
1681.853320598349
 20
-1307.9379970936989
 42
0.0025070747149442
 10
1681.7304192470383
 20
-1308.3166443106277
 10
1681.6931253506082
 20
-1308.4335359758959
 42
0.0029081910284668
 10
1681.5011070527812
 20
-1309.0476996342404
 10
1681.4603038842804
 20
-1309.1809228764635
 42
0.0009266453733838
 10
1681.191886509979
 20
-1310.0631473363426
 10
1681.170999037329
 20
-1310.1322592156096
 42
-0.0005809993665472
 10
1680.8936623567338
 20
-1311.0460673222619
 10
1680.8273805584649
 20
-1311.2635522544081
 42
-0.0012018708170572
 10
1680.6803962490317
 20
-1311.7417149189423
 10
1680.6280763974535
 20
-1311.9104740598493
 42
-0.000269105961155
 10
1680.5845069162976
 20
-1312.0507416801499
 10
1677.7515510180083
 20
-1321.1398962824496
 10
1675.9335621260298
 20
-1321.1398962824496
 10
1682.1858115420778
 20
-1300.4961782459197
  0
SPLINE
  5
50
100
AcDbEntity
  8
0
370
              15
390
0
  6
Continuous
 62
               7
100
AcDbSpline
210
0.0
220
0.0
230
1.0
 70
              13
 71
               2
 72
             782
 73
             779
 74
               0
 42
0.000001
 43
0.000001
 40
0.0
 40
0.0
 40
0.0
 40
1.0
 40
1.0
 40
2.0
 40
2.0
 40
3.0
 40
3.0
 40
4.0
 40
4.0
 40
5.0
 40
5.0
 40
6.0
 40
6.0
 40
7.0
 40
7.0
 40
8.0
 40
8.0
 40
9.0
 40
9.0
 40
10.0
 40
10.0
 40
11.0
 40
11.0
 40
12.0
 40
12.0
 40
13.0
 40
13.0
 40
14.0
 40
14.0
 40
15.0
 40
15.0
 40
16.0
 40
16.0
 40
17.0
 40
17.0
 40
18.0
 40
18.0
 40
19.0
 40
19.0
 40
20.0
 40
20.0
 40
21.0
 40
21.0
 40
22.0
 40
22.0
 40
23.0
 40
23.0
 40
24.0
 40
24.0
 40
25.0
 40
25.0
 40
26.0
 40
26.0
 40
27.0
 40
27.0
 40
28.0
 40
28.0
 40
29.0
 40
29.0
 40
30.0
 40
30.0
 40
31.0
 40
31.0
 40
32.0
 40
32.0
 40
33.0
 40
33.0
 40
34.0
 40
34.0
 40
35.0
 40
35.0
 40
36.0
 40
36.0
 40
37.0
 40
37.0
 40
38.0
 40
38.0
 40
39.0
 40
39.0
 40
40.0
 40
40.0
 40
41.0
 40
41.0
 40
42.0
 40
42.0
 40
43.0
 40
43.0
 40
44.0
 40
44.0
 40
45.0
 40
45.0
 40
46.0
 40
46.0
 40
47.0
 40
47.0
 40
48.0
 40
48.0
 40
49.0
 40
49.0
 40
50.0
 40
50.0
 40
51.0
 40
51.0
 40
52.0
 40
52.0
 40
53.0
 40
53.0
 40
54.0
 40
54.0
 40
55.0
 40
55.0
 40
56.0
 40
56.0
 40
57.0
 40
57.0
 40
58.0
 40
58.0
 40
59.0
 40
59.0
 40
60.0
 40
60.0
 40
61.0
 40
61.0
 40
62.0
 40
62.0
 40
63.0
 40
63.0
 40
64.0
 40
64.0
 40
65.0
 40
65.0
 40
66.0
 40
66.0
 40
67.0
 40
67.0
 40
68.0
 40
68.0
 40
69.0
 40
69.0
 40
70.0
 40
70.0
 40
71.0
 40
71.0
 40
72.0
 40
72.0
 40
73.0
 40
73.0
 40
74.0
 40
74.0
 40
75.0
 40
75.0
 40
76.0
 40
76.0
 40
77.0
 40
77.0
 40
78.0
 40
78.0
 40
79.0
 40
79.0
 40
80.0
 40
80.0
 40
81.0
 40
81.0
 40
82.0
 40
82.0
 40
83.0
 40
83.0
 40
84.0
 40
84.0
 40
85.0
 40
85.0
 40
86.0
 40
86.0
 40
87.0
 40
87.0
 40
88.0
 40
88.0
 40
89.0
 40
89.0
 40
90.0
 40
90.0
 40
91.0
 40
91.0
 40
92.0
 40
92.0
 40
93.0
 40
93.0
 40
94.0
 40
94.0
 40
95.0
 40
95.0
 40
96.0
 40
96.0
 40
97.0
 40
97.0
 40
98.0
 40
98.0
 40
99.0
 40
99.0
 40
100.0
 40
100.0
 40
101.0
 40
101.0
 40
102.0
 40
102.0
 40
103.0
 40
103.0
 40
104.0
 40
104.0
 40
105.0
 40
105.0
 40
106.0
 40
106.0
 40
107.0
 40
107.0
 40
108.0
 40
108.0
 40
109.0
 40
109.0
 40
110.0
 40
110.0
 40
111.0
 40
111.0
 40
112.0
 40
112.0
 40
113.0
 40
113.0
 40
114.0
 40
114.0
 40
115.0
 40
115.0
 40
116.0
 40
116.0
 40
117.0
 40
117.0
 40
118.0
 40
118.0
 40
119.0
 40
119.0
 40
120.0
 40
120.0
 40
121.0
 40
121.0
 40
122.0
 40
122.0
 40
123.0
 40
123.0
 40
124.0
 40
124.0
 40
125.0
 40
125.0
 40
126.0
 40
126.0
 40
127.0
 40
127.0
 40
128.0
 40
128.0
 40
129.0
 40
129.0
 40
130.0
 40
130.0
 40
131.0
 40
131.0
 40
132.0
 40
132.0
 40
133.0
 40
133.0
 40
134.0
 40
134.0
 40
135.0
 40
135.0
 40
136.0
 40
136.0
 40
137.0
 40
137.0
 40
138.0
 40
138.0
 40
139.0
 40
139.0
 40
140.0
 40
140.0
 40
141.0
 40
141.0
 40
142.0
 40
142.0
 40
143.0
 40
143.0
 40
144.0
 40
144.0
 40
145.0
 40
145.0
 40
146.0
 40
146.0
 40
147.0
 40
147.0
 40
148.0
 40
148.0
 40
149.0
 40
149.0
 40
150.0
 40
150.0
 40
151.0
 40
151.0
 40
152.0
 40
152.0
 40
153.0
 40
153.0
 40
154.0
 40
154.0
 40
155.0
 40
155.0
 40
156.0
 40
156.0
 40
157.0
 40
157.0
 40
158.0
 40
158.0
 40
159.0
 40
159.0
 40
160.0
 40
160.0
 40
161.0
 40
161.0
 40
162.0
 40
162.0
 40
163.0
 40
163.0
 40
164.0
 40
164.0
 40
165.0
 40
165.0
 40
166.0
 40
166.0
 40
167.0
 40
167.0
 40
168.0
 40
168.0
 40
169.0
 40
169.0
 40
170.0
 40
170.0
 40
171.0
 40
171.0
 40
172.0
 40
172.0
 40
173.0
 40
173.0
 40
174.0
 40
174.0
 40
175.0
 40
175.0
 40
176.0
 40
176.0
 40
177.0
 40
177.0
 40
178.0
 40
178.0
 40
179.0
 40
179.0
 40
180.0
 40
180.0
 40
181.0
 40
181.0
 40
182.0
 40
182.0
 40
183.0
 40
183.0
 40
184.0
 40
184.0
 40
185.0
 40
185.0
 40
186.0
 40
186.0
 40
187.0
 40
187.0
 40
188.0
 40
188.0
 40
189.0
 40
189.0
 40
190.0
 40
190.0
 40
191.0
 40
191.0
 40
192.0
 40
192.0
 40
193.0
 40
193.0
 40
194.0
 40
194.0
 40
195.0
 40
195.0
 40
196.0
 40
196.0
 40
197.0
 40
197.0
 40
198.0
 40
198.0
 40
199.0
 40
199.0
 40
200.0
 40
200.0
 40
201.0
 40
201.0
 40
202.0
 40
202.0
 40
203.0
 40
203.0
 40
204.0
 40
204.0
 40
205.0
 40
205.0
 40
206.0
 40
206.0
 40
207.0
 40
207.0
 40
208.0
 40
208.0
 40
209.0
 40
209.0
 40
210.0
 40
210.0
 40
211.0
 40
211.0
 40
212.0
 40
212.0
 40
213.0
 40
213.0
 40
214.0
 40
214.0
 40
215.0
 40
215.0
 40
216.0
 40
216.0
 40
217.0
 40
217.0
 40
218.0
 40
218.0
 40
219.0
 40
219.0
 40
220.0
 40
220.0
 40
221.0
 40
221.0
 40
222.0
 40
222.0
 40
223.0
 40
223.0
 40
224.0
 40
224.0
 40
225.0
 40
225.0
 40
226.0
 40
226.0
 40
227.0
 40
227.0
 40
228.0
 40
228.0
 40
229.0
 40
229.0
 40
230.0
 40
230.0
 40
231.0
 40
231.0
 40
232.0
 40
232.0
 40
233.0
 40
233.0
 40
234.0
 40
234.0
 40
235.0
 40
235.0
 40
236.0
 40
236.0
 40
237.0
 40
237.0
 40
238.0
 40
238.0
 40
239.0
 40
239.0
 40
240.0
 40
240.0
 40
241.0
 40
241.0
 40
242.0
 40
242.0
 40
243.0
 40
243.0
 40
244.0
 40
244.0
 40
245.0
 40
245.0
 40
246.0
 40
246.0
 40
247.0
 40
247.0
 40
248.0
 40
248.0
 40
249.0
 40
249.0
 40
250.0
 40
250.0
 40
251.0
 40
251.0
 40
252.0
 40
252.0
 40
253.0
 40
253.0
 40
254.0
 40
254.0
 40
255.0
 40
255.0
 40
256.0
 40
256.0
 40
257.0
 40
257.0
 40
258.0
 40
258.0
 40
259.0
 40
259.0
 40
260.0
 40
260.0
 40
261.0
 40
261.0
 40
262.0
 40
262.0
 40
263.0
 40
263.0
 40
264.0
 40
264.0
 40
265.0
 40
265.0
 40
266.0
 40
266.0
 40
267.0
 40
267.0
 40
268.0
 40
268.0
 40
269.0
 40
269.0
 40
270.0
 40
270.0
 40
271.0
 40
271.0
 40
272.0
 40
272.0
 40
273.0
 40
273.0
 40
274.0
 40
274.0
 40
275.0
 40
275.0
 40
276.0
 40
276.0
 40
277.0
 40
277.0
 40
278.0
 40
278.0
 40
279.0
 40
279.0
 40
280.0
 40
280.0
 40
281.0
 40
281.0
 40
282.0
 40
282.0
 40
283.0
 40
283.0
 40
284.0
 40
284.0
 40
285.0
 40
285.0
 40
286.0
 40
286.0
 40
287.0
 40
287.0
 40
288.0
 40
288.0
 40
289.0
 40
289.0
 40
290.0
 40
290.0
 40
291.0
 40
291.0
 40
292.0
 40
292.0
 40
293.0
 40
293.0
 40
294.0
 40
294.0
 40
295.0
 40
295.0
 40
296.0
 40
296.0
 40
297.0
 40
297.0
 40
298.0
 40
298.0
 40
299.0
 40
299.0
 40
300.0
 40
300.0
 40
301.0
 40
301.0
 40
302.0
 40
302.0
 40
303.0
 40
303.0
 40
304.0
 40
304.0
 40
305.0
 40
305.0
 40
306.0
 40
306.0
 40
307.0
 40
307.0
 40
308.0
 40
308.0
 40
309.0
 40
309.0
 40
310.0
 40
310.0
 40
311.0
 40
311.0
 40
312.0
 40
312.0
 40
313.0
 40
313.0
 40
314.0
 40
314.0
 40
315.0
 40
315.0
 40
316.0
 40
316.0
 40
317.0
 40
317.0
 40
318.0
 40
318.0
 40
319.0
 40
319.0
 40
320.0
 40
320.0
 40
321.0
 40
321.0
 40
322.0
 40
322.0
 40
323.0
 40
323.0
 40
324.0
 40
324.0
 40
325.0
 40
325.0
 40
326.0
 40
326.0
 40
327.0
 40
327.0
 40
328.0
 40
328.0
 40
329.0
 40
329.0
 40
330.0
 40
330.0
 40
331.0
 40
331.0
 40
332.0
 40
332.0
 40
333.0
 40
333.0
 40
334.0
 40
334.0
 40
335.0
 40
335.0
 40
336.0
 40
336.0
 40
337.0
 40
337.0
 40
338.0
 40
338.0
 40
339.0
 40
339.0
 40
340.0
 40
340.0
 40
341.0
 40
341.0
 40
342.0
 40
342.0
 40
343.0
 40
343.0
 40
344.0
 40
344.0
 40
345.0
 40
345.0
 40
346.0
 40
346.0
 40
347.0
 40
347.0
 40
348.0
 40
348.0
 40
349.0
 40
349.0
 40
350.0
 40
350.0
 40
351.0
 40
351.0
 40
352.0
 40
352.0
 40
353.0
 40
353.0
 40
354.0
 40
354.0
 40
355.0
 40
355.0
 40
356.0
 40
356.0
 40
357.0
 40
357.0
 40
358.0
 40
358.0
 40
359.0
 40
359.0
 40
360.0
 40
360.0
 40
361.0
 40
361.0
 40
362.0
 40
362.0
 40
363.0
 40
363.0
 40
364.0
 40
364.0
 40
365.0
 40
365.0
 40
366.0
 40
366.0
 40
367.0
 40
367.0
 40
368.0
 40
368.0
 40
369.0
 40
369.0
 40
370.0
 40
370.0
 40
371.0
 40
371.0
 40
372.0
 40
372.0
 40
373.0
 40
373.0
 40
374.0
 40
374.0
 40
375.0
 40
375.0
 40
376.0
 40
376.0
 40
377.0
 40
377.0
 40
378.0
 40
378.0
 40
379.0
 40
379.0
 40
380.0
 40
380.0
 40
381.0
 40
381.0
 40
382.0
 40
382.0
 40
383.0
 40
383.0
 40
384.0
 40
384.0
 40
385.0
 40
385.0
 40
386.0
 40
386.0
 40
387.0
 40
387.0
 40
388.0
 40
388.0
 40
389.0
 40
389.0
 40
389.0
 10
1692.5145159928104
 20
-1300.4852518825573
 30
0.0
 41
1.0
 10
1693.3329401015308
 20
-1300.4852518825573
 30
0.0
 41
1.0
 10
1694.1513642102514
 20
-1300.4852518825573
 30
0.0
 41
1.0
 10
1693.7376104747345
 20
-1301.8278781468071
 30
0.0
 41
1.0
 10
1693.3238567392177
 20
-1303.1705044110568
 30
0.0
 41
1.0
 10
1693.3421962343805
 20
-1303.1418036381533
 30
0.0
 41
0.9999957264419374
 10
1693.360703231207
 20
-1303.1132105880092
 30
0.0
 41
1.0
 10
1693.391132555349
 20
-1303.0661977096261
 30
0.0
 41
1.0
 10
1693.421561879491
 20
-1303.0191848312429
 30
0.0
 41
1.0
 10
1693.5009275245943
 20
-1302.8965660243432
 30
0.0
 41
0.9995394069081458
 10
1693.587585916144
 20
-1302.7789879626048
 30
0.0
 41
1.0
 10
1693.6233427784073
 20
-1302.7304730700062
 30
0.0
 41
1.0
 10
1693.6590996406708
 20
-1302.6819581774078
 30
0.0
 41
1.0
 10
1693.7928263084877
 20
-1302.5005179022828
 30
0.0
 41
0.9994460617143285
 10
1693.9383267897747
 20
-1302.3283755046346
 30
0.0
 41
1.0
 10
1693.942714970751
 20
-1302.3231838242505
 30
0.0
 41
1.0
 10
1693.9471031517273
 20
-1302.3179921438661
 30
0.0
 41
1.0
 10
1694.0838272710639
 20
-1302.1562331069833
 30
0.0
 41
0.9994359394934701
 10
1694.2311015014141
 20
-1302.0040169058202
 30
0.0
 41
1.0
 10
1694.2334848553678
 20
-1302.0015535754465
 30
0.0
 41
1.0
 10
1694.2358682093218
 20
-1301.9990902450727
 30
0.0
 41
1.0
 10
1694.3783757317656
 20
-1301.8518007046555
 30
0.0
 41
0.9995293688568027
 10
1694.5296474127476
 20
-1301.7135274924913
 30
0.0
 41
1.0
 10
1694.548941172013
 20
-1301.6958916068384
 30
0.0
 41
1.0
 10
1694.5682349312783
 20
-1301.6782557211852
 30
0.0
 41
1.0
 10
1694.6809190937329
 20
-1301.5752542803248
 30
0.0
 41
0.9997087614803923
 10
1694.7984419826848
 20
-1301.4778099995294
 30
0.0
 41
1.0
 10
1694.8176080558628
 20
-1301.4619184210194
 30
0.0
 41
1.0
 10
1694.836774129041
 20
-1301.4460268425094
 30
0.0
 41
1.0
 10
1694.9159648716429
 20
-1301.3803657187293
 30
0.0
 41
0.9999595338692835
 10
1694.9963241424953
 20
-1301.3161399880764
 30
0.0
 41
1.0
 10
1695.0766834133526
 20
-1301.2519142574197
 30
0.0
 41
0.9999749417501636
 10
1695.1579439476998
 20
-1301.1888327034706
 30
0.0
 41
1.0
 10
1695.1789300938494
 20
-1301.1725414161788
 30
0.0
 41
1.0
 10
1695.1999162399993
 20
-1301.156250128887
 30
0.0
 41
1.0
 10
1695.2844841253113
 20
-1301.0906011190377
 30
0.0
 41
0.9999792037118015
 10
1695.3698917250963
 20
-1301.0260483373827
 30
0.0
 41
1.0
 10
1695.3907165510434
 20
-1301.0103085150979
 30
0.0
 41
1.0
 10
1695.4115413769905
 20
-1300.9945686928131
 30
0.0
 41
1.0
 10
1695.4552993248983
 20
-1300.9614955557145
 30
0.0
 41
0.999999337374325
 10
1695.4989810110089
 20
-1300.9283217603149
 30
0.0
 41
1.0
 10
1695.5426626971434
 20
-1300.895147964897
 30
0.0
 41
0.999916095381361
 10
1695.5871891080553
 20
-1300.8631168997049
 30
0.0
 41
1.0
 10
1695.620010995483
 20
-1300.8395057441139
 30
0.0
 41
1.0
 10
1695.6528328829106
 20
-1300.815894588523
 30
0.0
 41
1.0
 10
1695.7630030686719
 20
-1300.7366412121532
 30
0.0
 41
0.9980964527232465
 10
1695.8820920621752
 20
-1300.6715537392959
 30
0.0
 41
1.0
 10
1695.9191246690998
 20
-1300.6513137597046
 30
0.0
 41
1.0
 10
1695.9561572760244
 20
-1300.6310737801134
 30
0.0
 41
1.0
 10
1696.1354842892981
 20
-1300.5330635294117
 30
0.0
 41
0.9984572810572453
 10
1696.3245728556578
 20
-1300.4555412680652
 30
0.0
 41
1.0
 10
1696.3282191250519
 20
-1300.454046375728
 30
0.0
 41
1.0
 10
1696.3318653944461
 20
-1300.4525514833906
 30
0.0
 41
1.0
 10
1696.513661422015
 20
-1300.3780190067193
 30
0.0
 41
0.998783852803373
 10
1696.701914080576
 20
-1300.3217533665529
 30
0.0
 41
1.0
 10
1696.7061520297773
 20
-1300.320486712862
 30
0.0
 41
1.0
 10
1696.7103899789786
 20
-1300.3192200591709
 30
0.0
 41
1.0
 10
1696.8901667391378
 20
-1300.2654877263865
 30
0.0
 41
0.9990652816207231
 10
1697.0739126708511
 20
-1300.2274840468451
 30
0.0
 41
1.0
 10
1697.0791010718799
 20
-1300.2264109437392
 30
0.0
 41
1.0
 10
1697.0842894729085
 20
-1300.2253378406333
 30
0.0
 41
1.0
 10
1697.2576586025646
 20
-1300.1894803673033
 30
0.0
 41
0.9992909934270269
 10
1697.4332343690253
 20
-1300.1667699348366
 30
0.0
 41
1.0
 10
1697.608810135484
 20
-1300.1440595023701
 30
0.0
 41
0.9994553539448761
 10
1697.7855015685775
 20
-1300.1329801981638
 30
0.0
 41
1.0
 10
1697.8209359763732
 20
-1300.1307583101161
 30
0.0
 41
1.0
 10
1697.8563703841689
 20
-1300.1285364220682
 30
0.0
 41
1.0
 10
1698.0225961507385
 20
-1300.1181133596565
 30
0.0
 41
0.9990928098292873
 10
1698.1891059426403
 20
-1300.1218730008909
 30
0.0
 41
1.0
 10
1698.2276677779103
 20
-1300.1227436924239
 30
0.0
 41
1.0
 10
1698.2662296131803
 20
-1300.1236143839569
 30
0.0
 41
1.0
 10
1698.3556157345408
 20
-1300.1256326421255
 30
0.0
 41
0.9998382089205363
 10
1698.4448714173291
 20
-1300.1308647686537
 30
0.0
 41
1.0
 10
1698.4453013235466
 20
-1300.1308899695559
 30
0.0
 41
1.0
 10
1698.4457312297643
 20
-1300.1309151704579
 30
0.0
 41
1.0
 10
1698.5341271001132
 20
-1300.1360968951815
 30
0.0
 41
0.9997558016757885
 10
1698.6222076773161
 20
-1300.1451794105483
 30
0.0
 41
1.0
 10
1698.6226838157427
 20
-1300.1452285080304
 30
0.0
 41
1.0
 10
1698.6231599541695
 20
-1300.1452776055128
 30
0.0
 41
1.0
 10
1698.7102882545141
 20
-1300.1542619259142
 30
0.0
 41
0.9996565144181364
 10
1698.796826107859
 20
-1300.1677992326036
 30
0.0
 41
1.0
 10
1698.7972920332356
 20
-1300.1678721183348
 30
0.0
 41
1.0
 10
1698.7977579586122
 20
-1300.167945004066
 30
0.0
 41
1.0
 10
1698.8833639612001
 20
-1300.1813365392925
 30
0.0
 41
0.9995321806866604
 10
1698.9679910415289
 20
-1300.1999370277219
 30
0.0
 41
1.0
 10
1698.9683802361005
 20
-1300.2000225701877
 30
0.0
 41
1.0
 10
1698.9687694306722
 20
-1300.2001081126537
 30
0.0
 41
1.0
 10
1699.0526181218568
 20
-1300.2185375161512
 30
0.0
 41
0.9993819199219525
 10
1699.1349646560529
 20
-1300.242812899412
 30
0.0
 41
1.0
 10
1699.1352030895512
 20
-1300.2428831885213
 30
0.0
 41
1.0
 10
1699.1354415230494
 20
-1300.2429534776309
 30
0.0
 41
1.0
 10
1699.2173111902493
 20
-1300.2670882826726
 30
0.0
 41
0.9992088568505018
 10
1699.2970037092375
 20
-1300.2976535184671
 30
0.0
 41
1.0
 10
1699.3766847001168
 20
-1300.3282131192002
 30
0.0
 41
0.999022610177273
 10
1699.4533553700237
 20
-1300.3656905508146
 30
0.0
 41
1.0
 10
1699.5300145118217
 20
-1300.4031623473682
 30
0.0
 41
0.9988424273972502
 10
1699.6027181390336
 20
-1300.447827122621
 30
0.0
 41
1.0
 10
1699.602985847413
 20
-1300.4479915866932
 30
0.0
 41
1.0
 10
1699.6032535557927
 20
-1300.4481560507656
 30
0.0
 41
1.0
 10
1699.6764925997634
 20
-1300.4931497541627
 30
0.0
 41
0.9986928844490851
 10
1699.744755466473
 20
-1300.5453854884422
 30
0.0
 41
1.0
 10
1699.7453367586959
 20
-1300.5458303016703
 30
0.0
 41
1.0
 10
1699.745918050919
 20
-1300.5462751148984
 30
0.0
 41
1.0
 10
1699.8153435020738
 20
-1300.5994004756333
 30
0.0
 41
0.9986007262277487
 10
1699.8787696718398
 20
-1300.6595612453264
 30
0.0
 41
1.0
 10
1699.8796640872974
 20
-1300.6604096131618
 30
0.0
 41
1.0
 10
1699.8805585027553
 20
-1300.6612579809976
 30
0.0
 41
1.0
 10
1699.9457735034368
 20
-1300.7231154863616
 30
0.0
 41
0.9985581491381222
 10
1700.0039811151394
 20
-1300.7916079766339
 30
0.0
 41
1.0
 10
1700.0132395687347
 20
-1300.8025023343353
 30
0.0
 41
1.0
 10
1700.02249802233
 20
-1300.8133966920363
 30
0.0
 41
1.0
 10
1700.0992225412231
 20
-1300.9036778977108
 30
0.0
 41
0.9970460233519759
 10
1700.1612144423827
 20
-1301.0046449818931
 30
0.0
 41
1.0
 10
1700.1756838074621
 20
-1301.0282114409742
 30
0.0
 41
1.0
 10
1700.1901531725416
 20
-1301.0517779000552
 30
0.0
 41
1.0
 10
1700.2298898725539
 20
-1301.1164976240873
 30
0.0
 41
0.9988468816637
 10
1700.2632362433053
 20
-1301.1847300765148
 30
0.0
 41
1.0
 10
1700.2702722657964
 20
-1301.1991269976515
 30
0.0
 41
1.0
 10
1700.2773082882875
 20
-1301.213523918788
 30
0.0
 41
1.0
 10
1700.2965826140562
 20
-1301.2529625289412
 30
0.0
 41
0.9998431189997371
 10
1700.3144479415519
 20
-1301.2930590833832
 30
0.0
 41
1.0
 10
1700.3323132690723
 20
-1301.3331556378812
 30
0.0
 41
0.9999989989864182
 10
1700.350291992524
 20
-1301.373201475531
 30
0.0
 41
1.0
 10
1700.3564643040907
 20
-1301.3869496922821
 30
0.0
 41
1.0
 10
1700.3626366156573
 20
-1301.4006979090332
 30
0.0
 41
1.0
 10
1700.3929599622656
 20
-1301.468240180237
 30
0.0
 41
0.9998790356322381
 10
1700.4211678424022
 20
-1301.5366929321701
 30
0.0
 41
1.0
 10
1700.4280030236885
 20
-1301.5532800336023
 30
0.0
 41
1.0
 10
1700.4348382049748
 20
-1301.5698671350344
 30
0.0
 41
1.0
 10
1700.4583958673547
 20
-1301.6270350899197
 30
0.0
 41
0.9998227574561573
 10
1700.4797846157439
 20
-1301.685049398197
 30
0.0
 41
1.0
 10
1700.5011733641336
 20
-1301.7430637064749
 30
0.0
 41
0.9996797971041462
 10
1700.5195996490927
 20
-1301.8020858255936
 30
0.0
 41
1.0
 10
1700.5235034518182
 20
-1301.8145902837621
 30
0.0
 41
1.0
 10
1700.5274072545435
 20
-1301.8270947419305
 30
0.0
 41
1.0
 10
1700.5536411449539
 20
-1301.9111257773868
 30
0.0
 41
0.9979274938734268
 10
1700.5688656684331
 20
-1301.997830136047
 30
0.0
 41
1.0
 10
1700.5710893556952
 20
-1302.0104941368727
 30
0.0
 41
1.0
 10
1700.5733130429571
 20
-1302.0231581376981
 30
0.0
 41
1.0
 10
1700.5842429826544
 20
-1302.085404644984
 30
0.0
 41
0.9994985982137581
 10
1700.5912111478308
 20
-1302.1482181461215
 30
0.0
 41
1.0
 10
1700.5981793130077
 20
-1302.2110316472626
 30
0.0
 41
0.9996372611201518
 10
1700.6017551787754
 20
-1302.2741292259448
 30
0.0
 41
1.0
 10
1700.6019237562648
 20
-1302.2771038430274
 30
0.0
 41
1.0
 10
1700.6020923337542
 20
-1302.28007846011
 30
0.0
 41
1.0
 10
1700.6060053545004
 20
-1302.3491252729546
 30
0.0
 41
0.9997730630736086
 10
1700.6069736679883
 20
-1302.4182760969868
 30
0.0
 41
1.0
 10
1700.6070307744064
 20
-1302.4223542761304
 30
0.0
 41
1.0
 10
1700.6070878808246
 20
-1302.4264324552739
 30
0.0
 41
1.0
 10
1700.6081704071494
 20
-1302.5037396375701
 30
0.0
 41
0.9998772614069985
 10
1700.6068303204181
 20
-1302.5810427841127
 30
0.0
 41
1.0
 10
1700.6067410572191
 20
-1302.5861919479694
 30
0.0
 41
1.0
 10
1700.6066517940199
 20
-1302.5913411118261
 30
0.0
 41
1.0
 10
1700.6051331808908
 20
-1302.6789425860552
 30
0.0
 41
0.9999415567325194
 10
1700.6017208706448
 20
-1302.7664907477249
 30
0.0
 41
1.0
 10
1700.6014795499693
 20
-1302.7726822074674
 30
0.0
 41
1.0
 10
1700.6012382292938
 20
-1302.7788736672101
 30
0.0
 41
1.0
 10
1700.5973432776968
 20
-1302.8788047483686
 30
0.0
 41
0.9999716810425638
 10
1700.5919446945779
 20
-1302.9786658866044
 30
0.0
 41
1.0
 10
1700.5887318957894
 20
-1303.038095136259
 30
0.0
 41
1.0
 10
1700.5855190970008
 20
-1303.0975243859136
 30
0.0
 41
1.0
 10
1700.5774451878483
 20
-1303.2468727871892
 30
0.0
 41
0.9999819129919093
 10
1700.5675753962321
 20
-1303.3961132648956
 30
0.0
 41
1.0
 10
1700.5577056046154
 20
-1303.5453537426069
 30
0.0
 41
1.0
 10
1700.5552662840514
 20
-1303.5825467884563
 30
0.0
 41
1.0
 10
1700.5779645178413
 20
-1303.5438057911965
 30
0.0
 41
0.9999982128224149
 10
1700.6008090765652
 20
-1303.505150897292
 30
0.0
 41
1.0
 10
1700.6277186364864
 20
-1303.4596176831751
 30
0.0
 41
1.0
 10
1700.6546281964077
 20
-1303.4140844690583
 30
0.0
 41
1.0
 10
1700.7312918749381
 20
-1303.2843631469816
 30
0.0
 41
0.9998609190059127
 10
1700.8122391878055
 20
-1303.1572707650432
 30
0.0
 41
1.0
 10
1700.8418875092834
 20
-1303.110721032092
 30
0.0
 41
1.0
 10
1700.8715358307611
 20
-1303.0641712991408
 30
0.0
 41
1.0
 10
1700.9538080509978
 20
-1302.9349987291471
 30
0.0
 41
0.9999067609735193
 10
1701.03957706046
 20
-1302.8081210397086
 30
0.0
 41
1.0
 10
1701.0419817636578
 20
-1302.8045637736586
 30
0.0
 41
1.0
 10
1701.0443864668555
 20
-1302.8010065076085
 30
0.0
 41
1.0
 10
1701.1253460699199
 20
-1302.6812433502728
 30
0.0
 41
0.9998784952150411
 10
1701.2099996796053
 20
-1302.5640621335583
 30
0.0
 41
1.0
 10
1701.2946532892927
 20
-1302.4468809168418
 30
0.0
 41
0.9998532968283956
 10
1701.3832709101212
 20
-1302.3326680083637
 30
0.0
 41
1.0
 10
1701.4032326991064
 20
-1302.3069406873515
 30
0.0
 41
1.0
 10
1701.4231944880914
 20
-1302.281213366339
 30
0.0
 41
1.0
 10
1701.5416785378502
 20
-1302.1285077553705
 30
0.0
 41
0.9991551975795167
 10
1701.6723029874738
 20
-1301.9860481932869
 30
0.0
 41
1.0
 10
1701.6758126034536
 20
-1301.9822205916626
 30
0.0
 41
1.0
 10
1701.6793222194333
 20
-1301.9783929900382
 30
0.0
 41
1.0
 10
1701.802927437097
 20
-1301.8435886312036
 30
0.0
 41
0.9997418144180984
 10
1701.9325295767981
 20
-1301.714539220591
 30
0.0
 41
1.0
 10
1702.0621317164989
 20
-1301.5854898099783
 30
0.0
 41
0.9989238204633042
 10
1702.2031342647501
 20
-1301.4690048479395
 30
0.0
 41
1.0
 10
1702.248381942889
 20
-1301.4316248563309
 30
0.0
 41
1.0
 10
1702.293629621028
 20
-1301.3942448647226
 30
0.0
 41
1.0
 10
1702.4338696782495
 20
-1301.2783898114317
 30
0.0
 41
0.9990825084096341
 10
1702.5835096108542
 20
-1301.1749608135983
 30
0.0
 41
1.0
 10
1702.5935549749158
 20
-1301.1680176005157
 30
0.0
 41
1.0
 10
1702.6036003389775
 20
-1301.1610743874328
 30
0.0
 41
1.0
 10
1702.7331495434628
 20
-1301.0715318157622
 30
0.0
 41
0.9998164899826757
 10
1702.8660337468343
 20
-1300.987017574249
 30
0.0
 41
1.0
 10
1702.8778793073607
 20
-1300.979483807723
 30
0.0
 41
1.0
 10
1702.889724867887
 20
-1300.971950041197
 30
0.0
 41
1.0
 10
1702.9989179502113
 20
-1300.9025033327321
 30
0.0
 41
0.9997473449130927
 10
1703.1111219074601
 20
-1300.8380343749168
 30
0.0
 41
1.0
 10
1703.2233258647216
 20
-1300.7735654170945
 30
0.0
 41
0.9999327861143394
 10
1703.3369944754986
 20
-1300.7117154254056
 30
0.0
 41
1.0
 10
1703.3375464780465
 20
-1300.7114150667335
 30
0.0
 41
1.0
 10
1703.3380984805945
 20
-1300.7111147080614
 30
0.0
 41
1.0
 10
1703.4528710964782
 20
-1300.6486639990221
 30
0.0
 41
0.9996956420483
 10
1703.5705844223173
 20
-1300.591950532048
 30
0.0
 41
1.0
 10
1703.6010248272094
 20
-1300.5772845553183
 30
0.0
 41
1.0
 10
1703.6314652321014
 20
-1300.5626185785886
 30
0.0
 41
1.0
 10
1703.734442338847
 20
-1300.5130049201443
 30
0.0
 41
0.9998070570175909
 10
1703.8392887277896
 20
-1300.4674743332425
 30
0.0
 41
1.0
 10
1703.9441351167329
 20
-1300.4219437463405
 30
0.0
 41
0.9997827436147766
 10
1704.0507880533446
 20
-1300.3808225750279
 30
0.0
 41
1.0
 10
1704.070010902974
 20
-1300.3734110013963
 30
0.0
 41
1.0
 10
1704.0892337526034
 20
-1300.3659994277648
 30
0.0
 41
1.0
 10
1704.234332388477
 20
-1300.3100551091879
 30
0.0
 41
0.9988031841976853
 10
1704.3842027510823
 20
-1300.2685550450199
 30
0.0
 41
1.0
 10
1704.409119999445
 20
-1300.2616552992131
 30
0.0
 41
1.0
 10
1704.4340372478075
 20
-1300.2547555534065
 30
0.0
 41
1.0
 10
1704.6013072734543
 20
-1300.2084374109997
 30
0.0
 41
0.9984748040549916
 10
1704.7726641821032
 20
-1300.1808431787349
 30
0.0
 41
1.0
 10
1704.7774033183509
 20
-1300.1800800182216
 30
0.0
 41
1.0
 10
1704.7821424545989
 20
-1300.1793168577083
 30
0.0
 41
1.0
 10
1704.944021090751
 20
-1300.1532489464701
 30
0.0
 41
0.9984436495479981
 10
1705.1077958344767
 20
-1300.1453709926514
 30
0.0
 41
1.0
 10
1705.1294930426091
 20
-1300.1443273054515
 30
0.0
 41
1.0
 10
1705.1511902507414
 20
-1300.1432836182519
 30
0.0
 41
1.0
 10
1705.2715705782025
 20
-1300.1374930388326
 30
0.0
 41
0.998795478933554
 10
1705.3919388231116
 20
-1300.1435295665749
 30
0.0
 41
1.0
 10
1705.4119036156026
 20
-1300.1445308109132
 30
0.0
 41
1.0
 10
1705.4318684080936
 20
-1300.1455320552518
 30
0.0
 41
1.0
 10
1705.5123070680179
 20
-1300.1495660943169
 30
0.0
 41
0.9997941595876566
 10
1705.5925158461157
 20
-1300.1568601602382
 30
0.0
 41
1.0
 10
1705.6727246242135
 20
-1300.1641542261598
 30
0.0
 41
0.9998589466237922
 10
1705.7526431710721
 20
-1300.1741380806102
 30
0.0
 41
1.0
 10
1705.785049372877
 20
-1300.1781864375289
 30
0.0
 41
1.0
 10
1705.8174555746816
 20
-1300.1822347944478
 30
0.0
 41
1.0
 10
1705.9621865251522
 20
-1300.2003153627361
 30
0.0
 41
0.9993495063249411
 10
1706.105237768917
 20
-1300.2287810724777
 30
0.0
 41
1.0
 10
1706.1381714660697
 20
-1300.2353345356928
 30
0.0
 41
1.0
 10
1706.1711051632226
 20
-1300.2418879989077
 30
0.0
 41
1.0
 10
1706.2803989864271
 20
-1300.263636333043
 30
0.0
 41
0.9996788715560404
 10
1706.3884505583837
 20
-1300.290894132406
 30
0.0
 41
1.0
 10
1706.3905135609225
 20
-1300.2914145589789
 30
0.0
 41
1.0
 10
1706.3925765634615
 20
-1300.291934985552
 30
0.0
 41
1.0
 10
1706.4965021303403
 20
-1300.3181519317691
 30
0.0
 41
0.9995480654492205
 10
1706.5986643655697
 20
-1300.3505668883936
 30
0.0
 41
1.0
 10
1706.6003540076986
 20
-1300.3511029933074
 30
0.0
 41
1.0
 10
1706.6020436498272
 20
-1300.3516390982213
 30
0.0
 41
1.0
 10
1706.7008266007988
 20
-1300.3829818450179
 30
0.0
 41
0.9993867959455961
 10
1706.7971737592416
 20
-1300.4211612143076
 30
0.0
 41
1.0
 10
1706.7984167083268
 20
-1300.421653756204
 30
0.0
 41
1.0
 10
1706.7996596574119
 20
-1300.4221462981004
 30
0.0
 41
1.0
 10
1706.8935209176841
 20
-1300.4593405835974
 30
0.0
 41
0.99920502565216
 10
1706.9841205927173
 20
-1300.5038944828361
 30
0.0
 41
1.0
 10
1706.9848552754306
 20
-1300.5042557752972
 30
0.0
 41
1.0
 10
1706.9855899581437
 20
-1300.5046170677585
 30
0.0
 41
1.0
 10
1707.0747202677512
 20
-1300.5484483820751
 30
0.0
 41
0.9990222350741486
 10
1707.1596303291444
 20
-1300.5999816497733
 30
0.0
 41
1.0
 10
1707.1598142144267
 20
-1300.6000932526779
 30
0.0
 41
1.0
 10
1707.1599980997091
 20
-1300.6002048555824
 30
0.0
 41
1.0
 10
1707.2445403905378
 20
-1300.6515149174713
 30
0.0
 41
0.9988642743805215
 10
1707.323814925157
 20
-1300.7106391049967
 30
0.0
 41
1.0
 10
1707.4030894597765
 20
-1300.7697632925224
 30
0.0
 41
0.9987681233310986
 10
1707.4761132440535
 20
-1300.8364539839238
 30
0.0
 41
1.0
 10
1707.4764421720188
 20
-1300.8367543851373
 30
0.0
 41
1.0
 10
1707.476771099984
 20
-1300.837054786351
 30
0.0
 41
1.0
 10
1707.5504527401924
 20
-1300.9043462801812
 30
0.0
 41
0.9987496570899348
 10
1707.6170465455207
 20
-1300.978659094269
 30
0.0
 41
1.0
 10
1707.6178187152802
 20
-1300.9795207676259
 30
0.0
 41
1.0
 10
1707.6185908850398
 20
-1300.9803824409828
 30
0.0
 41
1.0
 10
1707.6867290298869
 20
-1301.0564186017839
 30
0.0
 41
0.9988147669827016
 10
1707.7471512841112
 20
-1301.1387196086253
 30
0.0
 41
1.0
 10
1707.7482706101896
 20
-1301.140244239979
 30
0.0
 41
1.0
 10
1707.7493899362682
 20
-1301.1417688713327
 30
0.0
 41
1.0
 10
1707.812050842648
 20
-1301.227119140879
 30
0.0
 41
0.9989452636216003
 10
1707.8666177556088
 20
-1301.3178578300358
 30
0.0
 41
1.0
 10
1707.867966481695
 20
-1301.320100611063
 30
0.0
 41
1.0
 10
1707.8693152077813
 20
-1301.3223433920903
 30
0.0
 41
1.0
 10
1707.926579572915
 20
-1301.4175676433024
 30
0.0
 41
0.9991046436071127
 10
1707.9755887862375
 20
-1301.5172920763296
 30
0.0
 41
1.0
 10
1707.9770526478267
 20
-1301.5202707564004
 30
0.0
 41
1.0
 10
1707.9785165094158
 20
-1301.5232494364709
 30
0.0
 41
1.0
 10
1708.0304534459185
 20
-1301.6289312296444
 30
0.0
 41
0.9992763831101374
 10
1708.0742065744748
 20
-1301.7382552916035
 30
0.0
 41
1.0
 10
1708.0756858441368
 20
-1301.7419514791341
 30
0.0
 41
1.0
 10
1708.0771651137991
 20
-1301.7456476666646
 30
0.0
 41
1.0
 10
1708.1238767816824
 20
-1301.8623641036929
 30
0.0
 41
0.9994163472884227
 10
1708.1625098128739
 20
-1301.9819976921622
 30
0.0
 41
1.0
 10
1708.1637479651183
 20
-1301.9858318359377
 30
0.0
 41
1.0
 10
1708.1649861173628
 20
-1301.9896659797132
 30
0.0
 41
1.0
 10
1708.2048696783809
 20
-1302.1131720411936
 30
0.0
 41
0.9997268055890831
 10
1708.2389377342934
 20
-1302.2384070731464
 30
0.0
 41
1.0
 10
1708.239867914564
 20
-1302.2418264392591
 30
0.0
 41
1.0
 10
1708.2407980948346
 20
-1302.245245805372
 30
0.0
 41
1.0
 10
1708.2730057902061
 20
-1302.3636421051008
 30
0.0
 41
0.9996701319000666
 10
1708.299091406976
 20
-1302.4835360583606
 30
0.0
 41
1.0
 10
1708.3251770237468
 20
-1302.6034300116262
 30
0.0
 41
0.9995785451109948
 10
1708.3442606010869
 20
-1302.7246357726603
 30
0.0
 41
1.0
 10
1708.3484803832603
 20
-1302.7514369274236
 30
0.0
 41
1.0
 10
1708.3527001654338
 20
-1302.7782380821866
 30
0.0
 41
1.0
 10
1708.3792751413721
 20
-1302.9470240558896
 30
0.0
 41
0.9979925101217291
 10
1708.3843007272985
 20
-1303.1178153839803
 30
0.0
 41
1.0
 10
1708.385125539723
 20
-1303.1458461074608
 30
0.0
 41
1.0
 10
1708.3859503521478
 20
-1303.173876830941
 30
0.0
 41
1.0
 10
1708.389326313225
 20
-1303.2886067120705
 30
0.0
 41
0.999531490226283
 10
1708.3856761210864
 20
-1303.4033281958241
 30
0.0
 41
1.0
 10
1708.382025928948
 20
-1303.5180496795729
 30
0.0
 41
0.9996245486944247
 10
1708.3720968338173
 20
-1303.6323989506946
 30
0.0
 41
1.0
 10
1708.3719337858229
 20
-1303.6342767068325
 30
0.0
 41
1.0
 10
1708.3717707378285
 20
-1303.6361544629704
 30
0.0
 41
1.0
 10
1708.3615155467082
 20
-1303.7542592463708
 30
0.0
 41
0.999728609500103
 10
1708.3457702231362
 20
-1303.8717581552698
 30
0.0
 41
1.0
 10
1708.3453767304866
 20
-1303.8746945799667
 30
0.0
 41
1.0
 10
1708.3449832378369
 20
-1303.8776310046633
 30
0.0
 41
1.0
 10
1708.3284509289649
 20
-1304.0010027629614
 30
0.0
 41
0.9998265533968774
 10
1708.3073354702324
 20
-1304.1236732377495
 30
0.0
 41
1.0
 10
1708.3066589280952
 20
-1304.1276036162571
 30
0.0
 41
1.0
 10
1708.305982385958
 20
-1304.1315339947651
 30
0.0
 41
1.0
 10
1708.2835138429502
 20
-1304.2620652265721
 30
0.0
 41
0.9999022530852961
 10
1708.25740437834
 20
-1304.3919171952127
 30
0.0
 41
1.0
 10
1708.2564257371751
 20
-1304.3967843375972
 30
0.0
 41
1.0
 10
1708.2554470960104
 20
-1304.4016514799816
 30
0.0
 41
1.0
 10
1708.2273803490691
 20
-1304.5412377333976
 30
0.0
 41
0.9999524761937803
 10
1708.1965973802339
 20
-1304.6802502265641
 30
0.0
 41
1.0
 10
1708.1953212730591
 20
-1304.6860129858642
 30
0.0
 41
1.0
 10
1708.1940451658841
 20
-1304.6917757451643
 30
0.0
 41
1.0
 10
1708.1607099827006
 20
-1304.8423137569234
 30
0.0
 41
0.9999813588729375
 10
1708.1255389819069
 20
-1304.9924334695711
 30
0.0
 41
1.0
 10
1708.1239850564482
 20
-1304.9990660600024
 30
0.0
 41
1.0
 10
1708.1224311309895
 20
-1305.0056986504339
 30
0.0
 41
1.0
 10
1708.0841522792689
 20
-1305.1690835439827
 30
0.0
 41
0.99999552376908
 10
1708.0448964012769
 20
-1305.3322364476376
 30
0.0
 41
1.0
 10
1708.0326147656542
 20
-1305.3832806381124
 30
0.0
 41
1.0
 10
1708.0203331300313
 20
-1305.4343248285873
 30
0.0
 41
1.0
 10
1707.9565139808246
 20
-1305.6995661130636
 30
0.0
 41
0.9999993604546164
 10
1707.8920950336885
 20
-1305.9646623636174
 30
0.0
 41
1.0
 10
1707.8873761981042
 20
-1305.9840812718112
 30
0.0
 41
1.0
 10
1707.8826573625199
 20
-1306.0035001800047
 30
0.0
 41
1.0
 10
1707.808800744258
 20
-1306.3074342467689
 30
0.0
 41
0.9999659914733596
 10
1707.7299411483716
 20
-1306.6101087933328
 30
0.0
 41
1.0
 10
1707.7249884594421
 20
-1306.6291179305103
 30
0.0
 41
1.0
 10
1707.7200357705128
 20
-1306.6481270676877
 30
0.0
 41
1.0
 10
1707.6312707967663
 20
-1306.988819888611
 30
0.0
 41
0.9999441976024687
 10
1707.535327763801
 20
-1307.3275613139169
 30
0.0
 41
1.0
 10
1707.518627245377
 20
-1307.3865250264389
 30
0.0
 41
1.0
 10
1707.5019267269529
 20
-1307.4454887389611
 30
0.0
 41
1.0
 10
1707.3725826571392
 20
-1307.9021575893121
 30
0.0
 41
0.9999625120735568
 10
1707.2353498898169
 20
-1308.3565181233046
 30
0.0
 41
1.0
 10
1707.1995599467293
 20
-1308.4750141499471
 30
0.0
 41
1.0
 10
1707.1637700036417
 20
-1308.5935101765895
 30
0.0
 41
1.0
 10
1707.0892497996047
 20
-1308.840237254678
 30
0.0
 41
0.9999793386313085
 10
1707.0115637764702
 20
-1309.0859858939039
 30
0.0
 41
1.0
 10
1706.9338777533328
 20
-1309.33173453314
 30
0.0
 41
1.0
 10
1706.923098194462
 20
-1309.3657524375146
 30
0.0
 41
1.0
 10
1705.0727251411929
 20
-1315.2528243599822
 30
0.0
 41
1.0
 10
1703.2223520879238
 20
-1321.1398962824496
 30
0.0
 41
1.0
 10
1702.2610953979001
 20
-1321.1398962824496
 30
0.0
 41
1.0
 10
1701.2998387078767
 20
-1321.1398962824496
 30
0.0
 41
1.0
 10
1702.9187834865552
 20
-1315.9918677806602
 30
0.0
 41
1.0
 10
1704.5377282652335
 20
-1310.8438392788707
 30
0.0
 41
1.0
 10
1704.5828940884078
 20
-1310.6998080566007
 30
0.0
 41
1.0
 10
1704.6280599115821
 20
-1310.5557768343306
 30
0.0
 41
1.0
 10
1704.7983643289456
 20
-1310.0126858051663
 30
0.0
 41
0.9999911657914826
 10
1704.9640971406252
 20
-1309.4681822738048
 30
0.0
 41
1.0
 10
1704.993793084127
 20
-1309.3706183337504
 30
0.0
 41
1.0
 10
1705.0234890276286
 20
-1309.2730543936957
 30
0.0
 41
1.0
 10
1705.1298299523055
 20
-1308.9236787424406
 30
0.0
 41
0.9999952428148691
 10
1705.2340135416302
 20
-1308.5736537180915
 30
0.0
 41
1.0
 10
1705.2390730119637
 20
-1308.5566554438128
 30
0.0
 41
1.0
 10
1705.2441324822973
 20
-1308.5396571695339
 30
0.0
 41
1.0
 10
1705.338197130958
 20
-1308.2236286937332
 30
0.0
 41
0.9999931687538798
 10
1705.429922968829
 20
-1307.9069134804715
 30
0.0
 41
1.0
 10
1705.4348582332946
 20
-1307.8898727711799
 30
0.0
 41
1.0
 10
1705.4397934977601
 20
-1307.8728320618884
 30
0.0
 41
1.0
 10
1705.5216488067083
 20
-1307.5901982671812
 30
0.0
 41
0.9999893840805374
 10
1705.6008960331594
 20
-1307.3068221379544
 30
0.0
 41
1.0
 10
1705.680143259618
 20
-1307.0234460087022
 30
0.0
 41
0.9999833980081605
 10
1705.7561195003584
 20
-1306.7391754256776
 30
0.0
 41
1.0
 10
1705.7651234370801
 20
-1306.7054865472019
 30
0.0
 41
1.0
 10
1705.7741273738015
 20
-1306.671797668726
 30
0.0
 41
1.0
 10
1705.8430919226687
 20
-1306.4137618364266
 30
0.0
 41
0.9999233658065895
 10
1705.9056468938898
 20
-1306.1540976777014
 30
0.0
 41
1.0
 10
1705.9682018651101
 20
-1305.894433518979
 30
0.0
 41
1.0
 10
1706.0076852839677
 20
-1305.7306268545528
 30
0.0
 41
1.0
 10
1706.0126638879415
 20
-1305.7099718926966
 30
0.0
 41
1.0
 10
1706.0176424919155
 20
-1305.6893169308403
 30
0.0
 41
1.0
 10
1706.0471687028225
 20
-1305.5668201901381
 30
0.0
 41
0.9999868670866369
 10
1706.0754377868213
 20
-1305.4440272444813
 30
0.0
 41
1.0
 10
1706.0793352739784
 20
-1305.4270976570674
 30
0.0
 41
1.0
 10
1706.0832327611354
 20
-1305.4101680696535
 30
0.0
 41
1.0
 10
1706.103706870816
 20
-1305.3212342988418
 30
0.0
 41
0.9999778173352936
 10
1706.122994468933
 20
-1305.2320356816053
 30
0.0
 41
1.0
 10
1706.1422820670527
 20
-1305.1428370643544
 30
0.0
 41
0.9999602692863289
 10
1706.1599764256885
 20
-1305.0533087759022
 30
0.0
 41
1.0
 10
1706.1631802577615
 20
-1305.0370983210396
 30
0.0
 41
1.0
 10
1706.1663840898345
 20
-1305.0208878661772
 30
0.0
 41
1.0
 10
1706.1904861126206
 20
-1304.8989386679784
 30
0.0
 41
0.9995617985320604
 10
1706.2073294598395
 20
-1304.7757769202722
 30
0.0
 41
1.0
 10
1706.2097939497455
 20
-1304.7577561029075
 30
0.0
 41
1.0
 10
1706.2122584396516
 20
-1304.7397352855428
 30
0.0
 41
1.0
 10
1706.2325417007
 20
-1304.5914202358415
 30
0.0
 41
0.9991121410639616
 10
1706.2402670542883
 20
-1304.4419241370347
 30
0.0
 41
1.0
 10
1706.2411858443129
 20
-1304.4241443004585
 30
0.0
 41
1.0
 10
1706.2421046343375
 20
-1304.4063644638823
 30
0.0
 41
1.0
 10
1706.2479924078766
 20
-1304.2924280382285
 30
0.0
 41
0.9989792494905353
 10
1706.2435733157592
 20
-1304.1784252023303
 30
0.0
 41
1.0
 10
1706.2429253438909
 20
-1304.1617089564061
 30
0.0
 41
1.0
 10
1706.2422773720223
 20
-1304.144992710482
 30
0.0
 41
1.0
 10
1706.2391542236419
 20
-1304.0644223664347
 30
0.0
 41
0.9997820295394012
 10
1706.2326702262662
 20
-1303.9840526446878
 30
0.0
 41
1.0
 10
1706.2261862288901
 20
-1303.9036829229387
 30
0.0
 41
0.9998335105972911
 10
1706.2167740333778
 20
-1303.8236033064838
 30
0.0
 41
1.0
 10
1706.2151791087019
 20
-1303.8100335760059
 30
0.0
 41
1.0
 10
1706.2135841840261
 20
-1303.7964638455278
 30
0.0
 41
1.0
 10
1706.2009821391616
 20
-1303.6892447681112
 30
0.0
 41
0.9996876457879111
 10
1706.1830382263631
 20
-1303.5827893403946
 30
0.0
 41
1.0
 10
1706.1808065632179
 20
-1303.5695496051535
 30
0.0
 41
1.0
 10
1706.1785749000726
 20
-1303.5563098699122
 30
0.0
 41
1.0
 10
1706.1647790786517
 20
-1303.4744637259537
 30
0.0
 41
0.9995547496494163
 10
1706.1461257567589
 20
-1303.3935862287624
 30
0.0
 41
1.0
 10
1706.1457517998879
 20
-1303.3919648180581
 30
0.0
 41
1.0
 10
1706.1453778430168
 20
-1303.3903434073536
 30
0.0
 41
1.0
 10
1706.1274724348666
 20
-1303.3127087315722
 30
0.0
 41
0.9994899427175071
 10
1706.1046475261871
 20
-1303.2363754487369
 30
0.0
 41
1.0
 10
1706.1041889994465
 20
-1303.2348419989487
 30
0.0
 41
1.0
 10
1706.1037304727058
 20
-1303.2333085491605
 30
0.0
 41
1.0
 10
1706.0818226175081
 20
-1303.1600421659032
 30
0.0
 41
0.9993784877590353
 10
1706.0548069824013
 20
-1303.0885014607434
 30
0.0
 41
1.0
 10
1706.0542752914241
 20
-1303.0870934780223
 30
0.0
 41
1.0
 10
1706.053743600447
 20
-1303.085685495301
 30
0.0
 41
1.0
 10
1706.0277913472942
 20
-1303.0169607555831
 30
0.0
 41
0.9992430832254625
 10
1705.9965748121353
 20
-1302.950461603516
 30
0.0
 41
1.0
 10
1705.9959926960792
 20
-1302.9492215483997
 30
0.0
 41
1.0
 10
1705.995410580023
 20
-1302.9479814932831
 30
0.0
 41
1.0
 10
1705.9653582769763
 20
-1302.8839624514485
 30
0.0
 41
0.9990789632799699
 10
1705.9299276501993
 20
-1302.8227558396982
 30
0.0
 41
1.0
 10
1705.9293319440171
 20
-1302.8217267538389
 30
0.0
 41
1.0
 10
1705.9287362378352
 20
-1302.8206976679796
 30
0.0
 41
1.0
 10
1705.8944970234222
 20
-1302.7615492279481
 30
0.0
 41
0.9988874801120995
 10
1705.8548377473903
 20
-1302.7058895155305
 30
0.0
 41
1.0
 10
1705.8542822213258
 20
-1302.7051098638553
 30
0.0
 41
1.0
 10
1705.853726695261
 20
-1302.7043302121799
 30
0.0
 41
1.0
 10
1705.8151784713577
 20
-1302.6502298031123
 30
0.0
 41
0.998676206069356
 10
1705.7712760000823
 20
-1302.6003760886738
 30
0.0
 41
1.0
 10
1705.7708320397501
 20
-1302.5998719468571
 30
0.0
 41
1.0
 10
1705.7703880794177
 20
-1302.5993678050402
 30
0.0
 41
1.0
 10
1705.7273735288059
 20
-1302.5505223742343
 30
0.0
 41
0.9984621642487892
 10
1705.679215972028
 20
-1302.5067390737634
 30
0.0
 41
1.0
 10
1705.6789693375108
 20
-1302.5065148415993
 30
0.0
 41
1.0
 10
1705.6787227029938
 20
-1302.5062906094354
 30
0.0
 41
1.0
 10
1705.63105841525
 20
-1302.4629557732919
 30
0.0
 41
0.9982724693851869
 10
1705.578639783409
 20
-1302.4255114227744
 30
0.0
 41
1.0
 10
1705.5262211515681
 20
-1302.3880670722574
 30
0.0
 41
0.9981399180159719
 10
1705.4696350881752
 20
-1302.357280552814
 30
0.0
 41
1.0
 10
1705.4695894260963
 20
-1302.3572557096566
 30
0.0
 41
1.0
 10
1705.4695437640171
 20
-1302.3572308664991
 30
0.0
 41
1.0
 10
1705.4128663764666
 20
-1302.326394660741
 30
0.0
 41
0.9980927086836894
 10
1705.3528210254001
 20
-1302.3027778518885
 30
0.0
 41
1.0
 10
1705.3523808556888
 20
-1302.3026047260137
 30
0.0
 41
1.0
 10
1705.3519406859773
 20
-1302.3024316001388
 30
0.0
 41
1.0
 10
1705.2910149954873
 20
-1302.2784685395363
 30
0.0
 41
0.9981411356561974
 10
1705.2276264740876
 20
-1302.2620958980306
 30
0.0
 41
1.0
 10
1705.2267443573865
 20
-1302.2618680558253
 30
0.0
 41
1.0
 10
1705.2258622406853
 20
-1302.2616402136198
 30
0.0
 41
1.0
 10
1705.1607094858828
 20
-1302.2448118877032
 30
0.0
 41
0.9983031812935451
 10
1705.0940420568877
 20
-1302.235672526527
 30
0.0
 41
1.0
 10
1705.0851710314842
 20
-1302.2344564078558
 30
0.0
 41
1.0
 10
1705.0763000060806
 20
-1302.2332402891846
 30
0.0
 41
1.0
 10
1705.0219503635763
 20
-1302.2257895591933
 30
0.0
 41
0.9983887708261993
 10
1704.9671065142834
 20
-1302.2245448855601
 30
0.0
 41
1.0
 10
1704.9590431090683
 20
-1302.2243618876853
 30
0.0
 41
1.0
 10
1704.9509797038534
 20
-1302.2241788898104
 30
0.0
 41
1.0
 10
1704.9122626649928
 20
-1302.2233002119267
 30
0.0
 41
0.9998869563079426
 10
1704.8735367117879
 20
-1302.2235860812864
 30
0.0
 41
1.0
 10
1704.8348107585662
 20
-1302.2238719506463
 30
0.0
 41
0.999997232004365
 10
1704.7960865793355
 20
-1302.2243400501757
 30
0.0
 41
1.0
 10
1704.776733562775
 20
-1302.2245739902648
 30
0.0
 41
1.0
 10
1704.7573805462146
 20
-1302.224807930354
 30
0.0
 41
1.0
 10
1704.6799503338455
 20
-1302.2257439100617
 30
0.0
 41
0.9997304945087896
 10
1704.6026470276095
 20
-1302.2302730038475
 30
0.0
 41
1.0
 10
1704.5935973859036
 20
-1302.2308032098376
 30
0.0
 41
1.0
 10
1704.5845477441976
 20
-1302.2313334158275
 30
0.0
 41
1.0
 10
1704.4891451545541
 20
-1302.2369229215933
 30
0.0
 41
0.9997888306414977
 10
1704.3940528187138
 20
-1302.2464278860823
 30
0.0
 41
1.0
 10
1704.3853317571386
 20
-1302.2472996007145
 30
0.0
 41
1.0
 10
1704.3766106955634
 20
-1302.248171315347
 30
0.0
 41
1.0
 10
1704.2640762365752
 20
-1302.2594197091003
 30
0.0
 41
0.9984170238190625
 10
1704.1535170892234
 20
-1302.2832357910361
 30
0.0
 41
1.0
 10
1704.1171359582372
 20
-1302.2910728268421
 30
0.0
 41
1.0
 10
1704.0807548272508
 20
-1302.2989098626483
 30
0.0
 41
1.0
 10
1703.9655637588291
 20
-1302.323723729158
 30
0.0
 41
0.9976592854198427
 10
1703.8548355924245
 20
-1302.3640224063051
 30
0.0
 41
1.0
 10
1703.7441074260237
 20
-1302.4043210834507
 30
0.0
 41
0.9993255074352514
 10
1703.636635627237
 20
-1302.4526379819411
 30
0.0
 41
1.0
 10
1703.6320104483095
 20
-1302.4547173581427
 30
0.0
 41
1.0
 10
1703.6273852693821
 20
-1302.4567967343442
 30
0.0
 41
1.0
 10
1703.5106631127483
 20
-1302.5092723852345
 30
0.0
 41
0.9976475078276498
 10
1703.4022157684406
 20
-1302.5772203748904
 30
0.0
 41
1.0
 10
1703.3838733743037
 20
-1302.5887128537063
 30
0.0
 41
1.0
 10
1703.3655309801666
 20
-1302.6002053325221
 30
0.0
 41
1.0
 10
1703.2813287886145
 20
-1302.6529624532907
 30
0.0
 41
0.9995131336407341
 10
1703.2005810736553
 20
-1302.710868665245
 30
0.0
 41
1.0
 10
1703.1198333586997
 20
-1302.7687748771968
 30
0.0
 41
0.9995810107606342
 10
1703.0425717109722
 20
-1302.8312565596616
 30
0.0
 41
1.0
 10
1703.0396016797606
 20
-1302.8336584311273
 30
0.0
 41
1.0
 10
1703.036631648549
 20
-1302.8360603025931
 30
0.0
 41
1.0
 10
1702.9534299383968
 20
-1302.9033457279909
 30
0.0
 41
0.9996617837954643
 10
1702.873839251258
 20
-1302.9748661835542
 30
0.0
 41
1.0
 10
1702.8617085003903
 20
-1302.9857669165367
 30
0.0
 41
1.0
 10
1702.8495777495223
 20
-1302.9966676495192
 30
0.0
 41
1.0
 10
1702.7813022221187
 20
-1303.0580202649978
 30
0.0
 41
0.999726775005189
 10
1702.7159687138296
 20
-1303.1224968015281
 30
0.0
 41
1.0
 10
1702.650635205554
 20
-1303.1869733380454
 30
0.0
 41
0.9999667288959638
 10
1702.5863622624149
 20
-1303.2525071449315
 30
0.0
 41
1.0
 10
1702.5175348146317
 20
-1303.3226848036979
 30
0.0
 41
1.0
 10
1702.4487073668488
 20
-1303.3928624624641
 30
0.0
 41
1.0
 10
1702.246779528152
 20
-1303.5987515868751
 30
0.0
 41
0.9988205335175268
 10
1702.0657739111728
 20
-1303.8232558189356
 30
0.0
 41
1.0
 10
1702.0351339462682
 20
-1303.8612590693656
 30
0.0
 41
1.0
 10
1702.0044939813633
 20
-1303.8992623197955
 30
0.0
 41
1.0
 10
1701.7622084345746
 20
-1304.1997730527155
 30
0.0
 41
0.9997077826754656
 10
1701.5347304834702
 20
-1304.511642846931
 30
0.0
 41
1.0
 10
1701.5330070683392
 20
-1304.5140056303112
 30
0.0
 41
1.0
 10
1701.5312836532082
 20
-1304.5163684136915
 30
0.0
 41
1.0
 10
1701.3003588718411
 20
-1304.8329637746681
 30
0.0
 41
0.9989147567078872
 10
1701.099895368957
 20
-1305.1696732358544
 30
0.0
 41
1.0
 10
1701.075154223653
 20
-1305.2112298164018
 30
0.0
 41
1.0
 10
1701.0504130783488
 20
-1305.2527863969492
 30
0.0
 41
1.0
 10
1700.8952017797089
 20
-1305.513487781406
 30
0.0
 41
0.9997476598181635
 10
1700.7518567921975
 20
-1305.7808975299918
 30
0.0
 41
1.0
 10
1700.6085118046883
 20
-1306.0483072785735
 30
0.0
 41
0.9996258967110351
 10
1700.4800035527571
 20
-1306.3231552151963
 30
0.0
 41
1.0
 10
1700.4668036433063
 20
-1306.3513866152944
 30
0.0
 41
1.0
 10
1700.4536037338555
 20
-1306.3796180153925
 30
0.0
 41
1.0
 10
1700.3133950128565
 20
-1306.6794904133437
 30
0.0
 41
0.9998735413945112
 10
1700.1827936661366
 20
-1306.9836700128108
 30
0.0
 41
1.0
 10
1700.1793508380752
 20
-1306.991688598278
 30
0.0
 41
1.0
 10
1700.1759080100135
 20
-1306.9997071837452
 30
0.0
 41
1.0
 10
1700.0521923194156
 20
-1307.2878496122798
 30
0.0
 41
0.999937741886463
 10
1699.9349375172415
 20
-1307.5786810799532
 30
0.0
 41
1.0
 10
1699.8176827150596
 20
-1307.8695125476461
 30
0.0
 41
0.9999508299507793
 10
1699.7062187716774
 20
-1308.1626122244809
 30
0.0
 41
1.0
 10
1699.7031380030207
 20
-1308.1707132504298
 30
0.0
 41
1.0
 10
1699.7000572343638
 20
-1308.1788142763785
 30
0.0
 41
1.0
 10
1699.5824317536665
 20
-1308.4881160051145
 30
0.0
 41
0.9999609228427325
 10
1699.4702931507959
 20
-1308.7994490211197
 30
0.0
 41
1.0
 10
1699.4673371404419
 20
-1308.8076558615408
 30
0.0
 41
1.0
 10
1699.4643811300882
 20
-1308.815862701962
 30
0.0
 41
1.0
 10
1699.346330506515
 20
-1309.1436093987963
 30
0.0
 41
0.9999674607406294
 10
1699.2335829804454
 20
-1309.4732180187955
 30
0.0
 41
1.0
 10
1699.1821845898842
 20
-1309.623477214484
 30
0.0
 41
1.0
 10
1699.130786199323
 20
-1309.7737364101724
 30
0.0
 41
1.0
 10
1699.0147755925645
 20
-1310.1128843926772
 30
0.0
 41
0.9999287532308754
 10
1698.9068941885935
 20
-1310.454705131654
 30
0.0
 41
1.0
 10
1698.8604169324744
 20
-1310.6019676759606
 30
0.0
 41
1.0
 10
1698.8139396763556
 20
-1310.7492302202672
 30
0.0
 41
1.0
 10
1698.7990127846417
 20
-1310.796525870569
 30
0.0
 41
0.9999998223564507
 10
1698.784142275892
 20
-1310.8438392788707
 30
0.0
 41
1.0
 10
1697.1634861390967
 20
-1315.9918677806602
 30
0.0
 41
1.0
 10
1695.5428300023013
 20
-1321.1398962824496
 30
0.0
 41
1.0
 10
1694.6375215584103
 20
-1321.1398962824496
 30
0.0
 41
1.0
 10
1693.7322131145193
 20
-1321.1398962824496
 30
0.0
 41
1.0
 10
1695.5842975259054
 20
-1315.2528243599822
 30
0.0
 41
1.0
 10
1697.4363819372916
 20
-1309.3657524375146
 30
0.0
 41
1.0
 10
1697.4465036955942
 20
-1309.3337092240649
 30
0.0
 41
1.0
 10
1697.5191113644439
 20
-1309.1034096822391
 30
0.0
 41
1.0
 10
1697.59171903329
 20
-1308.8731101404246
 30
0.0
 41
0.9999825681966408
 10
1697.6616020724982
 20
-1308.6419692453708
 30
0.0
 41
1.0
 10
1697.7098931346629
 20
-1308.4822446618618
 30
0.0
 41
1.0
 10
1697.7581841968276
 20
-1308.3225200783531
 30
0.0
 41
1.0
 10
1697.8553365501434
 20
-1308.0011848565825
 30
0.0
 41
0.9999672528968904
 10
1697.9472753557661
 20
-1307.6783193109982
 30
0.0
 41
1.0
 10
1697.9500642394269
 20
-1307.6685254656395
 30
0.0
 41
1.0
 10
1697.9528531230878
 20
-1307.6587316202808
 30
0.0
 41
1.0
 10
1698.0392141613813
 20
-1307.3554537654402
 30
0.0
 41
0.9999899749133456
 10
1698.1228557709242
 20
-1307.0514146769597
 30
0.0
 41
1.0
 10
1698.1329616899425
 20
-1307.0146794392776
 30
0.0
 41
1.0
 10
1698.143067608961
 20
-1306.9779442015956
 30
0.0
 41
1.0
 10
1698.206497380459
 20
-1306.7473755885057
 30
0.0
 41
0.9999214200503032
 10
1698.2641268088364
 20
-1306.5152892462979
 30
0.0
 41
1.0
 10
1698.2768926610152
 20
-1306.4638783609089
 30
0.0
 41
1.0
 10
1698.2896585131941
 20
-1306.4124674755199
 30
0.0
 41
1.0
 10
1698.3217562372122
 20
-1306.2832029040974
 30
0.0
 41
0.9999828681668613
 10
1698.3523384892096
 20
-1306.153571429621
 30
0.0
 41
1.0
 10
1698.3829207412066
 20
-1306.0239399551465
 30
0.0
 41
0.9999389844480683
 10
1698.4106317299972
 20
-1305.8936644992391
 30
0.0
 41
1.0
 10
1698.4177694737159
 20
-1305.8601083954088
 30
0.0
 41
1.0
 10
1698.4249072174346
 20
-1305.8265522915785
 30
0.0
 41
1.0
 10
1698.4668936936657
 20
-1305.6291646279967
 30
0.0
 41
0.9998933699441133
 10
1698.503097958069
 20
-1305.4306350202314
 30
0.0
 41
1.0
 10
1698.504470783284
 20
-1305.4231069995417
 30
0.0
 41
1.0
 10
1698.5058436084992
 20
-1305.415578978852
 30
0.0
 41
1.0
 10
1698.5447935233356
 20
-1305.2019933296922
 30
0.0
 41
0.9996850305193769
 10
1698.572977199595
 20
-1304.9867223242479
 30
0.0
 41
1.0
 10
1698.5749722329633
 20
-1304.9714839701328
 30
0.0
 41
1.0
 10
1698.5769672663318
 20
-1304.9562456160179
 30
0.0
 41
1.0
 10
1698.6043751287909
 20
-1304.7469003888639
 30
0.0
 41
0.9994697936706839
 10
1698.6180996880103
 20
-1304.5362151935342
 30
0.0
 41
1.0
 10
1698.6185767572601
 20
-1304.5288917213206
 30
0.0
 41
1.0
 10
1698.61905382651
 20
-1304.5215682491071
 30
0.0
 41
1.0
 10
1698.63182424723
 20
-1304.3255299982013
 30
0.0
 41
0.9991804893137098
 10
1698.6286959309571
 20
-1304.1291011482301
 30
0.0
 41
1.0
 10
1698.6286120521349
 20
-1304.1238343468194
 30
0.0
 41
1.0
 10
1698.6285281733128
 20
-1304.1185675454087
 30
0.0
 41
1.0
 10
1698.6255676146843
 20
-1303.9326722982587
 30
0.0
 41
0.9988448329321789
 10
1698.6047760690606
 20
-1303.7479197084233
 30
0.0
 41
1.0
 10
1698.6031819953575
 20
-1303.7337548526523
 30
0.0
 41
1.0
 10
1698.6015879216545
 20
-1303.7195899968813
 30
0.0
 41
1.0
 10
1698.5839845234368
 20
-1303.5631671185902
 30
0.0
 41
0.9985503209458226
 10
1698.5496682511371
 20
-1303.4095429345007
 30
0.0
 41
1.0
 10
1698.5420822590661
 20
-1303.375582607101
 30
0.0
 41
1.0
 10
1698.5344962669951
 20
-1303.3416222797016
 30
0.0
 41
1.0
 10
1698.5153519788378
 20
-1303.2559187504119
 30
0.0
 41
0.9991036781370504
 10
1698.4890271171862
 20
-1303.1721416630864
 30
0.0
 41
1.0
 10
1698.4850448917289
 20
-1303.1594685005716
 30
0.0
 41
1.0
 10
1698.4810626662716
 20
-1303.1467953380566
 30
0.0
 41
1.0
 10
1698.4627022555337
 20
-1303.0883645757569
 30
0.0
 41
0.9998874504367128
 10
1698.4425970478567
 20
-1303.0305109735382
 30
0.0
 41
1.0
 10
1698.4224918401778
 20
-1302.9726573713135
 30
0.0
 41
0.9994041637543379
 10
1698.3984432272425
 20
-1302.9163286674216
 30
0.0
 41
1.0
 10
1698.3942464430197
 20
-1302.9064986029425
 30
0.0
 41
1.0
 10
1698.3900496587969
 20
-1302.8966685384635
 30
0.0
 41
1.0
 10
1698.3621708278019
 20
-1302.831368372495
 30
0.0
 41
0.9991846840702283
 10
1698.3291144711084
 20
-1302.7685303412138
 30
0.0
 41
1.0
 10
1698.3279778647129
 20
-1302.7663697247581
 30
0.0
 41
1.0
 10
1698.3268412583172
 20
-1302.7642091083026
 30
0.0
 41
1.0
 10
1698.2960581144148
 20
-1302.7056923099326
 30
0.0
 41
0.9989253167922841
 10
1698.2599886903604
 20
-1302.6502773815432
 30
0.0
 41
1.0
 10
1698.2589345656856
 20
-1302.64865788678
 30
0.0
 41
1.0
 10
1698.2578804410107
 20
-1302.6470383920168
 30
0.0
 41
1.0
 10
1698.2239192663051
 20
-1302.5948624531522
 30
0.0
 41
0.9986467172836127
 10
1698.1847221136682
 20
-1302.5464964195235
 30
0.0
 41
1.0
 10
1698.183847984968
 20
-1302.5454178172461
 30
0.0
 41
1.0
 10
1698.1829738562681
 20
-1302.5443392149687
 30
0.0
 41
1.0
 10
1698.1455249610312
 20
-1302.4981303858949
 30
0.0
 41
0.9984001104268545
 10
1698.1030982305133
 20
-1302.4564452785253
 30
0.0
 41
1.0
 10
1698.1025110924038
 20
-1302.455868403644
 30
0.0
 41
1.0
 10
1698.1019239542945
 20
-1302.4552915287627
 30
0.0
 41
1.0
 10
1698.0606714999963
 20
-1302.4147601711563
 30
0.0
 41
0.9982442159081505
 10
1698.0149153986606
 20
-1302.3793916098962
 30
0.0
 41
1.0
 10
1698.0147006031991
 20
-1302.3792255772532
 30
0.0
 41
1.0
 10
1698.0144858077376
 20
-1302.3790595446101
 30
0.0
 41
1.0
 10
1697.9691592973252
 20
-1302.3440230486362
 30
0.0
 41
0.9982450060837808
 10
1697.9200083182532
 20
-1302.3145912656023
 30
0.0
 41
1.0
 10
1697.8708573391814
 20
-1302.2851594825688
 30
0.0
 41
0.9983922639635009
 10
1697.8186910330162
 20
-1302.2614798479146
 30
0.0
 41
1.0
 10
1697.8184641556918
 20
-1302.2613768624333
 30
0.0
 41
1.0
 10
1697.8182372783676
 20
-1302.2612738769519
 30
0.0
 41
1.0
 10
1697.7656172175537
 20
-1302.2373882713348
 30
0.0
 41
0.9986517147150272
 10
1697.710804244686
 20
-1302.2190871522132
 30
0.0
 41
1.0
 10
1697.710126323258
 20
-1302.2188608057818
 30
0.0
 41
1.0
 10
1697.7094484018303
 20
-1302.2186344593504
 30
0.0
 41
1.0
 10
1697.6532795861065
 20
-1302.1998806473657
 30
0.0
 41
0.9989435598956499
 10
1697.5956261989552
 20
-1302.1863629451311
 30
0.0
 41
1.0
 10
1697.5945460793737
 20
-1302.1861096948783
 30
0.0
 41
1.0
 10
1697.593465959792
 20
-1302.1858564446252
 30
0.0
 41
1.0
 10
1697.5336523334768
 20
-1302.1718322418847
 30
0.0
 41
0.9992249241239846
 10
1697.4729208245794
 20
-1302.1625568991694
 30
0.0
 41
1.0
 10
1697.4715071362884
 20
-1302.1623409907615
 30
0.0
 41
1.0
 10
1697.4700934479977
 20
-1302.1621250823537
 30
0.0
 41
1.0
 10
1697.4065345625177
 20
-1302.1524179228229
 30
0.0
 41
0.9994396597834132
 10
1697.3424686259807
 20
-1302.1469850004773
 30
0.0
 41
1.0
 10
1697.3233279585031
 20
-1302.1453618327587
 30
0.0
 41
1.0
 10
1697.3041872910255
 20
-1302.14373866504
 30
0.0
 41
1.0
 10
1697.2018400195338
 20
-1302.1350594072569
 30
0.0
 41
0.9987693403121724
 10
1697.0991363959477
 20
-1302.1365624707094
 30
0.0
 41
1.0
 10
1697.0888820617206
 20
-1302.1367125424836
 30
0.0
 41
1.0
 10
1697.0786277274938
 20
-1302.1368626142578
 30
0.0
 41
1.0
 10
1696.9690719613138
 20
-1302.1384659585453
 30
0.0
 41
0.9989753644966447
 10
1696.8601099612961
 20
-1302.1499689654706
 30
0.0
 41
1.0
 10
1696.7511479612799
 20
-1302.1614719723957
 30
0.0
 41
0.9983190067305461
 10
1696.6442491503153
 20
-1302.1855069641824
 30
0.0
 41
1.0
 10
1696.6353481987082
 20
-1302.187508242745
 30
0.0
 41
1.0
 10
1696.6264472471012
 20
-1302.1895095213079
 30
0.0
 41
1.0
 10
1696.501746532922
 20
-1302.2175470702202
 30
0.0
 41
0.998553938830277
 10
1696.3807767792437
 20
-1302.2588107462661
 30
0.0
 41
1.0
 10
1696.378431348284
 20
-1302.2596107900818
 30
0.0
 41
1.0
 10
1696.3760859173244
 20
-1302.2604108338974
 30
0.0
 41
1.0
 10
1696.2504253017269
 20
-1302.3032745975743
 30
0.0
 41
0.9988468746493765
 10
1696.1294549594272
 20
-1302.3579926826362
 30
0.0
 41
1.0
 10
1696.1262721374378
 20
-1302.3594323571965
 30
0.0
 41
1.0
 10
1696.1230893154482
 20
-1302.3608720317568
 30
0.0
 41
1.0
 10
1695.9957533291683
 20
-1302.41846946594
 30
0.0
 41
0.9991322885918491
 10
1695.873652745109
 20
-1302.4864647981237
 30
0.0
 41
1.0
 10
1695.856050734066
 20
-1302.496267000113
 30
0.0
 41
1.0
 10
1695.838448723023
 20
-1302.5060692021023
 30
0.0
 41
1.0
 10
1695.7362720419674
 20
-1302.5629693178819
 30
0.0
 41
0.9993860037849141
 10
1695.6383310378951
 20
-1302.6268853334698
 30
0.0
 41
1.0
 10
1695.6327127250399
 20
-1302.6305518281665
 30
0.0
 41
1.0
 10
1695.6270944121848
 20
-1302.6342183228633
 30
0.0
 41
1.0
 10
1695.5403900338185
 20
-1302.6908013490602
 30
0.0
 41
0.9998821494954165
 10
1695.4554636580087
 20
-1302.7500195791349
 30
0.0
 41
1.0
 10
1695.3705372821983
 20
-1302.8092378092103
 30
0.0
 41
0.9997976482745248
 10
1695.2880616517962
 20
-1302.8718242172508
 30
0.0
 41
1.0
 10
1695.2734253869894
 20
-1302.882930907032
 30
0.0
 41
1.0
 10
1695.2587891221826
 20
-1302.8940375968132
 30
0.0
 41
1.0
 10
1695.1470409621732
 20
-1302.9788373844117
 30
0.0
 41
0.9998091630800214
 10
1695.0386906841491
 20
-1303.0679377351096
 30
0.0
 41
1.0
 10
1695.0256849316679
 20
-1303.0786328355589
 30
0.0
 41
1.0
 10
1695.0126791791868
 20
-1303.089327936008
 30
0.0
 41
1.0
 10
1694.8783173962058
 20
-1303.1998184876006
 30
0.0
 41
0.9995035112317442
 10
1694.7511815184432
 20
-1303.3185523046145
 30
0.0
 41
1.0
 10
1694.741534208054
 20
-1303.3275620507743
 30
0.0
 41
1.0
 10
1694.7318868976645
 20
-1303.3365717969341
 30
0.0
 41
1.0
 10
1694.6084638349005
 20
-1303.4518381686889
 30
0.0
 41
0.9994630424299376
 10
1694.4928554291173
 20
-1303.5749409119232
 30
0.0
 41
1.0
 10
1694.4891725903458
 20
-1303.5788624914362
 30
0.0
 41
1.0
 10
1694.4854897515745
 20
-1303.5827840709492
 30
0.0
 41
1.0
 10
1694.3772470233337
 20
-1303.698043655158
 30
0.0
 41
0.9995160693750578
 10
1694.2763809938015
 20
-1303.8198110730309
 30
0.0
 41
1.0
 10
1694.2744472737222
 20
-1303.8221454972372
 30
0.0
 41
1.0
 10
1694.272513553643
 20
-1303.8244799214435
 30
0.0
 41
1.0
 10
1694.1755149642704
 20
-1303.9415784909027
 30
0.0
 41
0.9996561470514614
 10
1694.0847887456036
 20
-1304.0636012533528
 30
0.0
 41
1.0
 10
1694.0786310797039
 20
-1304.0718830423921
 30
0.0
 41
1.0
 10
1694.0724734138041
 20
-1304.0801648314314
 30
0.0
 41
1.0
 10
1693.9940625269396
 20
-1304.1856240157995
 30
0.0
 41
0.9998349055172306
 10
1693.9195352450056
 20
-1304.2938625994652
 30
0.0
 41
1.0
 10
1693.8450079630693
 20
-1304.4021011831346
 30
0.0
 41
0.9999728109568234
 10
1693.7720850671565
 20
-1304.5114271086936
 30
0.0
 41
1.0
 10
1693.7707698517479
 20
-1304.5133988781913
 30
0.0
 41
1.0
 10
1693.7694546363396
 20
-1304.515370647689
 30
0.0
 41
1.0
 10
1693.6939013096408
 20
-1304.628640112197
 30
0.0
 41
0.9999972147356532
 10
1693.6188834993022
 20
-1304.7422649549787
 30
0.0
 41
1.0
 10
1693.6139119566446
 20
-1304.749795043504
 30
0.0
 41
1.0
 10
1693.6089404139873
 20
-1304.7573251320296
 30
0.0
 41
1.0
 10
1693.5239795183654
 20
-1304.8860101518148
 30
0.0
 41
0.9999371979004245
 10
1693.4419241689595
 20
-1305.0165670655949
 30
0.0
 41
1.0
 10
1693.4384152845998
 20
-1305.0221499936565
 30
0.0
 41
1.0
 10
1693.4349064002402
 20
-1305.0277329217183
 30
0.0
 41
1.0
 10
1693.3458332821108
 20
-1305.1694556916282
 30
0.0
 41
0.9998272025610893
 10
1693.2620898912278
 20
-1305.3143915683725
 30
0.0
 41
1.0
 10
1693.2468747192047
 20
-1305.3407246828274
 30
0.0
 41
1.0
 10
1693.2316595471816
 20
-1305.3670577972825
 30
0.0
 41
1.0
 10
1693.117485812252
 20
-1305.5646599029374
 30
0.0
 41
0.9995217214838253
 10
1693.015746122697
 20
-1305.7689422307985
 30
0.0
 41
1.0
 10
1693.008102560058
 20
-1305.7842896805096
 30
0.0
 41
1.0
 10
1693.0004589974187
 20
-1305.7996371302204
 30
0.0
 41
1.0
 10
1692.9135537048328
 20
-1305.9741335882945
 30
0.0
 41
0.9998269762608121
 10
1692.8331992385638
 20
-1306.1517418750113
 30
0.0
 41
1.0
 10
1692.7528447722884
 20
-1306.3293501617422
 30
0.0
 41
0.9998944747387603
 10
1692.6776839777208
 20
-1306.5092178873792
 30
0.0
 41
1.0
 10
1692.6727303081334
 20
-1306.5210725422876
 30
0.0
 41
1.0
 10
1692.6677766385462
 20
-1306.5329271971957
 30
0.0
 41
1.0
 10
1692.5871295779923
 20
-1306.7259241372162
 30
0.0
 41
0.999950673441151
 10
1692.510332049088
 20
-1306.9204849420744
 30
0.0
 41
1.0
 10
1692.4957320838098
 20
-1306.9574728638986
 30
0.0
 41
1.0
 10
1692.4811321185318
 20
-1306.9944607857226
 30
0.0
 41
1.0
 10
1692.4335345201744
 20
-1307.1150457469557
 30
0.0
 41
0.999991239391009
 10
1692.3869480761618
 20
-1307.2360249496262
 30
0.0
 41
1.0
 10
1692.3403616321343
 20
-1307.3570041523358
 30
0.0
 41
0.9999927113945601
 10
1692.294700337736
 20
-1307.4783355598486
 30
0.0
 41
1.0
 10
1692.2807319063431
 20
-1307.5154525418352
 30
0.0
 41
1.0
 10
1692.26676347495
 20
-1307.5525695238218
 30
0.0
 41
1.0
 10
1692.1931653177649
 20
-1307.7481348953097
 30
0.0
 41
0.999948755094655
 10
1692.1235416927975
 20
-1307.9451502604788
 30
0.0
 41
1.0
 10
1692.0999480828577
 20
-1308.0119135707801
 30
0.0
 41
1.0
 10
1692.0763544729177
 20
-1308.0786768810813
 30
0.0
 41
1.0
 10
1691.9816688385463
 20
-1308.3466107159079
 30
0.0
 41
0.9999808436922194
 10
1691.8903072499027
 20
-1308.6156961471791
 30
0.0
 41
1.0
 10
1691.7989456612586
 20
-1308.8847815784511
 30
0.0
 41
0.9999873932899343
 10
1691.7102909525383
 20
-1309.1547709334714
 30
0.0
 41
1.0
 10
1691.6901985956715
 20
-1309.2159602662171
 30
0.0
 41
1.0
 10
1691.6701062388045
 20
-1309.2771495989628
 30
0.0
 41
1.0
 10
1691.541266816344
 20
-1309.669517619493
 30
0.0
 41
0.9999794883027147
 10
1691.4174640313813
 20
-1310.0635038257865
 30
0.0
 41
1.0
 10
1691.4063117719352
 20
-1310.0989944360513
 30
0.0
 41
1.0
 10
1691.3951595124888
 20
-1310.1344850463161
 30
0.0
 41
1.0
 10
1691.2526013486086
 20
-1310.5881577983482
 30
0.0
 41
0.9999982761793483
 10
1691.1117289086019
 20
-1311.042356820443
 30
0.0
 41
1.0
 10
1689.5235885760294
 20
-1316.0911265514465
 30
0.0
 41
1.0
 10
1687.9354482434569
 20
-1321.1398962824496
 30
0.0
 41
1.0
 10
1686.9866976319804
 20
-1321.1398962824496
 30
0.0
 41
1.0
 10
1686.0379470205039
 20
-1321.1398962824496
 30
0.0
 41
1.0
 10
1689.276231506657
 20
-1310.8125740825035
 30
0.0
 41
1.0
 10
1692.5145159928104
 20
-1300.4852518825573
 30
0.0
 41
1.0
  0
LWPOLYLINE
  5
51
100
AcDbEntity
  8
0
370
              15
390
0
  6
Continuous
 62
               7
100
AcDbPolyline
 90
      232
 70
             128
 10
1666.8109702189834
 20
-1301.5695947140725
 42
0.0004370800700531
 10
1666.7580930448346
 20
-1301.6382613534286
 10
1666.7188088137839
 20
-1301.6893684662255
 42
0.0030481992169752
 10
1666.5884700966822
 20
-1301.8610901585462
 10
1666.5499584249142
 20
-1301.9124769423577
 42
0.0042058245760469
 10
1666.3459733742177
 20
-1302.1894826874682
 10
1666.2935682517436
 20
-1302.2619155342122
 42
0.0120948898740885
 10
1665.9975243349822
 20
-1302.6926651387612
 10
1665.9013318358575
 20
-1302.84014587399
 42
0.0141601263946866
 10
1665.5976877889384
 20
-1303.3358152107214
 10
1665.5581505215084
 20
-1303.4046591781598
 42
0.0071131081302042
 10
1665.3528781982741
 20
-1303.7741619769913
 42
0.0068458790998734
 10
1665.1579986714441
 20
-1304.1492535404414
 10
1665.1511868089733
 20
-1304.1628152541912
 42
0.0064120880286074
 10
1664.9530445589421
 20
-1304.570239729082
 10
1664.945509873412
 20
-1304.5862515858312
 42
0.0058857236446184
 10
1664.7427544815487
 20
-1305.0306276968472
 10
1664.7345795552462
 20
-1305.0491178505001
 42
0.0053189741896548
 10
1664.5258752425789
 20
-1305.5350813244174
 10
1664.5171274368972
 20
-1305.556063202614
 42
0.0047503650421531
 10
1664.3011537107411
 20
-1306.088262635838
 10
1664.2918854623986
 20
-1306.1117390119316
 42
0.0042071762170829
 10
1664.0673380786807
 20
-1306.6948326059751
 10
1664.0575886763222
 20
-1306.7207987808711
 42
0.0036680086485242
 10
1663.8231340330096
 20
-1307.3594341654039
 10
1663.8129262531622
 20
-1307.387882699747
 42
0.003257314262721
 10
1663.5672939672015
 20
-1308.0867353594829
 10
1663.4986434463497
 20
-1308.2861984435683
 42
0.0026133366649908
 10
1663.1501982475968
 20
-1309.3160617272251
 10
1663.0869414600932
 20
-1309.5062925626271
 42
0.0020592950741721
 10
1662.8730783911292
 20
-1310.1583962152313
 10
1662.8700265999867
 20
-1310.167832703577
 42
0.0025609928532085
 10
1662.6682060984801
 20
-1310.8029779260069
 10
1662.6656147313461
 20
-1310.8112802669709
 42
0.0031362356243173
 10
1662.4761239456766
 20
-1311.432043123127
 10
1662.4739929027451
 20
-1311.4391844293516
 42
0.0037229918030309
 10
1662.2971925158226
 20
-1312.0481697313121
 10
1662.2955139266196
 20
-1312.0541166214743
 42
0.0043077623707363
 10
1662.1317731245513
 20
-1312.6539353532557
 42
0.0047654161820763
 10
1661.9789444020453
 20
-1313.2566214421172
 10
1661.9444797931963
 20
-1313.3981832193076
 42
0.0112969368445983
 10
1661.7486154350506
 20
-1314.2898753799409
 10
1661.7206090459558
 20
-1314.4327034260298
 42
0.0130056762570116
 10
1661.5197718023092
 20
-1315.6196444976747
 10
1661.4992320521624
 20
-1315.7637226111497
 42
0.013872153214428
 10
1661.3955290476242
 20
-1316.6705520969774
 10
1661.3762335597157
 20
-1316.8940498189099
 42
0.0071254697010209
 10
1661.3428869137938
 20
-1317.3572368277496
 10
1661.3379259396297
 20
-1317.4432408223247
 42
0.0028881799200843
 10
1661.3227876463407
 20
-1317.7349825321526
 42
0.0060297297133017
 10
1661.3128554465657
 20
-1318.0269314682471
 10
1661.3117931648981
 20
-1318.0753238402033
 42
0.022952316415583
 10
1661.319524192684
 20
-1318.398078686484
 10
1661.3237499662048
 20
-1318.4584822205049
 42
0.012367330067193
 10
1661.3428286127225
 20
-1318.659602945675
 42
0.012857767447968
 10
1661.3720240031282
 20
-1318.8595007955976
 10
1661.3791498765158
 20
-1318.9008296101988
 42
0.0285717853762552
 10
1661.4436438782109
 20
-1319.1789457615093
 10
1661.4573124018773
 20
-1319.225600530986
 42
0.031628309915723
 10
1661.5731229817923
 20
-1319.544615032815
 10
1661.576171673549
 20
-1319.5516014051434
 42
0.0338984824240654
 10
1661.7256033845149
 20
-1319.8391673693297
 10
1661.7279121138845
 20
-1319.8429583986051
 42
0.0350228718354627
 10
1661.9102724045583
 20
-1320.1000103832826
 10
1661.911157656333
 20
-1320.1010894610461
 42
0.034747674753153
 10
1662.1255823435736
 20
-1320.3282745082665
 42
0.0331337701911289
 10
1662.3688256693188
 20
-1320.5244031703435
 10
1662.3699257678359
 20
-1320.5251758735167
 42
0.0305233319083579
 10
1662.6384704634111
 20
-1320.6903040436086
 10
1662.6417005079106
 20
-1320.6920280554705
 42
0.0273744481154309
 10
1662.9342542194852
 20
-1320.8281661993612
 10
1662.9393587546224
 20
-1320.8302097838307
 42
0.0240964406198447
 10
1663.2548358302672
 20
-1320.9391935101116
 10
1663.261419159478
 20
-1320.941118249787
 42
0.0209636179814065
 10
1663.5988193121314
 20
-1321.0245863977193
 10
1663.6064517725795
 20
-1321.0261383107206
 42
0.0181388704695456
 10
1663.9647741645801
 20
-1321.0855544039348
 10
1663.9730550129561
 20
-1321.0866205877517
 42
0.0156086547587928
 10
1664.3512423771485
 20
-1321.1233567743286
 10
1664.3944376294742
 20
-1321.1261952768075
 42
0.0137148329024458
 10
1664.7221107747707
 20
-1321.1387155320585
 10
1664.7680469647028
 20
-1321.1392099651737
 42
0.0051057823882846
 10
1665.004192551289
 20
-1321.1393402195831
 42
0.0052256693304129
 10
1665.2402898350572
 20
-1321.1345913951193
 10
1665.310516618817
 20
-1321.1324444291047
 42
0.0161507179049618
 10
1665.6862536969206
 20
-1321.1087940587779
 10
1665.7062666572915
 20
-1321.1068838634906
 42
0.0101216737834201
 10
1666.1202938787835
 20
-1321.0588909331248
 10
1666.1543471682089
 20
-1321.0542432363154
 42
0.0245291776397174
 10
1666.6311368237582
 20
-1320.9651681582395
 10
1666.7159601392816
 20
-1320.9449722378938
 42
0.0143509212560232
 10
1667.0725912432235
 20
-1320.8491676041144
 42
0.0156557857040916
 10
1667.4228073079476
 20
-1320.7321563882967
 10
1667.4303085224453
 20
-1320.7293862265415
 42
0.0170137333633057
 10
1667.786904518134
 20
-1320.5837286116673
 10
1667.7940084405343
 20
-1320.5805407761068
 42
0.0183105364407627
 10
1668.1533581086931
 20
-1320.4032057342865
 10
1668.1603048733393
 20
-1320.3994552994104
 42
0.0194899958146857
 10
1668.5187856143252
 20
-1320.1874763175185
 10
1668.5257994936601
 20
-1320.1829509752247
 42
0.0204869852946703
 10
1668.8798137957544
 20
-1319.9334309601386
 10
1668.887079404341
 20
-1319.9278508947905
 42
0.0212516938554752
 10
1669.233069335447
 20
-1319.6379468978976
 10
1669.2795860295228
 20
-1319.5954795878038
 42
0.0215248918252518
 10
1669.5396121984122
 20
-1319.3367153088075
 10
1669.5846419327991
 20
-1319.2878711874509
 42
0.0114578554964216
 10
1669.7394340864703
 20
-1319.1120482539995
 10
1669.7506286224502
 20
-1319.0987294904621
 42
0.0061531305125572
 10
1669.8771032684513
 20
-1318.9444399571485
 42
0.0006325587125236
 10
1670.0014817527242
 20
-1318.7884365813202
 10
1670.0245218876546
 20
-1318.7594630608132
 42
0.0041897761555697
 10
1670.1929772916349
 20
-1318.5439436847419
 10
1670.2514394115194
 20
-1318.4678423377663
 42
0.0092993880033438
 10
1670.5280513387418
 20
-1318.0935635738842
 10
1670.6104458319405
 20
-1317.977626570316
 42
0.0159321727084691
 10
1670.9570523145844
 20
-1317.4554523495576
 10
1671.0014084499719
 20
-1317.3837727853099
 42
0.0085547317021878
 10
1671.2359202152993
 20
-1316.9898978360829
 42
0.0084601156888049
 10
1671.4568963927418
 20
-1316.5882709870498
 10
1671.4650118665716
 20
-1316.5729113047778
 42
0.0081429654285725
 10
1671.6882611370136
 20
-1316.133189792228
 10
1671.6971213011932
 20
-1316.1150109502178
 42
0.0076574581332838
 10
1671.9235288117645
 20
-1315.6318280749542
 10
1671.9330084524836
 20
-1315.6107635966614
 42
0.007068272420059
 10
1672.163453360293
 20
-1315.0787262918741
 10
1672.1734436442721
 20
-1315.0547371028688
 42
0.0064559514448339
 10
1672.4087768524548
 20
-1314.4684248363469
 10
1672.4191862106188
 20
-1314.4414899109074
 42
0.005831141390697
 10
1672.6602329473851
 20
-1313.7954578165138
 10
1672.670988024769
 20
-1313.7655734753635
 42
0.0052312425820052
 10
1672.918569302816
 20
-1313.0543710615107
 10
1672.9296131391898
 20
-1313.021544349459
 42
0.0046680544796886
 10
1673.1845415669231
 20
-1312.2397180337077
 10
1673.2265337169561
 20
-1312.1067347964497
 42
0.004166685644161
 10
1673.4298197293629
 20
-1311.4437660214066
 10
1673.4674821700414
 20
-1311.3171849137034
 42
0.0015170975157229
 10
1673.5886687484394
 20
-1310.9053165622593
 42
-0.0004887993115182
 10
1673.709008521553
 20
-1310.4931981502511
 10
1673.7854857790578
 20
-1310.2322407642762
 42
0.0002583378930268
 10
1674.0587003492576
 20
-1309.2981840606324
 10
1674.14047319872
 20
-1309.0180848014406
 42
0.0006636169672989
 10
1674.3343409587098
 20
-1308.350731877927
 10
1674.3394376130632
 20
-1308.3331002950256
 42
0.0010589131322476
 10
1674.5208863139735
 20
-1307.7003689519981
 10
1674.5258683844554
 20
-1307.6828560449733
 42
0.001565552446104
 10
1674.6941385916368
 20
-1307.0842393657772
 10
1674.6989687920445
 20
-1307.0668472068671
 42
0.0021640440477575
 10
1674.8532587640379
 20
-1306.5018201888233
 10
1674.857892983468
 20
-1306.4845554588292
 42
0.0028763871853836
 10
1674.9974087015207
 20
-1305.9525875079823
 10
1675.0017945656778
 20
-1305.935463529868
 42
0.0037310511943687
 10
1675.1257512575248
 20
-1305.4360159358039
 10
1675.129826477814
 20
-1305.4190556645572
 42
0.0047652197774828
 10
1675.2374503783224
 20
-1304.9515778962534
 10
1675.2411409776439
 20
-1304.9348183411116
 42
0.0060276699297072
 10
1675.3316710767995
 20
-1304.4987425459592
 10
1675.3348897670928
 20
-1304.4822413316288
 42
0.0075824337758528
 10
1675.4075790765041
 20
-1304.0769741672239
 10
1675.4102244538853
 20
-1304.0608192197676
 42
0.009513062460691
 10
1675.4643396895156
 20
-1303.6857298667014
 10
1675.471325913398
 20
-1303.6297963085865
 42
0.0121054653228967
 10
1675.497917243976
 20
-1303.3649004801111
 10
1675.4987837337355
 20
-1303.3534970371802
 42
0.0069050827385715
 10
1675.5138725517731
 20
-1303.1105558103377
 10
1675.5150078514412
 20
-1303.0870295533057
 42
0.0169063976684993
 10
1675.5178351304221
 20
-1302.8908368259922
 10
1675.5166644788915
 20
-1302.8305010646648
 42
0.005200773288871
 10
1675.5144110302977
 20
-1302.7549076744911
 42
0.005403812329101
 10
1675.4944475184582
 20
-1302.6348893784764
 10
1675.4893616625884
 20
-1302.6062308918999
 42
0.0112050460469355
 10
1675.4539773005279
 20
-1302.4299044535512
 10
1675.4361523384894
 20
-1302.35036286684
 42
0.0240764468014907
 10
1675.3452549723418
 20
-1302.020125831335
 10
1675.3266962095299
 20
-1301.9635056663456
 42
0.0256812331830207
 10
1675.1833332893402
 20
-1301.5917814600878
 10
1675.177923863517
 20
-1301.5796501250941
 42
0.0268360501219672
 10
1675.0084966226689
 20
-1301.248656991077
 10
1675.002960215035
 20
-1301.2391373207668
 42
0.0274670231728313
 10
1674.8107592386204
 20
-1300.9468499458476
 10
1674.8053779386589
 20
-1300.9395707983076
 42
0.0275035967101953
 10
1674.5938050590962
 20
-1300.6840549080021
 10
1674.5887355581299
 20
-1300.6785758203716
 42
0.0269557673518463
 10
1674.3613320146901
 20
-1300.4579335344092
 10
1674.3565889569068
 20
-1300.4538035799478
 42
0.0259124802211998
 10
1674.1170341254765
 20
-1300.2661130527963
 10
1674.112503280294
 20
-1300.2629275504657
 42
0.0245162153005697
 10
1673.8645869272
 20
-1300.1061945413553
 10
1673.8600603808757
 20
-1300.1036343441544
 42
0.0229282588834742
 10
1673.6076408240483
 20
-1299.9757661516555
 10
1673.6028603302116
 20
-1299.9736138518936
 42
0.0212984135692256
 10
1673.3498223777499
 20
-1299.8724149346513
 10
1673.3445180927833
 20
-1299.8705513718924
 42
0.0197555462338469
 10
1673.0947397550574
 20
-1299.7937359539264
 42
0.0183511896787328
 10
1672.8398110295927
 20
-1299.7361530469609
 10
1672.7534458328732
 20
-1299.7199502565763
 42
0.0338057877145106
 10
1672.4679384836109
 20
-1299.6861418514359
 10
1672.376933078574
 20
-1299.6815621961746
 42
0.0091990524491291
 10
1672.271085969935
 20
-1299.6781863402523
 42
0.0028333980779686
 10
1672.1651720539073
 20
-1299.6773582327353
 10
1672.1642566008927
 20
-1299.6773562629114
 42
-0.0023619827802484
 10
1672.0565105857638
 20
-1299.6766154218328
 10
1672.0201054156109
 20
-1299.6761931153701
 42
0.0008824598482153
 10
1671.8395494258446
 20
-1299.6744173371326
 10
1671.7956879933552
 20
-1299.6740633756062
 42
0.0038132665772532
 10
1671.5274050974681
 20
-1299.6739444395396
 10
1671.5108714426829
 20
-1299.6740632056831
 42
0.0060665569335431
 10
1671.2095909510847
 20
-1299.679883505104
 10
1671.1953406190662
 20
-1299.6803318130715
 42
0.0080356953338087
 10
1670.8658819027248
 20
-1299.6959995351385
 10
1670.8538118876397
 20
-1299.6967681180788
 42
0.0098996399104683
 10
1670.5010488029964
 20
-1299.7262533472763
 10
1670.4910030936142
 20
-1299.7272936434752
 42
0.0117740981371236
 10
1670.1198462352604
 20
-1299.7745858910059
 10
1670.1116235387829
 20
-1299.7758310075758
 42
0.0137435215132832
 10
1669.7270347192989
 20
-1299.8449279811371
 10
1669.7203776801744
 20
-1299.8463138773709
 42
0.0158359869383958
 10
1669.3273805863714
 20
-1299.9412059658519
 10
1669.3219673995047
 20
-1299.9426959067223
 42
0.0180554124025079
 10
1668.9256523548936
 20
-1300.0673339229604
 10
1668.9210955668088
 20
-1300.0689499592272
 42
0.020365743128602
 10
1668.5266180489934
 20
-1300.2272103007449
 10
1668.5224745099902
 20
-1300.2290719221851
 42
0.0226819684651942
 10
1668.1350384537909
 20
-1300.4247145008535
 10
1668.1308386627684
 20
-1300.4270800927757
 42
0.0248634984606059
 10
1667.7556567215854
 20
-1300.6637067387242
 10
1667.707461792807
 20
-1300.697563780546
 42
0.0267044190879322
 10
1667.4331690958868
 20
-1300.9130041564167
 42
0.0139303002200432
 10
1667.1770019299399
 20
-1301.1502429973366
 10
1667.172148544227
 20
-1301.1549956601889
 42
0.0283460963446507
 10
1666.9280759499982
 20
-1301.4227263206358
 10
1666.8884074448433
 20
-1301.4715278981071
 42
0.0070695364818981
 10
1666.8109702189834
 20
-1301.5695947140725
 42
0.0070695364818981
  0
LWPOLYLINE
  5
52
100
AcDbEntity
  8
0
370
              15
390
0
  6
Continuous
 62
               7
100
AcDbPolyline
 90
      226
 70
             128
 10
1663.282149781737
 20
-1317.2911835202565
 42
-0.0026277636632777
 10
1663.2820718979369
 20
-1317.2244115945264
 10
1663.282289256169
 20
-1317.1712563770702
 42
-0.008868029671777
 10
1663.2860658724626
 20
-1316.9982405946505
 10
1663.2884122315745
 20
-1316.9389605692136
 42
-0.0077381705620715
 10
1663.3044583423377
 20
-1316.6477000734137
 10
1663.3053262535107
 20
-1316.6354118397303
 42
-0.0068872530539392
 10
1663.331958333255
 20
-1316.3201900877018
 10
1663.3331625574449
 20
-1316.3079491086428
 42
-0.00621300214878
 10
1663.3707562742732
 20
-1315.9690794173994
 10
1663.3722601778077
 20
-1315.9569055454876
 42
-0.0056726929668714
 10
1663.4211820373073
 20
-1315.5947103233932
 10
1663.4229554829544
 20
-1315.5826165231288
 42
-0.0052341884493018
 10
1663.4835660692138
 20
-1315.1974232676152
 10
1663.4855840579912
 20
-1315.1854183376186
 42
-0.004976845017025
 10
1663.5583227394161
 20
-1314.7775737701945
 10
1663.5825717541393
 20
-1314.6490257871801
 42
-0.0089029805624299
 10
1663.7196526059363
 20
-1313.9872503397469
 10
1663.7523979812524
 20
-1313.8422189092341
 42
-0.0080318257100854
 10
1663.9819465955923
 20
-1312.8965092773847
 10
1663.9939315220415
 20
-1312.8503786421902
 42
-0.0074265721317188
 10
1664.2779430608934
 20
-1311.8203140638032
 10
1664.2978226040048
 20
-1311.7521800032323
 42
-0.0069711922704814
 10
1664.6251271825149
 20
-1310.6859122628925
 10
1664.6850791296142
 20
-1310.4998909045412
 42
-0.0052070422896863
 10
1664.9145043548797
 20
-1309.8126188274905
 10
1664.9317855471456
 20
-1309.7625915466019
 42
-0.0009167004444306
 10
1665.1348774343414
 20
-1309.1781356987194
 42
-0.0025162726945668
 10
1665.3419750646081
 20
-1308.5950944345452
 10
1665.3791996764064
 20
-1308.491944888659
 42
-0.0028212681458689
 10
1665.6273755953725
 20
-1307.8162142564802
 10
1665.6372063581173
 20
-1307.7899068118193
 42
-0.0031964916821914
 10
1665.8734986157854
 20
-1307.1697020496765
 10
1665.8831330697803
 20
-1307.1448920595433
 42
-0.003628183645229
 10
1666.1082390308854
 20
-1306.57745137864
 10
1666.1176774410446
 20
-1306.554153947133
 42
-0.0041269166833203
 10
1666.3322951377022
 20
-1306.036713051159
 10
1666.364928094119
 20
-1305.9598346048072
 42
-0.0047472213056009
 10
1666.5219728996767
 20
-1305.5994131369146
 10
1666.5288669809056
 20
-1305.5839925395362
 42
-0.0025651659992041
 10
1666.6772250147351
 20
-1305.2566644838341
 42
-0.0057144634992012
 10
1666.8309747085102
 20
-1304.9318548104636
 10
1666.8590054139052
 20
-1304.8743464280822
 42
-0.0065388068374242
 10
1667.0424724416473
 20
-1304.5101139314124
 10
1667.0509308974304
 20
-1304.4938543520341
 42
-0.007451084302135
 10
1667.2271131433035
 20
-1304.1671660709203
 10
1667.2352928138412
 20
-1304.1525252936399
 42
-0.0084648979859551
 10
1667.4049266669349
 20
-1303.8606162826902
 10
1667.4127827934155
 20
-1303.8476092910514
 42
-0.0095638542806458
 10
1667.5766182410171
 20
-1303.5877204190608
 10
1667.5840931846899
 20
-1303.5763510576037
 42
-0.0107191626805211
 10
1667.7428947650762
 20
-1303.3457398230612
 10
1667.7499114988045
 20
-1303.3360037307004
 42
-0.0118458573904039
 10
1667.9044595973198
 20
-1303.131931535386
 42
-0.012918451819093
 10
1668.0689122209242
 20
-1302.9357710192126
 10
1668.099056993284
 20
-1302.9016449403168
 42
-0.0217742579637852
 10
1668.27566931562
 20
-1302.7184381700658
 10
1668.2864148600925
 20
-1302.7082213368515
 42
-0.009726656864095
 10
1668.4524724789362
 20
-1302.5563737624257
 42
-0.0187720905720669
 10
1668.6268200548266
 20
-1302.4143049090358
 10
1668.6575260454965
 20
-1302.391145826643
 42
-0.0179428207523748
 10
1668.889946765496
 20
-1302.2285936495286
 10
1668.8935990924119
 20
-1302.2262297146408
 42
-0.0170047877699628
 10
1669.1293627299422
 20
-1302.0847692004895
 10
1669.133145718693
 20
-1302.082670895451
 42
-0.016019078836659
 10
1669.3700542663239
 20
-1301.9610195934652
 42
-0.0151102861494314
 10
1669.6140860487719
 20
-1301.8543368174098
 10
1669.6664725509822
 20
-1301.8332966845157
 42
-0.0271945441887061
 10
1670.0251351100408
 20
-1301.7114318738097
 10
1670.0941999105307
 20
-1301.6920823325429
 42
-0.0237596594019021
 10
1670.5099967575511
 20
-1301.5966316205618
 10
1670.5780596112818
 20
-1301.5843769324351
 42
-0.0213715440554576
 10
1670.8639345427268
 20
-1301.5454299009252
 10
1670.9240817089421
 20
-1301.5398401862244
 42
-0.0101465655811213
 10
1671.0915742409391
 20
-1301.5276966429601
 10
1671.1009146271317
 20
-1301.5272097279631
 42
-0.0100375910876632
 10
1671.2500687276997
 20
-1301.5224339100378
 10
1671.2603279973787
 20
-1301.5223114710234
 42
-0.0103625633382748
 10
1671.3890359920351
 20
-1301.5234429045499
 10
1671.4113016433059
 20
-1301.5241002630148
 42
-0.0115689250213812
 10
1671.4953523808299
 20
-1301.5285297692599
 42
-0.0072438037434164
 10
1671.5791906602678
 20
-1301.5361189690093
 10
1671.5959911697419
 20
-1301.5378855117335
 42
-0.0217917313129981
 10
1671.712560933059
 20
-1301.5553054044553
 10
1671.7781610236259
 20
-1301.5680520128699
 42
-0.0332943556753203
 10
1671.9825531886506
 20
-1301.622092304176
 10
1672.0127257572003
 20
-1301.6322603812944
 42
-0.0184824084796449
 10
1672.151230813666
 20
-1301.684711396681
 42
-0.0198002050687615
 10
1672.2853051541661
 20
-1301.7475954568808
 10
1672.2871917915422
 20
-1301.7485732437603
 42
-0.0212242342980414
 10
1672.419330733944
 20
-1301.8243359825533
 10
1672.4211460294878
 20
-1301.8254817847619
 42
-0.0226090605801297
 10
1672.5496499307083
 20
-1301.9149614283253
 10
1672.551494372447
 20
-1301.9163736813139
 42
-0.0238457052236358
 10
1672.6746764537399
 20
-1302.0203695771763
 10
1672.6766291822987
 20
-1302.0221844549424
 42
-0.0248160564157732
 10
1672.7928306895999
 20
-1302.1414590561515
 10
1672.7949343230016
 20
-1302.1438443898555
 42
-0.0254109591451913
 10
1672.902539540868
 20
-1302.2791327758202
 10
1672.9047875627816
 20
-1302.2822743242205
 42
-0.0255528488285609
 10
1673.0022342415784
 20
-1302.4343013784539
 10
1673.0045653414948
 20
-1302.4383829900621
 42
-0.0252146793218277
 10
1673.0903463675033
 20
-1302.6078852360579
 10
1673.0926486066614
 20
-1302.6130673179721
 42
-0.0244265635950334
 10
1673.1653033004229
 20
-1302.8008138900186
 10
1673.1745497018924
 20
-1302.8286793083594
 42
-0.0231319612891284
 10
1673.2204724808835
 20
-1302.9919803551581
 42
-0.0112130424360493
 10
1673.2551085034233
 20
-1303.1581839553555
 10
1673.2563110285341
 20
-1303.1646805422342
 42
-0.0210527881235147
 10
1673.2819975039051
 20
-1303.3457361876758
 10
1673.285508098727
 20
-1303.3811417362226
 42
-0.0190029892414183
 10
1673.3009495722715
 20
-1303.6346775825007
 10
1673.3017595487154
 20
-1303.6701531968638
 42
-0.0137974553670441
 10
1673.3002106958804
 20
-1303.9951846035774
 10
1673.2993652409245
 20
-1304.0213033481834
 42
-0.0081336634216378
 10
1673.2845059057017
 20
-1304.3266508157894
 42
-0.0073526923566325
 10
1673.2601973723258
 20
-1304.6313990600895
 10
1673.2589359485444
 20
-1304.6447357347406
 42
-0.0066886138691559
 10
1673.2232003624993
 20
-1304.9753217782281
 10
1673.2215432730281
 20
-1304.9889433972294
 42
-0.0061359187359543
 10
1673.1736926709805
 20
-1305.3457073773059
 10
1673.1716551699042
 20
-1305.3596021801586
 42
-0.0056698610066497
 10
1673.1110048391376
 20
-1305.7428807489935
 10
1673.1085994058142
 20
-1305.7570398682274
 42
-0.0052721077274022
 10
1673.0344672050148
 20
-1306.1671672079042
 10
1673.0317040561729
 20
-1306.1815838432913
 42
-0.0049289272174053
 10
1672.9434099380671
 20
-1306.6188923544407
 10
1672.9402974433904
 20
-1306.6335612072294
 42
-0.0047415956712288
 10
1672.8370594518567
 20
-1307.0983579646454
 10
1672.8022912414983
 20
-1307.2481650600232
 42
-0.0084404470904103
 10
1672.6122747979273
 20
-1308.0083890845508
 10
1672.6061481099407
 20
-1308.0312532087078
 42
-0.0039635940258903
 10
1672.3846944256586
 20
-1308.8322420729476
 10
1672.3713176304771
 20
-1308.8791736895469
 42
-0.007247504083774
 10
1672.1038707426214
 20
-1309.7683934059144
 10
1672.0336584157963
 20
-1309.9901337558799
 42
-0.0051345458829478
 10
1671.7468990437278
 20
-1310.8644589437204
 10
1671.7253727769232
 20
-1310.9278852109599
 42
-0.0019150016597793
 10
1671.4698393700935
 20
-1311.6714343310764
 10
1671.4633717657453
 20
-1311.69002179586
 42
-0.0021524362755524
 10
1671.2148937146335
 20
-1312.394347617706
 10
1671.2056832939325
 20
-1312.4201011960204
 42
-0.0024331286821127
 10
1670.9694280349011
 20
-1313.0707005041254
 10
1670.9603800823381
 20
-1313.0952438105132
 42
-0.0027449721786225
 10
1670.7357655115152
 20
-1313.6943736894043
 10
1670.7268755041296
 20
-1313.7176962792391
 42
-0.0031083229770499
 10
1670.5133330175131
 20
-1314.2676203168362
 10
1670.5045968858292
 20
-1314.289710032715
 42
-0.0035311343281068
 10
1670.3015557002457
 20
-1314.7926931584241
 10
1670.2929703611055
 20
-1314.8135358819161
 42
-0.0040245640949826
 10
1670.0998585573034
 20
-1315.2718452045269
 10
1670.0914224437067
 20
-1315.291424572584
 42
-0.0046015135854629
 10
1669.9076661505367
 20
-1315.7073296022411
 10
1669.8993799727084
 20
-1315.7256267416931
 42
-0.0052768638272314
 10
1669.7244024537526
 20
-1316.1013996259635
 10
1669.7162702431306
 20
-1316.1183929644969
 42
-0.0060672675643152
 10
1669.5494906303597
 20
-1316.4563085876209
 10
1669.5415211498691
 20
-1316.471973846636
 42
-0.0069904648866431
 10
1669.382352755877
 20
-1316.7743096532818
 10
1669.3745613562792
 20
-1316.7886202024854
 42
-0.0080637022775814
 10
1669.2224094959201
 20
-1317.0576555056623
 10
1669.2148204632974
 20
-1317.0705833712484
 42
-0.0093006455678141
 10
1669.0690797867574
 20
-1317.308597769766
 10
1669.0617291200201
 20
-1317.3201157389294
 42
-0.010706077805625
 10
1668.9217805765754
 20
-1317.5293860563183
 10
1668.9147188082941
 20
-1317.5394715988868
 42
-0.0122723111414809
 10
1668.7799250900975
 20
-1317.7222649283731
 10
1668.7795988665459
 20
-1317.7226853161794
 42
-0.0141836319634082
 10
1668.6360172635696
 20
-1317.8972550740123
 10
1668.6290695079165
 20
-1317.9052300742781
 42
-0.0175957477204414
 10
1668.4891633398829
 20
-1318.0548509626819
 42
-0.0080466359668469
 10
1668.3416995748476
 20
-1318.1971734908379
 10
1668.2956650303352
 20
-1318.2401939289243
 42
-0.0269600260393796
 10
1668.0423847843515
 20
-1318.4525171874341
 10
1667.9758176480611
 20
-1318.5024686020529
 42
-0.0178362839758379
 10
1667.7358731583993
 20
-1318.6694865283098
 10
1667.7286281874008
 20
-1318.6741550405134
 42
-0.0174650732651163
 10
1667.4922919899577
 20
-1318.8150160054738
 42
-0.0169240130158726
 10
1667.246825744093
 20
-1318.9393082652546
 10
1667.2008395885423
 20
-1318.9606702208184
 42
-0.031888303684235
 10
1666.8504887329243
 20
-1319.0970085303279
 10
1666.7821231977548
 20
-1319.1187091508048
 42
-0.0284435909901781
 10
1666.4060730714664
 20
-1319.2149265862786
 10
1666.3709149109684
 20
-1319.221820182107
 42
-0.0243909341015363
 10
1666.0574714500488
 20
-1319.2675412131373
 10
1666.0071907232791
 20
-1319.2723867600389
 42
-0.0196639292930361
 10
1665.7915951457503
 20
-1319.2846350455525
 10
1665.7397710745824
 20
-1319.2855383062893
 42
-0.0100501510681073
 10
1665.6273477929226
 20
-1319.2852379079361
 10
1665.5956879315736
 20
-1319.2845168360507
 42
-0.0019752031111603
 10
1665.5465955948973
 20
-1319.2832046758413
 10
1665.5438352916672
 20
-1319.2831199840148
 42
0.0065378752026593
 10
1665.5002587169206
 20
-1319.2823530927999
 42
-0.0167974694670538
 10
1665.4567278939892
 20
-1319.2806931942737
 10
1665.4526485547267
 20
-1319.2804001833788
 42
-0.0081283276309965
 10
1665.4010887569966
 20
-1319.2758531897418
 10
1665.3893491831095
 20
-1319.2746252721627
 42
-0.0126703440184322
 10
1665.3146308873165
 20
-1319.2648904810912
 10
1665.2918430196391
 20
-1319.2613322251759
 42
-0.0117852088438102
 10
1665.1723040338059
 20
-1319.2397692300185
 10
1665.1169235820437
 20
-1319.2284256897842
 42
-0.0251774592289614
 10
1664.8900795430347
 20
-1319.1699276803511
 10
1664.8453603531837
 20
-1319.1559608610157
 42
-0.014652519988195
 10
1664.6589673656463
 20
-1319.0916943338179
 42
-0.0166929435856965
 10
1664.4769897095189
 20
-1319.0158872007628
 10
1664.4723330782465
 20
-1319.0137623001492
 42
-0.0191684358436554
 10
1664.2871494469966
 20
-1318.9205262163587
 10
1664.2838168612404
 20
-1318.9186849688058
 42
-0.022118178180975
 10
1664.1005065573358
 20
-1318.8065514704335
 10
1664.0981567533297
 20
-1318.8049671724441
 42
-0.0254984685385849
 10
1663.9218666029451
 20
-1318.6725560224752
 10
1663.8993844552415
 20
-1318.6538037135374
 42
-0.0292492648805943
 10
1663.7746155163993
 20
-1318.5367109138951
 42
-0.0159048957504727
 10
1663.6607755189514
 20
-1318.4086909222985
 10
1663.6594567283701
 20
-1318.4071093092762
 42
-0.0343813379563849
 10
1663.5568194667449
 20
-1318.2652379835085
 10
1663.5253279353824
 20
-1318.2147345914116
 42
-0.0369117275700813
 10
1663.4394354334856
 20
-1318.0512573504641
 42
-0.0191751379902214
 10
1663.3722420479266
 20
-1317.8788527444524
 10
1663.3704787241691
 20
-1317.8737593997832
 42
-0.0378178042224123
 10
1663.3206840053849
 20
-1317.6848186237009
 10
1663.3146887096541
 20
-1317.6522580055018
 42
-0.0184846046472939
 10
1663.2939715103603
 20
-1317.51050518496
 42
-0.0179866351300627
 10
1663.2836385052863
 20
-1317.3676143718751
 10
1663.2835820628407
 20
-1317.3660566852664
 42
-0.0085497186093974
 10
1663.282149781737
 20
-1317.2911835202565
 42
-0.0085497186093974
  0
ENDBLK
  5
53
100
AcDbEntity
  8
template
390
0
100
AcDbBlockEnd
  0
BLOCK
  5
54
100
AcDbEntity
  8
notes
390
0
100
AcDbBlockBegin
  2
*D3
 70
               1
 10
0.0
 20
0.0
 30
0.0
  3
*D3
  1

  0
LINE
  5
55
100
AcDbEntity
  8
0
370
              -2
390
0
  6
Continuous
 62
               0
100
AcDbLine
 10
-681.8722959685349
 20
665.58033563807987
 30
0.0
 11
-681.8722959685349
 21
890.58033563807987
 31
0.0
  0
LINE
  5
56
100
AcDbEntity
  8
0
370
              -2
390
0
  6
Continuous
 62
               0
100
AcDbLine
 10
-331.87229596853496
 20
665.58033563807987
 30
0.0
 11
-331.87229596853496
 21
890.58033563807987
 31
0.0
  0
LINE
  5
57
100
AcDbEntity
  8
0
370
              -2
390
0
  6
Continuous
 62
               0
100
AcDbLine
 10
-681.8722959685349
 20
890.58033563807987
 30
0.0
 11
-331.87229596853496
 21
890.58033563807987
 31
0.0
  0
CIRCLE
  5
58
102
{ACAD_REACTORS
330
59
102
}
100
AcDbEntity
  8
0
370
              -2
390
0
  6
Continuous
 62
               0
100
AcDbCircle
 10
-681.8722959685349
 20
890.58033563807987
 30
0.0
 40
4.99969482421875
  0
HATCH
  5
59
100
AcDbEntity
  8
0
370
              -2
390
0
  6
Continuous
 62
               0
100
AcDbHatch
 10
0.0
 20
0.0
 30
0.0
210
0.0
220
0.0
230
1.0
  2
SOLID
 70
               1
 71
               1
 91
        1
 92
        1
 93
        1
 72
               2
 10
-681.8722959685349
 20
890.58033563807987
 40
4.99969482421875
 50
0.0
 51
360.0
 73
               0
 97
        1
330
58
 75
               0
 76
               1
 98
        1
 10
0.0
 20
0.0
  0
CIRCLE
  5
5A
102
{ACAD_REACTORS
330
5B
102
}
100
AcDbEntity
  8
0
370
              -2
390
0
  6
Continuous
 62
               0
100
AcDbCircle
 10
-331.87229596853496
 20
890.58033563807987
 30
0.0
 40
4.99969482421875
  0
HATCH
  5
5B
100
AcDbEntity
  8
0
370
              -2
390
0
  6
Continuous
 62
               0
100
AcDbHatch
 10
0.0
 20
0.0
 30
0.0
210
0.0
220
0.0
230
1.0
  2
SOLID
 70
               1
 71
               1
 91
        1
 92
        1
 93
        1
 72
               2
 10
-331.87229596853496
 20
890.58033563807987
 40
4.99969482421875
 50
0.0
 51
360.0
 73
               0
 97
        1
330
5A
 75
               0
 76
               1
 98
        1
 10
0.0
 20
0.0
  0
MTEXT
  5
5C
100
AcDbEntity
  8
0
390
0
 62
               0
100
AcDbMText
 10
-546.5597959685349
 20
924.45795282557992
 30
0.0
 40
24.432617187500004
 41
0.0
 71
               1
 72
               1
  1
φ350
  7
ＭＳ ゴシック
 73
               1
 44
0.7828267384257843
  0
POINT
  5
5D
100
AcDbEntity
  8
Defpoints
370
               0
390
0
 62
               0
100
AcDbPoint
 10
-331.87229596853496
 20
640.58033563807987
 30
0.0
  0
POINT
  5
5E
100
AcDbEntity
  8
Defpoints
370
               0
390
0
 62
               0
100
AcDbPoint
 10
-681.8722959685349
 20
640.58033563807987
 30
0.0
  0
POINT
  5
5F
100
AcDbEntity
  8
Defpoints
370
               0
390
0
 62
               0
100
AcDbPoint
 10
-681.8722959685349
 20
890.58033563807987
 30
0.0
  0
ENDBLK
  5
60
100
AcDbEntity
  8
notes
390
0
100
AcDbBlockEnd
  0
BLOCK
  5
61
100
AcDbEntity
  8
notes
390
0
100
AcDbBlockBegin
  2
*D4
 70
               1
 10
0.0
 20
0.0
 30
0.0
  3
*D4
  1

  0
LINE
  5
62
100
AcDbEntity
  8
0
370
              -2
390
0
  6
Continuous
 62
               0
100
AcDbLine
 10
-656.8722959685349
 20
500.44155375148011
 30
0.0
 11
-656.8722959685349
 21
340.58033563807987
 31
0.0
  0
LINE
  5
63
100
AcDbEntity
  8
0
370
              -2
390
0
  6
Continuous
 62
               0
100
AcDbLine
 10
-356.87229596853496
 20
500.44155375148011
 30
0.0
 11
-356.87229596853496
 21
340.58033563807987
 31
0.0
  0
LINE
  5
64
100
AcDbEntity
  8
0
370
              -2
390
0
  6
Continuous
 62
               0
100
AcDbLine
 10
-656.8722959685349
 20
340.58033563807987
 30
0.0
 11
-356.87229596853496
 21
340.58033563807987
 31
0.0
  0
CIRCLE
  5
65
102
{ACAD_REACTORS
330
66
102
}
100
AcDbEntity
  8
0
370
              -2
390
0
  6
Continuous
 62
               0
100
AcDbCircle
 10
-656.8722959685349
 20
340.58033563807987
 30
0.0
 40
4.99969482421875
  0
HATCH
  5
66
100
AcDbEntity
  8
0
370
              -2
390
0
  6
Continuous
 62
               0
100
AcDbHatch
 10
0.0
 20
0.0
 30
0.0
210
0.0
220
0.0
230
1.0
  2
SOLID
 70
               1
 71
               1
 91
        1
 92
        1
 93
        1
 72
               2
 10
-656.8722959685349
 20
340.58033563807987
 40
4.99969482421875
 50
0.0
 51
360.0
 73
               0
 97
        1
330
65
 75
               0
 76
               1
 98
        1
 10
0.0
 20
0.0
  0
CIRCLE
  5
67
102
{ACAD_REACTORS
330
68
102
}
100
AcDbEntity
  8
0
370
              -2
390
0
  6
Continuous
 62
               0
100
AcDbCircle
 10
-356.87229596853496
 20
340.58033563807987
 30
0.0
 40
4.99969482421875
  0
HATCH
  5
68
100
AcDbEntity
  8
0
370
              -2
390
0
  6
Continuous
 62
               0
100
AcDbHatch
 10
0.0
 20
0.0
 30
0.0
210
0.0
220
0.0
230
1.0
  2
SOLID
 70
               1
 71
               1
 91
        1
 92
        1
 93
        1
 72
               2
 10
-356.87229596853496
 20
340.58033563807987
 40
4.99969482421875
 50
0.0
 51
360.0
 73
               0
 97
        1
330
67
 75
               0
 76
               1
 98
        1
 10
0.0
 20
0.0
  0
MTEXT
  5
69
100
AcDbEntity
  8
0
390
0
 62
               0
100
AcDbMText
 10
-546.5597959685349
 20
374.45795282557992
 30
0.0
 40
24.432617187500004
 41
0.0
 71
               1
 72
               1
  1
φ300
  7
ＭＳ ゴシック
 73
               1
 44
0.7828267384257843
  0
POINT
  5
6A
100
AcDbEntity
  8
Defpoints
370
               0
390
0
 62
               0
100
AcDbPoint
 10
-356.87229596853496
 20
525.44155375148011
 30
0.0
  0
POINT
  5
6B
100
AcDbEntity
  8
Defpoints
370
               0
390
0
 62
               0
100
AcDbPoint
 10
-656.8722959685349
 20
525.44155375148011
 30
0.0
  0
POINT
  5
6C
100
AcDbEntity
  8
Defpoints
370
               0
390
0
 62
               0
100
AcDbPoint
 10
-656.8722959685349
 20
340.58033563807987
 30
0.0
  0
ENDBLK
  5
6D
100
AcDbEntity
  8
notes
390
0
100
AcDbBlockEnd
  0
BLOCK
  5
6E
100
AcDbEntity
  8
notes
390
0
100
AcDbBlockBegin
  2
*D5
 70
               1
 10
0.0
 20
0.0
 30
0.0
  3
*D5
  1

  0
LINE
  5
6F
100
AcDbEntity
  8
0
370
              -2
390
0
  6
Continuous
 62
               0
100
AcDbLine
 10
259.62770403146521
 20
570.58033563807987
 30
0.0
 11
259.62770403146521
 21
340.58033563807987
 31
0.0
  0
LINE
  5
70
100
AcDbEntity
  8
0
370
              -2
390
0
  6
Continuous
 62
               0
100
AcDbLine
 10
554.62770403146499
 20
570.58033563807987
 30
0.0
 11
554.62770403146499
 21
340.58033563807987
 31
0.0
  0
LINE
  5
71
100
AcDbEntity
  8
0
370
              -2
390
0
  6
Continuous
 62
               0
100
AcDbLine
 10
259.62770403146521
 20
340.58033563807987
 30
0.0
 11
554.62770403146499
 21
340.58033563807987
 31
0.0
  0
CIRCLE
  5
72
102
{ACAD_REACTORS
330
73
102
}
100
AcDbEntity
  8
0
370
              -2
390
0
  6
Continuous
 62
               0
100
AcDbCircle
 10
259.62770403146521
 20
340.58033563807987
 30
0.0
 40
4.99969482421875
  0
HATCH
  5
73
100
AcDbEntity
  8
0
370
              -2
390
0
  6
Continuous
 62
               0
100
AcDbHatch
 10
0.0
 20
0.0
 30
0.0
210
0.0
220
0.0
230
1.0
  2
SOLID
 70
               1
 71
               1
 91
        1
 92
        1
 93
        1
 72
               2
 10
259.62770403146521
 20
340.58033563807987
 40
4.99969482421875
 50
0.0
 51
360.0
 73
               0
 97
        1
330
72
 75
               0
 76
               1
 98
        1
 10
0.0
 20
0.0
  0
CIRCLE
  5
74
102
{ACAD_REACTORS
330
75
102
}
100
AcDbEntity
  8
0
370
              -2
390
0
  6
Continuous
 62
               0
100
AcDbCircle
 10
554.62770403146499
 20
340.58033563807987
 30
0.0
 40
4.99969482421875
  0
HATCH
  5
75
100
AcDbEntity
  8
0
370
              -2
390
0
  6
Continuous
 62
               0
100
AcDbHatch
 10
0.0
 20
0.0
 30
0.0
210
0.0
220
0.0
230
1.0
  2
SOLID
 70
               1
 71
               1
 91
        1
 92
        1
 93
        1
 72
               2
 10
554.62770403146499
 20
340.58033563807987
 40
4.99969482421875
 50
0.0
 51
360.0
 73
               0
 97
        1
330
74
 75
               0
 76
               1
 98
        1
 10
0.0
 20
0.0
  0
MTEXT
  5
76
100
AcDbEntity
  8
0
390
0
 62
               0
100
AcDbMText
 10
367.44020403146499
 20
374.45795282557992
 30
0.0
 40
24.432617187500004
 41
0.0
 71
               1
 72
               1
  1
φ295
  7
ＭＳ ゴシック
 73
               1
 44
0.7828267384257843
  0
POINT
  5
77
100
AcDbEntity
  8
Defpoints
370
               0
390
0
 62
               0
100
AcDbPoint
 10
554.62770403146499
 20
595.58033563807987
 30
0.0
  0
POINT
  5
78
100
AcDbEntity
  8
Defpoints
370
               0
390
0
 62
               0
100
AcDbPoint
 10
259.62770403146521
 20
595.58033563807987
 30
0.0
  0
POINT
  5
79
100
AcDbEntity
  8
Defpoints
370
               0
390
0
 62
               0
100
AcDbPoint
 10
259.62770403146521
 20
340.58033563807987
 30
0.0
  0
ENDBLK
  5
7A
100
AcDbEntity
  8
notes
390
0
100
AcDbBlockEnd
  0
BLOCK
  5
7B
100
AcDbEntity
  8
notes
390
0
100
AcDbBlockBegin
  2
*D6
 70
               1
 10
0.0
 20
0.0
 30
0.0
  3
*D6
  1

  0
LINE
  5
7C
100
AcDbEntity
  8
0
370
              -2
390
0
  6
Continuous
 62
               0
100
AcDbLine
 10
357.12770403146499
 20
590.58033563807987
 30
0.0
 11
357.12770403146499
 21
515.58033563807987
 31
0.0
  0
LINE
  5
7D
100
AcDbEntity
  8
0
370
              -2
390
0
  6
Continuous
 62
               0
100
AcDbLine
 10
457.12770403146499
 20
590.58033563807987
 30
0.0
 11
457.12770403146499
 21
515.58033563807987
 31
0.0
  0
LINE
  5
7E
100
AcDbEntity
  8
0
370
              -2
390
0
  6
Continuous
 62
               0
100
AcDbLine
 10
357.12770403146499
 20
515.58033563807987
 30
0.0
 11
457.12770403146499
 21
515.58033563807987
 31
0.0
  0
CIRCLE
  5
7F
102
{ACAD_REACTORS
330
80
102
}
100
AcDbEntity
  8
0
370
              -2
390
0
  6
Continuous
 62
               0
100
AcDbCircle
 10
357.12770403146499
 20
515.58033563807987
 30
0.0
 40
4.99969482421875
  0
HATCH
  5
80
100
AcDbEntity
  8
0
370
              -2
390
0
  6
Continuous
 62
               0
100
AcDbHatch
 10
0.0
 20
0.0
 30
0.0
210
0.0
220
0.0
230
1.0
  2
SOLID
 70
               1
 71
               1
 91
        1
 92
        1
 93
        1
 72
               2
 10
357.12770403146499
 20
515.58033563807987
 40
4.99969482421875
 50
0.0
 51
360.0
 73
               0
 97
        1
330
7F
 75
               0
 76
               1
 98
        1
 10
0.0
 20
0.0
  0
CIRCLE
  5
81
102
{ACAD_REACTORS
330
82
102
}
100
AcDbEntity
  8
0
370
              -2
390
0
  6
Continuous
 62
               0
100
AcDbCircle
 10
457.12770403146499
 20
515.58033563807987
 30
0.0
 40
4.99969482421875
  0
HATCH
  5
82
100
AcDbEntity
  8
0
370
              -2
390
0
  6
Continuous
 62
               0
100
AcDbHatch
 10
0.0
 20
0.0
 30
0.0
210
0.0
220
0.0
230
1.0
  2
SOLID
 70
               1
 71
               1
 91
        1
 92
        1
 93
        1
 72
               2
 10
457.12770403146499
 20
515.58033563807987
 40
4.99969482421875
 50
0.0
 51
360.0
 73
               0
 97
        1
330
81
 75
               0
 76
               1
 98
        1
 10
0.0
 20
0.0
  0
MTEXT
  5
83
100
AcDbEntity
  8
0
390
0
 62
               0
100
AcDbMText
 10
367.44020403146499
 20
549.45795282557992
 30
0.0
 40
24.432617187500004
 41
0.0
 71
               1
 72
               1
  1
φ100
  7
ＭＳ ゴシック
 73
               1
 44
0.7828267384257843
  0
POINT
  5
84
100
AcDbEntity
  8
Defpoints
370
               0
390
0
 62
               0
100
AcDbPoint
 10
457.12770403146499
 20
615.58033563807987
 30
0.0
  0
POINT
  5
85
100
AcDbEntity
  8
Defpoints
370
               0
390
0
 62
               0
100
AcDbPoint
 10
357.12770403146499
 20
615.58033563807987
 30
0.0
  0
POINT
  5
86
100
AcDbEntity
  8
Defpoints
370
               0
390
0
 62
               0
100
AcDbPoint
 10
357.12770403146499
 20
515.58033563807987
 30
0.0
  0
ENDBLK
  5
87
100
AcDbEntity
  8
notes
390
0
100
AcDbBlockEnd
  0
BLOCK
  5
88
100
AcDbEntity
  8
notes
390
0
100
AcDbBlockBegin
  2
*D7
 70
               1
 10
0.0
 20
0.0
 30
0.0
  3
*D7
  1

  0
LINE
  5
89
100
AcDbEntity
  8
0
370
              -2
390
0
  6
Continuous
 62
               0
100
AcDbLine
 10
-311.92332169021716
 20
-347.85266784359828
 30
0.0
 11
-181.92436303147599
 21
-347.85266784359828
 31
0.0
  0
LINE
  5
8A
100
AcDbEntity
  8
0
370
              -2
390
0
  6
Continuous
 62
               0
100
AcDbLine
 10
-382.38811938721989
 20
-497.8526678435976
 30
0.0
 11
-181.92436303147599
 21
-497.8526678435976
 31
0.0
  0
LINE
  5
8B
100
AcDbEntity
  8
0
370
              -2
390
0
  6
Continuous
 62
               0
100
AcDbLine
 10
-181.92436303147599
 20
-347.85266784359828
 30
0.0
 11
-181.92436303147599
 21
-497.8526678435976
 31
0.0
  0
CIRCLE
  5
8C
102
{ACAD_REACTORS
330
8D
102
}
100
AcDbEntity
  8
0
370
              -2
390
0
  6
Continuous
 62
               0
100
AcDbCircle
 10
-181.92436303147599
 20
-347.85266784359828
 30
0.0
 40
4.99969482421875
  0
HATCH
  5
8D
100
AcDbEntity
  8
0
370
              -2
390
0
  6
Continuous
 62
               0
100
AcDbHatch
 10
0.0
 20
0.0
 30
0.0
210
0.0
220
0.0
230
1.0
  2
SOLID
 70
               1
 71
               1
 91
        1
 92
        1
 93
        1
 72
               2
 10
-181.92436303147599
 20
-347.85266784359828
 40
4.99969482421875
 50
0.0
 51
360.0
 73
               0
 97
        1
330
8C
 75
               0
 76
               1
 98
        1
 10
0.0
 20
0.0
  0
CIRCLE
  5
8E
102
{ACAD_REACTORS
330
8F
102
}
100
AcDbEntity
  8
0
370
              -2
390
0
  6
Continuous
 62
               0
100
AcDbCircle
 10
-181.92436303147599
 20
-497.8526678435976
 30
0.0
 40
4.99969482421875
  0
HATCH
  5
8F
100
AcDbEntity
  8
0
370
              -2
390
0
  6
Continuous
 62
               0
100
AcDbHatch
 10
0.0
 20
0.0
 30
0.0
210
0.0
220
0.0
230
1.0
  2
SOLID
 70
               1
 71
               1
 91
        1
 92
        1
 93
        1
 72
               2
 10
-181.92436303147599
 20
-497.8526678435976
 40
4.99969482421875
 50
0.0
 51
360.0
 73
               0
 97
        1
330
8E
 75
               0
 76
               1
 98
        1
 10
0.0
 20
0.0
  0
MTEXT
  5
90
100
AcDbEntity
  8
0
390
0
 62
               0
100
AcDbMText
 10
-215.80198021897604
 20
-446.66516952577342
 30
0.0
 40
24.432617187500004
 41
0.0
 71
               1
 72
               1
  1
150
  7
ＭＳ ゴシック
 11
0.0
 21
1.0
 31
0.0
 73
               1
 44
0.7828267384257843
  0
POINT
  5
91
100
AcDbEntity
  8
Defpoints
370
               0
390
0
 62
               0
100
AcDbPoint
 10
-407.38811938721989
 20
-497.8526678435976
 30
0.0
  0
POINT
  5
92
100
AcDbEntity
  8
Defpoints
370
               0
390
0
 62
               0
100
AcDbPoint
 10
-336.92332169021716
 20
-347.85266784359828
 30
0.0
  0
POINT
  5
93
100
AcDbEntity
  8
Defpoints
370
               0
390
0
 62
               0
100
AcDbPoint
 10
-181.92436303147599
 20
-347.85266784359828
 30
0.0
  0
ENDBLK
  5
94
100
AcDbEntity
  8
notes
390
0
100
AcDbBlockEnd
  0
BLOCK
  5
95
100
AcDbEntity
  8
notes
390
0
100
AcDbBlockBegin
  2
*D8
 70
               1
 10
0.0
 20
0.0
 30
0.0
  3
*D8
  1

  0
LINE
  5
96
100
AcDbEntity
  8
0
370
              -2
390
0
  6
Continuous
 62
               0
100
AcDbLine
 10
-482.54292253226026
 20
-347.85266784359828
 30
0.0
 11
-495.15460381407536
 21
-347.85266784359828
 31
0.0
  0
LINE
  5
97
100
AcDbEntity
  8
0
370
              -2
390
0
  6
Continuous
 62
               0
100
AcDbLine
 10
-482.54292253226026
 20
-467.85266784359783
 30
0.0
 11
-495.15460381407536
 21
-467.85266784359783
 31
0.0
  0
LINE
  5
98
100
AcDbEntity
  8
0
370
              -2
390
0
  6
Continuous
 62
               0
100
AcDbLine
 10
-495.15460381407536
 20
-347.85266784359828
 30
0.0
 11
-495.15460381407536
 21
-196.36598656178322
 31
0.0
  0
LINE
  5
99
100
AcDbEntity
  8
0
370
              -2
390
0
  6
Continuous
 62
               0
100
AcDbLine
 10
-495.15460381407536
 20
-347.85266784359828
 30
0.0
 11
-495.15460381407536
 21
-467.85266784359783
 31
0.0
  0
CIRCLE
  5
9A
102
{ACAD_REACTORS
330
9B
102
}
100
AcDbEntity
  8
0
370
              -2
390
0
  6
Continuous
 62
               0
100
AcDbCircle
 10
-495.15460381407536
 20
-347.85266784359828
 30
0.0
 40
4.99969482421875
  0
HATCH
  5
9B
100
AcDbEntity
  8
0
370
              -2
390
0
  6
Continuous
 62
               0
100
AcDbHatch
 10
0.0
 20
0.0
 30
0.0
210
0.0
220
0.0
230
1.0
  2
SOLID
 70
               1
 71
               1
 91
        1
 92
        1
 93
        1
 72
               2
 10
-495.15460381407536
 20
-347.85266784359828
 40
4.99969482421875
 50
0.0
 51
360.0
 73
               0
 97
        1
330
9A
 75
               0
 76
               1
 98
        1
 10
0.0
 20
0.0
  0
CIRCLE
  5
9C
102
{ACAD_REACTORS
330
9D
102
}
100
AcDbEntity
  8
0
370
              -2
390
0
  6
Continuous
 62
               0
100
AcDbCircle
 10
-495.15460381407536
 20
-467.85266784359783
 30
0.0
 40
4.99969482421875
  0
HATCH
  5
9D
100
AcDbEntity
  8
0
370
              -2
390
0
  6
Continuous
 62
               0
100
AcDbHatch
 10
0.0
 20
0.0
 30
0.0
210
0.0
220
0.0
230
1.0
  2
SOLID
 70
               1
 71
               1
 91
        1
 92
        1
 93
        1
 72
               2
 10
-495.15460381407536
 20
-467.85266784359783
 40
4.99969482421875
 50
0.0
 51
360.0
 73
               0
 97
        1
330
9C
 75
               0
 76
               1
 98
        1
 10
0.0
 20
0.0
  0
MTEXT
  5
9E
100
AcDbEntity
  8
0
390
0
 62
               0
100
AcDbMText
 10
-529.03222100157541
 20
-339.24098656178319
 30
0.0
 40
24.432617187500004
 41
0.0
 71
               1
 72
               1
  1
120(深さ)
  7
ＭＳ ゴシック
 11
0.0
 21
1.0
 31
0.0
 73
               1
 44
0.7828267384257843
  0
POINT
  5
9F
100
AcDbEntity
  8
Defpoints
370
               0
390
0
 62
               0
100
AcDbPoint
 10
-507.54292253226026
 20
-467.85266784359783
 30
0.0
  0
POINT
  5
A0
100
AcDbEntity
  8
Defpoints
370
               0
390
0
 62
               0
100
AcDbPoint
 10
-507.54292253226026
 20
-347.85266784359828
 30
0.0
  0
POINT
  5
A1
100
AcDbEntity
  8
Defpoints
370
               0
390
0
 62
               0
100
AcDbPoint
 10
-495.15460381407536
 20
-347.85266784359828
 30
0.0
  0
ENDBLK
  5
A2
100
AcDbEntity
  8
notes
390
0
100
AcDbBlockEnd
  0
BLOCK
  5
A3
100
AcDbEntity
  8
notes
390
0
100
AcDbBlockBegin
  2
*D9
 70
               1
 10
0.0
 20
0.0
 30
0.0
  3
*D9
  1

  0
LINE
  5
A4
100
AcDbEntity
  8
0
370
              -2
390
0
  6
Continuous
 62
               0
100
AcDbLine
 10
-617.55789606468545
 20
-522.8526678435976
 30
0.0
 11
-617.55789606468545
 21
-597.8526678435976
 31
0.0
  0
LINE
  5
A5
100
AcDbEntity
  8
0
370
              -2
390
0
  6
Continuous
 62
               0
100
AcDbLine
 10
-397.55789606468551
 20
-522.8526678435976
 30
0.0
 11
-397.55789606468551
 21
-597.8526678435976
 31
0.0
  0
LINE
  5
A6
100
AcDbEntity
  8
0
370
              -2
390
0
  6
Continuous
 62
               0
100
AcDbLine
 10
-617.55789606468545
 20
-597.8526678435976
 30
0.0
 11
-397.55789606468551
 21
-597.8526678435976
 31
0.0
  0
CIRCLE
  5
A7
102
{ACAD_REACTORS
330
A8
102
}
100
AcDbEntity
  8
0
370
              -2
390
0
  6
Continuous
 62
               0
100
AcDbCircle
 10
-617.55789606468545
 20
-597.8526678435976
 30
0.0
 40
4.99969482421875
  0
HATCH
  5
A8
100
AcDbEntity
  8
0
370
              -2
390
0
  6
Continuous
 62
               0
100
AcDbHatch
 10
0.0
 20
0.0
 30
0.0
210
0.0
220
0.0
230
1.0
  2
SOLID
 70
               1
 71
               1
 91
        1
 92
        1
 93
        1
 72
               2
 10
-617.55789606468545
 20
-597.8526678435976
 40
4.99969482421875
 50
0.0
 51
360.0
 73
               0
 97
        1
330
A7
 75
               0
 76
               1
 98
        1
 10
0.0
 20
0.0
  0
CIRCLE
  5
A9
102
{ACAD_REACTORS
330
AA
102
}
100
AcDbEntity
  8
0
370
              -2
390
0
  6
Continuous
 62
               0
100
AcDbCircle
 10
-397.55789606468551
 20
-597.8526678435976
 30
0.0
 40
4.99969482421875
  0
HATCH
  5
AA
100
AcDbEntity
  8
0
370
              -2
390
0
  6
Continuous
 62
               0
100
AcDbHatch
 10
0.0
 20
0.0
 30
0.0
210
0.0
220
0.0
230
1.0
  2
SOLID
 70
               1
 71
               1
 91
        1
 92
        1
 93
        1
 72
               2
 10
-397.55789606468551
 20
-597.8526678435976
 40
4.99969482421875
 50
0.0
 51
360.0
 73
               0
 97
        1
330
A9
 75
               0
 76
               1
 98
        1
 10
0.0
 20
0.0
  0
MTEXT
  5
AB
100
AcDbEntity
  8
0
390
0
 62
               0
100
AcDbMText
 10
-547.24539606468545
 20
-563.97505065609755
 30
0.0
 40
24.432617187500004
 41
0.0
 71
               1
 72
               1
  1
φ220
  7
ＭＳ ゴシック
 73
               1
 44
0.7828267384257843
  0
POINT
  5
AC
100
AcDbEntity
  8
Defpoints
370
               0
390
0
 62
               0
100
AcDbPoint
 10
-397.55789606468551
 20
-497.8526678435976
 30
0.0
  0
POINT
  5
AD
100
AcDbEntity
  8
Defpoints
370
               0
390
0
 62
               0
100
AcDbPoint
 10
-617.55789606468545
 20
-497.8526678435976
 30
0.0
  0
POINT
  5
AE
100
AcDbEntity
  8
Defpoints
370
               0
390
0
 62
               0
100
AcDbPoint
 10
-617.55789606468545
 20
-597.8526678435976
 30
0.0
  0
ENDBLK
  5
AF
100
AcDbEntity
  8
notes
390
0
100
AcDbBlockEnd
  0
BLOCK
  5
B0
100
AcDbEntity
  8
notes
390
0
100
AcDbBlockBegin
  2
*D10
 70
               1
 10
0.0
 20
0.0
 30
0.0
  3
*D10
  1

  0
LINE
  5
B1
100
AcDbEntity
  8
0
370
              -2
390
0
  6
Continuous
 62
               0
100
AcDbLine
 10
-311.92332169021716
 20
-347.85266784359828
 30
0.0
 11
-231.92436303147599
 21
-347.85266784359828
 31
0.0
  0
LINE
  5
B2
100
AcDbEntity
  8
0
370
              -2
390
0
  6
Continuous
 62
               0
100
AcDbLine
 10
-322.08515833105702
 20
-422.85266784359817
 30
0.0
 11
-231.92436303147599
 21
-422.85266784359817
 31
0.0
  0
LINE
  5
B3
100
AcDbEntity
  8
0
370
              -2
390
0
  6
Continuous
 62
               0
100
AcDbLine
 10
-231.92436303147599
 20
-347.85266784359828
 30
0.0
 11
-231.92436303147599
 21
-422.85266784359817
 31
0.0
  0
CIRCLE
  5
B4
102
{ACAD_REACTORS
330
B5
102
}
100
AcDbEntity
  8
0
370
              -2
390
0
  6
Continuous
 62
               0
100
AcDbCircle
 10
-231.92436303147599
 20
-347.85266784359828
 30
0.0
 40
4.99969482421875
  0
HATCH
  5
B5
100
AcDbEntity
  8
0
370
              -2
390
0
  6
Continuous
 62
               0
100
AcDbHatch
 10
0.0
 20
0.0
 30
0.0
210
0.0
220
0.0
230
1.0
  2
SOLID
 70
               1
 71
               1
 91
        1
 92
        1
 93
        1
 72
               2
 10
-231.92436303147599
 20
-347.85266784359828
 40
4.99969482421875
 50
0.0
 51
360.0
 73
               0
 97
        1
330
B4
 75
               0
 76
               1
 98
        1
 10
0.0
 20
0.0
  0
CIRCLE
  5
B6
102
{ACAD_REACTORS
330
B7
102
}
100
AcDbEntity
  8
0
370
              -2
390
0
  6
Continuous
 62
               0
100
AcDbCircle
 10
-231.92436303147599
 20
-422.85266784359817
 30
0.0
 40
4.99969482421875
  0
HATCH
  5
B7
100
AcDbEntity
  8
0
370
              -2
390
0
  6
Continuous
 62
               0
100
AcDbHatch
 10
0.0
 20
0.0
 30
0.0
210
0.0
220
0.0
230
1.0
  2
SOLID
 70
               1
 71
               1
 91
        1
 92
        1
 93
        1
 72
               2
 10
-231.92436303147599
 20
-422.85266784359817
 40
4.99969482421875
 50
0.0
 51
360.0
 73
               0
 97
        1
330
B6
 75
               0
 76
               1
 98
        1
 10
0.0
 20
0.0
  0
MTEXT
  5
B8
100
AcDbEntity
  8
0
390
0
 62
               0
100
AcDbMText
 10
-265.80198021897598
 20
-401.22766784359828
 30
0.0
 40
24.432617187500004
 41
0.0
 71
               1
 72
               1
  1
75
  7
ＭＳ ゴシック
 11
0.0
 21
1.0
 31
0.0
 73
               1
 44
0.7828267384257843
  0
POINT
  5
B9
100
AcDbEntity
  8
Defpoints
370
               0
390
0
 62
               0
100
AcDbPoint
 10
-347.08515833105702
 20
-422.85266784359817
 30
0.0
  0
POINT
  5
BA
100
AcDbEntity
  8
Defpoints
370
               0
390
0
 62
               0
100
AcDbPoint
 10
-336.92332169021716
 20
-347.85266784359828
 30
0.0
  0
POINT
  5
BB
100
AcDbEntity
  8
Defpoints
370
               0
390
0
 62
               0
100
AcDbPoint
 10
-231.92436303147599
 20
-347.85266784359828
 30
0.0
  0
ENDBLK
  5
BC
100
AcDbEntity
  8
notes
390
0
100
AcDbBlockEnd
  0
BLOCK
  5
BD
100
AcDbEntity
  8
notes
390
0
100
AcDbBlockBegin
  2
*D11
 70
               1
 10
0.0
 20
0.0
 30
0.0
  3
*D11
  1

  0
LINE
  5
BE
100
AcDbEntity
  8
0
370
              -2
390
0
  6
Continuous
 62
               0
100
AcDbLine
 10
-322.08515833105702
 20
-422.85266784359817
 30
0.0
 11
-231.92436303147599
 21
-422.85266784359817
 31
0.0
  0
LINE
  5
BF
100
AcDbEntity
  8
0
370
              -2
390
0
  6
Continuous
 62
               0
100
AcDbLine
 10
-379.87229596853473
 20
-497.8526678435976
 30
0.0
 11
-231.92436303147599
 21
-497.8526678435976
 31
0.0
  0
LINE
  5
C0
100
AcDbEntity
  8
0
370
              -2
390
0
  6
Continuous
 62
               0
100
AcDbLine
 10
-231.92436303147599
 20
-422.85266784359817
 30
0.0
 11
-231.92436303147599
 21
-497.8526678435976
 31
0.0
  0
CIRCLE
  5
C1
102
{ACAD_REACTORS
330
C2
102
}
100
AcDbEntity
  8
0
370
              -2
390
0
  6
Continuous
 62
               0
100
AcDbCircle
 10
-231.92436303147599
 20
-422.85266784359817
 30
0.0
 40
4.99969482421875
  0
HATCH
  5
C2
100
AcDbEntity
  8
0
370
              -2
390
0
  6
Continuous
 62
               0
100
AcDbHatch
 10
0.0
 20
0.0
 30
0.0
210
0.0
220
0.0
230
1.0
  2
SOLID
 70
               1
 71
               1
 91
        1
 92
        1
 93
        1
 72
               2
 10
-231.92436303147599
 20
-422.85266784359817
 40
4.99969482421875
 50
0.0
 51
360.0
 73
               0
 97
        1
330
C1
 75
               0
 76
               1
 98
        1
 10
0.0
 20
0.0
  0
CIRCLE
  5
C3
102
{ACAD_REACTORS
330
C4
102
}
100
AcDbEntity
  8
0
370
              -2
390
0
  6
Continuous
 62
               0
100
AcDbCircle
 10
-231.92436303147599
 20
-497.8526678435976
 30
0.0
 40
4.99969482421875
  0
HATCH
  5
C4
100
AcDbEntity
  8
0
370
              -2
390
0
  6
Continuous
 62
               0
100
AcDbHatch
 10
0.0
 20
0.0
 30
0.0
210
0.0
220
0.0
230
1.0
  2
SOLID
 70
               1
 71
               1
 91
        1
 92
        1
 93
        1
 72
               2
 10
-231.92436303147599
 20
-497.8526678435976
 40
4.99969482421875
 50
0.0
 51
360.0
 73
               0
 97
        1
330
C3
 75
               0
 76
               1
 98
        1
 10
0.0
 20
0.0
  0
MTEXT
  5
C5
100
AcDbEntity
  8
0
390
0
 62
               0
100
AcDbMText
 10
-265.80198021897598
 20
-476.22766784359794
 30
0.0
 40
24.432617187500004
 41
0.0
 71
               1
 72
               1
  1
75
  7
ＭＳ ゴシック
 11
0.0
 21
1.0
 31
0.0
 73
               1
 44
0.7828267384257843
  0
POINT
  5
C6
100
AcDbEntity
  8
Defpoints
370
               0
390
0
 62
               0
100
AcDbPoint
 10
-404.87229596853473
 20
-497.8526678435976
 30
0.0
  0
POINT
  5
C7
100
AcDbEntity
  8
Defpoints
370
               0
390
0
 62
               0
100
AcDbPoint
 10
-347.08515833105702
 20
-422.85266784359817
 30
0.0
  0
POINT
  5
C8
100
AcDbEntity
  8
Defpoints
370
               0
390
0
 62
               0
100
AcDbPoint
 10
-231.92436303147599
 20
-422.85266784359817
 30
0.0
  0
ENDBLK
  5
C9
100
AcDbEntity
  8
notes
390
0
100
AcDbBlockEnd
  0
ENDSEC
  0
SECTION
  2
ENTITIES
  0
MTEXT
  5
CA
100
AcDbEntity
  8
template
390
0
 62
               7
100
AcDbMText
 10
-967.99999999975921
 20
-1147.4176292337004
 30
0.0
 40
16.288411458333332
 41
0.0
 71
               1
 72
               1
  1
品名
  7
ＭＳ ゴシック
 73
               1
 44
0.7828267384257843
  0
MTEXT
  5
CB
100
AcDbEntity
  8
template
390
0
 62
               7
100
AcDbMText
 10
-967.99999999975921
 20
-1232.4176292337004
 30
0.0
 40
16.288411458333332
 41
0.0
 71
               1
 72
               1
  1
仕様
  7
ＭＳ ゴシック
 73
               1
 44
0.7828267384257843
  0
MTEXT
  5
CC
100
AcDbEntity
  8
template
390
0
 62
               7
100
AcDbMText
 10
-914.99999999975921
 20
-1176.0000901712006
 30
0.0
 40
24.432617187500004
 41
0.0
 71
               1
 72
               1
  1
手洗器 -CATALANO,Sfera-
  7
ＭＳ ゴシック
 73
               1
 44
0.7828267384257843
  0
LINE
  5
CD
100
AcDbEntity
  8
template
370
               5
390
0
  6
Continuous
 62
               7
100
AcDbLine
 10
974.99999999975864
 20
-1224.0027073587005
 30
0.0
 11
-975.00000000024124
 21
-1224.0027073587005
 31
0.0
  0
LWPOLYLINE
  5
CE
100
AcDbEntity
  8
template
370
               5
390
0
  6
Continuous
 62
               7
100
AcDbPolyline
 90
        5
 70
             128
 10
975.00000000024113
 20
1405.9972926412995
 10
-974.99999999975921
 20
1405.9972926412995
 10
-974.99999999975921
 20
-1394.0027073587005
 10
975.00000000024113
 20
-1394.0027073587005
 10
975.00000000024113
 20
1405.9972926412995
  0
LINE
  5
CF
100
AcDbEntity
  8
template
370
               5
390
0
  6
Continuous
 62
               7
100
AcDbLine
 10
974.99999999975864
 20
-1139.0027073587005
 30
0.0
 11
-975.00000000024124
 21
-1139.0027073587005
 31
0.0
  0
LINE
  5
D0
100
AcDbEntity
  8
template
370
               5
390
0
  6
Continuous
 62
               7
100
AcDbLine
 10
975.00000000024113
 20
-1309.0027073587005
 30
0.0
 11
222.00000000024124
 21
-1309.0027073587005
 31
0.0
  0
MTEXT
  5
D1
100
AcDbEntity
  8
template
390
0
 62
               7
100
AcDbMText
 10
-974.99999999955594
 20
-1405.8565294155574
 30
0.0
 40
21.717881944444446
 41
0.0
 71
               1
 72
               1
  1
120308SH
  7
ＭＳ ゴシック
 73
               1
 44
0.7828267384257843
  0
MTEXT
  5
D2
100
AcDbEntity
  8
template
390
0
 62
               7
100
AcDbMText
 10
251.87140625250083
 20
-1338.9131018320081
 30
0.0
 40
24.432617187500004
 41
0.0
 71
               1
 72
               1
  1
大洋金物株式会社 ティーフォルム事業部
  7
ＭＳ ゴシック
 73
               1
 44
0.7828267384257843
  0
INSERT
  5
D3
100
AcDbEntity
  8
template
390
0
 62
               7
100
AcDbBlockReference
  2
グループ
 10
-762.21464434399911
 20
-43.798176508589876
 30
0.0
  0
MTEXT
  5
D4
100
AcDbEntity
  8
template
390
0
 62
               7
100
AcDbMText
 10
784.00000000049988
 20
-1261.0000901712006
 30
0.0
 40
24.432617187500004
 41
0.0
 71
               1
 72
               1
  1
1:10
  7
ＭＳ ゴシック
 73
               1
 44
0.7828267384257843
  0
MTEXT
  5
D5
100
AcDbEntity
  8
template
390
0
 62
               7
100
AcDbMText
 10
731.00000000049988
 20
-1232.4176292337004
 30
0.0
 40
16.288411458333332
 41
0.0
 71
               1
 72
               1
  1
縮尺
  7
ＭＳ ゴシック
 73
               1
 44
0.7828267384257843
  0
LINE
  5
D6
100
AcDbEntity
  8
template
370
               5
390
0
  6
Continuous
 62
               7
100
AcDbLine
 10
724.00000000049988
 20
-1309.0027073587005
 30
0.0
 11
724.00000000049988
 21
-1224.0027073587005
 31
0.0
  0
MTEXT
  5
D7
100
AcDbEntity
  8
template
390
0
 62
               7
100
AcDbMText
 10
480.00000000049988
 20
-1232.4176292337004
 30
0.0
 40
16.288411458333332
 41
0.0
 71
               1
 72
               1
  1
容量
  7
ＭＳ ゴシック
 73
               1
 44
0.7828267384257843
  0
MTEXT
  5
D8
100
AcDbEntity
  8
template
390
0
 62
               7
100
AcDbMText
 10
533.00000000049988
 20
-1261.0000901712006
 30
0.0
 40
24.432617187500004
 41
0.0
 71
               1
 72
               1
  1
6L
  7
ＭＳ ゴシック
 73
               1
 44
0.7828267384257843
  0
LINE
  5
D9
100
AcDbEntity
  8
template
370
               5
390
0
  6
Continuous
 62
               7
100
AcDbLine
 10
473.00000000049988
 20
-1309.0027073587005
 30
0.0
 11
473.00000000049988
 21
-1224.0027073587005
 31
0.0
  0
MTEXT
  5
DA
100
AcDbEntity
  8
template
390
0
 62
               7
100
AcDbMText
 10
229.00000000049999
 20
-1147.4176292337004
 30
0.0
 40
16.288411458333332
 41
0.0
 71
               1
 72
               1
  1
品番
  7
ＭＳ ゴシック
 73
               1
 44
0.7828267384257843
  0
MTEXT
  5
DB
100
AcDbEntity
  8
template
390
0
 62
               7
100
AcDbMText
 10
229.00000000049999
 20
-1232.4176292337004
 30
0.0
 40
16.288411458333332
 41
0.0
 71
               1
 72
               1
  1
重量
  7
ＭＳ ゴシック
 73
               1
 44
0.7828267384257843
  0
MTEXT
  5
DC
100
AcDbEntity
  8
template
390
0
 62
               7
100
AcDbMText
 10
282.00000000049988
 20
-1176.0000901712006
 30
0.0
 40
24.432617187500004
 41
0.0
 71
               1
 72
               1
  1
ADF70-0903
  7
ＭＳ ゴシック
 73
               1
 44
0.7828267384257843
  0
MTEXT
  5
DD
100
AcDbEntity
  8
template
390
0
 62
               7
100
AcDbMText
 10
282.00000000049988
 20
-1261.0000901712006
 30
0.0
 40
24.432617187500004
 41
0.0
 71
               1
 72
               1
  1
6kg
  7
ＭＳ ゴシック
 73
               1
 44
0.7828267384257843
  0
LINE
  5
DE
100
AcDbEntity
  8
template
370
               5
390
0
  6
Continuous
 62
               7
100
AcDbLine
 10
222.00000000049999
 20
-1394.0027073587005
 30
0.0
 11
222.00000000049999
 21
-1139.0027073587005
 31
0.0
  0
MTEXT
  5
DF
100
AcDbEntity
  8
template
390
0
 62
               7
100
AcDbMText
 10
-914.99999999975932
 20
-1261.0000901712006
 30
0.0
 40
24.432617187500004
 41
0.0
 71
               1
 72
               1
  1
カウンター置き,半埋め込み/オーバーフローなし/陶器/ホワイト
  7
ＭＳ ゴシック
 73
               1
 44
1.3047112307096407
  0
MTEXT
  5
E0
100
AcDbEntity
  8
notes
390
0
 62
               7
100
AcDbMText
 10
271.13187069813159
 20
1041.8736545498382
 30
0.0
 40
24.432617187500004
 41
0.0
 71
               1
 72
               1
  1
カウンター切込寸法
  7
ＭＳ ゴシック
 73
               1
 44
0.7828267384257843
  0
MTEXT
  5
E1
100
AcDbEntity
  8
notes
390
0
 62
               7
100
AcDbMText
 10
355.24774429331944
 20
855.36080485386924
 30
0.0
 40
24.432617187500004
 41
0.0
 71
               1
 72
               1
  1
カウンター置き
  7
ＭＳ ゴシック
 73
               1
 44
0.7828267384257843
  0
MTEXT
  5
E2
100
AcDbEntity
  8
notes
390
0
 62
               7
100
AcDbMText
 10
-718.16938791609061
 20
-667.16118393350564
 30
0.0
 40
24.432617187500004
 41
0.0
 71
               1
 72
               1
  1
カウンター置き
  7
ＭＳ ゴシック
 73
               1
 44
0.7828267384257843
  0
LINE
  5
E3
100
AcDbEntity
  8
notes
370
               5
390
0
  6
Continuous
 62
               7
100
AcDbLine
 10
-626.38914676182685
 20
-497.8526678435976
 30
0.0
 11
-733.0891467618286
 21
-497.8526678435976
 31
0.0
  0
LINE
  5
E4
100
AcDbEntity
  8
notes
370
               5
390
0
  6
Continuous
 62
               7
100
AcDbLine
 10
-708.0891467618286
 20
-497.8526678435976
 30
0.0
 11
-708.0891467618286
 21
-662.24098656178262
 31
0.0
  0
DIMENSION
  5
E5
100
AcDbEntity
  8
notes
370
               5
390
0
  6
Continuous
 62
               7
100
AcDbDimension
  2
*D3
 10
-681.8722959685349
 20
890.58033563807987
 30
0.0
 11
-506.87229596853496
 21
890.58033563807987
 31
0.0
 71
               5
 72
               1
 41
1.0
 42
0.0
  3
Tform線あり
100
AcDbAlignedDimension
 13
-331.87229596853496
 23
640.58033563807987
 33
0.0
 14
-681.8722959685349
 24
640.58033563807987
 34
0.0
100
AcDbRotatedDimension
1001
ACAD
1000
DSTYLE
1002
{
1070
             279
1070
               2
1070
             340
1005
2D
1070
               3
1000
φ<>
1070
             147
1040
5.0
1002
}
  0
DIMENSION
  5
E6
100
AcDbEntity
  8
notes
370
               5
390
0
  6
Continuous
 62
               7
100
AcDbDimension
  2
*D4
 10
-656.8722959685349
 20
340.58033563807987
 30
0.0
 11
-506.87229596853496
 21
340.58033563807987
 31
0.0
 71
               5
 72
               1
 41
1.0
 42
0.0
  3
Tform線あり
100
AcDbAlignedDimension
 13
-356.87229596853496
 23
525.44155375148011
 33
0.0
 14
-656.8722959685349
 24
525.44155375148011
 34
0.0
100
AcDbRotatedDimension
1001
ACAD
1000
DSTYLE
1002
{
1070
             279
1070
               2
1070
             340
1005
2D
1070
               3
1000
φ<>
1070
             147
1040
5.0
1002
}
  0
DIMENSION
  5
E7
100
AcDbEntity
  8
notes
370
               5
390
0
  6
Continuous
 62
               7
100
AcDbDimension
  2
*D5
 10
259.62770403146521
 20
340.58033563807987
 30
0.0
 11
407.12770403146499
 21
340.58033563807987
 31
0.0
 71
               5
 72
               1
 41
1.0
 42
0.0
  3
Tform線あり
100
AcDbAlignedDimension
 13
554.62770403146499
 23
595.58033563807987
 33
0.0
 14
259.62770403146521
 24
595.58033563807987
 34
0.0
100
AcDbRotatedDimension
1001
ACAD
1000
DSTYLE
1002
{
1070
             279
1070
               2
1070
             340
1005
2D
1070
               3
1000
φ<>
1070
             147
1040
5.0
1002
}
  0
MTEXT
  5
E8
100
AcDbEntity
  8
notes
390
0
 62
               7
100
AcDbMText
 10
279.17139641141591
 20
925.52551951460634
 30
0.0
 40
24.432617187500004
 41
0.0
 71
               1
 72
               1
  1
半埋め込み
  7
ＭＳ ゴシック
 73
               1
 44
0.7828267384257843
  0
LINE
  5
E9
100
AcDbEntity
  8
notes
370
               5
390
0
  6
Continuous
 62
               7
100
AcDbLine
 10
297.04956257996298
 20
713.75901343821738
 30
0.0
 11
297.04956257996298
 21
887.75901343821738
 31
0.0
  0
LINE
  5
EA
100
AcDbEntity
  8
notes
370
               5
390
0
  6
Continuous
 62
               7
100
AcDbLine
 10
401.12770403146499
 20
817.75901343821738
 30
0.0
 11
401.12770403146499
 21
665.21903022204333
 31
0.0
  0
DIMENSION
  5
EB
100
AcDbEntity
  8
notes
370
               5
390
0
  6
Continuous
 62
               7
100
AcDbDimension
  2
*D6
 10
357.12770403146499
 20
515.58033563807987
 30
0.0
 11
407.12770403146499
 21
515.58033563807987
 31
0.0
 71
               5
 72
               1
 41
1.0
 42
0.0
  3
Tform線あり
100
AcDbAlignedDimension
 13
457.12770403146499
 23
615.58033563807987
 33
0.0
 14
357.12770403146499
 24
615.58033563807987
 34
0.0
100
AcDbRotatedDimension
1001
ACAD
1000
DSTYLE
1002
{
1070
             279
1070
               2
1070
             340
1005
2D
1070
               3
1000
φ<>
1070
             147
1040
5.0
1002
}
  0
MTEXT
  5
EC
100
AcDbEntity
  8
notes
390
0
 62
               7
100
AcDbMText
 10
69.449256049900555
 20
175.799127192751
 30
0.0
 40
24.432617187500004
 41
763.59263325865322
 71
               1
 72
               1
  1
※陶器製品には寸法公差があります。\P  洗面器の収め方をご確認の上、必ず現物を合わせて\P  カウンターに切込を行ってください。
  7
ＭＳ ゴシック
 73
               1
 44
1.0437689845677123
  0
DIMENSION
  5
ED
100
AcDbEntity
  8
notes
370
               5
390
0
  6
Continuous
 62
               7
100
AcDbDimension
  2
*D7
 10
-181.92436303147599
 20
-347.85266784359828
 30
0.0
 11
-176.92436303147599
 21
-422.85266784359794
 31
0.0
 70
             128
 71
               5
 72
               1
 41
1.0
 42
0.0
  3
Tform線あり
100
AcDbAlignedDimension
 13
-407.38811938721989
 23
-497.8526678435976
 33
0.0
 14
-336.92332169021716
 24
-347.85266784359828
 34
0.0
 50
90.0
100
AcDbRotatedDimension
1001
ACAD
1000
DSTYLE
1002
{
1070
             279
1070
               2
1070
             340
1005
2D
1070
             147
1040
5.0
1002
}
  0
DIMENSION
  5
EE
100
AcDbEntity
  8
notes
370
               5
390
0
  6
Continuous
 62
               7
100
AcDbDimension
  2
*D8
 10
-495.15460381407536
 20
-347.85266784359828
 30
0.0
 11
-490.15460381407536
 21
-339.24098656178319
 31
0.0
 70
             128
 71
               5
 72
               1
 41
1.0
 42
0.0
  3
Tform線あり
100
AcDbAlignedDimension
 13
-507.54292253226026
 23
-467.85266784359783
 33
0.0
 14
-507.54292253226026
 24
-347.85266784359828
 34
0.0
 50
90.0
100
AcDbRotatedDimension
1001
ACAD
1000
DSTYLE
1002
{
1070
             279
1070
               2
1070
             340
1005
2D
1070
               3
1000
<>(深さ)
1070
             174
1070
               0
1070
             147
1040
5.0
1002
}
  0
DIMENSION
  5
EF
100
AcDbEntity
  8
notes
370
               5
390
0
  6
Continuous
 62
               7
100
AcDbDimension
  2
*D9
 10
-617.55789606468545
 20
-597.8526678435976
 30
0.0
 11
-507.55789606468545
 21
-597.8526678435976
 31
0.0
 71
               5
 72
               1
 41
1.0
 42
0.0
  3
Tform線あり
100
AcDbAlignedDimension
 13
-397.55789606468551
 23
-497.8526678435976
 33
0.0
 14
-617.55789606468545
 24
-497.8526678435976
 34
0.0
100
AcDbRotatedDimension
1001
ACAD
1000
DSTYLE
1002
{
1070
             279
1070
               2
1070
             340
1005
2D
1070
               3
1000
φ<>
1070
             147
1040
5.0
1002
}
  0
MTEXT
  5
F0
100
AcDbEntity
  8
notes
390
0
 62
               7
100
AcDbMText
 10
-795.39671933962302
 20
-729.11336937428257
 30
0.0
 40
24.432617187500004
 41
0.0
 71
               1
 72
               1
  1
半埋め込み
  7
ＭＳ ゴシック
 73
               1
 44
0.7828267384257843
  0
DIMENSION
  5
F1
100
AcDbEntity
  8
notes
370
               5
390
0
  6
Continuous
 62
               7
100
AcDbDimension
  2
*D10
 10
-231.92436303147599
 20
-347.85266784359828
 30
0.0
 11
-231.92436303147599
 21
-385.35266784359828
 31
0.0
 71
               5
 72
               1
 41
1.0
 42
0.0
  3
Tform線あり
100
AcDbAlignedDimension
 13
-347.08515833105702
 23
-422.85266784359817
 33
0.0
 14
-336.92332169021716
 24
-347.85266784359828
 34
0.0
 50
90.0
100
AcDbRotatedDimension
1001
ACAD
1000
DSTYLE
1002
{
1070
             279
1070
               2
1070
             340
1005
2D
1070
             147
1040
5.0
1002
}
  0
DIMENSION
  5
F2
100
AcDbEntity
  8
notes
370
               5
390
0
  6
Continuous
 62
               7
100
AcDbDimension
  2
*D11
 10
-231.92436303147599
 20
-422.85266784359817
 30
0.0
 11
-231.92436303147599
 21
-460.35266784359794
 31
0.0
 71
               5
 72
               1
 41
1.0
 42
0.0
  3
Tform線あり
100
AcDbAlignedDimension
 13
-404.87229596853473
 23
-497.8526678435976
 33
0.0
 14
-347.08515833105702
 24
-422.85266784359817
 34
0.0
 50
90.0
100
AcDbRotatedDimension
1001
ACAD
1000
DSTYLE
1002
{
1070
             279
1070
               2
1070
             340
1005
2D
1070
             147
1040
5.0
1002
}
  0
LINE
  5
F3
100
AcDbEntity
  8
notes
370
               5
390
0
  6
Continuous
 62
               7
100
AcDbLine
 10
-697.48828265760233
 20
-422.85266784359817
 30
0.0
 11
-804.18828265760408
 21
-422.85266784359817
 31
0.0
  0
LINE
  5
F4
100
AcDbEntity
  8
notes
370
               5
390
0
  6
Continuous
 62
               7
100
AcDbLine
 10
-779.18828265760408
 20
-422.85266784359817
 30
0.0
 11
-779.18828265760408
 21
-720.24098656178262
 31
0.0
  0
CIRCLE
  5
F5
100
AcDbEntity
  8
ADF70-0903
370
              15
390
0
  6
Continuous
 62
               7
100
AcDbCircle
 10
-506.8722959685349
 20
615.58033563807987
 30
0.0
 40
174.99999999999991
  0
CIRCLE
  5
F6
100
AcDbEntity
  8
ADF70-0903
370
              15
390
0
  6
Continuous
 62
               7
100
AcDbCircle
 10
-506.8722959685349
 20
615.58033563807987
 30
0.0
 40
149.99999999999991
  0
CIRCLE
  5
F7
100
AcDbEntity
  8
ADF70-0903
370
              15
390
0
  6
Continuous
 62
               7
100
AcDbCircle
 10
-506.8722959685349
 20
615.58033563807987
 30
0.0
 40
22.999999999999915
  0
LINE
  5
F8
100
AcDbEntity
  8
ADF70-0903
370
              15
390
0
  6
Continuous
 62
               7
100
AcDbLine
 10
-676.82127024685281
 20
-347.85266784359828
 30
0.0
 11
-336.92332169021716
 21
-347.85266784359817
 31
0.0
  0
LINE
  5
F9
100
AcDbEntity
  8
ADF70-0903
370
              15
390
0
  6
Continuous
 62
               7
100
AcDbLine
 10
-606.35647254984997
 20
-497.8526678435976
 30
0.0
 11
-407.38811938721989
 21
-497.8526678435976
 31
0.0
  0
ARC
  5
FA
100
AcDbEntity
  8
ADF70-0903
370
              15
390
0
  6
Continuous
 62
               7
100
AcDbCircle
 10
-581.8722959685349
 20
-347.85266784359828
 30
0.0
 40
249.99999999999989
100
AcDbArc
 50
343.3984504009797
 51
358.83061719438598
  0
LINE
  5
FB
100
AcDbEntity
  8
ADF70-0903
370
              15
390
0
  6
STYLE_12
 62
               7
100
AcDbLine
 10
-483.87229596853496
 20
-482.47069471522741
 30
0.0
 11
-483.87229596853496
 21
-493.0068095594454
 31
0.0
  0
LINE
  5
FC
100
AcDbEntity
  8
ADF70-0903
370
              15
390
0
  6
STYLE_12
 62
               7
100
AcDbLine
 10
-482.08623401696769
 20
-478.64047249963244
 30
0.0
 11
-470.63428869025853
 21
-469.03114939972852
 31
0.0
  0
ARC
  5
FD
100
AcDbEntity
  8
ADF70-0903
370
              15
390
0
  6
STYLE_12
 62
               7
100
AcDbCircle
 10
-478.87229596853496
 20
-482.47069471522741
 30
0.0
 40
4.9999999999999583
100
AcDbArc
 50
130.00000000000102
 51
180.0
  0
ARC
  5
FE
100
AcDbEntity
  8
ADF70-0903
370
              15
390
0
  6
Continuous
 62
               7
100
AcDbCircle
 10
-407.38811938721989
 20
-492.8526678435976
 30
0.0
 40
5.0
100
AcDbArc
 50
270.0
 51
323.71254291488981
  0
ARC
  5
FF
100
AcDbEntity
  8
ADF70-0903
370
              15
390
0
  6
Continuous
 62
               7
100
AcDbCircle
 10
-604.8722959685349
 20
-347.85266784359828
 30
0.0
 40
249.99999999999972
100
AcDbArc
 50
323.71254291489015
 51
342.54239687627791
  0
LWPOLYLINE
  5
100
100
AcDbEntity
  8
ADF70-0903
370
              15
390
0
  6
STYLE_12
 62
               7
100
AcDbPolyline
 90
        4
 70
             128
 10
-353.16300637696639
 20
-347.85266784359828
 42
0.3280853157357955
 10
-357.93565711604083
 20
-351.36209583164748
 42
-0.1507730888047672
 10
-429.8958183882213
 20
-456.09396558237131
 42
-0.1590716030595495
 10
-467.36442002320672
 20
-467.86168444851978
 42
-0.1590716030595495
  0
ARC
  5
101
100
AcDbEntity
  8
ADF70-0903
370
              15
390
0
  6
Continuous
 62
               7
100
AcDbCircle
 10
-347.08515833105702
 20
-417.85266784359817
 30
0.0
 40
5.0
100
AcDbArc
 50
270.0
 51
343.39845040097822
  0
ARC
  5
102
100
AcDbEntity
  8
ADF70-0903
370
              15
390
0
  6
Continuous
 62
               7
100
AcDbCircle
 10
-431.87229596853496
 20
-347.85266784359828
 30
0.0
 40
249.99999999999997
100
AcDbArc
 50
181.16938280561399
 51
196.60154959902027
  0
LINE
  5
103
100
AcDbEntity
  8
ADF70-0903
370
              15
390
0
  6
STYLE_12
 62
               7
100
AcDbLine
 10
-529.8722959685349
 20
-482.47069471522741
 30
0.0
 11
-529.8722959685349
 21
-493.0068095594454
 31
0.0
  0
LINE
  5
104
100
AcDbEntity
  8
ADF70-0903
370
              15
390
0
  6
STYLE_12
 62
               7
100
AcDbLine
 10
-531.65835792010216
 20
-478.64047249963244
 30
0.0
 11
-543.11030324681133
 21
-469.03114939972875
 31
0.0
  0
ARC
  5
105
100
AcDbEntity
  8
ADF70-0903
370
              15
390
0
  6
STYLE_12
 62
               7
100
AcDbCircle
 10
-534.8722959685349
 20
-482.47069471522741
 30
0.0
 40
5.0
100
AcDbArc
 50
0.0
 51
49.999999999998977
  0
ARC
  5
106
100
AcDbEntity
  8
ADF70-0903
370
              15
390
0
  6
Continuous
 62
               7
100
AcDbCircle
 10
-676.82127024685269
 20
-352.85266784359828
 30
0.0
 40
5.0
100
AcDbArc
 50
90.000000000001307
 51
181.16938280561374
  0
ARC
  5
107
100
AcDbEntity
  8
ADF70-0903
370
              15
390
0
  6
Continuous
 62
               7
100
AcDbCircle
 10
-606.35647254984997
 20
-492.8526678435976
 30
0.0
 40
4.9999999999999805
100
AcDbArc
 50
216.28745708511022
 51
270.0
  0
LINE
  5
108
100
AcDbEntity
  8
ADF70-0903
370
              15
390
0
  6
Continuous
 62
               7
100
AcDbLine
 10
-347.08515833105702
 20
-422.85266784359817
 30
0.0
 11
-666.65943360601284
 21
-422.85266784359817
 31
0.0
  0
ARC
  5
109
100
AcDbEntity
  8
ADF70-0903
370
              15
390
0
  6
Continuous
 62
               7
100
AcDbCircle
 10
-408.87229596853496
 20
-347.85266784359828
 30
0.0
 40
249.99999999999955
100
AcDbArc
 50
197.45760312372209
 51
216.28745708510976
  0
LWPOLYLINE
  5
10A
100
AcDbEntity
  8
ADF70-0903
370
              15
390
0
  6
STYLE_12
 62
               7
100
AcDbPolyline
 90
        4
 70
             128
 10
-546.38017191386302
 20
-467.8616844485199
 42
-0.159071603059557
 10
-583.8487735488485
 20
-456.09396558237142
 42
-0.1507730888047676
 10
-655.80893482102897
 20
-351.36209583164748
 42
0.328085315735777
 10
-660.58158556010346
 20
-347.85266784359828
 42
0.328085315735777
  0
ARC
  5
10B
100
AcDbEntity
  8
ADF70-0903
370
              15
390
0
  6
Continuous
 62
               7
100
AcDbCircle
 10
-666.65943360601284
 20
-417.85266784359817
 30
0.0
 40
4.9999999999999929
100
AcDbArc
 50
196.60154959902181
 51
270.0
  0
LINE
  5
10C
100
AcDbEntity
  8
ADF70-0903
370
              15
390
0
  6
STYLE_12
 62
               7
100
AcDbLine
 10
-529.8722959685349
 20
-493.0068095594454
 30
0.0
 11
-483.87229596853496
 21
-493.0068095594454
 31
0.0
  0
LINE
  5
10D
100
AcDbEntity
  8
ADF70-0903
370
              15
390
0
  6
STYLE_12
 62
               7
100
AcDbLine
 10
-530.34075703335168
 20
-480.35760340652394
 30
0.0
 11
-483.40383490371818
 21
-480.35760340652394
 31
0.0
  0
LINE
  5
10E
100
AcDbEntity
  8
ADF70-0903
370
              15
390
0
  6
STYLE_12
 62
               7
100
AcDbLine
 10
-469.3455089861564
 20
-468.22660106025705
 30
0.0
 11
-544.39908295091345
 21
-468.22660106025705
 31
0.0
  0
ARC
  5
10F
100
AcDbEntity
  8
ADF70-0903
370
              15
390
0
  6
STYLE_12
 62
               7
100
AcDbCircle
 10
-467.42035064182579
 20
-472.86137161532349
 30
0.0
 40
5.0000000000000817
100
AcDbArc
 50
89.359068954491363
 51
130.00000000000077
  0
ARC
  5
110
100
AcDbEntity
  8
ADF70-0903
370
              15
390
0
  6
STYLE_12
 62
               7
100
AcDbCircle
 10
-546.32424129524384
 20
-472.86137161532349
 30
0.0
 40
5.0000000000000595
100
AcDbArc
 50
50.000000000001656
 51
90.640931045509973
  0
ARC
  5
111
100
AcDbEntity
  8
ADF70-0903
370
              15
390
0
  6
Continuous
 62
               7
100
AcDbCircle
 10
-336.92332169021716
 20
-352.85266784359828
 30
0.0
 40
5.0000000000000497
100
AcDbArc
 50
358.83061719438626
 51
90.0
  0
CIRCLE
  5
112
100
AcDbEntity
  8
ADF70-0903
370
              15
390
0
  6
Continuous
 62
               7
100
AcDbCircle
 10
-506.8722959685349
 20
615.58033563807987
 30
0.0
 40
37.499999999999915
  0
CIRCLE
  5
113
100
AcDbEntity
  8
ADF70-0903
370
               5
390
0
  6
STYLE_12
 62
               7
100
AcDbCircle
 10
407.12770403146499
 20
615.58033563807987
 30
0.0
 40
175.0
  0
CIRCLE
  5
114
100
AcDbEntity
  8
ADF70-0903
370
               5
390
0
  6
STYLE_12
 62
               7
100
AcDbCircle
 10
407.12770403146499
 20
615.58033563807987
 30
0.0
 40
23.0
  0
CIRCLE
  5
115
100
AcDbEntity
  8
ADF70-0903
370
              15
390
0
  6
Continuous
 62
               7
100
AcDbCircle
 10
407.12770403146499
 20
615.58033563807987
 30
0.0
 40
147.5
  0
CIRCLE
  5
116
100
AcDbEntity
  8
ADF70-0903
370
              15
390
0
  6
Continuous
 62
               7
100
AcDbCircle
 10
407.12770403146499
 20
615.58033563807987
 30
0.0
 40
50.0
  0
ENDSEC
  0
SECTION
  2
OBJECTS
  0
DICTIONARY
  5
19
100
AcDbDictionary
280
               0
281
               1
  3
ACAD_GROUP
350
1A
  3
ACAD_MLINESTYLE
350
1B
  3
ACAD_LAYOUT
350
1E
  3
ACAD_PLOTSETTINGS
350
22
  3
ACAD_PLOTSTYLENAME
350
1F
  0
DICTIONARY
  5
1A
102
{ACAD_REACTORS
330
19
102
}
100
AcDbDictionary
280
               0
281
               1
  0
DICTIONARY
  5
1B
102
{ACAD_REACTORS
330
19
102
}
100
AcDbDictionary
280
               0
281
               1
  3
Standard
350
1C
  0
MLINESTYLE
  5
1C
102
{ACAD_REACTORS
330
1B
102
}
100
AcDbMlineStyle
  2
Standard
 70
               0
  3

 62
               0
 51
90.0
 52
90.0
 71
               2
 49
0.5
 62
             256
  6
ByLayer
 49
-0.5
 62
             256
  6
ByLayer
  0
ACDBDICTIONARYWDFLT
  5
1F
102
{ACAD_REACTORS
330
19
102
}
100
AcDbDictionary
281
               1
  3
Normal
350
1D
100
AcDbDictionaryWithDefault
340
1D
  0
ACDBPLACEHOLDER
  5
1D
102
{ACAD_REACTORS
330
1F
102
}
  0
LAYOUT
  5
20
102
{ACAD_REACTORS
330
1E
102
}
100
AcDbPlotSettings
  1

  2

  4

  6

 40
0.0
 41
0.0
 42
0.0
 43
0.0
 44
0.0
 45
0.0
 46
0.0
 47
0.0
 48
0.0
 49
0.0
140
0.0
141
0.0
142
1.0
143
1.0
 70
            1024
 72
               0
 73
               0
 74
               0
  7

 75
               0
147
1.0
148
0.0
149
0.0
100
AcDbLayout
  1
Model
 70
               0
 71
               0
 10
0.0
 20
0.0
 11
0.0
 21
0.0
 12
0.0
 22
0.0
 32
0.0
 14
0.0
 24
0.0
 34
0.0
 15
0.0
 25
0.0
 35
0.0
146
0.0
 13
0.0
 23
0.0
 33
0.0
 16
0.0
 26
0.0
 36
0.0
 17
0.0
 27
0.0
 37
0.0
 76
               0
330
A
331
0
345
0
346
0
  0
LAYOUT
  5
21
102
{ACAD_REACTORS
330
1E
102
}
100
AcDbPlotSettings
  1

  2

  4

  6

 40
0.0
 41
0.0
 42
0.0
 43
0.0
 44
0.0
 45
0.0
 46
0.0
 47
0.0
 48
0.0
 49
0.0
140
0.0
141
0.0
142
1.0
143
1.0
 70
               0
 72
               0
 73
               0
 74
               0
  7

 75
               0
147
1.0
148
0.0
149
0.0
100
AcDbLayout
  1
Layout1
 70
               0
 71
               0
 10
0.0
 20
0.0
 11
0.0
 21
0.0
 12
0.0
 22
0.0
 32
0.0
 14
0.0
 24
0.0
 34
0.0
 15
0.0
 25
0.0
 35
0.0
146
0.0
 13
0.0
 23
0.0
 33
0.0
 16
0.0
 26
0.0
 36
0.0
 17
0.0
 27
0.0
 37
0.0
 76
               0
330
B
331
0
345
0
346
0
  0
DICTIONARY
  5
1E
102
{ACAD_REACTORS
330
19
102
}
100
AcDbDictionary
280
               0
281
               1
  3
Layout1
350
21
  3
Model
350
20
  0
DICTIONARY
  5
22
102
{ACAD_REACTORS
330
19
102
}
100
AcDbDictionary
280
               0
281
               1
  0
ENDSEC
  0
EOF
