  0
SECTION
  2
HEADER
  9
$ACADVER
  1
AC1015
  9
$ACADMAINTVER
 70
               6
  9
$DWGCODEPAGE
  3
ANSI_932
  9
$INSBASE
 10
0.0
 20
0.0
 30
0.0
  9
$EXTMIN
 10
-1049.9999999999998
 20
-1485.0
 30
-14.834305555555554
  9
$EXTMAX
 10
1049.9999999999998
 20
1485.0
 30
14.834305555555554
  9
$LIMMIN
 10
0.0
 20
0.0
  9
$LIMMAX
 10
0.0
 20
0.0
  9
$ORTHOMODE
 70
               0
  9
$REGENMODE
 70
               1
  9
$FILLMODE
 70
               1
  9
$QTEXTMODE
 70
               0
  9
$MIRRTEXT
 70
               1
  9
$LTSCALE
 40
50.799999999999997
  9
$ATTMODE
 70
               1
  9
$TEXTSIZE
 40
0.2
  9
$TRACEWID
 40
1.0
  9
$TEXTSTYLE
  7
Standard
  9
$CLAYER
  8
notes
  9
$CELTYPE
  6
Continuous
  9
$CECOLOR
 62
             256
  9
$CELTSCALE
 40
1.0
  9
$DISPSILH
 70
               0
  9
$DIMSCALE
 40
1.0
  9
$DIMASZ
 40
31.75
  9
$DIMEXO
 40
0.0
  9
$DIMDLI
 40
6.9999999999999396
  9
$DIMRND
 40
0.0
  9
$DIMDLE
 40
0.0
  9
$DIMEXE
 40
19.999999999996199
  9
$DIMTP
 40
0.0
  9
$DIMTM
 40
0.0
  9
$DIMTXT
 40
24.432617187500004
  9
$DIMCEN
 40
0.0
  9
$DIMTSZ
 40
0.0
  9
$DIMTOL
 70
               0
  9
$DIMLIM
 70
               0
  9
$DIMTIH
 70
               0
  9
$DIMTOH
 70
               0
  9
$DIMSE1
 70
               0
  9
$DIMSE2
 70
               0
  9
$DIMTAD
 70
               1
  9
$DIMZIN
 70
              11
  9
$DIMBLK
  1
VW_FILLEDARROW
  9
$DIMASO
 70
               1
  9
$DIMSHO
 70
               1
  9
$DIMPOST
  1
<>
  9
$DIMAPOST
  1
[]
  9
$DIMALT
 70
               0
  9
$DIMALTD
 70
               1
  9
$DIMALTF
 40
1.0
  9
$DIMLFAC
 40
1.0
  9
$DIMTOFL
 70
               0
  9
$DIMTVP
 40
0.0
  9
$DIMTIX
 70
               1
  9
$DIMSOXD
 70
               0
  9
$DIMSAH
 70
               0
  9
$DIMBLK1
  1

  9
$DIMBLK2
  1

  9
$DIMSTYLE
  2
JIS
  9
$DIMCLRD
 70
               0
  9
$DIMCLRE
 70
               0
  9
$DIMCLRT
 70
               0
  9
$DIMTFAC
 40
1.0
  9
$DIMGAP
 40
1.00000000000108
  9
$DIMJUST
 70
               0
  9
$DIMSD1
 70
               0
  9
$DIMSD2
 70
               0
  9
$DIMTOLJ
 70
               1
  9
$DIMTZIN
 70
              11
  9
$DIMALTZ
 70
              11
  9
$DIMALTTZ
 70
              11
  9
$DIMUPT
 70
               0
  9
$DIMDEC
 70
               1
  9
$DIMTDEC
 70
               1
  9
$DIMALTU
 70
               2
  9
$DIMALTTD
 70
               2
  9
$DIMTXSTY
  7
ＭＳ ゴシック
  9
$DIMAUNIT
 70
               0
  9
$DIMADEC
 70
               2
  9
$DIMALTRND
 40
0.0
  9
$DIMAZIN
 70
               0
  9
$DIMDSEP
 70
              46
  9
$DIMATFIT
 70
               0
  9
$DIMFRAC
 70
               2
  9
$DIMLDRBLK
  1

  9
$DIMLUNIT
 70
               2
  9
$DIMLWD
 70
              -2
  9
$DIMLWE
 70
              -2
  9
$DIMTMOVE
 70
               0
  9
$LUNITS
 70
               2
  9
$LUPREC
 70
               4
  9
$SKETCHINC
 40
0.1
  9
$FILLETRAD
 40
0.0
  9
$AUNITS
 70
               0
  9
$AUPREC
 70
               0
  9
$MENU
  1
acad
  9
$ELEVATION
 40
0.0
  9
$PELEVATION
 40
0.0
  9
$THICKNESS
 40
0.0
  9
$LIMCHECK
 70
               0
  9
$CHAMFERA
 40
0.0
  9
$CHAMFERB
 40
0.0
  9
$CHAMFERC
 40
0.0
  9
$CHAMFERD
 40
0.0
  9
$SKPOLY
 70
               0
  9
$TDCREATE
 40
2456006.576435185
  9
$TDUCREATE
 40
0.000000000
  9
$TDUPDATE
 40
2456006.576435185
  9
$TDUUPDATE
 40
0.000000000
  9
$TDINDWG
 40
0.0000000000
  9
$TDUSRTIMER
 40
0.0000000000
  9
$USRTIMER
 70
               1
  9
$ANGBASE
 50
0.0
  9
$ANGDIR
 70
               0
  9
$PDMODE
 70
               1
  9
$PDSIZE
 40
-2.0
  9
$PLINEWID
 40
0.0
  9
$SPLFRAME
 70
               0
  9
$SPLINETYPE
 70
               6
  9
$SPLINESEGS
 70
               8
  9
$HANDSEED
  5
114
  9
$SURFTAB1
 70
               6
  9
$SURFTAB2
 70
               6
  9
$SURFTYPE
 70
               6
  9
$SURFU
 70
               6
  9
$SURFV
 70
               6
  9
$UCSBASE
  2

  9
$UCSNAME
  2

  9
$UCSORG
 10
0.0
 20
0.0
 30
0.0
  9
$UCSXDIR
 10
1.0
 20
0.0
 30
0.0
  9
$UCSYDIR
 10
0.0
 20
1.0
 30
0.0
  9
$UCSORTHOREF
  2

  9
$UCSORTHOVIEW
 70
               0
  9
$UCSORGTOP
 10
0.0
 20
0.0
 30
0.0
  9
$UCSORGBOTTOM
 10
0.0
 20
0.0
 30
0.0
  9
$UCSORGLEFT
 10
0.0
 20
0.0
 30
0.0
  9
$UCSORGRIGHT
 10
0.0
 20
0.0
 30
0.0
  9
$UCSORGFRONT
 10
0.0
 20
0.0
 30
0.0
  9
$UCSORGBACK
 10
0.0
 20
0.0
 30
0.0
  9
$PUCSBASE
  2

  9
$PUCSNAME
  2

  9
$PUCSORG
 10
0.0
 20
0.0
 30
0.0
  9
$PUCSXDIR
 10
1.0
 20
0.0
 30
0.0
  9
$PUCSYDIR
 10
0.0
 20
1.0
 30
0.0
  9
$PUCSORTHOREF
  2

  9
$PUCSORTHOVIEW
 70
               0
  9
$PUCSORGTOP
 10
0.0
 20
0.0
 30
0.0
  9
$PUCSORGBOTTOM
 10
0.0
 20
0.0
 30
0.0
  9
$PUCSORGLEFT
 10
0.0
 20
0.0
 30
0.0
  9
$PUCSORGRIGHT
 10
0.0
 20
0.0
 30
0.0
  9
$PUCSORGFRONT
 10
0.0
 20
0.0
 30
0.0
  9
$PUCSORGBACK
 10
0.0
 20
0.0
 30
0.0
  9
$USERI1
 70
               0
  9
$USERI2
 70
               0
  9
$USERI3
 70
               0
  9
$USERI4
 70
               0
  9
$USERI5
 70
               0
  9
$USERR1
 40
0.0
  9
$USERR2
 40
0.0
  9
$USERR3
 40
0.0
  9
$USERR4
 40
0.0
  9
$USERR5
 40
0.0
  9
$WORLDVIEW
 70
               1
  9
$SHADEDGE
 70
               3
  9
$SHADEDIF
 70
              70
  9
$TILEMODE
 70
               1
  9
$MAXACTVP
 70
              64
  9
$PINSBASE
 10
0.0
 20
0.0
 30
0.0
  9
$PLIMCHECK
 70
               0
  9
$PEXTMIN
 10
1.0000000000000000E+20
 20
1.0000000000000000E+20
 30
1.0000000000000000E+20
  9
$PEXTMAX
 10
-1.0000000000000000E+20
 20
-1.0000000000000000E+20
 30
-1.0000000000000000E+20
  9
$PLIMMIN
 10
0.0
 20
0.0
  9
$PLIMMAX
 10
12.0
 20
9.0
  9
$UNITMODE
 70
               0
  9
$VISRETAIN
 70
               0
  9
$PLINEGEN
 70
               1
  9
$PSLTSCALE
 70
               0
  9
$TREEDEPTH
 70
            3020
  9
$CMLSTYLE
  2
Standard
  9
$CMLJUST
 70
               0
  9
$CMLSCALE
 40
1.0
  9
$PROXYGRAPHICS
 70
               0
  9
$MEASUREMENT
 70
               1
  9
$CELWEIGHT
370
               0
  9
$ENDCAPS
280
               0
  9
$JOINSTYLE
280
               0
  9
$LWDISPLAY
290
               1
  9
$INSUNITS
 70
               4
  9
$HYPERLINKBASE
  1

  9
$STYLESHEET
  1

  9
$XEDIT
290
               1
  9
$CEPSNTYPE
380
               0
  9
$PSTYLEMODE
290
               1
  9
$FINGERPRINTGUID
  2

  9
$VERSIONGUID
  2

  9
$EXTNAMES
290
               1
  9
$PSVPSCALE
 40
0.0
  0
ENDSEC
  0
SECTION
  2
CLASSES
  0
CLASS
  1
LWPOLYLINE
  2
AcDbPolyline
  3
AutoCAD 2000
 90
        0
280
               0
281
               1
  0
CLASS
  1
IMAGE
  2
AcDbRasterImage
  3
ISM
 90
      127
280
               0
281
               1
  0
CLASS
  1
OLE2FRAME
  2
AcDbOle2Frame
  3
AutoCAD 2000
 90
        0
280
               0
281
               1
  0
CLASS
  1
HATCH
  2
AcDbHatch
  3
AutoCAD 2000
 90
        0
280
               0
281
               1
  0
CLASS
  1
DICTIONARYVAR
  2
AcDbDictionaryVar
  3
AutoCAD 2000
 90
        0
280
               0
281
               0
  0
CLASS
  1
RASTERVARIABLES
  2
AcDbRasterVariables
  3
ISM
 90
        0
280
               0
281
               0
  0
CLASS
  1
IMAGEDEF
  2
AcDbRasterImageDef
  3
ISM
 90
        0
280
               0
281
               0
  0
CLASS
  1
IMAGEDEF_REACTOR
  2
AcDbRasterImageDefReactor
  3
ISM
 90
        1
280
               0
281
               0
  0
CLASS
  1
IDBUFFER
  2
AcDbIdBuffer
  3
AutoCAD 2000
 90
        0
280
               0
281
               0
  0
CLASS
  1
SPATIAL_FILTER
  2
AcDbSpatialFilter
  3
AutoCAD 2000
 90
        0
280
               0
281
               0
  0
CLASS
  1
XRECORD
  2
AcDbXrecord
  3
AutoCAD 2000
 90
        0
280
               0
281
               0
  0
CLASS
  1
SORTENTSTABLE
  2
AcDbSortentsTable
  3
AutoCAD 2000
 90
        0
280
               0
281
               0
  0
CLASS
  1
LAYER_INDEX
  2
AcDbLayerIndex
  3
AutoCAD 2000
 90
        0
280
               0
281
               0
  0
CLASS
  1
SPATIAL_INDEX
  2
AcDbSpatialIndex
  3
AutoCAD 2000
 90
        0
280
               0
281
               0
  0
CLASS
  1
OBJECT_PTR
  2
CAseDLPNTableRecord
  3
"ASE-LPNTableRecord"
 90
        1
280
               0
281
               0
  0
CLASS
  1
LAYOUT
  2
AcDbLayout
  3
AutoCAD 2000
 90
        0
280
               0
281
               0
  0
CLASS
  1
PLOTSETTINGS
  2
AcDbPlotSettings
  3
AutoCAD 2000
 90
        0
280
               0
281
               0
  0
CLASS
  1
ACDBDICTIONARYWDFLT
  2
AcDbDictionaryWithDefault
  3
AutoCAD 2000
 90
        0
280
               0
281
               0
  0
CLASS
  1
ACDBPLACEHOLDER
  2
AcDbPlaceHolder
  3
AutoCAD 2000
 90
        0
280
               0
281
               0
  0
ENDSEC
  0
SECTION
  2
TABLES
  0
TABLE
  2
VPORT
  5
7
100
AcDbSymbolTable
 70
               1
  0
VPORT
  5
15
100
AcDbSymbolTableRecord
100
AcDbViewportTableRecord
  2
*ACTIVE
 70
               0
 10
0.0
 20
0.0
 11
1.0
 21
1.0
 12
0.0
 22
0.0
 13
0.0
 23
0.0
 14
1.0
 24
1.0
 15
0.0
 25
0.0
 16
0.0
 26
0.0
 36
1.0
 17
0.0
 27
0.0
 37
0.0
 40
2970.0
 41
0.688564
 42
50.0
 43
0.0
 44
0.0
 50
0.0
 51
0.0
 71
               0
 72
            2000
 73
               1
 74
               1
 75
               0
 76
               0
 77
               0
 78
               0
281
               0
 65
               0
110
0.0
120
0.0
130
0.0
111
1.0
121
0.0
131
0.0
112
0.0
122
1.0
132
0.0
345
0
346
0
 79
               0
146
0.0
  0
ENDTAB
  0
TABLE
  2
LTYPE
  5
4
100
AcDbSymbolTable
 70
              14
  0
LTYPE
  5
11
100
AcDbSymbolTableRecord
100
AcDbLinetypeTableRecord
  2
ByBlock
 70
              64
  3

 72
              65
 73
               0
 40
0.0
  0
LTYPE
  5
12
100
AcDbSymbolTableRecord
100
AcDbLinetypeTableRecord
  2
ByLayer
 70
              64
  3

 72
              65
 73
               0
 40
0.0
  0
LTYPE
  5
13
100
AcDbSymbolTableRecord
100
AcDbLinetypeTableRecord
  2
Continuous
 70
              64
  3
Solid line
 72
              65
 73
               0
 40
0.0
  0
LTYPE
  5
2E
100
AcDbSymbolTableRecord
100
AcDbLinetypeTableRecord
  2
STYLE_01
 70
               0
  3

 72
              65
 73
               2
 40
0.41664
 49
0.20828
 74
               0
 49
-0.20836
 74
               0
  0
LTYPE
  5
2F
100
AcDbSymbolTableRecord
100
AcDbLinetypeTableRecord
  2
STYLE_02
 70
               0
  3

 72
              65
 73
               2
 40
0.6944250000000001
 49
0.48607
 74
               0
 49
-0.2083550000000001
 74
               0
  0
LTYPE
  5
30
100
AcDbSymbolTableRecord
100
AcDbLinetypeTableRecord
  2
STYLE_03
 70
               0
  3

 72
              65
 73
               2
 40
1.25
 49
1.0416400000000001
 74
               0
 49
-0.2083599999999999
 74
               0
  0
LTYPE
  5
31
100
AcDbSymbolTableRecord
100
AcDbLinetypeTableRecord
  2
STYLE_04
 70
               0
  3

 72
              65
 73
               2
 40
1.5277099999999999
 49
1.3194249999999998
 74
               0
 49
-0.208285
 74
               0
  0
LTYPE
  5
32
100
AcDbSymbolTableRecord
100
AcDbLinetypeTableRecord
  2
STYLE_05
 70
               0
  3

 72
              65
 73
               2
 40
0.20828
 49
0.069425
 74
               0
 49
-0.138855
 74
               0
  0
LTYPE
  5
33
100
AcDbSymbolTableRecord
100
AcDbLinetypeTableRecord
  2
STYLE_06
 70
               0
  3

 72
              65
 73
               4
 40
1.0416400000000001
 49
0.625
 74
               0
 49
-0.20828
 74
               0
 49
0.06943
 74
               0
 49
-0.13893
 74
               0
  0
LTYPE
  5
34
100
AcDbSymbolTableRecord
100
AcDbLinetypeTableRecord
  2
STYLE_07
 70
               0
  3

 72
              65
 73
               6
 40
1.875
 49
0.625
 74
               0
 49
-0.20828
 74
               0
 49
0.6250000000000001
 74
               0
 49
-0.2083599999999999
 74
               0
 49
0.06943
 74
               0
 49
-0.1389299999999999
 74
               0
  0
LTYPE
  5
35
100
AcDbSymbolTableRecord
100
AcDbLinetypeTableRecord
  2
STYLE_08
 70
               0
  3

 72
              65
 73
               6
 40
1.25
 49
0.625
 74
               0
 49
-0.20828
 74
               0
 49
0.06943
 74
               0
 49
-0.13893
 74
               0
 49
0.0694299999999999
 74
               0
 49
-0.13893
 74
               0
  0
LTYPE
  5
36
100
AcDbSymbolTableRecord
100
AcDbLinetypeTableRecord
  2
STYLE_09
 70
               0
  3

 72
              65
 73
               4
 40
5.0
 49
3.75
 74
               0
 49
-0.2777849999999998
 74
               0
 49
0.6944300000000003
 74
               0
 49
-0.2777849999999998
 74
               0
  0
LTYPE
  5
37
100
AcDbSymbolTableRecord
100
AcDbLinetypeTableRecord
  2
STYLE_10
 70
               0
  3

 72
              65
 73
               6
 40
5.9375
 49
3.75
 74
               0
 49
-0.2777849999999998
 74
               0
 49
0.6944300000000003
 74
               0
 49
-0.2777849999999998
 74
               0
 49
0.625
 74
               0
 49
-0.3125
 74
               0
  0
LTYPE
  5
38
100
AcDbSymbolTableRecord
100
AcDbLinetypeTableRecord
  2
STYLE_11
 70
               0
  3

 72
              65
 73
               2
 40
0.0694444881889764
 49
0.0347222440944882
 74
               0
 49
-0.0347222440944882
 74
               0
  0
ENDTAB
  0
TABLE
  2
LAYER
  5
2
100
AcDbSymbolTable
 70
               5
  0
LAYER
  5
14
100
AcDbSymbolTableRecord
100
AcDbLayerTableRecord
  2
0
 70
               0
 62
               7
  6
Continuous
290
               1
370
              -3
390
1D
  0
LAYER
  5
39
100
AcDbSymbolTableRecord
100
AcDbLayerTableRecord
  2
Defpoints
 70
               0
 62
               7
  6
Continuous
290
               0
370
              -3
390
1D
  0
LAYER
  5
3A
100
AcDbSymbolTableRecord
100
AcDbLayerTableRecord
  2
template
 70
               0
 62
               7
  6
Continuous
290
               1
370
              -3
390
1D
  0
LAYER
  5
3B
100
AcDbSymbolTableRecord
100
AcDbLayerTableRecord
  2
notes
 70
               0
 62
               7
  6
Continuous
290
               1
370
              -3
390
1D
  0
LAYER
  5
3C
100
AcDbSymbolTableRecord
100
AcDbLayerTableRecord
  2
ADF70-0904
 70
               0
 62
               7
  6
Continuous
290
               1
370
              -3
390
1D
  0
ENDTAB
  0
TABLE
  2
STYLE
  5
3
100
AcDbSymbolTable
 70
               2
  0
STYLE
  5
17
100
AcDbSymbolTableRecord
100
AcDbTextStyleTableRecord
  2
Standard
 70
               0
 40
0.0
 41
1.0
 50
0.0
 71
               0
 42
0.0
  3
txt
  4
BIGFONT.SHX
  0
STYLE
  5
2D
100
AcDbSymbolTableRecord
100
AcDbTextStyleTableRecord
  2
ＭＳ ゴシック
 70
               0
 40
0.0
 41
1.0
 50
0.0
 71
               0
 42
0.0
  3

  4
ＭＳ ゴシック
1001
ACAD
1000
ＭＳ ゴシック
1071
        0
  0
ENDTAB
  0
TABLE
  2
VIEW
  5
5
100
AcDbSymbolTable
 70
               0
  0
ENDTAB
  0
TABLE
  2
UCS
  5
6
100
AcDbSymbolTable
 70
               0
  0
ENDTAB
  0
TABLE
  2
APPID
  5
8
100
AcDbSymbolTable
 70
               1
  0
APPID
  5
16
100
AcDbSymbolTableRecord
100
AcDbRegAppTableRecord
  2
ACAD
 70
               0
  0
ENDTAB
  0
TABLE
  2
DIMSTYLE
  5
9
100
AcDbSymbolTable
 70
               3
100
AcDbDimStyleTable
 71
               0
  0
DIMSTYLE
105
18
100
AcDbSymbolTableRecord
100
AcDbDimStyleTableRecord
  2
Standard
 70
               0
  3

  4

 40
1.0
 41
0.18
 42
0.0625
 43
0.38
 44
0.18
 45
0.0
 46
0.0
 47
0.0
 48
0.0
 71
               0
 72
               0
 73
               1
 74
               1
 75
               0
 76
               0
 77
               0
 78
               0
 79
               0
140
0.18
141
0.09
142
0.0
143
25.399999999999999
144
1.0
145
0.0
146
1.0
147
0.09
148
0.0
170
               0
171
               2
172
               0
173
               0
174
               0
175
               0
176
               0
177
               0
178
               0
179
               0
271
               4
272
               4
273
               2
274
               2
275
               0
276
               0
277
               2
278
              46
279
               0
280
               0
281
               0
282
               0
283
               1
284
               0
285
               0
286
               0
288
               0
289
               3
340
17
341
0
342
0
343
0
344
0
371
              -2
372
              -2
  0
DIMSTYLE
105
45
100
AcDbSymbolTableRecord
100
AcDbDimStyleTableRecord
  2
Tform線あり
 70
               0
  3
<>
  4
[]
 40
1.0
 41
3.999755859375
 42
24.999999999999996
 43
0.9999999999999999
 44
0.0
 45
0.0
 46
0.0
 47
0.0
 48
0.0
 71
               0
 72
               0
 73
               0
 74
               0
 75
               0
 76
               0
 77
               1
 78
              11
 79
               0
140
24.432617187500004
141
0.0
142
0.0
143
1.0
144
1.0
145
0.0
146
0.8
147
0.4999999999999999
148
0.0
170
               0
171
               1
172
               1
173
               0
174
               1
175
               0
176
               0
177
               0
178
               0
179
               2
271
               1
272
               1
273
               2
274
               2
275
               0
276
               2
277
               2
278
              46
279
               0
280
               0
281
               0
282
               0
283
               1
284
              11
285
              11
286
              11
288
               0
289
               0
340
2D
341
3D
342
3D
343
0
344
0
371
              -2
372
              -2
  0
DIMSTYLE
105
4A
100
AcDbSymbolTableRecord
100
AcDbDimStyleTableRecord
  2
JIS
 70
               0
  3
<>
  4
[]
 40
1.0
 41
31.75
 42
0.0
 43
6.9999999999999396
 44
19.999999999996199
 45
0.0
 46
0.0
 47
0.0
 48
0.0
 71
               0
 72
               0
 73
               0
 74
               0
 75
               0
 76
               0
 77
               1
 78
              11
 79
               0
140
24.432617187500004
141
0.0
142
0.0
143
1.0
144
1.0
145
0.0
146
1.0
147
1.00000000000108
148
0.0
170
               0
171
               1
172
               0
173
               0
174
               1
175
               0
176
               0
177
               0
178
               0
179
               2
271
               1
272
               1
273
               2
274
               2
275
               0
276
               2
277
               2
278
              46
279
               0
280
               0
281
               0
282
               0
283
               1
284
              11
285
              11
286
              11
288
               0
289
               0
340
2D
341
46
342
46
343
0
344
0
371
              -2
372
              -2
  0
ENDTAB
  0
TABLE
  2
BLOCK_RECORD
  5
1
100
AcDbSymbolTable
 70
              12
  0
BLOCK_RECORD
  5
A
100
AcDbSymbolTableRecord
100
AcDbBlockTableRecord
  2
*MODEL_SPACE
340
20
  0
BLOCK_RECORD
  5
B
100
AcDbSymbolTableRecord
100
AcDbBlockTableRecord
  2
*PAPER_SPACE
340
21
  0
BLOCK_RECORD
  5
3D
100
AcDbSymbolTableRecord
100
AcDbBlockTableRecord
  2
_DOT
340
0
  0
BLOCK_RECORD
  5
46
100
AcDbSymbolTableRecord
100
AcDbBlockTableRecord
  2
VW_FILLEDARROW
340
0
  0
BLOCK_RECORD
  5
23
100
AcDbSymbolTableRecord
100
AcDbBlockTableRecord
  2
グループ
340
0
102
{BLKREFS
331
CE
102
}
  0
BLOCK_RECORD
  5
24
100
AcDbSymbolTableRecord
100
AcDbBlockTableRecord
  2
*D3
340
0
  0
BLOCK_RECORD
  5
25
100
AcDbSymbolTableRecord
100
AcDbBlockTableRecord
  2
*D4
340
0
  0
BLOCK_RECORD
  5
26
100
AcDbSymbolTableRecord
100
AcDbBlockTableRecord
  2
*D5
340
0
  0
BLOCK_RECORD
  5
27
100
AcDbSymbolTableRecord
100
AcDbBlockTableRecord
  2
*D6
340
0
  0
BLOCK_RECORD
  5
28
100
AcDbSymbolTableRecord
100
AcDbBlockTableRecord
  2
*D7
340
0
  0
BLOCK_RECORD
  5
29
100
AcDbSymbolTableRecord
100
AcDbBlockTableRecord
  2
*D8
340
0
  0
BLOCK_RECORD
  5
2A
100
AcDbSymbolTableRecord
100
AcDbBlockTableRecord
  2
*D9
340
0
  0
BLOCK_RECORD
  5
2B
100
AcDbSymbolTableRecord
100
AcDbBlockTableRecord
  2
*D10
340
0
  0
BLOCK_RECORD
  5
2C
100
AcDbSymbolTableRecord
100
AcDbBlockTableRecord
  2
*D11
340
0
  0
ENDTAB
  0
ENDSEC
  0
SECTION
  2
BLOCKS
  0
BLOCK
  5
D
100
AcDbEntity
  8
0
390
0
100
AcDbBlockBegin
  2
*MODEL_SPACE
 70
               0
 10
0.0
 20
0.0
 30
0.0
  3
*MODEL_SPACE
  1

  0
ENDBLK
  5
E
100
AcDbEntity
  8
0
390
0
100
AcDbBlockEnd
  0
BLOCK
  5
F
100
AcDbEntity
 67
               1
  8
0
390
0
100
AcDbBlockBegin
  2
*PAPER_SPACE
 70
               0
 10
0.0
 20
0.0
 30
0.0
  3
*PAPER_SPACE
  1

  0
ENDBLK
  5
10
100
AcDbEntity
 67
               1
  8
0
390
0
100
AcDbBlockEnd
  0
BLOCK
  5
3E
100
AcDbEntity
  8
0
390
0
100
AcDbBlockBegin
  2
_DOT
 70
               0
 10
0.0
 20
0.0
 30
0.0
  3
_DOT
  1

  0
POLYLINE
  5
3F
100
AcDbEntity
  8
0
370
              -2
390
0
  6
ByBlock
 62
               0
100
AcDb2dPolyline
 66
               1
 10
0.0
 20
0.0
 30
0.0
 70
               1
 40
0.5
 41
0.5
  0
VERTEX
  5
40
100
AcDbEntity
  8
0
370
              -2
390
0
  6
ByBlock
 62
               0
100
AcDbVertex
100
AcDb2dVertex
 10
-0.25
 20
0.0
 30
0.0
 42
1.0
  0
VERTEX
  5
41
100
AcDbEntity
  8
0
370
              -2
390
0
  6
ByBlock
 62
               0
100
AcDbVertex
100
AcDb2dVertex
 10
0.25
 20
0.0
 30
0.0
 42
1.0
  0
SEQEND
  5
42
100
AcDbEntity
  8
0
390
0
  0
LINE
  5
43
100
AcDbEntity
  8
0
370
              -2
390
0
  6
ByBlock
 62
               0
100
AcDbLine
 10
-0.5
 20
0.0
 30
0.0
 11
-1.0
 21
0.0
 31
0.0
  0
ENDBLK
  5
44
100
AcDbEntity
  8
0
390
0
100
AcDbBlockEnd
  0
BLOCK
  5
47
100
AcDbEntity
  8
0
370
              -2
390
0
  6
ByBlock
 62
               0
100
AcDbBlockBegin
  2
VW_FILLEDARROW
 70
               0
 10
0.0
 20
0.0
 30
0.0
  3
VW_FILLEDARROW
  1

  0
SOLID
  5
48
100
AcDbEntity
  8
0
370
              -2
390
0
 62
               0
100
AcDbTrace
 10
0.0
 20
0.0
 30
0.0
 11
-0.9921874999999999
 21
-0.2658558393652545
 31
0.0
 12
-0.9921874999999999
 22
0.2658558393652548
 32
0.0
 13
-0.9921874999999999
 23
0.2658558393652548
 33
0.0
  0
ENDBLK
  5
49
100
AcDbEntity
  8
0
390
0
100
AcDbBlockEnd
  0
BLOCK
  5
4B
100
AcDbEntity
  8
template
390
0
100
AcDbBlockBegin
  2
グループ
 70
               0
 10
0.0
 20
0.0
 30
0.0
  3
グループ
  1

  0
LWPOLYLINE
  5
4C
100
AcDbEntity
  8
0
370
              15
390
0
  6
Continuous
 62
               7
100
AcDbPolyline
 90
        8
 70
             129
 10
699.13604657191695
 20
-941.82419591493294
 10
699.13604657191695
 20
-947.82158460850883
 10
689.63484965391365
 20
-947.82158460850883
 10
689.63484965391365
 20
-972.27254787201764
 10
681.27947239213086
 20
-972.27254787201764
 10
681.27947239213086
 20
-947.82158460850883
 10
671.94651544582143
 20
-947.82158460850883
 10
671.94651544582143
 20
-941.82419591493294
  0
LWPOLYLINE
  5
4D
100
AcDbEntity
  8
0
370
              15
390
0
  6
Continuous
 62
               7
100
AcDbPolyline
 90
      101
 70
             128
 10
711.86433840247389
 20
-942.55244440786942
 10
711.87968843126123
 20
-942.54808365118367
 42
-0.022222160781182
 10
712.16969300792994
 20
-942.47945918593973
 10
712.18548677191984
 20
-942.47645576284344
 42
-0.0146883565588395
 10
712.44818947714771
 20
-942.43445257589337
 42
-0.0127458844185075
 10
712.71282844429982
 20
-942.40691560782091
 10
712.77528352261356
 20
-942.40202218523268
 42
-0.0198099018567518
 10
713.1661326320866
 20
-942.3869370278361
 10
713.21794410153416
 20
-942.38699080350113
 42
-0.0147617382762861
 10
713.71256756250671
 20
-942.40211082874589
 10
713.7852590173851
 20
-942.40648343563385
 42
-0.0162624549002785
 10
714.17541264684792
 20
-942.44271631090601
 10
714.29694503810322
 20
-942.45800286990209
 42
-0.008002087466912
 10
714.44252406919873
 20
-942.47868571717095
 10
714.48084353979141
 20
-942.48475699498169
 42
-0.0053821929677763
 10
714.54932764510852
 20
-942.4963645188036
 10
713.82292194590991
 20
-944.67729297451751
 42
0.0108667757392682
 10
713.75560487578139
 20
-944.66410585929805
 10
713.71813685258962
 20
-944.65760811670316
 42
0.0170663203310446
 10
713.57492006567406
 20
-944.63777851941143
 10
713.50704473299106
 20
-944.63073134882393
 42
0.02201623752748
 10
713.2266653251362
 20
-944.61404898805381
 10
713.14880975808455
 20
-944.6128496207873
 42
0.0282606915784191
 10
712.81317343450576
 20
-944.62665289775634
 10
712.76926016072878
 20
-944.63095288776049
 42
0.0169677213691021
 10
712.52333566577454
 20
-944.66348993731197
 42
0.0190576269865867
 10
712.28042770319462
 20
-944.71363680941829
 10
712.2741685150836
 20
-944.71517978352767
 42
0.0213685642844428
 10
712.02378403060709
 20
-944.78838006863202
 10
712.01829413568964
 20
-944.79024306469148
 42
0.0237595297597234
 10
711.76479925078843
 20
-944.88992758658821
 10
711.75969717676128
 20
-944.89221936206525
 42
0.0261857468812769
 10
711.50752640053429
 20
-945.02175569943802
 10
711.4971002114446
 20
-945.02782117390802
 42
0.0272553062020763
 10
711.26067043620583
 20
-945.18319337985247
 10
711.22590742269551
 20
-945.20885452794539
 42
0.032599689317705
 10
711.07575207904483
 20
-945.33560240091606
 10
711.05204264991676
 20
-945.35842042943375
 42
0.013805096064511
 10
710.96015949371167
 20
-945.45187009098061
 42
0.0125280103800736
 10
710.87331696087983
 20
-945.55003341757856
 10
710.84963651596979
 20
-945.578191915768
 42
0.0205218024737691
 10
710.72453644045538
 20
-945.73998522999807
 10
710.70207009996898
 20
-945.77164495982402
 42
0.0163110129581841
 10
710.54635972071958
 20
-946.0069753948909
 10
710.54363582466669
 20
-946.01139915687941
 42
0.0131897341895872
 10
710.39683530376328
 20
-946.26453124923933
 10
710.39513520839432
 20
-946.26764948837956
 42
0.0107895576060116
 10
710.25735850618685
 20
-946.53386469800796
 10
710.25662561665854
 20
-946.53535893066123
 42
0.0091371507218632
 10
710.12814566800841
 20
-946.80988412842203
 10
710.09840003659974
 20
-946.87659063557965
 42
0.0135418326350519
 10
709.92668609752752
 20
-947.29152842084977
 10
709.89308128909477
 20
-947.37939456312711
 42
0.009283454241111
 10
709.72185222917301
 20
-947.85329306143501
 10
709.69623510145243
 20
-947.92853413123714
 42
0.0054261043584779
 10
709.58859695316232
 20
-948.25629810429348
 10
709.57107096695586
 20
-948.31168626661531
 42
0.0008225090819124
 10
709.50240091515491
 20
-948.52995502467274
 10
708.51771178322144
 20
-951.55484631792933
 10
711.75033562329531
 20
-951.55484631792933
 10
711.24614319344187
 20
-953.45932461628172
 10
707.99008691145855
 20
-953.45932461628172
 10
702.16093787910472
 20
-972.27254768228659
 10
700.33584026879441
 20
-972.27254768228659
 10
706.17051830429534
 20
-953.45932461628172
 10
703.765401935255
 20
-953.45932461628172
 10
704.26959436510845
 20
-951.55484631792933
 10
706.69814317605847
 20
-951.55484631792933
 10
707.55829809424711
 20
-948.91843331723044
 42
-0.0005863560645647
 10
707.59503277242879
 20
-948.80160689700801
 10
707.671120606111
 20
-948.56061459755324
 42
-0.0087522378927272
 10
707.87058874956938
 20
-947.9653385104026
 10
707.96285302498165
 20
-947.70519834189281
 42
-0.0077400953830473
 10
708.22078668411245
 20
-947.01219366434555
 10
708.23655165569289
 20
-946.97176278095571
 42
-0.0082369946330594
 10
708.48363612630328
 20
-946.36768371476376
 42
-0.0085725238364076
 10
708.75088222230727
 20
-945.77225767547429
 10
708.85251182331137
 20
-945.55583657349632
 42
-0.0168109410597788
 10
709.1394562520436
 20
-944.99462904738721
 10
709.26529964243866
 20
-944.7676650145047
 42
-0.0007817726872494
 10
709.31958399255927
 20
-944.67012076935873
 10
709.31971229857209
 20
-944.66989106063033
 42
-0.0036626142161235
 10
709.37460016259774
 20
-944.57329318065376
 42
-0.0080221150671503
 10
709.43172441800709
 20
-944.47801394589669
 10
709.46242436936564
 20
-944.4286229967787
 42
-0.0202139325576439
 10
709.59008010917057
 20
-944.24064139609982
 10
709.64414757435998
 20
-944.16756253185645
 42
-0.0249323791799284
 10
709.90331036807959
 20
-943.85151728970163
 10
709.92745018220614
 20
-943.82490301678956
 42
-0.0242132121537505
 10
710.26713092374973
 20
-943.48501953058417
 10
710.31504249649902
 20
-943.44151039439919
 42
-0.025101752785767
 10
710.59902419713944
 20
-943.20851764863471
 10
710.60046967395226
 20
-943.20744839105646
 42
-0.013086806903761
 10
710.89873032391051
 20
-942.99866792251328
 10
710.90029214305423
 20
-942.99763448223757
 42
-0.0290329526387828
 10
711.21140328444653
 20
-942.81680898060893
 10
711.24124884643868
 20
-942.80170659776627
 42
-0.0160250190045634
 10
711.50715326019736
 20
-942.67769048755611
 42
-0.0267600374782517
 10
711.7824293376666
 20
-942.57694216700736
 10
711.80916525718692
 20
-942.56874960818186
 42
-0.0049981587670039
 10
711.86433840247389
 20
-942.55244440786942
 42
-0.0049981587670039
  0
LWPOLYLINE
  5
4E
100
AcDbEntity
  8
0
370
              15
390
0
  6
Continuous
 62
               7
100
AcDbPolyline
 90
      118
 70
             128
 10
731.6787059669208
 20
-951.6288296457567
 10
733.55382789142027
 20
-951.6288296457567
 10
732.71578898582038
 20
-954.31039617215674
 42
-0.0010587229224399
 10
732.74724480142356
 20
-954.27349163876477
 10
732.80543889202431
 20
-954.20550938262568
 42
-0.0071874740408662
 10
732.95581411012188
 20
-954.03486869059714
 10
733.09753688338458
 20
-953.87863254928345
 42
-0.0148118053512851
 10
733.5476661760971
 20
-953.41101870327066
 10
733.63488851100021
 20
-953.32562138241576
 42
-0.0086273358692364
 10
733.97043731200756
 20
-953.00824574840044
 10
734.01427102823334
 20
-952.96819610406749
 42
-0.010313832311368
 10
734.27229473046691
 20
-952.74203296672908
 10
734.31806913679588
 20
-952.70355091946726
 42
-0.0060206748565484
 10
734.49091720090621
 20
-952.56175626871448
 10
734.49294833179226
 20
-952.56013056308313
 42
-0.0067069027294576
 10
734.66524114645472
 20
-952.42597992928825
 10
734.667789912383
 20
-952.42404975941122
 42
-0.0076184352048277
 10
734.83869517825201
 20
-952.29867488416915
 42
-0.0089652861673182
 10
735.01365614098358
 20
-952.17904162383843
 10
735.05000786113317
 20
-952.15513041035251
 42
-0.0156916245936996
 10
735.24596735829164
 20
-952.03486792387923
 42
-0.0023299011066625
 10
735.44622940224406
 20
-951.92168998435363
 10
735.46161353465129
 20
-951.91308998927366
 42
-0.0107669341484253
 10
735.69585035975581
 20
-951.78868985592248
 10
735.71811516082744
 20
-951.7774731059742
 42
-0.0078058045897019
 10
736.00170527877879
 20
-951.64011165033639
 10
736.01161236648932
 20
-951.63550252246728
 42
-0.0181829330470482
 10
736.32192177110733
 20
-951.50463878137077
 10
736.37597721367081
 20
-951.4841236614285
 42
-0.0208411536030855
 10
736.72506218112198
 20
-951.368033198935
 10
736.73941828125089
 20
-951.36391475398113
 42
-0.0222799817137841
 10
737.06813807516664
 20
-951.2852731878412
 10
737.07702703840425
 20
-951.28356117725605
 42
-0.0215509523883552
 10
737.39349800668356
 20
-951.23664548872182
 10
737.43597996773315
 20
-951.23220796193095
 42
-0.0182545924872898
 10
737.67008874703765
 20
-951.21636413654005
 10
737.70948976338036
 20
-951.21513959146102
 42
-0.007296285653616
 10
737.86541264307471
 20
-951.2125702629387
 10
737.89451231364728
 20
-951.21251542753498
 42
-0.0059227516314551
 10
737.99226181279164
 20
-951.21348913932536
 10
738.02150403028156
 20
-951.21412690592899
 42
-0.0011833111894993
 10
738.06075531399597
 20
-951.21507591023874
 10
737.2653687183888
 20
-953.75380985533775
 42
0.0143932051565141
 10
737.23896733603851
 20
-953.74361088529258
 10
737.23169536362093
 20
-953.74103966643509
 42
0.0234388603512604
 10
737.18986449768693
 20
-953.72842043071932
 10
737.18118283477611
 20
-953.72623946871477
 42
0.0199162742978236
 10
737.12089400069704
 20
-953.71362273337979
 10
737.1000800628899
 20
-953.71012553395121
 42
0.0293643550672706
 10
736.99700520412989
 20
-953.69897548829806
 10
736.97232002341048
 20
-953.69776387127945
 42
0.0214606686866179
 10
736.81917910746051
 20
-953.69682531086198
 10
736.80980719664001
 20
-953.69717022240627
 42
0.0167564054180606
 10
736.63828700553211
 20
-953.70924726477426
 10
736.62982721277262
 20
-953.71012860520148
 42
0.0137677553239404
 10
736.44247389951124
 20
-953.7348779137443
 10
736.43512215999999
 20
-953.73605583371295
 42
0.0118497261488371
 10
736.2346243958915
 20
-953.77307318390353
 10
736.22847438865142
 20
-953.77436004662218
 42
0.0106421143894036
 10
736.01759350135671
 20
-953.82319242219944
 10
736.01268469297736
 20
-953.82443976488207
 42
0.0099746379704268
 10
735.79422622381128
 20
-953.88461429319784
 10
735.73267818364457
 20
-953.90289617182748
 42
0.0191613675861161
 10
735.39669372112724
 20
-954.01687355211516
 10
735.30863394838013
 20
-954.05056046243988
 42
0.0205274080146518
 10
734.92332717648287
 20
-954.21638887026506
 10
734.86567789450373
 20
-954.2440568348361
 42
0.0181256912193469
 10
734.60740095383392
 20
-954.37974065381525
 10
734.55444557051987
 20
-954.41005826703008
 42
0.0140709242411559
 10
734.40949063589164
 20
-954.49855294046438
 10
734.38324176727417
 20
-954.51560975917914
 42
0.0086667884399743
 10
734.29431560573062
 20
-954.57561242706265
 42
0.003640819202258
 10
734.20688236769911
 20
-954.63779328485361
 10
734.17165549322863
 20
-954.66323423076778
 42
0.0052260781281789
 10
734.01542679582792
 20
-954.7785666174093
 10
733.99921993957787
 20
-954.79079472802016
 42
0.005002443589328
 10
733.81321659652565
 20
-954.93407729627722
 10
733.79789844000391
 20
-954.94612331872816
 42
0.0136138710280295
 10
733.58745717168074
 20
-955.12108982363975
 10
733.55378929588505
 20
-955.15066879635572
 42
0.017281518691797
 10
733.28938575421955
 20
-955.39966546898211
 10
733.28682340837986
 20
-955.40225128612622
 42
0.0189403857991734
 10
733.03624160980064
 20
-955.67505655093066
 10
733.00361011626467
 20
-955.71340048242769
 42
0.0185044199504021
 10
732.81165367728477
 20
-955.95664906355057
 42
0.0088565243898544
 10
732.63319357065802
 20
-956.21016548369812
 10
732.62401559100783
 20
-956.22370686346062
 42
0.015719534722988
 10
732.44079498467408
 20
-956.51322907277586
 10
732.39471204274832
 20
-956.5913812697878
 42
0.0095451879778739
 10
732.22962649260523
 20
-956.88397591215369
 10
732.21847857367504
 20
-956.90464658428664
 42
0.0100351706256627
 10
732.08643482451635
 20
-957.16170214477643
 42
0.008693591542257
 10
731.96410367272472
 20
-957.42353529017555
 10
731.96078293130779
 20
-957.43097761315266
 42
0.0072580174868859
 10
731.84043647936005
 20
-957.71156960474264
 10
731.83717484605654
 20
-957.71948963075363
 42
0.0060005122613489
 10
731.71797417771654
 20
-958.01909930135184
 10
731.71476319937221
 20
-958.02746082926353
 42
0.0049017786980385
 10
731.59586304051345
 20
-958.34638980987143
 10
731.59269723412433
 20
-958.35514274709828
 42
0.0039415167605681
 10
731.47326095606411
 20
-958.69368480952198
 10
731.47012985341553
 20
-958.70278801038762
 42
0.0031035838764137
 10
731.34932506772657
 20
-959.06122787214861
 10
731.34621502319203
 20
-959.07064849353594
 42
0.0025070747153095
 10
731.22331367187746
 20
-959.44929571047737
 10
731.18601977545131
 20
-959.56618737573285
 42
0.0029081910284644
 10
730.99400147763754
 20
-960.18035103403372
 10
730.95319830912342
 20
-960.31357427630041
 42
0.0009266453733838
 10
730.68478093481065
 20
-961.19579873621763
 10
730.66389346214976
 20
-961.26491061552065
 42
-0.0005809993664158
 10
730.38655678157693
 20
-962.17871872209878
 10
730.32027498330558
 20
-962.39620365425333
 42
-0.0012018708168263
 10
730.17329067387482
 20
-962.87436631877915
 10
730.12097082228445
 20
-963.04312545972471
 42
-0.0002691059607424
 10
730.07740134114067
 20
-963.1833930799869
 10
727.24444544285143
 20
-972.27254768228659
 10
725.4264565508729
 20
-972.27254768228659
 10
731.6787059669208
 20
-951.6288296457567
  0
SPLINE
  5
4F
100
AcDbEntity
  8
0
370
              15
390
0
  6
Continuous
 62
               7
100
AcDbSpline
210
0.0
220
0.0
230
1.0
 70
              13
 71
               2
 72
             782
 73
             779
 74
               0
 42
0.000001
 43
0.000001
 40
0.0
 40
0.0
 40
0.0
 40
1.0
 40
1.0
 40
2.0
 40
2.0
 40
3.0
 40
3.0
 40
4.0
 40
4.0
 40
5.0
 40
5.0
 40
6.0
 40
6.0
 40
7.0
 40
7.0
 40
8.0
 40
8.0
 40
9.0
 40
9.0
 40
10.0
 40
10.0
 40
11.0
 40
11.0
 40
12.0
 40
12.0
 40
13.0
 40
13.0
 40
14.0
 40
14.0
 40
15.0
 40
15.0
 40
16.0
 40
16.0
 40
17.0
 40
17.0
 40
18.0
 40
18.0
 40
19.0
 40
19.0
 40
20.0
 40
20.0
 40
21.0
 40
21.0
 40
22.0
 40
22.0
 40
23.0
 40
23.0
 40
24.0
 40
24.0
 40
25.0
 40
25.0
 40
26.0
 40
26.0
 40
27.0
 40
27.0
 40
28.0
 40
28.0
 40
29.0
 40
29.0
 40
30.0
 40
30.0
 40
31.0
 40
31.0
 40
32.0
 40
32.0
 40
33.0
 40
33.0
 40
34.0
 40
34.0
 40
35.0
 40
35.0
 40
36.0
 40
36.0
 40
37.0
 40
37.0
 40
38.0
 40
38.0
 40
39.0
 40
39.0
 40
40.0
 40
40.0
 40
41.0
 40
41.0
 40
42.0
 40
42.0
 40
43.0
 40
43.0
 40
44.0
 40
44.0
 40
45.0
 40
45.0
 40
46.0
 40
46.0
 40
47.0
 40
47.0
 40
48.0
 40
48.0
 40
49.0
 40
49.0
 40
50.0
 40
50.0
 40
51.0
 40
51.0
 40
52.0
 40
52.0
 40
53.0
 40
53.0
 40
54.0
 40
54.0
 40
55.0
 40
55.0
 40
56.0
 40
56.0
 40
57.0
 40
57.0
 40
58.0
 40
58.0
 40
59.0
 40
59.0
 40
60.0
 40
60.0
 40
61.0
 40
61.0
 40
62.0
 40
62.0
 40
63.0
 40
63.0
 40
64.0
 40
64.0
 40
65.0
 40
65.0
 40
66.0
 40
66.0
 40
67.0
 40
67.0
 40
68.0
 40
68.0
 40
69.0
 40
69.0
 40
70.0
 40
70.0
 40
71.0
 40
71.0
 40
72.0
 40
72.0
 40
73.0
 40
73.0
 40
74.0
 40
74.0
 40
75.0
 40
75.0
 40
76.0
 40
76.0
 40
77.0
 40
77.0
 40
78.0
 40
78.0
 40
79.0
 40
79.0
 40
80.0
 40
80.0
 40
81.0
 40
81.0
 40
82.0
 40
82.0
 40
83.0
 40
83.0
 40
84.0
 40
84.0
 40
85.0
 40
85.0
 40
86.0
 40
86.0
 40
87.0
 40
87.0
 40
88.0
 40
88.0
 40
89.0
 40
89.0
 40
90.0
 40
90.0
 40
91.0
 40
91.0
 40
92.0
 40
92.0
 40
93.0
 40
93.0
 40
94.0
 40
94.0
 40
95.0
 40
95.0
 40
96.0
 40
96.0
 40
97.0
 40
97.0
 40
98.0
 40
98.0
 40
99.0
 40
99.0
 40
100.0
 40
100.0
 40
101.0
 40
101.0
 40
102.0
 40
102.0
 40
103.0
 40
103.0
 40
104.0
 40
104.0
 40
105.0
 40
105.0
 40
106.0
 40
106.0
 40
107.0
 40
107.0
 40
108.0
 40
108.0
 40
109.0
 40
109.0
 40
110.0
 40
110.0
 40
111.0
 40
111.0
 40
112.0
 40
112.0
 40
113.0
 40
113.0
 40
114.0
 40
114.0
 40
115.0
 40
115.0
 40
116.0
 40
116.0
 40
117.0
 40
117.0
 40
118.0
 40
118.0
 40
119.0
 40
119.0
 40
120.0
 40
120.0
 40
121.0
 40
121.0
 40
122.0
 40
122.0
 40
123.0
 40
123.0
 40
124.0
 40
124.0
 40
125.0
 40
125.0
 40
126.0
 40
126.0
 40
127.0
 40
127.0
 40
128.0
 40
128.0
 40
129.0
 40
129.0
 40
130.0
 40
130.0
 40
131.0
 40
131.0
 40
132.0
 40
132.0
 40
133.0
 40
133.0
 40
134.0
 40
134.0
 40
135.0
 40
135.0
 40
136.0
 40
136.0
 40
137.0
 40
137.0
 40
138.0
 40
138.0
 40
139.0
 40
139.0
 40
140.0
 40
140.0
 40
141.0
 40
141.0
 40
142.0
 40
142.0
 40
143.0
 40
143.0
 40
144.0
 40
144.0
 40
145.0
 40
145.0
 40
146.0
 40
146.0
 40
147.0
 40
147.0
 40
148.0
 40
148.0
 40
149.0
 40
149.0
 40
150.0
 40
150.0
 40
151.0
 40
151.0
 40
152.0
 40
152.0
 40
153.0
 40
153.0
 40
154.0
 40
154.0
 40
155.0
 40
155.0
 40
156.0
 40
156.0
 40
157.0
 40
157.0
 40
158.0
 40
158.0
 40
159.0
 40
159.0
 40
160.0
 40
160.0
 40
161.0
 40
161.0
 40
162.0
 40
162.0
 40
163.0
 40
163.0
 40
164.0
 40
164.0
 40
165.0
 40
165.0
 40
166.0
 40
166.0
 40
167.0
 40
167.0
 40
168.0
 40
168.0
 40
169.0
 40
169.0
 40
170.0
 40
170.0
 40
171.0
 40
171.0
 40
172.0
 40
172.0
 40
173.0
 40
173.0
 40
174.0
 40
174.0
 40
175.0
 40
175.0
 40
176.0
 40
176.0
 40
177.0
 40
177.0
 40
178.0
 40
178.0
 40
179.0
 40
179.0
 40
180.0
 40
180.0
 40
181.0
 40
181.0
 40
182.0
 40
182.0
 40
183.0
 40
183.0
 40
184.0
 40
184.0
 40
185.0
 40
185.0
 40
186.0
 40
186.0
 40
187.0
 40
187.0
 40
188.0
 40
188.0
 40
189.0
 40
189.0
 40
190.0
 40
190.0
 40
191.0
 40
191.0
 40
192.0
 40
192.0
 40
193.0
 40
193.0
 40
194.0
 40
194.0
 40
195.0
 40
195.0
 40
196.0
 40
196.0
 40
197.0
 40
197.0
 40
198.0
 40
198.0
 40
199.0
 40
199.0
 40
200.0
 40
200.0
 40
201.0
 40
201.0
 40
202.0
 40
202.0
 40
203.0
 40
203.0
 40
204.0
 40
204.0
 40
205.0
 40
205.0
 40
206.0
 40
206.0
 40
207.0
 40
207.0
 40
208.0
 40
208.0
 40
209.0
 40
209.0
 40
210.0
 40
210.0
 40
211.0
 40
211.0
 40
212.0
 40
212.0
 40
213.0
 40
213.0
 40
214.0
 40
214.0
 40
215.0
 40
215.0
 40
216.0
 40
216.0
 40
217.0
 40
217.0
 40
218.0
 40
218.0
 40
219.0
 40
219.0
 40
220.0
 40
220.0
 40
221.0
 40
221.0
 40
222.0
 40
222.0
 40
223.0
 40
223.0
 40
224.0
 40
224.0
 40
225.0
 40
225.0
 40
226.0
 40
226.0
 40
227.0
 40
227.0
 40
228.0
 40
228.0
 40
229.0
 40
229.0
 40
230.0
 40
230.0
 40
231.0
 40
231.0
 40
232.0
 40
232.0
 40
233.0
 40
233.0
 40
234.0
 40
234.0
 40
235.0
 40
235.0
 40
236.0
 40
236.0
 40
237.0
 40
237.0
 40
238.0
 40
238.0
 40
239.0
 40
239.0
 40
240.0
 40
240.0
 40
241.0
 40
241.0
 40
242.0
 40
242.0
 40
243.0
 40
243.0
 40
244.0
 40
244.0
 40
245.0
 40
245.0
 40
246.0
 40
246.0
 40
247.0
 40
247.0
 40
248.0
 40
248.0
 40
249.0
 40
249.0
 40
250.0
 40
250.0
 40
251.0
 40
251.0
 40
252.0
 40
252.0
 40
253.0
 40
253.0
 40
254.0
 40
254.0
 40
255.0
 40
255.0
 40
256.0
 40
256.0
 40
257.0
 40
257.0
 40
258.0
 40
258.0
 40
259.0
 40
259.0
 40
260.0
 40
260.0
 40
261.0
 40
261.0
 40
262.0
 40
262.0
 40
263.0
 40
263.0
 40
264.0
 40
264.0
 40
265.0
 40
265.0
 40
266.0
 40
266.0
 40
267.0
 40
267.0
 40
268.0
 40
268.0
 40
269.0
 40
269.0
 40
270.0
 40
270.0
 40
271.0
 40
271.0
 40
272.0
 40
272.0
 40
273.0
 40
273.0
 40
274.0
 40
274.0
 40
275.0
 40
275.0
 40
276.0
 40
276.0
 40
277.0
 40
277.0
 40
278.0
 40
278.0
 40
279.0
 40
279.0
 40
280.0
 40
280.0
 40
281.0
 40
281.0
 40
282.0
 40
282.0
 40
283.0
 40
283.0
 40
284.0
 40
284.0
 40
285.0
 40
285.0
 40
286.0
 40
286.0
 40
287.0
 40
287.0
 40
288.0
 40
288.0
 40
289.0
 40
289.0
 40
290.0
 40
290.0
 40
291.0
 40
291.0
 40
292.0
 40
292.0
 40
293.0
 40
293.0
 40
294.0
 40
294.0
 40
295.0
 40
295.0
 40
296.0
 40
296.0
 40
297.0
 40
297.0
 40
298.0
 40
298.0
 40
299.0
 40
299.0
 40
300.0
 40
300.0
 40
301.0
 40
301.0
 40
302.0
 40
302.0
 40
303.0
 40
303.0
 40
304.0
 40
304.0
 40
305.0
 40
305.0
 40
306.0
 40
306.0
 40
307.0
 40
307.0
 40
308.0
 40
308.0
 40
309.0
 40
309.0
 40
310.0
 40
310.0
 40
311.0
 40
311.0
 40
312.0
 40
312.0
 40
313.0
 40
313.0
 40
314.0
 40
314.0
 40
315.0
 40
315.0
 40
316.0
 40
316.0
 40
317.0
 40
317.0
 40
318.0
 40
318.0
 40
319.0
 40
319.0
 40
320.0
 40
320.0
 40
321.0
 40
321.0
 40
322.0
 40
322.0
 40
323.0
 40
323.0
 40
324.0
 40
324.0
 40
325.0
 40
325.0
 40
326.0
 40
326.0
 40
327.0
 40
327.0
 40
328.0
 40
328.0
 40
329.0
 40
329.0
 40
330.0
 40
330.0
 40
331.0
 40
331.0
 40
332.0
 40
332.0
 40
333.0
 40
333.0
 40
334.0
 40
334.0
 40
335.0
 40
335.0
 40
336.0
 40
336.0
 40
337.0
 40
337.0
 40
338.0
 40
338.0
 40
339.0
 40
339.0
 40
340.0
 40
340.0
 40
341.0
 40
341.0
 40
342.0
 40
342.0
 40
343.0
 40
343.0
 40
344.0
 40
344.0
 40
345.0
 40
345.0
 40
346.0
 40
346.0
 40
347.0
 40
347.0
 40
348.0
 40
348.0
 40
349.0
 40
349.0
 40
350.0
 40
350.0
 40
351.0
 40
351.0
 40
352.0
 40
352.0
 40
353.0
 40
353.0
 40
354.0
 40
354.0
 40
355.0
 40
355.0
 40
356.0
 40
356.0
 40
357.0
 40
357.0
 40
358.0
 40
358.0
 40
359.0
 40
359.0
 40
360.0
 40
360.0
 40
361.0
 40
361.0
 40
362.0
 40
362.0
 40
363.0
 40
363.0
 40
364.0
 40
364.0
 40
365.0
 40
365.0
 40
366.0
 40
366.0
 40
367.0
 40
367.0
 40
368.0
 40
368.0
 40
369.0
 40
369.0
 40
370.0
 40
370.0
 40
371.0
 40
371.0
 40
372.0
 40
372.0
 40
373.0
 40
373.0
 40
374.0
 40
374.0
 40
375.0
 40
375.0
 40
376.0
 40
376.0
 40
377.0
 40
377.0
 40
378.0
 40
378.0
 40
379.0
 40
379.0
 40
380.0
 40
380.0
 40
381.0
 40
381.0
 40
382.0
 40
382.0
 40
383.0
 40
383.0
 40
384.0
 40
384.0
 40
385.0
 40
385.0
 40
386.0
 40
386.0
 40
387.0
 40
387.0
 40
388.0
 40
388.0
 40
389.0
 40
389.0
 40
389.0
 10
742.00741041765343
 20
-951.61790328239431
 30
0.0
 41
1.0
 10
742.82583452637391
 20
-951.61790328239431
 30
0.0
 41
1.0
 10
743.64425863509439
 20
-951.61790328239431
 30
0.0
 41
1.0
 10
743.23050489957768
 20
-952.96052954664401
 30
0.0
 41
1.0
 10
742.81675116406086
 20
-954.30315581089371
 30
0.0
 41
1.0
 10
742.83509065923749
 20
-954.27445503796866
 30
0.0
 41
0.9999957264357446
 10
742.85359765607802
 20
-954.24586198780298
 30
0.0
 41
1.0
 10
742.88402698020604
 20
-954.19884910944143
 30
0.0
 41
1.0
 10
742.91445630433418
 20
-954.15183623107987
 30
0.0
 41
1.0
 10
742.99382194944155
 20
-954.02921742417459
 30
0.0
 41
0.9995394069081678
 10
743.08048034099534
 20
-953.91163936243049
 30
0.0
 41
1.0
 10
743.11623720325463
 20
-953.86312446983766
 30
0.0
 41
1.0
 10
743.15199406551392
 20
-953.81460957724471
 30
0.0
 41
1.0
 10
743.28572073333089
 20
-953.63316930211977
 30
0.0
 41
0.9994460617143377
 10
743.43122121461784
 20
-953.4610269044714
 30
0.0
 41
1.0
 10
743.43560939559188
 20
-953.45583522409004
 30
0.0
 41
1.0
 10
743.43999757656582
 20
-953.45064354370868
 30
0.0
 41
1.0
 10
743.57672169590478
 20
-953.2888845068228
 30
0.0
 41
0.999435939493421
 10
743.7239959262572
 20
-953.13666830565717
 30
0.0
 41
1.0
 10
743.72637928021118
 20
-953.1342049752833
 30
0.0
 41
1.0
 10
743.72876263416526
 20
-953.13174164490943
 30
0.0
 41
1.0
 10
743.87127015660872
 20
-952.98445210449233
 30
0.0
 41
0.999529368856779
 10
744.02254183759078
 20
-952.84617889232834
 30
0.0
 41
1.0
 10
744.0418355968543
 20
-952.82854300667702
 30
0.0
 41
1.0
 10
744.06112935611782
 20
-952.81090712102571
 30
0.0
 41
1.0
 10
744.17381351857398
 20
-952.70790568016332
 30
0.0
 41
0.9997087614803393
 10
744.29133640752798
 20
-952.61046139936639
 30
0.0
 41
1.0
 10
744.31050248071006
 20
-952.59456982085294
 30
0.0
 41
1.0
 10
744.32966855389213
 20
-952.57867824233961
 30
0.0
 41
1.0
 10
744.40885929648971
 20
-952.51301711856308
 30
0.0
 41
0.9999595338697954
 10
744.48921856733818
 20
-952.4487913879135
 30
0.0
 41
1.0
 10
744.56957783818962
 20
-952.38456565726142
 30
0.0
 41
0.9999749417501198
 10
744.65083837253098
 20
-952.32148410331661
 30
0.0
 41
1.0
 10
744.67182451869951
 20
-952.30519281601028
 30
0.0
 41
1.0
 10
744.69281066486803
 20
-952.28890152870395
 30
0.0
 41
1.0
 10
744.77737855016744
 20
-952.2232525188648
 30
0.0
 41
0.9999792037124825
 10
744.86278614993921
 20
-952.15869973721954
 30
0.0
 41
1.0
 10
744.88361097584914
 20
-952.14295991496306
 30
0.0
 41
1.0
 10
744.90443580175906
 20
-952.12722009270647
 30
0.0
 41
1.0
 10
744.94819374970405
 20
-952.09414695557939
 30
0.0
 41
0.999999337377215
 10
744.99187543585185
 20
-952.06097316015189
 30
0.0
 41
1.0
 10
745.03555712199204
 20
-952.02779936473007
 30
0.0
 41
0.9999160953816939
 10
745.08008353290882
 20
-951.99576829953401
 30
0.0
 41
1.0
 10
745.11290542033123
 20
-951.9721571439469
 30
0.0
 41
1.0
 10
745.14572730775365
 20
-951.9485459883598
 30
0.0
 41
1.0
 10
745.25589749351195
 20
-951.86929261199202
 30
0.0
 41
0.9980964527231687
 10
745.37498648701251
 20
-951.804205139136
 30
0.0
 41
1.0
 10
745.41201909394044
 20
-951.78396515954296
 30
0.0
 41
1.0
 10
745.44905170086849
 20
-951.76372517994992
 30
0.0
 41
1.0
 10
745.62837871414172
 20
-951.66571492924857
 30
0.0
 41
0.9984572810572642
 10
745.81746728050098
 20
-951.58819266790204
 30
0.0
 41
1.0
 10
745.82111354989649
 20
-951.58669777556429
 30
0.0
 41
1.0
 10
745.82475981929201
 20
-951.58520288322643
 30
0.0
 41
1.0
 10
746.00655584685956
 20
-951.51067040655573
 30
0.0
 41
0.9987838528033892
 10
746.19480850541913
 20
-951.45440476638987
 30
0.0
 41
1.0
 10
746.19904645461838
 20
-951.45313811269943
 30
0.0
 41
1.0
 10
746.20328440381763
 20
-951.45187145900911
 30
0.0
 41
1.0
 10
746.38306116397905
 20
-951.39813912622401
 30
0.0
 41
0.9990652816207245
 10
746.56680709569423
 20
-951.36013544668208
 30
0.0
 41
1.0
 10
746.57199549672771
 20
-951.35906234357515
 30
0.0
 41
1.0
 10
746.57718389776119
 20
-951.35798924046821
 30
0.0
 41
1.0
 10
746.75055302741225
 20
-951.32213176713981
 30
0.0
 41
0.9992909934270174
 10
746.92612879386843
 20
-951.29942133467353
 30
0.0
 41
1.0
 10
747.10170456032586
 20
-951.27671090220701
 30
0.0
 41
0.9994553539448485
 10
747.27839599341848
 20
-951.26563159800082
 30
0.0
 41
1.0
 10
747.31383040121375
 20
-951.26340970995307
 30
0.0
 41
1.0
 10
747.34926480900901
 20
-951.26118782190531
 30
0.0
 41
1.0
 10
747.51549057557929
 20
-951.25076475949345
 30
0.0
 41
0.999092809829283
 10
747.68200036748317
 20
-951.25452440072797
 30
0.0
 41
1.0
 10
747.7205622027534
 20
-951.25539509226087
 30
0.0
 41
1.0
 10
747.75912403802363
 20
-951.25626578379376
 30
0.0
 41
1.0
 10
747.8485101593842
 20
-951.25828404196238
 30
0.0
 41
0.9998382089203797
 10
747.93776584217198
 20
-951.26351616849058
 30
0.0
 41
1.0
 10
747.93819574839245
 20
-951.2635413693929
 30
0.0
 41
1.0
 10
747.93862565461291
 20
-951.26356657029521
 30
0.0
 41
1.0
 10
748.02702152495885
 20
-951.26874829501867
 30
0.0
 41
0.9997558016758907
 10
748.11510210215897
 20
-951.27783081038513
 30
0.0
 41
1.0
 10
748.11557824058923
 20
-951.27787990786783
 30
0.0
 41
1.0
 10
748.11605437901949
 20
-951.27792900535042
 30
0.0
 41
1.0
 10
748.20318267936034
 20
-951.2869133257517
 30
0.0
 41
0.9996565144181735
 10
748.28972053270195
 20
-951.30045063244063
 30
0.0
 41
1.0
 10
748.2901864580806
 20
-951.30052351817221
 30
0.0
 41
1.0
 10
748.29065238345936
 20
-951.30059640390368
 30
0.0
 41
1.0
 10
748.37625838604504
 20
-951.3139879391299
 30
0.0
 41
0.9995321806867104
 10
748.46088546637191
 20
-951.3325884275589
 30
0.0
 41
1.0
 10
748.46127466094254
 20
-951.33267397002442
 30
0.0
 41
1.0
 10
748.46166385551305
 20
-951.33275951249004
 30
0.0
 41
1.0
 10
748.54551254669866
 20
-951.35118891598779
 30
0.0
 41
0.9993819199219175
 10
748.62785908089609
 20
-951.37546429924885
 30
0.0
 41
1.0
 10
748.62809751439522
 20
-951.37553458835851
 30
0.0
 41
1.0
 10
748.62833594789447
 20
-951.37560487746828
 30
0.0
 41
1.0
 10
748.7102056150934
 20
-951.3997396825099
 30
0.0
 41
0.9992088568505932
 10
748.78989813408054
 20
-951.43030491830393
 30
0.0
 41
1.0
 10
748.86957912495973
 20
-951.46086451903716
 30
0.0
 41
0.9990226101773125
 10
748.94624979486673
 20
-951.49834195065171
 30
0.0
 41
1.0
 10
749.02290893666486
 20
-951.53581374720511
 30
0.0
 41
0.9988424273972411
 10
749.0956125638769
 20
-951.58047852245795
 30
0.0
 41
1.0
 10
749.09588027225641
 20
-951.58064298653017
 30
0.0
 41
1.0
 10
749.09614798063581
 20
-951.58080745060249
 30
0.0
 41
1.0
 10
749.16938702460675
 20
-951.62580115399987
 30
0.0
 41
0.9986928844490727
 10
749.23764989131655
 20
-951.67803688827962
 30
0.0
 41
1.0
 10
749.23823118353926
 20
-951.67848170150751
 30
0.0
 41
1.0
 10
749.23881247576196
 20
-951.67892651473528
 30
0.0
 41
1.0
 10
749.3082379269174
 20
-951.7320518754708
 30
0.0
 41
0.9986007262278172
 10
749.37166409668419
 20
-951.79221264516445
 30
0.0
 41
1.0
 10
749.37255851214127
 20
-951.79306101299949
 30
0.0
 41
1.0
 10
749.37345292759846
 20
-951.79390938083441
 30
0.0
 41
1.0
 10
749.43866792827964
 20
-951.85576688619813
 30
0.0
 41
0.9985581491381399
 10
749.49687553998149
 20
-951.92425937646999
 30
0.0
 41
1.0
 10
749.50613399357712
 20
-951.93515373417154
 30
0.0
 41
1.0
 10
749.51539244717287
 20
-951.94604809187319
 30
0.0
 41
1.0
 10
749.59211696606644
 20
-952.0363292975486
 30
0.0
 41
0.9970460233520317
 10
749.65410886722611
 20
-952.13729638173083
 30
0.0
 41
1.0
 10
749.66857823230589
 20
-952.16086284081257
 30
0.0
 41
1.0
 10
749.68304759738578
 20
-952.1844292998943
 30
0.0
 41
1.0
 10
749.72278429739731
 20
-952.24914902392504
 30
0.0
 41
0.9988468816636615
 10
749.75613066814844
 20
-952.31738147635178
 30
0.0
 41
1.0
 10
749.76316669063988
 20
-952.33177839748919
 30
0.0
 41
1.0
 10
749.77020271313131
 20
-952.34617531862648
 30
0.0
 41
1.0
 10
749.78947703889969
 20
-952.38561392877887
 30
0.0
 41
0.9998431189997662
 10
749.80734236639501
 20
-952.4257104832202
 30
0.0
 41
1.0
 10
749.82520769388407
 20
-952.46580703764789
 30
0.0
 41
0.9999989989826132
 10
749.84318641730272
 20
-952.50585287522426
 30
0.0
 41
1.0
 10
749.84935872890151
 20
-952.5196010920472
 30
0.0
 41
1.0
 10
749.85553104050041
 20
-952.53334930887002
 30
0.0
 41
1.0
 10
749.88585438711095
 20
-952.60089158007929
 30
0.0
 41
0.9998790356323963
 10
749.91406226724916
 20
-952.6693443320172
 30
0.0
 41
1.0
 10
749.92089744853376
 20
-952.68593143344526
 30
0.0
 41
1.0
 10
749.92773262981837
 20
-952.70251853487332
 30
0.0
 41
1.0
 10
749.95129029219811
 20
-952.75968648975754
 30
0.0
 41
0.9998227574561882
 10
749.97267904058708
 20
-952.81770079803402
 30
0.0
 41
1.0
 10
749.99406778897651
 20
-952.87571510631187
 30
0.0
 41
0.9996797971041411
 10
750.01249407393573
 20
-952.93473722543024
 30
0.0
 41
1.0
 10
750.01639787666113
 20
-952.9472416835988
 30
0.0
 41
1.0
 10
750.02030167938665
 20
-952.95974614176748
 30
0.0
 41
1.0
 10
750.04653556979713
 20
-953.043777177224
 30
0.0
 41
0.9979274938734433
 10
750.06176009327635
 20
-953.13048153588488
 30
0.0
 41
1.0
 10
750.06398378053746
 20
-953.14314553670556
 30
0.0
 41
1.0
 10
750.06620746779856
 20
-953.15580953752624
 30
0.0
 41
1.0
 10
750.07713740749682
 20
-953.21805604481631
 30
0.0
 41
0.9994985982136962
 10
750.08410557267371
 20
-953.28086954595835
 30
0.0
 41
1.0
 10
750.09107373785059
 20
-953.34368304709915
 30
0.0
 41
0.9996372611201572
 10
750.09464960361834
 20
-953.40678062578093
 30
0.0
 41
1.0
 10
750.09481818110771
 20
-953.40975524286387
 30
0.0
 41
1.0
 10
750.09498675859709
 20
-953.41272985994692
 30
0.0
 41
1.0
 10
750.09889977934347
 20
-953.4817766727956
 30
0.0
 41
0.9997730630735611
 10
750.09986809283157
 20
-953.55092749683195
 30
0.0
 41
1.0
 10
750.09992519924958
 20
-953.55500567597142
 30
0.0
 41
1.0
 10
750.09998230566771
 20
-953.55908385511088
 30
0.0
 41
1.0
 10
750.10106483199206
 20
-953.63639103742742
 30
0.0
 41
0.9998772614072242
 10
750.09972474526035
 20
-953.71369418399047
 30
0.0
 41
1.0
 10
750.09963548206156
 20
-953.71884334782681
 30
0.0
 41
1.0
 10
750.09954621886277
 20
-953.72399251166303
 30
0.0
 41
1.0
 10
750.09802760573359
 20
-953.81159398589807
 30
0.0
 41
0.9999415567329412
 10
750.09461529548753
 20
-953.89914214757368
 30
0.0
 41
1.0
 10
750.09437397481224
 20
-953.90533360731035
 30
0.0
 41
1.0
 10
750.09413265413696
 20
-953.91152506704702
 30
0.0
 41
1.0
 10
750.09023770254021
 20
-954.01145614820041
 30
0.0
 41
0.9999716810429825
 10
750.08483911942153
 20
-954.11131728643136
 30
0.0
 41
1.0
 10
750.08162632063295
 20
-954.17074653608415
 30
0.0
 41
1.0
 10
750.07841352184448
 20
-954.23017578573695
 30
0.0
 41
1.0
 10
750.07033961269178
 20
-954.37952418701934
 30
0.0
 41
0.999981912991355
 10
750.060469821075
 20
-954.52876466473253
 30
0.0
 41
1.0
 10
750.05060002945845
 20
-954.67800514244391
 30
0.0
 41
1.0
 10
750.04816070889456
 20
-954.71519818829324
 30
0.0
 41
1.0
 10
750.07085894276622
 20
-954.67645719089501
 30
0.0
 41
0.9999982128192058
 10
750.09370350156962
 20
-954.6378022968554
 30
0.0
 41
1.0
 10
750.12061306141015
 20
-954.5922690828753
 30
0.0
 41
1.0
 10
750.14752262125069
 20
-954.54673586889521
 30
0.0
 41
1.0
 10
750.22418629977199
 20
-954.41701454683266
 30
0.0
 41
0.9998609190055703
 10
750.30513361263036
 20
-954.28992216490872
 30
0.0
 41
1.0
 10
750.3347819341152
 20
-954.24337243194657
 30
0.0
 41
1.0
 10
750.36443025560004
 20
-954.19682269898442
 30
0.0
 41
1.0
 10
750.44670247583849
 20
-954.06765012898722
 30
0.0
 41
0.9999067609735919
 10
750.53247148530295
 20
-953.94077243954541
 30
0.0
 41
1.0
 10
750.53487618850204
 20
-953.93721517349331
 30
0.0
 41
1.0
 10
750.53728089170102
 20
-953.93365790744122
 30
0.0
 41
1.0
 10
750.61824049476445
 20
-953.81389475010769
 30
0.0
 41
0.9998784952149564
 10
750.70289410444832
 20
-953.69671353339538
 30
0.0
 41
1.0
 10
750.78754771412878
 20
-953.57953231668785
 30
0.0
 41
0.9998532968282174
 10
750.87616533495031
 20
-953.46531940821876
 30
0.0
 41
1.0
 10
750.89612712394228
 20
-953.43959208719752
 30
0.0
 41
1.0
 10
750.91608891293424
 20
-953.41386476617629
 30
0.0
 41
1.0
 10
751.03457296269312
 20
-953.26115915520768
 30
0.0
 41
0.9991551975795325
 10
751.16519741231696
 20
-953.11869959312389
 30
0.0
 41
1.0
 10
751.16870702829874
 20
-953.11487199149724
 30
0.0
 41
1.0
 10
751.17221664428052
 20
-953.1110443898707
 30
0.0
 41
1.0
 10
751.29582186194239
 20
-952.9762400310384
 30
0.0
 41
0.9997418144181484
 10
751.42542400164098
 20
-952.84719062042791
 30
0.0
 41
1.0
 10
751.55502614134173
 20
-952.71814120981537
 30
0.0
 41
0.9989238204633387
 10
751.69602868959271
 20
-952.60165624777653
 30
0.0
 41
1.0
 10
751.74127636773119
 20
-952.56427625616857
 30
0.0
 41
1.0
 10
751.78652404586967
 20
-952.52689626456072
 30
0.0
 41
1.0
 10
751.92676410309195
 20
-952.41104121126898
 30
0.0
 41
0.9990825084096602
 10
752.07640403569712
 20
-952.30761221343516
 30
0.0
 41
1.0
 10
752.08644939975375
 20
-952.30066900035581
 30
0.0
 41
1.0
 10
752.09649476381048
 20
-952.29372578727646
 30
0.0
 41
1.0
 10
752.22604396830093
 20
-952.20418321560237
 30
0.0
 41
0.9998164899825824
 10
752.35892817167735
 20
-952.11966897408581
 30
0.0
 41
1.0
 10
752.37077373220609
 20
-952.11213520755837
 30
0.0
 41
1.0
 10
752.38261929273483
 20
-952.10460144103092
 30
0.0
 41
1.0
 10
752.49181237505672
 20
-952.03515473256766
 30
0.0
 41
0.9997473449131166
 10
752.60401633230299
 20
-951.97068577475375
 30
0.0
 41
1.0
 10
752.71622028954926
 20
-951.90621681693983
 30
0.0
 41
0.9999327861148196
 10
752.82988890031083
 20
-951.84436682525939
 30
0.0
 41
1.0
 10
752.8304409028741
 20
-951.84406646657885
 30
0.0
 41
1.0
 10
752.83099290543737
 20
-951.84376610789832
 30
0.0
 41
1.0
 10
752.94576552132196
 20
-951.78131539885874
 30
0.0
 41
0.9996956420483611
 10
753.06347884716149
 20
-951.72460193188431
 30
0.0
 41
1.0
 10
753.09391925205864
 20
-951.70993595515222
 30
0.0
 41
1.0
 10
753.12435965695568
 20
-951.69526997842013
 30
0.0
 41
1.0
 10
753.2273367636958
 20
-951.64565631997868
 30
0.0
 41
0.9998070570176709
 10
753.33218315263264
 20
-951.60012573307938
 30
0.0
 41
1.0
 10
753.43702954157391
 20
-951.55459514617826
 30
0.0
 41
0.99978274361484
 10
753.54368247818388
 20
-951.51347397486632
 30
0.0
 41
1.0
 10
753.56290532781509
 20
-951.50606240123398
 30
0.0
 41
1.0
 10
753.58212817744629
 20
-951.49865082760175
 30
0.0
 41
1.0
 10
753.7272268133197
 20
-951.44270650902479
 30
0.0
 41
0.9988031841976878
 10
753.87709717592475
 20
-951.40120644485705
 30
0.0
 41
1.0
 10
753.90201442428827
 20
-951.39430669905005
 30
0.0
 41
1.0
 10
753.92693167265179
 20
-951.38740695324316
 30
0.0
 41
1.0
 10
754.09420169829798
 20
-951.3410888108366
 30
0.0
 41
0.9984748040550063
 10
754.26555860694623
 20
-951.31349457857186
 30
0.0
 41
1.0
 10
754.27029774319442
 20
-951.31273141805855
 30
0.0
 41
1.0
 10
754.27503687944261
 20
-951.31196825754523
 30
0.0
 41
1.0
 10
754.43691551559436
 20
-951.28590034630702
 30
0.0
 41
0.9984436495479748
 10
754.60069025931989
 20
-951.27802239248831
 30
0.0
 41
1.0
 10
754.62238746745106
 20
-951.27697870528868
 30
0.0
 41
1.0
 10
754.64408467558223
 20
-951.27593501808894
 30
0.0
 41
1.0
 10
754.76446500304428
 20
-951.2701444386696
 30
0.0
 41
0.9987954789335357
 10
754.88483324795448
 20
-951.27618096641186
 30
0.0
 41
1.0
 10
754.90479804044844
 20
-951.27718221075042
 30
0.0
 41
1.0
 10
754.92476283294229
 20
-951.27818345508899
 30
0.0
 41
1.0
 10
755.00520149286376
 20
-951.28221749415411
 30
0.0
 41
0.9997941595877218
 10
755.08541027095873
 20
-951.2895115600752
 30
0.0
 41
1.0
 10
755.16561904905598
 20
-951.29680562599663
 30
0.0
 41
0.9998589466235188
 10
755.24553759591356
 20
-951.30678948044704
 30
0.0
 41
1.0
 10
755.2779437977191
 20
-951.31083783736585
 30
0.0
 41
1.0
 10
755.31034999952465
 20
-951.31488619428478
 30
0.0
 41
1.0
 10
755.45508094999536
 20
-951.33296676257316
 30
0.0
 41
0.9993495063249355
 10
755.59813219376053
 20
-951.36143247231473
 30
0.0
 41
1.0
 10
755.63106589091308
 20
-951.36798593552965
 30
0.0
 41
1.0
 10
755.66399958806551
 20
-951.37453939874456
 30
0.0
 41
1.0
 10
755.77329341127029
 20
-951.39628773287996
 30
0.0
 41
0.9996788715560849
 10
755.88134498322677
 20
-951.423545532243
 30
0.0
 41
1.0
 10
755.8834079857661
 20
-951.42406595881607
 30
0.0
 41
1.0
 10
755.88547098830543
 20
-951.42458638538903
 30
0.0
 41
1.0
 10
755.98939655518359
 20
-951.45080333160615
 30
0.0
 41
0.999548065449252
 10
756.09155879041259
 20
-951.48321828823043
 30
0.0
 41
1.0
 10
756.09324843254149
 20
-951.4837543931443
 30
0.0
 41
1.0
 10
756.09493807467038
 20
-951.48429049805816
 30
0.0
 41
1.0
 10
756.19372102564193
 20
-951.51563324485483
 30
0.0
 41
0.9993867959456249
 10
756.29006818408459
 20
-951.55381261414459
 30
0.0
 41
1.0
 10
756.29131113317021
 20
-951.55430515604121
 30
0.0
 41
1.0
 10
756.29255408225583
 20
-951.55479769793772
 30
0.0
 41
1.0
 10
756.38641534252747
 20
-951.59199198343458
 30
0.0
 41
0.9992050256522131
 10
756.47701501756046
 20
-951.63654588267309
 30
0.0
 41
1.0
 10
756.4777497002724
 20
-951.63690717513373
 30
0.0
 41
1.0
 10
756.47848438298433
 20
-951.63726846759425
 30
0.0
 41
1.0
 10
756.567614692593
 20
-951.68109978191137
 30
0.0
 41
0.9990222350741628
 10
756.65252475398756
 20
-951.73263304961017
 30
0.0
 41
1.0
 10
756.65270863927049
 20
-951.73274465251507
 30
0.0
 41
1.0
 10
756.65289252455352
 20
-951.73285625542007
 30
0.0
 41
1.0
 10
756.73743481538156
 20
-951.78416631730875
 30
0.0
 41
0.9988642743805263
 10
756.81670935000011
 20
-951.8432905048337
 30
0.0
 41
1.0
 10
756.89598388461911
 20
-951.90241469235889
 30
0.0
 41
0.99876812333107
 10
756.96900766889542
 20
-951.96910538375982
 30
0.0
 41
1.0
 10
756.96933659686124
 20
-951.96940578497401
 30
0.0
 41
1.0
 10
756.96966552482695
 20
-951.96970618618809
 30
0.0
 41
1.0
 10
757.04334716503524
 20
-952.03699768001786
 30
0.0
 41
0.9987496570898835
 10
757.1099409703628
 20
-952.11131049410506
 30
0.0
 41
1.0
 10
757.1107131401227
 20
-952.1121721674624
 30
0.0
 41
1.0
 10
757.11148530988271
 20
-952.11303384081975
 30
0.0
 41
1.0
 10
757.17962345473086
 20
-952.1890700016221
 30
0.0
 41
0.9988147669826747
 10
757.24004570895568
 20
-952.27137100846448
 30
0.0
 41
1.0
 10
757.24116503503342
 20
-952.27289563981708
 30
0.0
 41
1.0
 10
757.24228436111127
 20
-952.27442027116967
 30
0.0
 41
1.0
 10
757.3049452674918
 20
-952.35977054071725
 30
0.0
 41
0.9989452636216171
 10
757.35951218045341
 20
-952.45050922987548
 30
0.0
 41
1.0
 10
757.36086090653885
 20
-952.45275201090135
 30
0.0
 41
1.0
 10
757.3622096326244
 20
-952.45499479192733
 30
0.0
 41
1.0
 10
757.41947399775665
 20
-952.55021904313674
 30
0.0
 41
0.999104643607041
 10
757.4684832110778
 20
-952.64994347616107
 30
0.0
 41
1.0
 10
757.46994707266822
 20
-952.65292215623458
 30
0.0
 41
1.0
 10
757.47141093425876
 20
-952.65590083630798
 30
0.0
 41
1.0
 10
757.5233478707604
 20
-952.76158262947843
 30
0.0
 41
0.999276383110115
 10
757.5671009993157
 20
-952.87090669143458
 30
0.0
 41
1.0
 10
757.56858026897896
 20
-952.87460287896806
 30
0.0
 41
1.0
 10
757.57005953864223
 20
-952.87829906650154
 30
0.0
 41
1.0
 10
757.61677120652394
 20
-952.99501550352466
 30
0.0
 41
0.9994163472883267
 10
757.6554042377137
 20
-953.11464909198855
 30
0.0
 41
1.0
 10
757.65664238996112
 20
-953.1184832357734
 30
0.0
 41
1.0
 10
757.65788054220855
 20
-953.12231737955824
 30
0.0
 41
1.0
 10
757.69776410322504
 20
-953.24582344103464
 30
0.0
 41
0.9997268055891923
 10
757.7318321591365
 20
-953.37105847298335
 30
0.0
 41
1.0
 10
757.7327623394068
 20
-953.37447783909488
 30
0.0
 41
1.0
 10
757.73369251967711
 20
-953.3778972052063
 30
0.0
 41
1.0
 10
757.76590021504899
 20
-953.49629350493615
 30
0.0
 41
0.9996701319000214
 10
757.79198583181892
 20
-953.61618745819749
 30
0.0
 41
1.0
 10
757.81807144858965
 20
-953.73608141146246
 30
0.0
 41
0.999578545110932
 10
757.83715502592963
 20
-953.8572871724956
 30
0.0
 41
1.0
 10
757.84137480810318
 20
-953.88408832726009
 30
0.0
 41
1.0
 10
757.84559459027685
 20
-953.91088948202446
 30
0.0
 41
1.0
 10
757.87216956621523
 20
-954.07967545572683
 30
0.0
 41
0.9979925101216786
 10
757.87719515214155
 20
-954.25046678381727
 30
0.0
 41
1.0
 10
757.87801996456619
 20
-954.27849750729638
 30
0.0
 41
1.0
 10
757.87884477699083
 20
-954.30652823077548
 30
0.0
 41
1.0
 10
757.88222073806799
 20
-954.42125811190647
 30
0.0
 41
0.9995314902263324
 10
757.87857054592939
 20
-954.53597959566093
 30
0.0
 41
1.0
 10
757.87492035379114
 20
-954.65070107941028
 30
0.0
 41
0.9996245486943646
 10
757.86499125866044
 20
-954.76505035053253
 30
0.0
 41
1.0
 10
757.86482821066602
 20
-954.76692810666987
 30
0.0
 41
1.0
 10
757.8646651626716
 20
-954.76880586280731
 30
0.0
 41
1.0
 10
757.85440997155274
 20
-954.88691064619798
 30
0.0
 41
0.9997286095000389
 10
757.83866464798189
 20
-955.00440955508782
 30
0.0
 41
1.0
 10
757.83827115533097
 20
-955.00734597979408
 30
0.0
 41
1.0
 10
757.83787766268006
 20
-955.01028240450023
 30
0.0
 41
1.0
 10
757.82134535380794
 20
-955.13365416279885
 30
0.0
 41
0.9998265533969417
 10
757.80022989507518
 20
-955.25632463758734
 30
0.0
 41
1.0
 10
757.79955335293812
 20
-955.26025501609479
 30
0.0
 41
1.0
 10
757.79887681080095
 20
-955.26418539460212
 30
0.0
 41
1.0
 10
757.77640826779475
 20
-955.39471662640199
 30
0.0
 41
0.9999022530851282
 10
757.75029880318596
 20
-955.52456859503491
 30
0.0
 41
1.0
 10
757.74932016201967
 20
-955.52943573742675
 30
0.0
 41
1.0
 10
757.74834152085339
 20
-955.5343028798186
 30
0.0
 41
1.0
 10
757.72027477391146
 20
-955.67388913323714
 30
0.0
 41
0.9999524761935085
 10
757.68949180507582
 20
-955.81290162640562
 30
0.0
 41
1.0
 10
757.68821569790134
 20
-955.81866438570341
 30
0.0
 41
1.0
 10
757.68693959072698
 20
-955.8244271450011
 30
0.0
 41
1.0
 10
757.65360440754193
 20
-955.97496515676789
 30
0.0
 41
0.9999813588725044
 10
757.61843340674591
 20
-956.12508486942454
 30
0.0
 41
1.0
 10
757.61687948128917
 20
-956.13171745984778
 30
0.0
 41
1.0
 10
757.61532555583244
 20
-956.1383500502709
 30
0.0
 41
1.0
 10
757.57704670412818
 20
-956.30173494375265
 30
0.0
 41
0.9999955237710565
 10
757.53779082615165
 20
-956.46488784734197
 30
0.0
 41
1.0
 10
757.52550919051293
 20
-956.51593203788309
 30
0.0
 41
1.0
 10
757.51322755487422
 20
-956.56697622842421
 30
0.0
 41
1.0
 10
757.44940840563095
 20
-956.832217513052
 30
0.0
 41
0.9999993604400288
 10
757.384989458463
 20
-957.09731376373634
 30
0.0
 41
1.0
 10
757.38027062291303
 20
-957.1167326717889
 30
0.0
 41
1.0
 10
757.37555178736295
 20
-957.13615157984157
 30
0.0
 41
1.0
 10
757.3016951691028
 20
-957.4400856465993
 30
0.0
 41
0.9999659914728891
 10
757.22283557321771
 20
-957.74276019315789
 30
0.0
 41
1.0
 10
757.21788288428684
 20
-957.76176933034128
 30
0.0
 41
1.0
 10
757.21293019535597
 20
-957.78077846752467
 30
0.0
 41
1.0
 10
757.12416522161004
 20
-958.12147128844572
 30
0.0
 41
0.9999441976026249
 10
757.02822218864526
 20
-958.46021271374934
 30
0.0
 41
1.0
 10
757.01152167022065
 20
-958.51917642627382
 30
0.0
 41
1.0
 10
756.99482115179603
 20
-958.57814013879818
 30
0.0
 41
1.0
 10
756.86547708198191
 20
-959.03480898915086
 30
0.0
 41
0.9999625120733625
 10
756.72824431465892
 20
-959.48916952314505
 30
0.0
 41
1.0
 10
756.69245437157178
 20
-959.60766554978568
 30
0.0
 41
1.0
 10
756.65666442848476
 20
-959.72616157642642
 30
0.0
 41
1.0
 10
756.58214422444757
 20
-959.97288865451515
 30
0.0
 41
0.9999793386318756
 10
756.50445820131335
 20
-960.21863729374081
 30
0.0
 41
1.0
 10
756.42677217817584
 20
-960.46438593297694
 30
0.0
 41
1.0
 10
756.41599261930514
 20
-960.49840383735159
 30
0.0
 41
1.0
 10
754.56561956603605
 20
-966.38547575981909
 30
0.0
 41
1.0
 10
752.71524651276684
 20
-972.27254768228659
 30
0.0
 41
1.0
 10
751.75398982274328
 20
-972.27254768228659
 30
0.0
 41
1.0
 10
750.79273313271972
 20
-972.27254768228659
 30
0.0
 41
1.0
 10
752.4116779113981
 20
-967.12451918049715
 30
0.0
 41
1.0
 10
754.0306226900766
 20
-961.97649067870771
 30
0.0
 41
1.0
 10
754.07578851324843
 20
-961.8324594564458
 30
0.0
 41
1.0
 10
754.12095433642014
 20
-961.68842823418402
 30
0.0
 41
1.0
 10
754.29125875378509
 20
-961.14533720501447
 30
0.0
 41
0.9999911657918152
 10
754.45699156546812
 20
-960.60083367364177
 30
0.0
 41
1.0
 10
754.48668750897332
 20
-960.50326973357585
 30
0.0
 41
1.0
 10
754.51638345247841
 20
-960.40570579350992
 30
0.0
 41
1.0
 10
754.62272437715239
 20
-960.05633014226487
 30
0.0
 41
0.9999952428167594
 10
754.72690796647339
 20
-959.70630511792854
 30
0.0
 41
1.0
 10
754.7319674368066
 20
-959.68930684365114
 30
0.0
 41
1.0
 10
754.73702690713969
 20
-959.67230856937363
 30
0.0
 41
1.0
 10
754.83109155579996
 20
-959.35628009357345
 30
0.0
 41
0.9999931687521976
 10
754.92281739367195
 20
-959.03956488030849
 30
0.0
 41
1.0
 10
754.92775265812941
 20
-959.02252417104455
 30
0.0
 41
1.0
 10
754.93268792258687
 20
-959.00548346178061
 30
0.0
 41
1.0
 10
755.01454323154394
 20
-958.72284966704342
 30
0.0
 41
0.9999893840782993
 10
755.09379045800245
 20
-958.4394735377914
 30
0.0
 41
1.0
 10
755.17303768446072
 20
-958.15609740854006
 30
0.0
 41
0.999983398007838
 10
755.24901392520133
 20
-957.87182682551543
 30
0.0
 41
1.0
 10
755.25801786192415
 20
-957.83813794703519
 30
0.0
 41
1.0
 10
755.26702179864685
 20
-957.80444906855485
 30
0.0
 41
1.0
 10
755.33598634751286
 20
-957.54641323625958
 30
0.0
 41
0.9999233658064802
 10
755.39854131873278
 20
-957.28674907753839
 30
0.0
 41
1.0
 10
755.46109628995305
 20
-957.02708491881594
 30
0.0
 41
1.0
 10
755.50057970881062
 20
-956.8632782543898
 30
0.0
 41
1.0
 10
755.50555831278825
 20
-956.84262329251806
 30
0.0
 41
1.0
 10
755.51053691676577
 20
-956.82196833064643
 30
0.0
 41
1.0
 10
755.54006312766933
 20
-956.69947158995933
 30
0.0
 41
0.9999868670879132
 10
755.56833221166437
 20
-956.57667864431824
 30
0.0
 41
1.0
 10
755.57222969882332
 20
-956.55974905689573
 30
0.0
 41
1.0
 10
755.57612718598239
 20
-956.5428194694731
 30
0.0
 41
1.0
 10
755.59660129566123
 20
-956.45388569867009
 30
0.0
 41
0.9999778173359983
 10
755.61588889377595
 20
-956.3646870814423
 30
0.0
 41
1.0
 10
755.63517649189237
 20
-956.27548846420757
 30
0.0
 41
0.9999602692864247
 10
755.65287085052489
 20
-956.18596017577181
 30
0.0
 41
1.0
 10
755.65607468260123
 20
-956.16974972089292
 30
0.0
 41
1.0
 10
755.65927851467745
 20
-956.15353926601415
 30
0.0
 41
1.0
 10
755.6833805374639
 20
-956.03159006781425
 30
0.0
 41
0.9995617985320023
 10
755.70022388468271
 20
-955.9084283201064
 30
0.0
 41
1.0
 10
755.70268837458866
 20
-955.89040750274262
 30
0.0
 41
1.0
 10
755.70515286449472
 20
-955.87238668537873
 30
0.0
 41
1.0
 10
755.72543612554296
 20
-955.72407163567823
 30
0.0
 41
0.9991121410639535
 10
755.73316147913124
 20
-955.57457553687175
 30
0.0
 41
1.0
 10
755.73408026915604
 20
-955.55679570029224
 30
0.0
 41
1.0
 10
755.73499905918072
 20
-955.53901586371285
 30
0.0
 41
1.0
 10
755.74088683271975
 20
-955.42507943806231
 30
0.0
 41
0.9989792494904742
 10
755.73646774060217
 20
-955.31107660216719
 30
0.0
 41
1.0
 10
755.73581976873345
 20
-955.29436035623803
 30
0.0
 41
1.0
 10
755.73517179686473
 20
-955.27764411030887
 30
0.0
 41
1.0
 10
755.73204864848469
 20
-955.19707376626695
 30
0.0
 41
0.9997820295393595
 10
755.72556465110915
 20
-955.11670404452479
 30
0.0
 41
1.0
 10
755.71908065373327
 20
-955.03633432277718
 30
0.0
 41
0.9998335105971971
 10
755.7096684582209
 20
-954.95625470632353
 30
0.0
 41
1.0
 10
755.70807353354496
 20
-954.94268497584403
 30
0.0
 41
1.0
 10
755.70647860886902
 20
-954.92911524536464
 30
0.0
 41
1.0
 10
755.69387656400488
 20
-954.8218961679504
 30
0.0
 41
0.9996876457879724
 10
755.67593265120695
 20
-954.7154407402362
 30
0.0
 41
1.0
 10
755.673700988061
 20
-954.70220100499091
 30
0.0
 41
1.0
 10
755.67146932491517
 20
-954.6889612697455
 30
0.0
 41
1.0
 10
755.65767350349438
 20
-954.60711512578882
 30
0.0
 41
0.9995547496494706
 10
755.63902018160206
 20
-954.52623762859935
 30
0.0
 41
1.0
 10
755.63864622473102
 20
-954.52461621789507
 30
0.0
 41
1.0
 10
755.63827226785997
 20
-954.5229948071908
 30
0.0
 41
1.0
 10
755.62036685970975
 20
-954.44536013140953
 30
0.0
 41
0.9994899427175215
 10
755.59754195103005
 20
-954.36902684857375
 30
0.0
 41
1.0
 10
755.59708342428894
 20
-954.36749339878384
 30
0.0
 41
1.0
 10
755.59662489754771
 20
-954.3659599489938
 30
0.0
 41
1.0
 10
755.57471704235047
 20
-954.29269356573832
 30
0.0
 41
0.9993784877590429
 10
755.54770140724418
 20
-954.22115286058033
 30
0.0
 41
1.0
 10
755.54716971626726
 20
-954.21974487785997
 30
0.0
 41
1.0
 10
755.54663802529046
 20
-954.2183368951396
 30
0.0
 41
1.0
 10
755.52068577213743
 20
-954.14961215542087
 30
0.0
 41
0.9992430832254815
 10
755.48946923697827
 20
-954.08311300335299
 30
0.0
 41
1.0
 10
755.48888712092196
 20
-954.08187294823631
 30
0.0
 41
1.0
 10
755.48830500486565
 20
-954.08063289311963
 30
0.0
 41
1.0
 10
755.45825270181922
 20
-954.01661385128546
 30
0.0
 41
0.9990789632799085
 10
755.42282207504218
 20
-953.95540723953513
 30
0.0
 41
1.0
 10
755.42222636886061
 20
-953.95437815367666
 30
0.0
 41
1.0
 10
755.42163066267904
 20
-953.95334906781818
 30
0.0
 41
1.0
 10
755.3873914482657
 20
-953.89420062778595
 30
0.0
 41
0.9988874801121348
 10
755.34773217223346
 20
-953.83854091536762
 30
0.0
 41
1.0
 10
755.34717664616937
 20
-953.83776126369298
 30
0.0
 41
1.0
 10
755.34662112010517
 20
-953.83698161201835
 30
0.0
 41
1.0
 10
755.30807289620134
 20
-953.78288120294985
 30
0.0
 41
0.9986762060693427
 10
755.26417042492517
 20
-953.73302748851063
 30
0.0
 41
1.0
 10
755.26372646459345
 20
-953.73252334669462
 30
0.0
 41
1.0
 10
755.26328250426184
 20
-953.73201920487861
 30
0.0
 41
1.0
 10
755.22026795364957
 20
-953.68317377407197
 30
0.0
 41
0.9984621642488166
 10
755.17211039687118
 20
-953.63939047360032
 30
0.0
 41
1.0
 10
755.17186376235441
 20
-953.63916624143667
 30
0.0
 41
1.0
 10
755.17161712783752
 20
-953.63894200927291
 30
0.0
 41
1.0
 10
755.12395284009324
 20
-953.595607173129
 30
0.0
 41
0.9982724693850977
 10
755.07153420825193
 20
-953.55816282261151
 30
0.0
 41
1.0
 10
755.0191155764104
 20
-953.52071847209368
 30
0.0
 41
0.9981399180158571
 10
754.96252951301676
 20
-953.48993195265018
 30
0.0
 41
1.0
 10
754.9624838509385
 20
-953.48990710949306
 30
0.0
 41
1.0
 10
754.96243818886023
 20
-953.48988226633605
 30
0.0
 41
1.0
 10
754.90576080131018
 20
-953.45904606057832
 30
0.0
 41
0.9980927086836611
 10
754.84571545024369
 20
-953.43542925172585
 30
0.0
 41
1.0
 10
754.84527528053195
 20
-953.43525612585086
 30
0.0
 41
1.0
 10
754.84483511082021
 20
-953.43508299997575
 30
0.0
 41
1.0
 10
754.78390942032991
 20
-953.41111993937307
 30
0.0
 41
0.998141135656116
 10
754.72052089892975
 20
-953.39474729786741
 30
0.0
 41
1.0
 10
754.71963878222891
 20
-953.39451945566202
 30
0.0
 41
1.0
 10
754.71875666552819
 20
-953.39429161345674
 30
0.0
 41
1.0
 10
754.65360391072613
 20
-953.37746328754019
 30
0.0
 41
0.9983031812935209
 10
754.58693648173141
 20
-953.36832392636404
 30
0.0
 41
1.0
 10
754.57806545632684
 20
-953.36710780769261
 30
0.0
 41
1.0
 10
754.56919443092215
 20
-953.36589168902117
 30
0.0
 41
1.0
 10
754.51484478841894
 20
-953.35844095903019
 30
0.0
 41
0.9983887708263144
 10
754.46000093912642
 20
-953.35719628539698
 30
0.0
 41
1.0
 10
754.45193753390868
 20
-953.35701328752214
 30
0.0
 41
1.0
 10
754.44387412869094
 20
-953.35683028964729
 30
0.0
 41
1.0
 10
754.40515708983344
 20
-953.35595161176366
 30
0.0
 41
0.9998869563077066
 10
754.36643113663092
 20
-953.35623748112334
 30
0.0
 41
1.0
 10
754.32770518343659
 20
-953.35652335048303
 30
0.0
 41
0.9999972320178138
 10
754.28898100423442
 20
-953.35699145001183
 30
0.0
 41
1.0
 10
754.26962798764589
 20
-953.35722539010135
 30
0.0
 41
1.0
 10
754.25027497105748
 20
-953.35745933019086
 30
0.0
 41
1.0
 10
754.17284475868553
 20
-953.3583953098987
 30
0.0
 41
0.9997304945086711
 10
754.0955414524467
 20
-953.36292440368481
 30
0.0
 41
1.0
 10
754.08649181074361
 20
-953.3634546096747
 30
0.0
 41
1.0
 10
754.07744216904064
 20
-953.36398481566459
 30
0.0
 41
1.0
 10
753.98203957939461
 20
-953.36957432143049
 30
0.0
 41
0.9997888306415065
 10
753.88694724355253
 20
-953.3790792859196
 30
0.0
 41
1.0
 10
753.87822618197947
 20
-953.37995100055173
 30
0.0
 41
1.0
 10
753.86950512040642
 20
-953.38082271518385
 30
0.0
 41
1.0
 10
753.75697066141754
 20
-953.39207110893722
 30
0.0
 41
0.998417023819078
 10
753.64641151406568
 20
-953.41588719087315
 30
0.0
 41
1.0
 10
753.61003038308036
 20
-953.42372422667904
 30
0.0
 41
1.0
 10
753.57364925209504
 20
-953.43156126248493
 30
0.0
 41
1.0
 10
753.4584581836732
 20
-953.45637512899464
 30
0.0
 41
0.9976592854199256
 10
753.34773001726762
 20
-953.49667380614198
 30
0.0
 41
1.0
 10
753.2370018508642
 20
-953.53697248328854
 30
0.0
 41
0.9993255074352441
 10
753.1295300520751
 20
-953.58528938178017
 30
0.0
 41
1.0
 10
753.12490487315017
 20
-953.58736875798058
 30
0.0
 41
1.0
 10
753.12027969422525
 20
-953.589448134181
 30
0.0
 41
1.0
 10
753.00355753758754
 20
-953.641923785073
 30
0.0
 41
0.9976475078274735
 10
752.89511019327665
 20
-953.70987177473182
 30
0.0
 41
1.0
 10
752.87676779914455
 20
-953.72136425354461
 30
0.0
 41
1.0
 10
752.85842540501255
 20
-953.73285673235739
 30
0.0
 41
1.0
 10
752.77422321345875
 20
-953.78561385312685
 30
0.0
 41
0.9995131336407119
 10
752.69347549849829
 20
-953.84352006508198
 30
0.0
 41
1.0
 10
752.61272778353987
 20
-953.90142627703585
 30
0.0
 41
0.9995810107605833
 10
752.53546613580977
 20
-953.96390795950299
 30
0.0
 41
1.0
 10
752.5324961046008
 20
-953.96630983096657
 30
0.0
 41
1.0
 10
752.52952607339193
 20
-953.96871170243014
 30
0.0
 41
1.0
 10
752.44632436324457
 20
-954.03599712782386
 30
0.0
 41
0.9996617837955195
 10
752.36673367611036
 20
-954.10751758338279
 30
0.0
 41
1.0
 10
752.35460292523055
 20
-954.11841831637594
 30
0.0
 41
1.0
 10
752.34247217435075
 20
-954.12931904936909
 30
0.0
 41
1.0
 10
752.27419664695446
 20
-954.19067166484126
 30
0.0
 41
0.9997267750052609
 10
752.20886313867254
 20
-954.25514820136493
 30
0.0
 41
1.0
 10
752.14352963038709
 20
-954.3196247378919
 30
0.0
 41
0.9999667288966639
 10
752.07925668723806
 20
-954.38515854478885
 30
0.0
 41
1.0
 10
752.010429239465
 20
-954.45533620354502
 30
0.0
 41
1.0
 10
751.94160179169194
 20
-954.52551386230118
 30
0.0
 41
1.0
 10
751.73967395299564
 20
-954.73140298671149
 30
0.0
 41
0.998820533517519
 10
751.55866833601647
 20
-954.95590721877159
 30
0.0
 41
1.0
 10
751.5280283711113
 20
-954.99391046920209
 30
0.0
 41
1.0
 10
751.49738840620626
 20
-955.03191371963248
 30
0.0
 41
1.0
 10
751.25510285941755
 20
-955.33242445255257
 30
0.0
 41
0.9997077826755192
 10
751.02762490831287
 20
-955.64429424676814
 30
0.0
 41
1.0
 10
751.025901493182
 20
-955.64665703014828
 30
0.0
 41
1.0
 10
751.02417807805114
 20
-955.64901981352841
 30
0.0
 41
1.0
 10
750.79325329668393
 20
-955.96561517450527
 30
0.0
 41
0.998914756707872
 10
750.5927897937994
 20
-956.30232463569223
 30
0.0
 41
1.0
 10
750.56804864849664
 20
-956.34388121623761
 30
0.0
 41
1.0
 10
750.54330750319377
 20
-956.38543779678309
 30
0.0
 41
1.0
 10
750.38809620455311
 20
-956.64613918124155
 30
0.0
 41
0.9997476598181943
 10
750.24475121704063
 20
-956.91354892982872
 30
0.0
 41
1.0
 10
750.10140622953008
 20
-957.18095867841271
 30
0.0
 41
0.9996258967110251
 10
749.97289797759777
 20
-957.45580661503845
 30
0.0
 41
1.0
 10
749.95969806814799
 20
-957.48403801513427
 30
0.0
 41
1.0
 10
749.9464981586982
 20
-957.51226941523021
 30
0.0
 41
1.0
 10
749.80628943769955
 20
-957.81214181318069
 30
0.0
 41
0.9998735413944901
 10
749.67568809097952
 20
-958.11632141264761
 30
0.0
 41
1.0
 10
749.67224526291773
 20
-958.12433999811537
 30
0.0
 41
1.0
 10
749.66880243485593
 20
-958.13235858358303
 30
0.0
 41
1.0
 10
749.54508674425836
 20
-958.42050101211726
 30
0.0
 41
0.9999377418860725
 10
749.42783194208437
 20
-958.71133247979026
 30
0.0
 41
1.0
 10
749.31057713990981
 20
-959.00216394746496
 30
0.0
 41
0.9999508299502512
 10
749.19911319653431
 20
-959.29526362428123
 30
0.0
 41
1.0
 10
749.1960324278707
 20
-959.30336465024834
 30
0.0
 41
1.0
 10
749.19295165920698
 20
-959.31146567621533
 30
0.0
 41
1.0
 10
749.07532617850643
 20
-959.62076740495945
 30
0.0
 41
0.9999609228433579
 10
748.96318757563313
 20
-959.93210042097303
 30
0.0
 41
1.0
 10
748.96023156528224
 20
-959.9403072613859
 30
0.0
 41
1.0
 10
748.95727555493136
 20
-959.94851410179888
 30
0.0
 41
1.0
 10
748.83922493135879
 20
-960.27626079863171
 30
0.0
 41
0.999967460740793
 10
748.7264774052901
 20
-960.60586941862789
 30
0.0
 41
1.0
 10
748.675079014728
 20
-960.75612861431864
 30
0.0
 41
1.0
 10
748.62368062416601
 20
-960.90638781000939
 30
0.0
 41
1.0
 10
748.50767001740746
 20
-961.24553579251415
 30
0.0
 41
0.9999287532307684
 10
748.39978861343639
 20
-961.58735653149108
 30
0.0
 41
1.0
 10
748.35331135727552
 20
-961.73461907593082
 30
0.0
 41
1.0
 10
748.30683410111465
 20
-961.88188162037068
 30
0.0
 41
1.0
 10
748.29190720944132
 20
-961.92917727054362
 30
0.0
 41
0.9999998224151481
 10
748.27703670073515
 20
-961.97649067870771
 30
0.0
 41
1.0
 10
746.65638056393971
 20
-967.12451918049715
 30
0.0
 41
1.0
 10
745.03572442714426
 20
-972.27254768228659
 30
0.0
 41
1.0
 10
744.13041598325333
 20
-972.27254768228659
 30
0.0
 41
1.0
 10
743.2251075393624
 20
-972.27254768228659
 30
0.0
 41
1.0
 10
745.07719195074844
 20
-966.38547575981909
 30
0.0
 41
1.0
 10
746.92927636213449
 20
-960.49840383735159
 30
0.0
 41
1.0
 10
746.9393981204372
 20
-960.46636062390189
 30
0.0
 41
1.0
 10
747.01200578928695
 20
-960.23606108207605
 30
0.0
 41
1.0
 10
747.0846134581376
 20
-960.00576154024748
 30
0.0
 41
0.9999825681969522
 10
747.15449649735024
 20
-959.77462064517863
 30
0.0
 41
1.0
 10
747.20278755951199
 20
-959.61489606167925
 30
0.0
 41
1.0
 10
747.25107862167386
 20
-959.45517147817998
 30
0.0
 41
1.0
 10
747.3482309749877
 20
-959.13383625641472
 30
0.0
 41
0.9999672528963581
 10
747.44016978060904
 20
-958.81097071083525
 30
0.0
 41
1.0
 10
747.44295866427717
 20
-958.80117686545111
 30
0.0
 41
1.0
 10
747.4457475479453
 20
-958.79138302006697
 30
0.0
 41
1.0
 10
747.53210858623152
 20
-958.48810516525168
 30
0.0
 41
0.9999899749157029
 10
747.61575019576708
 20
-958.18406607679651
 30
0.0
 41
1.0
 10
747.62585611478505
 20
-958.14733083911642
 30
0.0
 41
1.0
 10
747.63596203380303
 20
-958.11059560143633
 30
0.0
 41
1.0
 10
747.69939180530162
 20
-957.88002698834464
 30
0.0
 41
0.9999214200504537
 10
747.75702123367955
 20
-957.64794064613477
 30
0.0
 41
1.0
 10
747.76978708585852
 20
-957.59652976074483
 30
0.0
 41
1.0
 10
747.78255293803761
 20
-957.54511887535489
 30
0.0
 41
1.0
 10
747.81465066205521
 20
-957.41585430393366
 30
0.0
 41
0.9999828681659507
 10
747.84523291405264
 20
-957.28622282945798
 30
0.0
 41
1.0
 10
747.8758151660486
 20
-957.15659135498845
 30
0.0
 41
0.999938984448145
 10
747.90352615483823
 20
-957.02631589908606
 30
0.0
 41
1.0
 10
747.91066389855791
 20
-956.99275979525078
 30
0.0
 41
1.0
 10
747.91780164227771
 20
-956.95920369141561
 30
0.0
 41
1.0
 10
747.95978811850716
 20
-956.76181602784175
 30
0.0
 41
0.9998933699441678
 10
747.99599238290932
 20
-956.56328642008384
 30
0.0
 41
1.0
 10
747.99736520812576
 20
-956.55575839938638
 30
0.0
 41
1.0
 10
747.99873803334231
 20
-956.54823037868891
 30
0.0
 41
1.0
 10
748.03768794817734
 20
-956.3346447295371
 30
0.0
 41
0.9996850305192863
 10
748.065871624436
 20
-956.11937372410023
 30
0.0
 41
1.0
 10
748.06786665780533
 20
-956.10413536997885
 30
0.0
 41
1.0
 10
748.06986169117454
 20
-956.08889701585736
 30
0.0
 41
1.0
 10
748.09726955363362
 20
-955.87955178870197
 30
0.0
 41
0.9994697936706315
 10
748.11099411285318
 20
-955.66886659337126
 30
0.0
 41
1.0
 10
748.11147118210283
 20
-955.66154312116169
 30
0.0
 41
1.0
 10
748.11194825135237
 20
-955.65421964895211
 30
0.0
 41
1.0
 10
748.12471867207273
 20
-955.45818139804226
 30
0.0
 41
0.9991804893137155
 10
748.12159035579998
 20
-955.26175254806708
 30
0.0
 41
1.0
 10
748.12150647697786
 20
-955.25648574665502
 30
0.0
 41
1.0
 10
748.12142259815573
 20
-955.25121894524284
 30
0.0
 41
1.0
 10
748.11846203952723
 20
-955.06532369809418
 30
0.0
 41
0.9988448329321628
 10
748.09767049390348
 20
-954.88057110826026
 30
0.0
 41
1.0
 10
748.09607642020057
 20
-954.86640625249015
 30
0.0
 41
1.0
 10
748.09448234649767
 20
-954.85224139672005
 30
0.0
 41
1.0
 10
748.07687894827984
 20
-954.69581851842804
 30
0.0
 41
0.9985503209458776
 10
748.04256267598021
 20
-954.54219433433764
 30
0.0
 41
1.0
 10
748.03497668390901
 20
-954.50823400693741
 30
0.0
 41
1.0
 10
748.0273906918377
 20
-954.47427367953719
 30
0.0
 41
1.0
 10
748.00824640368057
 20
-954.38857015024848
 30
0.0
 41
0.9991036781370282
 10
747.98192154202934
 20
-954.30479306292341
 30
0.0
 41
1.0
 10
747.97793931657338
 20
-954.29211990041267
 30
0.0
 41
1.0
 10
747.97395709111731
 20
-954.27944673790205
 30
0.0
 41
1.0
 10
747.95559668037811
 20
-954.22101597559799
 30
0.0
 41
0.9998874504369065
 10
747.93549147269982
 20
-954.16316237337514
 30
0.0
 41
1.0
 10
747.9153862650212
 20
-954.10530877115161
 30
0.0
 41
0.9994041637543955
 10
747.89133765208669
 20
-954.04898006726125
 30
0.0
 41
1.0
 10
747.88714086786251
 20
-954.03915000277902
 30
0.0
 41
1.0
 10
747.88294408363834
 20
-954.02931993829668
 30
0.0
 41
1.0
 10
747.85506525264418
 20
-953.96401977233018
 30
0.0
 41
0.9991846840701735
 10
747.8220088959514
 20
-953.90118174105078
 30
0.0
 41
1.0
 10
747.82087228955675
 20
-953.89902112459686
 30
0.0
 41
1.0
 10
747.81973568316209
 20
-953.89686050814282
 30
0.0
 41
1.0
 10
747.78895253925862
 20
-953.83834370977115
 30
0.0
 41
0.9989253167923246
 10
747.7528831152033
 20
-953.78292878138029
 30
0.0
 41
1.0
 10
747.75182899052925
 20
-953.78130928661824
 30
0.0
 41
1.0
 10
747.75077486585519
 20
-953.77968979185619
 30
0.0
 41
1.0
 10
747.71681369114867
 20
-953.72751385299046
 30
0.0
 41
0.9986467172836621
 10
747.67761653851107
 20
-953.67914781936054
 30
0.0
 41
1.0
 10
747.67674240981069
 20
-953.67806921708257
 30
0.0
 41
1.0
 10
747.67586828111018
 20
-953.67699061480471
 30
0.0
 41
1.0
 10
747.6384193858737
 20
-953.63078178573119
 30
0.0
 41
0.9984001104268286
 10
747.59599265535644
 20
-953.58909667836213
 30
0.0
 41
1.0
 10
747.59540551724683
 20
-953.58851980348061
 30
0.0
 41
1.0
 10
747.59481837913722
 20
-953.58794292859909
 30
0.0
 41
1.0
 10
747.55356592483906
 20
-953.54741157099306
 30
0.0
 41
0.998244215908246
 10
747.50780982350375
 20
-953.51204300973313
 30
0.0
 41
1.0
 10
747.50759502804203
 20
-953.51187697708997
 30
0.0
 41
1.0
 10
747.5073802325802
 20
-953.51171094444669
 30
0.0
 41
1.0
 10
747.46205372216809
 20
-953.47667444847298
 30
0.0
 41
0.998245006083651
 10
747.41290274309631
 20
-953.44724266543938
 30
0.0
 41
1.0
 10
747.36375176402453
 20
-953.41781088240577
 30
0.0
 41
0.998392263963476
 10
747.31158545785968
 20
-953.39413124775172
 30
0.0
 41
1.0
 10
747.31135858053517
 20
-953.39402826227024
 30
0.0
 41
1.0
 10
747.31113170321078
 20
-953.39392527678888
 30
0.0
 41
1.0
 10
747.25851164239759
 20
-953.37003967117221
 30
0.0
 41
0.9986517147150392
 10
747.20369866953024
 20
-953.35173855205062
 30
0.0
 41
1.0
 10
747.20302074810184
 20
-953.35151220561897
 30
0.0
 41
1.0
 10
747.20234282667343
 20
-953.35128585918733
 30
0.0
 41
1.0
 10
747.14617401095029
 20
-953.3325320472029
 30
0.0
 41
0.9989435598956383
 10
747.08852062379924
 20
-953.31901434496842
 30
0.0
 41
1.0
 10
747.08744050421706
 20
-953.31876109471523
 30
0.0
 41
1.0
 10
747.08636038463487
 20
-953.31850784446215
 30
0.0
 41
1.0
 10
747.0265467583198
 20
-953.3044836417215
 30
0.0
 41
0.9992249241240159
 10
746.96581524942212
 20
-953.29520829900628
 30
0.0
 41
1.0
 10
746.96440156113135
 20
-953.29499239059851
 30
0.0
 41
1.0
 10
746.9629878728407
 20
-953.29477648219074
 30
0.0
 41
1.0
 10
746.89942898736183
 20
-953.28506932265998
 30
0.0
 41
0.9994396597833549
 10
746.83536305082566
 20
-953.2796364003143
 30
0.0
 41
1.0
 10
746.81622238334717
 20
-953.27801323259564
 30
0.0
 41
1.0
 10
746.79708171586867
 20
-953.27639006487686
 30
0.0
 41
1.0
 10
746.69473444437608
 20
-953.26771080709386
 30
0.0
 41
0.9987693403121458
 10
746.59203082078909
 20
-953.26921387054654
 30
0.0
 41
1.0
 10
746.5817764865626
 20
-953.26936394232075
 30
0.0
 41
1.0
 10
746.57152215233612
 20
-953.26951401409485
 30
0.0
 41
1.0
 10
746.46196638615663
 20
-953.2711173583823
 30
0.0
 41
0.9989753644966368
 10
746.35300438613922
 20
-953.28262036530748
 30
0.0
 41
1.0
 10
746.24404238612203
 20
-953.29412337223278
 30
0.0
 41
0.9983190067305592
 10
746.13714357515653
 20
-953.31815836401972
 30
0.0
 41
1.0
 10
746.12824262355048
 20
-953.32015964258221
 30
0.0
 41
1.0
 10
746.11934167194431
 20
-953.32216092114481
 30
0.0
 41
1.0
 10
745.99464095776477
 20
-953.35019847005719
 30
0.0
 41
0.9985539388302526
 10
745.87367120408612
 20
-953.39146214610321
 30
0.0
 41
1.0
 10
745.87132577312673
 20
-953.39226218991871
 30
0.0
 41
1.0
 10
745.86898034216733
 20
-953.39306223373421
 30
0.0
 41
1.0
 10
745.74331972656989
 20
-953.43592599741112
 30
0.0
 41
0.9988468746494028
 10
745.62234938427025
 20
-953.49064408247307
 30
0.0
 41
1.0
 10
745.61916656228072
 20
-953.49208375703347
 30
0.0
 41
1.0
 10
745.61598374029109
 20
-953.49352343159376
 30
0.0
 41
1.0
 10
745.48864775401341
 20
-953.55112086577594
 30
0.0
 41
0.9991322885919022
 10
745.36654716995622
 20
-953.61911619795808
 30
0.0
 41
1.0
 10
745.34894515891176
 20
-953.62891839994813
 30
0.0
 41
1.0
 10
745.3313431478673
 20
-953.6387206019383
 30
0.0
 41
1.0
 10
745.22916646681097
 20
-953.6956207177185
 30
0.0
 41
0.9993860037849112
 10
745.13122546273814
 20
-953.75953673330673
 30
0.0
 41
1.0
 10
745.1256071498824
 20
-953.76320322800393
 30
0.0
 41
1.0
 10
745.11998883702677
 20
-953.76686972270102
 30
0.0
 41
1.0
 10
745.03328445866134
 20
-953.82345274889747
 30
0.0
 41
0.999882149495399
 10
744.94835808285188
 20
-953.88267097897199
 30
0.0
 41
1.0
 10
744.86343170704129
 20
-953.9418892090473
 30
0.0
 41
0.9997976482743504
 10
744.78095607663931
 20
-954.00447561708756
 30
0.0
 41
1.0
 10
744.76631981183255
 20
-954.01558230686885
 30
0.0
 41
1.0
 10
744.75168354702566
 20
-954.02668899665014
 30
0.0
 41
1.0
 10
744.63993538701175
 20
-954.11148878425183
 30
0.0
 41
0.999809163080021
 10
744.53158510898413
 20
-954.20058913495325
 30
0.0
 41
1.0
 10
744.51857935650696
 20
-954.21128423539915
 30
0.0
 41
1.0
 10
744.50557360402991
 20
-954.22197933584505
 30
0.0
 41
1.0
 10
744.37121182104761
 20
-954.33246988743861
 30
0.0
 41
0.9995035112316852
 10
744.24407594328397
 20
-954.45120370445363
 30
0.0
 41
1.0
 10
744.23442863289711
 20
-954.46021345061115
 30
0.0
 41
1.0
 10
744.22478132251024
 20
-954.46922319676867
 30
0.0
 41
1.0
 10
744.10135825974476
 20
-954.58448956852465
 30
0.0
 41
0.9994630424299409
 10
743.98574985396044
 20
-954.70759231176021
 30
0.0
 41
1.0
 10
743.98206701518961
 20
-954.7115138912726
 30
0.0
 41
1.0
 10
743.97838417641879
 20
-954.715435470785
 30
0.0
 41
1.0
 10
743.87014144817726
 20
-954.83069505499452
 30
0.0
 41
0.9995160693749819
 10
743.7692754186445
 20
-954.95246247286798
 30
0.0
 41
1.0
 10
743.76734169856354
 20
-954.95479689707645
 30
0.0
 41
1.0
 10
743.76540797848259
 20
-954.95713132128481
 30
0.0
 41
1.0
 10
743.66840938911173
 20
-955.07422989074155
 30
0.0
 41
0.9996561470515164
 10
743.57768317044668
 20
-955.19625265318973
 30
0.0
 41
1.0
 10
743.57152550454543
 20
-955.20453444223108
 30
0.0
 41
1.0
 10
743.56536783864419
 20
-955.21281623127243
 30
0.0
 41
1.0
 10
743.48695695178117
 20
-955.31827541563848
 30
0.0
 41
0.9998349055174484
 10
743.41242966984851
 20
-955.4265139993023
 30
0.0
 41
1.0
 10
743.33790238790993
 20
-955.53475258297499
 30
0.0
 41
0.9999728109559118
 10
743.26497949199529
 20
-955.64407850853706
 30
0.0
 41
1.0
 10
743.263664276589
 20
-955.64605027803145
 30
0.0
 41
1.0
 10
743.2623490611827
 20
-955.64802204752596
 30
0.0
 41
1.0
 10
743.18679573443933
 20
-955.7612915121008
 30
0.0
 41
0.9999972147302122
 10
743.11177792405942
 20
-955.87491635494564
 30
0.0
 41
1.0
 10
743.10680638144481
 20
-955.88244644340614
 30
0.0
 41
1.0
 10
743.10183483883031
 20
-955.88997653186664
 30
0.0
 41
1.0
 10
743.0168739432097
 20
-956.01866155164987
 30
0.0
 41
0.9999371979003773
 10
742.93481859380483
 20
-956.14921846542836
 30
0.0
 41
1.0
 10
742.93130970944412
 20
-956.15480139349188
 30
0.0
 41
1.0
 10
742.9278008250833
 20
-956.16038432155528
 30
0.0
 41
1.0
 10
742.83872770695655
 20
-956.30210709146104
 30
0.0
 41
0.9998272025609712
 10
742.75498431607559
 20
-956.447042968201
 30
0.0
 41
1.0
 10
742.73976914405011
 20
-956.47337608266025
 30
0.0
 41
1.0
 10
742.72455397202452
 20
-956.49970919711961
 30
0.0
 41
1.0
 10
742.61038023709409
 20
-956.69731130277592
 30
0.0
 41
0.9995217214838046
 10
742.50864054753833
 20
-956.90159363063833
 30
0.0
 41
1.0
 10
742.50099698490317
 20
-956.91694108034153
 30
0.0
 41
1.0
 10
742.493353422268
 20
-956.93228853004473
 30
0.0
 41
1.0
 10
742.40644812967889
 20
-957.10678498812513
 30
0.0
 41
0.9998269762608409
 10
742.32609366340694
 20
-957.2843932748483
 30
0.0
 41
1.0
 10
742.24573919713646
 20
-957.46200156156817
 30
0.0
 41
0.9998944747387393
 10
742.17057840257303
 20
-957.64186928719414
 30
0.0
 41
1.0
 10
742.16562473297859
 20
-957.65372394211954
 30
0.0
 41
1.0
 10
742.16067106338403
 20
-957.66557859704494
 30
0.0
 41
1.0
 10
742.08002400283306
 20
-957.8585755370591
 30
0.0
 41
0.9999506734409749
 10
742.00322647393114
 20
-958.05313634191123
 30
0.0
 41
1.0
 10
741.98862650866033
 20
-958.09012426371692
 30
0.0
 41
1.0
 10
741.97402654338953
 20
-958.12711218552261
 30
0.0
 41
1.0
 10
741.92642894502524
 20
-958.24769714677336
 30
0.0
 41
0.9999912393904901
 10
741.87984250100499
 20
-958.36867634946316
 30
0.0
 41
1.0
 10
741.83325605697974
 20
-958.48965555216637
 30
0.0
 41
0.9999927113940892
 10
741.78759476258324
 20
-958.61098695967451
 30
0.0
 41
1.0
 10
741.7736263311881
 20
-958.6481039416667
 30
0.0
 41
1.0
 10
741.75965789979296
 20
-958.68522092365879
 30
0.0
 41
1.0
 10
741.68605974260004
 20
-958.88078629516701
 30
0.0
 41
0.9999487550950146
 10
741.61643611762599
 20
-959.07780166035684
 30
0.0
 41
1.0
 10
741.59284250768837
 20
-959.14456497065191
 30
0.0
 41
1.0
 10
741.56924889775064
 20
-959.21132828094699
 30
0.0
 41
1.0
 10
741.47456326338443
 20
-959.47926211575918
 30
0.0
 41
0.9999808436931079
 10
741.38320167474581
 20
-959.74834754701601
 30
0.0
 41
1.0
 10
741.29184008610491
 20
-960.01743297827909
 30
0.0
 41
0.9999873932903187
 10
741.20318537738831
 20
-960.28742233328808
 30
0.0
 41
1.0
 10
741.18309302051796
 20
-960.34861166604389
 30
0.0
 41
1.0
 10
741.16300066364761
 20
-960.40980099879971
 30
0.0
 41
1.0
 10
741.03416124119121
 20
-960.80216901931703
 30
0.0
 41
0.999979488302961
 10
740.91035845623162
 20
-961.19615522559968
 30
0.0
 41
1.0
 10
740.89920619680515
 20
-961.23164583580183
 30
0.0
 41
1.0
 10
740.88805393737857
 20
-961.26713644600397
 30
0.0
 41
1.0
 10
740.74549577347489
 20
-961.7208091981106
 30
0.0
 41
0.9999982761792172
 10
740.60462333344503
 20
-962.17500822028001
 30
0.0
 41
1.0
 10
739.01648300087243
 20
-967.2237779512833
 30
0.0
 41
1.0
 10
737.42834266829982
 20
-972.27254768228659
 30
0.0
 41
1.0
 10
736.47959205682344
 20
-972.27254768228659
 30
0.0
 41
1.0
 10
735.53084144534705
 20
-972.27254768228659
 30
0.0
 41
1.0
 10
738.76912593150018
 20
-961.94522548234045
 30
0.0
 41
1.0
 10
742.00741041765343
 20
-951.61790328239431
 30
0.0
 41
1.0
  0
LWPOLYLINE
  5
50
100
AcDbEntity
  8
0
370
              15
390
0
  6
Continuous
 62
               7
100
AcDbPolyline
 90
      232
 70
             128
 10
716.30386464382639
 20
-952.7022461139095
 42
0.0004370800689419
 10
716.2509874697306
 20
-952.7709127531964
 10
716.21170323862691
 20
-952.82201986606231
 42
0.0030481992173326
 10
716.08136452151382
 20
-952.99374155839848
 10
716.04285284975731
 20
-953.04512834219463
 42
0.0042058245758819
 10
715.83886779908391
 20
-953.3221340872733
 10
715.78646267658678
 20
-953.39456693404907
 42
0.0120948898741149
 10
715.4904187598263
 20
-953.82531653859667
 10
715.39422626070382
 20
-953.97279727382238
 42
0.0141601263947822
 10
715.09058221378143
 20
-954.46846661055838
 10
715.0510449463477
 20
-954.53731057800383
 42
0.0071131081305213
 10
714.845772623117
 20
-954.90681337682827
 42
0.0068458791005009
 10
714.65089309627024
 20
-955.28190494031185
 10
714.64408123381622
 20
-955.29546665402802
 42
0.0064120880288314
 10
714.4459389837773
 20
-955.70289112893545
 10
714.43840429825491
 20
-955.71890298566814
 42
0.0058857236448896
 10
714.23564890638545
 20
-956.16327909669826
 10
714.22747398008926
 20
-956.18176925033708
 42
0.0053189741895726
 10
714.01876966741872
 20
-956.66773272426212
 10
714.01002186174037
 20
-956.68871460245111
 42
0.0047503650419924
 10
713.7940481355854
 20
-957.22091403567151
 10
713.78477988724148
 20
-957.24439041176868
 42
0.0042071762171588
 10
713.56023250351416
 20
-957.82748400583728
 10
713.55048310116513
 20
-957.85345018070814
 42
0.0036680086484031
 10
713.31602845785119
 20
-958.49208556524457
 10
713.30582067800526
 20
-958.52053409958387
 42
0.0032573142627849
 10
713.06018839203978
 20
-959.21938675933382
 10
712.99153787119462
 20
-959.41884984339993
 42
0.0026133366649669
 10
712.64309267243993
 20
-960.44871312706209
 10
712.57983588493073
 20
-960.63894396248054
 42
0.0020592950741687
 10
712.3659728159721
 20
-961.29104761506824
 10
712.36292102480854
 20
-961.30048410347945
 42
0.002560992853493
 10
712.16110052332317
 20
-961.93562932584382
 10
712.15850915619626
 20
-961.94393166678515
 42
0.003136235624169
 10
711.96901837051951
 20
-962.56469452296392
 10
711.96688732759242
 20
-962.57183582917389
 42
0.0037229918028371
 10
711.79008694066579
 20
-963.18082113114917
 10
711.78840835146298
 20
-963.18676802131051
 42
0.0043077623706155
 10
711.6246675493943
 20
-963.78658675309259
 42
0.0047654161824112
 10
711.47183882688205
 20
-964.38927284197973
 10
711.43737421803917
 20
-964.53083461914468
 42
0.0112969368445485
 10
711.24150985989547
 20
-965.42252677976956
 10
711.21350347079897
 20
-965.56535482586673
 42
0.0130056762571056
 10
711.01266622715229
 20
-966.75229589751166
 10
710.9921264770046
 20
-966.89637401099287
 42
0.0138721532145201
 10
710.88842347246737
 20
-967.80320349681438
 10
710.8691279845591
 20
-968.02670121874405
 42
0.0071254697009664
 10
710.83578133863693
 20
-968.48988822758668
 10
710.83082036447354
 20
-968.57589222214813
 42
0.0028881799201588
 10
710.8156820711838
 20
-968.86763393198942
 42
0.0060297297136596
 10
710.80574987140824
 20
-969.15958286810701
 10
710.80468758974109
 20
-969.20797524003751
 42
0.0229523164154776
 10
710.81241861752687
 20
-969.53073008632089
 10
710.81664439104748
 20
-969.59113362033929
 42
0.0123673300672677
 10
710.83572303756557
 20
-969.79225434551188
 42
0.0128577674476737
 10
710.86491842797227
 20
-969.99215219544089
 10
710.87204430135887
 20
-970.03348101003564
 42
0.0285717853767817
 10
710.93653830305459
 20
-970.31159716134891
 10
710.95020682672134
 20
-970.35825193082712
 42
0.0316283099160089
 10
711.06601740663518
 20
-970.677266432652
 10
711.06906609839029
 20
-970.68425280497661
 42
0.0338984824234833
 10
711.21849780935793
 20
-970.9718187691667
 10
711.22080653872786
 20
-970.97560979844275
 42
0.035022871835446
 10
711.40316682940136
 20
-971.23266178311951
 10
711.40405208117636
 20
-971.23374086088359
 42
0.0347476747528421
 10
711.61847676841649
 20
-971.4609259081036
 42
0.0331337701912715
 10
711.86172009416316
 20
-971.65705457018123
 10
711.86282019267901
 20
-971.65782727335352
 42
0.0305233319081331
 10
712.13136488825182
 20
-971.82295544344458
 10
712.13459493275354
 20
-971.82467945530755
 42
0.0273744481152222
 10
712.42714864432696
 20
-971.96081759919764
 10
712.43225317946542
 20
-971.96286118366766
 42
0.0240964406196525
 10
712.74773025511138
 20
-972.07184490994905
 10
712.75431358432115
 20
-972.07376964962407
 42
0.020963617981379
 10
713.09171373697507
 20
-972.15723779755638
 10
713.09934619742239
 20
-972.15878971055758
 42
0.0181388704692648
 10
713.45766858942227
 20
-972.21820580377175
 10
713.46594943779905
 20
-972.21927198758863
 42
0.0156086547587536
 10
713.84413680198907
 20
-972.25600817416534
 10
713.88733205431788
 20
-972.25884667664445
 42
0.0137148329023567
 10
714.21500519961376
 20
-972.27136693189561
 10
714.26094138955807
 20
-972.27186136501086
 42
0.00510578238857
 10
714.49708697613198
 20
-972.27199161941996
 42
0.0052256693310623
 10
714.7331842599134
 20
-972.26724279495579
 10
714.80341104366005
 20
-972.26509582894164
 42
0.0161507179050022
 10
715.17914812176457
 20
-972.24144545861475
 10
715.19916108213442
 20
-972.23953526332753
 42
0.0101216737833741
 10
715.61318830362791
 20
-972.1915423329616
 10
715.64724159305183
 20
-972.18689463615237
 42
0.0245291776398421
 10
716.12403124860441
 20
-972.0978195580758
 10
716.2088545641293
 20
-972.07762363772974
 42
0.0143509212558766
 10
716.56548566806657
 20
-971.9818190039515
 42
0.0156557857039532
 10
716.91570173279456
 20
-971.86480778813245
 10
716.92320294728847
 20
-971.86203762637854
 42
0.0170137333629594
 10
717.27979894296914
 20
-971.71638001150768
 10
717.28690286537733
 20
-971.71319217594373
 42
0.0183105364409316
 10
717.64625253354041
 20
-971.5358571341211
 10
717.65319929818236
 20
-971.53210669924727
 42
0.0194899958152698
 10
718.01168003917098
 20
-971.32012771735356
 10
718.018693918503
 20
-971.31560237506153
 42
0.0204869852949759
 10
718.37270822059565
 20
-971.06608235997669
 10
718.379973829184
 20
-971.06050229462733
 42
0.0212516938556538
 10
718.72596376029071
 20
-970.77059829773384
 10
718.77248045436852
 20
-970.72813098763822
 42
0.0215248918252679
 10
719.03250662325536
 20
-970.46936670864454
 10
719.07753635763652
 20
-970.42052258729416
 42
0.0114578554956885
 10
719.2323285113132
 20
-970.24469965383639
 10
719.24352304730121
 20
-970.23138089028942
 42
0.0061531305134381
 10
719.36999769329429
 20
-970.07709135698531
 42
0.000632558712381
 10
719.49437617748674
 20
-969.92108798125832
 10
719.51741631249752
 20
-969.89211446065019
 42
0.0041897761557999
 10
719.68587171647459
 20
-969.67659508458269
 10
719.74433383636244
 20
-969.60049373760319
 42
0.0092993880038402
 10
720.02094576359025
 20
-969.22621497371347
 10
720.10334025678173
 20
-969.11027797015538
 42
0.0159321727084709
 10
720.44994673942745
 20
-968.58810374939458
 10
720.49430287481619
 20
-968.51642418514507
 42
0.008554731702217
 10
720.72881464014222
 20
-968.12254923591991
 42
0.0084601156890461
 10
720.94979081758584
 20
-967.72092238688504
 10
720.9579062914147
 20
-967.70556270461475
 42
0.0081429654286603
 10
721.18115556185523
 20
-967.26584119206768
 10
721.19001572603622
 20
-967.24766235005461
 42
0.0076574581328922
 10
721.41642323660449
 20
-966.76447947479835
 10
721.42590287732662
 20
-966.74341499649847
 42
0.0070682724203536
 10
721.65634778513788
 20
-966.21137769170639
 10
721.66633806911511
 20
-966.18738850270563
 42
0.006455951444649
 10
721.90167127729569
 20
-965.60107623618944
 10
721.91208063546173
 20
-965.57414131074449
 42
0.0058311413906434
 10
722.15312737222371
 20
-964.92810921636305
 10
722.16388244961206
 20
-964.8982248752003
 42
0.005231242581984
 10
722.4114637276565
 20
-964.18702246135501
 10
722.42250756403268
 20
-964.15419574929604
 42
0.0046680544797139
 10
722.67743599176902
 20
-963.37236943353537
 10
722.71942814181148
 20
-963.23938619624687
 42
0.0041666856444491
 10
722.92271415420578
 20
-962.5764174212436
 10
722.96037659486808
 20
-962.44983631359491
 42
0.0015170975155399
 10
723.08156317328258
 20
-962.03796796209622
 42
-0.0004887993116176
 10
723.20190294636654
 20
-961.62584955018815
 10
723.27838020390072
 20
-961.36489216411314
 42
0.0002583378928656
 10
723.55159477399843
 20
-960.43083546081948
 10
723.63336762353367
 20
-960.15073620137855
 42
0.0006636169671734
 10
723.82723538355299
 20
-959.48338327776401
 10
723.83233203789598
 20
-959.4657516948979
 42
0.0010589131322803
 10
724.01378073881665
 20
-958.8330203518351
 10
724.0187628092915
 20
-958.81550744483479
 42
0.0015655524460907
 10
724.18703301647997
 20
-958.21689076561415
 10
724.19186321689403
 20
-958.19949860668157
 42
0.0021640440477831
 10
724.34615318888086
 20
-957.63447158866018
 10
724.35078740830897
 20
-957.61720685867328
 42
0.002876387185152
 10
724.49030312636387
 20
-957.0852389078193
 10
724.49468899053056
 20
-957.06811492966688
 42
0.0037310511944989
 10
724.61864568236797
 20
-956.56866733564095
 10
724.62272090265742
 20
-956.55170706439344
 42
0.0047652197770925
 10
724.73034480316539
 20
-956.08422929609037
 10
724.73403540248853
 20
-956.06746974094119
 42
0.0060276699302334
 10
724.82456550164238
 20
-955.63139394579616
 10
724.82778419193073
 20
-955.61489273149084
 42
0.0075824337757704
 10
724.90047350134705
 20
-955.20962556706081
 10
724.90311887872872
 20
-955.19347061960161
 42
0.0095130624610792
 10
724.95723411435847
 20
-954.81838126653849
 10
724.96422033824103
 20
-954.76244770842243
 42
0.0121054653227551
 10
724.99081166881899
 20
-954.49755187994811
 10
724.99167815857857
 20
-954.48614843701785
 42
0.006905082738668
 10
725.00676697661629
 20
-954.24320721017477
 10
725.00790227628488
 20
-954.21968095312889
 42
0.0169063976699469
 10
725.01072955526502
 20
-954.02348822582928
 10
725.00955890373393
 20
-953.96315246448444
 42
0.00520077328935
 10
725.00730545514079
 20
-953.88755907432801
 42
0.0054038123296391
 10
724.98734194330223
 20
-953.76754077831959
 10
724.98225608743155
 20
-953.7388822917369
 42
0.0112050460467007
 10
724.94687172537158
 20
-953.5625558533917
 10
724.92904676333228
 20
-953.48301426667706
 42
0.0240764468009661
 10
724.83814939718627
 20
-953.15277723117629
 10
724.81959063437284
 20
-953.09615706618251
 42
0.0256812331835321
 10
724.67622771418314
 20
-952.72443285992472
 10
724.67081828836183
 20
-952.71230152493524
 42
0.0268360501217038
 10
724.5013910475119
 20
-952.381308390914
 10
724.49585463987671
 20
-952.37178872060133
 42
0.0274670231728182
 10
724.30365366346359
 20
-952.07950134568443
 10
724.29827236350138
 20
-952.07222219814355
 42
0.0275035967098876
 10
724.08669948393913
 20
-951.81670630783901
 10
724.08162998297257
 20
-951.81122722020848
 42
0.0269557673524122
 10
723.85422643953302
 20
-951.59058493424629
 10
723.84948338175025
 20
-951.58645497978546
 42
0.0259124802209238
 10
723.60992855031964
 20
-951.39876445263315
 10
723.60539770513594
 20
-951.39557895030157
 42
0.0245162153004123
 10
723.3574813520429
 20
-951.23884594119238
 10
723.3529548057212
 20
-951.23628574399288
 42
0.022928258883553
 10
723.10053524889133
 20
-951.10841755149261
 10
723.09575475505244
 20
-951.10626525172972
 42
0.0212984135699309
 10
722.8427168025928
 20
-951.00506633448833
 10
722.83741251762592
 20
-951.00320277172932
 42
0.0197555462342915
 10
722.58763417990031
 20
-950.92638735376352
 42
0.0183511896787806
 10
722.33270545443634
 20
-950.86880444679787
 10
722.24634025771422
 20
-950.85260165641307
 42
0.0338057877148843
 10
721.96083290845388
 20
-950.81879325127272
 10
721.86982750340928
 20
-950.81421359601109
 42
0.0091990524494354
 10
721.76398039477795
 20
-950.81083774008926
 42
0.0028333980778462
 10
721.65806647879754
 20
-950.81000963257259
 10
721.65715102573563
 20
-950.81000766274849
 42
-0.0023619827807507
 10
721.54940501063459
 20
-950.80926682167001
 10
721.51299984045386
 20
-950.80884451520694
 42
0.0008824598478221
 10
721.33244385062051
 20
-950.80706873696886
 10
721.28858241819808
 20
-950.80671477544308
 42
0.0038132665768201
 10
721.02029952232294
 20
-950.80659583937643
 10
721.00376586752577
 20
-950.80671460552003
 42
0.006066556933463
 10
720.70248537593091
 20
-950.81253490494089
 10
720.68823504390912
 20
-950.81298321290842
 42
0.0080356953337361
 10
720.35877632756672
 20
-950.82865093497549
 10
720.34670631248264
 20
-950.82941951791577
 42
0.009899639910436
 10
719.99394322783905
 20
-950.85890474711323
 10
719.98389751845707
 20
-950.85994504331211
 42
0.0117740981367409
 10
719.61274066010913
 20
-950.90723729084186
 10
719.60451796362577
 20
-950.90848240741275
 42
0.0137435215135757
 10
719.21992914413863
 20
-950.97757938097482
 10
719.21327210501727
 20
-950.97896527720798
 42
0.015835986938498
 10
718.82027501121343
 20
-951.07385736568904
 10
718.81486182434764
 20
-951.07534730655925
 42
0.0180554124026391
 10
718.41854677973618
 20
-951.1999853227976
 10
718.41398999165187
 20
-951.20160135906428
 42
0.0203657431283122
 10
718.01951247384193
 20
-951.35986170057936
 10
718.01536893483319
 20
-951.36172332202193
 42
0.0226819684656286
 10
717.62793287862735
 20
-951.55736590069421
 10
717.62373308761141
 20
-951.55973149261274
 42
0.0248634984604593
 10
717.24855114643037
 20
-951.79635813855975
 10
717.20035621764805
 20
-951.83021518038436
 42
0.0267044190883684
 10
716.92606352072971
 20
-952.04565555625379
 42
0.0139303002198443
 10
716.66989635479183
 20
-952.28289439716491
 10
716.66504296906999
 20
-952.28764706002585
 42
0.0283460963444572
 10
716.42097037484166
 20
-952.55537772047228
 10
716.38130186968624
 20
-952.60417929794403
 42
0.0070695364822712
 10
716.30386464382639
 20
-952.7022461139095
 42
0.0070695364822712
  0
LWPOLYLINE
  5
51
100
AcDbEntity
  8
0
370
              15
390
0
  6
Continuous
 62
               7
100
AcDbPolyline
 90
      226
 70
             128
 10
712.77504420657999
 20
-968.42383492009344
 42
-0.0026277636630744
 10
712.77496632277996
 20
-968.3570629943606
 10
712.77518368101198
 20
-968.30390777690729
 42
-0.0088680296724251
 10
712.77896029730516
 20
-968.13089199449917
 10
712.78130665641743
 20
-968.07161196905065
 42
-0.0077381705616939
 10
712.7973527671802
 20
-967.78035147325863
 10
712.79822067835369
 20
-967.76806323956737
 42
-0.0068872530531542
 10
712.82485275810188
 20
-967.45284148749772
 10
712.82605698228792
 20
-967.44060050847963
 42
-0.0062130021485756
 10
712.86365069911642
 20
-967.10173081723542
 10
712.86515460265082
 20
-967.0895569453246
 42
-0.0056726929666989
 10
712.91407646215339
 20
-966.72736172320924
 10
712.91584990779756
 20
-966.71526792296584
 42
-0.0052341884491918
 10
712.97646049406035
 20
-966.33007466743129
 10
712.97847848283413
 20
-966.31806973745552
 42
-0.0049768450169177
 10
713.05121716425947
 20
-965.91022517002875
 10
713.07546617898231
 20
-965.78167718701695
 42
-0.0089029805625461
 10
713.21254703077636
 20
-965.11990173959759
 10
713.24529240609559
 20
-964.97487030907109
 42
-0.0080318257099584
 10
713.47484102043541
 20
-964.02916067722072
 10
713.48682594688455
 20
-963.98303004202728
 42
-0.0074265721318609
 10
713.77083748573546
 20
-962.95296546364364
 10
713.79071702885381
 20
-962.88483140304834
 42
-0.0069711922702454
 10
714.11802160735783
 20
-961.81856366272939
 10
714.17797355446703
 20
-961.63254230434734
 42
-0.0052070422892838
 10
714.4073987797226
 20
-960.94527022732746
 10
714.42467997188817
 20
-960.89524294672981
 42
-0.0009167004449377
 10
714.62777185918435
 20
-960.31078709855626
 42
-0.0025162726944372
 10
714.8348694894529
 20
-959.72774583437717
 10
714.87209410125752
 20
-959.62459628847387
 42
-0.0028212681458049
 10
715.12027002021546
 20
-958.94886565631725
 10
715.13010078296338
 20
-958.92255821164792
 42
-0.0031964916822826
 10
715.3663930406284
 20
-958.30235344951348
 10
715.37602749463076
 20
-958.27754345936148
 42
-0.0036281836451391
 10
715.60113345572859
 20
-957.71010277847711
 10
715.61057186588005
 20
-957.6868053469891
 42
-0.0041269166833842
 10
715.82518956254523
 20
-957.169364450996
 10
715.85782251896694
 20
-957.09248600463263
 42
-0.004747221305598
 10
716.01486732451963
 20
-956.73206453675152
 10
716.02176140574329
 20
-956.71664393938488
 42
-0.0025651659992988
 10
716.170119439578
 20
-956.38931588367109
 42
-0.0057144634996602
 10
716.32386913334346
 20
-956.06450621032059
 10
716.35189983874443
 20
-956.00699782792685
 42
-0.0065388068375781
 10
716.53536686649034
 20
-955.64276533124939
 10
716.54382532226703
 20
-955.62650575188331
 42
-0.0074510843024899
 10
716.72000756814668
 20
-955.29981747075715
 10
716.72818723867556
 20
-955.28517669349208
 42
-0.0084648979860789
 10
716.89782109177781
 20
-954.99326768252718
 10
716.90567721826676
 20
-954.98026069087484
 42
-0.0095638542804919
 10
717.06951266586009
 20
-954.72037181889777
 10
717.07698760953303
 20
-954.70900245744065
 42
-0.0107191626806267
 10
717.23578918991939
 20
-954.47839122289827
 10
717.24280592364835
 20
-954.46865513053649
 42
-0.0118458573904127
 10
717.39735402216297
 20
-954.26458293522296
 42
-0.0129184518188796
 10
717.56180664576846
 20
-954.06842241904815
 10
717.59195141813143
 20
-954.03429634014867
 42
-0.0217742579630847
 10
717.76856374046292
 20
-953.85108956990291
 10
717.77930928492151
 20
-953.84087273670173
 42
-0.0097266568651155
 10
717.94536690377913
 20
-953.68902516226262
 42
-0.0187720905720384
 10
718.11971447966857
 20
-953.54695630887352
 10
718.15042047033967
 20
-953.5237972264797
 42
-0.0179428207522765
 10
718.38284119033892
 20
-953.36124504936561
 10
718.38649351725587
 20
-953.35888111447707
 42
-0.0170047877696757
 10
718.62225715478507
 20
-953.21742060032636
 10
718.62604014353428
 20
-953.21532229528862
 42
-0.0160190788363103
 10
718.86294869116693
 20
-953.093670993302
 42
-0.0151102861491032
 10
719.10698047361586
 20
-952.98698821724645
 10
719.15936697582538
 20
-952.9659480843527
 42
-0.0271945441887763
 10
719.51802953488357
 20
-952.84408327364679
 10
719.58709433537103
 20
-952.82473373238054
 42
-0.0237596594022021
 10
720.00289118239425
 20
-952.72928302039884
 10
720.07095403612584
 20
-952.71702833227187
 42
-0.0213715440553106
 10
720.35682896756998
 20
-952.67808130076219
 10
720.41697613379074
 20
-952.67249158606103
 42
-0.0101465655817076
 10
720.58446866578208
 20
-952.66034804279718
 10
720.59380905198202
 20
-952.65986112779979
 42
-0.0100375910877144
 10
720.74296315254287
 20
-952.65508530987472
 10
720.75322242222296
 20
-952.65496287086023
 42
-0.0103625633378655
 10
720.88193041687805
 20
-952.6560943043869
 10
720.90419606814464
 20
-952.65675166285178
 42
-0.0115689250234216
 10
720.98824680567293
 20
-952.66118116909695
 42
-0.0072438037431788
 10
721.07208508511599
 20
-952.66877036884671
 10
721.08888559458489
 20
-952.67053691157048
 42
-0.0217917313133092
 10
721.20545535789893
 20
-952.68795680429162
 10
721.27105544846802
 20
-952.7007034127065
 42
-0.0332943556752196
 10
721.47544761349354
 20
-952.75474370401309
 10
721.50562018204255
 20
-952.7649117811311
 42
-0.0184824084799607
 10
721.6441252385091
 20
-952.81736279651807
 42
-0.0198002050688503
 10
721.77819957900977
 20
-952.88024685671803
 10
721.78008621638537
 20
-952.88122464359731
 42
-0.0212242342977565
 10
721.91222515878655
 20
-952.95698738238991
 10
721.91404045433069
 20
-952.95813318459875
 42
-0.0226090605794565
 10
722.04254435555242
 20
-953.04761282816321
 10
722.04438879728991
 20
-953.04902508115072
 42
-0.0238457052234629
 10
722.16757087858196
 20
-953.15302097701215
 10
722.16952360714185
 20
-953.15483585477921
 42
-0.0248160564154559
 10
722.28572511444224
 20
-953.27411045598762
 10
722.28782874784451
 20
-953.27649578969238
 42
-0.0254109591454492
 10
722.39543396571014
 20
-953.41178417565618
 10
722.39768198762454
 20
-953.4149257240573
 42
-0.0255528488289186
 10
722.49512866642124
 20
-953.56695277829067
 10
722.4974597663379
 20
-953.57103438989918
 42
-0.0252146793220517
 10
722.58324079234706
 20
-953.74053663589632
 10
722.58554303150459
 20
-953.74571871780904
 42
-0.024426563594952
 10
722.65819772526606
 20
-953.93346528985546
 10
722.66744412673449
 20
-953.9613307081936
 42
-0.0231319612901871
 10
722.7133669057265
 20
-954.12463175499511
 42
-0.0112130424358754
 10
722.7480029282641
 20
-954.29083535517952
 10
722.74920545337727
 20
-954.29733194207108
 42
-0.0210527881233566
 10
722.77489192874816
 20
-954.47838758751379
 10
722.77840252356987
 20
-954.51379313605958
 42
-0.0190029892422111
 10
722.79384399711455
 20
-954.76732898233297
 10
722.79465397355852
 20
-954.80280459670087
 42
-0.0137974553661483
 10
722.793105120723
 20
-955.12783600343346
 10
722.79225966576757
 20
-955.15395474802119
 42
-0.0081336634217581
 10
722.77740033054488
 20
-955.45930221562639
 42
-0.0073526923570554
 10
722.75309179716999
 20
-955.76405045991476
 10
722.75183037338752
 20
-955.77738713457757
 42
-0.0066886138693458
 10
722.71609478734092
 20
-956.1079731780751
 10
722.71443769787106
 20
-956.12159479706622
 42
-0.0061359187353764
 10
722.66658709581839
 20
-956.47835877717841
 10
722.66454959474731
 20
-956.49225357999546
 42
-0.0056698610065346
 10
722.60389926398136
 20
-956.87553214882792
 10
722.60149383065732
 20
-956.88969126806421
 42
-0.0052721077272864
 10
722.52736162985764
 20
-957.29981860774228
 10
722.52459848101591
 20
-957.31423524312811
 42
-0.0049289272177249
 10
722.43630436291437
 20
-957.75154375425757
 10
722.43319186823328
 20
-957.76621260706634
 42
-0.0047415956712391
 10
722.32995387670178
 20
-958.23100936447338
 10
722.29518566634124
 20
-958.38081645986017
 42
-0.0084404470902878
 10
722.10516922276986
 20
-959.14104048438969
 10
722.09904253478373
 20
-959.16390460854473
 42
-0.0039635940258903
 10
721.87758885050209
 20
-959.96489347278373
 10
721.86421205532019
 20
-960.01182508938393
 42
-0.0072475040835901
 10
721.59676516745412
 20
-960.90104480578373
 10
721.5265528406353
 20
-961.12278515572871
 42
-0.0051345458828816
 10
721.23979346857084
 20
-961.99711034355732
 10
721.21826720179854
 20
-962.06053661070132
 42
-0.0019150016601779
 10
720.96273379493664
 20
-962.80408573091336
 10
720.95626619053598
 20
-962.82267319584741
 42
-0.0021524362751624
 10
720.70778813947663
 20
-963.52699901754283
 10
720.69857771878276
 20
-963.55275259583698
 42
-0.0024331286820784
 10
720.4623224597442
 20
-964.20335190396247
 10
720.45327450719674
 20
-964.22789521030836
 42
-0.0027449721788627
 10
720.22865993635821
 20
-964.82702508924126
 10
720.21976992896225
 20
-964.85034767910338
 42
-0.0031083229767574
 10
720.00622744235602
 20
-965.40027171667316
 10
719.99749131068575
 20
-965.42236143251773
 42
-0.0035311343282561
 10
719.79445012508859
 20
-965.92534455826103
 10
719.78586478594616
 20
-965.94618728175874
 42
-0.004024564094917
 10
719.59275298214652
 20
-966.40449660436377
 10
719.58431686854362
 20
-966.4240759724355
 42
-0.0046015135851703
 10
719.4005605753797
 20
-966.83998100207805
 10
719.39227439755052
 20
-966.85827814153231
 42
-0.0052768638269408
 10
719.21729687859579
 20
-967.23405102580045
 10
719.20916466796757
 20
-967.25104436434628
 42
-0.0060672675643392
 10
719.04238505520289
 20
-967.58895998745788
 10
719.034415574729
 20
-967.60462524644026
 42
-0.0069904648872388
 10
718.87524718071995
 20
-967.90696105311883
 10
718.86745578110344
 20
-967.92127160235668
 42
-0.0080637022761732
 10
718.71530392076329
 20
-968.19030690549926
 10
718.70771488813568
 20
-968.20323477109389
 42
-0.0093006455668513
 10
718.5619742116005
 20
-968.44124916960311
 10
718.55462354485462
 20
-968.45276713877968
 42
-0.0107060778051854
 10
718.41467500141835
 20
-968.6620374561553
 10
718.4076132331387
 20
-968.67212299872131
 42
-0.0122723111411686
 10
718.27281951494069
 20
-968.85491632821015
 10
718.27249329138647
 20
-968.85533671602002
 42
-0.014183631962568
 10
718.12891168841247
 20
-969.02990647384934
 10
718.12196393276122
 20
-969.03788147411319
 42
-0.0175957477209736
 10
717.98205776472582
 20
-969.1875023625189
 42
-0.0080466359674955
 10
717.8345939996957
 20
-969.32982489067001
 10
717.78855945517819
 20
-969.37284532876129
 42
-0.0269600260395329
 10
717.53527920919555
 20
-969.58516858727023
 10
717.46871207290235
 20
-969.63512000189121
 42
-0.017836283975802
 10
717.22876758324242
 20
-969.80213792814675
 10
717.22152261224005
 20
-969.80680644035283
 42
-0.0174650732649831
 10
716.98518641480064
 20
-969.94766740531077
 42
-0.0169240130167038
 10
716.73972016894493
 20
-970.07195966508732
 10
716.69373401338521
 20
-970.09332162065539
 42
-0.0318883036843699
 10
716.34338315776779
 20
-970.22965993016464
 10
716.27501762259885
 20
-970.25136055064149
 42
-0.0284435909899676
 10
715.89896749630941
 20
-970.34757798611565
 10
715.86380933580836
 20
-970.35447158194461
 42
-0.0243909341011653
 10
715.5503658748919
 20
-970.40019261297425
 10
715.50008514812339
 20
-970.40503815987574
 42
-0.0196639292931046
 10
715.28448957059345
 20
-970.41728644538944
 10
715.23266549942696
 20
-970.41818970612621
 42
-0.0100501510681197
 10
715.12024221776574
 20
-970.41788930777307
 10
715.08858235640537
 20
-970.41716823588729
 42
-0.001975203112685
 10
715.03949001974036
 20
-970.41585607567811
 10
715.03672971651031
 20
-970.41577138385151
 42
0.0065378751999153
 10
714.99315314176351
 20
-970.41500449263685
 42
-0.0167974694652722
 10
714.9496223188338
 20
-970.41334459411098
 10
714.94554297956961
 20
-970.41305158321586
 42
-0.0081283276276245
 10
714.89398318182907
 20
-970.40850458957777
 10
714.88224360795243
 20
-970.40727667199963
 42
-0.0126703440179779
 10
714.80752531215933
 20
-970.3975418809282
 10
714.78473744448229
 20
-970.39398362501288
 42
-0.0117852088433047
 10
714.66519845865037
 20
-970.37242062985592
 10
714.60981800688683
 20
-970.36107708962118
 42
-0.0251774592295753
 10
714.38297396787993
 20
-970.30257908018848
 10
714.33825477802714
 20
-970.28861226085269
 42
-0.0146525199887116
 10
714.15186179048942
 20
-970.22434573365479
 42
-0.0166929435858504
 10
713.96988413436191
 20
-970.14853860059975
 10
713.96522750308964
 20
-970.14641369998617
 42
-0.0191684358436079
 10
713.78004387184194
 20
-970.0531776161971
 10
713.77671128608335
 20
-970.05133636864286
 42
-0.0221181781811658
 10
713.59340098218058
 20
-969.93920287027163
 10
713.59105117817273
 20
-969.93761857228105
 42
-0.0254984685381707
 10
713.41476102778722
 20
-969.80520742231136
 10
713.39227888008634
 20
-969.78645511337595
 42
-0.0292492648806157
 10
713.26750994124245
 20
-969.66936231373211
 42
-0.0159048957498342
 10
713.15366994379212
 20
-969.54134232213278
 10
713.15235115321298
 20
-969.53976070911301
 42
-0.0343813379562191
 10
713.04971389158698
 20
-969.39788938334391
 10
713.01822236022633
 20
-969.34738599125012
 42
-0.0369117275703248
 10
712.93232985832867
 20
-969.18390875030104
 42
-0.0191751379909433
 10
712.86513647277161
 20
-969.0115041442948
 10
712.8633731490122
 20
-969.0064107996202
 42
-0.0378178042229345
 10
712.81357843022795
 20
-968.81747002353916
 10
712.80758313449769
 20
-968.78490940534243
 42
-0.0184846046470664
 10
712.7868659352032
 20
-968.643156584797
 42
-0.0179866351308468
 10
712.77653293012941
 20
-968.50026577171298
 10
712.77647648768379
 20
-968.49870808510332
 42
-0.0085497186116722
 10
712.77504420657999
 20
-968.42383492009344
 42
-0.0085497186116722
  0
ENDBLK
  5
52
100
AcDbEntity
  8
template
390
0
100
AcDbBlockEnd
  0
BLOCK
  5
53
100
AcDbEntity
  8
notes
390
0
100
AcDbBlockBegin
  2
*D3
 70
               1
 10
0.0
 20
0.0
 30
0.0
  3
*D3
  1

  0
LINE
  5
54
100
AcDbEntity
  8
0
370
              -2
390
0
  6
Continuous
 62
               0
100
AcDbLine
 10
-713.87217334898958
 20
688.4963946247135
 30
0.0
 11
-713.87217334898958
 21
963.4963946247135
 31
0.0
  0
LINE
  5
55
100
AcDbEntity
  8
0
370
              -2
390
0
  6
Continuous
 62
               0
100
AcDbLine
 10
-263.87217334898958
 20
688.4963946247135
 30
0.0
 11
-263.87217334898958
 21
963.4963946247135
 31
0.0
  0
LINE
  5
56
100
AcDbEntity
  8
0
370
              -2
390
0
  6
Continuous
 62
               0
100
AcDbLine
 10
-713.87217334898958
 20
963.4963946247135
 30
0.0
 11
-263.87217334898958
 21
963.4963946247135
 31
0.0
  0
CIRCLE
  5
57
102
{ACAD_REACTORS
330
58
102
}
100
AcDbEntity
  8
0
370
              -2
390
0
  6
Continuous
 62
               0
100
AcDbCircle
 10
-713.87217334898958
 20
963.4963946247135
 30
0.0
 40
1.9998779296875
  0
HATCH
  5
58
100
AcDbEntity
  8
0
370
              -2
390
0
  6
Continuous
 62
               0
100
AcDbHatch
 10
0.0
 20
0.0
 30
0.0
210
0.0
220
0.0
230
1.0
  2
SOLID
 70
               1
 71
               1
 91
        1
 92
        1
 93
        1
 72
               2
 10
-713.87217334898958
 20
963.4963946247135
 40
1.9998779296875
 50
0.0
 51
360.0
 73
               0
 97
        1
330
57
 75
               0
 76
               1
 98
        1
 10
0.0
 20
0.0
  0
CIRCLE
  5
59
102
{ACAD_REACTORS
330
5A
102
}
100
AcDbEntity
  8
0
370
              -2
390
0
  6
Continuous
 62
               0
100
AcDbCircle
 10
-263.87217334898958
 20
963.4963946247135
 30
0.0
 40
1.9998779296875
  0
HATCH
  5
5A
100
AcDbEntity
  8
0
370
              -2
390
0
  6
Continuous
 62
               0
100
AcDbHatch
 10
0.0
 20
0.0
 30
0.0
210
0.0
220
0.0
230
1.0
  2
SOLID
 70
               1
 71
               1
 91
        1
 92
        1
 93
        1
 72
               2
 10
-263.87217334898958
 20
963.4963946247135
 40
1.9998779296875
 50
0.0
 51
360.0
 73
               0
 97
        1
330
59
 75
               0
 76
               1
 98
        1
 10
0.0
 20
0.0
  0
MTEXT
  5
5B
100
AcDbEntity
  8
0
390
0
 62
               0
100
AcDbMText
 10
-528.55967334898958
 20
997.37401181221344
 30
0.0
 40
24.432617187500004
 41
0.0
 71
               1
 72
               1
  1
φ450
  7
ＭＳ ゴシック
 73
               1
 44
0.7828267384257843
  0
POINT
  5
5C
100
AcDbEntity
  8
Defpoints
370
               0
390
0
 62
               0
100
AcDbPoint
 10
-263.87217334898958
 20
663.4963946247135
 30
0.0
  0
POINT
  5
5D
100
AcDbEntity
  8
Defpoints
370
               0
390
0
 62
               0
100
AcDbPoint
 10
-713.87217334898958
 20
663.4963946247135
 30
0.0
  0
POINT
  5
5E
100
AcDbEntity
  8
Defpoints
370
               0
390
0
 62
               0
100
AcDbPoint
 10
-713.87217334898958
 20
963.4963946247135
 30
0.0
  0
ENDBLK
  5
5F
100
AcDbEntity
  8
notes
390
0
100
AcDbBlockEnd
  0
BLOCK
  5
60
100
AcDbEntity
  8
notes
390
0
100
AcDbBlockBegin
  2
*D4
 70
               1
 10
0.0
 20
0.0
 30
0.0
  3
*D4
  1

  0
LINE
  5
61
100
AcDbEntity
  8
0
370
              -2
390
0
  6
Continuous
 62
               0
100
AcDbLine
 10
-242.97650913677808
 20
-336.0
 30
0.0
 11
-113.98344836583465
 21
-336.0
 31
0.0
  0
LINE
  5
62
100
AcDbEntity
  8
0
370
              -2
390
0
  6
Continuous
 62
               0
100
AcDbLine
 10
-337.91384893784993
 20
-516.0
 30
0.0
 11
-113.98344836583465
 21
-516.0
 31
0.0
  0
LINE
  5
63
100
AcDbEntity
  8
0
370
              -2
390
0
  6
Continuous
 62
               0
100
AcDbLine
 10
-113.98344836583465
 20
-336.0
 30
0.0
 11
-113.98344836583465
 21
-516.0
 31
0.0
  0
CIRCLE
  5
64
102
{ACAD_REACTORS
330
65
102
}
100
AcDbEntity
  8
0
370
              -2
390
0
  6
Continuous
 62
               0
100
AcDbCircle
 10
-113.98344836583465
 20
-336.0
 30
0.0
 40
1.9998779296875
  0
HATCH
  5
65
100
AcDbEntity
  8
0
370
              -2
390
0
  6
Continuous
 62
               0
100
AcDbHatch
 10
0.0
 20
0.0
 30
0.0
210
0.0
220
0.0
230
1.0
  2
SOLID
 70
               1
 71
               1
 91
        1
 92
        1
 93
        1
 72
               2
 10
-113.98344836583465
 20
-336.0
 40
1.9998779296875
 50
0.0
 51
360.0
 73
               0
 97
        1
330
64
 75
               0
 76
               1
 98
        1
 10
0.0
 20
0.0
  0
CIRCLE
  5
66
102
{ACAD_REACTORS
330
67
102
}
100
AcDbEntity
  8
0
370
              -2
390
0
  6
Continuous
 62
               0
100
AcDbCircle
 10
-113.98344836583465
 20
-516.0
 30
0.0
 40
1.9998779296875
  0
HATCH
  5
67
100
AcDbEntity
  8
0
370
              -2
390
0
  6
Continuous
 62
               0
100
AcDbHatch
 10
0.0
 20
0.0
 30
0.0
210
0.0
220
0.0
230
1.0
  2
SOLID
 70
               1
 71
               1
 91
        1
 92
        1
 93
        1
 72
               2
 10
-113.98344836583465
 20
-516.0
 40
1.9998779296875
 50
0.0
 51
360.0
 73
               0
 97
        1
330
66
 75
               0
 76
               1
 98
        1
 10
0.0
 20
0.0
  0
MTEXT
  5
68
100
AcDbEntity
  8
0
390
0
 62
               0
100
AcDbMText
 10
-147.86106555333464
 20
-449.81250168217559
 30
0.0
 40
24.432617187500004
 41
0.0
 71
               1
 72
               1
  1
180
  7
ＭＳ ゴシック
 11
0.0
 21
1.0
 31
0.0
 73
               1
 44
0.7828267384257843
  0
POINT
  5
69
100
AcDbEntity
  8
Defpoints
370
               0
390
0
 62
               0
100
AcDbPoint
 10
-362.91384893784993
 20
-516.0
 30
0.0
  0
POINT
  5
6A
100
AcDbEntity
  8
Defpoints
370
               0
390
0
 62
               0
100
AcDbPoint
 10
-267.97650913677808
 20
-336.0
 30
0.0
  0
POINT
  5
6B
100
AcDbEntity
  8
Defpoints
370
               0
390
0
 62
               0
100
AcDbPoint
 10
-113.98344836583465
 20
-336.0
 30
0.0
  0
ENDBLK
  5
6C
100
AcDbEntity
  8
notes
390
0
100
AcDbBlockEnd
  0
BLOCK
  5
6D
100
AcDbEntity
  8
notes
390
0
100
AcDbBlockBegin
  2
*D5
 70
               1
 10
0.0
 20
0.0
 30
0.0
  3
*D5
  1

  0
LINE
  5
6E
100
AcDbEntity
  8
0
370
              -2
390
0
  6
Continuous
 62
               0
100
AcDbLine
 10
-611.41648167188043
 20
-541.04744598219622
 30
0.0
 11
-611.41648167188043
 21
-616.0
 31
0.0
  0
LINE
  5
6F
100
AcDbEntity
  8
0
370
              -2
390
0
  6
Continuous
 62
               0
100
AcDbLine
 10
-366.41648167188043
 20
-541.04744598219622
 30
0.0
 11
-366.41648167188043
 21
-616.0
 31
0.0
  0
LINE
  5
70
100
AcDbEntity
  8
0
370
              -2
390
0
  6
Continuous
 62
               0
100
AcDbLine
 10
-611.41648167188043
 20
-616.0
 30
0.0
 11
-366.41648167188043
 21
-616.0
 31
0.0
  0
CIRCLE
  5
71
102
{ACAD_REACTORS
330
72
102
}
100
AcDbEntity
  8
0
370
              -2
390
0
  6
Continuous
 62
               0
100
AcDbCircle
 10
-611.41648167188043
 20
-616.0
 30
0.0
 40
1.9998779296875
  0
HATCH
  5
72
100
AcDbEntity
  8
0
370
              -2
390
0
  6
Continuous
 62
               0
100
AcDbHatch
 10
0.0
 20
0.0
 30
0.0
210
0.0
220
0.0
230
1.0
  2
SOLID
 70
               1
 71
               1
 91
        1
 92
        1
 93
        1
 72
               2
 10
-611.41648167188043
 20
-616.0
 40
1.9998779296875
 50
0.0
 51
360.0
 73
               0
 97
        1
330
71
 75
               0
 76
               1
 98
        1
 10
0.0
 20
0.0
  0
CIRCLE
  5
73
102
{ACAD_REACTORS
330
74
102
}
100
AcDbEntity
  8
0
370
              -2
390
0
  6
Continuous
 62
               0
100
AcDbCircle
 10
-366.41648167188043
 20
-616.0
 30
0.0
 40
1.9998779296875
  0
HATCH
  5
74
100
AcDbEntity
  8
0
370
              -2
390
0
  6
Continuous
 62
               0
100
AcDbHatch
 10
0.0
 20
0.0
 30
0.0
210
0.0
220
0.0
230
1.0
  2
SOLID
 70
               1
 71
               1
 91
        1
 92
        1
 93
        1
 72
               2
 10
-366.41648167188043
 20
-616.0
 40
1.9998779296875
 50
0.0
 51
360.0
 73
               0
 97
        1
330
73
 75
               0
 76
               1
 98
        1
 10
0.0
 20
0.0
  0
MTEXT
  5
75
100
AcDbEntity
  8
0
390
0
 62
               0
100
AcDbMText
 10
-512.72898335405591
 20
-582.12238281250006
 30
0.0
 40
24.432617187500004
 41
0.0
 71
               1
 72
               1
  1
245
  7
ＭＳ ゴシック
 73
               1
 44
0.7828267384257843
  0
POINT
  5
76
100
AcDbEntity
  8
Defpoints
370
               0
390
0
 62
               0
100
AcDbPoint
 10
-366.41648167188043
 20
-516.04744598219622
 30
0.0
  0
POINT
  5
77
100
AcDbEntity
  8
Defpoints
370
               0
390
0
 62
               0
100
AcDbPoint
 10
-611.41648167188043
 20
-516.04744598219622
 30
0.0
  0
POINT
  5
78
100
AcDbEntity
  8
Defpoints
370
               0
390
0
 62
               0
100
AcDbPoint
 10
-611.41648167188043
 20
-616.0
 30
0.0
  0
ENDBLK
  5
79
100
AcDbEntity
  8
notes
390
0
100
AcDbBlockEnd
  0
BLOCK
  5
7A
100
AcDbEntity
  8
notes
390
0
100
AcDbBlockBegin
  2
*D6
 70
               1
 10
0.0
 20
0.0
 30
0.0
  3
*D6
  1

  0
LINE
  5
7B
100
AcDbEntity
  8
0
370
              -2
390
0
  6
Continuous
 62
               0
100
AcDbLine
 10
-683.87217334898958
 20
501.24667302149481
 30
0.0
 11
-683.87217334898958
 21
326.2463946247131
 31
0.0
  0
LINE
  5
7C
100
AcDbEntity
  8
0
370
              -2
390
0
  6
Continuous
 62
               0
100
AcDbLine
 10
-293.87217334898958
 20
501.24667302149481
 30
0.0
 11
-293.87217334898958
 21
326.2463946247131
 31
0.0
  0
LINE
  5
7D
100
AcDbEntity
  8
0
370
              -2
390
0
  6
Continuous
 62
               0
100
AcDbLine
 10
-683.87217334898958
 20
326.2463946247131
 30
0.0
 11
-293.87217334898958
 21
326.2463946247131
 31
0.0
  0
CIRCLE
  5
7E
102
{ACAD_REACTORS
330
7F
102
}
100
AcDbEntity
  8
0
370
              -2
390
0
  6
Continuous
 62
               0
100
AcDbCircle
 10
-683.87217334898958
 20
326.2463946247131
 30
0.0
 40
1.9998779296875
  0
HATCH
  5
7F
100
AcDbEntity
  8
0
370
              -2
390
0
  6
Continuous
 62
               0
100
AcDbHatch
 10
0.0
 20
0.0
 30
0.0
210
0.0
220
0.0
230
1.0
  2
SOLID
 70
               1
 71
               1
 91
        1
 92
        1
 93
        1
 72
               2
 10
-683.87217334898958
 20
326.2463946247131
 40
1.9998779296875
 50
0.0
 51
360.0
 73
               0
 97
        1
330
7E
 75
               0
 76
               1
 98
        1
 10
0.0
 20
0.0
  0
CIRCLE
  5
80
102
{ACAD_REACTORS
330
81
102
}
100
AcDbEntity
  8
0
370
              -2
390
0
  6
Continuous
 62
               0
100
AcDbCircle
 10
-293.87217334898958
 20
326.2463946247131
 30
0.0
 40
1.9998779296875
  0
HATCH
  5
81
100
AcDbEntity
  8
0
370
              -2
390
0
  6
Continuous
 62
               0
100
AcDbHatch
 10
0.0
 20
0.0
 30
0.0
210
0.0
220
0.0
230
1.0
  2
SOLID
 70
               1
 71
               1
 91
        1
 92
        1
 93
        1
 72
               2
 10
-293.87217334898958
 20
326.2463946247131
 40
1.9998779296875
 50
0.0
 51
360.0
 73
               0
 97
        1
330
80
 75
               0
 76
               1
 98
        1
 10
0.0
 20
0.0
  0
MTEXT
  5
82
100
AcDbEntity
  8
0
390
0
 62
               0
100
AcDbMText
 10
-527.55967334898958
 20
360.12401181221315
 30
0.0
 40
24.432617187500004
 41
0.0
 71
               1
 72
               1
  1
φ390
  7
ＭＳ ゴシック
 73
               1
 44
0.7828267384257843
  0
POINT
  5
83
100
AcDbEntity
  8
Defpoints
370
               0
390
0
 62
               0
100
AcDbPoint
 10
-293.87217334898958
 20
526.24667302149487
 30
0.0
  0
POINT
  5
84
100
AcDbEntity
  8
Defpoints
370
               0
390
0
 62
               0
100
AcDbPoint
 10
-683.87217334898958
 20
526.24667302149487
 30
0.0
  0
POINT
  5
85
100
AcDbEntity
  8
Defpoints
370
               0
390
0
 62
               0
100
AcDbPoint
 10
-683.87217334898958
 20
326.2463946247131
 30
0.0
  0
ENDBLK
  5
86
100
AcDbEntity
  8
notes
390
0
100
AcDbBlockEnd
  0
BLOCK
  5
87
100
AcDbEntity
  8
notes
390
0
100
AcDbBlockBegin
  2
*D7
 70
               1
 10
0.0
 20
0.0
 30
0.0
  3
*D7
  1

  0
LINE
  5
88
100
AcDbEntity
  8
0
370
              -2
390
0
  6
Continuous
 62
               0
100
AcDbLine
 10
-463.8721733489898
 20
-336.0
 30
0.0
 11
-482.7471733489898
 21
-336.0
 31
0.0
  0
LINE
  5
89
100
AcDbEntity
  8
0
370
              -2
390
0
  6
Continuous
 62
               0
100
AcDbLine
 10
-463.8721733489898
 20
-486.00000000000006
 30
0.0
 11
-482.7471733489898
 21
-486.00000000000006
 31
0.0
  0
LINE
  5
8A
100
AcDbEntity
  8
0
370
              -2
390
0
  6
Continuous
 62
               0
100
AcDbLine
 10
-482.7471733489898
 20
-336.0
 30
0.0
 11
-482.7471733489898
 21
-181.125
 31
0.0
  0
LINE
  5
8B
100
AcDbEntity
  8
0
370
              -2
390
0
  6
Continuous
 62
               0
100
AcDbLine
 10
-482.7471733489898
 20
-336.0
 30
0.0
 11
-482.7471733489898
 21
-486.00000000000006
 31
0.0
  0
CIRCLE
  5
8C
102
{ACAD_REACTORS
330
8D
102
}
100
AcDbEntity
  8
0
370
              -2
390
0
  6
Continuous
 62
               0
100
AcDbCircle
 10
-482.7471733489898
 20
-336.0
 30
0.0
 40
1.9998779296875
  0
HATCH
  5
8D
100
AcDbEntity
  8
0
370
              -2
390
0
  6
Continuous
 62
               0
100
AcDbHatch
 10
0.0
 20
0.0
 30
0.0
210
0.0
220
0.0
230
1.0
  2
SOLID
 70
               1
 71
               1
 91
        1
 92
        1
 93
        1
 72
               2
 10
-482.7471733489898
 20
-336.0
 40
1.9998779296875
 50
0.0
 51
360.0
 73
               0
 97
        1
330
8C
 75
               0
 76
               1
 98
        1
 10
0.0
 20
0.0
  0
CIRCLE
  5
8E
102
{ACAD_REACTORS
330
8F
102
}
100
AcDbEntity
  8
0
370
              -2
390
0
  6
Continuous
 62
               0
100
AcDbCircle
 10
-482.7471733489898
 20
-486.00000000000006
 30
0.0
 40
1.9998779296875
  0
HATCH
  5
8F
100
AcDbEntity
  8
0
370
              -2
390
0
  6
Continuous
 62
               0
100
AcDbHatch
 10
0.0
 20
0.0
 30
0.0
210
0.0
220
0.0
230
1.0
  2
SOLID
 70
               1
 71
               1
 91
        1
 92
        1
 93
        1
 72
               2
 10
-482.7471733489898
 20
-486.00000000000006
 40
1.9998779296875
 50
0.0
 51
360.0
 73
               0
 97
        1
330
8E
 75
               0
 76
               1
 98
        1
 10
0.0
 20
0.0
  0
MTEXT
  5
90
100
AcDbEntity
  8
0
390
0
 62
               0
100
AcDbMText
 10
-516.62479053648985
 20
-324.0
 30
0.0
 40
24.432617187500004
 41
0.0
 71
               1
 72
               1
  1
150(深さ)
  7
ＭＳ ゴシック
 11
0.0
 21
1.0
 31
0.0
 73
               1
 44
0.7828267384257843
  0
POINT
  5
91
100
AcDbEntity
  8
Defpoints
370
               0
390
0
 62
               0
100
AcDbPoint
 10
-488.8721733489898
 20
-486.00000000000006
 30
0.0
  0
POINT
  5
92
100
AcDbEntity
  8
Defpoints
370
               0
390
0
 62
               0
100
AcDbPoint
 10
-488.8721733489898
 20
-336.0
 30
0.0
  0
POINT
  5
93
100
AcDbEntity
  8
Defpoints
370
               0
390
0
 62
               0
100
AcDbPoint
 10
-482.7471733489898
 20
-336.0
 30
0.0
  0
ENDBLK
  5
94
100
AcDbEntity
  8
notes
390
0
100
AcDbBlockEnd
  0
BLOCK
  5
95
100
AcDbEntity
  8
notes
390
0
100
AcDbBlockBegin
  2
*D8
 70
               1
 10
0.0
 20
0.0
 30
0.0
  3
*D8
  1

  0
LINE
  5
96
100
AcDbEntity
  8
0
370
              -2
390
0
  6
Continuous
 62
               0
100
AcDbLine
 10
449.35877597833354
 20
679.06179369120287
 30
0.0
 11
469.12782665101042
 21
706.49639462471373
 31
0.0
  0
CIRCLE
  5
97
102
{ACAD_REACTORS
330
98
102
}
100
AcDbEntity
  8
0
370
              -2
390
0
  6
Continuous
 62
               0
100
AcDbCircle
 10
449.35877597833354
 20
679.06179369120287
 30
0.0
 40
1.9998779296875
  0
HATCH
  5
98
100
AcDbEntity
  8
0
370
              -2
390
0
  6
Continuous
 62
               0
100
AcDbHatch
 10
0.0
 20
0.0
 30
0.0
210
0.0
220
0.0
230
1.0
  2
SOLID
 70
               1
 71
               1
 91
        1
 92
        1
 93
        1
 72
               2
 10
449.35877597833354
 20
679.06179369120287
 40
1.9998779296875
 50
0.0
 51
360.0
 73
               0
 97
        1
330
97
 75
               0
 76
               1
 98
        1
 10
0.0
 20
0.0
  0
LINE
  5
99
100
AcDbEntity
  8
0
370
              -2
390
0
  6
Continuous
 62
               0
100
AcDbLine
 10
469.12782665101042
 20
706.49639462471373
 30
0.0
 11
558.50282665101042
 21
706.49639462471373
 31
0.0
  0
MTEXT
  5
9A
100
AcDbEntity
  8
0
390
0
 62
               0
100
AcDbMText
 10
479.12782665101042
 20
740.37401181221367
 30
0.0
 40
24.432617187500004
 41
0.0
 71
               1
 72
               1
  1
φ100
  7
ＭＳ ゴシック
 73
               1
 44
0.7828267384257843
  0
POINT
  5
9B
100
AcDbEntity
  8
Defpoints
370
               0
390
0
 62
               0
100
AcDbPoint
 10
390.89687732368736
 20
597.93099555822391
 30
0.0
  0
POINT
  5
9C
100
AcDbEntity
  8
Defpoints
370
               0
390
0
 62
               0
100
AcDbPoint
 10
449.35877597833354
 20
679.06179369120287
 30
0.0
  0
ENDBLK
  5
9D
100
AcDbEntity
  8
notes
390
0
100
AcDbBlockEnd
  0
BLOCK
  5
9E
100
AcDbEntity
  8
notes
390
0
100
AcDbBlockBegin
  2
*D9
 70
               1
 10
0.0
 20
0.0
 30
0.0
  3
*D9
  1

  0
LINE
  5
9F
100
AcDbEntity
  8
0
370
              -2
390
0
  6
Continuous
 62
               0
100
AcDbLine
 10
237.62782665101042
 20
613.4963946247135
 30
0.0
 11
237.62782665101042
 21
326.49639462471345
 31
0.0
  0
LINE
  5
A0
100
AcDbEntity
  8
0
370
              -2
390
0
  6
Continuous
 62
               0
100
AcDbLine
 10
602.62782665101042
 20
613.4963946247135
 30
0.0
 11
602.62782665101042
 21
326.49639462471345
 31
0.0
  0
LINE
  5
A1
100
AcDbEntity
  8
0
370
              -2
390
0
  6
Continuous
 62
               0
100
AcDbLine
 10
237.62782665101042
 20
326.49639462471345
 30
0.0
 11
602.62782665101042
 21
326.49639462471345
 31
0.0
  0
CIRCLE
  5
A2
102
{ACAD_REACTORS
330
A3
102
}
100
AcDbEntity
  8
0
370
              -2
390
0
  6
Continuous
 62
               0
100
AcDbCircle
 10
237.62782665101042
 20
326.49639462471345
 30
0.0
 40
1.9998779296875
  0
HATCH
  5
A3
100
AcDbEntity
  8
0
370
              -2
390
0
  6
Continuous
 62
               0
100
AcDbHatch
 10
0.0
 20
0.0
 30
0.0
210
0.0
220
0.0
230
1.0
  2
SOLID
 70
               1
 71
               1
 91
        1
 92
        1
 93
        1
 72
               2
 10
237.62782665101042
 20
326.49639462471345
 40
1.9998779296875
 50
0.0
 51
360.0
 73
               0
 97
        1
330
A2
 75
               0
 76
               1
 98
        1
 10
0.0
 20
0.0
  0
CIRCLE
  5
A4
102
{ACAD_REACTORS
330
A5
102
}
100
AcDbEntity
  8
0
370
              -2
390
0
  6
Continuous
 62
               0
100
AcDbCircle
 10
602.62782665101042
 20
326.49639462471345
 30
0.0
 40
1.9998779296875
  0
HATCH
  5
A5
100
AcDbEntity
  8
0
370
              -2
390
0
  6
Continuous
 62
               0
100
AcDbHatch
 10
0.0
 20
0.0
 30
0.0
210
0.0
220
0.0
230
1.0
  2
SOLID
 70
               1
 71
               1
 91
        1
 92
        1
 93
        1
 72
               2
 10
602.62782665101042
 20
326.49639462471345
 40
1.9998779296875
 50
0.0
 51
360.0
 73
               0
 97
        1
330
A4
 75
               0
 76
               1
 98
        1
 10
0.0
 20
0.0
  0
MTEXT
  5
A6
100
AcDbEntity
  8
0
390
0
 62
               0
100
AcDbMText
 10
380.44032665101042
 20
360.3740118122135
 30
0.0
 40
24.432617187500004
 41
0.0
 71
               1
 72
               1
  1
φ365
  7
ＭＳ ゴシック
 73
               1
 44
0.7828267384257843
  0
POINT
  5
A7
100
AcDbEntity
  8
Defpoints
370
               0
390
0
 62
               0
100
AcDbPoint
 10
602.62782665101042
 20
638.4963946247135
 30
0.0
  0
POINT
  5
A8
100
AcDbEntity
  8
Defpoints
370
               0
390
0
 62
               0
100
AcDbPoint
 10
237.62782665101042
 20
638.4963946247135
 30
0.0
  0
POINT
  5
A9
100
AcDbEntity
  8
Defpoints
370
               0
390
0
 62
               0
100
AcDbPoint
 10
237.62782665101042
 20
326.49639462471345
 30
0.0
  0
ENDBLK
  5
AA
100
AcDbEntity
  8
notes
390
0
100
AcDbBlockEnd
  0
BLOCK
  5
AB
100
AcDbEntity
  8
notes
390
0
100
AcDbBlockBegin
  2
*D10
 70
               1
 10
0.0
 20
0.0
 30
0.0
  3
*D10
  1

  0
LINE
  5
AC
100
AcDbEntity
  8
0
370
              -2
390
0
  6
Continuous
 62
               0
100
AcDbLine
 10
-242.97650913677808
 20
-336.0
 30
0.0
 11
-163.98344836583465
 21
-336.0
 31
0.0
  0
LINE
  5
AD
100
AcDbEntity
  8
0
370
              -2
390
0
  6
Continuous
 62
               0
100
AcDbLine
 10
-267.76723116638573
 20
-426.00000000000006
 30
0.0
 11
-163.98344836583465
 21
-426.00000000000006
 31
0.0
  0
LINE
  5
AE
100
AcDbEntity
  8
0
370
              -2
390
0
  6
Continuous
 62
               0
100
AcDbLine
 10
-163.98344836583465
 20
-336.0
 30
0.0
 11
-163.98344836583465
 21
-426.00000000000006
 31
0.0
  0
CIRCLE
  5
AF
102
{ACAD_REACTORS
330
B0
102
}
100
AcDbEntity
  8
0
370
              -2
390
0
  6
Continuous
 62
               0
100
AcDbCircle
 10
-163.98344836583465
 20
-336.0
 30
0.0
 40
1.9998779296875
  0
HATCH
  5
B0
100
AcDbEntity
  8
0
370
              -2
390
0
  6
Continuous
 62
               0
100
AcDbHatch
 10
0.0
 20
0.0
 30
0.0
210
0.0
220
0.0
230
1.0
  2
SOLID
 70
               1
 71
               1
 91
        1
 92
        1
 93
        1
 72
               2
 10
-163.98344836583465
 20
-336.0
 40
1.9998779296875
 50
0.0
 51
360.0
 73
               0
 97
        1
330
AF
 75
               0
 76
               1
 98
        1
 10
0.0
 20
0.0
  0
CIRCLE
  5
B1
102
{ACAD_REACTORS
330
B2
102
}
100
AcDbEntity
  8
0
370
              -2
390
0
  6
Continuous
 62
               0
100
AcDbCircle
 10
-163.98344836583465
 20
-426.00000000000006
 30
0.0
 40
1.9998779296875
  0
HATCH
  5
B2
100
AcDbEntity
  8
0
370
              -2
390
0
  6
Continuous
 62
               0
100
AcDbHatch
 10
0.0
 20
0.0
 30
0.0
210
0.0
220
0.0
230
1.0
  2
SOLID
 70
               1
 71
               1
 91
        1
 92
        1
 93
        1
 72
               2
 10
-163.98344836583465
 20
-426.00000000000006
 40
1.9998779296875
 50
0.0
 51
360.0
 73
               0
 97
        1
330
B1
 75
               0
 76
               1
 98
        1
 10
0.0
 20
0.0
  0
MTEXT
  5
B3
100
AcDbEntity
  8
0
390
0
 62
               0
100
AcDbMText
 10
-197.86106555333464
 20
-396.875
 30
0.0
 40
24.432617187500004
 41
0.0
 71
               1
 72
               1
  1
90
  7
ＭＳ ゴシック
 11
0.0
 21
1.0
 31
0.0
 73
               1
 44
0.7828267384257843
  0
POINT
  5
B4
100
AcDbEntity
  8
Defpoints
370
               0
390
0
 62
               0
100
AcDbPoint
 10
-292.76723116638573
 20
-426.00000000000006
 30
0.0
  0
POINT
  5
B5
100
AcDbEntity
  8
Defpoints
370
               0
390
0
 62
               0
100
AcDbPoint
 10
-267.97650913677808
 20
-336.0
 30
0.0
  0
POINT
  5
B6
100
AcDbEntity
  8
Defpoints
370
               0
390
0
 62
               0
100
AcDbPoint
 10
-163.98344836583465
 20
-336.0
 30
0.0
  0
ENDBLK
  5
B7
100
AcDbEntity
  8
notes
390
0
100
AcDbBlockEnd
  0
BLOCK
  5
B8
100
AcDbEntity
  8
notes
390
0
100
AcDbBlockBegin
  2
*D11
 70
               1
 10
0.0
 20
0.0
 30
0.0
  3
*D11
  1

  0
LINE
  5
B9
100
AcDbEntity
  8
0
370
              -2
390
0
  6
Continuous
 62
               0
100
AcDbLine
 10
-267.76723116638573
 20
-426.00000000000006
 30
0.0
 11
-163.98344836583465
 21
-426.00000000000006
 31
0.0
  0
LINE
  5
BA
100
AcDbEntity
  8
0
370
              -2
390
0
  6
Continuous
 62
               0
100
AcDbLine
 10
-334.52612553835093
 20
-516.0
 30
0.0
 11
-163.98344836583465
 21
-516.0
 31
0.0
  0
LINE
  5
BB
100
AcDbEntity
  8
0
370
              -2
390
0
  6
Continuous
 62
               0
100
AcDbLine
 10
-163.98344836583465
 20
-426.00000000000006
 30
0.0
 11
-163.98344836583465
 21
-516.0
 31
0.0
  0
CIRCLE
  5
BC
102
{ACAD_REACTORS
330
BD
102
}
100
AcDbEntity
  8
0
370
              -2
390
0
  6
Continuous
 62
               0
100
AcDbCircle
 10
-163.98344836583465
 20
-426.00000000000006
 30
0.0
 40
1.9998779296875
  0
HATCH
  5
BD
100
AcDbEntity
  8
0
370
              -2
390
0
  6
Continuous
 62
               0
100
AcDbHatch
 10
0.0
 20
0.0
 30
0.0
210
0.0
220
0.0
230
1.0
  2
SOLID
 70
               1
 71
               1
 91
        1
 92
        1
 93
        1
 72
               2
 10
-163.98344836583465
 20
-426.00000000000006
 40
1.9998779296875
 50
0.0
 51
360.0
 73
               0
 97
        1
330
BC
 75
               0
 76
               1
 98
        1
 10
0.0
 20
0.0
  0
CIRCLE
  5
BE
102
{ACAD_REACTORS
330
BF
102
}
100
AcDbEntity
  8
0
370
              -2
390
0
  6
Continuous
 62
               0
100
AcDbCircle
 10
-163.98344836583465
 20
-516.0
 30
0.0
 40
1.9998779296875
  0
HATCH
  5
BF
100
AcDbEntity
  8
0
370
              -2
390
0
  6
Continuous
 62
               0
100
AcDbHatch
 10
0.0
 20
0.0
 30
0.0
210
0.0
220
0.0
230
1.0
  2
SOLID
 70
               1
 71
               1
 91
        1
 92
        1
 93
        1
 72
               2
 10
-163.98344836583465
 20
-516.0
 40
1.9998779296875
 50
0.0
 51
360.0
 73
               0
 97
        1
330
BE
 75
               0
 76
               1
 98
        1
 10
0.0
 20
0.0
  0
MTEXT
  5
C0
100
AcDbEntity
  8
0
390
0
 62
               0
100
AcDbMText
 10
-197.86106555333464
 20
-486.87500000000006
 30
0.0
 40
24.432617187500004
 41
0.0
 71
               1
 72
               1
  1
90
  7
ＭＳ ゴシック
 11
0.0
 21
1.0
 31
0.0
 73
               1
 44
0.7828267384257843
  0
POINT
  5
C1
100
AcDbEntity
  8
Defpoints
370
               0
390
0
 62
               0
100
AcDbPoint
 10
-359.52612553835093
 20
-516.0
 30
0.0
  0
POINT
  5
C2
100
AcDbEntity
  8
Defpoints
370
               0
390
0
 62
               0
100
AcDbPoint
 10
-292.76723116638573
 20
-426.00000000000006
 30
0.0
  0
POINT
  5
C3
100
AcDbEntity
  8
Defpoints
370
               0
390
0
 62
               0
100
AcDbPoint
 10
-163.98344836583465
 20
-426.00000000000006
 30
0.0
  0
ENDBLK
  5
C4
100
AcDbEntity
  8
notes
390
0
100
AcDbBlockEnd
  0
ENDSEC
  0
SECTION
  2
ENTITIES
  0
MTEXT
  5
C5
100
AcDbEntity
  8
template
390
0
 62
               7
100
AcDbMText
 10
-967.99999999975921
 20
-1147.4176292337006
 30
0.0
 40
16.288411458333332
 41
0.0
 71
               1
 72
               1
  1
品名
  7
ＭＳ ゴシック
 73
               1
 44
0.7828267384257843
  0
MTEXT
  5
C6
100
AcDbEntity
  8
template
390
0
 62
               7
100
AcDbMText
 10
-967.99999999975921
 20
-1232.4176292337006
 30
0.0
 40
16.288411458333332
 41
0.0
 71
               1
 72
               1
  1
仕様
  7
ＭＳ ゴシック
 73
               1
 44
0.7828267384257843
  0
MTEXT
  5
C7
100
AcDbEntity
  8
template
390
0
 62
               7
100
AcDbMText
 10
-914.99999999975921
 20
-1176.0000901712006
 30
0.0
 40
24.432617187500004
 41
0.0
 71
               1
 72
               1
  1
手洗器 -CATALANO,C-
  7
ＭＳ ゴシック
 73
               1
 44
0.7828267384257843
  0
LINE
  5
C8
100
AcDbEntity
  8
template
370
               5
390
0
  6
Continuous
 62
               7
100
AcDbLine
 10
974.99999999975876
 20
-1224.0027073587005
 30
0.0
 11
-975.00000000024124
 21
-1224.0027073587005
 31
0.0
  0
LWPOLYLINE
  5
C9
100
AcDbEntity
  8
template
370
               5
390
0
  6
Continuous
 62
               7
100
AcDbPolyline
 90
        5
 70
             128
 10
975.00000000024124
 20
1405.9972926412995
 10
-974.99999999975921
 20
1405.9972926412995
 10
-974.99999999975921
 20
-1394.0027073587005
 10
975.00000000024124
 20
-1394.0027073587005
 10
975.00000000024124
 20
1405.9972926412995
  0
LINE
  5
CA
100
AcDbEntity
  8
template
370
               5
390
0
  6
Continuous
 62
               7
100
AcDbLine
 10
974.99999999975876
 20
-1139.0027073587005
 30
0.0
 11
-975.00000000024124
 21
-1139.0027073587005
 31
0.0
  0
LINE
  5
CB
100
AcDbEntity
  8
template
370
               5
390
0
  6
Continuous
 62
               7
100
AcDbLine
 10
975.00000000024124
 20
-1309.0027073587005
 30
0.0
 11
222.00000000024124
 21
-1309.0027073587005
 31
0.0
  0
MTEXT
  5
CC
100
AcDbEntity
  8
template
390
0
 62
               7
100
AcDbMText
 10
-974.99999999955594
 20
-1405.8565294155576
 30
0.0
 40
21.717881944444446
 41
0.0
 71
               1
 72
               1
  1
120308SH
  7
ＭＳ ゴシック
 73
               1
 44
0.7828267384257843
  0
MTEXT
  5
CD
100
AcDbEntity
  8
template
390
0
 62
               7
100
AcDbMText
 10
251.87140625250089
 20
-1338.9131018320081
 30
0.0
 40
24.432617187500004
 41
0.0
 71
               1
 72
               1
  1
大洋金物株式会社 ティーフォルム事業部
  7
ＭＳ ゴシック
 73
               1
 44
0.7828267384257843
  0
INSERT
  5
CE
100
AcDbEntity
  8
template
390
0
 62
               7
100
AcDbBlockReference
  2
グループ
 10
188.29246123115786
 20
-392.665525108753
 30
0.0
  0
MTEXT
  5
CF
100
AcDbEntity
  8
template
390
0
 62
               7
100
AcDbMText
 10
784.00000000049999
 20
-1261.0000901712006
 30
0.0
 40
24.432617187500004
 41
0.0
 71
               1
 72
               1
  1
1:10
  7
ＭＳ ゴシック
 73
               1
 44
0.7828267384257843
  0
MTEXT
  5
D0
100
AcDbEntity
  8
template
390
0
 62
               7
100
AcDbMText
 10
731.00000000049999
 20
-1232.4176292337006
 30
0.0
 40
16.288411458333332
 41
0.0
 71
               1
 72
               1
  1
縮尺
  7
ＭＳ ゴシック
 73
               1
 44
0.7828267384257843
  0
LINE
  5
D1
100
AcDbEntity
  8
template
370
               5
390
0
  6
Continuous
 62
               7
100
AcDbLine
 10
724.00000000049999
 20
-1309.0027073587005
 30
0.0
 11
724.00000000049999
 21
-1224.0027073587005
 31
0.0
  0
MTEXT
  5
D2
100
AcDbEntity
  8
template
390
0
 62
               7
100
AcDbMText
 10
480.00000000049999
 20
-1232.4176292337006
 30
0.0
 40
16.288411458333332
 41
0.0
 71
               1
 72
               1
  1
容量
  7
ＭＳ ゴシック
 73
               1
 44
0.7828267384257843
  0
MTEXT
  5
D3
100
AcDbEntity
  8
template
390
0
 62
               7
100
AcDbMText
 10
533.00000000049999
 20
-1261.0000901712006
 30
0.0
 40
24.432617187500004
 41
0.0
 71
               1
 72
               1
  1
10L
  7
ＭＳ ゴシック
 73
               1
 44
0.7828267384257843
  0
LINE
  5
D4
100
AcDbEntity
  8
template
370
               5
390
0
  6
Continuous
 62
               7
100
AcDbLine
 10
473.00000000049999
 20
-1309.0027073587005
 30
0.0
 11
473.00000000049999
 21
-1224.0027073587005
 31
0.0
  0
MTEXT
  5
D5
100
AcDbEntity
  8
template
390
0
 62
               7
100
AcDbMText
 10
229.00000000049999
 20
-1147.4176292337006
 30
0.0
 40
16.288411458333332
 41
0.0
 71
               1
 72
               1
  1
品番
  7
ＭＳ ゴシック
 73
               1
 44
0.7828267384257843
  0
MTEXT
  5
D6
100
AcDbEntity
  8
template
390
0
 62
               7
100
AcDbMText
 10
229.00000000049999
 20
-1232.4176292337006
 30
0.0
 40
16.288411458333332
 41
0.0
 71
               1
 72
               1
  1
重量
  7
ＭＳ ゴシック
 73
               1
 44
0.7828267384257843
  0
MTEXT
  5
D7
100
AcDbEntity
  8
template
390
0
 62
               7
100
AcDbMText
 10
282.00000000049999
 20
-1176.0000901712006
 30
0.0
 40
24.432617187500004
 41
0.0
 71
               1
 72
               1
  1
ADF70-0904
  7
ＭＳ ゴシック
 73
               1
 44
0.7828267384257843
  0
MTEXT
  5
D8
100
AcDbEntity
  8
template
390
0
 62
               7
100
AcDbMText
 10
282.00000000049999
 20
-1261.0000901712006
 30
0.0
 40
24.432617187500004
 41
0.0
 71
               1
 72
               1
  1
9kg
  7
ＭＳ ゴシック
 73
               1
 44
0.7828267384257843
  0
LINE
  5
D9
100
AcDbEntity
  8
template
370
               5
390
0
  6
Continuous
 62
               7
100
AcDbLine
 10
222.00000000049999
 20
-1394.0027073587005
 30
0.0
 11
222.00000000049999
 21
-1139.0027073587005
 31
0.0
  0
MTEXT
  5
DA
100
AcDbEntity
  8
template
390
0
 62
               7
100
AcDbMText
 10
-914.99999999976012
 20
-1261.0000901712001
 30
0.0
 40
24.432617187500004
 41
0.0
 71
               1
 72
               1
  1
カウンター置き,半埋め込み/オーバーフローなし/\P陶器/ホワイト
  7
ＭＳ ゴシック
 73
               1
 44
1.3047112307096407
  0
MTEXT
  5
DB
100
AcDbEntity
  8
notes
390
0
 62
               7
100
AcDbMText
 10
284.13199331767703
 20
1111.6561937826145
 30
0.0
 40
24.432617187500004
 41
0.0
 71
               1
 72
               1
  1
カウンター切込寸法
  7
ＭＳ ゴシック
 73
               1
 44
0.7828267384257843
  0
MTEXT
  5
DC
100
AcDbEntity
  8
notes
390
0
 62
               7
100
AcDbMText
 10
331.0804205624147
 20
925.02378747219041
 30
0.0
 40
24.432617187500004
 41
0.0
 71
               1
 72
               1
  1
カウンター置き
  7
ＭＳ ゴシック
 73
               1
 44
0.7828267384257843
  0
MTEXT
  5
DD
100
AcDbEntity
  8
notes
390
0
 62
               7
100
AcDbMText
 10
-741.04940756795907
 20
-680.77623098742708
 30
0.0
 40
24.432617187500004
 41
0.0
 71
               1
 72
               1
  1
カウンター置き
  7
ＭＳ ゴシック
 73
               1
 44
0.7828267384257843
  0
LINE
  5
DE
100
AcDbEntity
  8
notes
370
               5
390
0
  6
Continuous
 62
               7
100
AcDbLine
 10
-636.60774090129223
 20
-516.0
 30
0.0
 11
-743.30774090129228
 21
-516.0
 31
0.0
  0
LINE
  5
DF
100
AcDbEntity
  8
notes
370
               5
390
0
  6
Continuous
 62
               7
100
AcDbLine
 10
-718.30774090129228
 20
-516.0
 30
0.0
 11
-718.30774090129228
 21
-676.0
 31
0.0
  0
MTEXT
  5
E0
100
AcDbEntity
  8
notes
390
0
 62
               7
100
AcDbMText
 10
-801.08022415992184
 20
-768.67630015378086
 30
0.0
 40
24.432617187500004
 41
0.0
 71
               1
 72
               1
  1
半埋め込み
  7
ＭＳ ゴシック
 73
               1
 44
0.7828267384257843
  0
LINE
  5
E1
100
AcDbEntity
  8
notes
370
               5
390
0
  6
Continuous
 62
               7
100
AcDbLine
 10
-701.34990621873067
 20
-426.00000000000006
 30
0.0
 11
-808.04990621873071
 21
-426.00000000000006
 31
0.0
  0
LINE
  5
E2
100
AcDbEntity
  8
notes
370
               5
390
0
  6
Continuous
 62
               7
100
AcDbLine
 10
-783.04990621873071
 20
-426.00000000000006
 30
0.0
 11
-783.04990621873071
 21
-754.0
 31
0.0
  0
MTEXT
  5
E3
100
AcDbEntity
  8
notes
390
0
 62
               7
100
AcDbMText
 10
271.16026079932044
 20
986.62401181221367
 30
0.0
 40
24.432617187500004
 41
0.0
 71
               1
 72
               1
  1
半埋め込み
  7
ＭＳ ゴシック
 73
               1
 44
0.7828267384257843
  0
LINE
  5
E4
100
AcDbEntity
  8
notes
370
               5
390
0
  6
Continuous
 62
               7
100
AcDbLine
 10
288.12782665101042
 20
764.4963946247135
 30
0.0
 11
288.12782665101042
 21
952.4963946247135
 31
0.0
  0
MTEXT
  5
E5
100
AcDbEntity
  8
notes
390
0
 62
               7
100
AcDbMText
 10
39.599783419538085
 20
245.581666425528
 30
0.0
 40
24.432617187500004
 41
764.7717154610109
 71
               1
 72
               1
  1
※陶器製品には寸法公差があります。\P  洗面器の収め方をご確認の上、必ず現物を合わせて\P  カウンターに切込を行ってください。
  7
ＭＳ ゴシック
 73
               1
 44
1.0437689845677123
  0
DIMENSION
  5
E6
100
AcDbEntity
  8
notes
370
               5
390
0
  6
Continuous
 62
               7
100
AcDbDimension
  2
*D3
 10
-713.87217334898958
 20
963.4963946247135
 30
0.0
 11
-488.87217334898958
 21
963.4963946247135
 31
0.0
 71
               5
 72
               1
 41
1.0
 42
0.0
  3
Tform線あり
100
AcDbAlignedDimension
 13
-263.87217334898958
 23
663.4963946247135
 33
0.0
 14
-713.87217334898958
 24
663.4963946247135
 34
0.0
100
AcDbRotatedDimension
1001
ACAD
1000
DSTYLE
1002
{
1070
             279
1070
               2
1070
             340
1005
2D
1070
               3
1000
φ<>
1070
             147
1040
5.0
1002
}
  0
DIMENSION
  5
E7
100
AcDbEntity
  8
notes
370
               5
390
0
  6
Continuous
 62
               7
100
AcDbDimension
  2
*D4
 10
-113.98344836583465
 20
-336.0
 30
0.0
 11
-108.98344836583465
 21
-426.00000000000006
 31
0.0
 70
             128
 71
               5
 72
               1
 41
1.0
 42
0.0
  3
Tform線あり
100
AcDbAlignedDimension
 13
-362.91384893784993
 23
-516.0
 33
0.0
 14
-267.97650913677808
 24
-336.0
 34
0.0
 50
90.0
100
AcDbRotatedDimension
1001
ACAD
1000
DSTYLE
1002
{
1070
             279
1070
               2
1070
             340
1005
2D
1070
             147
1040
5.0
1002
}
  0
DIMENSION
  5
E8
100
AcDbEntity
  8
notes
370
               5
390
0
  6
Continuous
 62
               7
100
AcDbDimension
  2
*D5
 10
-611.41648167188043
 20
-616.0
 30
0.0
 11
-488.91648167188043
 21
-616.0
 31
0.0
 71
               5
 72
               1
 41
1.0
 42
0.0
  3
Tform線あり
100
AcDbAlignedDimension
 13
-366.41648167188043
 23
-516.04744598219622
 33
0.0
 14
-611.41648167188043
 24
-516.04744598219622
 34
0.0
100
AcDbRotatedDimension
1001
ACAD
1000
DSTYLE
1002
{
1070
             279
1070
               2
1070
             340
1005
2D
1070
             147
1040
5.0
1002
}
  0
DIMENSION
  5
E9
100
AcDbEntity
  8
notes
370
               5
390
0
  6
Continuous
 62
               7
100
AcDbDimension
  2
*D6
 10
-683.87217334898958
 20
326.2463946247131
 30
0.0
 11
-487.87217334898958
 21
331.2463946247131
 31
0.0
 70
             128
 71
               5
 72
               1
 41
1.0
 42
0.0
  3
Tform線あり
100
AcDbAlignedDimension
 13
-293.87217334898958
 23
526.24667302149487
 33
0.0
 14
-683.87217334898958
 24
526.24667302149487
 34
0.0
100
AcDbRotatedDimension
1001
ACAD
1000
DSTYLE
1002
{
1070
             279
1070
               2
1070
             340
1005
2D
1070
               3
1000
φ<>
1070
             147
1040
5.0
1002
}
  0
DIMENSION
  5
EA
100
AcDbEntity
  8
notes
370
               5
390
0
  6
Continuous
 62
               7
100
AcDbDimension
  2
*D7
 10
-482.7471733489898
 20
-336.0
 30
0.0
 11
-477.7471733489898
 21
-324.0
 31
0.0
 70
             128
 71
               5
 72
               1
 41
1.0
 42
0.0
  3
Tform線あり
100
AcDbAlignedDimension
 13
-488.8721733489898
 23
-486.00000000000006
 33
0.0
 14
-488.8721733489898
 24
-336.0
 34
0.0
 50
90.0
100
AcDbRotatedDimension
1001
ACAD
1000
DSTYLE
1002
{
1070
             279
1070
               2
1070
             340
1005
2D
1070
               3
1000
<>(深さ)
1070
             174
1070
               0
1070
             147
1040
5.0
1002
}
  0
DIMENSION
  5
EB
100
AcDbEntity
  8
notes
370
               5
390
0
  6
Continuous
 62
               7
100
AcDbDimension
  2
*D8
 10
390.89687732368736
 20
597.93099555822391
 30
0.0
 11
479.12782665101031
 21
706.49639462471373
 31
0.0
 70
               3
 71
               5
 72
               1
 41
1.0
 42
0.0
  3
Tform線あり
100
AcDbDiametricDimension
 15
449.35877597833354
 25
679.06179369120287
 35
0.0
 40
33.815273071200465
1001
ACAD
1000
DSTYLE
1002
{
1070
             172
1070
               0
1070
             289
1070
               0
1070
             342
1005
3D
1070
             340
1005
2D
1070
              73
1070
               1
1070
              74
1070
               1
1070
              75
1070
               1
1070
              76
1070
               1
1070
               3
1000

1070
             174
1070
               0
1070
             147
1040
5.0
1002
}
  0
LINE
  5
EC
100
AcDbEntity
  8
notes
370
               5
390
0
  6
Continuous
 62
               7
100
AcDbLine
 10
376.12782665101042
 20
892.4963946247135
 30
0.0
 11
376.12782665101042
 21
662.24507879878934
 31
0.0
  0
DIMENSION
  5
ED
100
AcDbEntity
  8
notes
370
               5
390
0
  6
Continuous
 62
               7
100
AcDbDimension
  2
*D9
 10
237.62782665101042
 20
326.49639462471345
 30
0.0
 11
420.12782665101042
 21
326.49639462471345
 31
0.0
 71
               5
 72
               1
 41
1.0
 42
0.0
  3
Tform線あり
100
AcDbAlignedDimension
 13
602.62782665101042
 23
638.4963946247135
 33
0.0
 14
237.62782665101042
 24
638.4963946247135
 34
0.0
100
AcDbRotatedDimension
1001
ACAD
1000
DSTYLE
1002
{
1070
             279
1070
               2
1070
             340
1005
2D
1070
               3
1000
φ<>
1070
             147
1040
5.0
1002
}
  0
DIMENSION
  5
EE
100
AcDbEntity
  8
notes
370
               5
390
0
  6
Continuous
 62
               7
100
AcDbDimension
  2
*D10
 10
-163.98344836583465
 20
-336.0
 30
0.0
 11
-163.98344836583465
 21
-381.0
 31
0.0
 71
               5
 72
               1
 41
1.0
 42
0.0
  3
Tform線あり
100
AcDbAlignedDimension
 13
-292.76723116638573
 23
-426.00000000000006
 33
0.0
 14
-267.97650913677808
 24
-336.0
 34
0.0
 50
90.0
100
AcDbRotatedDimension
1001
ACAD
1000
DSTYLE
1002
{
1070
             279
1070
               2
1070
             340
1005
2D
1070
             147
1040
5.0
1002
}
  0
DIMENSION
  5
EF
100
AcDbEntity
  8
notes
370
               5
390
0
  6
Continuous
 62
               7
100
AcDbDimension
  2
*D11
 10
-163.98344836583465
 20
-426.00000000000006
 30
0.0
 11
-163.98344836583465
 21
-471.00000000000006
 31
0.0
 71
               5
 72
               1
 41
1.0
 42
0.0
  3
Tform線あり
100
AcDbAlignedDimension
 13
-359.52612553835093
 23
-516.0
 33
0.0
 14
-292.76723116638573
 24
-426.00000000000006
 34
0.0
 50
90.0
100
AcDbRotatedDimension
1001
ACAD
1000
DSTYLE
1002
{
1070
             279
1070
               2
1070
             340
1005
2D
1070
             147
1040
5.0
1002
}
  0
CIRCLE
  5
F0
100
AcDbEntity
  8
ADF70-0904
370
              15
390
0
  6
Continuous
 62
               7
100
AcDbCircle
 10
-488.87217334898958
 20
638.4963946247135
 30
0.0
 40
22.5
  0
CIRCLE
  5
F1
100
AcDbEntity
  8
ADF70-0904
370
              15
390
0
  6
Continuous
 62
               7
100
AcDbCircle
 10
-488.87217334898958
 20
638.4963946247135
 30
0.0
 40
39.0
  0
CIRCLE
  5
F2
100
AcDbEntity
  8
ADF70-0904
370
              15
390
0
  6
Continuous
 62
               7
100
AcDbCircle
 10
-488.87217334898958
 20
638.4963946247135
 30
0.0
 40
225.0
  0
CIRCLE
  5
F3
100
AcDbEntity
  8
ADF70-0904
370
              15
390
0
  6
Continuous
 62
               7
100
AcDbCircle
 10
-488.87217334898958
 20
638.4963946247135
 30
0.0
 40
195.0
  0
LINE
  5
F4
100
AcDbEntity
  8
ADF70-0904
370
              15
390
0
  6
STYLE_01
 62
               7
100
AcDbLine
 10
-443.56912077830179
 20
-481.43698699883947
 30
0.0
 11
-534.17522591967736
 21
-481.4369869988397
 31
0.0
  0
LINE
  5
F5
100
AcDbEntity
  8
ADF70-0904
370
              15
390
0
  6
STYLE_01
 62
               7
100
AcDbLine
 10
-458.8994220272582
 20
-495.02101379855725
 30
0.0
 11
-518.84492467071391
 21
-495.02101379855725
 31
0.0
  0
ARC
  5
F6
100
AcDbEntity
  8
ADF70-0904
370
              15
390
0
  6
Continuous
 62
               7
100
AcDbCircle
 10
-491.58392938173597
 20
-383.10019815043853
 30
0.0
 40
186.14750497315552
100
AcDbArc
 50
315.18819908402895
 51
346.70741733502501
  0
ARC
  5
F7
100
AcDbEntity
  8
ADF70-0904
370
              15
390
0
  6
Continuous
 62
               7
100
AcDbCircle
 10
-363.78107501407135
 20
-510.06300421654947
 30
0.0
 40
5.9999999999999529
100
AcDbArc
 50
269.97114167404874
 51
315.16646911471162
  0
LINE
  5
F8
100
AcDbEntity
  8
ADF70-0904
370
              15
390
0
  6
STYLE_01
 62
               7
100
AcDbLine
 10
-459.46285247309697
 20
-497.55644022765949
 30
0.0
 11
-459.46886670371009
 21
-509.49718836923643
 31
0.0
  0
ARC
  5
F9
100
AcDbEntity
  8
ADF70-0904
370
              15
390
0
  6
STYLE_01
 62
               7
100
AcDbCircle
 10
-453.46285247309675
 20
-497.55946226474231
 30
0.0
 40
6.0000007610592432
100
AcDbArc
 50
129.9711416740484
 51
179.97114167404231
  0
LINE
  5
FA
100
AcDbEntity
  8
ADF70-0904
370
              15
390
0
  6
STYLE_01
 62
               7
100
AcDbLine
 10
-443.56912077830179
 20
-481.4369869988397
 30
0.0
 11
-457.31726311650232
 21
-492.96125307803567
 31
0.0
  0
ARC
  5
FB
100
AcDbEntity
  8
ADF70-0904
370
              15
390
0
  6
STYLE_01
 62
               7
100
AcDbCircle
 10
-439.71471013489656
 20
-486.03519618554611
 30
0.0
 40
6.0000007610588675
100
AcDbArc
 50
89.330210628535141
 51
129.97114167404732
  0
LWPOLYLINE
  5
FC
100
AcDbEntity
  8
ADF70-0904
370
              15
390
0
  6
STYLE_01
 62
               7
100
AcDbPolyline
 90
        4
 70
             128
 10
-289.5396255927451
 20
-336.0
 42
0.3062884547278431
 10
-295.10730245613257
 20
-339.76371416297025
 42
-0.1440587135187079
 10
-394.67513708601155
 20
-465.93698905160102
 42
-0.1590716030595498
 10
-439.64457154454942
 20
-480.03560539026256
 42
-0.1590716030595498
  0
LINE
  5
FD
100
AcDbEntity
  8
ADF70-0904
370
              15
390
0
  6
Continuous
 62
               7
100
AcDbLine
 10
-267.97650913677808
 20
-336.0
 30
0.0
 11
-289.5396255927451
 21
-336.0
 31
0.0
  0
ARC
  5
FE
100
AcDbEntity
  8
ADF70-0904
370
              15
390
0
  6
Continuous
 62
               7
100
AcDbCircle
 10
-267.97650913677808
 20
-339.99999999999989
 30
0.0
 40
3.999999999999913
100
AcDbArc
 50
356.62459374397429
 51
90.0
  0
ARC
  5
FF
100
AcDbEntity
  8
ADF70-0904
370
              15
390
0
  6
Continuous
 62
               7
100
AcDbCircle
 10
-451.8607634567652
 20
-329.15446969397749
 30
0.0
 40
188.20381243187262
100
AcDbArc
 50
329.732555290927
 51
356.624593743974
  0
ARC
  5
100
100
AcDbEntity
  8
ADF70-0904
370
              15
390
0
  6
Continuous
 62
               7
100
AcDbCircle
 10
-292.76723116638567
 20
-421.99999999999915
 30
0.0
 40
4.0000000000002274
100
AcDbArc
 50
270.0
 51
329.73255529092319
  0
LINE
  5
101
100
AcDbEntity
  8
ADF70-0904
370
              15
390
0
  6
STYLE_01
 62
               7
100
AcDbLine
 10
-459.46886670371009
 20
-509.49718836923643
 30
0.0
 11
-518.28149422488229
 21
-509.49718836923643
 31
0.0
  0
LINE
  5
102
100
AcDbEntity
  8
ADF70-0904
370
              15
390
0
  6
Continuous
 62
               7
100
AcDbLine
 10
-613.96024964720891
 20
-516.06300345549062
 30
0.0
 11
-364.39059926237144
 21
-516.03196394088729
 31
0.0
  0
ARC
  5
103
100
AcDbEntity
  8
ADF70-0904
370
              15
390
0
  6
Continuous
 62
               7
100
AcDbCircle
 10
-486.16041731624387
 20
-383.1001981504387
 30
0.0
 40
186.14750497315495
100
AcDbArc
 50
193.32423377314927
 51
224.81180091597113
  0
ARC
  5
104
100
AcDbEntity
  8
ADF70-0904
370
              15
390
0
  6
Continuous
 62
               7
100
AcDbCircle
 10
-613.96327168390769
 20
-510.0630042165489
 30
0.0
 40
6.0000000000004796
100
AcDbArc
 50
224.83353088528892
 51
270.0288583259491
  0
LINE
  5
105
100
AcDbEntity
  8
ADF70-0904
370
              15
390
0
  6
STYLE_01
 62
               7
100
AcDbLine
 10
-518.28149422488229
 20
-497.55644022765949
 30
0.0
 11
-518.28149422488229
 21
-509.49718836923643
 31
0.0
  0
ARC
  5
106
100
AcDbEntity
  8
ADF70-0904
370
              15
390
0
  6
STYLE_01
 62
               7
100
AcDbCircle
 10
-524.28149422488218
 20
-497.55946226474208
 30
0.0
 40
6.0000007610588488
100
AcDbArc
 50
0.0288583259554906
 51
50.028858325952697
  0
LINE
  5
107
100
AcDbEntity
  8
ADF70-0904
370
              15
390
0
  6
STYLE_01
 62
               7
100
AcDbLine
 10
-534.17522591967736
 20
-481.4369869988397
 30
0.0
 11
-520.42708358147695
 21
-492.96125307803567
 31
0.0
  0
ARC
  5
108
100
AcDbEntity
  8
ADF70-0904
370
              15
390
0
  6
STYLE_01
 62
               7
100
AcDbCircle
 10
-538.02963656308236
 20
-486.03519618554543
 30
0.0
 40
6.0000007610581516
100
AcDbArc
 50
50.028858325951354
 51
90.669789371468212
  0
LWPOLYLINE
  5
109
100
AcDbEntity
  8
ADF70-0904
370
              15
390
0
  6
STYLE_01
 62
               7
100
AcDbPolyline
 90
        4
 70
             128
 10
-538.09977515342996
 20
-480.03560539026256
 42
-0.1590716030595497
 10
-583.06920961196784
 20
-465.93698905160085
 42
-0.1440587135187073
 10
-682.63704424184687
 20
-339.76371416297025
 42
0.3062884547278325
 10
-688.20472110523451
 20
-336.0
 42
0.3062884547278325
  0
LINE
  5
10A
100
AcDbEntity
  8
ADF70-0904
370
              15
390
0
  6
Continuous
 62
               7
100
AcDbLine
 10
-709.76783756120187
 20
-336.0
 30
0.0
 11
-688.20472110523451
 21
-336.0
 31
0.0
  0
ARC
  5
10B
100
AcDbEntity
  8
ADF70-0904
370
              15
390
0
  6
Continuous
 62
               7
100
AcDbCircle
 10
-709.76783756120199
 20
-340.00000000000006
 30
0.0
 40
4.0000000000000568
100
AcDbArc
 50
90.0
 51
183.37540625602202
  0
ARC
  5
10C
100
AcDbEntity
  8
ADF70-0904
370
              15
390
0
  6
Continuous
 62
               7
100
AcDbCircle
 10
-525.88358324121612
 20
-329.15446969397692
 30
0.0
 40
188.20381243187143
100
AcDbArc
 50
183.37540625602625
 51
210.26744470907346
  0
ARC
  5
10D
100
AcDbEntity
  8
ADF70-0904
370
              15
390
0
  6
Continuous
 62
               7
100
AcDbCircle
 10
-684.97711553159411
 20
-421.99999999999903
 30
0.0
 40
4.000000000000238
100
AcDbArc
 50
210.26744470907602
 51
270.0
  0
LINE
  5
10E
100
AcDbEntity
  8
ADF70-0904
370
              15
390
0
  6
Continuous
 62
               7
100
AcDbLine
 10
-292.76723116638567
 20
-425.99999999999937
 30
0.0
 11
-684.97711553159388
 21
-425.99999999999937
 31
0.0
  0
LINE
  5
10F
100
AcDbEntity
  8
ADF70-0904
370
              15
390
0
  6
Continuous
 62
               7
100
AcDbLine
 10
-289.5396255927451
 20
-336.0
 30
0.0
 11
-688.20472110523451
 21
-336.0
 31
0.0
  0
CIRCLE
  5
110
100
AcDbEntity
  8
ADF70-0904
370
               5
390
0
  6
STYLE_01
 62
               7
100
AcDbCircle
 10
420.12782665101042
 20
638.4963946247135
 30
0.0
 40
22.5
  0
CIRCLE
  5
111
100
AcDbEntity
  8
ADF70-0904
370
               5
390
0
  6
STYLE_01
 62
               7
100
AcDbCircle
 10
420.12782665101042
 20
638.4963946247135
 30
0.0
 40
225.0
  0
CIRCLE
  5
112
100
AcDbEntity
  8
ADF70-0904
370
              15
390
0
  6
Continuous
 62
               7
100
AcDbCircle
 10
420.12782665101042
 20
638.4963946247135
 30
0.0
 40
182.5
  0
CIRCLE
  5
113
100
AcDbEntity
  8
ADF70-0904
370
              15
390
0
  6
Continuous
 62
               7
100
AcDbCircle
 10
420.12782665101042
 20
638.4963946247135
 30
0.0
 40
50.0
  0
ENDSEC
  0
SECTION
  2
OBJECTS
  0
DICTIONARY
  5
19
100
AcDbDictionary
280
               0
281
               1
  3
ACAD_GROUP
350
1A
  3
ACAD_MLINESTYLE
350
1B
  3
ACAD_LAYOUT
350
1E
  3
ACAD_PLOTSETTINGS
350
22
  3
ACAD_PLOTSTYLENAME
350
1F
  0
DICTIONARY
  5
1A
102
{ACAD_REACTORS
330
19
102
}
100
AcDbDictionary
280
               0
281
               1
  0
DICTIONARY
  5
1B
102
{ACAD_REACTORS
330
19
102
}
100
AcDbDictionary
280
               0
281
               1
  3
Standard
350
1C
  0
MLINESTYLE
  5
1C
102
{ACAD_REACTORS
330
1B
102
}
100
AcDbMlineStyle
  2
Standard
 70
               0
  3

 62
               0
 51
90.0
 52
90.0
 71
               2
 49
0.5
 62
             256
  6
ByLayer
 49
-0.5
 62
             256
  6
ByLayer
  0
ACDBDICTIONARYWDFLT
  5
1F
102
{ACAD_REACTORS
330
19
102
}
100
AcDbDictionary
281
               1
  3
Normal
350
1D
100
AcDbDictionaryWithDefault
340
1D
  0
ACDBPLACEHOLDER
  5
1D
102
{ACAD_REACTORS
330
1F
102
}
  0
LAYOUT
  5
20
102
{ACAD_REACTORS
330
1E
102
}
100
AcDbPlotSettings
  1

  2

  4

  6

 40
0.0
 41
0.0
 42
0.0
 43
0.0
 44
0.0
 45
0.0
 46
0.0
 47
0.0
 48
0.0
 49
0.0
140
0.0
141
0.0
142
1.0
143
1.0
 70
            1024
 72
               0
 73
               0
 74
               0
  7

 75
               0
147
1.0
148
0.0
149
0.0
100
AcDbLayout
  1
Model
 70
               0
 71
               0
 10
0.0
 20
0.0
 11
0.0
 21
0.0
 12
0.0
 22
0.0
 32
0.0
 14
0.0
 24
0.0
 34
0.0
 15
0.0
 25
0.0
 35
0.0
146
0.0
 13
0.0
 23
0.0
 33
0.0
 16
0.0
 26
0.0
 36
0.0
 17
0.0
 27
0.0
 37
0.0
 76
               0
330
A
331
0
345
0
346
0
  0
LAYOUT
  5
21
102
{ACAD_REACTORS
330
1E
102
}
100
AcDbPlotSettings
  1

  2

  4

  6

 40
0.0
 41
0.0
 42
0.0
 43
0.0
 44
0.0
 45
0.0
 46
0.0
 47
0.0
 48
0.0
 49
0.0
140
0.0
141
0.0
142
1.0
143
1.0
 70
               0
 72
               0
 73
               0
 74
               0
  7

 75
               0
147
1.0
148
0.0
149
0.0
100
AcDbLayout
  1
Layout1
 70
               0
 71
               0
 10
0.0
 20
0.0
 11
0.0
 21
0.0
 12
0.0
 22
0.0
 32
0.0
 14
0.0
 24
0.0
 34
0.0
 15
0.0
 25
0.0
 35
0.0
146
0.0
 13
0.0
 23
0.0
 33
0.0
 16
0.0
 26
0.0
 36
0.0
 17
0.0
 27
0.0
 37
0.0
 76
               0
330
B
331
0
345
0
346
0
  0
DICTIONARY
  5
1E
102
{ACAD_REACTORS
330
19
102
}
100
AcDbDictionary
280
               0
281
               1
  3
Layout1
350
21
  3
Model
350
20
  0
DICTIONARY
  5
22
102
{ACAD_REACTORS
330
19
102
}
100
AcDbDictionary
280
               0
281
               1
  0
ENDSEC
  0
EOF
