  0
SECTION
  2
HEADER
  9
$ACADVER
  1
AC1015
  9
$ACADMAINTVER
 70
               6
  9
$DWGCODEPAGE
  3
ANSI_932
  9
$INSBASE
 10
0.0
 20
0.0
 30
0.0
  9
$EXTMIN
 10
-975.00000000024136
 20
-1431.5255224711129
 30
-14.834305555555554
  9
$EXTMAX
 10
975.00000000024124
 20
1405.9972926412995
 30
14.834305555555554
  9
$LIMMIN
 10
0.0
 20
0.0
  9
$LIMMAX
 10
0.0
 20
0.0
  9
$ORTHOMODE
 70
               0
  9
$REGENMODE
 70
               1
  9
$FILLMODE
 70
               1
  9
$QTEXTMODE
 70
               0
  9
$MIRRTEXT
 70
               1
  9
$LTSCALE
 40
12.699999999999999
  9
$ATTMODE
 70
               1
  9
$TEXTSIZE
 40
0.2
  9
$TRACEWID
 40
1.0
  9
$TEXTSTYLE
  7
Standard
  9
$CLAYER
  8
notes
  9
$CELTYPE
  6
Continuous
  9
$CECOLOR
 62
             256
  9
$CELTSCALE
 40
1.0
  9
$DISPSILH
 70
               0
  9
$DIMSCALE
 40
1.0
  9
$DIMASZ
 40
22.4482421875
  9
$DIMEXO
 40
19.999999999996199
  9
$DIMDLI
 40
10.000000000000639
  9
$DIMRND
 40
0.0
  9
$DIMDLE
 40
1.00000000000108
  9
$DIMEXE
 40
30.000000000006999
  9
$DIMTP
 40
0.0
  9
$DIMTM
 40
0.0
  9
$DIMTXT
 40
24.432617187500004
  9
$DIMCEN
 40
0.0
  9
$DIMTSZ
 40
0.0
  9
$DIMTOL
 70
               0
  9
$DIMLIM
 70
               0
  9
$DIMTIH
 70
               0
  9
$DIMTOH
 70
               0
  9
$DIMSE1
 70
               0
  9
$DIMSE2
 70
               0
  9
$DIMTAD
 70
               1
  9
$DIMZIN
 70
              11
  9
$DIMBLK
  1
VW_SLASH
  9
$DIMASO
 70
               1
  9
$DIMSHO
 70
               1
  9
$DIMPOST
  1
<>
  9
$DIMAPOST
  1
[]
  9
$DIMALT
 70
               0
  9
$DIMALTD
 70
               1
  9
$DIMALTF
 40
1.0
  9
$DIMLFAC
 40
1.0
  9
$DIMTOFL
 70
               1
  9
$DIMTVP
 40
0.0
  9
$DIMTIX
 70
               1
  9
$DIMSOXD
 70
               0
  9
$DIMSAH
 70
               0
  9
$DIMBLK1
  1

  9
$DIMBLK2
  1

  9
$DIMSTYLE
  2
SIA
  9
$DIMCLRD
 70
               0
  9
$DIMCLRE
 70
               0
  9
$DIMCLRT
 70
               0
  9
$DIMTFAC
 40
1.0
  9
$DIMGAP
 40
3.0000000000006999
  9
$DIMJUST
 70
               0
  9
$DIMSD1
 70
               0
  9
$DIMSD2
 70
               0
  9
$DIMTOLJ
 70
               1
  9
$DIMTZIN
 70
              11
  9
$DIMALTZ
 70
              11
  9
$DIMALTTZ
 70
              11
  9
$DIMUPT
 70
               0
  9
$DIMDEC
 70
               1
  9
$DIMTDEC
 70
               1
  9
$DIMALTU
 70
               2
  9
$DIMALTTD
 70
               2
  9
$DIMTXSTY
  7
ＭＳ ゴシック
  9
$DIMAUNIT
 70
               0
  9
$DIMADEC
 70
               2
  9
$DIMALTRND
 40
0.0
  9
$DIMAZIN
 70
               0
  9
$DIMDSEP
 70
              46
  9
$DIMATFIT
 70
               0
  9
$DIMFRAC
 70
               2
  9
$DIMLDRBLK
  1

  9
$DIMLUNIT
 70
               2
  9
$DIMLWD
 70
              -2
  9
$DIMLWE
 70
              -2
  9
$DIMTMOVE
 70
               0
  9
$LUNITS
 70
               2
  9
$LUPREC
 70
               4
  9
$SKETCHINC
 40
0.1
  9
$FILLETRAD
 40
0.0
  9
$AUNITS
 70
               0
  9
$AUPREC
 70
               0
  9
$MENU
  1
acad
  9
$ELEVATION
 40
0.0
  9
$PELEVATION
 40
0.0
  9
$THICKNESS
 40
0.0
  9
$LIMCHECK
 70
               0
  9
$CHAMFERA
 40
0.0
  9
$CHAMFERB
 40
0.0
  9
$CHAMFERC
 40
0.0
  9
$CHAMFERD
 40
0.0
  9
$SKPOLY
 70
               0
  9
$TDCREATE
 40
2456041.688761574
  9
$TDUCREATE
 40
0.000000000
  9
$TDUPDATE
 40
2456041.688761574
  9
$TDUUPDATE
 40
0.000000000
  9
$TDINDWG
 40
0.0000000000
  9
$TDUSRTIMER
 40
0.0000000000
  9
$USRTIMER
 70
               1
  9
$ANGBASE
 50
0.0
  9
$ANGDIR
 70
               0
  9
$PDMODE
 70
               1
  9
$PDSIZE
 40
-2.0
  9
$PLINEWID
 40
0.0
  9
$SPLFRAME
 70
               0
  9
$SPLINETYPE
 70
               6
  9
$SPLINESEGS
 70
               8
  9
$HANDSEED
  5
215
  9
$SURFTAB1
 70
               6
  9
$SURFTAB2
 70
               6
  9
$SURFTYPE
 70
               6
  9
$SURFU
 70
               6
  9
$SURFV
 70
               6
  9
$UCSBASE
  2

  9
$UCSNAME
  2

  9
$UCSORG
 10
0.0
 20
0.0
 30
0.0
  9
$UCSXDIR
 10
1.0
 20
0.0
 30
0.0
  9
$UCSYDIR
 10
0.0
 20
1.0
 30
0.0
  9
$UCSORTHOREF
  2

  9
$UCSORTHOVIEW
 70
               0
  9
$UCSORGTOP
 10
0.0
 20
0.0
 30
0.0
  9
$UCSORGBOTTOM
 10
0.0
 20
0.0
 30
0.0
  9
$UCSORGLEFT
 10
0.0
 20
0.0
 30
0.0
  9
$UCSORGRIGHT
 10
0.0
 20
0.0
 30
0.0
  9
$UCSORGFRONT
 10
0.0
 20
0.0
 30
0.0
  9
$UCSORGBACK
 10
0.0
 20
0.0
 30
0.0
  9
$PUCSBASE
  2

  9
$PUCSNAME
  2

  9
$PUCSORG
 10
0.0
 20
0.0
 30
0.0
  9
$PUCSXDIR
 10
1.0
 20
0.0
 30
0.0
  9
$PUCSYDIR
 10
0.0
 20
1.0
 30
0.0
  9
$PUCSORTHOREF
  2

  9
$PUCSORTHOVIEW
 70
               0
  9
$PUCSORGTOP
 10
0.0
 20
0.0
 30
0.0
  9
$PUCSORGBOTTOM
 10
0.0
 20
0.0
 30
0.0
  9
$PUCSORGLEFT
 10
0.0
 20
0.0
 30
0.0
  9
$PUCSORGRIGHT
 10
0.0
 20
0.0
 30
0.0
  9
$PUCSORGFRONT
 10
0.0
 20
0.0
 30
0.0
  9
$PUCSORGBACK
 10
0.0
 20
0.0
 30
0.0
  9
$USERI1
 70
               0
  9
$USERI2
 70
               0
  9
$USERI3
 70
               0
  9
$USERI4
 70
               0
  9
$USERI5
 70
               0
  9
$USERR1
 40
0.0
  9
$USERR2
 40
0.0
  9
$USERR3
 40
0.0
  9
$USERR4
 40
0.0
  9
$USERR5
 40
0.0
  9
$WORLDVIEW
 70
               1
  9
$SHADEDGE
 70
               3
  9
$SHADEDIF
 70
              70
  9
$TILEMODE
 70
               1
  9
$MAXACTVP
 70
              64
  9
$PINSBASE
 10
0.0
 20
0.0
 30
0.0
  9
$PLIMCHECK
 70
               0
  9
$PEXTMIN
 10
1.0000000000000000E+20
 20
1.0000000000000000E+20
 30
1.0000000000000000E+20
  9
$PEXTMAX
 10
-1.0000000000000000E+20
 20
-1.0000000000000000E+20
 30
-1.0000000000000000E+20
  9
$PLIMMIN
 10
0.0
 20
0.0
  9
$PLIMMAX
 10
12.0
 20
9.0
  9
$UNITMODE
 70
               0
  9
$VISRETAIN
 70
               0
  9
$PLINEGEN
 70
               1
  9
$PSLTSCALE
 70
               0
  9
$TREEDEPTH
 70
            3020
  9
$CMLSTYLE
  2
Standard
  9
$CMLJUST
 70
               0
  9
$CMLSCALE
 40
1.0
  9
$PROXYGRAPHICS
 70
               0
  9
$MEASUREMENT
 70
               1
  9
$CELWEIGHT
370
               0
  9
$ENDCAPS
280
               0
  9
$JOINSTYLE
280
               0
  9
$LWDISPLAY
290
               1
  9
$INSUNITS
 70
               4
  9
$HYPERLINKBASE
  1

  9
$STYLESHEET
  1

  9
$XEDIT
290
               1
  9
$CEPSNTYPE
380
               0
  9
$PSTYLEMODE
290
               1
  9
$FINGERPRINTGUID
  2

  9
$VERSIONGUID
  2

  9
$EXTNAMES
290
               1
  9
$PSVPSCALE
 40
0.0
  0
ENDSEC
  0
SECTION
  2
CLASSES
  0
CLASS
  1
LWPOLYLINE
  2
AcDbPolyline
  3
AutoCAD 2000
 90
        0
280
               0
281
               1
  0
CLASS
  1
IMAGE
  2
AcDbRasterImage
  3
ISM
 90
      127
280
               0
281
               1
  0
CLASS
  1
OLE2FRAME
  2
AcDbOle2Frame
  3
AutoCAD 2000
 90
        0
280
               0
281
               1
  0
CLASS
  1
HATCH
  2
AcDbHatch
  3
AutoCAD 2000
 90
        0
280
               0
281
               1
  0
CLASS
  1
DICTIONARYVAR
  2
AcDbDictionaryVar
  3
AutoCAD 2000
 90
        0
280
               0
281
               0
  0
CLASS
  1
RASTERVARIABLES
  2
AcDbRasterVariables
  3
ISM
 90
        0
280
               0
281
               0
  0
CLASS
  1
IMAGEDEF
  2
AcDbRasterImageDef
  3
ISM
 90
        0
280
               0
281
               0
  0
CLASS
  1
IMAGEDEF_REACTOR
  2
AcDbRasterImageDefReactor
  3
ISM
 90
        1
280
               0
281
               0
  0
CLASS
  1
IDBUFFER
  2
AcDbIdBuffer
  3
AutoCAD 2000
 90
        0
280
               0
281
               0
  0
CLASS
  1
SPATIAL_FILTER
  2
AcDbSpatialFilter
  3
AutoCAD 2000
 90
        0
280
               0
281
               0
  0
CLASS
  1
XRECORD
  2
AcDbXrecord
  3
AutoCAD 2000
 90
        0
280
               0
281
               0
  0
CLASS
  1
SORTENTSTABLE
  2
AcDbSortentsTable
  3
AutoCAD 2000
 90
        0
280
               0
281
               0
  0
CLASS
  1
LAYER_INDEX
  2
AcDbLayerIndex
  3
AutoCAD 2000
 90
        0
280
               0
281
               0
  0
CLASS
  1
SPATIAL_INDEX
  2
AcDbSpatialIndex
  3
AutoCAD 2000
 90
        0
280
               0
281
               0
  0
CLASS
  1
OBJECT_PTR
  2
CAseDLPNTableRecord
  3
"ASE-LPNTableRecord"
 90
        1
280
               0
281
               0
  0
CLASS
  1
LAYOUT
  2
AcDbLayout
  3
AutoCAD 2000
 90
        0
280
               0
281
               0
  0
CLASS
  1
PLOTSETTINGS
  2
AcDbPlotSettings
  3
AutoCAD 2000
 90
        0
280
               0
281
               0
  0
CLASS
  1
ACDBDICTIONARYWDFLT
  2
AcDbDictionaryWithDefault
  3
AutoCAD 2000
 90
        0
280
               0
281
               0
  0
CLASS
  1
ACDBPLACEHOLDER
  2
AcDbPlaceHolder
  3
AutoCAD 2000
 90
        0
280
               0
281
               0
  0
ENDSEC
  0
SECTION
  2
TABLES
  0
TABLE
  2
VPORT
  5
7
100
AcDbSymbolTable
 70
               1
  0
VPORT
  5
15
100
AcDbSymbolTableRecord
100
AcDbViewportTableRecord
  2
*ACTIVE
 70
               0
 10
0.0
 20
0.0
 11
1.0
 21
1.0
 12
-0.0000000000001137
 22
-12.764114914906713
 13
0.0
 23
0.0
 14
1.0
 24
1.0
 15
0.0
 25
0.0
 16
0.0
 26
0.0
 36
1.0
 17
0.0
 27
0.0
 37
0.0
 40
2837.5228151124124
 41
0.688564
 42
50.0
 43
0.0
 44
0.0
 50
0.0
 51
0.0
 71
               0
 72
            2000
 73
               1
 74
               1
 75
               0
 76
               0
 77
               0
 78
               0
281
               0
 65
               0
110
0.0
120
0.0
130
0.0
111
1.0
121
0.0
131
0.0
112
0.0
122
1.0
132
0.0
345
0
346
0
 79
               0
146
0.0
  0
ENDTAB
  0
TABLE
  2
LTYPE
  5
4
100
AcDbSymbolTable
 70
              15
  0
LTYPE
  5
11
100
AcDbSymbolTableRecord
100
AcDbLinetypeTableRecord
  2
ByBlock
 70
              64
  3

 72
              65
 73
               0
 40
0.0
  0
LTYPE
  5
12
100
AcDbSymbolTableRecord
100
AcDbLinetypeTableRecord
  2
ByLayer
 70
              64
  3

 72
              65
 73
               0
 40
0.0
  0
LTYPE
  5
13
100
AcDbSymbolTableRecord
100
AcDbLinetypeTableRecord
  2
Continuous
 70
              64
  3
Solid line
 72
              65
 73
               0
 40
0.0
  0
LTYPE
  5
3B
100
AcDbSymbolTableRecord
100
AcDbLinetypeTableRecord
  2
STYLE_01
 70
               0
  3

 72
              65
 73
               2
 40
0.6944444444444443
 49
0.4166666666666666
 74
               0
 49
-0.2777777777777778
 74
               0
  0
LTYPE
  5
3C
100
AcDbSymbolTableRecord
100
AcDbLinetypeTableRecord
  2
STYLE_02
 70
               0
  3

 72
              65
 73
               2
 40
0.5555555555555556
 49
0.2777777777777778
 74
               0
 49
-0.2777777777777778
 74
               0
  0
LTYPE
  5
3D
100
AcDbSymbolTableRecord
100
AcDbLinetypeTableRecord
  2
STYLE_03
 70
               0
  3

 72
              65
 73
               6
 40
0.8888889186912112
 49
0.166666673289405
 74
               0
 49
-0.1111111127667957
 74
               0
 49
0.166666673289405
 74
               0
 49
-0.166666673289405
 74
               0
 49
0.1111111127667957
 74
               0
 49
-0.166666673289405
 74
               0
  0
LTYPE
  5
3E
100
AcDbSymbolTableRecord
100
AcDbLinetypeTableRecord
  2
STYLE_04
 70
               0
  3

 72
              65
 73
               6
 40
0.8888889186912112
 49
0.166666673289405
 74
               0
 49
-0.1111111127667957
 74
               0
 49
0.166666673289405
 74
               0
 49
-0.166666673289405
 74
               0
 49
0.1111111127667957
 74
               0
 49
-0.166666673289405
 74
               0
  0
LTYPE
  5
3F
100
AcDbSymbolTableRecord
100
AcDbLinetypeTableRecord
  2
STYLE_05
 70
               0
  3

 72
              65
 73
               6
 40
0.8888889186912112
 49
0.166666673289405
 74
               0
 49
-0.1111111127667957
 74
               0
 49
0.166666673289405
 74
               0
 49
-0.166666673289405
 74
               0
 49
0.1111111127667957
 74
               0
 49
-0.166666673289405
 74
               0
  0
LTYPE
  5
40
100
AcDbSymbolTableRecord
100
AcDbLinetypeTableRecord
  2
STYLE_06
 70
               0
  3

 72
              65
 73
               6
 40
0.8888889186912112
 49
0.166666673289405
 74
               0
 49
-0.1111111127667957
 74
               0
 49
0.166666673289405
 74
               0
 49
-0.166666673289405
 74
               0
 49
0.1111111127667957
 74
               0
 49
-0.166666673289405
 74
               0
  0
LTYPE
  5
41
100
AcDbSymbolTableRecord
100
AcDbLinetypeTableRecord
  2
STYLE_07
 70
               0
  3

 72
              65
 73
               6
 40
0.8888889186912112
 49
0.166666673289405
 74
               0
 49
-0.1111111127667957
 74
               0
 49
0.166666673289405
 74
               0
 49
-0.166666673289405
 74
               0
 49
0.1111111127667957
 74
               0
 49
-0.166666673289405
 74
               0
  0
LTYPE
  5
42
100
AcDbSymbolTableRecord
100
AcDbLinetypeTableRecord
  2
STYLE_08
 70
               0
  3

 72
              65
 73
               6
 40
0.8888889186912112
 49
0.166666673289405
 74
               0
 49
-0.1111111127667957
 74
               0
 49
0.166666673289405
 74
               0
 49
-0.166666673289405
 74
               0
 49
0.1111111127667957
 74
               0
 49
-0.166666673289405
 74
               0
  0
LTYPE
  5
43
100
AcDbSymbolTableRecord
100
AcDbLinetypeTableRecord
  2
STYLE_09
 70
               0
  3

 72
              65
 73
               4
 40
20.0
 49
15.0
 74
               0
 49
-1.1111399999999994
 74
               0
 49
2.7777200000000013
 74
               0
 49
-1.1111399999999994
 74
               0
  0
LTYPE
  5
44
100
AcDbSymbolTableRecord
100
AcDbLinetypeTableRecord
  2
STYLE_10
 70
               0
  3

 72
              65
 73
               6
 40
23.75
 49
15.0
 74
               0
 49
-1.1111399999999994
 74
               0
 49
2.7777200000000013
 74
               0
 49
-1.1111399999999994
 74
               0
 49
2.5
 74
               0
 49
-1.25
 74
               0
  0
LTYPE
  5
45
100
AcDbSymbolTableRecord
100
AcDbLinetypeTableRecord
  2
STYLE_11
 70
               0
  3

 72
              65
 73
               2
 40
0.2777779527559055
 49
0.1388889763779528
 74
               0
 49
-0.1388889763779528
 74
               0
  0
LTYPE
  5
46
100
AcDbSymbolTableRecord
100
AcDbLinetypeTableRecord
  2
STYLE_12
 70
               0
  3

 72
              65
 73
               2
 40
1.5748031496062991
 49
0.7874015748031495
 74
               0
 49
-0.7874015748031495
 74
               0
  0
ENDTAB
  0
TABLE
  2
LAYER
  5
2
100
AcDbSymbolTable
 70
               5
  0
LAYER
  5
14
100
AcDbSymbolTableRecord
100
AcDbLayerTableRecord
  2
0
 70
               0
 62
               7
  6
Continuous
290
               1
370
              -3
390
1D
  0
LAYER
  5
47
100
AcDbSymbolTableRecord
100
AcDbLayerTableRecord
  2
Defpoints
 70
               0
 62
               7
  6
Continuous
290
               0
370
              -3
390
1D
  0
LAYER
  5
48
100
AcDbSymbolTableRecord
100
AcDbLayerTableRecord
  2
template
 70
               0
 62
               7
  6
Continuous
290
               1
370
              -3
390
1D
  0
LAYER
  5
49
100
AcDbSymbolTableRecord
100
AcDbLayerTableRecord
  2
notes
 70
               0
 62
               7
  6
Continuous
290
               1
370
              -3
390
1D
  0
LAYER
  5
4A
100
AcDbSymbolTableRecord
100
AcDbLayerTableRecord
  2
ADF70-1101
 70
               0
 62
               7
  6
Continuous
290
               1
370
              -3
390
1D
  0
ENDTAB
  0
TABLE
  2
STYLE
  5
3
100
AcDbSymbolTable
 70
               2
  0
STYLE
  5
17
100
AcDbSymbolTableRecord
100
AcDbTextStyleTableRecord
  2
Standard
 70
               0
 40
0.0
 41
1.0
 50
0.0
 71
               0
 42
0.0
  3
txt
  4
BIGFONT.SHX
  0
STYLE
  5
3A
100
AcDbSymbolTableRecord
100
AcDbTextStyleTableRecord
  2
ＭＳ ゴシック
 70
               0
 40
0.0
 41
1.0
 50
0.0
 71
               0
 42
0.0
  3

  4
ＭＳ ゴシック
1001
ACAD
1000
ＭＳ ゴシック
1071
        0
  0
ENDTAB
  0
TABLE
  2
VIEW
  5
5
100
AcDbSymbolTable
 70
               0
  0
ENDTAB
  0
TABLE
  2
UCS
  5
6
100
AcDbSymbolTable
 70
               0
  0
ENDTAB
  0
TABLE
  2
APPID
  5
8
100
AcDbSymbolTable
 70
               1
  0
APPID
  5
16
100
AcDbSymbolTableRecord
100
AcDbRegAppTableRecord
  2
ACAD
 70
               0
  0
ENDTAB
  0
TABLE
  2
DIMSTYLE
  5
9
100
AcDbSymbolTable
 70
               3
100
AcDbDimStyleTable
 71
               0
  0
DIMSTYLE
105
18
100
AcDbSymbolTableRecord
100
AcDbDimStyleTableRecord
  2
Standard
 70
               0
  3

  4

 40
1.0
 41
0.18
 42
0.0625
 43
0.38
 44
0.18
 45
0.0
 46
0.0
 47
0.0
 48
0.0
 71
               0
 72
               0
 73
               1
 74
               1
 75
               0
 76
               0
 77
               0
 78
               0
 79
               0
140
0.18
141
0.09
142
0.0
143
25.399999999999999
144
1.0
145
0.0
146
1.0
147
0.09
148
0.0
170
               0
171
               2
172
               0
173
               0
174
               0
175
               0
176
               0
177
               0
178
               0
179
               0
271
               4
272
               4
273
               2
274
               2
275
               0
276
               0
277
               2
278
              46
279
               0
280
               0
281
               0
282
               0
283
               1
284
               0
285
               0
286
               0
288
               0
289
               3
340
17
341
0
342
0
343
0
344
0
371
              -2
372
              -2
  0
DIMSTYLE
105
53
100
AcDbSymbolTableRecord
100
AcDbDimStyleTableRecord
  2
tform線あり
 70
               0
  3
<>
  4
[]
 40
1.0
 41
9.9993896484374982
 42
24.999999999999996
 43
0.9999999999999999
 44
0.0
 45
0.0
 46
0.0
 47
0.0
 48
0.0
 71
               0
 72
               0
 73
               0
 74
               0
 75
               0
 76
               0
 77
               1
 78
              11
 79
               0
140
24.432617187500004
141
0.0
142
0.0
143
1.0
144
1.0
145
0.0
146
1.0
147
0.4999999999999999
148
0.0
170
               0
171
               1
172
               1
173
               0
174
               1
175
               0
176
               0
177
               0
178
               0
179
               2
271
               1
272
               1
273
               2
274
               2
275
               0
276
               2
277
               2
278
              46
279
               0
280
               0
281
               0
282
               0
283
               1
284
              11
285
              11
286
              11
288
               0
289
               0
340
3A
341
4B
342
4B
343
0
344
0
371
              -2
372
              -2
  0
DIMSTYLE
105
5D
100
AcDbSymbolTableRecord
100
AcDbDimStyleTableRecord
  2
SIA
 70
               0
  3
<>
  4
[]
 40
1.0
 41
22.4482421875
 42
19.999999999996199
 43
10.000000000000639
 44
30.000000000006999
 45
0.0
 46
1.00000000000108
 47
0.0
 48
0.0
 71
               0
 72
               0
 73
               0
 74
               0
 75
               0
 76
               0
 77
               1
 78
              11
 79
               0
140
24.432617187500004
141
0.0
142
0.0
143
1.0
144
1.0
145
0.0
146
1.0
147
3.0000000000006999
148
0.0
170
               0
171
               1
172
               1
173
               0
174
               1
175
               0
176
               0
177
               0
178
               0
179
               2
271
               1
272
               1
273
               2
274
               2
275
               0
276
               2
277
               2
278
              46
279
               0
280
               0
281
               0
282
               0
283
               1
284
              11
285
              11
286
              11
288
               0
289
               0
340
3A
341
59
342
54
343
0
344
0
371
              -2
372
              -2
  0
ENDTAB
  0
TABLE
  2
BLOCK_RECORD
  5
1
100
AcDbSymbolTable
 70
              26
  0
BLOCK_RECORD
  5
A
100
AcDbSymbolTableRecord
100
AcDbBlockTableRecord
  2
*MODEL_SPACE
340
20
  0
BLOCK_RECORD
  5
B
100
AcDbSymbolTableRecord
100
AcDbBlockTableRecord
  2
*PAPER_SPACE
340
21
  0
BLOCK_RECORD
  5
4B
100
AcDbSymbolTableRecord
100
AcDbBlockTableRecord
  2
_DOT
340
0
  0
BLOCK_RECORD
  5
54
100
AcDbSymbolTableRecord
100
AcDbBlockTableRecord
  2
VW_SLASH
340
0
  0
BLOCK_RECORD
  5
59
100
AcDbSymbolTableRecord
100
AcDbBlockTableRecord
  2
VW_FILLEDARROW
340
0
  0
BLOCK_RECORD
  5
23
100
AcDbSymbolTableRecord
100
AcDbBlockTableRecord
  2
グループ
340
0
102
{BLKREFS
331
18F
102
}
  0
BLOCK_RECORD
  5
24
100
AcDbSymbolTableRecord
100
AcDbBlockTableRecord
  2
*D4
340
0
  0
BLOCK_RECORD
  5
25
100
AcDbSymbolTableRecord
100
AcDbBlockTableRecord
  2
*D5
340
0
  0
BLOCK_RECORD
  5
26
100
AcDbSymbolTableRecord
100
AcDbBlockTableRecord
  2
*D6
340
0
  0
BLOCK_RECORD
  5
27
100
AcDbSymbolTableRecord
100
AcDbBlockTableRecord
  2
*D7
340
0
  0
BLOCK_RECORD
  5
28
100
AcDbSymbolTableRecord
100
AcDbBlockTableRecord
  2
*D8
340
0
  0
BLOCK_RECORD
  5
29
100
AcDbSymbolTableRecord
100
AcDbBlockTableRecord
  2
*D9
340
0
  0
BLOCK_RECORD
  5
2A
100
AcDbSymbolTableRecord
100
AcDbBlockTableRecord
  2
*D10
340
0
  0
BLOCK_RECORD
  5
2B
100
AcDbSymbolTableRecord
100
AcDbBlockTableRecord
  2
*D11
340
0
  0
BLOCK_RECORD
  5
2C
100
AcDbSymbolTableRecord
100
AcDbBlockTableRecord
  2
*D12
340
0
  0
BLOCK_RECORD
  5
2D
100
AcDbSymbolTableRecord
100
AcDbBlockTableRecord
  2
*D13
340
0
  0
BLOCK_RECORD
  5
2E
100
AcDbSymbolTableRecord
100
AcDbBlockTableRecord
  2
*D14
340
0
  0
BLOCK_RECORD
  5
2F
100
AcDbSymbolTableRecord
100
AcDbBlockTableRecord
  2
*D15
340
0
  0
BLOCK_RECORD
  5
30
100
AcDbSymbolTableRecord
100
AcDbBlockTableRecord
  2
*D16
340
0
  0
BLOCK_RECORD
  5
31
100
AcDbSymbolTableRecord
100
AcDbBlockTableRecord
  2
*D17
340
0
  0
BLOCK_RECORD
  5
32
100
AcDbSymbolTableRecord
100
AcDbBlockTableRecord
  2
*D18
340
0
  0
BLOCK_RECORD
  5
33
100
AcDbSymbolTableRecord
100
AcDbBlockTableRecord
  2
*D19
340
0
  0
BLOCK_RECORD
  5
34
100
AcDbSymbolTableRecord
100
AcDbBlockTableRecord
  2
*D20
340
0
  0
BLOCK_RECORD
  5
35
100
AcDbSymbolTableRecord
100
AcDbBlockTableRecord
  2
*D21
340
0
  0
BLOCK_RECORD
  5
36
100
AcDbSymbolTableRecord
100
AcDbBlockTableRecord
  2
*D22
340
0
  0
BLOCK_RECORD
  5
37
100
AcDbSymbolTableRecord
100
AcDbBlockTableRecord
  2
*D23
340
0
  0
BLOCK_RECORD
  5
38
100
AcDbSymbolTableRecord
100
AcDbBlockTableRecord
  2
*D24
340
0
  0
BLOCK_RECORD
  5
39
100
AcDbSymbolTableRecord
100
AcDbBlockTableRecord
  2
*D25
340
0
  0
ENDTAB
  0
ENDSEC
  0
SECTION
  2
BLOCKS
  0
BLOCK
  5
D
100
AcDbEntity
  8
0
390
0
100
AcDbBlockBegin
  2
*MODEL_SPACE
 70
               0
 10
0.0
 20
0.0
 30
0.0
  3
*MODEL_SPACE
  1

  0
ENDBLK
  5
E
100
AcDbEntity
  8
0
390
0
100
AcDbBlockEnd
  0
BLOCK
  5
F
100
AcDbEntity
 67
               1
  8
0
390
0
100
AcDbBlockBegin
  2
*PAPER_SPACE
 70
               0
 10
0.0
 20
0.0
 30
0.0
  3
*PAPER_SPACE
  1

  0
ENDBLK
  5
10
100
AcDbEntity
 67
               1
  8
0
390
0
100
AcDbBlockEnd
  0
BLOCK
  5
4C
100
AcDbEntity
  8
0
390
0
100
AcDbBlockBegin
  2
_DOT
 70
               0
 10
0.0
 20
0.0
 30
0.0
  3
_DOT
  1

  0
POLYLINE
  5
4D
100
AcDbEntity
  8
0
370
              -2
390
0
  6
ByBlock
 62
               0
100
AcDb2dPolyline
 66
               1
 10
0.0
 20
0.0
 30
0.0
 70
               1
 40
0.5
 41
0.5
  0
VERTEX
  5
4E
100
AcDbEntity
  8
0
370
              -2
390
0
  6
ByBlock
 62
               0
100
AcDbVertex
100
AcDb2dVertex
 10
-0.25
 20
0.0
 30
0.0
 42
1.0
  0
VERTEX
  5
4F
100
AcDbEntity
  8
0
370
              -2
390
0
  6
ByBlock
 62
               0
100
AcDbVertex
100
AcDb2dVertex
 10
0.25
 20
0.0
 30
0.0
 42
1.0
  0
SEQEND
  5
50
100
AcDbEntity
  8
0
390
0
  0
LINE
  5
51
100
AcDbEntity
  8
0
370
              -2
390
0
  6
ByBlock
 62
               0
100
AcDbLine
 10
-0.5
 20
0.0
 30
0.0
 11
-1.0
 21
0.0
 31
0.0
  0
ENDBLK
  5
52
100
AcDbEntity
  8
0
390
0
100
AcDbBlockEnd
  0
BLOCK
  5
55
100
AcDbEntity
  8
0
370
              -2
390
0
  6
ByBlock
 62
               0
100
AcDbBlockBegin
  2
VW_SLASH
 70
               0
 10
0.0
 20
0.0
 30
0.0
  3
VW_SLASH
  1

  0
LINE
  5
56
100
AcDbEntity
  8
0
370
              -2
390
0
  6
ByBlock
 62
               0
100
AcDbLine
 10
0.0
 20
0.0
 30
0.0
 11
-1.0
 21
0.0
 31
0.0
  0
LINE
  5
57
100
AcDbEntity
  8
0
370
              20
390
0
  6
ByBlock
 62
               0
100
AcDbLine
 10
-0.4987813153181721
 20
-0.4987813153181719
 30
0.0
 11
0.4987813153181721
 21
0.4987813153181719
 31
0.0
  0
ENDBLK
  5
58
100
AcDbEntity
  8
0
390
0
100
AcDbBlockEnd
  0
BLOCK
  5
5A
100
AcDbEntity
  8
0
370
              -2
390
0
  6
ByBlock
 62
               0
100
AcDbBlockBegin
  2
VW_FILLEDARROW
 70
               0
 10
0.0
 20
0.0
 30
0.0
  3
VW_FILLEDARROW
  1

  0
SOLID
  5
5B
100
AcDbEntity
  8
0
370
              -2
390
0
 62
               0
100
AcDbTrace
 10
0.0
 20
0.0
 30
0.0
 11
-1.4107666015625
 21
-0.3780137715974714
 31
0.0
 12
-1.4107666015625
 22
0.3780137715974717
 32
0.0
 13
-1.4107666015625
 23
0.3780137715974717
 33
0.0
  0
ENDBLK
  5
5C
100
AcDbEntity
  8
0
390
0
100
AcDbBlockEnd
  0
BLOCK
  5
5E
100
AcDbEntity
  8
template
390
0
100
AcDbBlockBegin
  2
グループ
 70
               0
 10
0.0
 20
0.0
 30
0.0
  3
グループ
  1

  0
LWPOLYLINE
  5
5F
100
AcDbEntity
  8
0
370
              15
390
0
  6
Continuous
 62
               7
100
AcDbPolyline
 90
        8
 70
             129
 10
778.93373977542103
 20
-1479.4041560319015
 10
778.93373977542103
 20
-1485.4015447254774
 10
769.43254285741773
 20
-1485.4015447254774
 10
769.43254285741773
 20
-1509.8525079889862
 10
761.07716559563494
 20
-1509.8525079889862
 10
761.07716559563494
 20
-1485.4015447254774
 10
751.74420864932551
 20
-1485.4015447254774
 10
751.74420864932551
 20
-1479.4041560319015
  0
LWPOLYLINE
  5
60
100
AcDbEntity
  8
0
370
              15
390
0
  6
Continuous
 62
               7
100
AcDbPolyline
 90
      101
 70
             128
 10
791.66203160597797
 20
-1480.132404524838
 10
791.67738163476065
 20
-1480.1280437681535
 42
-0.0222221607814014
 10
791.96738621143413
 20
-1480.0594193029083
 10
791.98317997542517
 20
-1480.0564158798118
 42
-0.0146883565587989
 10
792.2458826806519
 20
-1480.0144126928619
 42
-0.0127458844182274
 10
792.51052164780765
 20
-1479.9868757247891
 10
792.57297672611764
 20
-1479.9819823022012
 42
-0.0198099018565578
 10
792.96382583559136
 20
-1479.9668971448045
 10
793.01563730503835
 20
-1479.9669509204696
 42
-0.0147617382760635
 10
793.51026076601454
 20
-1479.9820709457147
 10
793.5829522208885
 20
-1479.9864435526024
 42
-0.0162624549003721
 10
793.973105850352
 20
-1480.0226764278746
 10
794.09463824161139
 20
-1480.037962986871
 42
-0.008002087466278
 10
794.24021727270269
 20
-1480.0586458341395
 10
794.27853674329981
 20
-1480.0647171119508
 42
-0.00538219296663
 10
794.3470208486126
 20
-1480.0763246357722
 10
793.62061514941399
 20
-1482.2572530914861
 42
0.0108667757404118
 10
793.55329807927933
 20
-1482.2440659762656
 10
793.51583005609359
 20
-1482.2375682336717
 42
0.0170663203302688
 10
793.37261326918235
 20
-1482.2177386363803
 10
793.30473793649514
 20
-1482.2106914657925
 42
0.0220162375272887
 10
793.0243585286421
 20
-1482.1940091050224
 10
792.94650296158522
 20
-1482.1928097377559
 42
0.0282606915789738
 10
792.61086663800984
 20
-1482.206613014725
 10
792.56695336423593
 20
-1482.2109130047288
 42
0.0169677213687549
 10
792.32102886927851
 20
-1482.2434500542804
 42
0.0190576269861006
 10
792.07812090670075
 20
-1482.2935969263863
 10
792.07186171858768
 20
-1482.2951399004962
 42
0.0213685642851032
 10
791.82147723410822
 20
-1482.3683401856017
 10
791.81598733919373
 20
-1482.3702031816601
 42
0.0237595297602716
 10
791.56249245429319
 20
-1482.4698877035567
 10
791.55739038026536
 20
-1482.4721794790339
 42
0.026185746882022
 10
791.30521960403553
 20
-1482.6017158164084
 10
791.29479341494721
 20
-1482.6077812908775
 42
0.0272553062020605
 10
791.05836363971002
 20
-1482.7631534968209
 10
791.02360062620335
 20
-1482.7888146449111
 42
0.0325996893174763
 10
790.87344528254903
 20
-1482.9155625178846
 10
790.8497358534172
 20
-1482.9383805464058
 42
0.0138050960648224
 10
790.75785269721575
 20
-1483.031830207949
 42
0.0125280103806583
 10
790.67101016437891
 20
-1483.1299935345533
 10
790.64732971947387
 20
-1483.1581520327366
 42
0.0205218024740018
 10
790.52222964396174
 20
-1483.3199453469636
 10
790.49976330347306
 20
-1483.3516050767926
 42
0.0163110129587454
 10
790.3440529242198
 20
-1483.5869355118657
 10
790.34132902817078
 20
-1483.591359273848
 42
0.0131897341893266
 10
790.19452850726555
 20
-1483.8444913662113
 10
790.1928284118984
 20
-1483.8476096053482
 42
0.0107895576061023
 10
790.05505170968956
 20
-1484.1138248149791
 10
790.05431882016251
 20
-1484.1153190476298
 42
0.0091371507215699
 10
789.92583887151125
 20
-1484.3898442453933
 10
789.89609324010394
 20
-1484.4565507525481
 42
0.0135418326356149
 10
789.72437930103081
 20
-1484.8714885378206
 10
789.69077449259555
 20
-1484.9593546801043
 42
0.0092834542410378
 10
789.51954543267698
 20
-1485.4332531784034
 10
789.49392830496049
 20
-1485.5084942481933
 42
0.0054261043581441
 10
789.38629015666652
 20
-1485.8362582212621
 10
789.36876417047779
 20
-1485.8916463835278
 42
0.0008225090814821
 10
789.30009411865899
 20
-1486.1099151416413
 10
788.31540498672553
 20
-1489.1348064348979
 10
791.5480288267994
 20
-1489.1348064348979
 10
791.04383639694595
 20
-1491.0392847332503
 10
787.78778011496263
 20
-1491.0392847332503
 10
781.9586310826088
 20
-1509.8525077992551
 10
780.1335334722985
 20
-1509.8525077992551
 10
785.96821150779942
 20
-1491.0392847332503
 10
783.56309513875908
 20
-1491.0392847332503
 10
784.06728756861253
 20
-1489.1348064348979
 10
786.49583637956255
 20
-1489.1348064348979
 10
787.35599129775119
 20
-1486.498393434199
 42
-0.0005863560651919
 10
787.39272597591605
 20
-1486.3815670140298
 10
787.46881380961509
 20
-1486.1405747145218
 42
-0.0087522378928675
 10
787.66828195307187
 20
-1485.5452986273756
 10
787.76054622848346
 20
-1485.2851584588677
 42
-0.0077400953832078
 10
788.01847988761654
 20
-1484.5921537813142
 10
788.03424485919413
 20
-1484.5517228979313
 42
-0.0082369946332035
 10
788.28132932980736
 20
-1483.9476438317324
 42
-0.0085725238363711
 10
788.54857542580567
 20
-1483.3522177924549
 10
788.65020502681966
 20
-1483.1357966904559
 42
-0.0168109410591949
 10
788.93714945554757
 20
-1482.5745891643558
 10
789.06299284602119
 20
-1482.3476251313321
 42
-0.0007817726865039
 10
789.11727719606324
 20
-1482.2500808863274
 10
789.11740550207867
 20
-1482.2498511775943
 42
-0.0036626142157976
 10
789.17229336610183
 20
-1482.1532532976223
 42
-0.0080221150677257
 10
789.22941762150811
 20
-1482.0579740628702
 10
789.26011757286972
 20
-1482.0085831137471
 42
-0.0202139325575865
 10
789.38777331267431
 20
-1481.8206015130688
 10
789.44184077786406
 20
-1481.747522648825
 42
-0.0249323791796198
 10
789.70100357158367
 20
-1481.4314774066702
 10
789.72514338571023
 20
-1481.4048631337582
 42
-0.0242132121542253
 10
790.06482412725097
 20
-1481.0649796475554
 10
790.11273569999912
 20
-1481.0214705113715
 42
-0.0251017527864171
 10
790.39671740064364
 20
-1480.7884777656031
 10
790.39816287744929
 20
-1480.7874085080302
 42
-0.0130868069041791
 10
790.69642352741471
 20
-1480.5786280394818
 10
790.6979853465574
 20
-1480.5775945992068
 42
-0.0290329526391365
 10
791.00909648795073
 20
-1480.3967690975774
 10
791.0389420499406
 20
-1480.381666714736
 42
-0.0160250190047775
 10
791.30484646370132
 20
-1480.2576506045248
 42
-0.0267600374779165
 10
791.58012254117216
 20
-1480.1569022839753
 10
791.606858460691
 20
-1480.1487097251504
 42
-0.0049981587669873
 10
791.66203160597797
 20
-1480.132404524838
 42
-0.0049981587669873
  0
LWPOLYLINE
  5
61
100
AcDbEntity
  8
0
370
              15
390
0
  6
Continuous
 62
               7
100
AcDbPolyline
 90
      118
 70
             128
 10
811.47639917042488
 20
-1489.2087897627252
 10
813.35152109492435
 20
-1489.2087897627252
 10
812.51348218932446
 20
-1491.8903562891253
 42
-0.0010587229218828
 10
812.54493800488001
 20
-1491.8534517557889
 10
812.60313209552828
 20
-1491.7854694995942
 42
-0.0071874740400696
 10
812.75350731363164
 20
-1491.6148288075594
 10
812.89523008688866
 20
-1491.4585926662521
 42
-0.0148118053510755
 10
813.34535937960743
 20
-1490.9909788202331
 10
813.43258171450918
 20
-1490.9055814993797
 42
-0.0086273358692066
 10
813.76813051551153
 20
-1490.588205865369
 10
813.81196423173549
 20
-1490.5481562210377
 42
-0.0103138323115887
 10
814.06998793397099
 20
-1490.3219930836976
 10
814.11576234029474
 20
-1490.2835110364404
 42
-0.0060206748573576
 10
814.28861040441029
 20
-1490.1417163856831
 10
814.29064153528702
 20
-1490.1400906800593
 42
-0.0067069027301613
 10
814.46293434995869
 20
-1490.0059400462569
 10
814.46548311590254
 20
-1490.0040098763682
 42
-0.0076184352047156
 10
814.63638838175609
 20
-1489.8786350011378
 42
-0.0089652861675133
 10
814.81134934448585
 20
-1489.7590017408081
 10
814.8477010646335
 20
-1489.7350905273233
 42
-0.0156916245933982
 10
815.0436605617956
 20
-1489.6148280408479
 42
-0.0023299011059835
 10
815.24392260577531
 20
-1489.501650101307
 10
815.25930673815537
 20
-1489.4930501062422
 42
-0.0107669341483595
 10
815.49354356326171
 20
-1489.3686499728901
 10
815.51580836433163
 20
-1489.3574332229427
 42
-0.0078058045898068
 10
815.79939848228059
 20
-1489.2200717673061
 10
815.80930556999351
 20
-1489.2154626394358
 42
-0.0181829330474108
 10
816.11961497460732
 20
-1489.0845988983408
 10
816.17367041717898
 20
-1489.0640837783956
 42
-0.0208411536029711
 10
816.52275538462607
 20
-1488.9479933159037
 10
816.53711148475418
 20
-1488.9438748709501
 42
-0.0222799817143399
 10
816.86583127867084
 20
-1488.8652333048099
 10
816.87472024191152
 20
-1488.863521294224
 42
-0.0215509523880507
 10
817.19119121018753
 20
-1488.8166056056903
 10
817.23367317123507
 20
-1488.8121680788995
 42
-0.0182545924869556
 10
817.46778195054185
 20
-1488.7963242535086
 10
817.50718296689183
 20
-1488.7950997084295
 42
-0.0072962856536198
 10
817.66310584657867
 20
-1488.7925303799072
 10
817.69220551713477
 20
-1488.7924755445035
 42
-0.0059227516329139
 10
817.78995501629572
 20
-1488.793449256294
 10
817.81919723382225
 20
-1488.7940870228986
 42
-0.0011833111912057
 10
817.85844851750005
 20
-1488.7950360272073
 10
817.06306192189288
 20
-1491.3337699723063
 42
0.0143932051623248
 10
817.03666053953486
 20
-1491.3235710022584
 10
817.02938856712501
 20
-1491.3209997834037
 42
0.0234388603517766
 10
816.98755770119442
 20
-1491.3083805476888
 10
816.97887603828019
 20
-1491.3061995856833
 42
0.0199162742993045
 10
816.91858720419884
 20
-1491.293582850348
 10
816.89777326639398
 20
-1491.2900856509198
 42
0.0293643550667976
 10
816.79469840763352
 20
-1491.2789356052665
 10
816.77001322691444
 20
-1491.277723988248
 42
0.0214606686862988
 10
816.61687231096607
 20
-1491.2767854278304
 10
816.60750040014409
 20
-1491.2771303393747
 42
0.0167564054173906
 10
816.435980209033
 20
-1491.2892073817429
 10
816.42752041627659
 20
-1491.2900887221699
 42
0.0137677553246203
 10
816.24016710300361
 20
-1491.3148380307148
 10
816.23281536350419
 20
-1491.3160159506815
 42
0.0118497261485623
 10
816.0323175994024
 20
-1491.3530333008707
 10
816.02616759215562
 20
-1491.3543201635907
 42
0.0106421143887076
 10
815.81528670487069
 20
-1491.4031525391654
 10
815.81037789648144
 20
-1491.4043998818506
 42
0.0099746379704317
 10
815.59191942731991
 20
-1491.4645744101651
 10
815.53037138714876
 20
-1491.482856288796
 42
0.019161367585892
 10
815.19438692463439
 20
-1491.5968336690826
 10
815.10632715188865
 20
-1491.6305205794065
 42
0.0205274080142377
 10
814.72102037998707
 20
-1491.7963489872336
 10
814.66337109800338
 20
-1491.8240169518069
 42
0.0181256912198885
 10
814.405094157338
 20
-1491.9597007707839
 10
814.35213877402373
 20
-1491.9900183839989
 42
0.0140709242410651
 10
814.20718383939561
 20
-1492.0785130574329
 10
814.1809349707828
 20
-1492.0955698761447
 42
0.0086667884392568
 10
814.09200880923458
 20
-1492.1555725440312
 42
0.0036408192009276
 10
814.00457557121263
 20
-1492.2177534018153
 10
813.9693486967326
 20
-1492.2431943477363
 42
0.0052260781274419
 10
813.81311999935053
 20
-1492.358526734364
 10
813.79691314308207
 20
-1492.3707548449888
 42
0.0050024435899468
 10
813.61090980003223
 20
-1492.5140374132438
 10
813.59559164350799
 20
-1492.5260834356968
 42
0.0136138710278923
 10
813.38515037518505
 20
-1492.7010499406081
 10
813.35148249938902
 20
-1492.7306289133244
 42
0.0172815186915795
 10
813.08707895772977
 20
-1492.9796255859446
 10
813.08451661188406
 20
-1492.9822114030949
 42
0.018940385799687
 10
812.83393481330427
 20
-1493.2550166678998
 10
812.80130331976829
 20
-1493.2933605993969
 42
0.0185044199506289
 10
812.60934688078885
 20
-1493.536609180519
 42
0.008856524390316
 10
812.43088677415278
 20
-1493.7901256006805
 10
812.42170879451191
 20
-1493.8036669804292
 42
0.0157195347231408
 10
812.23848818817692
 20
-1494.0931891897462
 10
812.19240524625582
 20
-1494.1713413867506
 42
0.0095451879777357
 10
812.02731969610932
 20
-1494.4639360291221
 10
812.01617177717981
 20
-1494.4846067012538
 42
0.0100351706257001
 10
811.88412802802031
 20
-1494.741662261745
 42
0.0086935915425021
 10
811.76179687622459
 20
-1495.0034954071534
 10
811.75847613481187
 20
-1495.0109377301212
 42
0.0072580174860253
 10
811.63812968287107
 20
-1495.2915297216937
 10
811.63486804956051
 20
-1495.2994497477221
 42
0.0060005122617629
 10
811.51566738121642
 20
-1495.5990594183315
 10
811.5124564028763
 20
-1495.6074209462322
 42
0.004901778697962
 10
811.39355624401526
 20
-1495.9263499268461
 10
811.39039043762841
 20
-1495.9351028640667
 42
0.0039415167596579
 10
811.27095415957558
 20
-1496.2736449264687
 10
811.2678230569195
 20
-1496.2827481273562
 42
0.0031035838760694
 10
811.1470182712311
 20
-1496.6411879891157
 10
811.14390822669611
 20
-1496.6506086105046
 42
0.0025070747150964
 10
811.02100687538461
 20
-1497.0292558274361
 10
810.98371297895528
 20
-1497.1461474927014
 42
0.0029081910281924
 10
810.79169468113616
 20
-1497.76031115102
 10
810.7508915126275
 20
-1497.893534393269
 42
0.0009266453731741
 10
810.48247413831257
 20
-1498.7757588531931
 10
810.46158666568385
 20
-1498.8448707323896
 42
-0.0005809993667144
 10
810.18424998508101
 20
-1499.7586788390672
 10
810.1179681868058
 20
-1499.9761637712343
 42
-0.0012018708171323
 10
809.97098387737879
 20
-1500.4543264357476
 10
809.91866402585265
 20
-1500.6230855764863
 42
-0.0002691059604846
 10
809.87509454464475
 20
-1500.7633531969554
 10
807.04213864635551
 20
-1509.8525077992551
 10
805.22414975437698
 20
-1509.8525077992551
 10
811.47639917042488
 20
-1489.2087897627252
  0
SPLINE
  5
62
100
AcDbEntity
  8
0
370
              15
390
0
  6
Continuous
 62
               7
100
AcDbSpline
210
0.0
220
0.0
230
1.0
 70
              13
 71
               2
 72
             782
 73
             779
 74
               0
 42
0.000001
 43
0.000001
 40
0.0
 40
0.0
 40
0.0
 40
1.0
 40
1.0
 40
2.0
 40
2.0
 40
3.0
 40
3.0
 40
4.0
 40
4.0
 40
5.0
 40
5.0
 40
6.0
 40
6.0
 40
7.0
 40
7.0
 40
8.0
 40
8.0
 40
9.0
 40
9.0
 40
10.0
 40
10.0
 40
11.0
 40
11.0
 40
12.0
 40
12.0
 40
13.0
 40
13.0
 40
14.0
 40
14.0
 40
15.0
 40
15.0
 40
16.0
 40
16.0
 40
17.0
 40
17.0
 40
18.0
 40
18.0
 40
19.0
 40
19.0
 40
20.0
 40
20.0
 40
21.0
 40
21.0
 40
22.0
 40
22.0
 40
23.0
 40
23.0
 40
24.0
 40
24.0
 40
25.0
 40
25.0
 40
26.0
 40
26.0
 40
27.0
 40
27.0
 40
28.0
 40
28.0
 40
29.0
 40
29.0
 40
30.0
 40
30.0
 40
31.0
 40
31.0
 40
32.0
 40
32.0
 40
33.0
 40
33.0
 40
34.0
 40
34.0
 40
35.0
 40
35.0
 40
36.0
 40
36.0
 40
37.0
 40
37.0
 40
38.0
 40
38.0
 40
39.0
 40
39.0
 40
40.0
 40
40.0
 40
41.0
 40
41.0
 40
42.0
 40
42.0
 40
43.0
 40
43.0
 40
44.0
 40
44.0
 40
45.0
 40
45.0
 40
46.0
 40
46.0
 40
47.0
 40
47.0
 40
48.0
 40
48.0
 40
49.0
 40
49.0
 40
50.0
 40
50.0
 40
51.0
 40
51.0
 40
52.0
 40
52.0
 40
53.0
 40
53.0
 40
54.0
 40
54.0
 40
55.0
 40
55.0
 40
56.0
 40
56.0
 40
57.0
 40
57.0
 40
58.0
 40
58.0
 40
59.0
 40
59.0
 40
60.0
 40
60.0
 40
61.0
 40
61.0
 40
62.0
 40
62.0
 40
63.0
 40
63.0
 40
64.0
 40
64.0
 40
65.0
 40
65.0
 40
66.0
 40
66.0
 40
67.0
 40
67.0
 40
68.0
 40
68.0
 40
69.0
 40
69.0
 40
70.0
 40
70.0
 40
71.0
 40
71.0
 40
72.0
 40
72.0
 40
73.0
 40
73.0
 40
74.0
 40
74.0
 40
75.0
 40
75.0
 40
76.0
 40
76.0
 40
77.0
 40
77.0
 40
78.0
 40
78.0
 40
79.0
 40
79.0
 40
80.0
 40
80.0
 40
81.0
 40
81.0
 40
82.0
 40
82.0
 40
83.0
 40
83.0
 40
84.0
 40
84.0
 40
85.0
 40
85.0
 40
86.0
 40
86.0
 40
87.0
 40
87.0
 40
88.0
 40
88.0
 40
89.0
 40
89.0
 40
90.0
 40
90.0
 40
91.0
 40
91.0
 40
92.0
 40
92.0
 40
93.0
 40
93.0
 40
94.0
 40
94.0
 40
95.0
 40
95.0
 40
96.0
 40
96.0
 40
97.0
 40
97.0
 40
98.0
 40
98.0
 40
99.0
 40
99.0
 40
100.0
 40
100.0
 40
101.0
 40
101.0
 40
102.0
 40
102.0
 40
103.0
 40
103.0
 40
104.0
 40
104.0
 40
105.0
 40
105.0
 40
106.0
 40
106.0
 40
107.0
 40
107.0
 40
108.0
 40
108.0
 40
109.0
 40
109.0
 40
110.0
 40
110.0
 40
111.0
 40
111.0
 40
112.0
 40
112.0
 40
113.0
 40
113.0
 40
114.0
 40
114.0
 40
115.0
 40
115.0
 40
116.0
 40
116.0
 40
117.0
 40
117.0
 40
118.0
 40
118.0
 40
119.0
 40
119.0
 40
120.0
 40
120.0
 40
121.0
 40
121.0
 40
122.0
 40
122.0
 40
123.0
 40
123.0
 40
124.0
 40
124.0
 40
125.0
 40
125.0
 40
126.0
 40
126.0
 40
127.0
 40
127.0
 40
128.0
 40
128.0
 40
129.0
 40
129.0
 40
130.0
 40
130.0
 40
131.0
 40
131.0
 40
132.0
 40
132.0
 40
133.0
 40
133.0
 40
134.0
 40
134.0
 40
135.0
 40
135.0
 40
136.0
 40
136.0
 40
137.0
 40
137.0
 40
138.0
 40
138.0
 40
139.0
 40
139.0
 40
140.0
 40
140.0
 40
141.0
 40
141.0
 40
142.0
 40
142.0
 40
143.0
 40
143.0
 40
144.0
 40
144.0
 40
145.0
 40
145.0
 40
146.0
 40
146.0
 40
147.0
 40
147.0
 40
148.0
 40
148.0
 40
149.0
 40
149.0
 40
150.0
 40
150.0
 40
151.0
 40
151.0
 40
152.0
 40
152.0
 40
153.0
 40
153.0
 40
154.0
 40
154.0
 40
155.0
 40
155.0
 40
156.0
 40
156.0
 40
157.0
 40
157.0
 40
158.0
 40
158.0
 40
159.0
 40
159.0
 40
160.0
 40
160.0
 40
161.0
 40
161.0
 40
162.0
 40
162.0
 40
163.0
 40
163.0
 40
164.0
 40
164.0
 40
165.0
 40
165.0
 40
166.0
 40
166.0
 40
167.0
 40
167.0
 40
168.0
 40
168.0
 40
169.0
 40
169.0
 40
170.0
 40
170.0
 40
171.0
 40
171.0
 40
172.0
 40
172.0
 40
173.0
 40
173.0
 40
174.0
 40
174.0
 40
175.0
 40
175.0
 40
176.0
 40
176.0
 40
177.0
 40
177.0
 40
178.0
 40
178.0
 40
179.0
 40
179.0
 40
180.0
 40
180.0
 40
181.0
 40
181.0
 40
182.0
 40
182.0
 40
183.0
 40
183.0
 40
184.0
 40
184.0
 40
185.0
 40
185.0
 40
186.0
 40
186.0
 40
187.0
 40
187.0
 40
188.0
 40
188.0
 40
189.0
 40
189.0
 40
190.0
 40
190.0
 40
191.0
 40
191.0
 40
192.0
 40
192.0
 40
193.0
 40
193.0
 40
194.0
 40
194.0
 40
195.0
 40
195.0
 40
196.0
 40
196.0
 40
197.0
 40
197.0
 40
198.0
 40
198.0
 40
199.0
 40
199.0
 40
200.0
 40
200.0
 40
201.0
 40
201.0
 40
202.0
 40
202.0
 40
203.0
 40
203.0
 40
204.0
 40
204.0
 40
205.0
 40
205.0
 40
206.0
 40
206.0
 40
207.0
 40
207.0
 40
208.0
 40
208.0
 40
209.0
 40
209.0
 40
210.0
 40
210.0
 40
211.0
 40
211.0
 40
212.0
 40
212.0
 40
213.0
 40
213.0
 40
214.0
 40
214.0
 40
215.0
 40
215.0
 40
216.0
 40
216.0
 40
217.0
 40
217.0
 40
218.0
 40
218.0
 40
219.0
 40
219.0
 40
220.0
 40
220.0
 40
221.0
 40
221.0
 40
222.0
 40
222.0
 40
223.0
 40
223.0
 40
224.0
 40
224.0
 40
225.0
 40
225.0
 40
226.0
 40
226.0
 40
227.0
 40
227.0
 40
228.0
 40
228.0
 40
229.0
 40
229.0
 40
230.0
 40
230.0
 40
231.0
 40
231.0
 40
232.0
 40
232.0
 40
233.0
 40
233.0
 40
234.0
 40
234.0
 40
235.0
 40
235.0
 40
236.0
 40
236.0
 40
237.0
 40
237.0
 40
238.0
 40
238.0
 40
239.0
 40
239.0
 40
240.0
 40
240.0
 40
241.0
 40
241.0
 40
242.0
 40
242.0
 40
243.0
 40
243.0
 40
244.0
 40
244.0
 40
245.0
 40
245.0
 40
246.0
 40
246.0
 40
247.0
 40
247.0
 40
248.0
 40
248.0
 40
249.0
 40
249.0
 40
250.0
 40
250.0
 40
251.0
 40
251.0
 40
252.0
 40
252.0
 40
253.0
 40
253.0
 40
254.0
 40
254.0
 40
255.0
 40
255.0
 40
256.0
 40
256.0
 40
257.0
 40
257.0
 40
258.0
 40
258.0
 40
259.0
 40
259.0
 40
260.0
 40
260.0
 40
261.0
 40
261.0
 40
262.0
 40
262.0
 40
263.0
 40
263.0
 40
264.0
 40
264.0
 40
265.0
 40
265.0
 40
266.0
 40
266.0
 40
267.0
 40
267.0
 40
268.0
 40
268.0
 40
269.0
 40
269.0
 40
270.0
 40
270.0
 40
271.0
 40
271.0
 40
272.0
 40
272.0
 40
273.0
 40
273.0
 40
274.0
 40
274.0
 40
275.0
 40
275.0
 40
276.0
 40
276.0
 40
277.0
 40
277.0
 40
278.0
 40
278.0
 40
279.0
 40
279.0
 40
280.0
 40
280.0
 40
281.0
 40
281.0
 40
282.0
 40
282.0
 40
283.0
 40
283.0
 40
284.0
 40
284.0
 40
285.0
 40
285.0
 40
286.0
 40
286.0
 40
287.0
 40
287.0
 40
288.0
 40
288.0
 40
289.0
 40
289.0
 40
290.0
 40
290.0
 40
291.0
 40
291.0
 40
292.0
 40
292.0
 40
293.0
 40
293.0
 40
294.0
 40
294.0
 40
295.0
 40
295.0
 40
296.0
 40
296.0
 40
297.0
 40
297.0
 40
298.0
 40
298.0
 40
299.0
 40
299.0
 40
300.0
 40
300.0
 40
301.0
 40
301.0
 40
302.0
 40
302.0
 40
303.0
 40
303.0
 40
304.0
 40
304.0
 40
305.0
 40
305.0
 40
306.0
 40
306.0
 40
307.0
 40
307.0
 40
308.0
 40
308.0
 40
309.0
 40
309.0
 40
310.0
 40
310.0
 40
311.0
 40
311.0
 40
312.0
 40
312.0
 40
313.0
 40
313.0
 40
314.0
 40
314.0
 40
315.0
 40
315.0
 40
316.0
 40
316.0
 40
317.0
 40
317.0
 40
318.0
 40
318.0
 40
319.0
 40
319.0
 40
320.0
 40
320.0
 40
321.0
 40
321.0
 40
322.0
 40
322.0
 40
323.0
 40
323.0
 40
324.0
 40
324.0
 40
325.0
 40
325.0
 40
326.0
 40
326.0
 40
327.0
 40
327.0
 40
328.0
 40
328.0
 40
329.0
 40
329.0
 40
330.0
 40
330.0
 40
331.0
 40
331.0
 40
332.0
 40
332.0
 40
333.0
 40
333.0
 40
334.0
 40
334.0
 40
335.0
 40
335.0
 40
336.0
 40
336.0
 40
337.0
 40
337.0
 40
338.0
 40
338.0
 40
339.0
 40
339.0
 40
340.0
 40
340.0
 40
341.0
 40
341.0
 40
342.0
 40
342.0
 40
343.0
 40
343.0
 40
344.0
 40
344.0
 40
345.0
 40
345.0
 40
346.0
 40
346.0
 40
347.0
 40
347.0
 40
348.0
 40
348.0
 40
349.0
 40
349.0
 40
350.0
 40
350.0
 40
351.0
 40
351.0
 40
352.0
 40
352.0
 40
353.0
 40
353.0
 40
354.0
 40
354.0
 40
355.0
 40
355.0
 40
356.0
 40
356.0
 40
357.0
 40
357.0
 40
358.0
 40
358.0
 40
359.0
 40
359.0
 40
360.0
 40
360.0
 40
361.0
 40
361.0
 40
362.0
 40
362.0
 40
363.0
 40
363.0
 40
364.0
 40
364.0
 40
365.0
 40
365.0
 40
366.0
 40
366.0
 40
367.0
 40
367.0
 40
368.0
 40
368.0
 40
369.0
 40
369.0
 40
370.0
 40
370.0
 40
371.0
 40
371.0
 40
372.0
 40
372.0
 40
373.0
 40
373.0
 40
374.0
 40
374.0
 40
375.0
 40
375.0
 40
376.0
 40
376.0
 40
377.0
 40
377.0
 40
378.0
 40
378.0
 40
379.0
 40
379.0
 40
380.0
 40
380.0
 40
381.0
 40
381.0
 40
382.0
 40
382.0
 40
383.0
 40
383.0
 40
384.0
 40
384.0
 40
385.0
 40
385.0
 40
386.0
 40
386.0
 40
387.0
 40
387.0
 40
388.0
 40
388.0
 40
389.0
 40
389.0
 40
389.0
 10
821.80510362115751
 20
-1489.1978633993629
 30
0.0
 41
1.0
 10
822.62352772987799
 20
-1489.1978633993629
 30
0.0
 41
1.0
 10
823.44195183859847
 20
-1489.1978633993629
 30
0.0
 41
1.0
 10
823.02819810308165
 20
-1490.5404896636126
 30
0.0
 41
1.0
 10
822.61444436756494
 20
-1491.8831159278623
 30
0.0
 41
1.0
 10
822.63278386273953
 20
-1491.8544151549402
 30
0.0
 41
0.9999957264447121
 10
822.65129085959552
 20
-1491.8258221047506
 30
0.0
 41
1.0
 10
822.68172018371683
 20
-1491.7788092263995
 30
0.0
 41
1.0
 10
822.71214950783815
 20
-1491.7317963480484
 30
0.0
 41
1.0
 10
822.79151515294416
 20
-1491.6091775411451
 30
0.0
 41
0.9995394069080968
 10
822.87817354449851
 20
-1491.4915994794003
 30
0.0
 41
1.0
 10
822.9139304067595
 20
-1491.4430845868051
 30
0.0
 41
1.0
 10
822.9496872690205
 20
-1491.3945696942101
 30
0.0
 41
1.0
 10
823.08341393683634
 20
-1491.2131294190867
 30
0.0
 41
0.999446061714353
 10
823.22891441812192
 20
-1491.0409870214398
 30
0.0
 41
1.0
 10
823.23330259909653
 20
-1491.0357953410576
 30
0.0
 41
1.0
 10
823.23769078007126
 20
-1491.0306036606755
 30
0.0
 41
1.0
 10
823.37441489940954
 20
-1490.8688446237904
 30
0.0
 41
0.9994359394934427
 10
823.52168912976117
 20
-1490.7166284226257
 30
0.0
 41
1.0
 10
823.52407248371219
 20
-1490.7141650922549
 30
0.0
 41
1.0
 10
823.52645583766321
 20
-1490.7117017618841
 30
0.0
 41
1.0
 10
823.66896336011052
 20
-1490.564412221463
 30
0.0
 41
0.9995293688567835
 10
823.82023504109486
 20
-1490.426139009297
 30
0.0
 41
1.0
 10
823.8395288003544
 20
-1490.4085031236493
 30
0.0
 41
1.0
 10
823.85882255961383
 20
-1490.3908672380016
 30
0.0
 41
1.0
 10
823.97150672207385
 20
-1490.2878657971355
 30
0.0
 41
0.9997087614803504
 10
824.08902961103195
 20
-1490.1904215163349
 30
0.0
 41
1.0
 10
824.10819568419492
 20
-1490.1745299378374
 30
0.0
 41
1.0
 10
824.1273617573579
 20
-1490.1586383593399
 30
0.0
 41
1.0
 10
824.20655249997435
 20
-1490.0929772355471
 30
0.0
 41
0.9999595338698069
 10
824.28691177084215
 20
-1490.0287515048822
 30
0.0
 41
1.0
 10
824.36727104168972
 20
-1489.9645257742332
 30
0.0
 41
0.9999749417499294
 10
824.44853157603518
 20
-1489.9014442202852
 30
0.0
 41
1.0
 10
824.46951772220564
 20
-1489.8851529329772
 30
0.0
 41
1.0
 10
824.49050386837621
 20
-1489.8688616456693
 30
0.0
 41
1.0
 10
824.5750717536738
 20
-1489.8032126358316
 30
0.0
 41
0.9999792037121046
 10
824.66047935344318
 20
-1489.738659854188
 30
0.0
 41
1.0
 10
824.68130417933435
 20
-1489.7229200319457
 30
0.0
 41
1.0
 10
824.70212900522552
 20
-1489.7071802097032
 30
0.0
 41
1.0
 10
824.74588695316436
 20
-1489.6741070725811
 30
0.0
 41
0.9999993373803839
 10
824.78956863935593
 20
-1489.6409332771204
 30
0.0
 41
1.0
 10
824.83325032548794
 20
-1489.6077594817045
 30
0.0
 41
0.9999160953818701
 10
824.87777673640107
 20
-1489.5757284165109
 30
0.0
 41
1.0
 10
824.9105986238294
 20
-1489.5521172609197
 30
0.0
 41
1.0
 10
824.94342051125773
 20
-1489.5285061053282
 30
0.0
 41
1.0
 10
825.05359069701626
 20
-1489.4492527289603
 30
0.0
 41
0.9980964527231732
 10
825.17267969051704
 20
-1489.3841652561043
 30
0.0
 41
1.0
 10
825.20971229744544
 20
-1489.3639252765111
 30
0.0
 41
1.0
 10
825.24674490437383
 20
-1489.3436852969176
 30
0.0
 41
1.0
 10
825.4260719176466
 20
-1489.2456750462168
 30
0.0
 41
0.9984572810573256
 10
825.61516048400495
 20
-1489.1681527848705
 30
0.0
 41
1.0
 10
825.61880675340171
 20
-1489.1666578925322
 30
0.0
 41
1.0
 10
825.62245302279848
 20
-1489.1651630001938
 30
0.0
 41
1.0
 10
825.80424905036477
 20
-1489.0906305235239
 30
0.0
 41
0.9987838528034263
 10
825.9925017089231
 20
-1489.0343648833584
 30
0.0
 41
1.0
 10
825.99673965812372
 20
-1489.0330982296678
 30
0.0
 41
1.0
 10
826.00097760732422
 20
-1489.0318315759769
 30
0.0
 41
1.0
 10
826.18075436748404
 20
-1488.9780992431924
 30
0.0
 41
0.999065281620762
 10
826.3645002991982
 20
-1488.9400955636506
 30
0.0
 41
1.0
 10
826.36968870022997
 20
-1488.939022460544
 30
0.0
 41
1.0
 10
826.37487710126186
 20
-1488.9379493574374
 30
0.0
 41
1.0
 10
826.54824623091474
 20
-1488.9020918841086
 30
0.0
 41
0.9992909934270186
 10
826.7238219973724
 20
-1488.8793814516421
 30
0.0
 41
1.0
 10
826.89939776383153
 20
-1488.8566710191756
 30
0.0
 41
0.9994553539448569
 10
827.07608919692586
 20
-1488.8455917149693
 30
0.0
 41
1.0
 10
827.11152360472045
 20
-1488.8433698269214
 30
0.0
 41
1.0
 10
827.14695801251503
 20
-1488.8411479388737
 30
0.0
 41
1.0
 10
827.31318377908428
 20
-1488.830724876462
 30
0.0
 41
0.9990928098292553
 10
827.47969357098714
 20
-1488.8344845176966
 30
0.0
 41
1.0
 10
827.51825540626351
 20
-1488.8353552092299
 30
0.0
 41
1.0
 10
827.55681724153999
 20
-1488.8362259007629
 30
0.0
 41
1.0
 10
827.64620336289454
 20
-1488.8382441589313
 30
0.0
 41
0.9998382089206297
 10
827.73545904567607
 20
-1488.843476285459
 30
0.0
 41
1.0
 10
827.73588895189937
 20
-1488.8435014863614
 30
0.0
 41
1.0
 10
827.73631885812267
 20
-1488.8435266872639
 30
0.0
 41
1.0
 10
827.82471472846566
 20
-1488.8487084119877
 30
0.0
 41
0.9997558016759861
 10
827.91279530566305
 20
-1488.8577909273536
 30
0.0
 41
1.0
 10
827.91327144409297
 20
-1488.8578400248362
 30
0.0
 41
1.0
 10
827.91374758252289
 20
-1488.8578891223187
 30
0.0
 41
1.0
 10
828.00087588286374
 20
-1488.8668734427201
 30
0.0
 41
0.9996565144181493
 10
828.08741373620592
 20
-1488.8804107494093
 30
0.0
 41
1.0
 10
828.08787966158559
 20
-1488.880483635141
 30
0.0
 41
1.0
 10
828.08834558696526
 20
-1488.8805565208727
 30
0.0
 41
1.0
 10
828.17395158955003
 20
-1488.8939480560987
 30
0.0
 41
0.9995321806866785
 10
828.25857866987599
 20
-1488.9125485445275
 30
0.0
 41
1.0
 10
828.25896786444741
 20
-1488.9126340869932
 30
0.0
 41
1.0
 10
828.25935705901895
 20
-1488.9127196294589
 30
0.0
 41
1.0
 10
828.34320575020365
 20
-1488.9311490329567
 30
0.0
 41
0.9993819199219645
 10
828.42555228440017
 20
-1488.9554244162173
 30
0.0
 41
1.0
 10
828.42579071789817
 20
-1488.9554947053266
 30
0.0
 41
1.0
 10
828.42602915139616
 20
-1488.9555649944359
 30
0.0
 41
1.0
 10
828.50789881859566
 20
-1488.9796997994777
 30
0.0
 41
0.9992088568505849
 10
828.58759133758463
 20
-1489.0102650352724
 30
0.0
 41
1.0
 10
828.66727232846358
 20
-1489.0408246360057
 30
0.0
 41
0.9990226101773569
 10
828.74394299837081
 20
-1489.0783020676204
 30
0.0
 41
1.0
 10
828.82060214016838
 20
-1489.1157738641732
 30
0.0
 41
0.9988424273972111
 10
828.8933057673803
 20
-1489.1604386394258
 30
0.0
 41
1.0
 10
828.89357347576015
 20
-1489.1606031034985
 30
0.0
 41
1.0
 10
828.89384118413989
 20
-1489.1607675675709
 30
0.0
 41
1.0
 10
828.96708022811106
 20
-1489.2057612709687
 30
0.0
 41
0.9986928844491899
 10
829.03534309482131
 20
-1489.2579970052484
 30
0.0
 41
1.0
 10
829.03592438704368
 20
-1489.2584418184761
 30
0.0
 41
1.0
 10
829.03650567926616
 20
-1489.2588866317037
 30
0.0
 41
1.0
 10
829.10593113042182
 20
-1489.3120119924397
 30
0.0
 41
0.998600726227903
 10
829.16935730018918
 20
-1489.3721727621337
 30
0.0
 41
1.0
 10
829.17025171564592
 20
-1489.3730211299683
 30
0.0
 41
1.0
 10
829.17114613110255
 20
-1489.3738694978028
 30
0.0
 41
1.0
 10
829.23636113178395
 20
-1489.4357270031669
 30
0.0
 41
0.9985581491381821
 10
829.29456874348512
 20
-1489.5042194934379
 30
0.0
 41
1.0
 10
829.30382719708109
 20
-1489.5151138511396
 30
0.0
 41
1.0
 10
829.31308565067707
 20
-1489.5260082088416
 30
0.0
 41
1.0
 10
829.38981016957041
 20
-1489.6162894145173
 30
0.0
 41
0.9970460233521579
 10
829.45180207073031
 20
-1489.7172564986995
 30
0.0
 41
1.0
 10
829.46627143580918
 20
-1489.7408229577798
 30
0.0
 41
1.0
 10
829.48074080088816
 20
-1489.76438941686
 30
0.0
 41
1.0
 10
829.52047750090082
 20
-1489.8291091408923
 30
0.0
 41
0.9988468816636257
 10
829.55382387165253
 20
-1489.8973415933203
 30
0.0
 41
1.0
 10
829.56085989414487
 20
-1489.9117385144596
 30
0.0
 41
1.0
 10
829.56789591663733
 20
-1489.926135435599
 30
0.0
 41
1.0
 10
829.58717024240457
 20
-1489.9655740457495
 30
0.0
 41
0.9998431189997517
 10
829.60503556989897
 20
-1490.0056706001888
 30
0.0
 41
1.0
 10
829.62290089739611
 20
-1490.0457671546342
 30
0.0
 41
0.9999989990134293
 10
829.64087962082499
 20
-1490.0858129922333
 30
0.0
 41
1.0
 10
829.6470519324148
 20
-1490.099561209036
 30
0.0
 41
1.0
 10
829.65322424400449
 20
-1490.1133094258385
 30
0.0
 41
1.0
 10
829.68354759061435
 20
-1490.1808516970464
 30
0.0
 41
0.9998790356322426
 10
829.71175547075211
 20
-1490.2493044489829
 30
0.0
 41
1.0
 10
829.71859065203751
 20
-1490.265891550413
 30
0.0
 41
1.0
 10
829.7254258333229
 20
-1490.2824786518431
 30
0.0
 41
1.0
 10
829.74898349570253
 20
-1490.3396466067268
 30
0.0
 41
0.9998227574561358
 10
829.77037224409116
 20
-1490.3976609150027
 30
0.0
 41
1.0
 10
829.79176099248025
 20
-1490.4556752232795
 30
0.0
 41
0.9996797971042005
 10
829.81018727743947
 20
-1490.5146973423973
 30
0.0
 41
1.0
 10
829.8140910801651
 20
-1490.5272018005667
 30
0.0
 41
1.0
 10
829.81799488289084
 20
-1490.539706258736
 30
0.0
 41
1.0
 10
829.84422877330098
 20
-1490.6237372941914
 30
0.0
 41
0.9979274938734406
 10
829.85945329678032
 20
-1490.7104416528525
 30
0.0
 41
1.0
 10
829.86167698404142
 20
-1490.7231056536734
 30
0.0
 41
1.0
 10
829.86390067130264
 20
-1490.7357696544943
 30
0.0
 41
1.0
 10
829.87483061100079
 20
-1490.7980161617847
 30
0.0
 41
0.9994985982138355
 10
829.8817987761779
 20
-1490.8608296629268
 30
0.0
 41
1.0
 10
829.88876694135467
 20
-1490.9236431640691
 30
0.0
 41
0.9996372611202701
 10
829.89234280712287
 20
-1490.9867407427564
 30
0.0
 41
1.0
 10
829.89251138461202
 20
-1490.9897153598358
 30
0.0
 41
1.0
 10
829.89267996210117
 20
-1490.9926899769155
 30
0.0
 41
1.0
 10
829.89659298284755
 20
-1491.0617367897587
 30
0.0
 41
0.999773063073502
 10
829.89756129633565
 20
-1491.1308876137946
 30
0.0
 41
1.0
 10
829.89761840275378
 20
-1491.134965792937
 30
0.0
 41
1.0
 10
829.8976755091719
 20
-1491.1390439720794
 30
0.0
 41
1.0
 10
829.89875803549626
 20
-1491.2163511543877
 30
0.0
 41
0.9998772614071465
 10
829.89741794876466
 20
-1491.2936543009496
 30
0.0
 41
1.0
 10
829.89732868556575
 20
-1491.2988034647906
 30
0.0
 41
1.0
 10
829.89723942236697
 20
-1491.3039526286316
 30
0.0
 41
1.0
 10
829.89572080923801
 20
-1491.3915541028582
 30
0.0
 41
0.9999415567326966
 10
829.89230849899241
 20
-1491.4791022645254
 30
0.0
 41
1.0
 10
829.89206717831678
 20
-1491.4852937242704
 30
0.0
 41
1.0
 10
829.89182585764115
 20
-1491.4914851840156
 30
0.0
 41
1.0
 10
829.8879309060444
 20
-1491.5914162651645
 30
0.0
 41
0.9999716810426872
 10
829.88253232292618
 20
-1491.6912774033904
 30
0.0
 41
1.0
 10
829.87931952413646
 20
-1491.7507066530632
 30
0.0
 41
1.0
 10
829.87610672534686
 20
-1491.810135902736
 30
0.0
 41
1.0
 10
829.86803281619439
 20
-1491.959484304012
 30
0.0
 41
0.9999819129912922
 10
829.8581630245792
 20
-1492.1087247817011
 30
0.0
 41
1.0
 10
829.84829323296253
 20
-1492.2579652594125
 30
0.0
 41
1.0
 10
829.84585391239864
 20
-1492.2951583052618
 30
0.0
 41
1.0
 10
829.86855214625893
 20
-1492.2564173078827
 30
0.0
 41
0.99999821280749
 10
829.89139670502482
 20
-1492.2177624139067
 30
0.0
 41
1.0
 10
829.91830626488979
 20
-1492.1722291998854
 30
0.0
 41
1.0
 10
829.94521582475477
 20
-1492.1266959858638
 30
0.0
 41
1.0
 10
830.02187950327539
 20
-1491.9969746638026
 30
0.0
 41
0.9998609190058905
 10
830.10282681613592
 20
-1491.8698822818749
 30
0.0
 41
1.0
 10
830.1324751376178
 20
-1491.8233325489173
 30
0.0
 41
1.0
 10
830.1621234590998
 20
-1491.7767828159597
 30
0.0
 41
1.0
 10
830.24439567934019
 20
-1491.6476102459592
 30
0.0
 41
0.999906760973399
 10
830.33016468880692
 20
-1491.5207325565138
 30
0.0
 41
1.0
 10
830.33256939201067
 20
-1491.5171752904548
 30
0.0
 41
1.0
 10
830.33497409521442
 20
-1491.5136180243958
 30
0.0
 41
1.0
 10
830.41593369827331
 20
-1491.3938548670694
 30
0.0
 41
0.9998784952151094
 10
830.5005873079524
 20
-1491.276673650364
 30
0.0
 41
1.0
 10
830.58524091763934
 20
-1491.1594924336482
 30
0.0
 41
0.9998532968282911
 10
830.67385853846383
 20
-1491.0452795251751
 30
0.0
 41
1.0
 10
830.69382032745102
 20
-1491.0195522041599
 30
0.0
 41
1.0
 10
830.71378211643832
 20
-1490.993824883145
 30
0.0
 41
1.0
 10
830.83226616619731
 20
-1490.8411192721762
 30
0.0
 41
0.9991551975795542
 10
830.96289061582092
 20
-1490.6986597100924
 30
0.0
 41
1.0
 10
830.96640023179839
 20
-1490.6948321084706
 30
0.0
 41
1.0
 10
830.96990984777585
 20
-1490.6910045068487
 30
0.0
 41
1.0
 10
831.09351506544181
 20
-1490.5562001480116
 30
0.0
 41
0.9997418144181023
 10
831.22311720514517
 20
-1490.4271507373965
 30
0.0
 41
1.0
 10
831.35271934484399
 20
-1490.2981013267854
 30
0.0
 41
0.9989238204632885
 10
831.49372189309315
 20
-1490.1816163647479
 30
0.0
 41
1.0
 10
831.53896957123607
 20
-1490.1442363731362
 30
0.0
 41
1.0
 10
831.58421724937909
 20
-1490.1068563815247
 30
0.0
 41
1.0
 10
831.72445730659888
 20
-1489.9910013282356
 30
0.0
 41
0.999082508409708
 10
831.87409723920121
 20
-1489.8875723304036
 30
0.0
 41
1.0
 10
831.88414260325953
 20
-1489.8806291173232
 30
0.0
 41
1.0
 10
831.89418796731786
 20
-1489.8736859042426
 30
0.0
 41
1.0
 10
832.02373717180808
 20
-1489.7841433325689
 30
0.0
 41
0.9998164899827793
 10
832.15662137518143
 20
-1489.6996290910542
 30
0.0
 41
1.0
 10
832.16846693570665
 20
-1489.692095324529
 30
0.0
 41
1.0
 10
832.18031249623186
 20
-1489.6845615580039
 30
0.0
 41
1.0
 10
832.28950557855728
 20
-1489.6151148495383
 30
0.0
 41
0.9997473449131707
 10
832.40170953580719
 20
-1489.5506458917223
 30
0.0
 41
1.0
 10
832.51391349305345
 20
-1489.4861769339084
 30
0.0
 41
0.9999327861141089
 10
832.6275821038148
 20
-1489.4243269422279
 30
0.0
 41
1.0
 10
832.62813410637818
 20
-1489.4240265835474
 30
0.0
 41
1.0
 10
832.62868610894145
 20
-1489.4237262248669
 30
0.0
 41
1.0
 10
832.74345872482695
 20
-1489.3612755158267
 30
0.0
 41
0.9996956420483976
 10
832.86117205066751
 20
-1489.3045620488517
 30
0.0
 41
1.0
 10
832.89161245556306
 20
-1489.2898960721204
 30
0.0
 41
1.0
 10
832.92205286045851
 20
-1489.2752300953891
 30
0.0
 41
1.0
 10
833.02502996719932
 20
-1489.2256164369473
 30
0.0
 41
0.9998070570176924
 10
833.12987635613672
 20
-1489.1800858500478
 30
0.0
 41
1.0
 10
833.23472274507708
 20
-1489.1345552631471
 30
0.0
 41
0.9997827436147956
 10
833.34137568168774
 20
-1489.093434091835
 30
0.0
 41
1.0
 10
833.36059853131906
 20
-1489.0860225182028
 30
0.0
 41
1.0
 10
833.37982138095026
 20
-1489.0786109445703
 30
0.0
 41
1.0
 10
833.52492001682333
 20
-1489.0226666259935
 30
0.0
 41
0.9988031841976645
 10
833.67479037942769
 20
-1488.9811665618261
 30
0.0
 41
1.0
 10
833.69970762779133
 20
-1488.9742668160191
 30
0.0
 41
1.0
 10
833.72462487615496
 20
-1488.967367070212
 30
0.0
 41
1.0
 10
833.89189490180149
 20
-1488.9210489278053
 30
0.0
 41
0.9984748040549776
 10
834.06325181045031
 20
-1488.8934546955404
 30
0.0
 41
1.0
 10
834.06799094669964
 20
-1488.8926915350269
 30
0.0
 41
1.0
 10
834.07273008294908
 20
-1488.8919283745133
 30
0.0
 41
1.0
 10
834.2346087190997
 20
-1488.8658604632756
 30
0.0
 41
0.9984436495480006
 10
834.39838346282409
 20
-1488.8579825094569
 30
0.0
 41
1.0
 10
834.42008067095571
 20
-1488.8569388222572
 30
0.0
 41
1.0
 10
834.44177787908723
 20
-1488.8558951350576
 30
0.0
 41
1.0
 10
834.56215820654893
 20
-1488.8501045556382
 30
0.0
 41
0.9987954789335238
 10
834.68252645145856
 20
-1488.8561410833804
 30
0.0
 41
1.0
 10
834.7024912439565
 20
-1488.8571423277192
 30
0.0
 41
1.0
 10
834.72245603645456
 20
-1488.858143572058
 30
0.0
 41
1.0
 10
834.80289469637182
 20
-1488.8621776111229
 30
0.0
 41
0.999794159587742
 10
834.88310347446281
 20
-1488.8694716770437
 30
0.0
 41
1.0
 10
834.96331225255631
 20
-1488.8767657429646
 30
0.0
 41
0.9998589466237903
 10
835.04323079941014
 20
-1488.8867495974146
 30
0.0
 41
1.0
 10
835.07563700121943
 20
-1488.8907979543339
 30
0.0
 41
1.0
 10
835.10804320302873
 20
-1488.8948463112533
 30
0.0
 41
1.0
 10
835.25277415349956
 20
-1488.9129268795418
 30
0.0
 41
0.9993495063249182
 10
835.39582539726484
 20
-1488.9413925892832
 30
0.0
 41
1.0
 10
835.42875909441568
 20
-1488.9479460524976
 30
0.0
 41
1.0
 10
835.46169279156663
 20
-1488.9544995157123
 30
0.0
 41
1.0
 10
835.57098661477335
 20
-1488.9762478498483
 30
0.0
 41
0.9996788715561497
 10
835.67903818673085
 20
-1489.0035056492115
 30
0.0
 41
1.0
 10
835.68110118926813
 20
-1489.0040260757842
 30
0.0
 41
1.0
 10
835.68316419180542
 20
-1489.0045465023566
 30
0.0
 41
1.0
 10
835.78708975868631
 20
-1489.0307634485744
 30
0.0
 41
0.999548065449277
 10
835.88925199391667
 20
-1489.0631784051989
 30
0.0
 41
1.0
 10
835.89094163604636
 20
-1489.0637145101132
 30
0.0
 41
1.0
 10
835.89263127817617
 20
-1489.0642506150273
 30
0.0
 41
1.0
 10
835.99141422914681
 20
-1489.0955933618236
 30
0.0
 41
0.9993867959456214
 10
836.08776138758867
 20
-1489.1337727311131
 30
0.0
 41
1.0
 10
836.08900433667327
 20
-1489.1342652730093
 30
0.0
 41
1.0
 10
836.09024728575787
 20
-1489.1347578149055
 30
0.0
 41
1.0
 10
836.1841085460303
 20
-1489.1719521004025
 30
0.0
 41
0.9992050256521577
 10
836.27470822106454
 20
-1489.2165059996416
 30
0.0
 41
1.0
 10
836.27544290377796
 20
-1489.216867292103
 30
0.0
 41
1.0
 10
836.27617758649126
 20
-1489.2172285845643
 30
0.0
 41
1.0
 10
836.36530789609856
 20
-1489.2610598988808
 30
0.0
 41
0.9990222350742112
 10
836.45021795749153
 20
-1489.3125931665786
 30
0.0
 41
1.0
 10
836.45040184277389
 20
-1489.3127047694834
 30
0.0
 41
1.0
 10
836.45058572805624
 20
-1489.3128163723879
 30
0.0
 41
1.0
 10
836.53512801888519
 20
-1489.3641264342768
 30
0.0
 41
0.9988642743804895
 10
836.61440255350431
 20
-1489.4232506218023
 30
0.0
 41
1.0
 10
836.69367708812354
 20
-1489.4823748093277
 30
0.0
 41
0.9987681233310412
 10
836.76670087239995
 20
-1489.5490655007291
 30
0.0
 41
1.0
 10
836.76702980036544
 20
-1489.549365901943
 30
0.0
 41
1.0
 10
836.76735872833092
 20
-1489.5496663031568
 30
0.0
 41
1.0
 10
836.84104036853842
 20
-1489.6169577969852
 30
0.0
 41
0.9987496570897525
 10
836.90763417386529
 20
-1489.6912706110718
 30
0.0
 41
1.0
 10
836.9084063436261
 20
-1489.69213228443
 30
0.0
 41
1.0
 10
836.90917851338691
 20
-1489.6929939577883
 30
0.0
 41
1.0
 10
836.97731665823528
 20
-1489.7690301185912
 30
0.0
 41
0.9988147669826973
 10
837.03773891245953
 20
-1489.8513311254326
 30
0.0
 41
1.0
 10
837.03885823853739
 20
-1489.8528557567854
 30
0.0
 41
1.0
 10
837.03997756461536
 20
-1489.8543803881382
 30
0.0
 41
1.0
 10
837.10263847099634
 20
-1489.9397306576866
 30
0.0
 41
0.9989452636215808
 10
837.15720538395715
 20
-1490.0304693468436
 30
0.0
 41
1.0
 10
837.15855411004281
 20
-1490.0327121278697
 30
0.0
 41
1.0
 10
837.15990283612848
 20
-1490.034954908896
 30
0.0
 41
1.0
 10
837.21716720126153
 20
-1490.1301791601065
 30
0.0
 41
0.9991046436070207
 10
837.26617641458336
 20
-1490.2299035931326
 30
0.0
 41
1.0
 10
837.2676402761731
 20
-1490.2328822732047
 30
0.0
 41
1.0
 10
837.26910413776284
 20
-1490.2358609532766
 30
0.0
 41
1.0
 10
837.32104107426426
 20
-1490.3415427464463
 30
0.0
 41
0.9992763831100666
 10
837.36479420281989
 20
-1490.4508668084038
 30
0.0
 41
1.0
 10
837.36627347248304
 20
-1490.4545629959371
 30
0.0
 41
1.0
 10
837.36775274214619
 20
-1490.4582591834701
 30
0.0
 41
1.0
 10
837.41446441002813
 20
-1490.5749756204932
 30
0.0
 41
0.9994163472882779
 10
837.45309744121778
 20
-1490.6946092089572
 30
0.0
 41
1.0
 10
837.45433559346452
 20
-1490.6984433527398
 30
0.0
 41
1.0
 10
837.45557374571115
 20
-1490.7022774965224
 30
0.0
 41
1.0
 10
837.49545730672855
 20
-1490.8257835580009
 30
0.0
 41
0.9997268055890904
 10
837.52952536264058
 20
-1490.9510185899519
 30
0.0
 41
1.0
 10
837.53045554290998
 20
-1490.9544379560602
 30
0.0
 41
1.0
 10
837.53138572317948
 20
-1490.9578573221686
 30
0.0
 41
1.0
 10
837.56359341855227
 20
-1491.0762536219015
 30
0.0
 41
0.999670131900121
 10
837.58967903532312
 20
-1491.1961475751659
 30
0.0
 41
1.0
 10
837.61576465209373
 20
-1491.3160415284308
 30
0.0
 41
0.9995785451109958
 10
837.63484822943383
 20
-1491.4372472894638
 30
0.0
 41
1.0
 10
837.63906801160726
 20
-1491.4640484442273
 30
0.0
 41
1.0
 10
837.6432877937807
 20
-1491.4908495989907
 30
0.0
 41
1.0
 10
837.6698627697192
 20
-1491.659635572694
 30
0.0
 41
0.9979925101217072
 10
837.67488835564563
 20
-1491.8304269007858
 30
0.0
 41
1.0
 10
837.67571316807016
 20
-1491.8584576242638
 30
0.0
 41
1.0
 10
837.6765379804948
 20
-1491.8864883477418
 30
0.0
 41
1.0
 10
837.67991394157229
 20
-1492.0012182288719
 30
0.0
 41
0.9995314902262527
 10
837.67626374943347
 20
-1492.1159397126294
 30
0.0
 41
1.0
 10
837.67261355729511
 20
-1492.2306611963813
 30
0.0
 41
0.9996245486943941
 10
837.66268446216395
 20
-1492.3450104675062
 30
0.0
 41
1.0
 10
837.66252141416976
 20
-1492.3468882236411
 30
0.0
 41
1.0
 10
837.66235836617557
 20
-1492.3487659797759
 30
0.0
 41
1.0
 10
837.65210317505591
 20
-1492.4668707631724
 30
0.0
 41
0.9997286095001329
 10
837.63635785148506
 20
-1492.5843696720631
 30
0.0
 41
1.0
 10
837.6359643588346
 20
-1492.587306096766
 30
0.0
 41
1.0
 10
837.63557086618414
 20
-1492.5902425214688
 30
0.0
 41
1.0
 10
837.61903855731225
 20
-1492.7136142797654
 30
0.0
 41
0.9998265533969649
 10
837.59792309858005
 20
-1492.8362847545518
 30
0.0
 41
1.0
 10
837.59724655644254
 20
-1492.8402151330613
 30
0.0
 41
1.0
 10
837.59657001430514
 20
-1492.8441455115708
 30
0.0
 41
1.0
 10
837.57410147129838
 20
-1492.974676743373
 30
0.0
 41
0.9999022530854383
 10
837.54799200668742
 20
-1493.1045287120164
 30
0.0
 41
1.0
 10
837.54701336552239
 20
-1493.1093958544018
 30
0.0
 41
1.0
 10
837.54603472435747
 20
-1493.1142629967871
 30
0.0
 41
1.0
 10
837.51796797741611
 20
-1493.2538492502035
 30
0.0
 41
0.9999524761934681
 10
837.48718500858081
 20
-1493.3928617433701
 30
0.0
 41
1.0
 10
837.48590890140599
 20
-1493.3986245026699
 30
0.0
 41
1.0
 10
837.48463279423106
 20
-1493.4043872619695
 30
0.0
 41
1.0
 10
837.4512976110459
 20
-1493.5549252737367
 30
0.0
 41
0.9999813588730456
 10
837.41612661024999
 20
-1493.7050449863927
 30
0.0
 41
1.0
 10
837.41457268479326
 20
-1493.7116775768161
 30
0.0
 41
1.0
 10
837.41301875933652
 20
-1493.7183101672395
 30
0.0
 41
1.0
 10
837.37473990762328
 20
-1493.8816950607575
 30
0.0
 41
0.9999955237712898
 10
837.33548402962924
 20
-1494.0448479644208
 30
0.0
 41
1.0
 10
837.32320239400383
 20
-1494.0958921549068
 30
0.0
 41
1.0
 10
837.3109207583783
 20
-1494.1469363453928
 30
0.0
 41
1.0
 10
837.24710160912309
 20
-1494.4121776300699
 30
0.0
 41
0.9999993604671233
 10
837.18268266194298
 20
-1494.6772738808036
 30
0.0
 41
1.0
 10
837.17796382640495
 20
-1494.6966927888068
 30
0.0
 41
1.0
 10
837.17324499086703
 20
-1494.71611169681
 30
0.0
 41
1.0
 10
837.09938837260734
 20
-1495.0200457635667
 30
0.0
 41
0.9999659914732637
 10
837.02052877672304
 20
-1495.3227203101217
 30
0.0
 41
1.0
 10
837.01557608779149
 20
-1495.3417294473074
 30
0.0
 41
1.0
 10
837.01062339885993
 20
-1495.3607385844932
 30
0.0
 41
1.0
 10
836.92185842511367
 20
-1495.7014314054159
 30
0.0
 41
0.9999441976023993
 10
836.82591539214832
 20
-1496.0401728307211
 30
0.0
 41
1.0
 10
836.80921487372416
 20
-1496.099136543244
 30
0.0
 41
1.0
 10
836.7925143553
 20
-1496.1581002557668
 30
0.0
 41
1.0
 10
836.66317028548406
 20
-1496.6147691061251
 30
0.0
 41
0.999962512073991
 10
836.52593751815971
 20
-1497.0691296401249
 30
0.0
 41
1.0
 10
836.49014757508098
 20
-1497.1876256667379
 30
0.0
 41
1.0
 10
836.45435763200226
 20
-1497.3061216933509
 30
0.0
 41
1.0
 10
836.37983742795882
 20
-1497.5528487714612
 30
0.0
 41
0.9999793386318902
 10
836.30215140481755
 20
-1497.7985974107094
 30
0.0
 41
1.0
 10
836.22446538167992
 20
-1498.0443460499455
 30
0.0
 41
1.0
 10
836.21368582280923
 20
-1498.0783639543201
 30
0.0
 41
1.0
 10
834.36331276954002
 20
-1503.9654358767875
 30
0.0
 41
1.0
 10
832.51293971627092
 20
-1509.8525077992551
 30
0.0
 41
1.0
 10
831.55168302624736
 20
-1509.8525077992551
 30
0.0
 41
1.0
 10
830.5904263362238
 20
-1509.8525077992551
 30
0.0
 41
1.0
 10
832.2093711149023
 20
-1504.7044792974657
 30
0.0
 41
1.0
 10
833.82831589358068
 20
-1499.5564507956763
 30
0.0
 41
1.0
 10
833.87348171675922
 20
-1499.4124195733928
 30
0.0
 41
1.0
 10
833.91864753993787
 20
-1499.2683883511093
 30
0.0
 41
1.0
 10
834.08895195729701
 20
-1498.7252973219584
 30
0.0
 41
0.999991165788978
 10
834.25468476897231
 20
-1498.1807937906103
 30
0.0
 41
1.0
 10
834.28438071247888
 20
-1498.0832298505395
 30
0.0
 41
1.0
 10
834.31407665598556
 20
-1497.9856659104687
 30
0.0
 41
1.0
 10
834.42041758065329
 20
-1497.6362902592441
 30
0.0
 41
0.9999952428127164
 10
834.52460116997736
 20
-1497.2862652348972
 30
0.0
 41
1.0
 10
834.52966064031011
 20
-1497.2692669606213
 30
0.0
 41
1.0
 10
834.53472011064275
 20
-1497.2522686863454
 30
0.0
 41
1.0
 10
834.62878475930484
 20
-1496.9362402105398
 30
0.0
 41
0.9999931687526372
 10
834.72051059717603
 20
-1496.619524997277
 30
0.0
 41
1.0
 10
834.72544586163144
 20
-1496.6024842880202
 30
0.0
 41
1.0
 10
834.73038112608685
 20
-1496.5854435787633
 30
0.0
 41
1.0
 10
834.8122364350495
 20
-1496.3028097840079
 30
0.0
 41
0.999989384077982
 10
834.89148366150653
 20
-1496.01943365476
 30
0.0
 41
1.0
 10
834.97073088796526
 20
-1495.7360575255068
 30
0.0
 41
0.9999833980073383
 10
835.04670712871132
 20
-1495.4517869424617
 30
0.0
 41
1.0
 10
835.05571106543016
 20
-1495.4180980639958
 30
0.0
 41
1.0
 10
835.064715002149
 20
-1495.3844091855301
 30
0.0
 41
1.0
 10
835.13367955101717
 20
-1495.1263733532273
 30
0.0
 41
0.9999233658066891
 10
835.19623452223686
 20
-1494.8667091945069
 30
0.0
 41
1.0
 10
835.25878949345713
 20
-1494.6070450357845
 30
0.0
 41
1.0
 10
835.2982729123147
 20
-1494.4432383713583
 30
0.0
 41
1.0
 10
835.30325151629006
 20
-1494.4225834094959
 30
0.0
 41
1.0
 10
835.30823012026542
 20
-1494.4019284476335
 30
0.0
 41
1.0
 10
835.33775633117352
 20
-1494.2794317069265
 30
0.0
 41
0.9999868670877897
 10
835.36602541516845
 20
-1494.1566387612868
 30
0.0
 41
1.0
 10
835.36992290232854
 20
-1494.1397091738595
 30
0.0
 41
1.0
 10
835.37382038948863
 20
-1494.1227795864322
 30
0.0
 41
1.0
 10
835.39429449916645
 20
-1494.0338458156339
 30
0.0
 41
0.999977817334224
 10
835.41358209728014
 20
-1493.9446471984108
 30
0.0
 41
1.0
 10
835.43286969539599
 20
-1493.8554485811785
 30
0.0
 41
0.999960269285698
 10
835.45056405402568
 20
-1493.7659202927573
 30
0.0
 41
1.0
 10
835.45376788610361
 20
-1493.7497098378699
 30
0.0
 41
1.0
 10
835.45697171818153
 20
-1493.7334993829827
 30
0.0
 41
1.0
 10
835.48107374096742
 20
-1493.6115501847853
 30
0.0
 41
0.9995617985321115
 10
835.4979170881868
 20
-1493.4883884370763
 30
0.0
 41
1.0
 10
835.50038157809286
 20
-1493.4703676197114
 30
0.0
 41
1.0
 10
835.50284606799892
 20
-1493.4523468023467
 30
0.0
 41
1.0
 10
835.52312932904715
 20
-1493.3040317526452
 30
0.0
 41
0.9991121410639734
 10
835.53085468263532
 20
-1493.1545356538404
 30
0.0
 41
1.0
 10
835.53177347265978
 20
-1493.1367558172653
 30
0.0
 41
1.0
 10
835.53269226268435
 20
-1493.1189759806903
 30
0.0
 41
1.0
 10
835.53858003622338
 20
-1493.0050395550365
 30
0.0
 41
0.9989792494906314
 10
835.53416094410625
 20
-1492.8910367191356
 30
0.0
 41
1.0
 10
835.53351297223753
 20
-1492.8743204732091
 30
0.0
 41
1.0
 10
835.53286500036893
 20
-1492.8576042272825
 30
0.0
 41
1.0
 10
835.52974185198912
 20
-1492.7770338832404
 30
0.0
 41
0.9997820295394732
 10
835.52325785461323
 20
-1492.6966641614933
 30
0.0
 41
1.0
 10
835.51677385723758
 20
-1492.616294439749
 30
0.0
 41
0.9998335105974255
 10
835.50736166172589
 20
-1492.5362148232989
 30
0.0
 41
1.0
 10
835.5057667370495
 20
-1492.522645092816
 30
0.0
 41
1.0
 10
835.50417181237322
 20
-1492.5090753623331
 30
0.0
 41
1.0
 10
835.49156976750885
 20
-1492.4018562849185
 30
0.0
 41
0.9996876457878909
 10
835.47362585471092
 20
-1492.2954008572044
 30
0.0
 41
1.0
 10
835.47139419156542
 20
-1492.2821611219608
 30
0.0
 41
1.0
 10
835.46916252841982
 20
-1492.2689213867172
 30
0.0
 41
1.0
 10
835.45536670699857
 20
-1492.1870752427587
 30
0.0
 41
0.9995547496495731
 10
835.43671338510615
 20
-1492.1061977455679
 30
0.0
 41
1.0
 10
835.43633942823476
 20
-1492.1045763348623
 30
0.0
 41
1.0
 10
835.43596547136349
 20
-1492.1029549241566
 30
0.0
 41
1.0
 10
835.41806006321349
 20
-1492.0253202483766
 30
0.0
 41
0.9994899427175805
 10
835.39523515453425
 20
-1491.9489869655422
 30
0.0
 41
1.0
 10
835.39477662779404
 20
-1491.9474535157551
 30
0.0
 41
1.0
 10
835.39431810105373
 20
-1491.9459200659683
 30
0.0
 41
1.0
 10
835.37241024585546
 20
-1491.8726536827098
 30
0.0
 41
0.9993784877591445
 10
835.34539461074826
 20
-1491.8011129775489
 30
0.0
 41
1.0
 10
835.34486291977169
 20
-1491.7997049948292
 30
0.0
 41
1.0
 10
835.34433122879511
 20
-1491.7982970121095
 30
0.0
 41
1.0
 10
835.3183789756423
 20
-1491.7295722723914
 30
0.0
 41
0.9992430832254583
 10
835.28716244048223
 20
-1491.6630731203215
 30
0.0
 41
1.0
 10
835.28658032442559
 20
-1491.6618330652041
 30
0.0
 41
1.0
 10
835.28599820836905
 20
-1491.6605930100868
 30
0.0
 41
1.0
 10
835.25594590532307
 20
-1491.5965739682533
 30
0.0
 41
0.9990789632797859
 10
835.22051527854626
 20
-1491.5353673565037
 30
0.0
 41
1.0
 10
835.21991957236457
 20
-1491.5343382706451
 30
0.0
 41
1.0
 10
835.21932386618289
 20
-1491.5333091847863
 30
0.0
 41
1.0
 10
835.18508465176922
 20
-1491.4741607447534
 30
0.0
 41
0.9988874801119784
 10
835.14542537573743
 20
-1491.4185010323363
 30
0.0
 41
1.0
 10
835.14486984967334
 20
-1491.417721380662
 30
0.0
 41
1.0
 10
835.14431432360936
 20
-1491.4169417289875
 30
0.0
 41
1.0
 10
835.10576609970599
 20
-1491.3628413199192
 30
0.0
 41
0.9986762060693486
 10
835.06186362842936
 20
-1491.3129876054791
 30
0.0
 41
1.0
 10
835.06141966809719
 20
-1491.3124834636624
 30
0.0
 41
1.0
 10
835.06097570776501
 20
-1491.3119793218459
 30
0.0
 41
1.0
 10
835.01796115715331
 20
-1491.2631338910401
 30
0.0
 41
0.9984621642488714
 10
834.96980360037537
 20
-1491.2193505905689
 30
0.0
 41
1.0
 10
834.96955696585883
 20
-1491.2191263584054
 30
0.0
 41
1.0
 10
834.9693103313424
 20
-1491.218902126242
 30
0.0
 41
1.0
 10
834.92164604359721
 20
-1491.1755672900974
 30
0.0
 41
0.9982724693851044
 10
834.86922741175613
 20
-1491.1381229395802
 30
0.0
 41
1.0
 10
834.8168087799146
 20
-1491.1006785890625
 30
0.0
 41
0.9981399180158305
 10
834.76022271652016
 20
-1491.0698920696184
 30
0.0
 41
1.0
 10
834.76017705444224
 20
-1491.0698672264616
 30
0.0
 41
1.0
 10
834.76013139236443
 20
-1491.0698423833046
 30
0.0
 41
1.0
 10
834.70345400481426
 20
-1491.0390061775468
 30
0.0
 41
0.9980927086836974
 10
834.64340865374788
 20
-1491.0153893686943
 30
0.0
 41
1.0
 10
834.64296848403615
 20
-1491.0152162428194
 30
0.0
 41
1.0
 10
834.64252831432441
 20
-1491.0150431169443
 30
0.0
 41
1.0
 10
834.58160262383444
 20
-1490.9910800563416
 30
0.0
 41
0.9981411356561979
 10
834.51821410243474
 20
-1490.9747074148361
 30
0.0
 41
1.0
 10
834.51733198573356
 20
-1490.9744795726306
 30
0.0
 41
1.0
 10
834.51644986903239
 20
-1490.9742517304253
 30
0.0
 41
1.0
 10
834.45129711423101
 20
-1490.957423404509
 30
0.0
 41
0.9983031812936103
 10
834.38462968523697
 20
-1490.9482840433327
 30
0.0
 41
1.0
 10
834.37575865983138
 20
-1490.9470679246613
 30
0.0
 41
1.0
 10
834.36688763442578
 20
-1490.9458518059898
 30
0.0
 41
1.0
 10
834.31253799192245
 20
-1490.9384010759986
 30
0.0
 41
0.9983887708262449
 10
834.2576941426305
 20
-1490.9371564023654
 30
0.0
 41
1.0
 10
834.24963073740787
 20
-1490.9369734044903
 30
0.0
 41
1.0
 10
834.24156733218524
 20
-1490.9367904066155
 30
0.0
 41
1.0
 10
834.20285029333252
 20
-1490.9359117287322
 30
0.0
 41
0.9998869563078301
 10
834.164124340135
 20
-1490.9361975980919
 30
0.0
 41
1.0
 10
834.12539838696705
 20
-1490.9364834674514
 30
0.0
 41
0.9999972320110526
 10
834.08667420779057
 20
-1490.9369515669798
 30
0.0
 41
1.0
 10
834.06732119117601
 20
-1490.9371855070694
 30
0.0
 41
1.0
 10
834.04796817456156
 20
-1490.9374194471593
 30
0.0
 41
1.0
 10
833.97053796219313
 20
-1490.9383554268672
 30
0.0
 41
0.9997304945087567
 10
833.89323465595805
 20
-1490.942884520653
 30
0.0
 41
1.0
 10
833.88418501425144
 20
-1490.9434147266431
 30
0.0
 41
1.0
 10
833.87513537254472
 20
-1490.9439449326333
 30
0.0
 41
1.0
 10
833.77973278289733
 20
-1490.949534438399
 30
0.0
 41
0.9997888306415237
 10
833.68464044705399
 20
-1490.9590394028883
 30
0.0
 41
1.0
 10
833.6759193854823
 20
-1490.9599111175203
 30
0.0
 41
1.0
 10
833.6671983239105
 20
-1490.9607828321523
 30
0.0
 41
1.0
 10
833.55466386492162
 20
-1490.9720312259058
 30
0.0
 41
0.9984170238190775
 10
833.44410471756964
 20
-1490.9958473078418
 30
0.0
 41
1.0
 10
833.40772358658398
 20
-1491.0036843436478
 30
0.0
 41
1.0
 10
833.37134245559832
 20
-1491.0115213794536
 30
0.0
 41
1.0
 10
833.25615138717649
 20
-1491.0363352459633
 30
0.0
 41
0.9976592854199591
 10
833.1454232207717
 20
-1491.0766339231104
 30
0.0
 41
1.0
 10
833.03469505436544
 20
-1491.116932600258
 30
0.0
 41
0.9993255074352472
 10
832.92722325557349
 20
-1491.1652494987511
 30
0.0
 41
1.0
 10
832.92259807665141
 20
-1491.1673288749503
 30
0.0
 41
1.0
 10
832.91797289772933
 20
-1491.1694082511494
 30
0.0
 41
1.0
 10
832.8012507410923
 20
-1491.2218839020413
 30
0.0
 41
0.9976475078275346
 10
832.6928033967821
 20
-1491.2898318916996
 30
0.0
 41
1.0
 10
832.67446100264578
 20
-1491.301324370515
 30
0.0
 41
1.0
 10
832.65611860850959
 20
-1491.3128168493304
 30
0.0
 41
1.0
 10
832.57191641695931
 20
-1491.3655739700976
 30
0.0
 41
0.9995131336406923
 10
832.49116870200237
 20
-1491.4234801820505
 30
0.0
 41
1.0
 10
832.41042098704793
 20
-1491.4813863940017
 30
0.0
 41
0.9995810107606699
 10
832.33315933932352
 20
-1491.5438680764639
 30
0.0
 41
1.0
 10
832.33018930810977
 20
-1491.5462699479313
 30
0.0
 41
1.0
 10
832.32721927689602
 20
-1491.5486718193988
 30
0.0
 41
1.0
 10
832.24401756674513
 20
-1491.6159572447953
 30
0.0
 41
0.999661783795464
 10
832.16442687960557
 20
-1491.6874777003593
 30
0.0
 41
1.0
 10
832.15229612873304
 20
-1491.6983784333459
 30
0.0
 41
1.0
 10
832.14016537786063
 20
-1491.7092791663324
 30
0.0
 41
1.0
 10
832.07188985046025
 20
-1491.7706317818081
 30
0.0
 41
0.9997267750052511
 10
832.00655634217651
 20
-1491.8351083183334
 30
0.0
 41
1.0
 10
831.94122283389311
 20
-1491.8995848548584
 30
0.0
 41
0.9999667288956093
 10
831.87694989074612
 20
-1491.9651186617532
 30
0.0
 41
1.0
 10
831.80812244297101
 20
-1492.0352963205114
 30
0.0
 41
1.0
 10
831.73929499519591
 20
-1492.1054739792698
 30
0.0
 41
1.0
 10
831.53736715649961
 20
-1492.3113631036802
 30
0.0
 41
0.9988205335175189
 10
831.35636153951907
 20
-1492.5358673357418
 30
0.0
 41
1.0
 10
831.32572157461459
 20
-1492.5738705861713
 30
0.0
 41
1.0
 10
831.29508160971022
 20
-1492.611873836601
 30
0.0
 41
1.0
 10
831.05279606292322
 20
-1492.9123845695194
 30
0.0
 41
0.9997077826754915
 10
830.8253181118198
 20
-1493.2242543637328
 30
0.0
 41
1.0
 10
830.82359469668745
 20
-1493.2266171471149
 30
0.0
 41
1.0
 10
830.82187128155522
 20
-1493.228979930497
 30
0.0
 41
1.0
 10
830.59094650018938
 20
-1493.545575291472
 30
0.0
 41
0.9989147567078952
 10
830.39048299730689
 20
-1493.8822847526551
 30
0.0
 41
1.0
 10
830.3657418519972
 20
-1493.9238413332123
 30
0.0
 41
1.0
 10
830.34100070668751
 20
-1493.9653979137693
 30
0.0
 41
1.0
 10
830.18578940805071
 20
-1494.226099298221
 30
0.0
 41
0.9997476598180999
 10
830.04244442054471
 20
-1494.4935090467973
 30
0.0
 41
1.0
 10
829.89909943303633
 20
-1494.7609187953774
 30
0.0
 41
0.999625896711038
 10
829.77059118110549
 20
-1495.0357667319993
 30
0.0
 41
1.0
 10
829.75739127165434
 20
-1495.0639981320978
 30
0.0
 41
1.0
 10
829.74419136220331
 20
-1495.0922295321966
 30
0.0
 41
1.0
 10
829.60398264120272
 20
-1495.3921019301513
 30
0.0
 41
0.9998735413943543
 10
829.4733812944836
 20
-1495.696281529616
 30
0.0
 41
1.0
 10
829.46993846642374
 20
-1495.7043001150791
 30
0.0
 41
1.0
 10
829.46649563836388
 20
-1495.7123187005423
 30
0.0
 41
1.0
 10
829.34277994776619
 20
-1496.0004611290769
 30
0.0
 41
0.9999377418861604
 10
829.22552514558856
 20
-1496.2912925967589
 30
0.0
 41
1.0
 10
829.10827034341366
 20
-1496.5821240644341
 30
0.0
 41
0.9999508299507781
 10
828.99680640003771
 20
-1496.8752237412511
 30
0.0
 41
1.0
 10
828.99372563137433
 20
-1496.8833247672173
 30
0.0
 41
1.0
 10
828.99064486271095
 20
-1496.8914257931838
 30
0.0
 41
1.0
 10
828.87301938200835
 20
-1497.2007275219341
 30
0.0
 41
0.9999609228437775
 10
828.76088077913278
 20
-1497.5120605379539
 30
0.0
 41
1.0
 10
828.75792476878405
 20
-1497.5202673783606
 30
0.0
 41
1.0
 10
828.75496875843544
 20
-1497.5284742187673
 30
0.0
 41
1.0
 10
828.6369181348598
 20
-1497.8562209156084
 30
0.0
 41
0.9999674607404177
 10
828.5241706087927
 20
-1498.1858295356005
 30
0.0
 41
1.0
 10
828.47277221823038
 20
-1498.336088731292
 30
0.0
 41
1.0
 10
828.42137382766805
 20
-1498.4863479269836
 30
0.0
 41
1.0
 10
828.30536322091041
 20
-1498.8254959094859
 30
0.0
 41
0.9999287532307594
 10
828.19748181694035
 20
-1499.1673166484597
 30
0.0
 41
1.0
 10
828.15100456079369
 20
-1499.3145791928541
 30
0.0
 41
1.0
 10
828.10452730464704
 20
-1499.4618417372487
 30
0.0
 41
1.0
 10
828.08960041293028
 20
-1499.5091373875603
 30
0.0
 41
0.9999998222809698
 10
828.07472990423923
 20
-1499.5564507956763
 30
0.0
 41
1.0
 10
826.45407376744379
 20
-1504.7044792974657
 30
0.0
 41
1.0
 10
824.83341763064834
 20
-1509.8525077992551
 30
0.0
 41
1.0
 10
823.92810918675741
 20
-1509.8525077992551
 30
0.0
 41
1.0
 10
823.02280074286648
 20
-1509.8525077992551
 30
0.0
 41
1.0
 10
824.87488515425252
 20
-1503.9654358767875
 30
0.0
 41
1.0
 10
826.72696956563857
 20
-1498.0783639543201
 30
0.0
 41
1.0
 10
826.73709132394129
 20
-1498.0463207408704
 30
0.0
 41
1.0
 10
826.80969899279103
 20
-1497.8160211990446
 30
0.0
 41
1.0
 10
826.88230666163668
 20
-1497.5857216572322
 30
0.0
 41
0.9999825681965318
 10
826.95218970084443
 20
-1497.3545807621795
 30
0.0
 41
1.0
 10
827.00048076301016
 20
-1497.1948561786674
 30
0.0
 41
1.0
 10
827.04877182517589
 20
-1497.0351315951552
 30
0.0
 41
1.0
 10
827.14592417849281
 20
-1496.7137963733799
 30
0.0
 41
0.9999672528964314
 10
827.23786298411312
 20
-1496.3909308278039
 30
0.0
 41
1.0
 10
827.24065186778034
 20
-1496.381136982423
 30
0.0
 41
1.0
 10
827.24344075144745
 20
-1496.3713431370422
 30
0.0
 41
1.0
 10
827.32980178973071
 20
-1496.0680652822375
 30
0.0
 41
0.9999899749137505
 10
827.41344339927116
 20
-1495.7640261937649
 30
0.0
 41
1.0
 10
827.42354931829095
 20
-1495.7272909560784
 30
0.0
 41
1.0
 10
827.43365523731063
 20
-1495.6905557183918
 30
0.0
 41
1.0
 10
827.49708500880752
 20
-1495.4599871053065
 30
0.0
 41
0.9999214200505743
 10
827.55471443718352
 20
-1495.2279007631032
 30
0.0
 41
1.0
 10
827.56748028936181
 20
-1495.1764898777164
 30
0.0
 41
1.0
 10
827.58024614154021
 20
-1495.1250789923295
 30
0.0
 41
1.0
 10
827.61234386555623
 20
-1494.9958144209145
 30
0.0
 41
0.9999828681658449
 10
827.64292611755673
 20
-1494.8661829464265
 30
0.0
 41
1.0
 10
827.67350836955166
 20
-1494.7365514719618
 30
0.0
 41
0.9999389844474275
 10
827.70121935834027
 20
-1494.6062760160642
 30
0.0
 41
1.0
 10
827.70835710206097
 20
-1494.5727199122243
 30
0.0
 41
1.0
 10
827.71549484578179
 20
-1494.5391638083843
 30
0.0
 41
1.0
 10
827.75748132201079
 20
-1494.341776144812
 30
0.0
 41
0.9998933699440176
 10
827.79368558641261
 20
-1494.1432465370563
 30
0.0
 41
1.0
 10
827.7950584116295
 20
-1494.135718516357
 30
0.0
 41
1.0
 10
827.79643123684639
 20
-1494.1281904956575
 30
0.0
 41
1.0
 10
827.8353811516813
 20
-1493.9146048465061
 30
0.0
 41
0.9996850305194083
 10
827.86356482793997
 20
-1493.6993338410703
 30
0.0
 41
1.0
 10
827.86555986130907
 20
-1493.6840954869494
 30
0.0
 41
1.0
 10
827.86755489467816
 20
-1493.6688571328289
 30
0.0
 41
1.0
 10
827.89496275713725
 20
-1493.4595119056739
 30
0.0
 41
0.9994697936706696
 10
827.90868731635737
 20
-1493.2488267103399
 30
0.0
 41
1.0
 10
827.90916438560703
 20
-1493.2415032381291
 30
0.0
 41
1.0
 10
827.90964145485668
 20
-1493.2341797659185
 30
0.0
 41
1.0
 10
827.92241187557693
 20
-1493.0381415150098
 30
0.0
 41
0.9991804893136878
 10
827.91928355930418
 20
-1492.8417126650356
 30
0.0
 41
1.0
 10
827.91919968048205
 20
-1492.8364458636233
 30
0.0
 41
1.0
 10
827.91911580165993
 20
-1492.8311790622108
 30
0.0
 41
1.0
 10
827.91615524303143
 20
-1492.6452838150635
 30
0.0
 41
0.9988448329321517
 10
827.89536369740756
 20
-1492.4605312252288
 30
0.0
 41
1.0
 10
827.89376962370466
 20
-1492.446366369458
 30
0.0
 41
1.0
 10
827.89217555000164
 20
-1492.4322015136872
 30
0.0
 41
1.0
 10
827.87457215178381
 20
-1492.2757786353959
 30
0.0
 41
0.9985503209459006
 10
827.84025587948418
 20
-1492.1221544513062
 30
0.0
 41
1.0
 10
827.83266988741298
 20
-1492.0881941239059
 30
0.0
 41
1.0
 10
827.82508389534178
 20
-1492.0542337965057
 30
0.0
 41
1.0
 10
827.80593960718465
 20
-1491.9685302672169
 30
0.0
 41
0.9991036781370585
 10
827.77961474553354
 20
-1491.884753179892
 30
0.0
 41
1.0
 10
827.77563252007712
 20
-1491.8720800173801
 30
0.0
 41
1.0
 10
827.7716502946206
 20
-1491.859406854868
 30
0.0
 41
1.0
 10
827.75328988388276
 20
-1491.8009760925686
 30
0.0
 41
0.9998874504367178
 10
827.73318467620379
 20
-1491.7431224903437
 30
0.0
 41
1.0
 10
827.71307946852517
 20
-1491.6852688881197
 30
0.0
 41
0.9994041637543529
 10
827.68903085559157
 20
-1491.6289401842316
 30
0.0
 41
1.0
 10
827.68483407136728
 20
-1491.6191101197492
 30
0.0
 41
1.0
 10
827.68063728714299
 20
-1491.6092800552667
 30
0.0
 41
1.0
 10
827.65275845614894
 20
-1491.5439798893008
 30
0.0
 41
0.9991846840702796
 10
827.61970209945548
 20
-1491.4811418580193
 30
0.0
 41
1.0
 10
827.61856549306071
 20
-1491.4789812415652
 30
0.0
 41
1.0
 10
827.61742888666595
 20
-1491.4768206251108
 30
0.0
 41
1.0
 10
827.58664574276258
 20
-1491.4183038267395
 30
0.0
 41
0.9989253167923683
 10
827.5505763187075
 20
-1491.362888898349
 30
0.0
 41
1.0
 10
827.54952219403299
 20
-1491.3612694035864
 30
0.0
 41
1.0
 10
827.54846806935859
 20
-1491.3596499088237
 30
0.0
 41
1.0
 10
827.51450689465196
 20
-1491.3074739699578
 30
0.0
 41
0.9986467172835291
 10
827.47530974201504
 20
-1491.2591079363292
 30
0.0
 41
1.0
 10
827.4744356133142
 20
-1491.2580293340509
 30
0.0
 41
1.0
 10
827.47356148461347
 20
-1491.2569507317726
 30
0.0
 41
1.0
 10
827.43611258937744
 20
-1491.2107419026991
 30
0.0
 41
0.9984001104266564
 10
827.39368585886052
 20
-1491.1690567953306
 30
0.0
 41
1.0
 10
827.39309872075125
 20
-1491.1684799204495
 30
0.0
 41
1.0
 10
827.39251158264199
 20
-1491.1679030455682
 30
0.0
 41
1.0
 10
827.35125912834383
 20
-1491.1273716879623
 30
0.0
 41
0.9982442159083774
 10
827.30550302700772
 20
-1491.0920031267017
 30
0.0
 41
1.0
 10
827.305288231546
 20
-1491.0918370940585
 30
0.0
 41
1.0
 10
827.30507343608417
 20
-1491.0916710614154
 30
0.0
 41
1.0
 10
827.25974692567218
 20
-1491.0566345654415
 30
0.0
 41
0.9982450060835288
 10
827.21059594660039
 20
-1491.027202782408
 30
0.0
 41
1.0
 10
827.1614449675302
 20
-1490.9977709993752
 30
0.0
 41
0.9983922639635038
 10
827.10927866136581
 20
-1490.9740913647213
 30
0.0
 41
1.0
 10
827.10905178404028
 20
-1490.9739883792395
 30
0.0
 41
1.0
 10
827.10882490671486
 20
-1490.9738853937574
 30
0.0
 41
1.0
 10
827.05620484589997
 20
-1490.9499997881401
 30
0.0
 41
0.9986517147149261
 10
827.00139187303068
 20
-1490.931698669018
 30
0.0
 41
1.0
 10
827.00071395160398
 20
-1490.9314723225871
 30
0.0
 41
1.0
 10
827.0000360301774
 20
-1490.9312459761559
 30
0.0
 41
1.0
 10
826.94386721445449
 20
-1490.9124921641715
 30
0.0
 41
0.9989435598956203
 10
826.88621382730366
 20
-1490.8989744619371
 30
0.0
 41
1.0
 10
826.88513370772137
 20
-1490.898721211684
 30
0.0
 41
1.0
 10
826.88405358813907
 20
-1490.8984679614307
 30
0.0
 41
1.0
 10
826.82423996182411
 20
-1490.8844437586902
 30
0.0
 41
0.9992249241239604
 10
826.76350845292677
 20
-1490.8751684159752
 30
0.0
 41
1.0
 10
826.76209476463578
 20
-1490.8749525075673
 30
0.0
 41
1.0
 10
826.76068107634478
 20
-1490.8747365991594
 30
0.0
 41
1.0
 10
826.69712219086375
 20
-1490.8650294396282
 30
0.0
 41
0.9994396597833178
 10
826.63305625432542
 20
-1490.8595965172824
 30
0.0
 41
1.0
 10
826.61391558684909
 20
-1490.857973349564
 30
0.0
 41
1.0
 10
826.59477491937275
 20
-1490.8563501818453
 30
0.0
 41
1.0
 10
826.49242764787982
 20
-1490.8476709240624
 30
0.0
 41
0.9987693403121485
 10
826.38972402429272
 20
-1490.8491739875151
 30
0.0
 41
1.0
 10
826.37946969006737
 20
-1490.8493240592893
 30
0.0
 41
1.0
 10
826.36921535584202
 20
-1490.8494741310635
 30
0.0
 41
1.0
 10
826.25965958966151
 20
-1490.8510774753508
 30
0.0
 41
0.9989753644966579
 10
826.1506975896433
 20
-1490.8625804822759
 30
0.0
 41
1.0
 10
826.04173558962668
 20
-1490.8740834892012
 30
0.0
 41
0.9983190067306144
 10
825.93483677866129
 20
-1490.8981184809882
 30
0.0
 41
1.0
 10
825.9259358270549
 20
-1490.9001197595508
 30
0.0
 41
1.0
 10
825.91703487544839
 20
-1490.9021210381134
 30
0.0
 41
1.0
 10
825.79233416126999
 20
-1490.9301585870255
 30
0.0
 41
0.9985539388303332
 10
825.67136440759191
 20
-1490.971422263071
 30
0.0
 41
1.0
 10
825.66901897663161
 20
-1490.9722223068868
 30
0.0
 41
1.0
 10
825.6666735456713
 20
-1490.9730223507026
 30
0.0
 41
1.0
 10
825.5410129300725
 20
-1491.01588611438
 30
0.0
 41
0.9988468746493868
 10
825.42004258777206
 20
-1491.0706041994426
 30
0.0
 41
1.0
 10
825.41685976578356
 20
-1491.0720438740025
 30
0.0
 41
1.0
 10
825.41367694379517
 20
-1491.0734835485623
 30
0.0
 41
1.0
 10
825.28634095751931
 20
-1491.1310809827437
 30
0.0
 41
0.999132288591978
 10
825.16424037346371
 20
-1491.1990763149247
 30
0.0
 41
1.0
 10
825.14663836241925
 20
-1491.2088785169149
 30
0.0
 41
1.0
 10
825.12903635137491
 20
-1491.2186807189048
 30
0.0
 41
1.0
 10
825.02685967031687
 20
-1491.275580834686
 30
0.0
 41
0.9993860037849671
 10
824.92891866624223
 20
-1491.3394968502753
 30
0.0
 41
1.0
 10
824.92330035338955
 20
-1491.3431633449704
 30
0.0
 41
1.0
 10
824.91768204053676
 20
-1491.3468298396656
 30
0.0
 41
1.0
 10
824.8309776621702
 20
-1491.4034128658629
 30
0.0
 41
0.9998821494953202
 10
824.74605128635608
 20
-1491.4626310959407
 30
0.0
 41
1.0
 10
824.66112491054309
 20
-1491.5218493260174
 30
0.0
 41
0.9997976482743646
 10
824.5786492801418
 20
-1491.5844357340573
 30
0.0
 41
1.0
 10
824.56401301533583
 20
-1491.595542423838
 30
0.0
 41
1.0
 10
824.54937675052975
 20
-1491.6066491136187
 30
0.0
 41
1.0
 10
824.43762859051708
 20
-1491.6914489012195
 30
0.0
 41
0.9998091630800986
 10
824.32927831249356
 20
-1491.7805492519176
 30
0.0
 41
1.0
 10
824.31627256001377
 20
-1491.7912443523655
 30
0.0
 41
1.0
 10
824.30326680753399
 20
-1491.8019394528137
 30
0.0
 41
1.0
 10
824.1689050245509
 20
-1491.912430004408
 30
0.0
 41
0.9995035112317301
 10
824.04176914678658
 20
-1492.0311638214237
 30
0.0
 41
1.0
 10
824.03212183639835
 20
-1492.0401735675823
 30
0.0
 41
1.0
 10
824.02247452601023
 20
-1492.0491833137412
 30
0.0
 41
1.0
 10
823.89905146324691
 20
-1492.1644496854951
 30
0.0
 41
0.999463042429919
 10
823.78344305746441
 20
-1492.2875524287288
 30
0.0
 41
1.0
 10
823.77976021869404
 20
-1492.2914740082406
 30
0.0
 41
1.0
 10
823.77607737992378
 20
-1492.2953955877524
 30
0.0
 41
1.0
 10
823.66783465168282
 20
-1492.4106551719615
 30
0.0
 41
0.9995160693750325
 10
823.56696862214858
 20
-1492.5324225898366
 30
0.0
 41
1.0
 10
823.56503490206615
 20
-1492.5347570140468
 30
0.0
 41
1.0
 10
823.56310118198371
 20
-1492.537091438257
 30
0.0
 41
1.0
 10
823.46610259261445
 20
-1492.6541900077118
 30
0.0
 41
0.9996561470514207
 10
823.37537637395076
 20
-1492.7762127701583
 30
0.0
 41
1.0
 10
823.36921870805133
 20
-1492.7844945591971
 30
0.0
 41
1.0
 10
823.36306104215191
 20
-1492.792776348236
 30
0.0
 41
1.0
 10
823.28465015528718
 20
-1492.8982355326045
 30
0.0
 41
0.9998349055172532
 10
823.2101228733527
 20
-1493.006474116271
 30
0.0
 41
1.0
 10
823.13559559141368
 20
-1493.114712699944
 30
0.0
 41
0.9999728109571292
 10
823.06267269550642
 20
-1493.224038625495
 30
0.0
 41
1.0
 10
823.0613574800966
 20
-1493.2260103949948
 30
0.0
 41
1.0
 10
823.06004226468679
 20
-1493.2279821644945
 30
0.0
 41
1.0
 10
822.98448893795648
 20
-1493.3412516290496
 30
0.0
 41
0.9999972147417454
 10
822.90947112758693
 20
-1493.4548764718788
 30
0.0
 41
1.0
 10
822.9044995849606
 20
-1493.4624065603571
 30
0.0
 41
1.0
 10
822.8995280423344
 20
-1493.4699366488353
 30
0.0
 41
1.0
 10
822.81456714672299
 20
-1493.5986216686044
 30
0.0
 41
0.9999371979003118
 10
822.73251179732665
 20
-1493.7291785823686
 30
0.0
 41
1.0
 10
822.72900291295696
 20
-1493.7347615104463
 30
0.0
 41
1.0
 10
822.72549402858726
 20
-1493.7403444385238
 30
0.0
 41
1.0
 10
822.63642091045938
 20
-1493.8820672084314
 30
0.0
 41
0.9998272025610855
 10
822.55267751958047
 20
-1494.0270030851686
 30
0.0
 41
1.0
 10
822.53746234755454
 20
-1494.0533361996286
 30
0.0
 41
1.0
 10
822.52224717552872
 20
-1494.0796693140883
 30
0.0
 41
1.0
 10
822.40807344059897
 20
-1494.2772714197431
 30
0.0
 41
0.9995217214838473
 10
822.30633375104389
 20
-1494.481553747604
 30
0.0
 41
1.0
 10
822.29869018840918
 20
-1494.4969011973062
 30
0.0
 41
1.0
 10
822.29104662577458
 20
-1494.5122486470084
 30
0.0
 41
1.0
 10
822.20414133318411
 20
-1494.6867451050912
 30
0.0
 41
0.9998269762605688
 10
822.12378686691102
 20
-1494.8643533918168
 30
0.0
 41
1.0
 10
822.04343240063758
 20
-1495.0419616785437
 30
0.0
 41
0.9998944747386849
 10
821.96827160607143
 20
-1495.2218294041766
 30
0.0
 41
1.0
 10
821.96331793648051
 20
-1495.2336840590933
 30
0.0
 41
1.0
 10
821.95836426688948
 20
-1495.2455387140103
 30
0.0
 41
1.0
 10
821.87771720633577
 20
-1495.4385356540306
 30
0.0
 41
0.9999506734412224
 10
821.80091967743522
 20
-1495.6330964588797
 30
0.0
 41
1.0
 10
821.78631971216055
 20
-1495.670084380695
 30
0.0
 41
1.0
 10
821.77171974688599
 20
-1495.7070723025104
 30
0.0
 41
1.0
 10
821.72412214852534
 20
-1495.8276572637515
 30
0.0
 41
0.9999912393903223
 10
821.67753570450918
 20
-1495.9486364664317
 30
0.0
 41
1.0
 10
821.63094926049075
 20
-1496.069615669117
 30
0.0
 41
0.9999927113971823
 10
821.58528796610176
 20
-1496.1909470766043
 30
0.0
 41
1.0
 10
821.57131953469934
 20
-1496.2280640586159
 30
0.0
 41
1.0
 10
821.55735110329692
 20
-1496.2651810406273
 30
0.0
 41
1.0
 10
821.48375294610355
 20
-1496.4607464121368
 30
0.0
 41
0.9999487550950901
 10
821.41412932112917
 20
-1496.6577617773278
 30
0.0
 41
1.0
 10
821.390535711192
 20
-1496.7245250876215
 30
0.0
 41
1.0
 10
821.36694210125484
 20
-1496.7912883979152
 30
0.0
 41
1.0
 10
821.27225646689135
 20
-1497.0592222327205
 30
0.0
 41
0.9999808436938596
 10
821.18089487824989
 20
-1497.3283076639846
 30
0.0
 41
1.0
 10
821.08953328960501
 20
-1497.5973930952596
 30
0.0
 41
0.9999873932929656
 10
821.00087858088375
 20
-1497.8673824502825
 30
0.0
 41
1.0
 10
820.98078622401772
 20
-1497.9285717830253
 30
0.0
 41
1.0
 10
820.96069386715158
 20
-1497.9897611157683
 30
0.0
 41
1.0
 10
820.83185444469132
 20
-1498.3821291362981
 30
0.0
 41
0.9999794883023194
 10
820.70805165972797
 20
-1498.7761153425934
 30
0.0
 41
1.0
 10
820.69689940029673
 20
-1498.8116059528106
 30
0.0
 41
1.0
 10
820.68574714086549
 20
-1498.8470965630277
 30
0.0
 41
1.0
 10
820.54318897697988
 20
-1499.300769315076
 30
0.0
 41
0.9999982761816153
 10
820.40231653694912
 20
-1499.7549683372486
 30
0.0
 41
1.0
 10
818.81417620437651
 20
-1504.8037380682517
 30
0.0
 41
1.0
 10
817.2260358718039
 20
-1509.8525077992551
 30
0.0
 41
1.0
 10
816.27728526032752
 20
-1509.8525077992551
 30
0.0
 41
1.0
 10
815.32853464885113
 20
-1509.8525077992551
 30
0.0
 41
1.0
 10
818.56681913500438
 20
-1499.525185599309
 30
0.0
 41
1.0
 10
821.80510362115751
 20
-1489.1978633993629
 30
0.0
 41
1.0
  0
LWPOLYLINE
  5
63
100
AcDbEntity
  8
0
370
              15
390
0
  6
Continuous
 62
               7
100
AcDbPolyline
 90
      232
 70
             128
 10
796.10155784733047
 20
-1490.282206230878
 42
0.0004370800687196
 10
796.04868067329085
 20
-1490.350872870092
 10
796.00939644213099
 20
-1490.4019799830307
 42
0.0030481992170549
 10
795.87905772501597
 20
-1490.5737016753696
 10
795.84054605326139
 20
-1490.6250884591632
 42
0.0042058245754513
 10
795.63656100259539
 20
-1490.9020942042316
 10
795.58415588009086
 20
-1490.9745270510175
 42
0.0120948898742515
 10
795.28811196333174
 20
-1491.4052766555633
 10
795.19191946420926
 20
-1491.5527573907889
 42
0.0141601263944934
 10
794.88827541728551
 20
-1492.0484267275269
 10
794.84873814985724
 20
-1492.1172706949626
 42
0.0071131081303974
 10
794.6434658266212
 20
-1492.4867734937968
 42
0.0068458791009794
 10
794.44858629977296
 20
-1492.861865057283
 10
794.4417744373203
 20
-1492.8754267709965
 42
0.006412088029115
 10
794.2436321872716
 20
-1493.2828512459248
 10
794.23609750175899
 20
-1493.2988631026367
 42
0.0058857236448165
 10
794.0333421098876
 20
-1493.7432392136711
 10
794.02516718359334
 20
-1493.7617293673056
 42
0.0053189741894578
 10
793.81646287092747
 20
-1494.2476928412198
 10
793.80771506524445
 20
-1494.2686747194198
 42
0.0047503650418083
 10
793.59174133909892
 20
-1494.8008741526164
 10
793.58247309074568
 20
-1494.8243505287373
 42
0.004207176217398
 10
793.35792570701449
 20
-1495.4074441228163
 10
793.34817630466921
 20
-1495.4334102976768
 42
0.0036680086486169
 10
793.11372166135118
 20
-1496.0720456822244
 10
793.10351388150934
 20
-1496.1004942165523
 42
0.0032573142626976
 10
792.85788159554897
 20
-1496.7993468762872
 10
792.78923107469598
 20
-1496.9988099603761
 42
0.0026133366649404
 10
792.4407858759439
 20
-1498.0286732440306
 10
792.37752908843947
 20
-1498.2189040794349
 42
0.0020592950739127
 10
792.16366601947618
 20
-1498.8710077320368
 10
792.16061422831194
 20
-1498.8804442204503
 42
0.0025609928535418
 10
791.95879372682725
 20
-1499.5155894428124
 10
791.95620235970159
 20
-1499.5238917837496
 42
0.003136235624211
 10
791.7667115740237
 20
-1500.1446546399325
 10
791.76458053110116
 20
-1500.1517959461273
 42
0.0037229918028874
 10
791.58778014416987
 20
-1500.7607812481178
 10
791.58610155496342
 20
-1500.7667281382924
 42
0.0043077623708668
 10
791.42236075289838
 20
-1501.366546870061
 42
0.004765416182484
 10
791.26953203037988
 20
-1501.9692329589743
 10
791.23506742154336
 20
-1502.1107947361133
 42
0.0112969368446376
 10
791.0392030633991
 20
-1503.0024868967403
 10
791.01119667430305
 20
-1503.1453149428353
 42
0.0130056762572903
 10
790.81035943065649
 20
-1504.3322560144802
 10
790.78981968050982
 20
-1504.4763341279538
 42
0.0138721532144235
 10
790.68611667597145
 20
-1505.3831636137829
 10
790.66682118806398
 20
-1505.6066613357029
 42
0.00712546970042
 10
790.6334745421409
 20
-1506.0698483445553
 10
790.6285135679783
 20
-1506.1558523391036
 42
0.0028881799195005
 10
790.61337527468777
 20
-1506.4475940489579
 42
0.0060297297134594
 10
790.60344307491255
 20
-1506.7395429850624
 10
790.60238079324517
 20
-1506.7879353570077
 42
0.0229523164158442
 10
790.61011182103096
 20
-1507.1106902032893
 10
790.61433759455133
 20
-1507.1710937373057
 42
0.0123673300666681
 10
790.63341624106965
 20
-1507.3722144624803
 42
0.0128577674470138
 10
790.66261163147601
 20
-1507.5721123124074
 10
790.66973750486295
 20
-1507.6134411270041
 42
0.0285717853763814
 10
790.7342315065589
 20
-1507.8915572783185
 10
790.74790003022508
 20
-1507.9382120477947
 42
0.0316283099163468
 10
790.86371061013938
 20
-1508.2572265496206
 10
790.86675930189472
 20
-1508.2642129219457
 42
0.0338984824237043
 10
791.01619101286201
 20
-1508.5517788861353
 10
791.01849974223182
 20
-1508.5555699154111
 42
0.0350228718354774
 10
791.20086003290544
 20
-1508.8126219000881
 10
791.20174528468033
 20
-1508.813700977852
 42
0.0347476747525062
 10
791.41616997192057
 20
-1509.0408860250723
 42
0.0331337701907377
 10
791.65941329766656
 20
-1509.2370146871492
 10
791.66051339618309
 20
-1509.237787390322
 42
0.0305233319078636
 10
791.92905809175522
 20
-1509.4029155604128
 10
791.93228813625774
 20
-1509.4046395722762
 42
0.0273744481150356
 10
792.22484184782888
 20
-1509.5407777161652
 10
792.2299463829695
 20
-1509.5428213006362
 42
0.0240964406195812
 10
792.54542345861637
 20
-1509.6518050269181
 10
792.55200678782512
 20
-1509.6537297665927
 42
0.0209636179811307
 10
792.88940694047665
 20
-1509.7371979145244
 10
792.89703940092647
 20
-1509.7387498275261
 42
0.0181388704693123
 10
793.25536179292692
 20
-1509.7981659207403
 10
793.26364264130302
 20
-1509.7992321045572
 42
0.0156086547587754
 10
793.64183000549076
 20
-1509.8359682911337
 10
793.6850252578256
 20
-1509.8388067936132
 42
0.0137148329023253
 10
794.01269840311784
 20
-1509.8513270488643
 10
794.05863459305169
 20
-1509.8518214819794
 42
0.0051057823883553
 10
794.29478017963606
 20
-1509.8519517363884
 42
0.0052256693317568
 10
794.53087746342976
 20
-1509.8472029119239
 10
794.60110424716413
 20
-1509.8450559459102
 42
0.0161507179049192
 10
794.97684132526433
 20
-1509.8214055755836
 10
794.99685428563839
 20
-1509.8194953802961
 42
0.0101216737834016
 10
795.41088150713301
 20
-1509.77150244993
 10
795.44493479655591
 20
-1509.7668547531209
 42
0.0245291776397797
 10
795.92172445210656
 20
-1509.6777796750448
 10
796.00654776763429
 20
-1509.6575837546982
 42
0.0143509212556602
 10
796.36317887157065
 20
-1509.5617791209202
 42
0.0156557857036098
 10
796.71339493630057
 20
-1509.4447679051004
 10
796.72089615079256
 20
-1509.4419977433472
 42
0.017013733362772
 10
797.07749214647288
 20
-1509.2963401284765
 10
797.08459606888141
 20
-1509.2931522929123
 42
0.0183105364413118
 10
797.44394573704517
 20
-1509.1158172510891
 10
797.45089250168644
 20
-1509.1120668162157
 42
0.0194899958154281
 10
797.80937324266858
 20
-1508.9000878343261
 10
797.8163871220072
 20
-1508.89556249203
 42
0.020486985295647
 10
798.17040142410508
 20
-1508.6460424769409
 10
798.17766703268808
 20
-1508.6404624115958
 42
0.0212516938558246
 10
798.52365696379525
 20
-1508.3505584147019
 10
798.5701736578693
 20
-1508.30809110461
 42
0.02152489182514
 10
798.83019982675933
 20
-1508.0493268256132
 10
798.87522956113344
 20
-1508.0004827042706
 42
0.0114578554946723
 10
799.03002171481739
 20
-1507.8246597708048
 10
799.04121625079267
 20
-1507.8113410072731
 42
0.0061531305135001
 10
799.16769089679838
 20
-1507.6570514739537
 42
0.0006325587120848
 10
799.29206938096786
 20
-1507.501048098256
 10
799.31510951600171
 20
-1507.4720745776187
 42
0.0041897761564459
 10
799.48356491998663
 20
-1507.2565552015408
 10
799.54202703986653
 20
-1507.1804538545716
 42
0.0092993880039977
 10
799.81863896709172
 20
-1506.8061750906859
 10
799.90103346029025
 20
-1506.6902380871179
 42
0.015932172708773
 10
800.24763994293153
 20
-1506.1680638663631
 10
800.29199607831924
 20
-1506.0963843021154
 42
0.0085547317019679
 10
800.52650784364641
 20
-1505.7025093528885
 42
0.008460115689133
 10
800.74748402108912
 20
-1505.3008825038551
 10
800.75559949491878
 20
-1505.2855228215833
 42
0.0081429654284447
 10
800.97884876535136
 20
-1504.8458013090526
 10
800.9877089295403
 20
-1504.827622467023
 42
0.007657458132914
 10
801.21411644011141
 20
-1504.3444395917604
 10
801.2235960808307
 20
-1504.3233751134671
 42
0.0070682724201121
 10
801.45404098864105
 20
-1503.7913378086771
 10
801.4640312726192
 20
-1503.7673486196741
 42
0.0064559514447232
 10
801.69936448079591
 20
-1503.1810363531683
 10
801.70977383896593
 20
-1503.1541014277132
 42
0.0058311413906506
 10
801.95082057573313
 20
-1502.5080693333168
 10
801.96157565311614
 20
-1502.4781849921687
 42
0.0052312425817584
 10
802.20915693115751
 20
-1501.7669825783332
 10
802.22020076753688
 20
-1501.7341558662647
 42
0.0046680544796113
 10
802.47512919526923
 20
-1500.9523295505162
 10
802.51712134532011
 20
-1500.8193463132013
 42
0.0041666856444757
 10
802.72040735770975
 20
-1500.1563775382122
 10
802.75806979836636
 20
-1500.029796430583
 42
0.0015170975157092
 10
802.87925637678666
 20
-1499.6179280790648
 42
-0.0004887993116886
 10
802.99959614991474
 20
-1499.2058096670062
 10
803.07607340740492
 20
-1498.9448522810817
 42
0.0002583378926508
 10
803.34928797749683
 20
-1498.0107955778076
 10
803.43106082701945
 20
-1497.7306963184094
 42
0.0006636169671838
 10
803.62492858705707
 20
-1497.0633433947326
 10
803.63002524140416
 20
-1497.0457118118522
 42
0.0010589131322279
 10
803.81147394232073
 20
-1496.4129804688037
 10
803.81645601280036
 20
-1496.3954675617865
 42
0.0015655524463167
 10
803.98472621998394
 20
-1495.7968508825827
 10
803.98955642040949
 20
-1495.779458723609
 42
0.0021640440480108
 10
804.14384639238506
 20
-1495.2144317056286
 10
804.14848061181885
 20
-1495.1971669756203
 42
0.002876387185439
 10
804.28799632986784
 20
-1494.6651990247879
 10
804.29238219403862
 20
-1494.6480750466194
 42
0.0037310511947128
 10
804.41633888587194
 20
-1494.1486274526096
 10
804.42041410616287
 20
-1494.1316671813561
 42
0.0047652197770881
 10
804.52803800666948
 20
-1493.6641894130589
 10
804.53172860599159
 20
-1493.6474298579146
 42
0.006027669930109
 10
804.62225870514658
 20
-1493.2113540627647
 10
804.62547739543697
 20
-1493.194852848449
 42
0.007582433775667
 10
804.69816670485113
 20
-1492.7895856840294
 10
804.70081208223201
 20
-1492.7734307365749
 42
0.0095130624608121
 10
804.75492731786267
 20
-1492.3983413835072
 10
804.76191354174523
 20
-1492.3424078253906
 42
0.0121054653228417
 10
804.78850487232307
 20
-1492.0775119969167
 10
804.78937136208253
 20
-1492.0661085539878
 42
0.0069050827391032
 10
804.80446018012026
 20
-1491.8231673271434
 10
804.80559547978885
 20
-1491.7996410700987
 42
0.0169063976688153
 10
804.80842275876921
 20
-1491.6034483427979
 10
804.80725210723745
 20
-1491.5431125814289
 42
0.0052007732909539
 10
804.80499865864488
 20
-1491.4675191912966
 42
0.0054038123306382
 10
804.78503514680415
 20
-1491.347500895276
 10
804.77994929093552
 20
-1491.3188424087054
 42
0.0112050460467441
 10
804.74456492887657
 20
-1491.1425159703642
 10
804.72673996683648
 20
-1491.0629743836457
 42
0.0240764468005631
 10
804.63584260069001
 20
-1490.7327373481437
 10
804.61728383787681
 20
-1490.6761171831506
 42
0.0256812331831504
 10
804.47392091768734
 20
-1490.3043929768933
 10
804.46851149186534
 20
-1490.2922616419023
 42
0.0268360501215438
 10
804.29908425101598
 20
-1489.9612685078826
 10
804.29354784338193
 20
-1489.9517488375718
 42
0.0274670231726643
 10
804.10134686696756
 20
-1489.6594614626529
 10
804.0959655670049
 20
-1489.6521823151113
 42
0.0275035967098466
 10
803.8843926874431
 20
-1489.3966664248076
 10
803.87932318647768
 20
-1489.3911873371783
 42
0.0269557673527197
 10
803.65191964303699
 20
-1489.170545051215
 10
803.64717658525524
 20
-1489.1664150967549
 42
0.0259124802211821
 10
803.40762175382361
 20
-1488.9787245696016
 10
803.40309090864264
 20
-1488.9755390672719
 42
0.024516215300149
 10
803.15517455554698
 20
-1488.818806058161
 10
803.15064800922369
 20
-1488.8162458609606
 42
0.0229282588840037
 10
802.89822845239541
 20
-1488.6883776684613
 10
802.89344795855618
 20
-1488.6862253686982
 42
0.0212984135701336
 10
802.640410006097
 20
-1488.585026451457
 10
802.63510572112943
 20
-1488.5831628886976
 42
0.0197555462344783
 10
802.3853273834045
 20
-1488.5063474707322
 42
0.0183511896788256
 10
802.13039865794167
 20
-1488.4487645637666
 10
802.04403346122149
 20
-1488.4325617733821
 42
0.0338057877141318
 10
801.75852611195796
 20
-1488.3987533682412
 10
801.6675207069211
 20
-1488.3941737129799
 42
0.0091990524480644
 10
801.56167359828203
 20
-1488.3907978570578
 42
0.0028333980793474
 10
801.45575968227524
 20
-1488.3899697495413
 10
801.45484422923982
 20
-1488.3899677797172
 42
-0.0023619827805686
 10
801.34709821414333
 20
-1488.3892269386386
 10
801.31069304395805
 20
-1488.3888046321754
 42
0.0008824598469021
 10
801.13013705417063
 20
-1488.3870288539376
 10
801.08627562170216
 20
-1488.3866748924115
 42
0.0038132665768238
 10
800.81799272582248
 20
-1488.3865559563451
 10
800.80145907102985
 20
-1488.3866747224886
 42
0.0060665569336323
 10
800.50017857942271
 20
-1488.3924950219098
 10
800.4859282474132
 20
-1488.392943329877
 42
0.0080356953334252
 10
800.15646953107625
 20
-1488.4086110519436
 10
800.14439951598672
 20
-1488.4093796348843
 42
0.0098996399102523
 10
799.79163643134427
 20
-1488.4388648640816
 10
799.78159072196115
 20
-1488.4399051602807
 42
0.0117740981369567
 10
799.41043386360468
 20
-1488.4871974078117
 10
799.40221116712985
 20
-1488.4884425243813
 42
0.013743521513366
 10
799.01762234764999
 20
-1488.5575394979419
 10
799.01096530852146
 20
-1488.5589253941766
 42
0.0158359869385866
 10
798.61796821472194
 20
-1488.6538174826565
 10
798.61255502785184
 20
-1488.6553074235278
 42
0.018055412402673
 10
798.21623998324128
 20
-1488.7799454397659
 10
798.21168319515596
 20
-1488.7815614760329
 42
0.0203657431282365
 10
797.81720567734351
 20
-1488.9398218175488
 10
797.81306213833727
 20
-1488.9416834389904
 42
0.0226819684654906
 10
797.4256260821337
 20
-1489.1373260176615
 10
797.42142629111549
 20
-1489.1396916095814
 42
0.02486349846064
 10
797.04624434993195
 20
-1489.3763182555299
 10
796.99804942114895
 20
-1489.410175297355
 42
0.0267044190885753
 10
796.72375672423379
 20
-1489.6256156732225
 42
0.0139303002198961
 10
796.46758955829534
 20
-1489.8628545141339
 10
796.46273617257407
 20
-1489.8676071769944
 42
0.0283460963441043
 10
796.21866357834904
 20
-1490.1353378374367
 10
796.17899507319032
 20
-1490.1841394149126
 42
0.0070695364819099
 10
796.10155784733047
 20
-1490.282206230878
 42
0.0070695364819099
  0
LWPOLYLINE
  5
64
100
AcDbEntity
  8
0
370
              15
390
0
  6
Continuous
 62
               7
100
AcDbPolyline
 90
      226
 70
             128
 10
792.57273741008407
 20
-1506.003795037062
 42
-0.0026277636614028
 10
792.57265952628404
 20
-1505.9370231113051
 10
792.57287688451606
 20
-1505.883867893876
 42
-0.0088680296732281
 10
792.57665350080913
 20
-1505.7108521114726
 10
792.57899985992162
 20
-1505.6515720860193
 42
-0.007738170562007
 10
792.59504597068474
 20
-1505.3603115902213
 10
792.59591388185777
 20
-1505.348023356536
 42
-0.0068872530527058
 10
792.62254596160597
 20
-1505.0328016044657
 10
792.62375018579201
 20
-1505.0205606254481
 42
-0.0062130021490012
 10
792.66134390261948
 20
-1504.6816909342128
 10
792.66284780615501
 20
-1504.6695170622932
 42
-0.0056726929665876
 10
792.71176966565861
 20
-1504.3073218401701
 10
792.71354311130165
 20
-1504.2952280399345
 42
-0.0052341884492408
 10
792.77415369756216
 20
-1503.9100347844139
 10
792.77617168633833
 20
-1503.8980298544241
 42
-0.004976845016979
 10
792.84891036776492
 20
-1503.4901852869896
 10
792.87315938248639
 20
-1503.3616373039854
 42
-0.0089029805627659
 10
793.01024023427897
 20
-1502.6998618565731
 10
793.04298560959967
 20
-1502.5548304260396
 42
-0.0080318257099005
 10
793.27253422394176
 20
-1501.6091207941806
 10
793.28451915038863
 20
-1501.5629901589959
 42
-0.0074265721317375
 10
793.56853068924204
 20
-1500.5329255806034
 10
793.58841023235311
 20
-1500.464791520033
 42
-0.0069711922702116
 10
793.91571481086191
 20
-1499.3985237796978
 10
793.97566675796656
 20
-1499.2125024213301
 42
-0.0052070422894864
 10
794.20509198322679
 20
-1498.525230344296
 10
794.22237317542022
 20
-1498.4752030636175
 42
-0.0009167004449074
 10
794.42546506268832
 20
-1497.8907472155247
 42
-0.0025162726943628
 10
794.6325626929497
 20
-1497.3077059513657
 10
794.66978730476251
 20
-1497.2045564054399
 42
-0.0028212681458271
 10
794.91796322371943
 20
-1496.5288257732859
 10
794.92779398647485
 20
-1496.5025183285964
 42
-0.00319649168225
 10
795.16408624413248
 20
-1495.882313566482
 10
795.17372069813291
 20
-1495.8575035763349
 42
-0.0036281836450856
 10
795.39882665923267
 20
-1495.2900628954458
 10
795.40826506938265
 20
-1495.2667654639613
 42
-0.0041269166832228
 10
795.62288276604932
 20
-1494.7493245679645
 10
795.65551572247136
 20
-1494.6724461216004
 42
-0.0047472213054606
 10
795.81256052802371
 20
-1494.3120246537201
 10
795.81945460923339
 20
-1494.2966040563849
 42
-0.0025651659998128
 10
795.96781264308208
 20
-1493.9692760006396
 42
-0.0057144634995084
 10
796.12156233685073
 20
-1493.6444663272828
 10
796.14959304224988
 20
-1493.5869579448929
 42
-0.0065388068375696
 10
796.33306006999442
 20
-1493.2227254482179
 10
796.34151852577122
 20
-1493.2064658688516
 42
-0.0074510843021443
 10
796.51770077165077
 20
-1492.8797775877256
 10
796.52588044218521
 20
-1492.8651368104506
 42
-0.0084648979854877
 10
796.69551429528178
 20
-1492.5732277994957
 10
796.70337042176652
 20
-1492.5602208078503
 42
-0.009563854280264
 10
796.86720586936417
 20
-1492.3003319358663
 10
796.87468081303473
 20
-1492.2889625744128
 42
-0.0107191626810898
 10
797.03348239342347
 20
-1492.0583513398669
 10
797.04049912715288
 20
-1492.0486152475046
 42
-0.011845857390585
 10
797.19504722566705
 20
-1491.8445430521915
 42
-0.0129184518182766
 10
797.35949984927265
 20
-1491.6483825360162
 10
797.38964462163028
 20
-1491.614256457123
 42
-0.021774257963729
 10
797.56625694396712
 20
-1491.4310496868716
 10
797.5770024884232
 20
-1491.4208328536727
 42
-0.0097266568649571
 10
797.7430601072831
 20
-1491.2689852792312
 42
-0.0187720905725377
 10
797.91740768316845
 20
-1491.1269164258454
 10
797.94811367385091
 20
-1491.1037573434428
 42
-0.0179428207515167
 10
798.180534393843
 20
-1490.9412051663342
 10
798.18418672075745
 20
-1490.9388412314472
 42
-0.0170047877695335
 10
798.41995035828916
 20
-1490.7973807172948
 10
798.42373334703177
 20
-1490.7952824122606
 42
-0.0160190788362436
 10
798.66064189467102
 20
-1490.6736311102704
 42
-0.01511028614869
 10
798.90467367711767
 20
-1490.5669483342158
 10
798.95706017932946
 20
-1490.5459082013213
 42
-0.0271945441885721
 10
799.31572273838901
 20
-1490.424043390615
 10
799.38478753887637
 20
-1490.4046938493489
 42
-0.0237596594023622
 10
799.80058438589822
 20
-1490.3092431373675
 10
799.86864723962913
 20
-1490.2969884492406
 42
-0.0213715440555155
 10
800.15452217107395
 20
-1490.2580414177307
 10
800.21466933729039
 20
-1490.2524517030301
 42
-0.0101465655828303
 10
800.38216186928616
 20
-1490.2403081597658
 10
800.39150225548724
 20
-1490.2398212447683
 42
-0.0100375910878271
 10
800.54065635604695
 20
-1490.2350454268433
 10
800.55091562572966
 20
-1490.2349229878289
 42
-0.0103625633382386
 10
800.67962362038224
 20
-1490.2360544213554
 10
800.70188927164872
 20
-1490.2367117798203
 42
-0.0115689250240883
 10
800.78594000917701
 20
-1490.2411412860656
 42
-0.0072438037444014
 10
800.86977828860802
 20
-1490.2487304858139
 10
800.88657879808898
 20
-1490.250497028539
 42
-0.0217917313128511
 10
801.00314856140642
 20
-1490.2679169212608
 10
801.06874865196949
 20
-1490.2806635296745
 42
-0.0332943556756266
 10
801.27314081699774
 20
-1490.3347038209818
 10
801.30331338554811
 20
-1490.3448718981003
 42
-0.018482408480884
 10
801.44181844201307
 20
-1490.3973229134867
 42
-0.0198002050698166
 10
801.57589278250975
 20
-1490.4602069736845
 10
801.57777941988934
 20
-1490.4611847605659
 42
-0.0212242342974964
 10
801.70991836229052
 20
-1490.5369474993581
 10
801.71173365783488
 20
-1490.5380933015672
 42
-0.0226090605791391
 10
801.84023755905571
 20
-1490.6275729451311
 10
801.84208200079388
 20
-1490.6289851981192
 42
-0.023845705223033
 10
801.96526408208751
 20
-1490.7329810939821
 10
801.96721681064594
 20
-1490.7347959717476
 42
-0.024816056414442
 10
802.08341831794667
 20
-1490.8540705729565
 10
802.08552195134871
 20
-1490.8564559066608
 42
-0.0254109591449161
 10
802.19312716921513
 20
-1490.9917442926258
 10
802.19537519112873
 20
-1490.9948858410257
 42
-0.0255528488289905
 10
802.29282186992509
 20
-1491.1469128952592
 10
802.29515296984187
 20
-1491.1509945068678
 42
-0.0252146793227974
 10
802.3809339958508
 20
-1491.3204967528641
 10
802.38323623500867
 20
-1491.3256788347776
 42
-0.024426563593991
 10
802.45589092877049
 20
-1491.513425406825
 10
802.46513733023846
 20
-1491.5412908251617
 42
-0.0231319612891698
 10
802.51106010923058
 20
-1491.7045918719637
 42
-0.011213042436744
 10
802.54569613176864
 20
-1491.8707954721513
 10
802.54689865688124
 20
-1491.8772920590395
 42
-0.0210527881230838
 10
802.57258513225236
 20
-1492.0583477044829
 10
802.57609572707406
 20
-1492.0937532530281
 42
-0.0190029892420867
 10
802.59153720061852
 20
-1492.3472890992994
 10
802.59234717706261
 20
-1492.3827647136695
 42
-0.0137974553665182
 10
802.59079832422742
 20
-1492.7077961203922
 10
802.58995286927143
 20
-1492.7339148649985
 42
-0.0081336634216088
 10
802.57509353404896
 20
-1493.0392623325949
 42
-0.0073526923574924
 10
802.55078500067475
 20
-1493.3440105768757
 10
802.5495235768916
 20
-1493.3573472515461
 42
-0.0066886138692347
 10
802.51378799084489
 20
-1493.687933295045
 10
802.51213090137526
 20
-1493.7015549140347
 42
-0.0061359187356173
 10
802.46428029932497
 20
-1494.0583188941303
 10
802.46224279825151
 20
-1494.0722136969639
 42
-0.0056698610066362
 10
802.40159246748783
 20
-1494.4554922657817
 10
802.39918703416129
 20
-1494.4696513850326
 42
-0.0052721077272943
 10
802.32505483335899
 20
-1494.8797787247249
 10
802.32229168452
 20
-1494.8941953600965
 42
-0.0049289272179994
 10
802.23399756642493
 20
-1495.331503871196
 10
802.23088507173748
 20
-1495.3461727240349
 42
-0.0047415956709874
 10
802.12764708020575
 20
-1495.8109694814425
 10
802.09287886984532
 20
-1495.9607765768287
 42
-0.0084404470902261
 10
801.90286242627133
 20
-1496.7210006013677
 10
801.89673573828782
 20
-1496.7438647255133
 42
-0.003963594025892
 10
801.67528205400379
 20
-1497.5448535897608
 10
801.66190525882428
 20
-1497.5917852063526
 42
-0.0072475040837452
 10
801.3944583709615
 20
-1498.4810049227417
 10
801.32424604413541
 20
-1498.7027452727098
 42
-0.0051345458827032
 10
801.03748667207492
 20
-1499.5770704605259
 10
801.01596040530001
 20
-1499.6404967276776
 42
-0.0019150016601489
 10
800.76042699844072
 20
-1500.3840458478819
 10
800.75395939404586
 20
-1500.4026333127993
 42
-0.0021524362751108
 10
800.5054813429806
 20
-1501.1069591345113
 10
800.49627092228502
 20
-1501.1327127128102
 42
-0.0024331286822125
 10
800.26001566324817
 20
-1501.7833120209311
 10
800.25096771070434
 20
-1501.8078553272674
 42
-0.0027449721787363
 10
800.02635313986229
 20
-1502.4069852062098
 10
800.01746313246258
 20
-1502.4303077960815
 42
-0.0031083229767061
 10
799.8039206458601
 20
-1502.9802318336417
 10
799.79518451419085
 20
-1503.0023215494837
 42
-0.0035311343279869
 10
799.59214332859278
 20
-1503.5053046752296
 10
799.58355798945433
 20
-1503.5261473987175
 42
-0.0040245640951981
 10
799.3904461856506
 20
-1503.9844567213322
 10
799.38201007205078
 20
-1504.0040360893968
 42
-0.0046015135852005
 10
799.19825377888378
 20
-1504.4199411190466
 10
799.18996760104869
 20
-1504.4382382585136
 42
-0.0052768638268014
 10
799.01499008209998
 20
-1504.814011142769
 10
799.00685787147006
 20
-1504.8310044813186
 42
-0.0060672675640349
 10
798.84007825870708
 20
-1505.1689201044264
 10
798.83210877822967
 20
-1505.1845853634156
 42
-0.00699046488707
 10
798.67294038422392
 20
-1505.4869211700875
 10
798.66514898461685
 20
-1505.501231719308
 42
-0.0080637022768145
 10
798.51299712426726
 20
-1505.7702670224678
 10
798.50540809163056
 20
-1505.7831948880778
 42
-0.009300645566117
 10
798.35966741510458
 20
-1506.0212092865718
 10
798.35231674835995
 20
-1506.0327272557463
 42
-0.0107060778050842
 10
798.21236820492254
 20
-1506.2419975731239
 10
798.20530643663744
 20
-1506.2520831156976
 42
-0.012272311140768
 10
798.07051271844466
 20
-1506.4348764451788
 10
798.07018649488873
 20
-1506.4352968329908
 42
-0.0141836319621156
 10
797.92660489191667
 20
-1506.609866590818
 10
797.91965713626632
 20
-1506.6178415910808
 42
-0.0175957477208536
 10
797.77975096823002
 20
-1506.7674624794874
 42
-0.0080466359675266
 10
797.63228720319182
 20
-1506.909785007646
 10
797.58625265868227
 20
-1506.9528054457298
 42
-0.0269600260396534
 10
797.33297241270213
 20
-1507.1651287042371
 10
797.26640527640359
 20
-1507.215080118862
 42
-0.0178362839753884
 10
797.0264607867465
 20
-1507.3820980451153
 10
797.01921581574277
 20
-1507.3867665573223
 42
-0.0174650732650427
 10
796.78287961830483
 20
-1507.5276275222793
 42
-0.0169240130165573
 10
796.53741337244276
 20
-1507.6519197820587
 10
796.49142721688918
 20
-1507.6732817376239
 42
-0.0318883036844524
 10
796.14107636127028
 20
-1507.8096200471336
 10
796.07271082610066
 20
-1507.8313206676107
 42
-0.0284435909896999
 10
795.69666069981349
 20
-1507.9275381030843
 10
795.66150253931835
 20
-1507.9344316989122
 42
-0.0243909341012295
 10
795.34805907839598
 20
-1507.9801527299428
 10
795.29777835162213
 20
-1507.9849982768446
 42
-0.0196639292930029
 10
795.08218277409765
 20
-1507.997246562358
 10
795.03035870294229
 20
-1507.9981498230945
 42
-0.0100501510693077
 10
794.91793542126993
 20
-1507.9978494247416
 10
794.88627555990126
 20
-1507.9971283528557
 42
-0.0019752031126498
 10
794.83718322324444
 20
-1507.9958161926465
 10
794.83442292000814
 20
-1507.9957315008198
 42
0.0065378752005235
 10
794.79084634526748
 20
-1507.9949646096054
 42
-0.0167974694645443
 10
794.74731552233641
 20
-1507.9933047110794
 10
794.74323618307358
 20
-1507.9930117001845
 42
-0.0081283276295876
 10
794.691676385346
 20
-1507.9884647065476
 10
794.67993681145663
 20
-1507.9872367889682
 42
-0.0126703440170638
 10
794.60521851566034
 20
-1507.9775019978963
 10
794.58243064798626
 20
-1507.9739437419814
 42
-0.0117852088434567
 10
794.46289166215593
 20
-1507.9523807468247
 10
794.40751121039091
 20
-1507.9410372065897
 42
-0.0251774592295894
 10
794.18066717138333
 20
-1507.8825391971568
 10
794.13594798152678
 20
-1507.8685723778199
 42
-0.0146525199885566
 10
793.9495549939935
 20
-1507.8043058506232
 42
-0.0166929435862562
 10
793.76757733786826
 20
-1507.7284987175694
 10
793.7629207065936
 20
-1507.7263738169547
 42
-0.0191684358431576
 10
793.57773707534443
 20
-1507.6331377331649
 10
793.57440448958755
 20
-1507.6312964856115
 42
-0.0221181781808238
 10
793.39109418568285
 20
-1507.519162987239
 10
793.38874438167682
 20
-1507.5175786892496
 42
-0.0254984685376556
 10
793.2124542312913
 20
-1507.38516753928
 10
793.18997208358905
 20
-1507.3664152303434
 42
-0.0292492648805353
 10
793.06520314474653
 20
-1507.2493224307007
 42
-0.0159048957505347
 10
792.95136314729791
 20
-1507.1213024391031
 10
792.95004435671717
 20
-1507.1197208260814
 42
-0.0343813379570628
 10
792.84740709509049
 20
-1506.9778495003113
 10
792.81591556373064
 20
-1506.9273461082189
 42
-0.0369117275706178
 10
792.73002306183275
 20
-1506.7638688672696
 42
-0.0191751379898267
 10
792.66282967627546
 20
-1506.5914642612629
 10
792.66106635251617
 20
-1506.5863709165887
 42
-0.0378178042223389
 10
792.61127163373203
 20
-1506.3974301405069
 10
792.60527633800166
 20
-1506.3648695223096
 42
-0.0184846046477528
 10
792.58455913870739
 20
-1506.2231167017655
 42
-0.0179866351308337
 10
792.5742261336336
 20
-1506.0802258886829
 10
792.57416969118788
 20
-1506.0786682020719
 42
-0.0085497186139136
 10
792.57273741008407
 20
-1506.003795037062
 42
-0.0085497186139136
  0
ENDBLK
  5
65
100
AcDbEntity
  8
template
390
0
100
AcDbBlockEnd
  0
BLOCK
  5
66
100
AcDbEntity
  8
notes
390
0
100
AcDbBlockBegin
  2
*D4
 70
               1
 10
0.0
 20
0.0
 30
0.0
  3
*D4
  1

  0
LINE
  5
67
100
AcDbEntity
  8
0
370
              -2
390
0
  6
Continuous
 62
               0
100
AcDbLine
 10
-805.04641904295613
 20
917.12049328089154
 30
0.0
 11
-805.04641904295613
 21
1084.4299120051967
 31
0.0
  0
LINE
  5
68
100
AcDbEntity
  8
0
370
              -2
390
0
  6
Continuous
 62
               0
100
AcDbLine
 10
44.953580957044188
 20
917.12049328089154
 30
0.0
 11
44.953580957044188
 21
1084.4299120051967
 31
0.0
  0
LINE
  5
69
100
AcDbEntity
  8
0
370
              -2
390
0
  6
Continuous
 62
               0
100
AcDbLine
 10
-805.04641904295613
 20
1084.4299120051967
 30
0.0
 11
44.953580957044188
 21
1084.4299120051967
 31
0.0
  0
CIRCLE
  5
6A
102
{ACAD_REACTORS
330
6B
102
}
100
AcDbEntity
  8
0
370
              -2
390
0
  6
Continuous
 62
               0
100
AcDbCircle
 10
-805.04641904295613
 20
1084.4299120051967
 30
0.0
 40
4.99969482421875
  0
HATCH
  5
6B
100
AcDbEntity
  8
0
370
              -2
390
0
  6
Continuous
 62
               0
100
AcDbHatch
 10
0.0
 20
0.0
 30
0.0
210
0.0
220
0.0
230
1.0
  2
SOLID
 70
               1
 71
               1
 91
        1
 92
        1
 93
        1
 72
               2
 10
-805.04641904295613
 20
1084.4299120051967
 40
4.99969482421875
 50
0.0
 51
360.0
 73
               0
 97
        1
330
6A
 75
               0
 76
               1
 98
        1
 10
0.0
 20
0.0
  0
CIRCLE
  5
6C
102
{ACAD_REACTORS
330
6D
102
}
100
AcDbEntity
  8
0
370
              -2
390
0
  6
Continuous
 62
               0
100
AcDbCircle
 10
44.953580957044188
 20
1084.4299120051967
 30
0.0
 40
4.99969482421875
  0
HATCH
  5
6D
100
AcDbEntity
  8
0
370
              -2
390
0
  6
Continuous
 62
               0
100
AcDbHatch
 10
0.0
 20
0.0
 30
0.0
210
0.0
220
0.0
230
1.0
  2
SOLID
 70
               1
 71
               1
 91
        1
 92
        1
 93
        1
 72
               2
 10
44.953580957044188
 20
1084.4299120051967
 40
4.99969482421875
 50
0.0
 51
360.0
 73
               0
 97
        1
330
6C
 75
               0
 76
               1
 98
        1
 10
0.0
 20
0.0
  0
MTEXT
  5
6E
100
AcDbEntity
  8
0
390
0
 62
               0
100
AcDbMText
 10
-403.8589207251315
 20
1118.3075291926966
 30
0.0
 40
24.432617187500004
 41
0.0
 71
               1
 72
               1
  1
850
  7
ＭＳ ゴシック
 73
               1
 44
0.7828267384257843
  0
POINT
  5
6F
100
AcDbEntity
  8
Defpoints
370
               0
390
0
 62
               0
100
AcDbPoint
 10
44.953580957044188
 20
892.12049328089154
 30
0.0
  0
POINT
  5
70
100
AcDbEntity
  8
Defpoints
370
               0
390
0
 62
               0
100
AcDbPoint
 10
-805.04641904295613
 20
892.12049328089154
 30
0.0
  0
POINT
  5
71
100
AcDbEntity
  8
Defpoints
370
               0
390
0
 62
               0
100
AcDbPoint
 10
-805.04641904295613
 20
1084.4299120051967
 30
0.0
  0
ENDBLK
  5
72
100
AcDbEntity
  8
notes
390
0
100
AcDbBlockEnd
  0
BLOCK
  5
73
100
AcDbEntity
  8
notes
390
0
100
AcDbBlockBegin
  2
*D5
 70
               1
 10
0.0
 20
0.0
 30
0.0
  3
*D5
  1

  0
LINE
  5
74
100
AcDbEntity
  8
0
370
              -2
390
0
  6
Continuous
 62
               0
100
AcDbLine
 10
-445.00032493609945
 20
840.62991200519753
 30
0.0
 11
-445.00032493609945
 21
998.12049328089131
 31
0.0
  0
LINE
  5
75
100
AcDbEntity
  8
0
370
              -2
390
0
  6
Continuous
 62
               0
100
AcDbLine
 10
-45.000324936100242
 20
840.62991200519775
 30
0.0
 11
-45.000324936100242
 21
998.12049328089131
 31
0.0
  0
LINE
  5
76
100
AcDbEntity
  8
0
370
              -2
390
0
  6
Continuous
 62
               0
100
AcDbLine
 10
-445.00032493609945
 20
998.12049328089131
 30
0.0
 11
-45.000324936100242
 21
998.12049328089131
 31
0.0
  0
CIRCLE
  5
77
102
{ACAD_REACTORS
330
78
102
}
100
AcDbEntity
  8
0
370
              -2
390
0
  6
Continuous
 62
               0
100
AcDbCircle
 10
-445.00032493609945
 20
998.12049328089131
 30
0.0
 40
4.99969482421875
  0
HATCH
  5
78
100
AcDbEntity
  8
0
370
              -2
390
0
  6
Continuous
 62
               0
100
AcDbHatch
 10
0.0
 20
0.0
 30
0.0
210
0.0
220
0.0
230
1.0
  2
SOLID
 70
               1
 71
               1
 91
        1
 92
        1
 93
        1
 72
               2
 10
-445.00032493609945
 20
998.12049328089131
 40
4.99969482421875
 50
0.0
 51
360.0
 73
               0
 97
        1
330
77
 75
               0
 76
               1
 98
        1
 10
0.0
 20
0.0
  0
CIRCLE
  5
79
102
{ACAD_REACTORS
330
7A
102
}
100
AcDbEntity
  8
0
370
              -2
390
0
  6
Continuous
 62
               0
100
AcDbCircle
 10
-45.000324936100242
 20
998.12049328089131
 30
0.0
 40
4.99969482421875
  0
HATCH
  5
7A
100
AcDbEntity
  8
0
370
              -2
390
0
  6
Continuous
 62
               0
100
AcDbHatch
 10
0.0
 20
0.0
 30
0.0
210
0.0
220
0.0
230
1.0
  2
SOLID
 70
               1
 71
               1
 91
        1
 92
        1
 93
        1
 72
               2
 10
-45.000324936100242
 20
998.12049328089131
 40
4.99969482421875
 50
0.0
 51
360.0
 73
               0
 97
        1
330
79
 75
               0
 76
               1
 98
        1
 10
0.0
 20
0.0
  0
MTEXT
  5
7B
100
AcDbEntity
  8
0
390
0
 62
               0
100
AcDbMText
 10
-268.81282661827538
 20
1031.9981104683914
 30
0.0
 40
24.432617187500004
 41
0.0
 71
               1
 72
               1
  1
400
  7
ＭＳ ゴシック
 73
               1
 44
0.7828267384257843
  0
POINT
  5
7C
100
AcDbEntity
  8
Defpoints
370
               0
390
0
 62
               0
100
AcDbPoint
 10
-45.000324936100242
 20
815.62991200519775
 30
0.0
  0
POINT
  5
7D
100
AcDbEntity
  8
Defpoints
370
               0
390
0
 62
               0
100
AcDbPoint
 10
-445.00032493609945
 20
815.62991200519753
 30
0.0
  0
POINT
  5
7E
100
AcDbEntity
  8
Defpoints
370
               0
390
0
 62
               0
100
AcDbPoint
 10
-445.00032493609945
 20
998.12049328089131
 30
0.0
  0
ENDBLK
  5
7F
100
AcDbEntity
  8
notes
390
0
100
AcDbBlockEnd
  0
BLOCK
  5
80
100
AcDbEntity
  8
notes
390
0
100
AcDbBlockBegin
  2
*D6
 70
               1
 10
0.0
 20
0.0
 30
0.0
  3
*D6
  1

  0
LINE
  5
81
100
AcDbEntity
  8
0
370
              -2
390
0
  6
Continuous
 62
               0
100
AcDbLine
 10
-45.000324936100242
 20
840.62991200519775
 30
0.0
 11
-45.000324936100242
 21
998.12049328089131
 31
0.0
  0
LINE
  5
82
100
AcDbEntity
  8
0
370
              -2
390
0
  6
Continuous
 62
               0
100
AcDbLine
 10
44.953580957044188
 20
917.12049328089154
 30
0.0
 11
44.953580957044188
 21
998.12049328089131
 31
0.0
  0
LINE
  5
83
100
AcDbEntity
  8
0
370
              -2
390
0
  6
Continuous
 62
               0
100
AcDbLine
 10
-45.000324936100242
 20
998.12049328089131
 30
0.0
 11
44.953580957044188
 21
998.12049328089131
 31
0.0
  0
CIRCLE
  5
84
102
{ACAD_REACTORS
330
85
102
}
100
AcDbEntity
  8
0
370
              -2
390
0
  6
Continuous
 62
               0
100
AcDbCircle
 10
-45.000324936100242
 20
998.12049328089131
 30
0.0
 40
4.99969482421875
  0
HATCH
  5
85
100
AcDbEntity
  8
0
370
              -2
390
0
  6
Continuous
 62
               0
100
AcDbHatch
 10
0.0
 20
0.0
 30
0.0
210
0.0
220
0.0
230
1.0
  2
SOLID
 70
               1
 71
               1
 91
        1
 92
        1
 93
        1
 72
               2
 10
-45.000324936100242
 20
998.12049328089131
 40
4.99969482421875
 50
0.0
 51
360.0
 73
               0
 97
        1
330
84
 75
               0
 76
               1
 98
        1
 10
0.0
 20
0.0
  0
CIRCLE
  5
86
102
{ACAD_REACTORS
330
87
102
}
100
AcDbEntity
  8
0
370
              -2
390
0
  6
Continuous
 62
               0
100
AcDbCircle
 10
44.953580957044188
 20
998.12049328089131
 30
0.0
 40
4.99969482421875
  0
HATCH
  5
87
100
AcDbEntity
  8
0
370
              -2
390
0
  6
Continuous
 62
               0
100
AcDbHatch
 10
0.0
 20
0.0
 30
0.0
210
0.0
220
0.0
230
1.0
  2
SOLID
 70
               1
 71
               1
 91
        1
 92
        1
 93
        1
 72
               2
 10
44.953580957044188
 20
998.12049328089131
 40
4.99969482421875
 50
0.0
 51
360.0
 73
               0
 97
        1
330
86
 75
               0
 76
               1
 98
        1
 10
0.0
 20
0.0
  0
MTEXT
  5
88
100
AcDbEntity
  8
0
390
0
 62
               0
100
AcDbMText
 10
-15.89837198952803
 20
1031.9981104683914
 30
0.0
 40
24.432617187500004
 41
0.0
 71
               1
 72
               1
  1
90
  7
ＭＳ ゴシック
 73
               1
 44
0.7828267384257843
  0
POINT
  5
89
100
AcDbEntity
  8
Defpoints
370
               0
390
0
 62
               0
100
AcDbPoint
 10
44.953580957044188
 20
892.12049328089154
 30
0.0
  0
POINT
  5
8A
100
AcDbEntity
  8
Defpoints
370
               0
390
0
 62
               0
100
AcDbPoint
 10
-45.000324936100242
 20
815.62991200519775
 30
0.0
  0
POINT
  5
8B
100
AcDbEntity
  8
Defpoints
370
               0
390
0
 62
               0
100
AcDbPoint
 10
-45.000324936100242
 20
998.12049328089131
 30
0.0
  0
ENDBLK
  5
8C
100
AcDbEntity
  8
notes
390
0
100
AcDbBlockEnd
  0
BLOCK
  5
8D
100
AcDbEntity
  8
notes
390
0
100
AcDbBlockBegin
  2
*D7
 70
               1
 10
0.0
 20
0.0
 30
0.0
  3
*D7
  1

  0
LINE
  5
8E
100
AcDbEntity
  8
0
370
              -2
390
0
  6
Continuous
 62
               0
100
AcDbLine
 10
-805.04641904295613
 20
509.12049328089392
 30
0.0
 11
-805.04641904295613
 21
248.12991200519903
 31
0.0
  0
LINE
  5
8F
100
AcDbEntity
  8
0
370
              -2
390
0
  6
Continuous
 62
               0
100
AcDbLine
 10
-460.04641904295613
 20
443.28974322866793
 30
0.0
 11
-460.04641904295613
 21
248.12991200519903
 31
0.0
  0
LINE
  5
90
100
AcDbEntity
  8
0
370
              -2
390
0
  6
Continuous
 62
               0
100
AcDbLine
 10
-805.04641904295613
 20
248.12991200519903
 30
0.0
 11
-460.04641904295613
 21
248.12991200519903
 31
0.0
  0
CIRCLE
  5
91
102
{ACAD_REACTORS
330
92
102
}
100
AcDbEntity
  8
0
370
              -2
390
0
  6
Continuous
 62
               0
100
AcDbCircle
 10
-805.04641904295613
 20
248.12991200519903
 30
0.0
 40
4.99969482421875
  0
HATCH
  5
92
100
AcDbEntity
  8
0
370
              -2
390
0
  6
Continuous
 62
               0
100
AcDbHatch
 10
0.0
 20
0.0
 30
0.0
210
0.0
220
0.0
230
1.0
  2
SOLID
 70
               1
 71
               1
 91
        1
 92
        1
 93
        1
 72
               2
 10
-805.04641904295613
 20
248.12991200519903
 40
4.99969482421875
 50
0.0
 51
360.0
 73
               0
 97
        1
330
91
 75
               0
 76
               1
 98
        1
 10
0.0
 20
0.0
  0
CIRCLE
  5
93
102
{ACAD_REACTORS
330
94
102
}
100
AcDbEntity
  8
0
370
              -2
390
0
  6
Continuous
 62
               0
100
AcDbCircle
 10
-460.04641904295613
 20
248.12991200519903
 30
0.0
 40
4.99969482421875
  0
HATCH
  5
94
100
AcDbEntity
  8
0
370
              -2
390
0
  6
Continuous
 62
               0
100
AcDbHatch
 10
0.0
 20
0.0
 30
0.0
210
0.0
220
0.0
230
1.0
  2
SOLID
 70
               1
 71
               1
 91
        1
 92
        1
 93
        1
 72
               2
 10
-460.04641904295613
 20
248.12991200519903
 40
4.99969482421875
 50
0.0
 51
360.0
 73
               0
 97
        1
330
93
 75
               0
 76
               1
 98
        1
 10
0.0
 20
0.0
  0
MTEXT
  5
95
100
AcDbEntity
  8
0
390
0
 62
               0
100
AcDbMText
 10
-656.35892072513161
 20
282.00752919269905
 30
0.0
 40
24.432617187500004
 41
0.0
 71
               1
 72
               1
  1
345
  7
ＭＳ ゴシック
 73
               1
 44
0.7828267384257843
  0
POINT
  5
96
100
AcDbEntity
  8
Defpoints
370
               0
390
0
 62
               0
100
AcDbPoint
 10
-460.04641904295613
 20
468.28974322866793
 30
0.0
  0
POINT
  5
97
100
AcDbEntity
  8
Defpoints
370
               0
390
0
 62
               0
100
AcDbPoint
 10
-805.04641904295613
 20
534.12049328089392
 30
0.0
  0
POINT
  5
98
100
AcDbEntity
  8
Defpoints
370
               0
390
0
 62
               0
100
AcDbPoint
 10
-805.04641904295613
 20
248.12991200519903
 30
0.0
  0
ENDBLK
  5
99
100
AcDbEntity
  8
notes
390
0
100
AcDbBlockEnd
  0
BLOCK
  5
9A
100
AcDbEntity
  8
notes
390
0
100
AcDbBlockBegin
  2
*D8
 70
               1
 10
0.0
 20
0.0
 30
0.0
  3
*D8
  1

  0
LINE
  5
9B
100
AcDbEntity
  8
0
370
              -2
390
0
  6
Continuous
 62
               0
100
AcDbLine
 10
-460.04641904295613
 20
443.14004815301632
 30
0.0
 11
-460.04641904295613
 21
248.12991200519903
 31
0.0
  0
LINE
  5
9C
100
AcDbEntity
  8
0
370
              -2
390
0
  6
Continuous
 62
               0
100
AcDbLine
 10
-30.04641904295579
 20
443.14004815301632
 30
0.0
 11
-30.04641904295579
 21
248.12991200519903
 31
0.0
  0
LINE
  5
9D
100
AcDbEntity
  8
0
370
              -2
390
0
  6
Continuous
 62
               0
100
AcDbLine
 10
-460.04641904295613
 20
248.12991200519903
 30
0.0
 11
-30.04641904295579
 21
248.12991200519903
 31
0.0
  0
CIRCLE
  5
9E
102
{ACAD_REACTORS
330
9F
102
}
100
AcDbEntity
  8
0
370
              -2
390
0
  6
Continuous
 62
               0
100
AcDbCircle
 10
-460.04641904295613
 20
248.12991200519903
 30
0.0
 40
4.99969482421875
  0
HATCH
  5
9F
100
AcDbEntity
  8
0
370
              -2
390
0
  6
Continuous
 62
               0
100
AcDbHatch
 10
0.0
 20
0.0
 30
0.0
210
0.0
220
0.0
230
1.0
  2
SOLID
 70
               1
 71
               1
 91
        1
 92
        1
 93
        1
 72
               2
 10
-460.04641904295613
 20
248.12991200519903
 40
4.99969482421875
 50
0.0
 51
360.0
 73
               0
 97
        1
330
9E
 75
               0
 76
               1
 98
        1
 10
0.0
 20
0.0
  0
CIRCLE
  5
A0
102
{ACAD_REACTORS
330
A1
102
}
100
AcDbEntity
  8
0
370
              -2
390
0
  6
Continuous
 62
               0
100
AcDbCircle
 10
-30.04641904295579
 20
248.12991200519903
 30
0.0
 40
4.99969482421875
  0
HATCH
  5
A1
100
AcDbEntity
  8
0
370
              -2
390
0
  6
Continuous
 62
               0
100
AcDbHatch
 10
0.0
 20
0.0
 30
0.0
210
0.0
220
0.0
230
1.0
  2
SOLID
 70
               1
 71
               1
 91
        1
 92
        1
 93
        1
 72
               2
 10
-30.04641904295579
 20
248.12991200519903
 40
4.99969482421875
 50
0.0
 51
360.0
 73
               0
 97
        1
330
A0
 75
               0
 76
               1
 98
        1
 10
0.0
 20
0.0
  0
MTEXT
  5
A2
100
AcDbEntity
  8
0
390
0
 62
               0
100
AcDbMText
 10
-268.8589207251315
 20
282.00752919269905
 30
0.0
 40
24.432617187500004
 41
0.0
 71
               1
 72
               1
  1
430
  7
ＭＳ ゴシック
 73
               1
 44
0.7828267384257843
  0
POINT
  5
A3
100
AcDbEntity
  8
Defpoints
370
               0
390
0
 62
               0
100
AcDbPoint
 10
-30.04641904295579
 20
468.14004815301632
 30
0.0
  0
POINT
  5
A4
100
AcDbEntity
  8
Defpoints
370
               0
390
0
 62
               0
100
AcDbPoint
 10
-460.04641904295613
 20
468.14004815301632
 30
0.0
  0
POINT
  5
A5
100
AcDbEntity
  8
Defpoints
370
               0
390
0
 62
               0
100
AcDbPoint
 10
-460.04641904295613
 20
248.12991200519903
 30
0.0
  0
ENDBLK
  5
A6
100
AcDbEntity
  8
notes
390
0
100
AcDbBlockEnd
  0
BLOCK
  5
A7
100
AcDbEntity
  8
notes
390
0
100
AcDbBlockBegin
  2
*D9
 70
               1
 10
0.0
 20
0.0
 30
0.0
  3
*D9
  1

  0
LINE
  5
A8
100
AcDbEntity
  8
0
370
              -2
390
0
  6
Continuous
 62
               0
100
AcDbLine
 10
-660.0464190429559
 20
-499.19298150415671
 30
0.0
 11
-660.0464190429559
 21
-397.19298150415614
 31
0.0
  0
LINE
  5
A9
100
AcDbEntity
  8
0
370
              -2
390
0
  6
Continuous
 62
               0
100
AcDbLine
 10
-380.0464190429567
 20
-499.19298150415671
 30
0.0
 11
-380.0464190429567
 21
-397.19298150415614
 31
0.0
  0
LINE
  5
AA
100
AcDbEntity
  8
0
370
              -2
390
0
  6
Continuous
 62
               0
100
AcDbLine
 10
-660.0464190429559
 20
-397.19298150415614
 30
0.0
 11
-380.0464190429567
 21
-397.19298150415614
 31
0.0
  0
CIRCLE
  5
AB
102
{ACAD_REACTORS
330
AC
102
}
100
AcDbEntity
  8
0
370
              -2
390
0
  6
Continuous
 62
               0
100
AcDbCircle
 10
-660.0464190429559
 20
-397.19298150415614
 30
0.0
 40
4.99969482421875
  0
HATCH
  5
AC
100
AcDbEntity
  8
0
370
              -2
390
0
  6
Continuous
 62
               0
100
AcDbHatch
 10
0.0
 20
0.0
 30
0.0
210
0.0
220
0.0
230
1.0
  2
SOLID
 70
               1
 71
               1
 91
        1
 92
        1
 93
        1
 72
               2
 10
-660.0464190429559
 20
-397.19298150415614
 40
4.99969482421875
 50
0.0
 51
360.0
 73
               0
 97
        1
330
AB
 75
               0
 76
               1
 98
        1
 10
0.0
 20
0.0
  0
CIRCLE
  5
AD
102
{ACAD_REACTORS
330
AE
102
}
100
AcDbEntity
  8
0
370
              -2
390
0
  6
Continuous
 62
               0
100
AcDbCircle
 10
-380.0464190429567
 20
-397.19298150415614
 30
0.0
 40
4.99969482421875
  0
HATCH
  5
AE
100
AcDbEntity
  8
0
370
              -2
390
0
  6
Continuous
 62
               0
100
AcDbHatch
 10
0.0
 20
0.0
 30
0.0
210
0.0
220
0.0
230
1.0
  2
SOLID
 70
               1
 71
               1
 91
        1
 92
        1
 93
        1
 72
               2
 10
-380.0464190429567
 20
-397.19298150415614
 40
4.99969482421875
 50
0.0
 51
360.0
 73
               0
 97
        1
330
AD
 75
               0
 76
               1
 98
        1
 10
0.0
 20
0.0
  0
MTEXT
  5
AF
100
AcDbEntity
  8
0
390
0
 62
               0
100
AcDbMText
 10
-543.85892072513172
 20
-363.31536431665609
 30
0.0
 40
24.432617187500004
 41
0.0
 71
               1
 72
               1
  1
280
  7
ＭＳ ゴシック
 73
               1
 44
0.7828267384257843
  0
POINT
  5
B0
100
AcDbEntity
  8
Defpoints
370
               0
390
0
 62
               0
100
AcDbPoint
 10
-380.0464190429567
 20
-524.19298150415671
 30
0.0
  0
POINT
  5
B1
100
AcDbEntity
  8
Defpoints
370
               0
390
0
 62
               0
100
AcDbPoint
 10
-660.0464190429559
 20
-524.19298150415671
 30
0.0
  0
POINT
  5
B2
100
AcDbEntity
  8
Defpoints
370
               0
390
0
 62
               0
100
AcDbPoint
 10
-660.0464190429559
 20
-397.19298150415614
 30
0.0
  0
ENDBLK
  5
B3
100
AcDbEntity
  8
notes
390
0
100
AcDbBlockEnd
  0
BLOCK
  5
B4
100
AcDbEntity
  8
notes
390
0
100
AcDbBlockBegin
  2
*D10
 70
               1
 10
0.0
 20
0.0
 30
0.0
  3
*D10
  1

  0
LINE
  5
B5
100
AcDbEntity
  8
0
370
              -2
390
0
  6
Continuous
 62
               0
100
AcDbLine
 10
-380.0464190429567
 20
-499.19298150415671
 30
0.0
 11
-380.0464190429567
 21
-397.19298150415614
 31
0.0
  0
LINE
  5
B6
100
AcDbEntity
  8
0
370
              -2
390
0
  6
Continuous
 62
               0
100
AcDbLine
 10
-100.04641904295681
 20
-502.19298150415671
 30
0.0
 11
-100.04641904295681
 21
-397.19298150415614
 31
0.0
  0
LINE
  5
B7
100
AcDbEntity
  8
0
370
              -2
390
0
  6
Continuous
 62
               0
100
AcDbLine
 10
-380.0464190429567
 20
-397.19298150415614
 30
0.0
 11
-100.04641904295681
 21
-397.19298150415614
 31
0.0
  0
CIRCLE
  5
B8
102
{ACAD_REACTORS
330
B9
102
}
100
AcDbEntity
  8
0
370
              -2
390
0
  6
Continuous
 62
               0
100
AcDbCircle
 10
-380.0464190429567
 20
-397.19298150415614
 30
0.0
 40
4.99969482421875
  0
HATCH
  5
B9
100
AcDbEntity
  8
0
370
              -2
390
0
  6
Continuous
 62
               0
100
AcDbHatch
 10
0.0
 20
0.0
 30
0.0
210
0.0
220
0.0
230
1.0
  2
SOLID
 70
               1
 71
               1
 91
        1
 92
        1
 93
        1
 72
               2
 10
-380.0464190429567
 20
-397.19298150415614
 40
4.99969482421875
 50
0.0
 51
360.0
 73
               0
 97
        1
330
B8
 75
               0
 76
               1
 98
        1
 10
0.0
 20
0.0
  0
CIRCLE
  5
BA
102
{ACAD_REACTORS
330
BB
102
}
100
AcDbEntity
  8
0
370
              -2
390
0
  6
Continuous
 62
               0
100
AcDbCircle
 10
-100.04641904295681
 20
-397.19298150415614
 30
0.0
 40
4.99969482421875
  0
HATCH
  5
BB
100
AcDbEntity
  8
0
370
              -2
390
0
  6
Continuous
 62
               0
100
AcDbHatch
 10
0.0
 20
0.0
 30
0.0
210
0.0
220
0.0
230
1.0
  2
SOLID
 70
               1
 71
               1
 91
        1
 92
        1
 93
        1
 72
               2
 10
-100.04641904295681
 20
-397.19298150415614
 40
4.99969482421875
 50
0.0
 51
360.0
 73
               0
 97
        1
330
BA
 75
               0
 76
               1
 98
        1
 10
0.0
 20
0.0
  0
MTEXT
  5
BC
100
AcDbEntity
  8
0
390
0
 62
               0
100
AcDbMText
 10
-263.85892072513229
 20
-363.31536431665609
 30
0.0
 40
24.432617187500004
 41
0.0
 71
               1
 72
               1
  1
280
  7
ＭＳ ゴシック
 73
               1
 44
0.7828267384257843
  0
POINT
  5
BD
100
AcDbEntity
  8
Defpoints
370
               0
390
0
 62
               0
100
AcDbPoint
 10
-100.04641904295681
 20
-527.19298150415671
 30
0.0
  0
POINT
  5
BE
100
AcDbEntity
  8
Defpoints
370
               0
390
0
 62
               0
100
AcDbPoint
 10
-380.0464190429567
 20
-524.19298150415671
 30
0.0
  0
POINT
  5
BF
100
AcDbEntity
  8
Defpoints
370
               0
390
0
 62
               0
100
AcDbPoint
 10
-380.0464190429567
 20
-397.19298150415614
 30
0.0
  0
ENDBLK
  5
C0
100
AcDbEntity
  8
notes
390
0
100
AcDbBlockEnd
  0
BLOCK
  5
C1
100
AcDbEntity
  8
notes
390
0
100
AcDbBlockBegin
  2
*D11
 70
               1
 10
0.0
 20
0.0
 30
0.0
  3
*D11
  1

  0
LINE
  5
C2
100
AcDbEntity
  8
0
370
              -2
390
0
  6
Continuous
 62
               0
100
AcDbLine
 10
-660.0464190429559
 20
-499.19298150415671
 30
0.0
 11
-660.0464190429559
 21
-397.19298150415614
 31
0.0
  0
LINE
  5
C3
100
AcDbEntity
  8
0
370
              -2
390
0
  6
Continuous
 62
               0
100
AcDbLine
 10
-805.04641904295613
 20
-477.22540371656578
 30
0.0
 11
-805.04641904295613
 21
-397.19298150415614
 31
0.0
  0
LINE
  5
C4
100
AcDbEntity
  8
0
370
              -2
390
0
  6
Continuous
 62
               0
100
AcDbLine
 10
-660.0464190429559
 20
-397.19298150415614
 30
0.0
 11
-805.04641904295613
 21
-397.19298150415614
 31
0.0
  0
CIRCLE
  5
C5
102
{ACAD_REACTORS
330
C6
102
}
100
AcDbEntity
  8
0
370
              -2
390
0
  6
Continuous
 62
               0
100
AcDbCircle
 10
-660.0464190429559
 20
-397.19298150415614
 30
0.0
 40
4.99969482421875
  0
HATCH
  5
C6
100
AcDbEntity
  8
0
370
              -2
390
0
  6
Continuous
 62
               0
100
AcDbHatch
 10
0.0
 20
0.0
 30
0.0
210
0.0
220
0.0
230
1.0
  2
SOLID
 70
               1
 71
               1
 91
        1
 92
        1
 93
        1
 72
               2
 10
-660.0464190429559
 20
-397.19298150415614
 40
4.99969482421875
 50
0.0
 51
360.0
 73
               0
 97
        1
330
C5
 75
               0
 76
               1
 98
        1
 10
0.0
 20
0.0
  0
CIRCLE
  5
C7
102
{ACAD_REACTORS
330
C8
102
}
100
AcDbEntity
  8
0
370
              -2
390
0
  6
Continuous
 62
               0
100
AcDbCircle
 10
-805.04641904295613
 20
-397.19298150415614
 30
0.0
 40
4.99969482421875
  0
HATCH
  5
C8
100
AcDbEntity
  8
0
370
              -2
390
0
  6
Continuous
 62
               0
100
AcDbHatch
 10
0.0
 20
0.0
 30
0.0
210
0.0
220
0.0
230
1.0
  2
SOLID
 70
               1
 71
               1
 91
        1
 92
        1
 93
        1
 72
               2
 10
-805.04641904295613
 20
-397.19298150415614
 40
4.99969482421875
 50
0.0
 51
360.0
 73
               0
 97
        1
330
C7
 75
               0
 76
               1
 98
        1
 10
0.0
 20
0.0
  0
MTEXT
  5
C9
100
AcDbEntity
  8
0
390
0
 62
               0
100
AcDbMText
 10
-756.3589207251315
 20
-363.31536431665609
 30
0.0
 40
24.432617187500004
 41
0.0
 71
               1
 72
               1
  1
145
  7
ＭＳ ゴシック
 73
               1
 44
0.7828267384257843
  0
POINT
  5
CA
100
AcDbEntity
  8
Defpoints
370
               0
390
0
 62
               0
100
AcDbPoint
 10
-805.04641904295613
 20
-502.22540371656578
 30
0.0
  0
POINT
  5
CB
100
AcDbEntity
  8
Defpoints
370
               0
390
0
 62
               0
100
AcDbPoint
 10
-660.0464190429559
 20
-524.19298150415671
 30
0.0
  0
POINT
  5
CC
100
AcDbEntity
  8
Defpoints
370
               0
390
0
 62
               0
100
AcDbPoint
 10
-660.0464190429559
 20
-397.19298150415614
 30
0.0
  0
ENDBLK
  5
CD
100
AcDbEntity
  8
notes
390
0
100
AcDbBlockEnd
  0
BLOCK
  5
CE
100
AcDbEntity
  8
notes
390
0
100
AcDbBlockBegin
  2
*D12
 70
               1
 10
0.0
 20
0.0
 30
0.0
  3
*D12
  1

  0
LINE
  5
CF
100
AcDbEntity
  8
0
370
              -2
390
0
  6
Continuous
 62
               0
100
AcDbLine
 10
63.953580957044423
 20
898.12049328089131
 30
0.0
 11
164.95358095704421
 21
898.12049328089131
 31
0.0
  0
LINE
  5
D0
100
AcDbEntity
  8
0
370
              -2
390
0
  6
Continuous
 62
               0
100
AcDbLine
 10
-176.75180268764336
 20
348.12049328089381
 30
0.0
 11
164.95358095704421
 21
348.12049328089381
 31
0.0
  0
LINE
  5
D1
100
AcDbEntity
  8
0
370
              -2
390
0
  6
Continuous
 62
               0
100
AcDbLine
 10
164.95358095704421
 20
898.12049328089131
 30
0.0
 11
164.95358095704421
 21
348.12049328089381
 31
0.0
  0
CIRCLE
  5
D2
102
{ACAD_REACTORS
330
D3
102
}
100
AcDbEntity
  8
0
370
              -2
390
0
  6
Continuous
 62
               0
100
AcDbCircle
 10
164.95358095704421
 20
898.12049328089131
 30
0.0
 40
4.99969482421875
  0
HATCH
  5
D3
100
AcDbEntity
  8
0
370
              -2
390
0
  6
Continuous
 62
               0
100
AcDbHatch
 10
0.0
 20
0.0
 30
0.0
210
0.0
220
0.0
230
1.0
  2
SOLID
 70
               1
 71
               1
 91
        1
 92
        1
 93
        1
 72
               2
 10
164.95358095704421
 20
898.12049328089131
 40
4.99969482421875
 50
0.0
 51
360.0
 73
               0
 97
        1
330
D2
 75
               0
 76
               1
 98
        1
 10
0.0
 20
0.0
  0
CIRCLE
  5
D4
102
{ACAD_REACTORS
330
D5
102
}
100
AcDbEntity
  8
0
370
              -2
390
0
  6
Continuous
 62
               0
100
AcDbCircle
 10
164.95358095704421
 20
348.12049328089381
 30
0.0
 40
4.99969482421875
  0
HATCH
  5
D5
100
AcDbEntity
  8
0
370
              -2
390
0
  6
Continuous
 62
               0
100
AcDbHatch
 10
0.0
 20
0.0
 30
0.0
210
0.0
220
0.0
230
1.0
  2
SOLID
 70
               1
 71
               1
 91
        1
 92
        1
 93
        1
 72
               2
 10
164.95358095704421
 20
348.12049328089381
 40
4.99969482421875
 50
0.0
 51
360.0
 73
               0
 97
        1
330
D4
 75
               0
 76
               1
 98
        1
 10
0.0
 20
0.0
  0
MTEXT
  5
D6
100
AcDbEntity
  8
0
390
0
 62
               0
100
AcDbMText
 10
131.07596376954422
 20
599.30799159871708
 30
0.0
 40
24.432617187500004
 41
0.0
 71
               1
 72
               1
  1
550
  7
ＭＳ ゴシック
 11
0.0
 21
1.0
 31
0.0
 73
               1
 44
0.7828267384257843
  0
POINT
  5
D7
100
AcDbEntity
  8
Defpoints
370
               0
390
0
 62
               0
100
AcDbPoint
 10
-201.75180268764336
 20
348.12049328089381
 30
0.0
  0
POINT
  5
D8
100
AcDbEntity
  8
Defpoints
370
               0
390
0
 62
               0
100
AcDbPoint
 10
38.953580957044423
 20
898.12049328089131
 30
0.0
  0
POINT
  5
D9
100
AcDbEntity
  8
Defpoints
370
               0
390
0
 62
               0
100
AcDbPoint
 10
164.95358095704421
 20
898.12049328089131
 30
0.0
  0
ENDBLK
  5
DA
100
AcDbEntity
  8
notes
390
0
100
AcDbBlockEnd
  0
BLOCK
  5
DB
100
AcDbEntity
  8
notes
390
0
100
AcDbBlockBegin
  2
*D13
 70
               1
 10
0.0
 20
0.0
 30
0.0
  3
*D13
  1

  0
LINE
  5
DC
100
AcDbEntity
  8
0
370
              -2
390
0
  6
Continuous
 62
               0
100
AcDbLine
 10
67.510563687615871
 20
-497.19298150415625
 30
0.0
 11
147.52713575132461
 21
-497.19298150415625
 31
0.0
  0
LINE
  5
DD
100
AcDbEntity
  8
0
370
              -2
390
0
  6
Continuous
 62
               0
100
AcDbLine
 10
67.593717530235921
 20
-572.21034305032117
 30
0.0
 11
147.52713575132461
 21
-572.21034305032117
 31
0.0
  0
LINE
  5
DE
100
AcDbEntity
  8
0
370
              -2
390
0
  6
Continuous
 62
               0
100
AcDbLine
 10
147.52713575132461
 20
-497.19298150415625
 30
0.0
 11
147.52713575132461
 21
-572.21034305032117
 31
0.0
  0
CIRCLE
  5
DF
102
{ACAD_REACTORS
330
E0
102
}
100
AcDbEntity
  8
0
370
              -2
390
0
  6
Continuous
 62
               0
100
AcDbCircle
 10
147.52713575132461
 20
-497.19298150415625
 30
0.0
 40
4.99969482421875
  0
HATCH
  5
E0
100
AcDbEntity
  8
0
370
              -2
390
0
  6
Continuous
 62
               0
100
AcDbHatch
 10
0.0
 20
0.0
 30
0.0
210
0.0
220
0.0
230
1.0
  2
SOLID
 70
               1
 71
               1
 91
        1
 92
        1
 93
        1
 72
               2
 10
147.52713575132461
 20
-497.19298150415625
 40
4.99969482421875
 50
0.0
 51
360.0
 73
               0
 97
        1
330
DF
 75
               0
 76
               1
 98
        1
 10
0.0
 20
0.0
  0
CIRCLE
  5
E1
102
{ACAD_REACTORS
330
E2
102
}
100
AcDbEntity
  8
0
370
              -2
390
0
  6
Continuous
 62
               0
100
AcDbCircle
 10
147.52713575132461
 20
-572.21034305032117
 30
0.0
 40
4.99969482421875
  0
HATCH
  5
E2
100
AcDbEntity
  8
0
370
              -2
390
0
  6
Continuous
 62
               0
100
AcDbHatch
 10
0.0
 20
0.0
 30
0.0
210
0.0
220
0.0
230
1.0
  2
SOLID
 70
               1
 71
               1
 91
        1
 92
        1
 93
        1
 72
               2
 10
147.52713575132461
 20
-572.21034305032117
 40
4.99969482421875
 50
0.0
 51
360.0
 73
               0
 97
        1
330
E1
 75
               0
 76
               1
 98
        1
 10
0.0
 20
0.0
  0
MTEXT
  5
E3
100
AcDbEntity
  8
0
390
0
 62
               0
100
AcDbMText
 10
113.6495185638246
 20
-550.57666227723871
 30
0.0
 40
24.432617187500004
 41
0.0
 71
               1
 72
               1
  1
75
  7
ＭＳ ゴシック
 11
0.0
 21
1.0
 31
0.0
 73
               1
 44
0.7828267384257843
  0
POINT
  5
E4
100
AcDbEntity
  8
Defpoints
370
               0
390
0
 62
               0
100
AcDbPoint
 10
42.593717530235921
 20
-572.21034305032117
 30
0.0
  0
POINT
  5
E5
100
AcDbEntity
  8
Defpoints
370
               0
390
0
 62
               0
100
AcDbPoint
 10
42.510563687615871
 20
-497.19298150415625
 30
0.0
  0
POINT
  5
E6
100
AcDbEntity
  8
Defpoints
370
               0
390
0
 62
               0
100
AcDbPoint
 10
147.52713575132461
 20
-497.19298150415625
 30
0.0
  0
ENDBLK
  5
E7
100
AcDbEntity
  8
notes
390
0
100
AcDbBlockEnd
  0
BLOCK
  5
E8
100
AcDbEntity
  8
notes
390
0
100
AcDbBlockBegin
  2
*D14
 70
               1
 10
0.0
 20
0.0
 30
0.0
  3
*D14
  1

  0
LINE
  5
E9
100
AcDbEntity
  8
0
370
              -2
390
0
  6
Continuous
 62
               0
100
AcDbLine
 10
329.83302563149346
 20
-497.19298150415534
 30
0.0
 11
249.83406697275268
 21
-497.19298150415534
 31
0.0
  0
LINE
  5
EA
100
AcDbEntity
  8
0
370
              -2
390
0
  6
Continuous
 62
               0
100
AcDbLine
 10
402.50315617094799
 20
-677.19298150415625
 30
0.0
 11
249.83406697275268
 21
-677.19298150415625
 31
0.0
  0
LINE
  5
EB
100
AcDbEntity
  8
0
370
              -2
390
0
  6
Continuous
 62
               0
100
AcDbLine
 10
249.83406697275268
 20
-497.19298150415534
 30
0.0
 11
249.83406697275268
 21
-677.19298150415625
 31
0.0
  0
CIRCLE
  5
EC
102
{ACAD_REACTORS
330
ED
102
}
100
AcDbEntity
  8
0
370
              -2
390
0
  6
Continuous
 62
               0
100
AcDbCircle
 10
249.83406697275268
 20
-497.19298150415534
 30
0.0
 40
4.99969482421875
  0
HATCH
  5
ED
100
AcDbEntity
  8
0
370
              -2
390
0
  6
Continuous
 62
               0
100
AcDbHatch
 10
0.0
 20
0.0
 30
0.0
210
0.0
220
0.0
230
1.0
  2
SOLID
 70
               1
 71
               1
 91
        1
 92
        1
 93
        1
 72
               2
 10
249.83406697275268
 20
-497.19298150415534
 40
4.99969482421875
 50
0.0
 51
360.0
 73
               0
 97
        1
330
EC
 75
               0
 76
               1
 98
        1
 10
0.0
 20
0.0
  0
CIRCLE
  5
EE
102
{ACAD_REACTORS
330
EF
102
}
100
AcDbEntity
  8
0
370
              -2
390
0
  6
Continuous
 62
               0
100
AcDbCircle
 10
249.83406697275268
 20
-677.19298150415625
 30
0.0
 40
4.99969482421875
  0
HATCH
  5
EF
100
AcDbEntity
  8
0
370
              -2
390
0
  6
Continuous
 62
               0
100
AcDbHatch
 10
0.0
 20
0.0
 30
0.0
210
0.0
220
0.0
230
1.0
  2
SOLID
 70
               1
 71
               1
 91
        1
 92
        1
 93
        1
 72
               2
 10
249.83406697275268
 20
-677.19298150415625
 40
4.99969482421875
 50
0.0
 51
360.0
 73
               0
 97
        1
330
EE
 75
               0
 76
               1
 98
        1
 10
0.0
 20
0.0
  0
MTEXT
  5
F0
100
AcDbEntity
  8
0
390
0
 62
               0
100
AcDbMText
 10
215.95644978525269
 20
-611.00548318633128
 30
0.0
 40
24.432617187500004
 41
0.0
 71
               1
 72
               1
  1
180
  7
ＭＳ ゴシック
 11
0.0
 21
1.0
 31
0.0
 73
               1
 44
0.7828267384257843
  0
POINT
  5
F1
100
AcDbEntity
  8
Defpoints
370
               0
390
0
 62
               0
100
AcDbPoint
 10
427.50315617094799
 20
-677.19298150415625
 30
0.0
  0
POINT
  5
F2
100
AcDbEntity
  8
Defpoints
370
               0
390
0
 62
               0
100
AcDbPoint
 10
354.83302563149346
 20
-497.19298150415534
 30
0.0
  0
POINT
  5
F3
100
AcDbEntity
  8
Defpoints
370
               0
390
0
 62
               0
100
AcDbPoint
 10
249.83406697275268
 20
-497.19298150415534
 30
0.0
  0
ENDBLK
  5
F4
100
AcDbEntity
  8
notes
390
0
100
AcDbBlockEnd
  0
BLOCK
  5
F5
100
AcDbEntity
  8
notes
390
0
100
AcDbBlockBegin
  2
*D15
 70
               1
 10
0.0
 20
0.0
 30
0.0
  3
*D15
  1

  0
LINE
  5
F6
100
AcDbEntity
  8
0
370
              -2
390
0
  6
Continuous
 62
               0
100
AcDbLine
 10
402.50315617094799
 20
-677.19298150415625
 30
0.0
 11
249.83406697275274
 21
-677.19298150415625
 31
0.0
  0
LINE
  5
F7
100
AcDbEntity
  8
0
370
              -2
390
0
  6
Continuous
 62
               0
100
AcDbLine
 10
546.63896273331829
 20
-697.1929815041517
 30
0.0
 11
249.83406697275274
 21
-697.1929815041517
 31
0.0
  0
LINE
  5
F8
100
AcDbEntity
  8
0
370
              -2
390
0
  6
Continuous
 62
               0
100
AcDbLine
 10
249.83406697275274
 20
-697.1929815041517
 30
0.0
 11
249.83406697275274
 21
-737.62950671910505
 31
0.0
  0
LINE
  5
F9
100
AcDbEntity
  8
0
370
              -2
390
0
  6
Continuous
 62
               0
100
AcDbLine
 10
249.83406697275274
 20
-677.19298150415625
 30
0.0
 11
249.83406697275274
 21
-697.1929815041517
 31
0.0
  0
CIRCLE
  5
FA
102
{ACAD_REACTORS
330
FB
102
}
100
AcDbEntity
  8
0
370
              -2
390
0
  6
Continuous
 62
               0
100
AcDbCircle
 10
249.83406697275274
 20
-677.19298150415625
 30
0.0
 40
4.99969482421875
  0
HATCH
  5
FB
100
AcDbEntity
  8
0
370
              -2
390
0
  6
Continuous
 62
               0
100
AcDbHatch
 10
0.0
 20
0.0
 30
0.0
210
0.0
220
0.0
230
1.0
  2
SOLID
 70
               1
 71
               1
 91
        1
 92
        1
 93
        1
 72
               2
 10
249.83406697275274
 20
-677.19298150415625
 40
4.99969482421875
 50
0.0
 51
360.0
 73
               0
 97
        1
330
FA
 75
               0
 76
               1
 98
        1
 10
0.0
 20
0.0
  0
CIRCLE
  5
FC
102
{ACAD_REACTORS
330
FD
102
}
100
AcDbEntity
  8
0
370
              -2
390
0
  6
Continuous
 62
               0
100
AcDbCircle
 10
249.83406697275274
 20
-697.1929815041517
 30
0.0
 40
4.99969482421875
  0
HATCH
  5
FD
100
AcDbEntity
  8
0
370
              -2
390
0
  6
Continuous
 62
               0
100
AcDbHatch
 10
0.0
 20
0.0
 30
0.0
210
0.0
220
0.0
230
1.0
  2
SOLID
 70
               1
 71
               1
 91
        1
 92
        1
 93
        1
 72
               2
 10
249.83406697275274
 20
-697.1929815041517
 40
4.99969482421875
 50
0.0
 51
360.0
 73
               0
 97
        1
330
FC
 75
               0
 76
               1
 98
        1
 10
0.0
 20
0.0
  0
MTEXT
  5
FE
100
AcDbEntity
  8
0
390
0
 62
               0
100
AcDbMText
 10
215.95644978525274
 20
-737.62950671910505
 30
0.0
 40
24.432617187500004
 41
0.0
 71
               1
 72
               1
  1
20
  7
ＭＳ ゴシック
 11
0.0
 21
1.0
 31
0.0
 73
               1
 44
0.7828267384257843
  0
POINT
  5
FF
100
AcDbEntity
  8
Defpoints
370
               0
390
0
 62
               0
100
AcDbPoint
 10
571.63896273331829
 20
-697.1929815041517
 30
0.0
  0
POINT
  5
100
100
AcDbEntity
  8
Defpoints
370
               0
390
0
 62
               0
100
AcDbPoint
 10
427.50315617094799
 20
-677.19298150415625
 30
0.0
  0
POINT
  5
101
100
AcDbEntity
  8
Defpoints
370
               0
390
0
 62
               0
100
AcDbPoint
 10
249.83406697275274
 20
-677.19298150415625
 30
0.0
  0
ENDBLK
  5
102
100
AcDbEntity
  8
notes
390
0
100
AcDbBlockEnd
  0
BLOCK
  5
103
100
AcDbEntity
  8
notes
390
0
100
AcDbBlockBegin
  2
*D16
 70
               1
 10
0.0
 20
0.0
 30
0.0
  3
*D16
  1

  0
LINE
  5
104
100
AcDbEntity
  8
0
370
              -2
390
0
  6
Continuous
 62
               0
100
AcDbLine
 10
67.510563687615871
 20
-497.19298150415625
 30
0.0
 11
197.52713575132461
 21
-497.19298150415625
 31
0.0
  0
LINE
  5
105
100
AcDbEntity
  8
0
370
              -2
390
0
  6
Continuous
 62
               0
100
AcDbLine
 10
-195.06832442171054
 20
-697.19298150415671
 30
0.0
 11
197.52713575132458
 21
-697.19298150415671
 31
0.0
  0
LINE
  5
106
100
AcDbEntity
  8
0
370
              -2
390
0
  6
Continuous
 62
               0
100
AcDbLine
 10
197.52713575132461
 20
-497.19298150415625
 30
0.0
 11
197.52713575132458
 21
-697.19298150415671
 31
0.0
  0
CIRCLE
  5
107
102
{ACAD_REACTORS
330
108
102
}
100
AcDbEntity
  8
0
370
              -2
390
0
  6
Continuous
 62
               0
100
AcDbCircle
 10
197.52713575132461
 20
-497.19298150415625
 30
0.0
 40
4.99969482421875
  0
HATCH
  5
108
100
AcDbEntity
  8
0
370
              -2
390
0
  6
Continuous
 62
               0
100
AcDbHatch
 10
0.0
 20
0.0
 30
0.0
210
0.0
220
0.0
230
1.0
  2
SOLID
 70
               1
 71
               1
 91
        1
 92
        1
 93
        1
 72
               2
 10
197.52713575132461
 20
-497.19298150415625
 40
4.99969482421875
 50
0.0
 51
360.0
 73
               0
 97
        1
330
107
 75
               0
 76
               1
 98
        1
 10
0.0
 20
0.0
  0
CIRCLE
  5
109
102
{ACAD_REACTORS
330
10A
102
}
100
AcDbEntity
  8
0
370
              -2
390
0
  6
Continuous
 62
               0
100
AcDbCircle
 10
197.52713575132458
 20
-697.19298150415671
 30
0.0
 40
4.99969482421875
  0
HATCH
  5
10A
100
AcDbEntity
  8
0
370
              -2
390
0
  6
Continuous
 62
               0
100
AcDbHatch
 10
0.0
 20
0.0
 30
0.0
210
0.0
220
0.0
230
1.0
  2
SOLID
 70
               1
 71
               1
 91
        1
 92
        1
 93
        1
 72
               2
 10
197.52713575132458
 20
-697.19298150415671
 40
4.99969482421875
 50
0.0
 51
360.0
 73
               0
 97
        1
330
109
 75
               0
 76
               1
 98
        1
 10
0.0
 20
0.0
  0
MTEXT
  5
10B
100
AcDbEntity
  8
0
390
0
 62
               0
100
AcDbMText
 10
163.64951856382459
 20
-621.00548318633196
 30
0.0
 40
24.432617187500004
 41
0.0
 71
               1
 72
               1
  1
200
  7
ＭＳ ゴシック
 11
0.0
 21
1.0
 31
0.0
 73
               1
 44
0.7828267384257843
  0
POINT
  5
10C
100
AcDbEntity
  8
Defpoints
370
               0
390
0
 62
               0
100
AcDbPoint
 10
-220.06832442171054
 20
-697.19298150415671
 30
0.0
  0
POINT
  5
10D
100
AcDbEntity
  8
Defpoints
370
               0
390
0
 62
               0
100
AcDbPoint
 10
42.510563687615871
 20
-497.19298150415625
 30
0.0
  0
POINT
  5
10E
100
AcDbEntity
  8
Defpoints
370
               0
390
0
 62
               0
100
AcDbPoint
 10
197.52713575132461
 20
-497.19298150415625
 30
0.0
  0
ENDBLK
  5
10F
100
AcDbEntity
  8
notes
390
0
100
AcDbBlockEnd
  0
BLOCK
  5
110
100
AcDbEntity
  8
notes
390
0
100
AcDbBlockBegin
  2
*D17
 70
               1
 10
0.0
 20
0.0
 30
0.0
  3
*D17
  1

  0
LINE
  5
111
100
AcDbEntity
  8
0
370
              -2
390
0
  6
Continuous
 62
               0
100
AcDbLine
 10
63.953580957044423
 20
898.12049328089131
 30
0.0
 11
120.24819731235661
 21
898.12049328089131
 31
0.0
  0
LINE
  5
112
100
AcDbEntity
  8
0
370
              -2
390
0
  6
Continuous
 62
               0
100
AcDbLine
 10
-2.5003249361002702
 20
808.12991200519798
 30
0.0
 11
120.24819731235661
 21
808.12991200519798
 31
0.0
  0
LINE
  5
113
100
AcDbEntity
  8
0
370
              -2
390
0
  6
Continuous
 62
               0
100
AcDbLine
 10
120.24819731235661
 20
898.12049328089131
 30
0.0
 11
120.24819731235661
 21
808.12991200519798
 31
0.0
  0
CIRCLE
  5
114
102
{ACAD_REACTORS
330
115
102
}
100
AcDbEntity
  8
0
370
              -2
390
0
  6
Continuous
 62
               0
100
AcDbCircle
 10
120.24819731235661
 20
898.12049328089131
 30
0.0
 40
4.99969482421875
  0
HATCH
  5
115
100
AcDbEntity
  8
0
370
              -2
390
0
  6
Continuous
 62
               0
100
AcDbHatch
 10
0.0
 20
0.0
 30
0.0
210
0.0
220
0.0
230
1.0
  2
SOLID
 70
               1
 71
               1
 91
        1
 92
        1
 93
        1
 72
               2
 10
120.24819731235661
 20
898.12049328089131
 40
4.99969482421875
 50
0.0
 51
360.0
 73
               0
 97
        1
330
114
 75
               0
 76
               1
 98
        1
 10
0.0
 20
0.0
  0
CIRCLE
  5
116
102
{ACAD_REACTORS
330
117
102
}
100
AcDbEntity
  8
0
370
              -2
390
0
  6
Continuous
 62
               0
100
AcDbCircle
 10
120.24819731235661
 20
808.12991200519798
 30
0.0
 40
4.99969482421875
  0
HATCH
  5
117
100
AcDbEntity
  8
0
370
              -2
390
0
  6
Continuous
 62
               0
100
AcDbHatch
 10
0.0
 20
0.0
 30
0.0
210
0.0
220
0.0
230
1.0
  2
SOLID
 70
               1
 71
               1
 91
        1
 92
        1
 93
        1
 72
               2
 10
120.24819731235661
 20
808.12991200519798
 40
4.99969482421875
 50
0.0
 51
360.0
 73
               0
 97
        1
330
116
 75
               0
 76
               1
 98
        1
 10
0.0
 20
0.0
  0
MTEXT
  5
118
100
AcDbEntity
  8
0
390
0
 62
               0
100
AcDbMText
 10
86.370580124856602
 20
837.25020264304464
 30
0.0
 40
24.432617187500004
 41
0.0
 71
               1
 72
               1
  1
90
  7
ＭＳ ゴシック
 11
0.0
 21
1.0
 31
0.0
 73
               1
 44
0.7828267384257843
  0
POINT
  5
119
100
AcDbEntity
  8
Defpoints
370
               0
390
0
 62
               0
100
AcDbPoint
 10
-27.50032493610027
 20
808.12991200519798
 30
0.0
  0
POINT
  5
11A
100
AcDbEntity
  8
Defpoints
370
               0
390
0
 62
               0
100
AcDbPoint
 10
38.953580957044423
 20
898.12049328089131
 30
0.0
  0
POINT
  5
11B
100
AcDbEntity
  8
Defpoints
370
               0
390
0
 62
               0
100
AcDbPoint
 10
120.24819731235661
 20
898.12049328089131
 30
0.0
  0
ENDBLK
  5
11C
100
AcDbEntity
  8
notes
390
0
100
AcDbBlockEnd
  0
BLOCK
  5
11D
100
AcDbEntity
  8
notes
390
0
100
AcDbBlockBegin
  2
*D18
 70
               1
 10
0.0
 20
0.0
 30
0.0
  3
*D18
  1

  0
LINE
  5
11E
100
AcDbEntity
  8
0
370
              -2
390
0
  6
Continuous
 62
               0
100
AcDbLine
 10
-824.04641904295613
 20
898.12049328089131
 30
0.0
 11
-885.04641904295613
 21
898.12049328089131
 31
0.0
  0
LINE
  5
11F
100
AcDbEntity
  8
0
370
              -2
390
0
  6
Continuous
 62
               0
100
AcDbLine
 10
-824.04641904295613
 20
528.12049328089392
 30
0.0
 11
-885.04641904295613
 21
528.12049328089392
 31
0.0
  0
LINE
  5
120
100
AcDbEntity
  8
0
370
              -2
390
0
  6
Continuous
 62
               0
100
AcDbLine
 10
-885.04641904295613
 20
898.12049328089131
 30
0.0
 11
-885.04641904295613
 21
528.12049328089392
 31
0.0
  0
CIRCLE
  5
121
102
{ACAD_REACTORS
330
122
102
}
100
AcDbEntity
  8
0
370
              -2
390
0
  6
Continuous
 62
               0
100
AcDbCircle
 10
-885.04641904295613
 20
898.12049328089131
 30
0.0
 40
4.99969482421875
  0
HATCH
  5
122
100
AcDbEntity
  8
0
370
              -2
390
0
  6
Continuous
 62
               0
100
AcDbHatch
 10
0.0
 20
0.0
 30
0.0
210
0.0
220
0.0
230
1.0
  2
SOLID
 70
               1
 71
               1
 91
        1
 92
        1
 93
        1
 72
               2
 10
-885.04641904295613
 20
898.12049328089131
 40
4.99969482421875
 50
0.0
 51
360.0
 73
               0
 97
        1
330
121
 75
               0
 76
               1
 98
        1
 10
0.0
 20
0.0
  0
CIRCLE
  5
123
102
{ACAD_REACTORS
330
124
102
}
100
AcDbEntity
  8
0
370
              -2
390
0
  6
Continuous
 62
               0
100
AcDbCircle
 10
-885.04641904295613
 20
528.12049328089392
 30
0.0
 40
4.99969482421875
  0
HATCH
  5
124
100
AcDbEntity
  8
0
370
              -2
390
0
  6
Continuous
 62
               0
100
AcDbHatch
 10
0.0
 20
0.0
 30
0.0
210
0.0
220
0.0
230
1.0
  2
SOLID
 70
               1
 71
               1
 91
        1
 92
        1
 93
        1
 72
               2
 10
-885.04641904295613
 20
528.12049328089392
 40
4.99969482421875
 50
0.0
 51
360.0
 73
               0
 97
        1
330
123
 75
               0
 76
               1
 98
        1
 10
0.0
 20
0.0
  0
MTEXT
  5
125
100
AcDbEntity
  8
0
390
0
 62
               0
100
AcDbMText
 10
-918.92403623045618
 20
689.30799159871719
 30
0.0
 40
24.432617187500004
 41
0.0
 71
               1
 72
               1
  1
370
  7
ＭＳ ゴシック
 11
0.0
 21
1.0
 31
0.0
 73
               1
 44
0.7828267384257843
  0
POINT
  5
126
100
AcDbEntity
  8
Defpoints
370
               0
390
0
 62
               0
100
AcDbPoint
 10
-799.04641904295613
 20
528.12049328089392
 30
0.0
  0
POINT
  5
127
100
AcDbEntity
  8
Defpoints
370
               0
390
0
 62
               0
100
AcDbPoint
 10
-799.04641904295613
 20
898.12049328089131
 30
0.0
  0
POINT
  5
128
100
AcDbEntity
  8
Defpoints
370
               0
390
0
 62
               0
100
AcDbPoint
 10
-885.04641904295613
 20
898.12049328089131
 30
0.0
  0
ENDBLK
  5
129
100
AcDbEntity
  8
notes
390
0
100
AcDbBlockEnd
  0
BLOCK
  5
12A
100
AcDbEntity
  8
notes
390
0
100
AcDbBlockBegin
  2
*D19
 70
               1
 10
0.0
 20
0.0
 30
0.0
  3
*D19
  1

  0
LINE
  5
12B
100
AcDbEntity
  8
0
370
              -2
390
0
  6
Continuous
 62
               0
100
AcDbLine
 10
899.83302562927929
 20
-691.19298150415671
 30
0.0
 11
899.83302562927929
 21
-797.1929815041517
 31
0.0
  0
LINE
  5
12C
100
AcDbEntity
  8
0
370
              -2
390
0
  6
Continuous
 62
               0
100
AcDbLine
 10
599.8330256292777
 20
-722.1929815041517
 30
0.0
 11
599.8330256292777
 21
-797.1929815041517
 31
0.0
  0
LINE
  5
12D
100
AcDbEntity
  8
0
370
              -2
390
0
  6
Continuous
 62
               0
100
AcDbLine
 10
899.83302562927929
 20
-797.1929815041517
 30
0.0
 11
599.8330256292777
 21
-797.1929815041517
 31
0.0
  0
CIRCLE
  5
12E
102
{ACAD_REACTORS
330
12F
102
}
100
AcDbEntity
  8
0
370
              -2
390
0
  6
Continuous
 62
               0
100
AcDbCircle
 10
899.83302562927929
 20
-797.1929815041517
 30
0.0
 40
4.99969482421875
  0
HATCH
  5
12F
100
AcDbEntity
  8
0
370
              -2
390
0
  6
Continuous
 62
               0
100
AcDbHatch
 10
0.0
 20
0.0
 30
0.0
210
0.0
220
0.0
230
1.0
  2
SOLID
 70
               1
 71
               1
 91
        1
 92
        1
 93
        1
 72
               2
 10
899.83302562927929
 20
-797.1929815041517
 40
4.99969482421875
 50
0.0
 51
360.0
 73
               0
 97
        1
330
12E
 75
               0
 76
               1
 98
        1
 10
0.0
 20
0.0
  0
CIRCLE
  5
130
102
{ACAD_REACTORS
330
131
102
}
100
AcDbEntity
  8
0
370
              -2
390
0
  6
Continuous
 62
               0
100
AcDbCircle
 10
599.8330256292777
 20
-797.1929815041517
 30
0.0
 40
4.99969482421875
  0
HATCH
  5
131
100
AcDbEntity
  8
0
370
              -2
390
0
  6
Continuous
 62
               0
100
AcDbHatch
 10
0.0
 20
0.0
 30
0.0
210
0.0
220
0.0
230
1.0
  2
SOLID
 70
               1
 71
               1
 91
        1
 92
        1
 93
        1
 72
               2
 10
599.8330256292777
 20
-797.1929815041517
 40
4.99969482421875
 50
0.0
 51
360.0
 73
               0
 97
        1
330
130
 75
               0
 76
               1
 98
        1
 10
0.0
 20
0.0
  0
MTEXT
  5
132
100
AcDbEntity
  8
0
390
0
 62
               0
100
AcDbMText
 10
726.02052394710302
 20
-763.31536431665165
 30
0.0
 40
24.432617187500004
 41
0.0
 71
               1
 72
               1
  1
300
  7
ＭＳ ゴシック
 73
               1
 44
0.7828267384257843
  0
POINT
  5
133
100
AcDbEntity
  8
Defpoints
370
               0
390
0
 62
               0
100
AcDbPoint
 10
599.8330256292777
 20
-697.1929815041517
 30
0.0
  0
POINT
  5
134
100
AcDbEntity
  8
Defpoints
370
               0
390
0
 62
               0
100
AcDbPoint
 10
899.83302562927929
 20
-666.19298150415671
 30
0.0
  0
POINT
  5
135
100
AcDbEntity
  8
Defpoints
370
               0
390
0
 62
               0
100
AcDbPoint
 10
899.83302562927929
 20
-797.1929815041517
 30
0.0
  0
ENDBLK
  5
136
100
AcDbEntity
  8
notes
390
0
100
AcDbBlockEnd
  0
BLOCK
  5
137
100
AcDbEntity
  8
notes
390
0
100
AcDbBlockBegin
  2
*D20
 70
               1
 10
0.0
 20
0.0
 30
0.0
  3
*D20
  1

  0
LINE
  5
138
100
AcDbEntity
  8
0
370
              -2
390
0
  6
Continuous
 62
               0
100
AcDbLine
 10
-825.0298469792474
 20
-497.19298150415625
 30
0.0
 11
-885.04641904295613
 21
-497.19298150415625
 31
0.0
  0
LINE
  5
139
100
AcDbEntity
  8
0
370
              -2
390
0
  6
Continuous
 62
               0
100
AcDbLine
 10
-735.00785031779367
 20
-542.17950671910512
 30
0.0
 11
-885.04641904295613
 21
-542.17950671910512
 31
0.0
  0
LINE
  5
13A
100
AcDbEntity
  8
0
370
              -2
390
0
  6
Continuous
 62
               0
100
AcDbLine
 10
-885.04641904295613
 20
-497.19298150415625
 30
0.0
 11
-885.04641904295613
 21
-542.17950671910512
 31
0.0
  0
CIRCLE
  5
13B
102
{ACAD_REACTORS
330
13C
102
}
100
AcDbEntity
  8
0
370
              -2
390
0
  6
Continuous
 62
               0
100
AcDbCircle
 10
-885.04641904295613
 20
-497.19298150415625
 30
0.0
 40
4.99969482421875
  0
HATCH
  5
13C
100
AcDbEntity
  8
0
370
              -2
390
0
  6
Continuous
 62
               0
100
AcDbHatch
 10
0.0
 20
0.0
 30
0.0
210
0.0
220
0.0
230
1.0
  2
SOLID
 70
               1
 71
               1
 91
        1
 92
        1
 93
        1
 72
               2
 10
-885.04641904295613
 20
-497.19298150415625
 40
4.99969482421875
 50
0.0
 51
360.0
 73
               0
 97
        1
330
13B
 75
               0
 76
               1
 98
        1
 10
0.0
 20
0.0
  0
CIRCLE
  5
13D
102
{ACAD_REACTORS
330
13E
102
}
100
AcDbEntity
  8
0
370
              -2
390
0
  6
Continuous
 62
               0
100
AcDbCircle
 10
-885.04641904295613
 20
-542.17950671910512
 30
0.0
 40
4.99969482421875
  0
HATCH
  5
13E
100
AcDbEntity
  8
0
370
              -2
390
0
  6
Continuous
 62
               0
100
AcDbHatch
 10
0.0
 20
0.0
 30
0.0
210
0.0
220
0.0
230
1.0
  2
SOLID
 70
               1
 71
               1
 91
        1
 92
        1
 93
        1
 72
               2
 10
-885.04641904295613
 20
-542.17950671910512
 40
4.99969482421875
 50
0.0
 51
360.0
 73
               0
 97
        1
330
13D
 75
               0
 76
               1
 98
        1
 10
0.0
 20
0.0
  0
MTEXT
  5
13F
100
AcDbEntity
  8
0
390
0
 62
               0
100
AcDbMText
 10
-918.92403623045595
 20
-535.56124411163069
 30
0.0
 40
24.432617187500004
 41
0.0
 71
               1
 72
               1
  1
45
  7
ＭＳ ゴシック
 11
0.0
 21
1.0
 31
0.0
 73
               1
 44
0.7828267384257843
  0
POINT
  5
140
100
AcDbEntity
  8
Defpoints
370
               0
390
0
 62
               0
100
AcDbPoint
 10
-710.00785031779367
 20
-542.17950671910512
 30
0.0
  0
POINT
  5
141
100
AcDbEntity
  8
Defpoints
370
               0
390
0
 62
               0
100
AcDbPoint
 10
-800.0298469792474
 20
-497.19298150415625
 30
0.0
  0
POINT
  5
142
100
AcDbEntity
  8
Defpoints
370
               0
390
0
 62
               0
100
AcDbPoint
 10
-885.04641904295613
 20
-497.19298150415625
 30
0.0
  0
ENDBLK
  5
143
100
AcDbEntity
  8
notes
390
0
100
AcDbBlockEnd
  0
BLOCK
  5
144
100
AcDbEntity
  8
notes
390
0
100
AcDbBlockBegin
  2
*D21
 70
               1
 10
0.0
 20
0.0
 30
0.0
  3
*D21
  1

  0
LINE
  5
145
100
AcDbEntity
  8
0
370
              -2
390
0
  6
Continuous
 62
               0
100
AcDbLine
 10
574.78199990981034
 20
-497.19298161259871
 30
0.0
 11
584.0
 21
-497.19298161259871
 31
0.0
  0
LINE
  5
146
100
AcDbEntity
  8
0
370
              -2
390
0
  6
Continuous
 62
               0
100
AcDbLine
 10
574.81112025052357
 20
-652.17796067300696
 30
0.0
 11
584.0
 21
-652.17796067300696
 31
0.0
  0
LINE
  5
147
100
AcDbEntity
  8
0
370
              -2
390
0
  6
Continuous
 62
               0
100
AcDbLine
 10
584.0
 20
-497.19298161259871
 30
0.0
 11
584.0
 21
-337.70068621685391
 31
0.0
  0
LINE
  5
148
100
AcDbEntity
  8
0
370
              -2
390
0
  6
Continuous
 62
               0
100
AcDbLine
 10
584.0
 20
-497.19298161259871
 30
0.0
 11
584.0
 21
-652.17796067300696
 31
0.0
  0
CIRCLE
  5
149
102
{ACAD_REACTORS
330
14A
102
}
100
AcDbEntity
  8
0
370
              -2
390
0
  6
Continuous
 62
               0
100
AcDbCircle
 10
584.0
 20
-497.19298161259871
 30
0.0
 40
4.99969482421875
  0
HATCH
  5
14A
100
AcDbEntity
  8
0
370
              -2
390
0
  6
Continuous
 62
               0
100
AcDbHatch
 10
0.0
 20
0.0
 30
0.0
210
0.0
220
0.0
230
1.0
  2
SOLID
 70
               1
 71
               1
 91
        1
 92
        1
 93
        1
 72
               2
 10
584.0
 20
-497.19298161259871
 40
4.99969482421875
 50
0.0
 51
360.0
 73
               0
 97
        1
330
149
 75
               0
 76
               1
 98
        1
 10
0.0
 20
0.0
  0
CIRCLE
  5
14B
102
{ACAD_REACTORS
330
14C
102
}
100
AcDbEntity
  8
0
370
              -2
390
0
  6
Continuous
 62
               0
100
AcDbCircle
 10
584.0
 20
-652.17796067300696
 30
0.0
 40
4.99969482421875
  0
HATCH
  5
14C
100
AcDbEntity
  8
0
370
              -2
390
0
  6
Continuous
 62
               0
100
AcDbHatch
 10
0.0
 20
0.0
 30
0.0
210
0.0
220
0.0
230
1.0
  2
SOLID
 70
               1
 71
               1
 91
        1
 92
        1
 93
        1
 72
               2
 10
584.0
 20
-652.17796067300696
 40
4.99969482421875
 50
0.0
 51
360.0
 73
               0
 97
        1
330
14B
 75
               0
 76
               1
 98
        1
 10
0.0
 20
0.0
  0
MTEXT
  5
14D
100
AcDbEntity
  8
0
390
0
 62
               0
100
AcDbMText
 10
550.12238281250006
 20
-480.57568621685391
 30
0.0
 40
24.432617187500004
 41
0.0
 71
               1
 72
               1
  1
155(深さ)
  7
ＭＳ ゴシック
 11
0.0
 21
1.0
 31
0.0
 73
               1
 44
0.7828267384257843
  0
POINT
  5
14E
100
AcDbEntity
  8
Defpoints
370
               0
390
0
 62
               0
100
AcDbPoint
 10
599.81112025052357
 20
-652.17796067300696
 30
0.0
  0
POINT
  5
14F
100
AcDbEntity
  8
Defpoints
370
               0
390
0
 62
               0
100
AcDbPoint
 10
599.78199990981034
 20
-497.19298161259871
 30
0.0
  0
POINT
  5
150
100
AcDbEntity
  8
Defpoints
370
               0
390
0
 62
               0
100
AcDbPoint
 10
584.0
 20
-497.19298161259871
 30
0.0
  0
ENDBLK
  5
151
100
AcDbEntity
  8
notes
390
0
100
AcDbBlockEnd
  0
BLOCK
  5
152
100
AcDbEntity
  8
notes
390
0
100
AcDbBlockBegin
  2
*D22
 70
               1
 10
0.0
 20
0.0
 30
0.0
  3
*D22
  1

  0
LINE
  5
153
100
AcDbEntity
  8
0
370
              -2
390
0
  6
Continuous
 62
               0
100
AcDbLine
 10
-26.896876660238092
 20
790.8885326948531
 30
0.0
 11
36.892310425378483
 21
730.13692594664644
 31
0.0
  0
LINE
  5
154
100
AcDbEntity
  8
0
370
              -2
390
0
  6
Continuous
 62
               0
100
AcDbLine
 10
-226.89687666023826
 20
580.88853269485423
 30
0.0
 11
-163.1076895746217
 21
520.13692594664758
 31
0.0
  0
LINE
  5
155
100
AcDbEntity
  8
0
370
              -2
390
0
  6
Continuous
 62
               0
100
AcDbLine
 10
36.892310425378483
 20
730.13692594664644
 30
0.0
 11
-163.1076895746217
 21
520.13692594664758
 31
0.0
  0
CIRCLE
  5
156
102
{ACAD_REACTORS
330
157
102
}
100
AcDbEntity
  8
0
370
              -2
390
0
  6
Continuous
 62
               0
100
AcDbCircle
 10
36.892310425378483
 20
730.13692594664644
 30
0.0
 40
4.99969482421875
  0
HATCH
  5
157
100
AcDbEntity
  8
0
370
              -2
390
0
  6
Continuous
 62
               0
100
AcDbHatch
 10
0.0
 20
0.0
 30
0.0
210
0.0
220
0.0
230
1.0
  2
SOLID
 70
               1
 71
               1
 91
        1
 92
        1
 93
        1
 72
               2
 10
36.892310425378483
 20
730.13692594664644
 40
4.99969482421875
 50
0.0
 51
360.0
 73
               0
 97
        1
330
156
 75
               0
 76
               1
 98
        1
 10
0.0
 20
0.0
  0
CIRCLE
  5
158
102
{ACAD_REACTORS
330
159
102
}
100
AcDbEntity
  8
0
370
              -2
390
0
  6
Continuous
 62
               0
100
AcDbCircle
 10
-163.1076895746217
 20
520.13692594664758
 30
0.0
 40
4.99969482421875
  0
HATCH
  5
159
100
AcDbEntity
  8
0
370
              -2
390
0
  6
Continuous
 62
               0
100
AcDbHatch
 10
0.0
 20
0.0
 30
0.0
210
0.0
220
0.0
230
1.0
  2
SOLID
 70
               1
 71
               1
 91
        1
 92
        1
 93
        1
 72
               2
 10
-163.1076895746217
 20
520.13692594664758
 40
4.99969482421875
 50
0.0
 51
360.0
 73
               0
 97
        1
330
158
 75
               0
 76
               1
 98
        1
 10
0.0
 20
0.0
  0
MTEXT
  5
15A
100
AcDbEntity
  8
0
390
0
 62
               0
100
AcDbMText
 10
-104.06217214638056
 20
631.2572641681752
 30
0.0
 40
24.432617187500004
 41
0.0
 71
               1
 72
               1
  1
290
  7
ＭＳ ゴシック
 11
0.6896551724137954
 21
0.7241379310344807
 31
0.0
 73
               1
 44
0.7828267384257843
  0
POINT
  5
15B
100
AcDbEntity
  8
Defpoints
370
               0
390
0
 62
               0
100
AcDbPoint
 10
-245.0003249361003
 20
598.12991200519912
 30
0.0
  0
POINT
  5
15C
100
AcDbEntity
  8
Defpoints
370
               0
390
0
 62
               0
100
AcDbPoint
 10
-45.0003249361001
 20
808.12991200519798
 30
0.0
  0
POINT
  5
15D
100
AcDbEntity
  8
Defpoints
370
               0
390
0
 62
               0
100
AcDbPoint
 10
36.892310425378483
 20
730.13692594664644
 30
0.0
  0
ENDBLK
  5
15E
100
AcDbEntity
  8
notes
390
0
100
AcDbBlockEnd
  0
BLOCK
  5
15F
100
AcDbEntity
  8
notes
390
0
100
AcDbBlockBegin
  2
*D23
 70
               1
 10
0.0
 20
0.0
 30
0.0
  3
*D23
  1

  0
LINE
  5
160
100
AcDbEntity
  8
0
370
              -2
390
0
  6
Continuous
 62
               0
100
AcDbLine
 10
-30.04641904295579
 20
441.0
 30
0.0
 11
-30.04641904295579
 21
248.12991200519903
 31
0.0
  0
LINE
  5
161
100
AcDbEntity
  8
0
370
              -2
390
0
  6
Continuous
 62
               0
100
AcDbLine
 10
44.953580957044188
 20
509.12049328089392
 30
0.0
 11
44.953580957044188
 21
248.12991200519903
 31
0.0
  0
LINE
  5
162
100
AcDbEntity
  8
0
370
              -2
390
0
  6
Continuous
 62
               0
100
AcDbLine
 10
-30.04641904295579
 20
248.12991200519903
 30
0.0
 11
44.953580957044188
 21
248.12991200519903
 31
0.0
  0
CIRCLE
  5
163
102
{ACAD_REACTORS
330
164
102
}
100
AcDbEntity
  8
0
370
              -2
390
0
  6
Continuous
 62
               0
100
AcDbCircle
 10
-30.04641904295579
 20
248.12991200519903
 30
0.0
 40
4.99969482421875
  0
HATCH
  5
164
100
AcDbEntity
  8
0
370
              -2
390
0
  6
Continuous
 62
               0
100
AcDbHatch
 10
0.0
 20
0.0
 30
0.0
210
0.0
220
0.0
230
1.0
  2
SOLID
 70
               1
 71
               1
 91
        1
 92
        1
 93
        1
 72
               2
 10
-30.04641904295579
 20
248.12991200519903
 40
4.99969482421875
 50
0.0
 51
360.0
 73
               0
 97
        1
330
163
 75
               0
 76
               1
 98
        1
 10
0.0
 20
0.0
  0
CIRCLE
  5
165
102
{ACAD_REACTORS
330
166
102
}
100
AcDbEntity
  8
0
370
              -2
390
0
  6
Continuous
 62
               0
100
AcDbCircle
 10
44.953580957044188
 20
248.12991200519903
 30
0.0
 40
4.99969482421875
  0
HATCH
  5
166
100
AcDbEntity
  8
0
370
              -2
390
0
  6
Continuous
 62
               0
100
AcDbHatch
 10
0.0
 20
0.0
 30
0.0
210
0.0
220
0.0
230
1.0
  2
SOLID
 70
               1
 71
               1
 91
        1
 92
        1
 93
        1
 72
               2
 10
44.953580957044188
 20
248.12991200519903
 40
4.99969482421875
 50
0.0
 51
360.0
 73
               0
 97
        1
330
165
 75
               0
 76
               1
 98
        1
 10
0.0
 20
0.0
  0
MTEXT
  5
167
100
AcDbEntity
  8
0
390
0
 62
               0
100
AcDbMText
 10
-8.4214190429558045
 20
282.00752919269905
 30
0.0
 40
24.432617187500004
 41
0.0
 71
               1
 72
               1
  1
75
  7
ＭＳ ゴシック
 73
               1
 44
0.7828267384257843
  0
POINT
  5
168
100
AcDbEntity
  8
Defpoints
370
               0
390
0
 62
               0
100
AcDbPoint
 10
44.953580957044188
 20
534.12049328089392
 30
0.0
  0
POINT
  5
169
100
AcDbEntity
  8
Defpoints
370
               0
390
0
 62
               0
100
AcDbPoint
 10
-30.04641904295579
 20
466.0
 30
0.0
  0
POINT
  5
16A
100
AcDbEntity
  8
Defpoints
370
               0
390
0
 62
               0
100
AcDbPoint
 10
-30.04641904295579
 20
248.12991200519903
 30
0.0
  0
ENDBLK
  5
16B
100
AcDbEntity
  8
notes
390
0
100
AcDbBlockEnd
  0
BLOCK
  5
16C
100
AcDbEntity
  8
notes
390
0
100
AcDbBlockBegin
  2
*D24
 70
               1
 10
0.0
 20
0.0
 30
0.0
  3
*D24
  1

  0
LINE
  5
16D
100
AcDbEntity
  8
0
370
              -2
390
0
  6
Continuous
 62
               0
100
AcDbLine
 10
-220.04641904295596
 20
813.12049328089154
 30
0.0
 11
-156.0
 21
813.12049328089154
 31
0.0
  0
LINE
  5
16E
100
AcDbEntity
  8
0
370
              -2
390
0
  6
Continuous
 62
               0
100
AcDbLine
 10
-220.00032493610024
 20
898.12049328089131
 30
0.0
 11
-156.0
 21
898.12049328089131
 31
0.0
  0
LINE
  5
16F
100
AcDbEntity
  8
0
370
              -2
390
0
  6
Continuous
 62
               0
100
AcDbLine
 10
-156.0
 20
813.12049328089154
 30
0.0
 11
-156.0
 21
898.12049328089131
 31
0.0
  0
CIRCLE
  5
170
102
{ACAD_REACTORS
330
171
102
}
100
AcDbEntity
  8
0
370
              -2
390
0
  6
Continuous
 62
               0
100
AcDbCircle
 10
-156.0
 20
813.12049328089154
 30
0.0
 40
4.99969482421875
  0
HATCH
  5
171
100
AcDbEntity
  8
0
370
              -2
390
0
  6
Continuous
 62
               0
100
AcDbHatch
 10
0.0
 20
0.0
 30
0.0
210
0.0
220
0.0
230
1.0
  2
SOLID
 70
               1
 71
               1
 91
        1
 92
        1
 93
        1
 72
               2
 10
-156.0
 20
813.12049328089154
 40
4.99969482421875
 50
0.0
 51
360.0
 73
               0
 97
        1
330
170
 75
               0
 76
               1
 98
        1
 10
0.0
 20
0.0
  0
CIRCLE
  5
172
102
{ACAD_REACTORS
330
173
102
}
100
AcDbEntity
  8
0
370
              -2
390
0
  6
Continuous
 62
               0
100
AcDbCircle
 10
-156.0
 20
898.12049328089131
 30
0.0
 40
4.99969482421875
  0
HATCH
  5
173
100
AcDbEntity
  8
0
370
              -2
390
0
  6
Continuous
 62
               0
100
AcDbHatch
 10
0.0
 20
0.0
 30
0.0
210
0.0
220
0.0
230
1.0
  2
SOLID
 70
               1
 71
               1
 91
        1
 92
        1
 93
        1
 72
               2
 10
-156.0
 20
898.12049328089131
 40
4.99969482421875
 50
0.0
 51
360.0
 73
               0
 97
        1
330
172
 75
               0
 76
               1
 98
        1
 10
0.0
 20
0.0
  0
MTEXT
  5
174
100
AcDbEntity
  8
0
390
0
 62
               0
100
AcDbMText
 10
-189.87761718749999
 20
839.74549328089142
 30
0.0
 40
24.432617187500004
 41
0.0
 71
               1
 72
               1
  1
85
  7
ＭＳ ゴシック
 11
0.0
 21
1.0
 31
0.0
 73
               1
 44
0.7828267384257843
  0
POINT
  5
175
100
AcDbEntity
  8
Defpoints
370
               0
390
0
 62
               0
100
AcDbPoint
 10
-245.00032493610024
 20
898.12049328089131
 30
0.0
  0
POINT
  5
176
100
AcDbEntity
  8
Defpoints
370
               0
390
0
 62
               0
100
AcDbPoint
 10
-245.04641904295596
 20
813.12049328089154
 30
0.0
  0
POINT
  5
177
100
AcDbEntity
  8
Defpoints
370
               0
390
0
 62
               0
100
AcDbPoint
 10
-156.0
 20
813.12049328089154
 30
0.0
  0
ENDBLK
  5
178
100
AcDbEntity
  8
notes
390
0
100
AcDbBlockEnd
  0
BLOCK
  5
179
100
AcDbEntity
  8
notes
390
0
100
AcDbBlockBegin
  2
*D25
 70
               1
 10
0.0
 20
0.0
 30
0.0
  3
*D25
  1

  0
LINE
  5
17A
100
AcDbEntity
  8
0
370
              -2
390
0
  6
Continuous
 62
               0
100
AcDbLine
 10
-242.56832442171066
 20
-722.19298150415671
 30
0.0
 11
-242.56832442171066
 21
-797.1929815041517
 31
0.0
  0
LINE
  5
17B
100
AcDbEntity
  8
0
370
              -2
390
0
  6
Continuous
 62
               0
100
AcDbLine
 10
47.431675578289344
 20
-592.19773352378706
 30
0.0
 11
47.431675578289344
 21
-797.1929815041517
 31
0.0
  0
LINE
  5
17C
100
AcDbEntity
  8
0
370
              -2
390
0
  6
Continuous
 62
               0
100
AcDbLine
 10
-242.56832442171066
 20
-797.1929815041517
 30
0.0
 11
47.431675578289344
 21
-797.1929815041517
 31
0.0
  0
CIRCLE
  5
17D
102
{ACAD_REACTORS
330
17E
102
}
100
AcDbEntity
  8
0
370
              -2
390
0
  6
Continuous
 62
               0
100
AcDbCircle
 10
-242.56832442171066
 20
-797.1929815041517
 30
0.0
 40
4.99969482421875
  0
HATCH
  5
17E
100
AcDbEntity
  8
0
370
              -2
390
0
  6
Continuous
 62
               0
100
AcDbHatch
 10
0.0
 20
0.0
 30
0.0
210
0.0
220
0.0
230
1.0
  2
SOLID
 70
               1
 71
               1
 91
        1
 92
        1
 93
        1
 72
               2
 10
-242.56832442171066
 20
-797.1929815041517
 40
4.99969482421875
 50
0.0
 51
360.0
 73
               0
 97
        1
330
17D
 75
               0
 76
               1
 98
        1
 10
0.0
 20
0.0
  0
CIRCLE
  5
17F
102
{ACAD_REACTORS
330
180
102
}
100
AcDbEntity
  8
0
370
              -2
390
0
  6
Continuous
 62
               0
100
AcDbCircle
 10
47.431675578289344
 20
-797.1929815041517
 30
0.0
 40
4.99969482421875
  0
HATCH
  5
180
100
AcDbEntity
  8
0
370
              -2
390
0
  6
Continuous
 62
               0
100
AcDbHatch
 10
0.0
 20
0.0
 30
0.0
210
0.0
220
0.0
230
1.0
  2
SOLID
 70
               1
 71
               1
 91
        1
 92
        1
 93
        1
 72
               2
 10
47.431675578289344
 20
-797.1929815041517
 40
4.99969482421875
 50
0.0
 51
360.0
 73
               0
 97
        1
330
17F
 75
               0
 76
               1
 98
        1
 10
0.0
 20
0.0
  0
MTEXT
  5
181
100
AcDbEntity
  8
0
390
0
 62
               0
100
AcDbMText
 10
-121.38082610388619
 20
-763.31536431665165
 30
0.0
 40
24.432617187500004
 41
0.0
 71
               1
 72
               1
  1
290
  7
ＭＳ ゴシック
 73
               1
 44
0.7828267384257843
  0
POINT
  5
182
100
AcDbEntity
  8
Defpoints
370
               0
390
0
 62
               0
100
AcDbPoint
 10
47.431675578289344
 20
-567.19773352378706
 30
0.0
  0
POINT
  5
183
100
AcDbEntity
  8
Defpoints
370
               0
390
0
 62
               0
100
AcDbPoint
 10
-242.56832442171066
 20
-697.19298150415671
 30
0.0
  0
POINT
  5
184
100
AcDbEntity
  8
Defpoints
370
               0
390
0
 62
               0
100
AcDbPoint
 10
-242.56832442171066
 20
-797.1929815041517
 30
0.0
  0
ENDBLK
  5
185
100
AcDbEntity
  8
notes
390
0
100
AcDbBlockEnd
  0
ENDSEC
  0
SECTION
  2
ENTITIES
  0
MTEXT
  5
186
100
AcDbEntity
  8
template
390
0
 62
               7
100
AcDbMText
 10
-967.99999999975932
 20
-1147.4176292337004
 30
0.0
 40
16.288411458333332
 41
0.0
 71
               1
 72
               1
  1
品名
  7
ＭＳ ゴシック
 73
               1
 44
0.7828267384257843
  0
MTEXT
  5
187
100
AcDbEntity
  8
template
390
0
 62
               7
100
AcDbMText
 10
-967.99999999975932
 20
-1232.4176292337004
 30
0.0
 40
16.288411458333332
 41
0.0
 71
               1
 72
               1
  1
仕様
  7
ＭＳ ゴシック
 73
               1
 44
0.7828267384257843
  0
MTEXT
  5
188
100
AcDbEntity
  8
template
390
0
 62
               7
100
AcDbMText
 10
-914.99999999975921
 20
-1176.0000901712006
 30
0.0
 40
24.432617187500004
 41
0.0
 71
               1
 72
               1
  1
洗面器 -CATALANO,C-
  7
ＭＳ ゴシック
 73
               1
 44
0.7828267384257843
  0
LINE
  5
189
100
AcDbEntity
  8
template
370
               5
390
0
  6
Continuous
 62
               7
100
AcDbLine
 10
974.99999999975876
 20
-1224.0027073587005
 30
0.0
 11
-975.00000000024136
 21
-1224.0027073587005
 31
0.0
  0
LWPOLYLINE
  5
18A
100
AcDbEntity
  8
template
370
               5
390
0
  6
Continuous
 62
               7
100
AcDbPolyline
 90
        5
 70
             128
 10
975.00000000024124
 20
1405.9972926412995
 10
-974.99999999975932
 20
1405.9972926412995
 10
-974.99999999975932
 20
-1394.0027073587005
 10
975.00000000024124
 20
-1394.0027073587005
 10
975.00000000024124
 20
1405.9972926412995
  0
LINE
  5
18B
100
AcDbEntity
  8
template
370
               5
390
0
  6
Continuous
 62
               7
100
AcDbLine
 10
974.99999999975876
 20
-1139.0027073587005
 30
0.0
 11
-975.00000000024136
 21
-1139.0027073587005
 31
0.0
  0
LINE
  5
18C
100
AcDbEntity
  8
template
370
               5
390
0
  6
Continuous
 62
               7
100
AcDbLine
 10
975.00000000024124
 20
-1309.0027073587005
 30
0.0
 11
222.00000000024124
 21
-1309.0027073587005
 31
0.0
  0
MTEXT
  5
18D
100
AcDbEntity
  8
template
390
0
 62
               7
100
AcDbMText
 10
-974.99999999955605
 20
-1405.8565294155574
 30
0.0
 40
21.717881944444446
 41
0.0
 71
               1
 72
               1
  1
100707SH
  7
ＭＳ ゴシック
 73
               1
 44
0.7828267384257843
  0
MTEXT
  5
18E
100
AcDbEntity
  8
template
390
0
 62
               7
100
AcDbMText
 10
251.87140625250089
 20
-1338.9131018320081
 30
0.0
 40
24.432617187500004
 41
0.0
 71
               1
 72
               1
  1
大洋金物株式会社 ティーフォルム事業部
  7
ＭＳ ゴシック
 73
               1
 44
0.7828267384257843
  0
INSERT
  5
18F
100
AcDbEntity
  8
template
390
0
 62
               7
100
AcDbBlockReference
  2
グループ
 10
108.49476802765378
 20
144.91443500821552
 30
0.0
  0
MTEXT
  5
190
100
AcDbEntity
  8
template
390
0
 62
               7
100
AcDbMText
 10
784.00000000049999
 20
-1261.0000901712006
 30
0.0
 40
24.432617187500004
 41
0.0
 71
               1
 72
               1
  1
1:10
  7
ＭＳ ゴシック
 73
               1
 44
0.7828267384257843
  0
MTEXT
  5
191
100
AcDbEntity
  8
template
390
0
 62
               7
100
AcDbMText
 10
731.00000000049999
 20
-1232.4176292337004
 30
0.0
 40
16.288411458333332
 41
0.0
 71
               1
 72
               1
  1
縮尺
  7
ＭＳ ゴシック
 73
               1
 44
0.7828267384257843
  0
LINE
  5
192
100
AcDbEntity
  8
template
370
               5
390
0
  6
Continuous
 62
               7
100
AcDbLine
 10
724.00000000049999
 20
-1309.0027073587005
 30
0.0
 11
724.00000000049999
 21
-1224.0027073587005
 31
0.0
  0
MTEXT
  5
193
100
AcDbEntity
  8
template
390
0
 62
               7
100
AcDbMText
 10
480.00000000049999
 20
-1232.4176292337004
 30
0.0
 40
16.288411458333332
 41
0.0
 71
               1
 72
               1
  1
容量
  7
ＭＳ ゴシック
 73
               1
 44
0.7828267384257843
  0
MTEXT
  5
194
100
AcDbEntity
  8
template
390
0
 62
               7
100
AcDbMText
 10
533.00000000049999
 20
-1261.0000901712006
 30
0.0
 40
24.432617187500004
 41
0.0
 71
               1
 72
               1
  1
8.7L
  7
ＭＳ ゴシック
 73
               1
 44
0.7828267384257843
  0
LINE
  5
195
100
AcDbEntity
  8
template
370
               5
390
0
  6
Continuous
 62
               7
100
AcDbLine
 10
473.00000000049999
 20
-1309.0027073587005
 30
0.0
 11
473.00000000049999
 21
-1224.0027073587005
 31
0.0
  0
MTEXT
  5
196
100
AcDbEntity
  8
template
390
0
 62
               7
100
AcDbMText
 10
229.00000000049999
 20
-1147.4176292337004
 30
0.0
 40
16.288411458333332
 41
0.0
 71
               1
 72
               1
  1
品番
  7
ＭＳ ゴシック
 73
               1
 44
0.7828267384257843
  0
MTEXT
  5
197
100
AcDbEntity
  8
template
390
0
 62
               7
100
AcDbMText
 10
229.00000000049999
 20
-1232.4176292337004
 30
0.0
 40
16.288411458333332
 41
0.0
 71
               1
 72
               1
  1
重量
  7
ＭＳ ゴシック
 73
               1
 44
0.7828267384257843
  0
MTEXT
  5
198
100
AcDbEntity
  8
template
390
0
 62
               7
100
AcDbMText
 10
282.00000000049999
 20
-1176.0000901712006
 30
0.0
 40
24.432617187500004
 41
0.0
 71
               1
 72
               1
  1
ADF70-1101
  7
ＭＳ ゴシック
 73
               1
 44
0.7828267384257843
  0
MTEXT
  5
199
100
AcDbEntity
  8
template
390
0
 62
               7
100
AcDbMText
 10
282.00000000049999
 20
-1261.0000901712006
 30
0.0
 40
24.432617187500004
 41
0.0
 71
               1
 72
               1
  1
25kg
  7
ＭＳ ゴシック
 73
               1
 44
0.7828267384257843
  0
LINE
  5
19A
100
AcDbEntity
  8
template
370
               5
390
0
  6
Continuous
 62
               7
100
AcDbLine
 10
222.00000000049999
 20
-1394.0027073587005
 30
0.0
 11
222.00000000049999
 21
-1139.0027073587005
 31
0.0
  0
MTEXT
  5
19B
100
AcDbEntity
  8
template
390
0
 62
               7
100
AcDbMText
 10
-914.99999999975932
 20
-1261.0000901712006
 30
0.0
 40
24.432617187500004
 41
0.0
 71
               1
 72
               1
  1
壁掛け/オーバーフロー付き/壁取付ボルト付属/\P陶器/ホワイト
  7
ＭＳ ゴシック
 73
               1
 44
1.3047112307096407
  0
MTEXT
  5
19C
100
AcDbEntity
  8
notes
390
0
 62
               7
100
AcDbMText
 10
-746.22106954851392
 20
155.61346167216672
 30
0.0
 40
24.432617187500004
 41
872.46926686087045
 71
               1
 72
               1
  1
＝φ30もしくはφ35の水栓取付用穴あけ加工を承ります。\P  必要な場合、ご注文の際にご指示ください。
  7
ＭＳ ゴシック
 73
               1
 44
1.0437689845677123
  0
MTEXT
  5
19D
100
AcDbEntity
  8
notes
390
0
 62
               7
100
AcDbMText
 10
-61.970433896584666
 20
-414.68575822233709
 30
0.0
 40
24.432617187500004
 41
0.0
 71
               1
 72
               1
  1
壁取付ボルト穴(3ヶ所)
  7
ＭＳ ゴシック
 73
               1
 44
0.7828267384257843
  0
LINE
  5
19E
100
AcDbEntity
  8
notes
370
               5
390
0
  6
Continuous
 62
               7
100
AcDbLine
 10
-99.751802687643419
 20
-541.87950671910517
 30
0.0
 11
-51.981832415743668
 21
-452.59355898278454
 31
0.0
  0
CIRCLE
  5
19F
100
AcDbEntity
  8
notes
370
               5
390
0
  6
STYLE_12
 62
               7
100
AcDbCircle
 10
-778.53153695060587
 20
140.16195415797202
 30
0.0
 40
17.499999999999883
  0
DIMENSION
  5
1A0
100
AcDbEntity
  8
notes
370
               5
390
0
  6
Continuous
 62
               7
100
AcDbDimension
  2
*D4
 10
-805.04641904295613
 20
1084.4299120051967
 30
0.0
 11
-380.04641904295596
 21
1084.4299120051967
 31
0.0
 71
               5
 72
               1
 41
1.0
 42
0.0
  3
tform線あり
100
AcDbAlignedDimension
 13
44.953580957044188
 23
892.12049328089154
 33
0.0
 14
-805.04641904295613
 24
892.12049328089154
 34
0.0
100
AcDbRotatedDimension
1001
ACAD
1000
DSTYLE
1002
{
1070
             279
1070
               2
1070
             340
1005
3A
1070
             147
1040
5.0
1002
}
  0
DIMENSION
  5
1A1
100
AcDbEntity
  8
notes
370
               5
390
0
  6
Continuous
 62
               7
100
AcDbDimension
  2
*D5
 10
-445.00032493609945
 20
998.12049328089131
 30
0.0
 11
-245.00032493609984
 21
998.12049328089131
 31
0.0
 71
               5
 72
               1
 41
1.0
 42
0.0
  3
tform線あり
100
AcDbAlignedDimension
 13
-45.000324936100242
 23
815.62991200519775
 33
0.0
 14
-445.00032493609945
 24
815.62991200519753
 34
0.0
100
AcDbRotatedDimension
1001
ACAD
1000
DSTYLE
1002
{
1070
             279
1070
               2
1070
             340
1005
3A
1070
             147
1040
5.0
1002
}
  0
DIMENSION
  5
1A2
100
AcDbEntity
  8
notes
370
               5
390
0
  6
Continuous
 62
               7
100
AcDbDimension
  2
*D6
 10
-45.000324936100242
 20
998.12049328089131
 30
0.0
 11
-0.0233719895280302
 21
998.12049328089131
 31
0.0
 71
               5
 72
               1
 41
1.0
 42
0.0
  3
tform線あり
100
AcDbAlignedDimension
 13
44.953580957044188
 23
892.12049328089154
 33
0.0
 14
-45.000324936100242
 24
815.62991200519775
 34
0.0
100
AcDbRotatedDimension
1001
ACAD
1000
DSTYLE
1002
{
1070
             279
1070
               2
1070
             340
1005
3A
1070
             147
1040
5.0
1002
}
  0
DIMENSION
  5
1A3
100
AcDbEntity
  8
notes
370
               5
390
0
  6
Continuous
 62
               7
100
AcDbDimension
  2
*D7
 10
-805.04641904295613
 20
248.12991200519903
 30
0.0
 11
-632.54641904295613
 21
248.12991200519903
 31
0.0
 71
               5
 72
               1
 41
1.0
 42
0.0
  3
tform線あり
100
AcDbAlignedDimension
 13
-460.04641904295613
 23
468.28974322866793
 33
0.0
 14
-805.04641904295613
 24
534.12049328089392
 34
0.0
100
AcDbRotatedDimension
1001
ACAD
1000
DSTYLE
1002
{
1070
             279
1070
               2
1070
             340
1005
3A
1070
             147
1040
5.0
1002
}
  0
DIMENSION
  5
1A4
100
AcDbEntity
  8
notes
370
               5
390
0
  6
Continuous
 62
               7
100
AcDbDimension
  2
*D8
 10
-460.04641904295613
 20
248.12991200519903
 30
0.0
 11
-245.04641904295596
 21
248.12991200519903
 31
0.0
 71
               5
 72
               1
 41
1.0
 42
0.0
  3
tform線あり
100
AcDbAlignedDimension
 13
-30.04641904295579
 23
468.14004815301632
 33
0.0
 14
-460.04641904295613
 24
468.14004815301632
 34
0.0
100
AcDbRotatedDimension
1001
ACAD
1000
DSTYLE
1002
{
1070
             279
1070
               2
1070
             340
1005
3A
1070
             147
1040
5.0
1002
}
  0
DIMENSION
  5
1A5
100
AcDbEntity
  8
notes
370
               5
390
0
  6
Continuous
 62
               7
100
AcDbDimension
  2
*D9
 10
-660.0464190429559
 20
-397.19298150415614
 30
0.0
 11
-520.04641904295624
 21
-397.19298150415614
 31
0.0
 71
               5
 72
               1
 41
1.0
 42
0.0
  3
tform線あり
100
AcDbAlignedDimension
 13
-380.0464190429567
 23
-524.19298150415671
 33
0.0
 14
-660.0464190429559
 24
-524.19298150415671
 34
0.0
100
AcDbRotatedDimension
1001
ACAD
1000
DSTYLE
1002
{
1070
             279
1070
               2
1070
             340
1005
3A
1070
             147
1040
5.0
1002
}
  0
DIMENSION
  5
1A6
100
AcDbEntity
  8
notes
370
               5
390
0
  6
Continuous
 62
               7
100
AcDbDimension
  2
*D10
 10
-380.0464190429567
 20
-397.19298150415614
 30
0.0
 11
-240.04641904295676
 21
-397.19298150415614
 31
0.0
 71
               5
 72
               1
 41
1.0
 42
0.0
  3
tform線あり
100
AcDbAlignedDimension
 13
-100.04641904295681
 23
-527.19298150415671
 33
0.0
 14
-380.0464190429567
 24
-524.19298150415671
 34
0.0
100
AcDbRotatedDimension
1001
ACAD
1000
DSTYLE
1002
{
1070
             279
1070
               2
1070
             340
1005
3A
1070
             147
1040
5.0
1002
}
  0
DIMENSION
  5
1A7
100
AcDbEntity
  8
notes
370
               5
390
0
  6
Continuous
 62
               7
100
AcDbDimension
  2
*D11
 10
-660.0464190429559
 20
-397.19298150415614
 30
0.0
 11
-732.54641904295602
 21
-397.19298150415614
 31
0.0
 71
               5
 72
               1
 41
1.0
 42
0.0
  3
tform線あり
100
AcDbAlignedDimension
 13
-805.04641904295613
 23
-502.22540371656578
 33
0.0
 14
-660.0464190429559
 24
-524.19298150415671
 34
0.0
100
AcDbRotatedDimension
1001
ACAD
1000
DSTYLE
1002
{
1070
             279
1070
               2
1070
             340
1005
3A
1070
             147
1040
5.0
1002
}
  0
DIMENSION
  5
1A8
100
AcDbEntity
  8
notes
370
               5
390
0
  6
Continuous
 62
               7
100
AcDbDimension
  2
*D12
 10
164.95358095704421
 20
898.12049328089131
 30
0.0
 11
164.95358095704421
 21
623.12049328089256
 31
0.0
 71
               5
 72
               1
 41
1.0
 42
0.0
  3
tform線あり
100
AcDbAlignedDimension
 13
-201.75180268764336
 23
348.12049328089381
 33
0.0
 14
38.953580957044423
 24
898.12049328089131
 34
0.0
 50
90.0
100
AcDbRotatedDimension
1001
ACAD
1000
DSTYLE
1002
{
1070
             279
1070
               2
1070
             340
1005
3A
1070
             147
1040
5.0
1002
}
  0
DIMENSION
  5
1A9
100
AcDbEntity
  8
notes
370
               5
390
0
  6
Continuous
 62
               7
100
AcDbDimension
  2
*D13
 10
147.52713575132461
 20
-497.19298150415625
 30
0.0
 11
147.52713575132461
 21
-534.70166227723871
 31
0.0
 71
               5
 72
               1
 41
1.0
 42
0.0
  3
tform線あり
100
AcDbAlignedDimension
 13
42.593717530235921
 23
-572.21034305032117
 33
0.0
 14
42.510563687615871
 24
-497.19298150415625
 34
0.0
 50
90.0
100
AcDbRotatedDimension
1001
ACAD
1000
DSTYLE
1002
{
1070
             279
1070
               2
1070
             340
1005
3A
1070
             147
1040
5.0
1002
}
  0
DIMENSION
  5
1AA
100
AcDbEntity
  8
notes
370
               5
390
0
  6
Continuous
 62
               7
100
AcDbDimension
  2
*D14
 10
249.83406697275268
 20
-497.19298150415534
 30
0.0
 11
249.83406697275268
 21
-587.1929815041558
 31
0.0
 71
               5
 72
               1
 41
1.0
 42
0.0
  3
tform線あり
100
AcDbAlignedDimension
 13
427.50315617094799
 23
-677.19298150415625
 33
0.0
 14
354.83302563149346
 24
-497.19298150415534
 34
0.0
 50
90.0
100
AcDbRotatedDimension
1001
ACAD
1000
DSTYLE
1002
{
1070
             279
1070
               2
1070
             340
1005
3A
1070
             147
1040
5.0
1002
}
  0
DIMENSION
  5
1AB
100
AcDbEntity
  8
notes
370
               5
390
0
  6
Continuous
 62
               7
100
AcDbDimension
  2
*D15
 10
249.83406697275274
 20
-677.19298150415625
 30
0.0
 11
244.83406697275274
 21
-705.87950671910505
 31
0.0
 70
             128
 71
               5
 72
               1
 41
1.0
 42
0.0
  3
tform線あり
100
AcDbAlignedDimension
 13
571.63896273331829
 23
-697.1929815041517
 33
0.0
 14
427.50315617094799
 24
-677.19298150415625
 34
0.0
 50
90.0
100
AcDbRotatedDimension
1001
ACAD
1000
DSTYLE
1002
{
1070
             279
1070
               2
1070
             340
1005
3A
1070
             174
1070
               0
1070
             147
1040
5.0
1002
}
  0
DIMENSION
  5
1AC
100
AcDbEntity
  8
notes
370
               5
390
0
  6
Continuous
 62
               7
100
AcDbDimension
  2
*D16
 10
197.52713575132461
 20
-497.19298150415625
 30
0.0
 11
197.52713575132461
 21
-597.19298150415648
 31
0.0
 71
               5
 72
               1
 41
1.0
 42
0.0
  3
tform線あり
100
AcDbAlignedDimension
 13
-220.06832442171054
 23
-697.19298150415671
 33
0.0
 14
42.510563687615871
 24
-497.19298150415625
 34
0.0
 50
90.0
100
AcDbRotatedDimension
1001
ACAD
1000
DSTYLE
1002
{
1070
             279
1070
               2
1070
             340
1005
3A
1070
             147
1040
5.0
1002
}
  0
DIMENSION
  5
1AD
100
AcDbEntity
  8
notes
370
               5
390
0
  6
Continuous
 62
               7
100
AcDbDimension
  2
*D17
 10
120.24819731235661
 20
898.12049328089131
 30
0.0
 11
120.24819731235661
 21
853.12520264304464
 31
0.0
 71
               5
 72
               1
 41
1.0
 42
0.0
  3
tform線あり
100
AcDbAlignedDimension
 13
-27.50032493610027
 23
808.12991200519798
 33
0.0
 14
38.953580957044423
 24
898.12049328089131
 34
0.0
 50
90.0
100
AcDbRotatedDimension
1001
ACAD
1000
DSTYLE
1002
{
1070
             279
1070
               2
1070
             340
1005
3A
1070
             147
1040
5.0
1002
}
  0
DIMENSION
  5
1AE
100
AcDbEntity
  8
notes
370
               5
390
0
  6
Continuous
 62
               7
100
AcDbDimension
  2
*D18
 10
-885.04641904295613
 20
898.12049328089131
 30
0.0
 11
-885.04641904295613
 21
713.12049328089267
 31
0.0
 71
               5
 72
               1
 41
1.0
 42
0.0
  3
tform線あり
100
AcDbAlignedDimension
 13
-799.04641904295613
 23
528.12049328089392
 33
0.0
 14
-799.04641904295613
 24
898.12049328089131
 34
0.0
 50
90.0
100
AcDbRotatedDimension
1001
ACAD
1000
DSTYLE
1002
{
1070
             279
1070
               2
1070
             340
1005
3A
1070
             147
1040
5.0
1002
}
  0
DIMENSION
  5
1AF
100
AcDbEntity
  8
notes
370
               5
390
0
  6
Continuous
 62
               7
100
AcDbDimension
  2
*D19
 10
899.83302562927929
 20
-797.1929815041517
 30
0.0
 11
749.8330256292785
 21
-797.1929815041517
 31
0.0
 71
               5
 72
               1
 41
1.0
 42
0.0
  3
tform線あり
100
AcDbAlignedDimension
 13
599.8330256292777
 23
-697.1929815041517
 33
0.0
 14
899.83302562927929
 24
-666.19298150415671
 34
0.0
100
AcDbRotatedDimension
1001
ACAD
1000
DSTYLE
1002
{
1070
             279
1070
               2
1070
             340
1005
3A
1070
             147
1040
5.0
1002
}
  0
DIMENSION
  5
1B0
100
AcDbEntity
  8
notes
370
               5
390
0
  6
Continuous
 62
               7
100
AcDbDimension
  2
*D20
 10
-885.04641904295613
 20
-497.19298150415625
 30
0.0
 11
-890.04641904295613
 21
-519.68624411163069
 31
0.0
 70
             128
 71
               5
 72
               1
 41
1.0
 42
0.0
  3
tform線あり
100
AcDbAlignedDimension
 13
-710.00785031779367
 23
-542.17950671910512
 33
0.0
 14
-800.0298469792474
 24
-497.19298150415625
 34
0.0
 50
90.0
100
AcDbRotatedDimension
1001
ACAD
1000
DSTYLE
1002
{
1070
             279
1070
               2
1070
             340
1005
3A
1070
             147
1040
5.0
1002
}
  0
DIMENSION
  5
1B1
100
AcDbEntity
  8
notes
370
               5
390
0
  6
Continuous
 62
               7
100
AcDbDimension
  2
*D21
 10
584.0
 20
-497.19298161259871
 30
0.0
 11
579.0
 21
-480.57568621685391
 31
0.0
 70
             128
 71
               5
 72
               1
 41
1.0
 42
0.0
  3
tform線あり
100
AcDbAlignedDimension
 13
599.81112025052357
 23
-652.17796067300696
 33
0.0
 14
599.78199990981034
 24
-497.19298161259871
 34
0.0
 50
90.0
100
AcDbRotatedDimension
1001
ACAD
1000
DSTYLE
1002
{
1070
             279
1070
               2
1070
             340
1005
3A
1070
               3
1000
<>(深さ)
1070
             174
1070
               0
1070
             147
1040
5.0
1002
}
  0
DIMENSION
  5
1B2
100
AcDbEntity
  8
notes
370
               5
390
0
  6
Continuous
 62
               7
100
AcDbDimension
  2
*D22
 10
36.892310425378483
 20
730.13692594664644
 30
0.0
 11
-63.107689574621645
 21
625.13692594664701
 31
0.0
 70
               1
 71
               5
 72
               1
 41
1.0
 42
0.0
  3
tform線あり
100
AcDbAlignedDimension
 13
-245.0003249361003
 23
598.12991200519912
 33
0.0
 14
-45.0003249361001
 24
808.12991200519798
 34
0.0
 50
46.397181027296192
1001
ACAD
1000
DSTYLE
1002
{
1070
             279
1070
               2
1070
             340
1005
3A
1070
             147
1040
5.0
1002
}
  0
DIMENSION
  5
1B3
100
AcDbEntity
  8
notes
370
               5
390
0
  6
Continuous
 62
               7
100
AcDbDimension
  2
*D23
 10
-30.04641904295579
 20
248.12991200519903
 30
0.0
 11
7.4535809570441955
 21
248.12991200519903
 31
0.0
 71
               5
 72
               1
 41
1.0
 42
0.0
  3
tform線あり
100
AcDbAlignedDimension
 13
44.953580957044188
 23
534.12049328089392
 33
0.0
 14
-30.04641904295579
 24
466.0
 34
0.0
100
AcDbRotatedDimension
1001
ACAD
1000
DSTYLE
1002
{
1070
             279
1070
               2
1070
             340
1005
3A
1070
             147
1040
5.0
1002
}
  0
DIMENSION
  5
1B4
100
AcDbEntity
  8
notes
370
               5
390
0
  6
Continuous
 62
               7
100
AcDbDimension
  2
*D24
 10
-156.0
 20
813.12049328089154
 30
0.0
 11
-156.0
 21
855.62049328089142
 31
0.0
 71
               5
 72
               1
 41
1.0
 42
0.0
  3
tform線あり
100
AcDbAlignedDimension
 13
-245.00032493610024
 23
898.12049328089131
 33
0.0
 14
-245.04641904295596
 24
813.12049328089154
 34
0.0
 50
90.0
100
AcDbRotatedDimension
1001
ACAD
1000
DSTYLE
1002
{
1070
             279
1070
               2
1070
             340
1005
3A
1070
             147
1040
5.0
1002
}
  0
DIMENSION
  5
1B5
100
AcDbEntity
  8
notes
370
               5
390
0
  6
Continuous
 62
               7
100
AcDbDimension
  2
*D25
 10
-242.56832442171066
 20
-797.1929815041517
 30
0.0
 11
-97.568324421710656
 21
-797.1929815041517
 31
0.0
 71
               5
 72
               1
 41
1.0
 42
0.0
  3
tform線あり
100
AcDbAlignedDimension
 13
47.431675578289344
 23
-567.19773352378706
 33
0.0
 14
-242.56832442171066
 24
-697.19298150415671
 34
0.0
100
AcDbRotatedDimension
1001
ACAD
1000
DSTYLE
1002
{
1070
             279
1070
               2
1070
             340
1005
3A
1070
             147
1040
5.0
1002
}
  0
ARC
  5
1B6
100
AcDbEntity
  8
ADF70-1101
370
              15
390
0
  6
Continuous
 62
               7
100
AcDbCircle
 10
38.953580957044295
 20
534.12049328089404
 30
0.0
 40
6.0
100
AcDbArc
 50
270.0
 51
0.0
  0
ARC
  5
1B7
100
AcDbEntity
  8
ADF70-1101
370
              15
390
0
  6
Continuous
 62
               7
100
AcDbCircle
 10
38.953580957044423
 20
892.12049328089154
 30
0.0
 40
5.9999999999999361
100
AcDbArc
 50
0.0
 51
90.0
  0
ARC
  5
1B8
100
AcDbEntity
  8
ADF70-1101
370
              15
390
0
  6
Continuous
 62
               7
100
AcDbCircle
 10
-799.04641904295613
 20
892.12049328089176
 30
0.0
 40
5.9999999999997726
100
AcDbArc
 50
90.0
 51
180.0
  0
ARC
  5
1B9
100
AcDbEntity
  8
ADF70-1101
370
              15
390
0
  6
Continuous
 62
               7
100
AcDbCircle
 10
-799.04641904295613
 20
534.12049328089415
 30
0.0
 40
6.0
100
AcDbArc
 50
180.0
 51
270.0
  0
ARC
  5
1BA
100
AcDbEntity
  8
ADF70-1101
370
              15
390
0
  6
Continuous
 62
               7
100
AcDbCircle
 10
-501.29287082590099
 20
508.12049328089415
 30
0.0
 40
20.000000000000249
100
AcDbArc
 50
22.095209142777986
 51
90.0
  0
ARC
  5
1BB
100
AcDbEntity
  8
ADF70-1101
370
              15
390
0
  6
Continuous
 62
               7
100
AcDbCircle
 10
11.504884212798373
 20
508.12049328089404
 30
0.0
 40
20.0
100
AcDbArc
 50
90.0
 51
157.90479085722194
  0
CIRCLE
  5
1BC
100
AcDbEntity
  8
ADF70-1101
370
              15
390
0
  6
STYLE_12
 62
               7
100
AcDbCircle
 10
-445.00032493609945
 20
808.12991200519798
 30
0.0
 40
17.499999999999883
  0
CIRCLE
  5
1BD
100
AcDbEntity
  8
ADF70-1101
370
              15
390
0
  6
STYLE_12
 62
               7
100
AcDbCircle
 10
-45.0003249361001
 20
808.12991200519798
 30
0.0
 40
17.499999999999833
  0
CIRCLE
  5
1BE
100
AcDbEntity
  8
ADF70-1101
370
              15
390
0
  6
Continuous
 62
               7
100
AcDbCircle
 10
-245.0003249361003
 20
598.12991200519912
 30
0.0
 40
22.499999999999989
  0
CIRCLE
  5
1BF
100
AcDbEntity
  8
ADF70-1101
370
              15
390
0
  6
Continuous
 62
               7
100
AcDbCircle
 10
-245.0003249361003
 20
598.12991200519912
 30
0.0
 40
37.500000000000107
  0
LINE
  5
1C0
100
AcDbEntity
  8
ADF70-1101
370
              15
390
0
  6
Continuous
 62
               7
100
AcDbLine
 10
11.504884212798316
 20
528.12049328089392
 30
0.0
 11
38.953580957044238
 21
528.12049328089392
 31
0.0
  0
ARC
  5
1C1
100
AcDbEntity
  8
ADF70-1101
370
              15
390
0
  6
Continuous
 62
               7
100
AcDbCircle
 10
-245.0003249361003
 20
600.62049328089358
 30
0.0
 40
252.49999999999872
100
AcDbArc
 50
199.67672257173427
 51
340.33378523216584
  0
LINE
  5
1C2
100
AcDbEntity
  8
ADF70-1101
370
              15
390
0
  6
Continuous
 62
               7
100
AcDbLine
 10
44.953580957044188
 20
534.12049328089392
 30
0.0
 11
44.953580957044188
 21
892.12049328089154
 31
0.0
  0
LINE
  5
1C3
100
AcDbEntity
  8
ADF70-1101
370
              15
390
0
  6
Continuous
 62
               7
100
AcDbLine
 10
-799.04641904295613
 20
528.12049328089392
 30
0.0
 11
-499.40032493609942
 21
528.12049328089392
 31
0.0
  0
LINE
  5
1C4
100
AcDbEntity
  8
ADF70-1101
370
              15
390
0
  6
Continuous
 62
               7
100
AcDbLine
 10
-805.04641904295613
 20
892.12049328089154
 30
0.0
 11
-805.04641904295613
 21
534.12049328089392
 31
0.0
  0
LINE
  5
1C5
100
AcDbEntity
  8
ADF70-1101
370
              15
390
0
  6
Continuous
 62
               7
100
AcDbLine
 10
-799.04641904295613
 20
898.12049328089131
 30
0.0
 11
38.953580957044238
 21
898.12049328089131
 31
0.0
  0
LINE
  5
1C6
100
AcDbEntity
  8
ADF70-1101
370
              15
390
0
  6
Continuous
 62
               7
100
AcDbLine
 10
899.83302562927929
 20
-502.19298150415216
 30
0.0
 11
899.83302562928111
 21
-611.13684846764636
 31
0.0
  0
ARC
  5
1C7
100
AcDbEntity
  8
ADF70-1101
370
              15
390
0
  6
Continuous
 62
               7
100
AcDbCircle
 10
599.78199990981125
 20
-497.19298150415545
 30
0.0
 40
249.99999999999972
100
AcDbArc
 50
181.16938280561425
 51
225.77441236628093
  0
LINE
  5
1C8
100
AcDbEntity
  8
ADF70-1101
370
              15
390
0
  6
STYLE_12
 62
               7
100
AcDbLine
 10
622.3330256292785
 20
-664.19298150415261
 30
0.0
 11
577.33302562927838
 21
-664.19298150415261
 31
0.0
  0
LINE
  5
1C9
100
AcDbEntity
  8
ADF70-1101
370
              15
390
0
  6
STYLE_12
 62
               7
100
AcDbLine
 10
559.78921487176831
 20
-652.16293984186132
 30
0.0
 11
639.83302562927895
 21
-652.19298150415261
 31
0.0
  0
LINE
  5
1CA
100
AcDbEntity
  8
ADF70-1101
370
              15
390
0
  6
Continuous
 62
               7
100
AcDbLine
 10
622.3330256292785
 20
-697.1929815041517
 30
0.0
 11
577.33302562927838
 21
-697.1929815041517
 31
0.0
  0
LINE
  5
1CB
100
AcDbEntity
  8
ADF70-1101
370
              15
390
0
  6
Continuous
 62
               7
100
AcDbLine
 10
899.83302562927929
 20
-611.13684846764727
 30
0.0
 11
899.8330256292802
 21
-673.19298150415261
 31
0.0
  0
ARC
  5
1CC
100
AcDbEntity
  8
ADF70-1101
370
              15
390
0
  6
Continuous
 62
               7
100
AcDbCircle
 10
895.83302562927952
 20
-673.19298150415261
 30
0.0
 40
4.0
100
AcDbArc
 50
270.0
 51
0.0
  0
LINE
  5
1CD
100
AcDbEntity
  8
ADF70-1101
370
              15
390
0
  6
STYLE_12
 62
               7
100
AcDbLine
 10
639.83302562927895
 20
-652.19298150415261
 30
0.0
 11
622.3330256292785
 21
-664.19298150415261
 31
0.0
  0
LINE
  5
1CE
100
AcDbEntity
  8
ADF70-1101
370
              15
390
0
  6
Continuous
 62
               7
100
AcDbLine
 10
628.02708852523858
 20
-697.1929815041517
 30
0.0
 11
622.3330256292785
 21
-697.1929815041517
 31
0.0
  0
ARC
  5
1CF
100
AcDbEntity
  8
ADF70-1101
370
              15
390
0
  6
Continuous
 62
               7
100
AcDbCircle
 10
628.0270885252404
 20
-692.19298150414988
 30
0.0
 40
5.0000000000013642
100
AcDbArc
 50
270.0
 51
351.46923439006804
  0
LINE
  5
1D0
100
AcDbEntity
  8
ADF70-1101
370
              15
390
0
  6
Continuous
 62
               7
100
AcDbLine
 10
633.90608847771659
 20
-686.05559064276258
 30
0.0
 11
632.97177028958254
 21
-692.93468376880037
 31
0.0
  0
ARC
  5
1D1
100
AcDbEntity
  8
ADF70-1101
370
              15
390
0
  6
Continuous
 62
               7
100
AcDbCircle
 10
635.84835039591076
 20
-686.53268459698029
 30
0.0
 40
2.0000000000011502
100
AcDbArc
 50
99.544009566366356
 51
171.46923439002319
  0
LINE
  5
1D2
100
AcDbEntity
  8
ADF70-1101
370
              15
390
0
  6
STYLE_12
 62
               7
100
AcDbLine
 10
622.3330256292785
 20
-697.1929815041517
 30
0.0
 11
622.3330256292785
 21
-664.19298150415261
 31
0.0
  0
ARC
  5
1D3
100
AcDbEntity
  8
ADF70-1101
370
              15
390
0
  6
Continuous
 62
               7
100
AcDbCircle
 10
427.50315617094822
 20
-674.19298150415671
 30
0.0
 40
3.0000000000000084
100
AcDbArc
 50
225.77441236628601
 51
270.0
  0
LINE
  5
1D4
100
AcDbEntity
  8
ADF70-1101
370
              15
390
0
  6
Continuous
 62
               7
100
AcDbLine
 10
566.69428096897627
 20
-692.93468376880401
 30
0.0
 11
566.6942809263337
 21
-692.93468374551412
 31
0.0
  0
ARC
  5
1D5
100
AcDbEntity
  8
ADF70-1101
370
              15
390
0
  6
Continuous
 62
               7
100
AcDbCircle
 10
571.63896273331852
 20
-692.1929815041517
 30
0.0
 40
4.9999999999999467
100
AcDbArc
 50
188.53076560998181
 51
270.0
  0
LINE
  5
1D6
100
AcDbEntity
  8
ADF70-1101
370
              15
390
0
  6
Continuous
 62
               7
100
AcDbLine
 10
566.69428096897627
 20
-692.93468376880401
 30
0.0
 11
564.33302562927929
 21
-677.19298150415671
 31
0.0
  0
LINE
  5
1D7
100
AcDbEntity
  8
ADF70-1101
370
              15
390
0
  6
STYLE_12
 62
               7
100
AcDbLine
 10
577.33302562927838
 20
-664.19298150415261
 30
0.0
 11
577.33302562927838
 21
-697.1929815041517
 31
0.0
  0
LINE
  5
1D8
100
AcDbEntity
  8
ADF70-1101
370
              15
390
0
  6
Continuous
 62
               7
100
AcDbLine
 10
577.33302562927838
 20
-697.1929815041517
 30
0.0
 11
571.63896273331829
 21
-697.1929815041517
 31
0.0
  0
LINE
  5
1D9
100
AcDbEntity
  8
ADF70-1101
370
              15
390
0
  6
STYLE_12
 62
               7
100
AcDbLine
 10
559.78921487176831
 20
-652.16293984186132
 30
0.0
 11
577.33302562927838
 21
-664.19298150415261
 31
0.0
  0
LINE
  5
1DA
100
AcDbEntity
  8
ADF70-1101
370
              15
390
0
  6
Continuous
 62
               7
100
AcDbLine
 10
816.67971226876693
 20
-497.19298150415625
 30
0.0
 11
894.83302562928111
 21
-497.19298150415216
 31
0.0
  0
ARC
  5
1DB
100
AcDbEntity
  8
ADF70-1101
370
              15
390
0
  6
Continuous
 62
               7
100
AcDbCircle
 10
894.83302562928043
 20
-502.19298150415125
 30
0.0
 40
4.9999999999990905
100
AcDbArc
 50
0.0
 51
90.0
  0
LINE
  5
1DC
100
AcDbEntity
  8
ADF70-1101
370
              15
390
0
  6
Continuous
 62
               7
100
AcDbLine
 10
354.83302563149437
 20
-497.1929815041558
 30
0.0
 11
382.84962811486417
 21
-497.19298150415716
 31
0.0
  0
ARC
  5
1DD
100
AcDbEntity
  8
ADF70-1101
370
              15
390
0
  6
STYLE_12
 62
               7
100
AcDbCircle
 10
382.84962811486417
 20
-502.1929815041575
 30
0.0
 40
5.0000000000002078
100
AcDbArc
 50
9.358153843032019
 51
89.999999999999986
  0
ARC
  5
1DE
100
AcDbEntity
  8
ADF70-1101
370
              15
390
0
  6
Continuous
 62
               7
100
AcDbCircle
 10
354.83302563149368
 20
-502.19298150415568
 30
0.0
 40
4.9999999999996589
100
AcDbArc
 50
90.0
 51
181.16938280561649
  0
ARC
  5
1DF
100
AcDbEntity
  8
ADF70-1101
370
              15
390
0
  6
STYLE_12
 62
               7
100
AcDbCircle
 10
816.67971226876716
 20
-502.19298150415625
 30
0.0
 40
4.9999999999997726
100
AcDbArc
 50
90.000000000005215
 51
170.64184615696198
  0
LINE
  5
1E0
100
AcDbEntity
  8
ADF70-1101
370
              15
390
0
  6
Continuous
 62
               7
100
AcDbLine
 10
895.83302562927952
 20
-677.19298150415671
 30
0.0
 11
427.50315617094822
 21
-677.19298150415671
 31
0.0
  0
LINE
  5
1E1
100
AcDbEntity
  8
ADF70-1101
370
              15
390
0
  6
Continuous
 62
               7
100
AcDbLine
 10
816.67971226876693
 20
-497.19298150415625
 30
0.0
 11
382.98633898978966
 21
-497.19298150415671
 31
0.0
  0
LINE
  5
1E2
100
AcDbEntity
  8
ADF70-1101
370
              15
390
0
  6
Continuous
 62
               7
100
AcDbLine
 10
-800.0298469792474
 20
-497.19298150415625
 30
0.0
 11
42.510563687615871
 21
-497.19298150415625
 31
0.0
  0
SPLINE
  5
1E3
100
AcDbEntity
  8
ADF70-1101
370
              15
390
0
  6
Continuous
 62
               7
100
AcDbSpline
210
0.0
220
0.0
230
1.0
 70
               8
 71
               2
 72
              15
 73
              12
 74
               0
 42
0.000001
 43
0.000001
 40
0.0
 40
0.0
 40
0.0
 40
1.0
 40
1.0
 40
2.0
 40
3.0
 40
4.0
 40
5.0
 40
6.0
 40
7.0
 40
7.0
 40
8.0
 40
8.0
 40
8.0
 10
-800.0298469792474
 20
-497.19298150415625
 30
0.0
 10
-800.0712158673557
 20
-497.19298150415625
 30
0.0
 10
-800.11258475546401
 20
-497.19298150415625
 30
0.0
 10
-801.02009373344299
 20
-497.22666445006735
 30
0.0
 10
-802.34964973015576
 20
-497.7219300597551
 30
0.0
 10
-803.37298397611994
 20
-498.4279713209753
 30
0.0
 10
-804.19527243763059
 20
-499.35793614053
 30
0.0
 10
-804.7735146757891
 20
-500.46950201436493
 30
0.0
 10
-805.02707963417697
 20
-501.56277912523774
 30
0.0
 10
-805.04641904295613
 20
-502.14207155977283
 30
0.0
 10
-805.04641904295613
 20
-502.1837376381693
 30
0.0
 10
-805.04641904295613
 20
-502.22540371656578
 30
0.0
  0
LINE
  5
1E4
100
AcDbEntity
  8
ADF70-1101
370
              15
390
0
  6
Continuous
 62
               7
100
AcDbLine
 10
-805.04641904295613
 20
-502.22540371656578
 30
0.0
 11
-805.04641904295613
 21
-567.34970218975695
 31
0.0
  0
SPLINE
  5
1E5
100
AcDbEntity
  8
ADF70-1101
370
              15
390
0
  6
Continuous
 62
               7
100
AcDbSpline
210
0.0
220
0.0
230
1.0
 70
               8
 71
               2
 72
              15
 73
              12
 74
               0
 42
0.000001
 43
0.000001
 40
0.0
 40
0.0
 40
0.0
 40
1.0
 40
1.0
 40
2.0
 40
3.0
 40
4.0
 40
5.0
 40
6.0
 40
7.0
 40
7.0
 40
8.0
 40
8.0
 40
8.0
 10
-805.04641904295613
 20
-567.34970218975695
 30
0.0
 10
-805.04641904295613
 20
-567.39107107786526
 30
0.0
 10
-805.04641904295613
 20
-567.43243996597357
 30
0.0
 10
-805.01258065457387
 20
-568.33991883842123
 30
0.0
 10
-804.51701651360008
 20
-569.66872335578933
 30
0.0
 10
-803.81139384181415
 20
-570.69114657927207
 30
0.0
 10
-802.88320582359711
 20
-571.51246928162641
 30
0.0
 10
-801.77542074565963
 20
-572.08991672698335
 30
0.0
 10
-800.68791793316223
 20
-572.3430113138354
 30
0.0
 10
-800.11258475546401
 20
-572.36231171629106
 30
0.0
 10
-800.0712158673557
 20
-572.36231171629106
 30
0.0
 10
-800.0298469792474
 20
-572.36231171629106
 30
0.0
  0
LINE
  5
1E6
100
AcDbEntity
  8
ADF70-1101
370
              15
390
0
  6
Continuous
 62
               7
100
AcDbLine
 10
47.527135751324614
 20
-567.34970218975695
 30
0.0
 11
47.527135751324614
 21
-502.22540371656578
 31
0.0
  0
SPLINE
  5
1E7
100
AcDbEntity
  8
ADF70-1101
370
              15
390
0
  6
Continuous
 62
               7
100
AcDbSpline
210
0.0
220
0.0
230
1.0
 70
               8
 71
               2
 72
              15
 73
              12
 74
               0
 42
0.000001
 43
0.000001
 40
0.0
 40
0.0
 40
0.0
 40
1.0
 40
1.0
 40
2.0
 40
3.0
 40
4.0
 40
5.0
 40
6.0
 40
7.0
 40
7.0
 40
8.0
 40
8.0
 40
8.0
 10
42.510563687615871
 20
-572.21034305032117
 30
0.0
 10
42.552140608925896
 20
-572.21034305032117
 30
0.0
 10
42.593717530235921
 20
-572.21034305032117
 30
0.0
 10
43.505382259188394
 20
-572.17657509472087
 30
0.0
 10
44.836813615412076
 20
-571.68176736161627
 30
0.0
 10
45.859486054473884
 20
-570.97705719880537
 30
0.0
 10
46.679786915761589
 20
-570.04983014289405
 30
0.0
 10
47.255764054479052
 20
-568.94286092975085
 30
0.0
 10
47.507925505607865
 20
-567.85576955863462
 30
0.0
 10
47.527135751324614
 20
-567.28047130000368
 30
0.0
 10
47.527135751324614
 20
-567.23910241189537
 30
0.0
 10
47.527135751324614
 20
-567.19773352378706
 30
0.0
  0
SPLINE
  5
1E8
100
AcDbEntity
  8
ADF70-1101
370
              15
390
0
  6
Continuous
 62
               7
100
AcDbSpline
210
0.0
220
0.0
230
1.0
 70
               8
 71
               2
 72
              15
 73
              12
 74
               0
 42
0.000001
 43
0.000001
 40
0.0
 40
0.0
 40
0.0
 40
1.0
 40
1.0
 40
2.0
 40
3.0
 40
4.0
 40
5.0
 40
6.0
 40
7.0
 40
7.0
 40
8.0
 40
8.0
 40
8.0
 10
47.527135751324614
 20
-502.22540371656578
 30
0.0
 10
47.527135751324614
 20
-502.1837376381693
 30
0.0
 10
47.527135751324614
 20
-502.14207155977283
 30
0.0
 10
47.493575600439591
 20
-501.22836134666795
 30
0.0
 10
47.000334977825197
 20
-499.8931027456847
 30
0.0
 10
46.296973294424198
 20
-498.8670645393222
 30
0.0
 10
45.370235514583193
 20
-498.04376960168884
 30
0.0
 10
44.262073783098316
 20
-497.46550879155143
 30
0.0
 10
43.171721598359767
 20
-497.21227782222468
 30
0.0
 10
42.593717530235921
 20
-497.19298150415625
 30
0.0
 10
42.552140608925896
 20
-497.19298150415625
 30
0.0
 10
42.510563687615871
 20
-497.19298150415625
 30
0.0
  0
SPLINE
  5
1E9
100
AcDbEntity
  8
ADF70-1101
370
              15
390
0
  6
Continuous
 62
               7
100
AcDbSpline
210
0.0
220
0.0
230
1.0
 70
               8
 71
               2
 72
              12
 73
               9
 74
               0
 42
0.000001
 43
0.000001
 40
0.0
 40
0.0
 40
0.0
 40
1.0
 40
1.0
 40
2.0
 40
3.0
 40
4.0
 40
4.0
 40
5.0
 40
5.0
 40
5.0
 10
-500.52430710086583
 20
-497.19298150415625
 30
0.0
 10
-500.52430710086583
 20
-500.40352192290254
 30
0.0
 10
-500.52430710086583
 20
-503.61406234164883
 30
0.0
 10
-498.24962681896659
 20
-548.49828495488555
 30
0.0
 10
-477.47611345546693
 20
-607.25265028197646
 30
0.0
 10
-452.33388675695153
 20
-649.38349755699528
 30
0.0
 10
-431.68284046416852
 20
-671.71670435780197
 30
0.0
 10
-429.50221049972549
 20
-673.83074332589695
 30
0.0
 10
-427.32158053528246
 20
-675.94478229399192
 30
0.0
  0
SPLINE
  5
1EA
100
AcDbEntity
  8
ADF70-1101
370
              15
390
0
  6
Continuous
 62
               7
100
AcDbSpline
210
0.0
220
0.0
230
1.0
 70
               8
 71
               2
 72
              13
 73
              10
 74
               0
 42
0.000001
 43
0.000001
 40
0.0
 40
0.0
 40
0.0
 40
1.0
 40
1.0
 40
2.0
 40
3.0
 40
4.0
 40
5.0
 40
5.0
 40
6.0
 40
6.0
 40
6.0
 10
-488.37667564370304
 20
-575.89689487650298
 30
0.0
 10
-488.38561886996672
 20
-575.86805641150625
 30
0.0
 10
-488.3945620962304
 20
-575.83921794650951
 30
0.0
 10
-488.6878667690612
 20
-574.97951558877821
 30
0.0
 10
-489.47655459308771
 20
-573.95620775980956
 30
0.0
 10
-490.52393068797028
 20
-573.01756685186865
 30
0.0
 10
-492.17856451134185
 20
-572.38745772176321
 30
0.0
 10
-493.09253516401122
 20
-572.36231171629106
 30
0.0
 10
-493.12302468616417
 20
-572.36231171629106
 30
0.0
 10
-493.15351420831712
 20
-572.36231171629106
 30
0.0
  0
SPLINE
  5
1EB
100
AcDbEntity
  8
ADF70-1101
370
              15
390
0
  6
Continuous
 62
               7
100
AcDbSpline
210
0.0
220
0.0
230
1.0
 70
               8
 71
               2
 72
              12
 73
               9
 74
               0
 42
0.000001
 43
0.000001
 40
0.0
 40
0.0
 40
0.0
 40
1.0
 40
1.0
 40
2.0
 40
3.0
 40
4.0
 40
4.0
 40
5.0
 40
5.0
 40
5.0
 10
-58.168387333434396
 20
-676.25922083715022
 30
0.0
 10
-55.975331132003362
 20
-674.14140162904232
 30
0.0
 10
-53.782274930572328
 20
-672.02358242093442
 30
0.0
 10
-24.630034428123338
 20
-640.51566206964844
 30
0.0
 10
1.7429245128792274
 20
-584.40452874551397
 30
0.0
 10
13.869013298099546
 20
-535.60933856216479
 30
0.0
 10
15.448304230575147
 20
-503.62542204520878
 30
0.0
 10
15.448304230575147
 20
-500.40920177468251
 30
0.0
 10
15.448304230575147
 20
-497.19298150415625
 30
0.0
  0
SPLINE
  5
1EC
100
AcDbEntity
  8
ADF70-1101
370
              15
390
0
  6
Continuous
 62
               7
100
AcDbSpline
210
0.0
220
0.0
230
1.0
 70
               8
 71
               2
 72
              13
 73
              10
 74
               0
 42
0.000001
 43
0.000001
 40
0.0
 40
0.0
 40
0.0
 40
1.0
 40
1.0
 40
2.0
 40
3.0
 40
4.0
 40
5.0
 40
5.0
 40
6.0
 40
6.0
 40
6.0
 10
7.6985964789624006
 20
-572.21034305032117
 30
0.0
 10
7.6680519215706511
 20
-572.21034305032117
 30
0.0
 10
7.6375073641789015
 20
-572.21034305032117
 30
0.0
 10
6.7202317246069754
 20
-572.23693419703477
 30
0.0
 10
5.5085282034748104
 20
-572.69628982162203
 30
0.0
 10
4.305981610262819
 20
-573.42985720069782
 30
0.0
 10
3.221503905314961
 20
-574.82899206405
 30
0.0
 10
2.926050662954907
 20
-575.68724928053962
 30
0.0
 10
2.9169698485953575
 20
-575.71608774553636
 30
0.0
 10
2.9078890342358079
 20
-575.74492621053309
 30
0.0
  0
LINE
  5
1ED
100
AcDbEntity
  8
ADF70-1101
370
              15
390
0
  6
Continuous
 62
               7
100
AcDbLine
 10
42.510563687615871
 20
-572.21034305032117
 30
0.0
 11
7.6375073641789015
 21
-572.21034305032117
 31
0.0
  0
LINE
  5
1EE
100
AcDbEntity
  8
ADF70-1101
370
              15
390
0
  6
Continuous
 62
               7
100
AcDbLine
 10
-800.05012469769395
 20
-572.19298150415671
 30
0.0
 11
-493.20785031779428
 21
-572.19298150415671
 31
0.0
  0
SPLINE
  5
1EF
100
AcDbEntity
  8
ADF70-1101
370
              15
390
0
  6
Continuous
 62
               7
100
AcDbSpline
210
0.0
220
0.0
230
1.0
 70
               8
 71
               2
 72
              12
 73
               9
 74
               0
 42
0.000001
 43
0.000001
 40
0.0
 40
0.0
 40
0.0
 40
1.0
 40
1.0
 40
2.0
 40
3.0
 40
4.0
 40
4.0
 40
5.0
 40
5.0
 40
5.0
 10
-427.32158053528246
 20
-675.94478229399192
 30
0.0
 10
-427.31094669528511
 20
-675.95444097835616
 30
0.0
 10
-427.30031285528776
 20
-675.9640996627204
 30
0.0
 10
-426.62878113525585
 20
-676.5545706535745
 30
0.0
 10
-425.42443998988938
 20
-677.01978514907069
 30
0.0
 10
-424.53837145089801
 20
-677.18763932388993
 30
0.0
 10
-424.05141933820551
 20
-677.19298150415671
 30
0.0
 10
-424.03709383759815
 20
-677.19298150415671
 30
0.0
 10
-424.02276833699079
 20
-677.19298150415671
 30
0.0
  0
LINE
  5
1F0
100
AcDbEntity
  8
ADF70-1101
370
              15
390
0
  6
Continuous
 62
               7
100
AcDbLine
 10
-61.114794826908621
 20
-677.19298150415671
 30
0.0
 11
-424.02276833699079
 21
-677.19298150415671
 31
0.0
  0
SPLINE
  5
1F1
100
AcDbEntity
  8
ADF70-1101
370
              15
390
0
  6
Continuous
 62
               7
100
AcDbSpline
210
0.0
220
0.0
230
1.0
 70
               8
 71
               2
 72
              12
 73
               9
 74
               0
 42
0.000001
 43
0.000001
 40
0.0
 40
0.0
 40
0.0
 40
1.0
 40
1.0
 40
2.0
 40
3.0
 40
4.0
 40
4.0
 40
5.0
 40
5.0
 40
5.0
 10
-61.114794826908621
 20
-677.19298150415671
 30
0.0
 10
-61.100492544292422
 20
-677.19298150415671
 30
0.0
 10
-61.086190261676222
 20
-677.19298150415671
 30
0.0
 10
-60.599772747720237
 20
-677.18760362305193
 30
0.0
 10
-59.714460563562682
 20
-677.0197372477005
 30
0.0
 10
-58.507170816713426
 20
-676.55434201158005
 30
0.0
 10
-57.829603850155365
 20
-675.9640996627204
 30
0.0
 10
-57.818830702210846
 20
-675.95444097835616
 30
0.0
 10
-57.808057554266327
 20
-675.94478229399192
 30
0.0
  0
LINE
  5
1F2
100
AcDbEntity
  8
ADF70-1101
370
              15
390
0
  6
STYLE_12
 62
               7
100
AcDbLine
 10
-265.06832442171077
 20
-663.92142719420144
 30
0.0
 11
-220.06832442171054
 21
-663.92142719420144
 31
0.0
  0
LINE
  5
1F3
100
AcDbEntity
  8
ADF70-1101
370
              15
390
0
  6
STYLE_12
 62
               7
100
AcDbLine
 10
-202.52451366420047
 20
-651.89138553191015
 30
0.0
 11
-282.56832442171077
 21
-651.92142719420144
 31
0.0
  0
LINE
  5
1F4
100
AcDbEntity
  8
ADF70-1101
370
              15
390
0
  6
Continuous
 62
               7
100
AcDbLine
 10
-265.06832442171077
 20
-697.19298150415671
 30
0.0
 11
-220.06832442171054
 21
-697.19298150415671
 31
0.0
  0
LINE
  5
1F5
100
AcDbEntity
  8
ADF70-1101
370
              15
390
0
  6
STYLE_12
 62
               7
100
AcDbLine
 10
-282.56832442171077
 20
-651.92142719420144
 30
0.0
 11
-265.06832442171077
 21
-663.92142719420144
 31
0.0
  0
LINE
  5
1F6
100
AcDbEntity
  8
ADF70-1101
370
              15
390
0
  6
STYLE_12
 62
               7
100
AcDbLine
 10
-265.06832442171077
 20
-663.92142719420144
 30
0.0
 11
-265.06832442171077
 21
-697.19298150415671
 31
0.0
  0
LINE
  5
1F7
100
AcDbEntity
  8
ADF70-1101
370
              15
390
0
  6
Continuous
 62
               7
100
AcDbLine
 10
-270.76238731767086
 20
-697.19298150415671
 30
0.0
 11
-265.06832442171077
 21
-697.19298150415671
 31
0.0
  0
ARC
  5
1F8
100
AcDbEntity
  8
ADF70-1101
370
              15
390
0
  6
Continuous
 62
               7
100
AcDbCircle
 10
-270.76238731767285
 20
-692.19298150415489
 30
0.0
 40
5.0000000000012506
100
AcDbArc
 50
188.53076560993216
 51
270.0
  0
LINE
  5
1F9
100
AcDbEntity
  8
ADF70-1101
370
              15
390
0
  6
Continuous
 62
               7
100
AcDbLine
 10
-277.84510653383819
 20
-677.19298150415671
 30
0.0
 11
-275.7070690820147
 21
-692.93468376880537
 31
0.0
  0
ARC
  5
1FA
100
AcDbEntity
  8
ADF70-1101
370
              15
390
0
  6
Continuous
 62
               7
100
AcDbCircle
 10
-214.37426152575057
 20
-692.19298150415671
 30
0.0
 40
5.0
100
AcDbArc
 50
269.99999999999932
 51
351.4692343900183
  0
LINE
  5
1FB
100
AcDbEntity
  8
ADF70-1101
370
              15
390
0
  6
Continuous
 62
               7
100
AcDbLine
 10
-209.42957976140843
 20
-692.93468376880901
 30
0.0
 11
-207.06832442171077
 21
-677.19298150415671
 31
0.0
  0
LINE
  5
1FC
100
AcDbEntity
  8
ADF70-1101
370
              15
390
0
  6
STYLE_12
 62
               7
100
AcDbLine
 10
-220.06832442171054
 20
-663.92142719420144
 30
0.0
 11
-220.06832442171054
 21
-697.19298150415671
 31
0.0
  0
LINE
  5
1FD
100
AcDbEntity
  8
ADF70-1101
370
              15
390
0
  6
Continuous
 62
               7
100
AcDbLine
 10
-220.06832442171054
 20
-697.19298150415671
 30
0.0
 11
-214.37426152575046
 21
-697.19298150415671
 31
0.0
  0
LINE
  5
1FE
100
AcDbEntity
  8
ADF70-1101
370
              15
390
0
  6
STYLE_12
 62
               7
100
AcDbLine
 10
-202.52451366420047
 20
-651.89138553191015
 30
0.0
 11
-220.06832442171054
 21
-663.92142719420144
 31
0.0
  0
ARC
  5
1FF
100
AcDbEntity
  8
ADF70-1101
370
              15
390
0
  6
STYLE_12
 62
               7
100
AcDbCircle
 10
-209.84399578420494
 20
-470.90490555319116
 30
0.0
 40
181.1344273008097
100
AcDbArc
 50
272.31590237530878
 51
351.59485807617006
  0
ARC
  5
200
100
AcDbEntity
  8
ADF70-1101
370
              15
390
0
  6
STYLE_12
 62
               7
100
AcDbCircle
 10
-275.19687125131486
 20
-470.90490555319116
 30
0.0
 40
181.13442730080817
100
AcDbArc
 50
188.40514192382997
 51
267.68409762469122
  0
LINE
  5
201
100
AcDbEntity
  8
ADF70-1101
370
              15
390
0
  6
Continuous
 62
               7
100
AcDbLine
 10
-342.40032493610039
 20
-497.19298150415625
 30
0.0
 11
-146.40032493610033
 21
-497.19298150415625
 31
0.0
  0
ARC
  5
202
100
AcDbEntity
  8
ADF70-1101
370
              15
390
0
  6
STYLE_12
 62
               7
100
AcDbCircle
 10
634.02153423454251
 20
-472.17911393867178
 30
0.0
 40
180.10765099826776
100
AcDbArc
 50
271.84907045211088
 51
350.66945339664454
  0
ARC
  5
203
100
AcDbEntity
  8
ADF70-1101
370
              15
390
0
  6
Continuous
 62
               7
100
AcDbCircle
 10
634.02153423454251
 20
-472.17911393867178
 30
0.0
 40
212.40000000000092
100
AcDbArc
 50
270.38322735222209
 51
285.15428869984311
  0
ARC
  5
204
100
AcDbEntity
  8
ADF70-1101
370
              15
390
0
  6
STYLE_12
 62
               7
100
AcDbCircle
 10
565.48236613675022
 20
-472.17911393867178
 30
0.0
 40
180.10765099826659
100
AcDbArc
 50
189.33891724950155
 51
268.15092954788918
  0
SPLINE
  5
205
100
AcDbEntity
  8
ADF70-1101
370
              15
390
0
  6
Continuous
 62
               7
100
AcDbSpline
210
0.0
220
0.0
230
1.0
 70
               9
 71
               2
 72
              17
 73
              14
 74
               0
 42
0.000001
 43
0.000001
 40
0.0
 40
0.0
 40
0.0
 40
1.0
 40
2.0
 40
3.0
 40
4.0
 40
5.0
 40
6.0
 40
7.0
 40
8.0
 40
9.0
 40
10.0
 40
11.0
 40
12.0
 40
12.0
 40
12.0
 10
-252.50032493610047
 20
788.26980040568662
 30
0.0
 10
-249.01956282256731
 20
788.67172419433336
 30
0.0
 10
-240.98108704963352
 20
788.67172419433336
 30
0.0
 10
-234.0195628225672
 20
787.86787661704
 30
0.0
 10
-230.0003249361003
 20
786.47557177162673
 30
0.0
 10
-230.0003249361003
 20
784.86787661704011
 30
0.0
 10
-234.0195628225672
 20
783.47557177162685
 30
0.0
 10
-240.98108704963352
 20
782.67172419433348
 30
0.0
 10
-249.01956282256731
 20
782.67172419433348
 30
0.0
 10
-255.98108704963363
 20
783.47557177162685
 30
0.0
 10
-260.00032493610053
 20
784.86787661704011
 30
0.0
 10
-260.00032493610053
 20
786.47557177162673
 30
0.0
 10
-255.98108704963363
 20
787.86787661704
 30
0.0
 10
-252.50032493610047
 20
788.26980040568662
 30
0.0
  0
LINE
  5
206
100
AcDbEntity
  8
ADF70-1101
370
              15
390
0
  6
STYLE_12
 62
               7
100
AcDbLine
 10
-660.0464190429559
 20
-562.17950671910512
 30
0.0
 11
-660.0464190429559
 21
-522.17950671910512
 31
0.0
  0
LINE
  5
207
100
AcDbEntity
  8
ADF70-1101
370
              15
390
0
  6
STYLE_12
 62
               7
100
AcDbLine
 10
-640.0464190429559
 20
-542.17950671910512
 30
0.0
 11
-680.0464190429559
 21
-542.17950671910512
 31
0.0
  0
CIRCLE
  5
208
100
AcDbEntity
  8
ADF70-1101
370
              15
390
0
  6
STYLE_12
 62
               7
100
AcDbCircle
 10
-660.0464190429559
 20
-542.17950671910512
 30
0.0
 40
10.0
  0
LINE
  5
209
100
AcDbEntity
  8
ADF70-1101
370
              15
390
0
  6
STYLE_12
 62
               7
100
AcDbLine
 10
-380.04641904295579
 20
-562.17950671910512
 30
0.0
 11
-380.04641904295579
 21
-522.17950671910512
 31
0.0
  0
LINE
  5
20A
100
AcDbEntity
  8
ADF70-1101
370
              15
390
0
  6
STYLE_12
 62
               7
100
AcDbLine
 10
-360.04641904295579
 20
-542.17950671910512
 30
0.0
 11
-400.04641904295579
 21
-542.17950671910512
 31
0.0
  0
CIRCLE
  5
20B
100
AcDbEntity
  8
ADF70-1101
370
              15
390
0
  6
STYLE_12
 62
               7
100
AcDbCircle
 10
-380.04641904295579
 20
-542.17950671910512
 30
0.0
 40
10.0
  0
LINE
  5
20C
100
AcDbEntity
  8
ADF70-1101
370
              15
390
0
  6
STYLE_12
 62
               7
100
AcDbLine
 10
-100.04641904295585
 20
-562.17950671910512
 30
0.0
 11
-100.04641904295585
 21
-522.17950671910512
 31
0.0
  0
LINE
  5
20D
100
AcDbEntity
  8
ADF70-1101
370
              15
390
0
  6
STYLE_12
 62
               7
100
AcDbLine
 10
-80.046419042955847
 20
-542.17950671910512
 30
0.0
 11
-120.04641904295585
 21
-542.17950671910512
 31
0.0
  0
CIRCLE
  5
20E
100
AcDbEntity
  8
ADF70-1101
370
              15
390
0
  6
STYLE_12
 62
               7
100
AcDbCircle
 10
-100.04641904295585
 20
-542.17950671910512
 30
0.0
 40
10.0
  0
CIRCLE
  5
20F
100
AcDbEntity
  8
ADF70-1101
370
              15
390
0
  6
Continuous
 62
               7
100
AcDbCircle
 10
-245.04641904295596
 20
598.12049328089131
 30
0.0
 40
215.00000000000017
  0
LINE
  5
210
100
AcDbEntity
  8
ADF70-1101
370
              15
390
0
  6
Continuous
 62
               7
100
AcDbLine
 10
529.83302562928282
 20
-502.19298150415625
 30
0.0
 11
529.83302562928282
 21
-567.21034305032117
 31
0.0
  0
LINE
  5
211
100
AcDbEntity
  8
ADF70-1101
370
              15
390
0
  6
Continuous
 62
               7
100
AcDbLine
 10
534.83302562928282
 20
-572.21034305032117
 30
0.0
 11
895.0
 21
-572.21034305032117
 31
0.0
  0
ARC
  5
212
100
AcDbEntity
  8
ADF70-1101
370
              15
390
0
  6
Continuous
 62
               7
100
AcDbCircle
 10
534.83302562928282
 20
-502.19298150415625
 30
0.0
 40
5.0
100
AcDbArc
 50
90.0
 51
180.0
  0
ARC
  5
213
100
AcDbEntity
  8
ADF70-1101
370
              15
390
0
  6
Continuous
 62
               7
100
AcDbCircle
 10
534.83302562928282
 20
-567.21034305032117
 30
0.0
 40
5.0
100
AcDbArc
 50
180.0
 51
270.0
  0
ARC
  5
214
100
AcDbEntity
  8
ADF70-1101
370
              15
390
0
  6
Continuous
 62
               7
100
AcDbCircle
 10
894.83302562927929
 20
-567.21034305032117
 30
0.0
 40
5.0
100
AcDbArc
 50
270.0
 51
0.0
  0
ENDSEC
  0
SECTION
  2
OBJECTS
  0
DICTIONARY
  5
19
100
AcDbDictionary
280
               0
281
               1
  3
ACAD_GROUP
350
1A
  3
ACAD_MLINESTYLE
350
1B
  3
ACAD_LAYOUT
350
1E
  3
ACAD_PLOTSETTINGS
350
22
  3
ACAD_PLOTSTYLENAME
350
1F
  0
DICTIONARY
  5
1A
102
{ACAD_REACTORS
330
19
102
}
100
AcDbDictionary
280
               0
281
               1
  0
DICTIONARY
  5
1B
102
{ACAD_REACTORS
330
19
102
}
100
AcDbDictionary
280
               0
281
               1
  3
Standard
350
1C
  0
MLINESTYLE
  5
1C
102
{ACAD_REACTORS
330
1B
102
}
100
AcDbMlineStyle
  2
Standard
 70
               0
  3

 62
               0
 51
90.0
 52
90.0
 71
               2
 49
0.5
 62
             256
  6
ByLayer
 49
-0.5
 62
             256
  6
ByLayer
  0
ACDBDICTIONARYWDFLT
  5
1F
102
{ACAD_REACTORS
330
19
102
}
100
AcDbDictionary
281
               1
  3
Normal
350
1D
100
AcDbDictionaryWithDefault
340
1D
  0
ACDBPLACEHOLDER
  5
1D
102
{ACAD_REACTORS
330
1F
102
}
  0
LAYOUT
  5
20
102
{ACAD_REACTORS
330
1E
102
}
100
AcDbPlotSettings
  1

  2

  4

  6

 40
0.0
 41
0.0
 42
0.0
 43
0.0
 44
0.0
 45
0.0
 46
0.0
 47
0.0
 48
0.0
 49
0.0
140
0.0
141
0.0
142
1.0
143
1.0
 70
            1024
 72
               0
 73
               0
 74
               0
  7

 75
               0
147
1.0
148
0.0
149
0.0
100
AcDbLayout
  1
Model
 70
               0
 71
               0
 10
0.0
 20
0.0
 11
0.0
 21
0.0
 12
0.0
 22
0.0
 32
0.0
 14
0.0
 24
0.0
 34
0.0
 15
0.0
 25
0.0
 35
0.0
146
0.0
 13
0.0
 23
0.0
 33
0.0
 16
0.0
 26
0.0
 36
0.0
 17
0.0
 27
0.0
 37
0.0
 76
               0
330
A
331
0
345
0
346
0
  0
LAYOUT
  5
21
102
{ACAD_REACTORS
330
1E
102
}
100
AcDbPlotSettings
  1

  2

  4

  6

 40
0.0
 41
0.0
 42
0.0
 43
0.0
 44
0.0
 45
0.0
 46
0.0
 47
0.0
 48
0.0
 49
0.0
140
0.0
141
0.0
142
1.0
143
1.0
 70
               0
 72
               0
 73
               0
 74
               0
  7

 75
               0
147
1.0
148
0.0
149
0.0
100
AcDbLayout
  1
Layout1
 70
               0
 71
               0
 10
0.0
 20
0.0
 11
0.0
 21
0.0
 12
0.0
 22
0.0
 32
0.0
 14
0.0
 24
0.0
 34
0.0
 15
0.0
 25
0.0
 35
0.0
146
0.0
 13
0.0
 23
0.0
 33
0.0
 16
0.0
 26
0.0
 36
0.0
 17
0.0
 27
0.0
 37
0.0
 76
               0
330
B
331
0
345
0
346
0
  0
DICTIONARY
  5
1E
102
{ACAD_REACTORS
330
19
102
}
100
AcDbDictionary
280
               0
281
               1
  3
Layout1
350
21
  3
Model
350
20
  0
DICTIONARY
  5
22
102
{ACAD_REACTORS
330
19
102
}
100
AcDbDictionary
280
               0
281
               1
  0
ENDSEC
  0
EOF
