  0
SECTION
  2
HEADER
  9
$ACADVER
  1
AC1015
  9
$ACADMAINTVER
 70
               6
  9
$DWGCODEPAGE
  3
ANSI_932
  9
$INSBASE
 10
0.0
 20
0.0
 30
0.0
  9
$EXTMIN
 10
-975.00000000024147
 20
-1431.5255224711129
 30
-14.834305555555556
  9
$EXTMAX
 10
975.00000000024124
 20
1405.9972926412993
 30
14.834305555555556
  9
$LIMMIN
 10
0.0
 20
0.0
  9
$LIMMAX
 10
0.0
 20
0.0
  9
$ORTHOMODE
 70
               0
  9
$REGENMODE
 70
               1
  9
$FILLMODE
 70
               1
  9
$QTEXTMODE
 70
               0
  9
$MIRRTEXT
 70
               1
  9
$LTSCALE
 40
50.799999999999997
  9
$ATTMODE
 70
               1
  9
$TEXTSIZE
 40
0.2
  9
$TRACEWID
 40
1.0
  9
$TEXTSTYLE
  7
Standard
  9
$CLAYER
  8
notes
  9
$CELTYPE
  6
Continuous
  9
$CECOLOR
 62
             256
  9
$CELTSCALE
 40
1.0
  9
$DISPSILH
 70
               0
  9
$DIMSCALE
 40
1.0
  9
$DIMASZ
 40
31.75
  9
$DIMEXO
 40
0.0
  9
$DIMDLI
 40
6.9999999999999396
  9
$DIMRND
 40
0.0
  9
$DIMDLE
 40
0.0
  9
$DIMEXE
 40
19.999999999996199
  9
$DIMTP
 40
0.0
  9
$DIMTM
 40
0.0
  9
$DIMTXT
 40
24.432617187500004
  9
$DIMCEN
 40
0.0
  9
$DIMTSZ
 40
0.0
  9
$DIMTOL
 70
               0
  9
$DIMLIM
 70
               0
  9
$DIMTIH
 70
               0
  9
$DIMTOH
 70
               0
  9
$DIMSE1
 70
               0
  9
$DIMSE2
 70
               0
  9
$DIMTAD
 70
               1
  9
$DIMZIN
 70
              11
  9
$DIMBLK
  1
VW_FILLEDARROW
  9
$DIMASO
 70
               1
  9
$DIMSHO
 70
               1
  9
$DIMPOST
  1
<>
  9
$DIMAPOST
  1
[]
  9
$DIMALT
 70
               0
  9
$DIMALTD
 70
               1
  9
$DIMALTF
 40
1.0
  9
$DIMLFAC
 40
1.0
  9
$DIMTOFL
 70
               0
  9
$DIMTVP
 40
0.0
  9
$DIMTIX
 70
               1
  9
$DIMSOXD
 70
               0
  9
$DIMSAH
 70
               0
  9
$DIMBLK1
  1

  9
$DIMBLK2
  1

  9
$DIMSTYLE
  2
JIS
  9
$DIMCLRD
 70
               0
  9
$DIMCLRE
 70
               0
  9
$DIMCLRT
 70
               0
  9
$DIMTFAC
 40
1.0
  9
$DIMGAP
 40
1.00000000000108
  9
$DIMJUST
 70
               0
  9
$DIMSD1
 70
               0
  9
$DIMSD2
 70
               0
  9
$DIMTOLJ
 70
               1
  9
$DIMTZIN
 70
              11
  9
$DIMALTZ
 70
              11
  9
$DIMALTTZ
 70
              11
  9
$DIMUPT
 70
               0
  9
$DIMDEC
 70
               1
  9
$DIMTDEC
 70
               1
  9
$DIMALTU
 70
               2
  9
$DIMALTTD
 70
               2
  9
$DIMTXSTY
  7
ＭＳゴシック
  9
$DIMAUNIT
 70
               0
  9
$DIMADEC
 70
               2
  9
$DIMALTRND
 40
0.0
  9
$DIMAZIN
 70
               0
  9
$DIMDSEP
 70
              46
  9
$DIMATFIT
 70
               0
  9
$DIMFRAC
 70
               2
  9
$DIMLDRBLK
  1

  9
$DIMLUNIT
 70
               2
  9
$DIMLWD
 70
              -2
  9
$DIMLWE
 70
              -2
  9
$DIMTMOVE
 70
               0
  9
$LUNITS
 70
               2
  9
$LUPREC
 70
               4
  9
$SKETCHINC
 40
0.1
  9
$FILLETRAD
 40
0.0
  9
$AUNITS
 70
               0
  9
$AUPREC
 70
               0
  9
$MENU
  1
acad
  9
$ELEVATION
 40
0.0
  9
$PELEVATION
 40
0.0
  9
$THICKNESS
 40
0.0
  9
$LIMCHECK
 70
               0
  9
$CHAMFERA
 40
0.0
  9
$CHAMFERB
 40
0.0
  9
$CHAMFERC
 40
0.0
  9
$CHAMFERD
 40
0.0
  9
$SKPOLY
 70
               0
  9
$TDCREATE
 40
2456044.554988426
  9
$TDUCREATE
 40
0.000000000
  9
$TDUPDATE
 40
2456044.554988426
  9
$TDUUPDATE
 40
0.000000000
  9
$TDINDWG
 40
0.0000000000
  9
$TDUSRTIMER
 40
0.0000000000
  9
$USRTIMER
 70
               1
  9
$ANGBASE
 50
0.0
  9
$ANGDIR
 70
               0
  9
$PDMODE
 70
               1
  9
$PDSIZE
 40
-2.0
  9
$PLINEWID
 40
0.0
  9
$SPLFRAME
 70
               0
  9
$SPLINETYPE
 70
               6
  9
$SPLINESEGS
 70
               8
  9
$HANDSEED
  5
1A1
  9
$SURFTAB1
 70
               6
  9
$SURFTAB2
 70
               6
  9
$SURFTYPE
 70
               6
  9
$SURFU
 70
               6
  9
$SURFV
 70
               6
  9
$UCSBASE
  2

  9
$UCSNAME
  2

  9
$UCSORG
 10
0.0
 20
0.0
 30
0.0
  9
$UCSXDIR
 10
1.0
 20
0.0
 30
0.0
  9
$UCSYDIR
 10
0.0
 20
1.0
 30
0.0
  9
$UCSORTHOREF
  2

  9
$UCSORTHOVIEW
 70
               0
  9
$UCSORGTOP
 10
0.0
 20
0.0
 30
0.0
  9
$UCSORGBOTTOM
 10
0.0
 20
0.0
 30
0.0
  9
$UCSORGLEFT
 10
0.0
 20
0.0
 30
0.0
  9
$UCSORGRIGHT
 10
0.0
 20
0.0
 30
0.0
  9
$UCSORGFRONT
 10
0.0
 20
0.0
 30
0.0
  9
$UCSORGBACK
 10
0.0
 20
0.0
 30
0.0
  9
$PUCSBASE
  2

  9
$PUCSNAME
  2

  9
$PUCSORG
 10
0.0
 20
0.0
 30
0.0
  9
$PUCSXDIR
 10
1.0
 20
0.0
 30
0.0
  9
$PUCSYDIR
 10
0.0
 20
1.0
 30
0.0
  9
$PUCSORTHOREF
  2

  9
$PUCSORTHOVIEW
 70
               0
  9
$PUCSORGTOP
 10
0.0
 20
0.0
 30
0.0
  9
$PUCSORGBOTTOM
 10
0.0
 20
0.0
 30
0.0
  9
$PUCSORGLEFT
 10
0.0
 20
0.0
 30
0.0
  9
$PUCSORGRIGHT
 10
0.0
 20
0.0
 30
0.0
  9
$PUCSORGFRONT
 10
0.0
 20
0.0
 30
0.0
  9
$PUCSORGBACK
 10
0.0
 20
0.0
 30
0.0
  9
$USERI1
 70
               0
  9
$USERI2
 70
               0
  9
$USERI3
 70
               0
  9
$USERI4
 70
               0
  9
$USERI5
 70
               0
  9
$USERR1
 40
0.0
  9
$USERR2
 40
0.0
  9
$USERR3
 40
0.0
  9
$USERR4
 40
0.0
  9
$USERR5
 40
0.0
  9
$WORLDVIEW
 70
               1
  9
$SHADEDGE
 70
               3
  9
$SHADEDIF
 70
              70
  9
$TILEMODE
 70
               1
  9
$MAXACTVP
 70
              64
  9
$PINSBASE
 10
0.0
 20
0.0
 30
0.0
  9
$PLIMCHECK
 70
               0
  9
$PEXTMIN
 10
1.0000000000000000E+20
 20
1.0000000000000000E+20
 30
1.0000000000000000E+20
  9
$PEXTMAX
 10
-1.0000000000000000E+20
 20
-1.0000000000000000E+20
 30
-1.0000000000000000E+20
  9
$PLIMMIN
 10
0.0
 20
0.0
  9
$PLIMMAX
 10
12.0
 20
9.0
  9
$UNITMODE
 70
               0
  9
$VISRETAIN
 70
               0
  9
$PLINEGEN
 70
               1
  9
$PSLTSCALE
 70
               0
  9
$TREEDEPTH
 70
            3020
  9
$CMLSTYLE
  2
Standard
  9
$CMLJUST
 70
               0
  9
$CMLSCALE
 40
1.0
  9
$PROXYGRAPHICS
 70
               0
  9
$MEASUREMENT
 70
               1
  9
$CELWEIGHT
370
               0
  9
$ENDCAPS
280
               0
  9
$JOINSTYLE
280
               0
  9
$LWDISPLAY
290
               1
  9
$INSUNITS
 70
               4
  9
$HYPERLINKBASE
  1

  9
$STYLESHEET
  1

  9
$XEDIT
290
               1
  9
$CEPSNTYPE
380
               0
  9
$PSTYLEMODE
290
               1
  9
$FINGERPRINTGUID
  2

  9
$VERSIONGUID
  2

  9
$EXTNAMES
290
               1
  9
$PSVPSCALE
 40
0.0
  0
ENDSEC
  0
SECTION
  2
CLASSES
  0
CLASS
  1
LWPOLYLINE
  2
AcDbPolyline
  3
AutoCAD 2000
 90
        0
280
               0
281
               1
  0
CLASS
  1
IMAGE
  2
AcDbRasterImage
  3
ISM
 90
      127
280
               0
281
               1
  0
CLASS
  1
OLE2FRAME
  2
AcDbOle2Frame
  3
AutoCAD 2000
 90
        0
280
               0
281
               1
  0
CLASS
  1
HATCH
  2
AcDbHatch
  3
AutoCAD 2000
 90
        0
280
               0
281
               1
  0
CLASS
  1
DICTIONARYVAR
  2
AcDbDictionaryVar
  3
AutoCAD 2000
 90
        0
280
               0
281
               0
  0
CLASS
  1
RASTERVARIABLES
  2
AcDbRasterVariables
  3
ISM
 90
        0
280
               0
281
               0
  0
CLASS
  1
IMAGEDEF
  2
AcDbRasterImageDef
  3
ISM
 90
        0
280
               0
281
               0
  0
CLASS
  1
IMAGEDEF_REACTOR
  2
AcDbRasterImageDefReactor
  3
ISM
 90
        1
280
               0
281
               0
  0
CLASS
  1
IDBUFFER
  2
AcDbIdBuffer
  3
AutoCAD 2000
 90
        0
280
               0
281
               0
  0
CLASS
  1
SPATIAL_FILTER
  2
AcDbSpatialFilter
  3
AutoCAD 2000
 90
        0
280
               0
281
               0
  0
CLASS
  1
XRECORD
  2
AcDbXrecord
  3
AutoCAD 2000
 90
        0
280
               0
281
               0
  0
CLASS
  1
SORTENTSTABLE
  2
AcDbSortentsTable
  3
AutoCAD 2000
 90
        0
280
               0
281
               0
  0
CLASS
  1
LAYER_INDEX
  2
AcDbLayerIndex
  3
AutoCAD 2000
 90
        0
280
               0
281
               0
  0
CLASS
  1
SPATIAL_INDEX
  2
AcDbSpatialIndex
  3
AutoCAD 2000
 90
        0
280
               0
281
               0
  0
CLASS
  1
OBJECT_PTR
  2
CAseDLPNTableRecord
  3
"ASE-LPNTableRecord"
 90
        1
280
               0
281
               0
  0
CLASS
  1
LAYOUT
  2
AcDbLayout
  3
AutoCAD 2000
 90
        0
280
               0
281
               0
  0
CLASS
  1
PLOTSETTINGS
  2
AcDbPlotSettings
  3
AutoCAD 2000
 90
        0
280
               0
281
               0
  0
CLASS
  1
ACDBDICTIONARYWDFLT
  2
AcDbDictionaryWithDefault
  3
AutoCAD 2000
 90
        0
280
               0
281
               0
  0
CLASS
  1
ACDBPLACEHOLDER
  2
AcDbPlaceHolder
  3
AutoCAD 2000
 90
        0
280
               0
281
               0
  0
ENDSEC
  0
SECTION
  2
TABLES
  0
TABLE
  2
VPORT
  5
7
100
AcDbSymbolTable
 70
               1
  0
VPORT
  5
15
100
AcDbSymbolTableRecord
100
AcDbViewportTableRecord
  2
*ACTIVE
 70
               0
 10
0.0
 20
0.0
 11
1.0
 21
1.0
 12
-0.0000000000001137
 22
-12.764114914906941
 13
0.0
 23
0.0
 14
1.0
 24
1.0
 15
0.0
 25
0.0
 16
0.0
 26
0.0
 36
1.0
 17
0.0
 27
0.0
 37
0.0
 40
2837.522815112412
 41
0.688564
 42
50.0
 43
0.0
 44
0.0
 50
0.0
 51
0.0
 71
               0
 72
            2000
 73
               1
 74
               1
 75
               0
 76
               0
 77
               0
 78
               0
281
               0
 65
               0
110
0.0
120
0.0
130
0.0
111
1.0
121
0.0
131
0.0
112
0.0
122
1.0
132
0.0
345
0
346
0
 79
               0
146
0.0
  0
ENDTAB
  0
TABLE
  2
LTYPE
  5
4
100
AcDbSymbolTable
 70
              15
  0
LTYPE
  5
11
100
AcDbSymbolTableRecord
100
AcDbLinetypeTableRecord
  2
ByBlock
 70
              64
  3

 72
              65
 73
               0
 40
0.0
  0
LTYPE
  5
12
100
AcDbSymbolTableRecord
100
AcDbLinetypeTableRecord
  2
ByLayer
 70
              64
  3

 72
              65
 73
               0
 40
0.0
  0
LTYPE
  5
13
100
AcDbSymbolTableRecord
100
AcDbLinetypeTableRecord
  2
Continuous
 70
              64
  3
Solid line
 72
              65
 73
               0
 40
0.0
  0
LTYPE
  5
36
100
AcDbSymbolTableRecord
100
AcDbLinetypeTableRecord
  2
STYLE_01
 70
               0
  3

 72
              65
 73
               2
 40
0.375
 49
0.25
 74
               0
 49
-0.125
 74
               0
  0
LTYPE
  5
37
100
AcDbSymbolTableRecord
100
AcDbLinetypeTableRecord
  2
STYLE_02
 70
               0
  3

 72
              65
 73
               4
 40
0.0393700787401575
 49
0.0196850393700787
 74
               0
 49
-0.0098425196850394
 74
               0
 49
0.0005
 74
               0
 49
-0.0093425196850394
 74
               0
  0
LTYPE
  5
38
100
AcDbSymbolTableRecord
100
AcDbLinetypeTableRecord
  2
STYLE_03
 70
               0
  3

 72
              65
 73
               2
 40
1.25
 49
1.0416400000000001
 74
               0
 49
-0.2083599999999999
 74
               0
  0
LTYPE
  5
39
100
AcDbSymbolTableRecord
100
AcDbLinetypeTableRecord
  2
STYLE_04
 70
               0
  3

 72
              65
 73
               2
 40
1.5277099999999999
 49
1.3194249999999998
 74
               0
 49
-0.208285
 74
               0
  0
LTYPE
  5
3A
100
AcDbSymbolTableRecord
100
AcDbLinetypeTableRecord
  2
STYLE_05
 70
               0
  3

 72
              65
 73
               2
 40
0.20828
 49
0.069425
 74
               0
 49
-0.138855
 74
               0
  0
LTYPE
  5
3B
100
AcDbSymbolTableRecord
100
AcDbLinetypeTableRecord
  2
STYLE_06
 70
               0
  3

 72
              65
 73
               4
 40
1.0416400000000001
 49
0.625
 74
               0
 49
-0.20828
 74
               0
 49
0.06943
 74
               0
 49
-0.13893
 74
               0
  0
LTYPE
  5
3C
100
AcDbSymbolTableRecord
100
AcDbLinetypeTableRecord
  2
STYLE_07
 70
               0
  3

 72
              65
 73
               6
 40
1.875
 49
0.625
 74
               0
 49
-0.20828
 74
               0
 49
0.6250000000000001
 74
               0
 49
-0.2083599999999999
 74
               0
 49
0.06943
 74
               0
 49
-0.1389299999999999
 74
               0
  0
LTYPE
  5
3D
100
AcDbSymbolTableRecord
100
AcDbLinetypeTableRecord
  2
STYLE_08
 70
               0
  3

 72
              65
 73
               6
 40
1.25
 49
0.625
 74
               0
 49
-0.20828
 74
               0
 49
0.06943
 74
               0
 49
-0.13893
 74
               0
 49
0.0694299999999999
 74
               0
 49
-0.13893
 74
               0
  0
LTYPE
  5
3E
100
AcDbSymbolTableRecord
100
AcDbLinetypeTableRecord
  2
STYLE_09
 70
               0
  3

 72
              65
 73
               4
 40
5.0
 49
3.75
 74
               0
 49
-0.2777849999999998
 74
               0
 49
0.6944300000000003
 74
               0
 49
-0.2777849999999998
 74
               0
  0
LTYPE
  5
3F
100
AcDbSymbolTableRecord
100
AcDbLinetypeTableRecord
  2
STYLE_10
 70
               0
  3

 72
              65
 73
               6
 40
5.9375
 49
3.75
 74
               0
 49
-0.2777849999999998
 74
               0
 49
0.6944300000000003
 74
               0
 49
-0.2777849999999998
 74
               0
 49
0.625
 74
               0
 49
-0.3125
 74
               0
  0
LTYPE
  5
40
100
AcDbSymbolTableRecord
100
AcDbLinetypeTableRecord
  2
STYLE_11
 70
               0
  3

 72
              65
 73
               2
 40
0.0694444881889764
 49
0.0347222440944882
 74
               0
 49
-0.0347222440944882
 74
               0
  0
LTYPE
  5
41
100
AcDbSymbolTableRecord
100
AcDbLinetypeTableRecord
  2
STYLE_12
 70
               0
  3

 72
              65
 73
               2
 40
0.3937007874015748
 49
0.1968503937007874
 74
               0
 49
-0.1968503937007874
 74
               0
  0
ENDTAB
  0
TABLE
  2
LAYER
  5
2
100
AcDbSymbolTable
 70
               5
  0
LAYER
  5
14
100
AcDbSymbolTableRecord
100
AcDbLayerTableRecord
  2
0
 70
               0
 62
               7
  6
Continuous
290
               1
370
              -3
390
1D
  0
LAYER
  5
42
100
AcDbSymbolTableRecord
100
AcDbLayerTableRecord
  2
Defpoints
 70
               0
 62
               7
  6
Continuous
290
               0
370
              -3
390
1D
  0
LAYER
  5
43
100
AcDbSymbolTableRecord
100
AcDbLayerTableRecord
  2
template
 70
               0
 62
               7
  6
Continuous
290
               1
370
              -3
390
1D
  0
LAYER
  5
44
100
AcDbSymbolTableRecord
100
AcDbLayerTableRecord
  2
notes
 70
               0
 62
               7
  6
Continuous
290
               1
370
              -3
390
1D
  0
LAYER
  5
45
100
AcDbSymbolTableRecord
100
AcDbLayerTableRecord
  2
ADF70-1104
 70
               0
 62
               7
  6
Continuous
290
               1
370
              -3
390
1D
  0
ENDTAB
  0
TABLE
  2
STYLE
  5
3
100
AcDbSymbolTable
 70
               3
  0
STYLE
  5
17
100
AcDbSymbolTableRecord
100
AcDbTextStyleTableRecord
  2
Standard
 70
               0
 40
0.0
 41
1.0
 50
0.0
 71
               0
 42
0.0
  3
txt
  4
BIGFONT.SHX
  0
STYLE
  5
34
100
AcDbSymbolTableRecord
100
AcDbTextStyleTableRecord
  2
ＭＳ ゴシック
 70
               0
 40
0.0
 41
1.0
 50
0.0
 71
               0
 42
0.0
  3

  4
ＭＳ ゴシック
1001
ACAD
1000
ＭＳ ゴシック
1071
        0
  0
STYLE
  5
35
100
AcDbSymbolTableRecord
100
AcDbTextStyleTableRecord
  2
ＭＳゴシック
 70
               0
 40
0.0
 41
1.0
 50
0.0
 71
               0
 42
0.0
  3

  4
ＭＳゴシック
1001
ACAD
1000
ＭＳゴシック
1071
        0
  0
ENDTAB
  0
TABLE
  2
VIEW
  5
5
100
AcDbSymbolTable
 70
               0
  0
ENDTAB
  0
TABLE
  2
UCS
  5
6
100
AcDbSymbolTable
 70
               0
  0
ENDTAB
  0
TABLE
  2
APPID
  5
8
100
AcDbSymbolTable
 70
               1
  0
APPID
  5
16
100
AcDbSymbolTableRecord
100
AcDbRegAppTableRecord
  2
ACAD
 70
               0
  0
ENDTAB
  0
TABLE
  2
DIMSTYLE
  5
9
100
AcDbSymbolTable
 70
               3
100
AcDbDimStyleTable
 71
               0
  0
DIMSTYLE
105
18
100
AcDbSymbolTableRecord
100
AcDbDimStyleTableRecord
  2
Standard
 70
               0
  3

  4

 40
1.0
 41
0.18
 42
0.0625
 43
0.38
 44
0.18
 45
0.0
 46
0.0
 47
0.0
 48
0.0
 71
               0
 72
               0
 73
               1
 74
               1
 75
               0
 76
               0
 77
               0
 78
               0
 79
               0
140
0.18
141
0.09
142
0.0
143
25.399999999999999
144
1.0
145
0.0
146
1.0
147
0.09
148
0.0
170
               0
171
               2
172
               0
173
               0
174
               0
175
               0
176
               0
177
               0
178
               0
179
               0
271
               4
272
               4
273
               2
274
               2
275
               0
276
               0
277
               2
278
              46
279
               0
280
               0
281
               0
282
               0
283
               1
284
               0
285
               0
286
               0
288
               0
289
               3
340
17
341
0
342
0
343
0
344
0
371
              -2
372
              -2
  0
DIMSTYLE
105
4E
100
AcDbSymbolTableRecord
100
AcDbDimStyleTableRecord
  2
tform線あり
 70
               0
  3
<>
  4
[]
 40
1.0
 41
3.999755859375
 42
24.999999999999996
 43
0.9999999999999999
 44
0.0
 45
0.0
 46
0.0
 47
0.0
 48
0.0
 71
               0
 72
               0
 73
               0
 74
               0
 75
               0
 76
               0
 77
               1
 78
              11
 79
               0
140
24.432617187500004
141
0.0
142
0.0
143
1.0
144
1.0
145
0.0
146
1.0
147
0.4999999999999999
148
0.0
170
               0
171
               1
172
               0
173
               0
174
               1
175
               0
176
               0
177
               0
178
               0
179
               2
271
               1
272
               1
273
               2
274
               2
275
               0
276
               2
277
               2
278
              46
279
               0
280
               0
281
               0
282
               0
283
               1
284
              11
285
              11
286
              11
288
               0
289
               0
340
35
341
46
342
46
343
0
344
0
371
              -2
372
              -2
  0
DIMSTYLE
105
53
100
AcDbSymbolTableRecord
100
AcDbDimStyleTableRecord
  2
JIS
 70
               0
  3
<>
  4
[]
 40
1.0
 41
31.75
 42
0.0
 43
6.9999999999999396
 44
19.999999999996199
 45
0.0
 46
0.0
 47
0.0
 48
0.0
 71
               0
 72
               0
 73
               0
 74
               0
 75
               0
 76
               0
 77
               1
 78
              11
 79
               0
140
24.432617187500004
141
0.0
142
0.0
143
1.0
144
1.0
145
0.0
146
1.0
147
1.00000000000108
148
0.0
170
               0
171
               1
172
               0
173
               0
174
               1
175
               0
176
               0
177
               0
178
               0
179
               2
271
               1
272
               1
273
               2
274
               2
275
               0
276
               2
277
               2
278
              46
279
               0
280
               0
281
               0
282
               0
283
               1
284
              11
285
              11
286
              11
288
               0
289
               0
340
35
341
4F
342
4F
343
0
344
0
371
              -2
372
              -2
  0
ENDTAB
  0
TABLE
  2
BLOCK_RECORD
  5
1
100
AcDbSymbolTable
 70
              19
  0
BLOCK_RECORD
  5
A
100
AcDbSymbolTableRecord
100
AcDbBlockTableRecord
  2
*MODEL_SPACE
340
20
  0
BLOCK_RECORD
  5
B
100
AcDbSymbolTableRecord
100
AcDbBlockTableRecord
  2
*PAPER_SPACE
340
21
  0
BLOCK_RECORD
  5
46
100
AcDbSymbolTableRecord
100
AcDbBlockTableRecord
  2
_DOT
340
0
  0
BLOCK_RECORD
  5
4F
100
AcDbSymbolTableRecord
100
AcDbBlockTableRecord
  2
VW_FILLEDARROW
340
0
  0
BLOCK_RECORD
  5
23
100
AcDbSymbolTableRecord
100
AcDbBlockTableRecord
  2
グループ
340
0
102
{BLKREFS
331
125
102
}
  0
BLOCK_RECORD
  5
24
100
AcDbSymbolTableRecord
100
AcDbBlockTableRecord
  2
グループ-1
340
0
102
{BLKREFS
331
137
102
}
  0
BLOCK_RECORD
  5
25
100
AcDbSymbolTableRecord
100
AcDbBlockTableRecord
  2
*D4
340
0
  0
BLOCK_RECORD
  5
26
100
AcDbSymbolTableRecord
100
AcDbBlockTableRecord
  2
*D5
340
0
  0
BLOCK_RECORD
  5
27
100
AcDbSymbolTableRecord
100
AcDbBlockTableRecord
  2
*D6
340
0
  0
BLOCK_RECORD
  5
28
100
AcDbSymbolTableRecord
100
AcDbBlockTableRecord
  2
*D7
340
0
  0
BLOCK_RECORD
  5
29
100
AcDbSymbolTableRecord
100
AcDbBlockTableRecord
  2
*D8
340
0
  0
BLOCK_RECORD
  5
2A
100
AcDbSymbolTableRecord
100
AcDbBlockTableRecord
  2
*D9
340
0
  0
BLOCK_RECORD
  5
2B
100
AcDbSymbolTableRecord
100
AcDbBlockTableRecord
  2
*D10
340
0
  0
BLOCK_RECORD
  5
2C
100
AcDbSymbolTableRecord
100
AcDbBlockTableRecord
  2
*D11
340
0
  0
BLOCK_RECORD
  5
2D
100
AcDbSymbolTableRecord
100
AcDbBlockTableRecord
  2
*D12
340
0
  0
BLOCK_RECORD
  5
2E
100
AcDbSymbolTableRecord
100
AcDbBlockTableRecord
  2
*D13
340
0
  0
BLOCK_RECORD
  5
2F
100
AcDbSymbolTableRecord
100
AcDbBlockTableRecord
  2
*D14
340
0
  0
BLOCK_RECORD
  5
30
100
AcDbSymbolTableRecord
100
AcDbBlockTableRecord
  2
*D15
340
0
  0
BLOCK_RECORD
  5
31
100
AcDbSymbolTableRecord
100
AcDbBlockTableRecord
  2
*D16
340
0
  0
BLOCK_RECORD
  5
32
100
AcDbSymbolTableRecord
100
AcDbBlockTableRecord
  2
*D17
340
0
  0
BLOCK_RECORD
  5
33
100
AcDbSymbolTableRecord
100
AcDbBlockTableRecord
  2
グループ-2
340
0
102
{BLKREFS
331
19B
102
}
  0
ENDTAB
  0
ENDSEC
  0
SECTION
  2
BLOCKS
  0
BLOCK
  5
D
100
AcDbEntity
  8
0
390
0
100
AcDbBlockBegin
  2
*MODEL_SPACE
 70
               0
 10
0.0
 20
0.0
 30
0.0
  3
*MODEL_SPACE
  1

  0
ENDBLK
  5
E
100
AcDbEntity
  8
0
390
0
100
AcDbBlockEnd
  0
BLOCK
  5
F
100
AcDbEntity
 67
               1
  8
0
390
0
100
AcDbBlockBegin
  2
*PAPER_SPACE
 70
               0
 10
0.0
 20
0.0
 30
0.0
  3
*PAPER_SPACE
  1

  0
ENDBLK
  5
10
100
AcDbEntity
 67
               1
  8
0
390
0
100
AcDbBlockEnd
  0
BLOCK
  5
47
100
AcDbEntity
  8
0
390
0
100
AcDbBlockBegin
  2
_DOT
 70
               0
 10
0.0
 20
0.0
 30
0.0
  3
_DOT
  1

  0
POLYLINE
  5
48
100
AcDbEntity
  8
0
370
              -2
390
0
  6
ByBlock
 62
               0
100
AcDb2dPolyline
 66
               1
 10
0.0
 20
0.0
 30
0.0
 70
               1
 40
0.5
 41
0.5
  0
VERTEX
  5
49
100
AcDbEntity
  8
0
370
              -2
390
0
  6
ByBlock
 62
               0
100
AcDbVertex
100
AcDb2dVertex
 10
-0.25
 20
0.0
 30
0.0
 42
1.0
  0
VERTEX
  5
4A
100
AcDbEntity
  8
0
370
              -2
390
0
  6
ByBlock
 62
               0
100
AcDbVertex
100
AcDb2dVertex
 10
0.25
 20
0.0
 30
0.0
 42
1.0
  0
SEQEND
  5
4B
100
AcDbEntity
  8
0
390
0
  0
LINE
  5
4C
100
AcDbEntity
  8
0
370
              -2
390
0
  6
ByBlock
 62
               0
100
AcDbLine
 10
-0.5
 20
0.0
 30
0.0
 11
-1.0
 21
0.0
 31
0.0
  0
ENDBLK
  5
4D
100
AcDbEntity
  8
0
390
0
100
AcDbBlockEnd
  0
BLOCK
  5
50
100
AcDbEntity
  8
0
370
              -2
390
0
  6
ByBlock
 62
               0
100
AcDbBlockBegin
  2
VW_FILLEDARROW
 70
               0
 10
0.0
 20
0.0
 30
0.0
  3
VW_FILLEDARROW
  1

  0
SOLID
  5
51
100
AcDbEntity
  8
0
370
              -2
390
0
 62
               0
100
AcDbTrace
 10
0.0
 20
0.0
 30
0.0
 11
-0.9921874999999999
 21
-0.2658558393652545
 31
0.0
 12
-0.9921874999999999
 22
0.2658558393652548
 32
0.0
 13
-0.9921874999999999
 23
0.2658558393652548
 33
0.0
  0
ENDBLK
  5
52
100
AcDbEntity
  8
0
390
0
100
AcDbBlockEnd
  0
BLOCK
  5
54
100
AcDbEntity
  8
template
390
0
100
AcDbBlockBegin
  2
グループ
 70
               0
 10
0.0
 20
0.0
 30
0.0
  3
グループ
  1

  0
LWPOLYLINE
  5
55
100
AcDbEntity
  8
0
370
              15
390
0
  6
Continuous
 62
               7
100
AcDbPolyline
 90
        8
 70
             129
 10
-515.83009016267533
 20
99.327610205223209
 10
-515.83009016267533
 20
93.330221511647323
 10
-525.33128708067863
 20
93.330221511647323
 10
-525.33128708067863
 20
68.879258248138512
 10
-533.68666434246143
 20
68.879258248138512
 10
-533.68666434246143
 20
93.330221511647323
 10
-543.01962128877085
 20
93.330221511647323
 10
-543.01962128877085
 20
99.327610205223209
  0
LWPOLYLINE
  5
56
100
AcDbEntity
  8
0
370
              15
390
0
  6
Continuous
 62
               7
100
AcDbPolyline
 90
      101
 70
             128
 10
-503.10179833211839
 20
98.599361712286736
 10
-503.08644830333304
 20
98.60372246897191
 42
-0.0222221607813541
 10
-502.79644372666229
 20
98.672346934216421
 10
-502.78064996267028
 20
98.675350357313121
 42
-0.0146883565587563
 10
-502.51794725744452
 20
98.717353544262778
 42
-0.0127458844186093
 10
-502.25330829029144
 20
98.744890512335274
 10
-502.19085321197872
 20
98.749783934923471
 42
-0.0198099018566806
 10
-501.80000410250585
 20
98.764869092320112
 10
-501.74819263305807
 20
98.764815316655017
 42
-0.0147617382762414
 10
-501.25356917208256
 20
98.749695291410049
 10
-501.18087771720815
 20
98.745322684522392
 42
-0.0162624549002525
 10
-500.79072408774437
 20
98.709089809250145
 10
-500.66919169648435
 20
98.693803250253495
 42
-0.0080020874666015
 10
-500.52361266539361
 20
98.673120402985205
 10
-500.48529319480213
 20
98.667049125174714
 42
-0.0053821929672889
 10
-500.41680908948376
 20
98.65544160135255
 10
-501.14321478868237
 20
96.474513145638639
 42
0.0108667757396912
 10
-501.21053185881436
 20
96.48770026085873
 10
-501.24799988200272
 20
96.494198003452993
 42
0.0170663203308843
 10
-501.39121666891816
 20
96.514027600744754
 10
-501.45909200160122
 20
96.521074771332223
 42
0.0220162375274472
 10
-501.73947140945569
 20
96.537757132102357
 10
-501.8173269765083
 20
96.538956499368851
 42
0.0282606915785332
 10
-502.15296330008653
 20
96.525153222399808
 10
-502.19687657386021
 20
96.520853232396007
 42
0.0169677213688249
 10
-502.4428010688178
 20
96.488316182844187
 42
0.0190576269867259
 10
-502.68570903139926
 20
96.43816931073745
 10
-502.69196821950868
 20
96.436626336628478
 42
0.0213685642844938
 10
-502.94235270398661
 20
96.363426051523689
 10
-502.94784259890264
 20
96.361563055464671
 42
0.0237595297594887
 10
-503.20133748380158
 20
96.261878533568947
 10
-503.206439557831
 20
96.259586758090904
 42
0.0261857468816221
 10
-503.45861033406089
 20
96.130050420716458
 10
-503.46903652314722
 20
96.123984946248413
 42
0.0272553062020549
 10
-503.7054662983864
 20
95.968612740303683
 10
-503.74022931189535
 20
95.942951592211884
 42
0.032599689317322
 10
-503.89038465554739
 20
95.816203719240093
 10
-503.91409408467393
 20
95.793385690723952
 42
0.0138050960642691
 10
-504.00597724088061
 20
95.699936029175547
 42
0.0125280103802743
 10
-504.09281977371222
 20
95.601772702577776
 10
-504.11650021862249
 20
95.57361420438815
 42
0.0205218024735622
 10
-504.24160029413639
 20
95.41182089015885
 10
-504.2640666346233
 20
95.380161160332136
 42
0.0163110129582292
 10
-504.41977701387435
 20
95.144830725262693
 10
-504.42250090992559
 20
95.140406963276746
 42
0.0131897341897962
 10
-504.56930143083173
 20
94.887274870911853
 10
-504.57100152619796
 20
94.884156631776591
 42
0.0107895576062548
 10
-504.70877822840833
 20
94.617941422142252
 10
-504.7095111179338
 20
94.61644718949492
 42
0.0091371507216786
 10
-504.83799106658205
 20
94.341921991738175
 10
-504.86773669799248
 20
94.275215484576506
 42
0.0135418326350898
 10
-505.03945063706379
 20
93.860277699308739
 10
-505.07305544549916
 20
93.77241155702454
 42
0.0092834542412127
 10
-505.24428450541933
 20
93.298513058721142
 10
-505.26990163313718
 20
93.223271988927195
 42
0.0054261043582617
 10
-505.3775397814299
 20
92.895508015862674
 10
-505.39506576762022
 20
92.840119853591787
 42
0.0008225090819039
 10
-505.46373581943737
 20
92.621851095483407
 10
-506.44842495137084
 20
89.59695980222682
 10
-503.21580111129697
 20
89.59695980222682
 10
-503.71999354115042
 20
87.692481503874433
 10
-506.97604982313374
 20
87.692481503874433
 10
-512.80519885548756
 20
68.879258437869566
 10
-514.63029646579787
 20
68.879258437869566
 10
-508.79561843029694
 20
87.692481503874433
 10
-511.20073479933728
 20
87.692481503874433
 10
-510.69654236948384
 20
89.59695980222682
 10
-508.26799355853382
 20
89.59695980222682
 10
-507.40783864034518
 20
92.233372802925714
 42
-0.000586356064754
 10
-507.37110396216849
 20
92.350199223132222
 10
-507.29501612848128
 20
92.591191522602912
 42
-0.0087522378927724
 10
-507.09554798502438
 20
93.186467609749457
 10
-507.00328370961
 20
93.446607778265133
 42
-0.0077400953830123
 10
-506.74535005047983
 20
94.139612455810607
 10
-506.72958507890263
 20
94.180043339192309
 42
-0.0082369946331209
 10
-506.482500608289
 20
94.784122405392395
 42
-0.0085725238364246
 10
-506.21525451228564
 20
95.379548444680552
 10
-506.11362491127784
 20
95.595969546666325
 42
-0.0168109410595714
 10
-505.82668048254874
 20
96.157177072768945
 10
-505.70083709210729
 20
96.384141105734741
 42
-0.0007817726869477
 10
-505.64655274203307
 20
96.48168535079742
 10
-505.64642443601866
 20
96.481915059528731
 42
-0.0036626142156839
 10
-505.59153657199454
 20
96.578512939502389
 42
-0.0080221150676426
 10
-505.53441231658906
 20
96.67379217425318
 10
-505.50371236522665
 20
96.723183123377453
 42
-0.020213932557122
 10
-505.37605662541932
 20
96.911164724059674
 10
-505.32198916023231
 20
96.984243588299705
 42
-0.0249323791798877
 10
-505.0628263665136
 20
97.300288830453582
 10
-505.03868655238614
 20
97.32690310336659
 42
-0.0242132121537959
 10
-504.69900581084443
 20
97.666786589570307
 10
-504.65109423809383
 20
97.710295725756339
 42
-0.0251017527859832
 10
-504.36711253745278
 20
97.943288471521441
 10
-504.36566706063951
 20
97.944357729100034
 42
-0.0130868069038183
 10
-504.06740641068171
 20
98.153138197642875
 10
-504.06584459153993
 20
98.154171637917287
 42
-0.0290329526390811
 10
-503.75473345014569
 20
98.334997139547227
 10
-503.7248878881561
 20
98.350099522388632
 42
-0.0160250190046536
 10
-503.45898347439498
 20
98.474115632600046
 42
-0.026760037478129
 10
-503.18370739692676
 20
98.57486395314848
 10
-503.15697147740536
 20
98.583056511974291
 42
-0.0049981587670039
 10
-503.10179833211839
 20
98.599361712286736
 42
-0.0049981587670039
  0
LWPOLYLINE
  5
57
100
AcDbEntity
  8
0
370
              15
390
0
  6
Continuous
 62
               7
100
AcDbPolyline
 90
      118
 70
             128
 10
-483.28743076767148
 20
89.522976474399456
 10
-481.41230884317201
 20
89.522976474399456
 10
-482.2503477487719
 20
86.841409947999409
 42
-0.0010587229233837
 10
-482.21889193319294
 20
86.878314481363077
 10
-482.16069784256803
 20
86.946296737530474
 42
-0.0071874740408961
 10
-482.0103226244733
 20
87.116937429555833
 10
-481.8685998512077
 20
87.2731735708727
 42
-0.0148118053512372
 10
-481.4184705584949
 20
87.740787416885837
 10
-481.33124822359235
 20
87.826184737740036
 42
-0.0086273358692549
 10
-480.99569942258478
 20
88.143560371755711
 10
-480.95186570636048
 20
88.183610016087343
 42
-0.0103138323113269
 10
-480.69384200412537
 20
88.409773153427068
 10
-480.6480675977985
 20
88.4482552006871
 42
-0.0060206748567075
 10
-480.47521953368607
 20
88.590049851441677
 10
-480.47318840280047
 20
88.591675557072676
 42
-0.0067069027293479
 10
-480.30089558813762
 20
88.725826190867906
 10
-480.29834682220906
 20
88.72775636074519
 42
-0.0076184352046072
 10
-480.12744155634027
 20
88.853131235987007
 42
-0.0089652861671951
 10
-479.95248059360512
 20
88.972764496320039
 10
-479.91612887346139
 20
88.996675709802219
 42
-0.0156916245937054
 10
-479.7201693763007
 20
89.116938196276919
 42
-0.0023299011063945
 10
-479.51990733233896
 20
89.230116135807734
 10
-479.50452319994099
 20
89.238716130882494
 42
-0.010766934148622
 10
-479.27028637483886
 20
89.363116264232431
 10
-479.24802157376479
 20
89.374333014181957
 42
-0.0078058045897606
 10
-478.96443145581372
 20
89.511694469819659
 10
-478.95452436810291
 20
89.516303597688875
 42
-0.0181829330472178
 10
-478.64421496348785
 20
89.647167338784328
 10
-478.59015952092034
 20
89.667682458728095
 42
-0.0208411536029908
 10
-478.2410745534703
 20
89.783772921221157
 10
-478.22671845334384
 20
89.787891366174335
 42
-0.022279981713932
 10
-477.89799865942558
 20
89.866532932314954
 10
-477.88910969618712
 20
89.868244942900304
 42
-0.0215509523882052
 10
-477.57263872790878
 20
89.915160631434333
 10
-477.53015676685982
 20
89.919598158225199
 42
-0.0182545924871756
 10
-477.29604798755457
 20
89.935441983616101
 10
-477.25664697120948
 20
89.936666528695227
 42
-0.0072962856533715
 10
-477.10072409151763
 20
89.939235857217454
 10
-477.07162442094818
 20
89.939290692621199
 42
-0.0059227516316191
 10
-476.97387492180064
 20
89.938316980830791
 10
-476.94463270430145
 20
89.93767921422689
 42
-0.0011833111902499
 10
-476.90538142059631
 20
89.936730209917414
 10
-477.70076801620348
 20
87.397996264818403
 42
0.014393205156364
 10
-477.72716939855462
 20
87.408195234863896
 10
-477.73444137097135
 20
87.410766453721067
 42
0.0234388603503567
 10
-477.77627223690433
 20
87.423385689436572
 10
-477.78495389981617
 20
87.425566651441386
 42
0.0199162742983166
 10
-477.84524273389638
 20
87.438183386776544
 10
-477.86605667170238
 20
87.441680586204939
 42
0.0293643550669816
 10
-477.96913153046194
 20
87.452830631858092
 10
-477.99381671118186
 20
87.454042248876704
 42
0.0214606686866561
 10
-478.14695762713313
 20
87.45498080929417
 10
-478.15632953795227
 20
87.454635897749881
 42
0.0167564054182392
 10
-478.32784972906336
 20
87.442558855381591
 10
-478.33630952181971
 20
87.441677514954677
 42
0.013767755324362
 10
-478.52366283508496
 20
87.416928206411171
 10
-478.53101457459223
 20
87.415750286443199
 42
0.0118497261483543
 10
-478.73151233869362
 20
87.378732936254139
 10
-478.73766234594081
 20
87.377446073533974
 42
0.0106421143891727
 10
-478.94854323323017
 20
87.328613697958104
 10
-478.95345204161492
 20
87.32736635527408
 42
0.0099746379703844
 10
-479.17191051077839
 20
87.267191826959078
 10
-479.23345855094766
 20
87.248909948328674
 42
0.0191613675861161
 10
-479.56944301346408
 20
87.134932568041364
 10
-479.65750278620834
 20
87.101245657717797
 42
0.0205274080143823
 10
-480.04280955810935
 20
86.935417249891088
 10
-480.10045884009025
 20
86.907749285319241
 42
0.0181256912194366
 10
-480.35873578075837
 20
86.772065466340905
 10
-480.41169116407377
 20
86.74174785312529
 42
0.0140709242412418
 10
-480.5566460987007
 20
86.653253179691774
 10
-480.58289496731493
 20
86.636196360979085
 42
0.0086667884396235
 10
-480.67182112886172
 20
86.576193693093501
 42
0.0036408192021055
 10
-480.75925436689829
 20
86.514012835298871
 10
-480.79448124136371
 20
86.488571889388368
 42
0.0052260781278138
 10
-480.95070993875646
 20
86.37323950275281
 10
-480.96691679501436
 20
86.361011392135993
 42
0.0050024435893586
 10
-481.15292013806976
 20
86.217728823876513
 10
-481.16823829458838
 20
86.205682801427997
 42
0.0136138710279693
 10
-481.37867956291331
 20
86.030716296514967
 10
-481.41234743870729
 20
86.001137323800435
 42
0.0172815186915513
 10
-481.67675098036938
 20
85.752140651177413
 10
-481.67931332621237
 20
85.749554834029937
 42
0.0189403857991459
 10
-481.92989512479022
 20
85.476749569227124
 10
-481.96252661832813
 20
85.43840563772774
 42
0.018504419950594
 10
-482.15448305730752
 20
85.195157056605581
 42
0.0088565243900244
 10
-482.33294316393517
 20
84.941640636456569
 10
-482.34212114358445
 20
84.928099256695532
 42
0.0157195347230701
 10
-482.52534174992047
 20
84.6385770473766
 10
-482.5714246918476
 20
84.560424850362111
 42
0.0095451879781386
 10
-482.73651024198705
 20
84.267830208002465
 10
-482.74765816091832
 20
84.247159535867425
 42
0.0100351706257464
 10
-482.87970191007599
 20
83.990103975379725
 42
0.0086935915422307
 10
-483.00203306186978
 20
83.728270829975742
 10
-483.00535380328449
 20
83.720828507003489
 42
0.0072580174866
 10
-483.12570025523047
 20
83.440236515418079
 10
-483.1289618885358
 20
83.432316489402524
 42
0.0060005122614229
 10
-483.24816255688017
 20
83.132706818792869
 10
-483.25137353522007
 20
83.12434529089262
 42
0.0049017786979549
 10
-483.37027369407633
 20
82.805416310291633
 10
-483.37343950046795
 20
82.796663373057868
 42
0.0039415167602758
 10
-483.49287577852232
 20
82.458121310651407
 10
-483.49600688117681
 20
82.449018109768531
 42
0.003103583876436
 10
-483.61681166686901
 20
82.09057824799757
 10
-483.61992171140025
 20
82.081157626620211
 42
0.0025070747152929
 10
-483.74282306271527
 20
81.702510409677444
 10
-483.78011695914103
 20
81.5856187444233
 42
0.0029081910283785
 10
-483.97213525695338
 20
80.971455086126994
 10
-484.01293842546886
 20
80.838231843855738
 42
0.0009266453733389
 10
-484.28135579977908
 20
79.956007383947139
 10
-484.30224327241262
 20
79.886895504734753
 42
-0.0005809993665233
 10
-484.57957995301535
 20
78.973087398057373
 10
-484.64586175127937
 20
78.755602465926927
 42
-0.0012018708169591
 10
-484.79284606071752
 20
78.277439801377
 10
-484.84516591231318
 20
78.108680660414223
 42
-0.0002691059606909
 10
-484.88873539345161
 20
77.968413040169253
 10
-487.72169129174085
 20
68.879258437869566
 10
-489.53968018371938
 20
68.879258437869566
 10
-483.28743076767148
 20
89.522976474399456
  0
SPLINE
  5
58
100
AcDbEntity
  8
0
370
              15
390
0
  6
Continuous
 62
               7
100
AcDbSpline
210
0.0
220
0.0
230
1.0
 70
              13
 71
               2
 72
             782
 73
             779
 74
               0
 42
0.000001
 43
0.000001
 40
0.0
 40
0.0
 40
0.0
 40
1.0
 40
1.0
 40
2.0
 40
2.0
 40
3.0
 40
3.0
 40
4.0
 40
4.0
 40
5.0
 40
5.0
 40
6.0
 40
6.0
 40
7.0
 40
7.0
 40
8.0
 40
8.0
 40
9.0
 40
9.0
 40
10.0
 40
10.0
 40
11.0
 40
11.0
 40
12.0
 40
12.0
 40
13.0
 40
13.0
 40
14.0
 40
14.0
 40
15.0
 40
15.0
 40
16.0
 40
16.0
 40
17.0
 40
17.0
 40
18.0
 40
18.0
 40
19.0
 40
19.0
 40
20.0
 40
20.0
 40
21.0
 40
21.0
 40
22.0
 40
22.0
 40
23.0
 40
23.0
 40
24.0
 40
24.0
 40
25.0
 40
25.0
 40
26.0
 40
26.0
 40
27.0
 40
27.0
 40
28.0
 40
28.0
 40
29.0
 40
29.0
 40
30.0
 40
30.0
 40
31.0
 40
31.0
 40
32.0
 40
32.0
 40
33.0
 40
33.0
 40
34.0
 40
34.0
 40
35.0
 40
35.0
 40
36.0
 40
36.0
 40
37.0
 40
37.0
 40
38.0
 40
38.0
 40
39.0
 40
39.0
 40
40.0
 40
40.0
 40
41.0
 40
41.0
 40
42.0
 40
42.0
 40
43.0
 40
43.0
 40
44.0
 40
44.0
 40
45.0
 40
45.0
 40
46.0
 40
46.0
 40
47.0
 40
47.0
 40
48.0
 40
48.0
 40
49.0
 40
49.0
 40
50.0
 40
50.0
 40
51.0
 40
51.0
 40
52.0
 40
52.0
 40
53.0
 40
53.0
 40
54.0
 40
54.0
 40
55.0
 40
55.0
 40
56.0
 40
56.0
 40
57.0
 40
57.0
 40
58.0
 40
58.0
 40
59.0
 40
59.0
 40
60.0
 40
60.0
 40
61.0
 40
61.0
 40
62.0
 40
62.0
 40
63.0
 40
63.0
 40
64.0
 40
64.0
 40
65.0
 40
65.0
 40
66.0
 40
66.0
 40
67.0
 40
67.0
 40
68.0
 40
68.0
 40
69.0
 40
69.0
 40
70.0
 40
70.0
 40
71.0
 40
71.0
 40
72.0
 40
72.0
 40
73.0
 40
73.0
 40
74.0
 40
74.0
 40
75.0
 40
75.0
 40
76.0
 40
76.0
 40
77.0
 40
77.0
 40
78.0
 40
78.0
 40
79.0
 40
79.0
 40
80.0
 40
80.0
 40
81.0
 40
81.0
 40
82.0
 40
82.0
 40
83.0
 40
83.0
 40
84.0
 40
84.0
 40
85.0
 40
85.0
 40
86.0
 40
86.0
 40
87.0
 40
87.0
 40
88.0
 40
88.0
 40
89.0
 40
89.0
 40
90.0
 40
90.0
 40
91.0
 40
91.0
 40
92.0
 40
92.0
 40
93.0
 40
93.0
 40
94.0
 40
94.0
 40
95.0
 40
95.0
 40
96.0
 40
96.0
 40
97.0
 40
97.0
 40
98.0
 40
98.0
 40
99.0
 40
99.0
 40
100.0
 40
100.0
 40
101.0
 40
101.0
 40
102.0
 40
102.0
 40
103.0
 40
103.0
 40
104.0
 40
104.0
 40
105.0
 40
105.0
 40
106.0
 40
106.0
 40
107.0
 40
107.0
 40
108.0
 40
108.0
 40
109.0
 40
109.0
 40
110.0
 40
110.0
 40
111.0
 40
111.0
 40
112.0
 40
112.0
 40
113.0
 40
113.0
 40
114.0
 40
114.0
 40
115.0
 40
115.0
 40
116.0
 40
116.0
 40
117.0
 40
117.0
 40
118.0
 40
118.0
 40
119.0
 40
119.0
 40
120.0
 40
120.0
 40
121.0
 40
121.0
 40
122.0
 40
122.0
 40
123.0
 40
123.0
 40
124.0
 40
124.0
 40
125.0
 40
125.0
 40
126.0
 40
126.0
 40
127.0
 40
127.0
 40
128.0
 40
128.0
 40
129.0
 40
129.0
 40
130.0
 40
130.0
 40
131.0
 40
131.0
 40
132.0
 40
132.0
 40
133.0
 40
133.0
 40
134.0
 40
134.0
 40
135.0
 40
135.0
 40
136.0
 40
136.0
 40
137.0
 40
137.0
 40
138.0
 40
138.0
 40
139.0
 40
139.0
 40
140.0
 40
140.0
 40
141.0
 40
141.0
 40
142.0
 40
142.0
 40
143.0
 40
143.0
 40
144.0
 40
144.0
 40
145.0
 40
145.0
 40
146.0
 40
146.0
 40
147.0
 40
147.0
 40
148.0
 40
148.0
 40
149.0
 40
149.0
 40
150.0
 40
150.0
 40
151.0
 40
151.0
 40
152.0
 40
152.0
 40
153.0
 40
153.0
 40
154.0
 40
154.0
 40
155.0
 40
155.0
 40
156.0
 40
156.0
 40
157.0
 40
157.0
 40
158.0
 40
158.0
 40
159.0
 40
159.0
 40
160.0
 40
160.0
 40
161.0
 40
161.0
 40
162.0
 40
162.0
 40
163.0
 40
163.0
 40
164.0
 40
164.0
 40
165.0
 40
165.0
 40
166.0
 40
166.0
 40
167.0
 40
167.0
 40
168.0
 40
168.0
 40
169.0
 40
169.0
 40
170.0
 40
170.0
 40
171.0
 40
171.0
 40
172.0
 40
172.0
 40
173.0
 40
173.0
 40
174.0
 40
174.0
 40
175.0
 40
175.0
 40
176.0
 40
176.0
 40
177.0
 40
177.0
 40
178.0
 40
178.0
 40
179.0
 40
179.0
 40
180.0
 40
180.0
 40
181.0
 40
181.0
 40
182.0
 40
182.0
 40
183.0
 40
183.0
 40
184.0
 40
184.0
 40
185.0
 40
185.0
 40
186.0
 40
186.0
 40
187.0
 40
187.0
 40
188.0
 40
188.0
 40
189.0
 40
189.0
 40
190.0
 40
190.0
 40
191.0
 40
191.0
 40
192.0
 40
192.0
 40
193.0
 40
193.0
 40
194.0
 40
194.0
 40
195.0
 40
195.0
 40
196.0
 40
196.0
 40
197.0
 40
197.0
 40
198.0
 40
198.0
 40
199.0
 40
199.0
 40
200.0
 40
200.0
 40
201.0
 40
201.0
 40
202.0
 40
202.0
 40
203.0
 40
203.0
 40
204.0
 40
204.0
 40
205.0
 40
205.0
 40
206.0
 40
206.0
 40
207.0
 40
207.0
 40
208.0
 40
208.0
 40
209.0
 40
209.0
 40
210.0
 40
210.0
 40
211.0
 40
211.0
 40
212.0
 40
212.0
 40
213.0
 40
213.0
 40
214.0
 40
214.0
 40
215.0
 40
215.0
 40
216.0
 40
216.0
 40
217.0
 40
217.0
 40
218.0
 40
218.0
 40
219.0
 40
219.0
 40
220.0
 40
220.0
 40
221.0
 40
221.0
 40
222.0
 40
222.0
 40
223.0
 40
223.0
 40
224.0
 40
224.0
 40
225.0
 40
225.0
 40
226.0
 40
226.0
 40
227.0
 40
227.0
 40
228.0
 40
228.0
 40
229.0
 40
229.0
 40
230.0
 40
230.0
 40
231.0
 40
231.0
 40
232.0
 40
232.0
 40
233.0
 40
233.0
 40
234.0
 40
234.0
 40
235.0
 40
235.0
 40
236.0
 40
236.0
 40
237.0
 40
237.0
 40
238.0
 40
238.0
 40
239.0
 40
239.0
 40
240.0
 40
240.0
 40
241.0
 40
241.0
 40
242.0
 40
242.0
 40
243.0
 40
243.0
 40
244.0
 40
244.0
 40
245.0
 40
245.0
 40
246.0
 40
246.0
 40
247.0
 40
247.0
 40
248.0
 40
248.0
 40
249.0
 40
249.0
 40
250.0
 40
250.0
 40
251.0
 40
251.0
 40
252.0
 40
252.0
 40
253.0
 40
253.0
 40
254.0
 40
254.0
 40
255.0
 40
255.0
 40
256.0
 40
256.0
 40
257.0
 40
257.0
 40
258.0
 40
258.0
 40
259.0
 40
259.0
 40
260.0
 40
260.0
 40
261.0
 40
261.0
 40
262.0
 40
262.0
 40
263.0
 40
263.0
 40
264.0
 40
264.0
 40
265.0
 40
265.0
 40
266.0
 40
266.0
 40
267.0
 40
267.0
 40
268.0
 40
268.0
 40
269.0
 40
269.0
 40
270.0
 40
270.0
 40
271.0
 40
271.0
 40
272.0
 40
272.0
 40
273.0
 40
273.0
 40
274.0
 40
274.0
 40
275.0
 40
275.0
 40
276.0
 40
276.0
 40
277.0
 40
277.0
 40
278.0
 40
278.0
 40
279.0
 40
279.0
 40
280.0
 40
280.0
 40
281.0
 40
281.0
 40
282.0
 40
282.0
 40
283.0
 40
283.0
 40
284.0
 40
284.0
 40
285.0
 40
285.0
 40
286.0
 40
286.0
 40
287.0
 40
287.0
 40
288.0
 40
288.0
 40
289.0
 40
289.0
 40
290.0
 40
290.0
 40
291.0
 40
291.0
 40
292.0
 40
292.0
 40
293.0
 40
293.0
 40
294.0
 40
294.0
 40
295.0
 40
295.0
 40
296.0
 40
296.0
 40
297.0
 40
297.0
 40
298.0
 40
298.0
 40
299.0
 40
299.0
 40
300.0
 40
300.0
 40
301.0
 40
301.0
 40
302.0
 40
302.0
 40
303.0
 40
303.0
 40
304.0
 40
304.0
 40
305.0
 40
305.0
 40
306.0
 40
306.0
 40
307.0
 40
307.0
 40
308.0
 40
308.0
 40
309.0
 40
309.0
 40
310.0
 40
310.0
 40
311.0
 40
311.0
 40
312.0
 40
312.0
 40
313.0
 40
313.0
 40
314.0
 40
314.0
 40
315.0
 40
315.0
 40
316.0
 40
316.0
 40
317.0
 40
317.0
 40
318.0
 40
318.0
 40
319.0
 40
319.0
 40
320.0
 40
320.0
 40
321.0
 40
321.0
 40
322.0
 40
322.0
 40
323.0
 40
323.0
 40
324.0
 40
324.0
 40
325.0
 40
325.0
 40
326.0
 40
326.0
 40
327.0
 40
327.0
 40
328.0
 40
328.0
 40
329.0
 40
329.0
 40
330.0
 40
330.0
 40
331.0
 40
331.0
 40
332.0
 40
332.0
 40
333.0
 40
333.0
 40
334.0
 40
334.0
 40
335.0
 40
335.0
 40
336.0
 40
336.0
 40
337.0
 40
337.0
 40
338.0
 40
338.0
 40
339.0
 40
339.0
 40
340.0
 40
340.0
 40
341.0
 40
341.0
 40
342.0
 40
342.0
 40
343.0
 40
343.0
 40
344.0
 40
344.0
 40
345.0
 40
345.0
 40
346.0
 40
346.0
 40
347.0
 40
347.0
 40
348.0
 40
348.0
 40
349.0
 40
349.0
 40
350.0
 40
350.0
 40
351.0
 40
351.0
 40
352.0
 40
352.0
 40
353.0
 40
353.0
 40
354.0
 40
354.0
 40
355.0
 40
355.0
 40
356.0
 40
356.0
 40
357.0
 40
357.0
 40
358.0
 40
358.0
 40
359.0
 40
359.0
 40
360.0
 40
360.0
 40
361.0
 40
361.0
 40
362.0
 40
362.0
 40
363.0
 40
363.0
 40
364.0
 40
364.0
 40
365.0
 40
365.0
 40
366.0
 40
366.0
 40
367.0
 40
367.0
 40
368.0
 40
368.0
 40
369.0
 40
369.0
 40
370.0
 40
370.0
 40
371.0
 40
371.0
 40
372.0
 40
372.0
 40
373.0
 40
373.0
 40
374.0
 40
374.0
 40
375.0
 40
375.0
 40
376.0
 40
376.0
 40
377.0
 40
377.0
 40
378.0
 40
378.0
 40
379.0
 40
379.0
 40
380.0
 40
380.0
 40
381.0
 40
381.0
 40
382.0
 40
382.0
 40
383.0
 40
383.0
 40
384.0
 40
384.0
 40
385.0
 40
385.0
 40
386.0
 40
386.0
 40
387.0
 40
387.0
 40
388.0
 40
388.0
 40
389.0
 40
389.0
 40
389.0
 10
-472.95872631693885
 20
89.533902837761843
 30
0.0
 41
1.0
 10
-472.14030220821837
 20
89.533902837761843
 30
0.0
 41
1.0
 10
-471.32187809949789
 20
89.533902837761843
 30
0.0
 41
1.0
 10
-471.73563183501466
 20
88.191276573512141
 30
0.0
 41
1.0
 10
-472.14938557053142
 20
86.848650309262439
 30
0.0
 41
1.0
 10
-472.13104607536343
 20
86.877351082174073
 30
0.0
 41
0.9999957264438618
 10
-472.11253907852898
 20
86.905944132330404
 30
0.0
 41
1.0
 10
-472.08210975439357
 20
86.952957010703344
 30
0.0
 41
1.0
 10
-472.05168043025816
 20
86.999969889076283
 30
0.0
 41
1.0
 10
-471.97231478515243
 20
87.122588695979161
 30
0.0
 41
0.999539406908126
 10
-471.88565639360041
 20
87.240166757720942
 30
0.0
 41
1.0
 10
-471.84989953133993
 20
87.288681650315439
 30
0.0
 41
1.0
 10
-471.81414266907939
 20
87.337196542909936
 30
0.0
 41
1.0
 10
-471.68041600126213
 20
87.518636818035475
 30
0.0
 41
0.9994460617143627
 10
-471.53491551997445
 20
87.690779215684756
 30
0.0
 41
1.0
 10
-471.53052733899995
 20
87.695970896066754
 30
0.0
 41
1.0
 10
-471.52613915802544
 20
87.701162576448752
 30
0.0
 41
1.0
 10
-471.38941503868716
 20
87.86292161333364
 30
0.0
 41
0.9994359394934699
 10
-471.24214080833514
 20
88.015137814498985
 30
0.0
 41
1.0
 10
-471.23975745438162
 20
88.017601144872316
 30
0.0
 41
1.0
 10
-471.2373741004281
 20
88.020064475245647
 30
0.0
 41
1.0
 10
-471.09486657798413
 20
88.167354015663292
 30
0.0
 41
0.999529368856749
 10
-470.9435948970015
 20
88.305627227827813
 30
0.0
 41
1.0
 10
-470.9243011377381
 20
88.323263113479044
 30
0.0
 41
1.0
 10
-470.90500737847469
 20
88.340898999130275
 30
0.0
 41
1.0
 10
-470.79232321601847
 20
88.443900439992618
 30
0.0
 41
0.9997087614803001
 10
-470.67480032706436
 20
88.541344720789766
 30
0.0
 41
1.0
 10
-470.65563425389041
 20
88.557236299296434
 30
0.0
 41
1.0
 10
-470.63646818071641
 20
88.573127877803103
 30
0.0
 41
1.0
 10
-470.55727743810979
 20
88.638789001587298
 30
0.0
 41
0.9999595338695398
 10
-470.47691816725415
 20
88.70301473224265
 30
0.0
 41
1.0
 10
-470.39655889639744
 20
88.767240462898855
 30
0.0
 41
0.9999749417509898
 10
-470.315298362053
 20
88.83032201684594
 30
0.0
 41
1.0
 10
-470.29431221588538
 20
88.846613304151589
 30
0.0
 41
1.0
 10
-470.27332606971771
 20
88.862904591457223
 30
0.0
 41
1.0
 10
-470.18875818442211
 20
88.928553601293345
 30
0.0
 41
0.9999792037115574
 10
-470.10335058465313
 20
88.993106382936617
 30
0.0
 41
1.0
 10
-470.08252575874542
 20
89.00884620519146
 30
0.0
 41
1.0
 10
-470.06170093283777
 20
89.024586027446304
 30
0.0
 41
1.0
 10
-470.01794298488215
 20
89.057659164581381
 30
0.0
 41
0.9999993373938237
 10
-469.97426129874043
 20
89.090832960004263
 30
0.0
 41
1.0
 10
-469.93057961259785
 20
89.124006755427828
 30
0.0
 41
0.9999160953815841
 10
-469.88605320167721
 20
89.156037820626779
 30
0.0
 41
1.0
 10
-469.85323131425793
 20
89.179648976211567
 30
0.0
 41
1.0
 10
-469.82040942683864
 20
89.203260131796355
 30
0.0
 41
1.0
 10
-469.71023924108039
 20
89.282513508164172
 30
0.0
 41
0.9980964527231624
 10
-469.59115024758023
 20
89.34760098101988
 30
0.0
 41
1.0
 10
-469.55411764065184
 20
89.367840960613179
 30
0.0
 41
1.0
 10
-469.51708503372339
 20
89.388080940206478
 30
0.0
 41
1.0
 10
-469.33775802045039
 20
89.486091190907658
 30
0.0
 41
0.9984572810572665
 10
-469.14866945409136
 20
89.563613452254117
 30
0.0
 41
1.0
 10
-469.14502318469556
 20
89.565108344592062
 30
0.0
 41
1.0
 10
-469.1413769152997
 20
89.566603236929993
 30
0.0
 41
1.0
 10
-468.95958088773227
 20
89.641135713600562
 30
0.0
 41
0.9987838528034091
 10
-468.77132822917321
 20
89.697401353766281
 30
0.0
 41
1.0
 10
-468.7670902799743
 20
89.698668007456547
 30
0.0
 41
1.0
 10
-468.76285233077539
 20
89.699934661146813
 30
0.0
 41
1.0
 10
-468.58307557061374
 20
89.753666993932086
 30
0.0
 41
0.9990652816207272
 10
-468.39932963889811
 20
89.791670673474073
 30
0.0
 41
1.0
 10
-468.39414123786685
 20
89.792743776580551
 30
0.0
 41
1.0
 10
-468.38895283683553
 20
89.793816879687043
 30
0.0
 41
1.0
 10
-468.21558370718247
 20
89.829674353016088
 30
0.0
 41
0.9992909934270305
 10
-468.04000794072391
 20
89.852384785482627
 30
0.0
 41
1.0
 10
-467.86443217426586
 20
89.875095217949124
 30
0.0
 41
0.9994553539448334
 10
-467.68774074117289
 20
89.886174522155386
 30
0.0
 41
1.0
 10
-467.65230633337688
 20
89.8883964102032
 30
0.0
 41
1.0
 10
-467.61687192558088
 20
89.890618298251013
 30
0.0
 41
1.0
 10
-467.45064615901157
 20
89.901041360662703
 30
0.0
 41
0.9990928098293218
 10
-467.28413636710917
 20
89.897281719428179
 30
0.0
 41
1.0
 10
-467.24557453183741
 20
89.896411027895198
 30
0.0
 41
1.0
 10
-467.20701269656558
 20
89.895540336362231
 30
0.0
 41
1.0
 10
-467.11762657520694
 20
89.893522078193669
 30
0.0
 41
0.9998382089205382
 10
-467.0283708924203
 20
89.88828995166557
 30
0.0
 41
1.0
 10
-467.02794098620046
 20
89.888264750763312
 30
0.0
 41
1.0
 10
-467.02751107998063
 20
89.888239549861069
 30
0.0
 41
1.0
 10
-466.93911520963451
 20
89.883057825137527
 30
0.0
 41
0.9997558016757974
 10
-466.85103463243331
 20
89.873975309771026
 30
0.0
 41
1.0
 10
-466.85055849400374
 20
89.873926212288467
 30
0.0
 41
1.0
 10
-466.85008235557416
 20
89.873877114805907
 30
0.0
 41
1.0
 10
-466.76295405523263
 20
89.864892794404568
 30
0.0
 41
0.9996565144181472
 10
-466.67641620189039
 20
89.851355487715523
 30
0.0
 41
1.0
 10
-466.67595027651259
 20
89.851282601984138
 30
0.0
 41
1.0
 10
-466.67548435113474
 20
89.85120971625274
 30
0.0
 41
1.0
 10
-466.58987834854781
 20
89.837818181026407
 30
0.0
 41
0.9995321806866674
 10
-466.50525126822038
 20
89.819217692597249
 30
0.0
 41
1.0
 10
-466.50486207364872
 20
89.819132150131423
 30
0.0
 41
1.0
 10
-466.50447287907713
 20
89.819046607665612
 30
0.0
 41
1.0
 10
-466.42062418789283
 20
89.800617204168091
 30
0.0
 41
0.999381919921949
 10
-466.3382776536962
 20
89.776341820907305
 30
0.0
 41
1.0
 10
-466.33803922019786
 20
89.776271531797875
 30
0.0
 41
1.0
 10
-466.33780078669952
 20
89.77620124268843
 30
0.0
 41
1.0
 10
-466.25593111949956
 20
89.752066437646519
 30
0.0
 41
0.9992088568505657
 10
-466.17623860051174
 20
89.72150120185222
 30
0.0
 41
1.0
 10
-466.09655760963267
 20
89.690941601119036
 30
0.0
 41
0.9990226101773093
 10
-466.01988693972555
 20
89.653464169504446
 30
0.0
 41
1.0
 10
-465.94322779792742
 20
89.615992372951041
 30
0.0
 41
0.9988424273972606
 10
-465.87052417071527
 20
89.571327597698186
 30
0.0
 41
1.0
 10
-465.87025646233587
 20
89.57116313362593
 30
0.0
 41
1.0
 10
-465.86998875395648
 20
89.57099866955366
 30
0.0
 41
1.0
 10
-465.79674970998519
 20
89.52600496615598
 30
0.0
 41
0.9986928844491441
 10
-465.72848684327533
 20
89.473769231876332
 30
0.0
 41
1.0
 10
-465.7279055510528
 20
89.473324418648602
 30
0.0
 41
1.0
 10
-465.72732425883027
 20
89.472879605420871
 30
0.0
 41
1.0
 10
-465.65789880767505
 20
89.419754244685507
 30
0.0
 41
0.9986007262278352
 10
-465.59447263790844
 20
89.359593474992096
 30
0.0
 41
1.0
 10
-465.59357822245113
 20
89.358745107156921
 30
0.0
 41
1.0
 10
-465.59268380699382
 20
89.357896739321745
 30
0.0
 41
1.0
 10
-465.52746880631264
 20
89.296039233958069
 30
0.0
 41
0.9985581491381276
 10
-465.46926119461057
 20
89.227546743685963
 30
0.0
 41
1.0
 10
-465.46000274101493
 20
89.21665238598446
 30
0.0
 41
1.0
 10
-465.45074428741935
 20
89.205758028282958
 30
0.0
 41
1.0
 10
-465.37401976852607
 20
89.115476822607945
 30
0.0
 41
0.9970460233520176
 10
-465.31202786736674
 20
89.014509738426256
 30
0.0
 41
1.0
 10
-465.29755850228707
 20
88.990943279344847
 30
0.0
 41
1.0
 10
-465.28308913720741
 20
88.967376820263439
 30
0.0
 41
1.0
 10
-465.24335243719531
 20
88.902657096231891
 30
0.0
 41
0.998846881663668
 10
-465.21000606644384
 20
88.834424643804368
 30
0.0
 41
1.0
 10
-465.20297004395246
 20
88.820027722667135
 30
0.0
 41
1.0
 10
-465.19593402146108
 20
88.805630801529915
 30
0.0
 41
1.0
 10
-465.17665969569271
 20
88.766192191377542
 30
0.0
 41
0.9998431189999316
 10
-465.15879436819733
 20
88.726095636935952
 30
0.0
 41
1.0
 10
-465.1409290406977
 20
88.685999082484784
 30
0.0
 41
0.9999989990041918
 10
-465.12295031727064
 20
88.645953244889625
 30
0.0
 41
1.0
 10
-465.11677800568123
 20
88.632205028087881
 30
0.0
 41
1.0
 10
-465.11060569409187
 20
88.618456811286137
 30
0.0
 41
1.0
 10
-465.08028234748161
 20
88.550914540077557
 30
0.0
 41
0.9998790356320914
 10
-465.05207446734363
 20
88.482461788140256
 30
0.0
 41
1.0
 10
-465.04523928605931
 20
88.465874686712908
 30
0.0
 41
1.0
 10
-465.03840410477505
 20
88.449287585285546
 30
0.0
 41
1.0
 10
-465.01484644239463
 20
88.392119630399804
 30
0.0
 41
0.9998227574560553
 10
-464.9934576940052
 20
88.334105322122127
 30
0.0
 41
1.0
 10
-464.97206894561623
 20
88.276091013845743
 30
0.0
 41
0.9996797971041864
 10
-464.95364266065735
 20
88.217068894728627
 30
0.0
 41
1.0
 10
-464.94973885793149
 20
88.204564436558655
 30
0.0
 41
1.0
 10
-464.94583505520558
 20
88.19205997838867
 30
0.0
 41
1.0
 10
-464.91960116479532
 20
88.108028942933061
 30
0.0
 41
0.9979274938734241
 10
-464.90437664131622
 20
88.021324584273131
 30
0.0
 41
1.0
 10
-464.90215295405505
 20
88.008660583452212
 30
0.0
 41
1.0
 10
-464.89992926679395
 20
87.995996582631307
 30
0.0
 41
1.0
 10
-464.88899932709552
 20
87.933750075340484
 30
0.0
 41
0.9994985982136897
 10
-464.88203116191852
 20
87.870936574197799
 30
0.0
 41
1.0
 10
-464.87506299674152
 20
87.808123073054944
 30
0.0
 41
0.9996372611201227
 10
-464.87148713097366
 20
87.745025494371092
 30
0.0
 41
1.0
 10
-464.87131855348446
 20
87.742050877290154
 30
0.0
 41
1.0
 10
-464.87114997599519
 20
87.739076260209231
 30
0.0
 41
1.0
 10
-464.86723695524881
 20
87.670029447362168
 30
0.0
 41
0.9997730630737164
 10
-464.86626864176071
 20
87.600878623327347
 30
0.0
 41
1.0
 10
-464.86621153534259
 20
87.5968004441863
 30
0.0
 41
1.0
 10
-464.86615442892452
 20
87.592722265045268
 30
0.0
 41
1.0
 10
-464.86507190260028
 20
87.515415082725639
 30
0.0
 41
0.9998772614068608
 10
-464.86641198933205
 20
87.438111936159757
 30
0.0
 41
1.0
 10
-464.86650125253072
 20
87.432962772326448
 30
0.0
 41
1.0
 10
-464.86659051572946
 20
87.427813608493125
 30
0.0
 41
1.0
 10
-464.86810912885863
 20
87.340212134260554
 30
0.0
 41
0.9999415567330497
 10
-464.87152143910447
 20
87.252663972587499
 30
0.0
 41
1.0
 10
-464.87176275977987
 20
87.246472512848314
 30
0.0
 41
1.0
 10
-464.87200408045527
 20
87.240281053109129
 30
0.0
 41
1.0
 10
-464.87589903205173
 20
87.140349971961655
 30
0.0
 41
0.9999716810425995
 10
-464.88129761517007
 20
87.040488833737058
 30
0.0
 41
1.0
 10
-464.88451041395911
 20
86.981059584074274
 30
0.0
 41
1.0
 10
-464.8877232127482
 20
86.921630334411489
 30
0.0
 41
1.0
 10
-464.89579712190073
 20
86.772281933132945
 30
0.0
 41
0.9999819129895045
 10
-464.90566691351722
 20
86.623041455423618
 30
0.0
 41
1.0
 10
-464.91553670513383
 20
86.473800977712244
 30
0.0
 41
1.0
 10
-464.91797602569773
 20
86.436607931862909
 30
0.0
 41
1.0
 10
-464.89527779186915
 20
86.47534892918847
 30
0.0
 41
0.9999982128055643
 10
-464.87243323310952
 20
86.514003823153544
 30
0.0
 41
1.0
 10
-464.84552367322556
 20
86.559537037207235
 30
0.0
 41
1.0
 10
-464.8186141133416
 20
86.60507025126094
 30
0.0
 41
1.0
 10
-464.74195043481546
 20
86.734791573331108
 30
0.0
 41
0.9998609190056523
 10
-464.66100312195232
 20
86.861883955262613
 30
0.0
 41
1.0
 10
-464.6313548004714
 20
86.90843368821848
 30
0.0
 41
1.0
 10
-464.60170647899054
 20
86.954983421174362
 30
0.0
 41
1.0
 10
-464.51943425875311
 20
87.084155991169922
 30
0.0
 41
0.9999067609732523
 10
-464.43366524928939
 20
87.21103368061074
 30
0.0
 41
1.0
 10
-464.4312605460882
 20
87.214590946665936
 30
0.0
 41
1.0
 10
-464.42885584288706
 20
87.218148212721147
 30
0.0
 41
1.0
 10
-464.34789623982584
 20
87.33791137005133
 30
0.0
 41
0.9998784952148069
 10
-464.26324263014396
 20
87.45509258676077
 30
0.0
 41
1.0
 10
-464.17858902046333
 20
87.57227380346859
 30
0.0
 41
0.9998532968283175
 10
-464.08997139964089
 20
87.686486711938613
 30
0.0
 41
1.0
 10
-464.07000961064904
 20
87.712214032959764
 30
0.0
 41
1.0
 10
-464.05004782165719
 20
87.737941353980915
 30
0.0
 41
1.0
 10
-463.93156377189877
 20
87.890646964948871
 30
0.0
 41
0.9991551975795581
 10
-463.80093932227538
 20
88.03310652703226
 30
0.0
 41
1.0
 10
-463.79742970629559
 20
88.03693412865664
 30
0.0
 41
1.0
 10
-463.79392009031579
 20
88.040761730281019
 30
0.0
 41
1.0
 10
-463.67031487265206
 20
88.175566089115591
 30
0.0
 41
0.9997418144181522
 10
-463.54071273295125
 20
88.304615499728243
 30
0.0
 41
1.0
 10
-463.41111059325056
 20
88.433664910340752
 30
0.0
 41
0.9989238204633548
 10
-463.27010804499952
 20
88.55014987237972
 30
0.0
 41
1.0
 10
-463.22486036686018
 20
88.58752986398828
 30
0.0
 41
1.0
 10
-463.17961268872085
 20
88.62490985559684
 30
0.0
 41
1.0
 10
-463.03937263149925
 20
88.74076490888794
 30
0.0
 41
0.9990825084096501
 10
-462.88973269889516
 20
88.844193906720989
 30
0.0
 41
1.0
 10
-462.87968733483763
 20
88.851137119800924
 30
0.0
 41
1.0
 10
-462.86964197078009
 20
88.85808033288086
 30
0.0
 41
1.0
 10
-462.74009276628999
 20
88.94762290455472
 30
0.0
 41
0.9998164899827555
 10
-462.60720856291493
 20
89.03213714607034
 30
0.0
 41
1.0
 10
-462.59536300238994
 20
89.039670912595398
 30
0.0
 41
1.0
 10
-462.58351744186501
 20
89.047204679120441
 30
0.0
 41
1.0
 10
-462.4743243595392
 20
89.116651387586387
 30
0.0
 41
0.9997473449130347
 10
-462.36212040228924
 20
89.181120345402405
 30
0.0
 41
1.0
 10
-462.24991644503916
 20
89.245589303218452
 30
0.0
 41
0.9999327861148084
 10
-462.13624783427366
 20
89.30743929490103
 30
0.0
 41
1.0
 10
-462.13569583171432
 20
89.307739653579432
 30
0.0
 41
1.0
 10
-462.13514382915491
 20
89.308040012257834
 30
0.0
 41
1.0
 10
-462.02037121326964
 20
89.370490721297756
 30
0.0
 41
0.9996956420483421
 10
-461.90265788742965
 20
89.427204188272427
 30
0.0
 41
1.0
 10
-461.87221748253751
 20
89.441870165002143
 30
0.0
 41
1.0
 10
-461.84177707764536
 20
89.45653614173186
 30
0.0
 41
1.0
 10
-461.73879997090069
 20
89.506149800175692
 30
0.0
 41
0.9998070570176058
 10
-461.63395358195964
 20
89.551680387076772
 30
0.0
 41
1.0
 10
-461.52910719301786
 20
89.597210973978108
 30
0.0
 41
0.9997827436147679
 10
-461.42245425640795
 20
89.638332145289965
 30
0.0
 41
1.0
 10
-461.40323140677697
 20
89.645743718922176
 30
0.0
 41
1.0
 10
-461.38400855714605
 20
89.653155292554402
 30
0.0
 41
1.0
 10
-461.23890992127292
 20
89.709099611131222
 30
0.0
 41
0.9988031841976777
 10
-461.08903955866799
 20
89.750599675298986
 30
0.0
 41
1.0
 10
-461.06412231030487
 20
89.75749942110582
 30
0.0
 41
1.0
 10
-461.03920506194174
 20
89.764399166912668
 30
0.0
 41
1.0
 10
-460.87193503629493
 20
89.810717309319429
 30
0.0
 41
0.9984748040549994
 10
-460.70057812764605
 20
89.838311541584289
 30
0.0
 41
1.0
 10
-460.69583899139747
 20
89.83907470209769
 30
0.0
 41
1.0
 10
-460.69109985514888
 20
89.839837862611077
 30
0.0
 41
1.0
 10
-460.52922121899729
 20
89.865905773849136
 30
0.0
 41
0.9984436495479914
 10
-460.36544647527234
 20
89.873783727667842
 30
0.0
 41
1.0
 10
-460.34374926714071
 20
89.874827414867525
 30
0.0
 41
1.0
 10
-460.32205205900908
 20
89.875871102067194
 30
0.0
 41
1.0
 10
-460.20167173154715
 20
89.881661681486534
 30
0.0
 41
0.9987954789335405
 10
-460.08130348663781
 20
89.875625153744295
 30
0.0
 41
1.0
 10
-460.0613386941435
 20
89.874623909405727
 30
0.0
 41
1.0
 10
-460.04137390164925
 20
89.873622665067145
 30
0.0
 41
1.0
 10
-459.96093524172778
 20
89.869588626001999
 30
0.0
 41
0.9997941595877065
 10
-459.88072646363355
 20
89.862294560080954
 30
0.0
 41
1.0
 10
-459.80051768553903
 20
89.855000494159881
 30
0.0
 41
0.9998589466235914
 10
-459.72059913868418
 20
89.845016639709797
 30
0.0
 41
1.0
 10
-459.68819293687591
 20
89.840968282790584
 30
0.0
 41
1.0
 10
-459.65578673506764
 20
89.836919925871371
 30
0.0
 41
1.0
 10
-459.51105578459669
 20
89.818839357582959
 30
0.0
 41
0.9993495063248815
 10
-459.36800454083073
 20
89.790373647841221
 30
0.0
 41
1.0
 10
-459.33507084367886
 20
89.78382018462645
 30
0.0
 41
1.0
 10
-459.302137146527
 20
89.777266721411692
 30
0.0
 41
1.0
 10
-459.19284332332194
 20
89.755518387276211
 30
0.0
 41
0.9996788715561227
 10
-459.08479175136551
 20
89.728260587913155
 30
0.0
 41
1.0
 10
-459.08272874882653
 20
89.727740161340222
 30
0.0
 41
1.0
 10
-459.08066574628759
 20
89.727219734767303
 30
0.0
 41
1.0
 10
-458.97674017940915
 20
89.701002788550113
 30
0.0
 41
0.9995480654492187
 10
-458.87457794417969
 20
89.66858783192572
 30
0.0
 41
1.0
 10
-458.87288830205046
 20
89.668051727011743
 30
0.0
 41
1.0
 10
-458.87119865992128
 20
89.667515622097781
 30
0.0
 41
1.0
 10
-458.77241570895035
 20
89.636172875301355
 30
0.0
 41
0.9993867959456612
 10
-458.67606855050769
 20
89.597993506011562
 30
0.0
 41
1.0
 10
-458.67482560142275
 20
89.59750096411527
 30
0.0
 41
1.0
 10
-458.67358265233787
 20
89.597008422218977
 30
0.0
 41
1.0
 10
-458.5797213920651
 20
89.559814136721783
 30
0.0
 41
0.9992050256521732
 10
-458.48912171703182
 20
89.515260237483062
 30
0.0
 41
1.0
 10
-458.48838703431926
 20
89.514898945022168
 30
0.0
 41
1.0
 10
-458.4876523516067
 20
89.514537652561287
 30
0.0
 41
1.0
 10
-458.39852204199877
 20
89.470706338244483
 30
0.0
 41
0.9990222350741993
 10
-458.31361198060478
 20
89.41917307054598
 30
0.0
 41
1.0
 10
-458.3134280953218
 20
89.419061467641001
 30
0.0
 41
1.0
 10
-458.31324421003887
 20
89.418949864736035
 30
0.0
 41
1.0
 10
-458.22870191921083
 20
89.367639802847464
 30
0.0
 41
0.9988642743805336
 10
-458.14942738459212
 20
89.308515615322449
 30
0.0
 41
1.0
 10
-458.07015284997357
 20
89.249391427797633
 30
0.0
 41
0.998768123331048
 10
-457.99712906569727
 20
89.18270073639664
 30
0.0
 41
1.0
 10
-457.99680013773133
 20
89.182400335182351
 30
0.0
 41
1.0
 10
-457.99647120976539
 20
89.182099933968061
 30
0.0
 41
1.0
 10
-457.92278956955761
 20
89.114808440138845
 30
0.0
 41
0.9987496570898801
 10
-457.85619576423016
 20
89.040495626051936
 30
0.0
 41
1.0
 10
-457.85542359446981
 20
89.039633952694174
 30
0.0
 41
1.0
 10
-457.85465142470952
 20
89.038772279336399
 30
0.0
 41
1.0
 10
-457.78651327986131
 20
88.962736118533797
 30
0.0
 41
0.9988147669827012
 10
-457.72609102563632
 20
88.880435111691341
 30
0.0
 41
1.0
 10
-457.72497169955864
 20
88.878910480338902
 30
0.0
 41
1.0
 10
-457.72385237348101
 20
88.877385848986478
 30
0.0
 41
1.0
 10
-457.66119146710059
 20
88.792035579439045
 30
0.0
 41
0.9989452636215902
 10
-457.60662455413899
 20
88.701296890280815
 30
0.0
 41
1.0
 10
-457.60527582805344
 20
88.699054109254817
 30
0.0
 41
1.0
 10
-457.60392710196788
 20
88.696811328228819
 30
0.0
 41
1.0
 10
-457.5466627368354
 20
88.601587077019119
 30
0.0
 41
0.9991046436070667
 10
-457.49765352351409
 20
88.501862643994329
 30
0.0
 41
1.0
 10
-457.49618966192384
 20
88.498883963921259
 30
0.0
 41
1.0
 10
-457.49472580033353
 20
88.495905283848174
 30
0.0
 41
1.0
 10
-457.44278886383199
 20
88.390223490677954
 30
0.0
 41
0.9992763831100999
 10
-457.39903573527687
 20
88.280899428722066
 30
0.0
 41
1.0
 10
-457.39755646561349
 20
88.277203241188346
 30
0.0
 41
1.0
 10
-457.39607719595011
 20
88.273507053654612
 30
0.0
 41
1.0
 10
-457.3493655280684
 20
88.156790616631582
 30
0.0
 41
0.9994163472883565
 10
-457.31073249687864
 20
88.037157028167584
 30
0.0
 41
1.0
 10
-457.30949434463184
 20
88.033322884384773
 30
0.0
 41
1.0
 10
-457.3082561923851
 20
88.029488740601977
 30
0.0
 41
1.0
 10
-457.26837263136787
 20
87.905982679123696
 30
0.0
 41
0.9997268055891182
 10
-457.23430457545578
 20
87.780747647172802
 30
0.0
 41
1.0
 10
-457.23337439518588
 20
87.777328281062694
 30
0.0
 41
1.0
 10
-457.23244421491597
 20
87.773908914952585
 30
0.0
 41
1.0
 10
-457.20023651954358
 20
87.655512615221369
 30
0.0
 41
0.999670131900006
 10
-457.17415090277331
 20
87.535618661958665
 30
0.0
 41
1.0
 10
-457.14806528600286
 20
87.415724708695464
 30
0.0
 41
0.9995785451109427
 10
-457.1289817086631
 20
87.294518947663803
 30
0.0
 41
1.0
 10
-457.12476192648938
 20
87.267717792898907
 30
0.0
 41
1.0
 10
-457.12054214431566
 20
87.240916638133996
 30
0.0
 41
1.0
 10
-457.09396716837705
 20
87.072130664430489
 30
0.0
 41
0.9979925101216765
 10
-457.08894158245073
 20
86.901339336338879
 30
0.0
 41
1.0
 10
-457.08811677002603
 20
86.873308612854999
 30
0.0
 41
1.0
 10
-457.08729195760134
 20
86.845277889371133
 30
0.0
 41
1.0
 10
-457.08391599652447
 20
86.730548008245023
 30
0.0
 41
0.9995314902263605
 10
-457.08756618866289
 20
86.615826524495219
 30
0.0
 41
1.0
 10
-457.09121638080131
 20
86.501105040743852
 30
0.0
 41
0.9996245486944505
 10
-457.10114547593224
 20
86.386755769619555
 30
0.0
 41
1.0
 10
-457.10130852392649
 20
86.384878013484197
 30
0.0
 41
1.0
 10
-457.10147157192074
 20
86.38300025734884
 30
0.0
 41
1.0
 10
-457.11172676304011
 20
86.264895473954311
 30
0.0
 41
0.9997286095001646
 10
-457.12747208661142
 20
86.14739656506066
 30
0.0
 41
1.0
 10
-457.12786557926182
 20
86.144460140358291
 30
0.0
 41
1.0
 10
-457.12825907191223
 20
86.141523715655921
 30
0.0
 41
1.0
 10
-457.14479138078434
 20
86.018151957357532
 30
0.0
 41
0.9998265533969554
 10
-457.16590683951694
 20
85.89548148256921
 30
0.0
 41
1.0
 10
-457.16658338165411
 20
85.89155110406162
 30
0.0
 41
1.0
 10
-457.16725992379128
 20
85.887620725554029
 30
0.0
 41
1.0
 10
-457.18972846679799
 20
85.757089493751693
 30
0.0
 41
0.9999022530851255
 10
-457.21583793140735
 20
85.6272375251162
 30
0.0
 41
1.0
 10
-457.21681657257312
 20
85.622370382726871
 30
0.0
 41
1.0
 10
-457.2177952137389
 20
85.617503240337555
 30
0.0
 41
1.0
 10
-457.24586196067946
 20
85.47791698692501
 30
0.0
 41
0.9999524761937286
 10
-457.27664492951391
 20
85.338904493761845
 30
0.0
 41
1.0
 10
-457.27792103668958
 20
85.333141734458451
 30
0.0
 41
1.0
 10
-457.2791971438653
 20
85.327378975155057
 30
0.0
 41
1.0
 10
-457.31253232705137
 20
85.176840963384166
 30
0.0
 41
0.9999813588714108
 10
-457.34770332784802
 20
85.026721250724748
 30
0.0
 41
1.0
 10
-457.3492572533039
 20
85.020088660304992
 30
0.0
 41
1.0
 10
-457.35081117875984
 20
85.013456069885251
 30
0.0
 41
1.0
 10
-457.38909003046933
 20
84.850071176382244
 30
0.0
 41
0.9999955237750107
 10
-457.42834590845115
 20
84.686918272770157
 30
0.0
 41
1.0
 10
-457.44062754408458
 20
84.63587408225105
 30
0.0
 41
1.0
 10
-457.45290917971806
 20
84.584829891731943
 30
0.0
 41
1.0
 10
-457.51672832896213
 20
84.319588607100911
 30
0.0
 41
0.9999993604523129
 10
-457.58114727614117
 20
84.054492356371142
 30
0.0
 41
1.0
 10
-457.58586611168528
 20
84.035073448342871
 30
0.0
 41
1.0
 10
-457.59058494722933
 20
84.015654540314586
 30
0.0
 41
1.0
 10
-457.66444156549153
 20
83.711720473549008
 30
0.0
 41
0.999965991472356
 10
-457.74330116137872
 20
83.409045926982373
 30
0.0
 41
1.0
 10
-457.74825385030755
 20
83.390036789806928
 30
0.0
 41
1.0
 10
-457.75320653923637
 20
83.371027652631483
 30
0.0
 41
1.0
 10
-457.84197151298201
 20
83.03033483171113
 30
0.0
 41
0.9999441976029616
 10
-457.93791454594668
 20
82.691593406408188
 30
0.0
 41
1.0
 10
-457.95461506437152
 20
82.632629693883075
 30
0.0
 41
1.0
 10
-457.97131558279631
 20
82.573665981357976
 30
0.0
 41
1.0
 10
-458.10065965261128
 20
82.116997131002421
 30
0.0
 41
0.9999625120733768
 10
-458.23789241993484
 20
81.662636597006141
 30
0.0
 41
1.0
 10
-458.27368236301936
 20
81.544140570373884
 30
0.0
 41
1.0
 10
-458.30947230610388
 20
81.425644543741626
 30
0.0
 41
1.0
 10
-458.38399251014266
 20
81.178917465647174
 30
0.0
 41
0.9999793386308918
 10
-458.46167853327887
 20
80.93316882641534
 30
0.0
 41
1.0
 10
-458.53936455641644
 20
80.687420187179214
 30
0.0
 41
1.0
 10
-458.55014411528714
 20
80.653402282804564
 30
0.0
 41
1.0
 10
-460.40051716855629
 20
74.766330360337065
 30
0.0
 41
1.0
 10
-462.25089022182544
 20
68.879258437869566
 30
0.0
 41
1.0
 10
-463.212146911849
 20
68.879258437869566
 30
0.0
 41
1.0
 10
-464.17340360187256
 20
68.879258437869566
 30
0.0
 41
1.0
 10
-462.55445882319412
 20
74.027286939659007
 30
0.0
 41
1.0
 10
-460.93551404451568
 20
79.175315441448447
 30
0.0
 41
1.0
 10
-460.89034822134118
 20
79.31934666371896
 30
0.0
 41
1.0
 10
-460.84518239816668
 20
79.463377885989459
 30
0.0
 41
1.0
 10
-460.6748779808031
 20
80.006468915154898
 30
0.0
 41
0.9999911657928174
 10
-460.50914516912411
 20
80.550972446514379
 30
0.0
 41
1.0
 10
-460.47944922562306
 20
80.648536386566917
 30
0.0
 41
1.0
 10
-460.449753282122
 20
80.746100326619455
 30
0.0
 41
1.0
 10
-460.34341235744353
 20
81.095475977879204
 30
0.0
 41
0.9999952428145164
 10
-460.23922876811895
 20
81.445501002227616
 30
0.0
 41
1.0
 10
-460.23416929778614
 20
81.462499276503962
 30
0.0
 41
1.0
 10
-460.22910982745333
 20
81.479497550780295
 30
0.0
 41
1.0
 10
-460.1350451787921
 20
81.795526026583488
 30
0.0
 41
0.9999931687510302
 10
-460.04331934092033
 20
82.112241239847663
 30
0.0
 41
1.0
 10
-460.03838407646026
 20
82.129281949120667
 30
0.0
 41
1.0
 10
-460.03344881200013
 20
82.146322658393657
 30
0.0
 41
1.0
 10
-459.95159350304618
 20
82.428956453119881
 30
0.0
 41
0.9999893840787824
 10
-459.87234627658984
 20
82.712332582364752
 30
0.0
 41
1.0
 10
-459.79309905013321
 20
82.995708711610405
 30
0.0
 41
0.9999833980076408
 10
-459.7171228093938
 20
83.279979294630223
 30
0.0
 41
1.0
 10
-459.70811887267007
 20
83.313668173114195
 30
0.0
 41
1.0
 10
-459.69911493594628
 20
83.347357051598152
 30
0.0
 41
1.0
 10
-459.63015038707977
 20
83.605392883895433
 30
0.0
 41
0.9999233658070104
 10
-459.5675954158595
 20
83.865057042617764
 30
0.0
 41
1.0
 10
-459.50504044463923
 20
84.124721201340208
 30
0.0
 41
1.0
 10
-459.46555702578166
 20
84.288527865766355
 30
0.0
 41
1.0
 10
-459.46057842180483
 20
84.309182827634885
 30
0.0
 41
1.0
 10
-459.45559981782799
 20
84.329837789503429
 30
0.0
 41
1.0
 10
-459.42607360692386
 20
84.452334530193411
 30
0.0
 41
0.9999868670874866
 10
-459.39780452292791
 20
84.575127475837917
 30
0.0
 41
1.0
 10
-459.39390703576862
 20
84.592057063261606
 30
0.0
 41
1.0
 10
-459.39000954860938
 20
84.608986650685296
 30
0.0
 41
1.0
 10
-459.36953543893077
 20
84.697920421487595
 30
0.0
 41
0.9999778173347191
 10
-459.35024784081628
 20
84.787119038713854
 30
0.0
 41
1.0
 10
-459.33096024270219
 20
84.87631765593791
 30
0.0
 41
0.9999602692863814
 10
-459.31326588407165
 20
84.96584594436284
 30
0.0
 41
1.0
 10
-459.31006205199321
 20
84.982056399252428
 30
0.0
 41
1.0
 10
-459.30685821991483
 20
84.998266854142003
 30
0.0
 41
1.0
 10
-459.28275619712872
 20
85.120216052340297
 30
0.0
 41
0.999561798532057
 10
-459.26591284990997
 20
85.243377800046574
 30
0.0
 41
1.0
 10
-459.26344836000368
 20
85.261398617412652
 30
0.0
 41
1.0
 10
-459.26098387009739
 20
85.279419434778745
 30
0.0
 41
1.0
 10
-459.24070060904927
 20
85.427734484478634
 30
0.0
 41
0.9991121410639697
 10
-459.23297525546104
 20
85.577230583284404
 30
0.0
 41
1.0
 10
-459.23205646543636
 20
85.595010419862703
 30
0.0
 41
1.0
 10
-459.23113767541173
 20
85.612790256441002
 30
0.0
 41
1.0
 10
-459.22524990187264
 20
85.726726682092703
 30
0.0
 41
0.9989792494904997
 10
-459.22966899399012
 20
85.840729517988962
 30
0.0
 41
1.0
 10
-459.23031696585878
 20
85.857445763916061
 30
0.0
 41
1.0
 10
-459.23096493772744
 20
85.874162009843161
 30
0.0
 41
1.0
 10
-459.23408808610748
 20
85.954732353887238
 30
0.0
 41
0.9997820295394643
 10
-459.24057208348313
 20
86.035102075631357
 30
0.0
 41
1.0
 10
-459.24705608085867
 20
86.11547179737417
 30
0.0
 41
0.9998335105974368
 10
-459.25646827637024
 20
86.195551413823097
 30
0.0
 41
1.0
 10
-459.25806320104675
 20
86.209121144307304
 30
0.0
 41
1.0
 10
-459.25965812572321
 20
86.22269087479151
 30
0.0
 41
1.0
 10
-459.27226017058769
 20
86.329909952208254
 30
0.0
 41
0.9996876457879154
 10
-459.29020408338619
 20
86.436365379924951
 30
0.0
 41
1.0
 10
-459.2924357465314
 20
86.44960511516598
 30
0.0
 41
1.0
 10
-459.29466740967655
 20
86.462844850406995
 30
0.0
 41
1.0
 10
-459.30846323109756
 20
86.54469099436551
 30
0.0
 41
0.9995547496495483
 10
-459.32711655299022
 20
86.625568491556805
 30
0.0
 41
1.0
 10
-459.32749050986149
 20
86.627189902262003
 30
0.0
 41
1.0
 10
-459.32786446673271
 20
86.628811312967201
 30
0.0
 41
1.0
 10
-459.34576987488282
 20
86.706445988747745
 30
0.0
 41
0.9994899427175488
 10
-459.36859478356217
 20
86.782779271582399
 30
0.0
 41
1.0
 10
-459.369053310303
 20
86.784312721371208
 30
0.0
 41
1.0
 10
-459.36951183704383
 20
86.785846171160031
 30
0.0
 41
1.0
 10
-459.39141969224147
 20
86.859112554416669
 30
0.0
 41
0.99937848775909
 10
-459.41843532734811
 20
86.93065325957582
 30
0.0
 41
1.0
 10
-459.41896701832485
 20
86.932061242295958
 30
0.0
 41
1.0
 10
-459.41949870930159
 20
86.933469225016111
 30
0.0
 41
1.0
 10
-459.44545096245469
 20
87.002193964734872
 30
0.0
 41
0.9992430832254494
 10
-459.47666749761407
 20
87.068693116803161
 30
0.0
 41
1.0
 10
-459.47724961367066
 20
87.069933171920496
 30
0.0
 41
1.0
 10
-459.47783172972731
 20
87.071173227037832
 30
0.0
 41
1.0
 10
-459.5078840327734
 20
87.135192268871378
 30
0.0
 41
0.999078963279871
 10
-459.54331465955011
 20
87.196398880621018
 30
0.0
 41
1.0
 10
-459.5439103657319
 20
87.197427966479893
 30
0.0
 41
1.0
 10
-459.54450607191376
 20
87.198457052338782
 30
0.0
 41
1.0
 10
-459.57874528632681
 20
87.257605492370629
 30
0.0
 41
0.9988874801120569
 10
-459.61840456235888
 20
87.313265204788536
 30
0.0
 41
1.0
 10
-459.61896008842302
 20
87.314044856463155
 30
0.0
 41
1.0
 10
-459.61951561448723
 20
87.314824508137775
 30
0.0
 41
1.0
 10
-459.65806383839106
 20
87.368924917206527
 30
0.0
 41
0.9986762060693067
 10
-459.70196630966706
 20
87.418778631645523
 30
0.0
 41
1.0
 10
-459.70241026999923
 20
87.419282773462129
 30
0.0
 41
1.0
 10
-459.70285423033141
 20
87.419786915278735
 30
0.0
 41
1.0
 10
-459.74586878094323
 20
87.468632346084689
 30
0.0
 41
0.9984621642488284
 10
-459.79402633772105
 20
87.512415646555837
 30
0.0
 41
1.0
 10
-459.79427297223788
 20
87.512639878719597
 30
0.0
 41
1.0
 10
-459.7945196067547
 20
87.512864110883342
 30
0.0
 41
1.0
 10
-459.8421838944991
 20
87.556198947027184
 30
0.0
 41
0.998272469385147
 10
-459.89460252634029
 20
87.593643297544645
 30
0.0
 41
1.0
 10
-459.94702115818166
 20
87.631087648062248
 30
0.0
 41
0.9981399180159011
 10
-460.00360722157507
 20
87.661874167505744
 30
0.0
 41
1.0
 10
-460.00365288365356
 20
87.661899010662921
 30
0.0
 41
1.0
 10
-460.00369854573199
 20
87.661923853820099
 30
0.0
 41
1.0
 10
-460.06037593328222
 20
87.692760059577893
 30
0.0
 41
0.9980927086836926
 10
-460.12042128434859
 20
87.716376868430359
 30
0.0
 41
1.0
 10
-460.12086145406033
 20
87.716549994305382
 30
0.0
 41
1.0
 10
-460.12130162377201
 20
87.716723120180404
 30
0.0
 41
1.0
 10
-460.18222731426164
 20
87.740686180782831
 30
0.0
 41
0.998141135656174
 10
-460.2456158356614
 20
87.757058822288485
 30
0.0
 41
1.0
 10
-460.24649795236269
 20
87.757286664493947
 30
0.0
 41
1.0
 10
-460.24738006906404
 20
87.757514506699408
 30
0.0
 41
1.0
 10
-460.31253282386655
 20
87.774342832616014
 30
0.0
 41
0.9983031812934934
 10
-460.3792002528611
 20
87.783482193792139
 30
0.0
 41
1.0
 10
-460.3880712782647
 20
87.784698312463419
 30
0.0
 41
1.0
 10
-460.39694230366831
 20
87.785914431134699
 30
0.0
 41
1.0
 10
-460.45129194617266
 20
87.793365161125848
 30
0.0
 41
0.9983887708263516
 10
-460.50613579546587
 20
87.794609834759171
 30
0.0
 41
1.0
 10
-460.51419920068361
 20
87.794792832634016
 30
0.0
 41
1.0
 10
-460.52226260590135
 20
87.794975830508875
 30
0.0
 41
1.0
 10
-460.56097964475845
 20
87.795854508392495
 30
0.0
 41
0.9998869563078983
 10
-460.59970559796136
 20
87.795568639032808
 30
0.0
 41
1.0
 10
-460.63843155116371
 20
87.795282769673122
 30
0.0
 41
0.9999972320081426
 10
-460.67715573037452
 20
87.794814670144092
 30
0.0
 41
1.0
 10
-460.69650874695469
 20
87.79458073005469
 30
0.0
 41
1.0
 10
-460.7158617635348
 20
87.794346789965289
 30
0.0
 41
1.0
 10
-460.79329197590641
 20
87.793410810257456
 30
0.0
 41
0.999730494508651
 10
-460.87059528214445
 20
87.788881716471352
 30
0.0
 41
1.0
 10
-460.87964492384805
 20
87.788351510481448
 30
0.0
 41
1.0
 10
-460.88869456555165
 20
87.787821304491558
 30
0.0
 41
1.0
 10
-460.98409715519716
 20
87.782231798725675
 30
0.0
 41
0.9997888306415323
 10
-461.07918949103902
 20
87.772726834236664
 30
0.0
 41
1.0
 10
-461.08791055261247
 20
87.771855119604481
 30
0.0
 41
1.0
 10
-461.09663161418587
 20
87.770983404972299
 30
0.0
 41
1.0
 10
-461.20916607317463
 20
87.759735011218922
 30
0.0
 41
0.9984170238190779
 10
-461.31972522052627
 20
87.735918929283059
 30
0.0
 41
1.0
 10
-461.35610635151193
 20
87.728081893477082
 30
0.0
 41
1.0
 10
-461.39248748249764
 20
87.720244857671105
 30
0.0
 41
1.0
 10
-461.50767855091937
 20
87.695430991161402
 30
0.0
 41
0.9976592854199179
 10
-461.61840671732466
 20
87.655132314014168
 30
0.0
 41
1.0
 10
-461.72913488372933
 20
87.614833636867132
 30
0.0
 41
0.9993255074352478
 10
-461.83660668252043
 20
87.566516738374588
 30
0.0
 41
1.0
 10
-461.8412318614437
 20
87.564437362174871
 30
0.0
 41
1.0
 10
-461.84585704036704
 20
87.562357985975154
 30
0.0
 41
1.0
 10
-461.96257919700423
 20
87.509882335083361
 30
0.0
 41
0.9976475078275066
 10
-462.07102654131421
 20
87.441934345425267
 30
0.0
 41
1.0
 10
-462.08936893544973
 20
87.430441866610266
 30
0.0
 41
1.0
 10
-462.10771132958524
 20
87.41894938779528
 30
0.0
 41
1.0
 10
-462.19191352113643
 20
87.366192267027472
 30
0.0
 41
0.9995131336407095
 10
-462.272661236094
 20
87.308286055074177
 30
0.0
 41
1.0
 10
-462.3534089510519
 20
87.250379843120641
 30
0.0
 41
0.9995810107605866
 10
-462.43067059878177
 20
87.187898160653774
 30
0.0
 41
1.0
 10
-462.43364062999103
 20
87.185496289189899
 30
0.0
 41
1.0
 10
-462.43661066120035
 20
87.183094417726011
 30
0.0
 41
1.0
 10
-462.51981237134908
 20
87.115808992331154
 30
0.0
 41
0.9996617837954425
 10
-462.59940305848403
 20
87.044288536771575
 30
0.0
 41
1.0
 10
-462.61153380936122
 20
87.033387803780727
 30
0.0
 41
1.0
 10
-462.62366456023841
 20
87.022487070789879
 30
0.0
 41
1.0
 10
-462.69194008763662
 20
86.961134455316028
 30
0.0
 41
0.9997267750052833
 10
-462.7572735959198
 20
86.89665791879122
 30
0.0
 41
1.0
 10
-462.82260710420178
 20
86.832181382267635
 30
0.0
 41
0.9999667288954052
 10
-462.88688004734814
 20
86.766647575373483
 30
0.0
 41
1.0
 10
-462.95570749512427
 20
86.696469916614234
 30
0.0
 41
1.0
 10
-463.0245349429004
 20
86.626292257854971
 30
0.0
 41
1.0
 10
-463.22646278159709
 20
86.420403133444211
 30
0.0
 41
0.9988205335175414
 10
-463.40746839857673
 20
86.195898901383487
 30
0.0
 41
1.0
 10
-463.43810836348143
 20
86.157895650953577
 30
0.0
 41
1.0
 10
-463.46874832838608
 20
86.119892400523668
 30
0.0
 41
1.0
 10
-463.71103387517496
 20
85.819381667603238
 30
0.0
 41
0.9997077826754787
 10
-463.93851182628038
 20
85.507511873386676
 30
0.0
 41
1.0
 10
-463.94023524141073
 20
85.505149090007208
 30
0.0
 41
1.0
 10
-463.94195865654115
 20
85.50278630662774
 30
0.0
 41
1.0
 10
-464.1728834379075
 20
85.186190945651987
 30
0.0
 41
0.9989147567078883
 10
-464.37334694079129
 20
84.849481484466622
 30
0.0
 41
1.0
 10
-464.39808808609729
 20
84.807924903915819
 30
0.0
 41
1.0
 10
-464.42282923140328
 20
84.766368323365
 30
0.0
 41
1.0
 10
-464.57804053004156
 20
84.50566693891065
 30
0.0
 41
0.9997476598181666
 10
-464.72138551755165
 20
84.238257190327431
 30
0.0
 41
1.0
 10
-464.86473050506203
 20
83.970847441743587
 30
0.0
 41
0.9996258967109705
 10
-464.99323875699434
 20
83.695999505117982
 30
0.0
 41
1.0
 10
-465.00643866644316
 20
83.667768105024194
 30
0.0
 41
1.0
 10
-465.01963857589203
 20
83.639536704930407
 30
0.0
 41
1.0
 10
-465.1598472968916
 20
83.339664306977852
 30
0.0
 41
0.999873541394519
 10
-465.29044864361276
 20
83.035484707508544
 30
0.0
 41
1.0
 10
-465.29389147167342
 20
83.027466122043592
 30
0.0
 41
1.0
 10
-465.29733429973402
 20
83.019447536578625
 30
0.0
 41
1.0
 10
-465.4210499903329
 20
82.731305108041312
 30
0.0
 41
0.999937741886006
 10
-465.53830479250786
 20
82.440473640365894
 30
0.0
 41
1.0
 10
-465.65555959468128
 20
82.1496421726942
 30
0.0
 41
0.9999508299503853
 10
-465.76702353805558
 20
81.856542495881186
 30
0.0
 41
1.0
 10
-465.77010430672044
 20
81.848441469910995
 30
0.0
 41
1.0
 10
-465.77318507538536
 20
81.840340443940818
 30
0.0
 41
1.0
 10
-465.89081055608705
 20
81.531038715193446
 30
0.0
 41
0.9999609228430897
 10
-466.00294915896143
 20
81.219705699176771
 30
0.0
 41
1.0
 10
-466.00590516931118
 20
81.211498858767015
 30
0.0
 41
1.0
 10
-466.00886117966093
 20
81.203292018357274
 30
0.0
 41
1.0
 10
-466.1269118032335
 20
80.87554532152447
 30
0.0
 41
0.9999674607399604
 10
-466.23965932930207
 20
80.545936701528689
 30
0.0
 41
1.0
 10
-466.29105771986451
 20
80.395677505836815
 30
0.0
 41
1.0
 10
-466.34245611042701
 20
80.245418310144942
 30
0.0
 41
1.0
 10
-466.45846671718516
 20
79.906270327641082
 30
0.0
 41
0.9999287532312033
 10
-466.56634812115595
 20
79.56444958866507
 30
0.0
 41
1.0
 10
-466.61282537728022
 20
79.417187044341262
 30
0.0
 41
1.0
 10
-466.65930263340448
 20
79.269924500017453
 30
0.0
 41
1.0
 10
-466.67422952511879
 20
79.222628849714511
 30
0.0
 41
0.9999998223407249
 10
-466.68910003385713
 20
79.175315441448447
 30
0.0
 41
1.0
 10
-468.30975617065258
 20
74.027286939659007
 30
0.0
 41
1.0
 10
-469.93041230744802
 20
68.879258437869566
 30
0.0
 41
1.0
 10
-470.83572075133895
 20
68.879258437869566
 30
0.0
 41
1.0
 10
-471.74102919522988
 20
68.879258437869566
 30
0.0
 41
1.0
 10
-469.88894478384384
 20
74.766330360337065
 30
0.0
 41
1.0
 10
-468.0368603724578
 20
80.653402282804564
 30
0.0
 41
1.0
 10
-468.02673861415508
 20
80.68544549625426
 30
0.0
 41
1.0
 10
-467.95413094530534
 20
80.915745038080104
 30
0.0
 41
1.0
 10
-467.88152327645548
 20
81.146044579906331
 30
0.0
 41
0.9999825681974157
 10
-467.81164023724403
 20
81.377185474971157
 30
0.0
 41
1.0
 10
-467.76334917508399
 20
81.536910058464571
 30
0.0
 41
1.0
 10
-467.71505811292394
 20
81.696634641957971
 30
0.0
 41
1.0
 10
-467.61790575960731
 20
82.017969863732162
 30
0.0
 41
0.999967252896753
 10
-467.52596695398324
 20
82.340835409320903
 30
0.0
 41
1.0
 10
-467.52317807031193
 20
82.350629254716424
 30
0.0
 41
1.0
 10
-467.52038918664056
 20
82.360423100111944
 30
0.0
 41
1.0
 10
-467.43402814835724
 20
82.663700954916465
 30
0.0
 41
0.9999899749139369
 10
-467.35038653882521
 20
82.96774004335964
 30
0.0
 41
1.0
 10
-467.34028061980644
 20
83.004475281042659
 30
0.0
 41
1.0
 10
-467.33017470078761
 20
83.041210518725677
 30
0.0
 41
1.0
 10
-467.26674492928987
 20
83.271779131814498
 30
0.0
 41
0.999921420050313
 10
-467.20911550091279
 20
83.503865474021381
 30
0.0
 41
1.0
 10
-467.19634964873097
 20
83.555276359422635
 30
0.0
 41
1.0
 10
-467.18358379654916
 20
83.606687244823902
 30
0.0
 41
1.0
 10
-467.15148607253411
 20
83.73595181623466
 30
0.0
 41
0.9999828681671572
 10
-467.12090382053964
 20
83.865583290698169
 30
0.0
 41
1.0
 10
-467.09032156854374
 20
83.995214765167589
 30
0.0
 41
0.9999389844473527
 10
-467.06261057975411
 20
84.125490221069683
 30
0.0
 41
1.0
 10
-467.05547283603437
 20
84.15904632490512
 30
0.0
 41
1.0
 10
-467.04833509231457
 20
84.192602428740543
 30
0.0
 41
1.0
 10
-467.00634861608512
 20
84.389990092314818
 30
0.0
 41
0.9998933699442141
 10
-466.9701443516829
 20
84.588519700072766
 30
0.0
 41
1.0
 10
-466.96877152646641
 20
84.596047720770002
 30
0.0
 41
1.0
 10
-466.96739870124998
 20
84.603575741467239
 30
0.0
 41
1.0
 10
-466.92844878641512
 20
84.817161390618423
 30
0.0
 41
0.9996850305193297
 10
-466.90026511015645
 20
85.032432396054546
 30
0.0
 41
1.0
 10
-466.89827007678707
 20
85.047670750176906
 30
0.0
 41
1.0
 10
-466.89627504341775
 20
85.062909104299251
 30
0.0
 41
1.0
 10
-466.8688671809586
 20
85.272254331454405
 30
0.0
 41
0.9994697936706509
 10
-466.85514262173905
 20
85.482939526784889
 30
0.0
 41
1.0
 10
-466.85466555248934
 20
85.49026299899603
 30
0.0
 41
1.0
 10
-466.85418848323968
 20
85.497586471207185
 30
0.0
 41
1.0
 10
-466.84141806251944
 20
85.693624722115601
 30
0.0
 41
0.999180489313664
 10
-466.84454637879224
 20
85.890053572089073
 30
0.0
 41
1.0
 10
-466.84463025761437
 20
85.895320373501875
 30
0.0
 41
1.0
 10
-466.84471413643649
 20
85.900587174914691
 30
0.0
 41
1.0
 10
-466.84767469506505
 20
86.086482422062545
 30
0.0
 41
0.998844832932176
 10
-466.8684662406888
 20
86.271235011895897
 30
0.0
 41
1.0
 10
-466.87006031439188
 20
86.285399867667564
 30
0.0
 41
1.0
 10
-466.87165438809495
 20
86.299564723439218
 30
0.0
 41
1.0
 10
-466.88925778631261
 20
86.455987601729703
 30
0.0
 41
0.9985503209458404
 10
-466.92357405861213
 20
86.609611785818515
 30
0.0
 41
1.0
 10
-466.93116005068356
 20
86.643572113219648
 30
0.0
 41
1.0
 10
-466.93874604275499
 20
86.677532440620766
 30
0.0
 41
1.0
 10
-466.95789033091194
 20
86.763235969908735
 30
0.0
 41
0.9991036781370177
 10
-466.98421519256289
 20
86.847013057232743
 30
0.0
 41
1.0
 10
-466.98819741801844
 20
86.859686219742059
 30
0.0
 41
1.0
 10
-466.99217964347406
 20
86.872359382251375
 30
0.0
 41
1.0
 10
-467.01054005421378
 20
86.930790144556767
 30
0.0
 41
0.9998874504368713
 10
-467.03064526189252
 20
86.988643746781008
 30
0.0
 41
1.0
 10
-467.0507504695708
 20
87.046497349003758
 30
0.0
 41
0.9994041637543882
 10
-467.07479908250497
 20
87.102826052893519
 30
0.0
 41
1.0
 10
-467.07899586672886
 20
87.112656117375209
 30
0.0
 41
1.0
 10
-467.08319265095281
 20
87.1224861818569
 30
0.0
 41
1.0
 10
-467.11107148194765
 20
87.187786347824797
 30
0.0
 41
0.9991846840702373
 10
-467.14412783864088
 20
87.250624379105375
 30
0.0
 41
1.0
 10
-467.14526444503616
 20
87.252784995560546
 30
0.0
 41
1.0
 10
-467.14640105143144
 20
87.254945612015703
 30
0.0
 41
1.0
 10
-467.17718419533429
 20
87.313462410386194
 30
0.0
 41
0.9989253167922708
 10
-467.21325361938892
 20
87.36887733877586
 30
0.0
 41
1.0
 10
-467.21430774406303
 20
87.370496833537956
 30
0.0
 41
1.0
 10
-467.21536186873709
 20
87.372116328300052
 30
0.0
 41
1.0
 10
-467.24932304344378
 20
87.424292267165939
 30
0.0
 41
0.9986467172836618
 10
-467.28852019608127
 20
87.472658300795615
 30
0.0
 41
1.0
 10
-467.28939432478188
 20
87.473736903073728
 30
0.0
 41
1.0
 10
-467.2902684534825
 20
87.474815505351827
 30
0.0
 41
1.0
 10
-467.32771734871869
 20
87.521024334425178
 30
0.0
 41
0.9984001104267957
 10
-467.37014407923584
 20
87.562709441794027
 30
0.0
 41
1.0
 10
-467.37073121734545
 20
87.56328631667553
 30
0.0
 41
1.0
 10
-467.37131835545506
 20
87.563863191557033
 30
0.0
 41
1.0
 10
-467.41257080975339
 20
87.604394549163231
 30
0.0
 41
0.9982442159082234
 10
-467.45832691108859
 20
87.639763110423019
 30
0.0
 41
1.0
 10
-467.45854170655014
 20
87.639929143066041
 30
0.0
 41
1.0
 10
-467.45875650201162
 20
87.64009517570905
 30
0.0
 41
1.0
 10
-467.50408301242402
 20
87.675131671683005
 30
0.0
 41
0.9982450060836632
 10
-467.55323399149597
 20
87.704563454716777
 30
0.0
 41
1.0
 10
-467.60238497056793
 20
87.733995237750477
 30
0.0
 41
0.9983922639634569
 10
-467.65455127673323
 20
87.757674872404706
 30
0.0
 41
1.0
 10
-467.65477815405734
 20
87.757777857885998
 30
0.0
 41
1.0
 10
-467.65500503138151
 20
87.757880843367275
 30
0.0
 41
1.0
 10
-467.70762509219531
 20
87.781766448984186
 30
0.0
 41
0.9986517147150147
 10
-467.76243806506295
 20
87.800067568105831
 30
0.0
 41
1.0
 10
-467.7631159864909
 20
87.80029391453732
 30
0.0
 41
1.0
 10
-467.76379390791891
 20
87.800520260968824
 30
0.0
 41
1.0
 10
-467.81996272364245
 20
87.819274072953434
 30
0.0
 41
0.9989435598956358
 10
-467.87761611079429
 20
87.832791775188056
 30
0.0
 41
1.0
 10
-467.87869623037579
 20
87.833045025441038
 30
0.0
 41
1.0
 10
-467.87977634995735
 20
87.833298275694005
 30
0.0
 41
1.0
 10
-467.93958997627209
 20
87.847322478434521
 30
0.0
 41
0.9992249241240278
 10
-468.00032148516937
 20
87.856597821149705
 30
0.0
 41
1.0
 10
-468.00173517346047
 20
87.856813729557558
 30
0.0
 41
1.0
 10
-468.00314886175158
 20
87.857029637965411
 30
0.0
 41
1.0
 10
-468.06670774723125
 20
87.866736797496316
 30
0.0
 41
0.9994396597834125
 10
-468.13077368376776
 20
87.872169719841978
 30
0.0
 41
1.0
 10
-468.14991435124568
 20
87.873792887560626
 30
0.0
 41
1.0
 10
-468.16905501872361
 20
87.875416055279288
 30
0.0
 41
1.0
 10
-468.27140229021632
 20
87.884095313062303
 30
0.0
 41
0.9987693403121309
 10
-468.37410591380308
 20
87.88259224960963
 30
0.0
 41
1.0
 10
-468.3843602480307
 20
87.882442177835429
 30
0.0
 41
1.0
 10
-468.39461458225827
 20
87.882292106061229
 30
0.0
 41
1.0
 10
-468.5041703484369
 20
87.88068876177384
 30
0.0
 41
0.9989753644965929
 10
-468.61313234845306
 20
87.869185754848672
 30
0.0
 41
1.0
 10
-468.72209434846962
 20
87.857682747923462
 30
0.0
 41
0.9983190067305863
 10
-468.82899315943456
 20
87.833647756136713
 30
0.0
 41
1.0
 10
-468.83789411104124
 20
87.831646477574026
 30
0.0
 41
1.0
 10
-468.84679506264797
 20
87.829645199011338
 30
0.0
 41
1.0
 10
-468.9714957768266
 20
87.801607650099186
 30
0.0
 41
0.9985539388302974
 10
-469.09246553050417
 20
87.760343974053697
 30
0.0
 41
1.0
 10
-469.09481096146459
 20
87.759543930237811
 30
0.0
 41
1.0
 10
-469.09715639242501
 20
87.758743886421939
 30
0.0
 41
1.0
 10
-469.22281700802324
 20
87.71588012274475
 30
0.0
 41
0.998846874649384
 10
-469.34378735032362
 20
87.661162037682345
 30
0.0
 41
1.0
 10
-469.34697017231241
 20
87.65972236312237
 30
0.0
 41
1.0
 10
-469.3501529943012
 20
87.658282688562394
 30
0.0
 41
1.0
 10
-469.4774889805791
 20
87.600685254380039
 30
0.0
 41
0.9991322885918883
 10
-469.59958956463669
 20
87.532689922197733
 30
0.0
 41
1.0
 10
-469.61719157567984
 20
87.522887720208331
 30
0.0
 41
1.0
 10
-469.63479358672299
 20
87.513085518218944
 30
0.0
 41
1.0
 10
-469.73697026778018
 20
87.45618540243828
 30
0.0
 41
0.9993860037849471
 10
-469.83491127185414
 20
87.392269386849421
 30
0.0
 41
1.0
 10
-469.84052958470738
 20
87.388602892153884
 30
0.0
 41
1.0
 10
-469.84614789756068
 20
87.384936397458347
 30
0.0
 41
1.0
 10
-469.93285227592912
 20
87.32835337125988
 30
0.0
 41
0.9998821494952906
 10
-470.01777865174034
 20
87.269135141184165
 30
0.0
 41
1.0
 10
-470.10270502755304
 20
87.209916911107513
 30
0.0
 41
0.9997976482743356
 10
-470.18518065795672
 20
87.147330503065689
 30
0.0
 41
1.0
 10
-470.19981692276167
 20
87.136223813285852
 30
0.0
 41
1.0
 10
-470.21445318756662
 20
87.125117123506016
 30
0.0
 41
1.0
 10
-470.32620134758031
 20
87.040317335904462
 30
0.0
 41
0.9998091630800109
 10
-470.4345516256073
 20
86.951216985203601
 30
0.0
 41
1.0
 10
-470.44755737808487
 20
86.940521884757345
 30
0.0
 41
1.0
 10
-470.46056313056238
 20
86.929826784311103
 30
0.0
 41
1.0
 10
-470.59492491354467
 20
86.819336232717546
 30
0.0
 41
0.9995035112317428
 10
-470.72206079130819
 20
86.700602415702633
 30
0.0
 41
1.0
 10
-470.7317081016958
 20
86.691592669544434
 30
0.0
 41
1.0
 10
-470.74135541208341
 20
86.682582923386249
 30
0.0
 41
1.0
 10
-470.86477847484798
 20
86.567316551631066
 30
0.0
 41
0.9994630424298912
 10
-470.9803868806319
 20
86.444213808395943
 30
0.0
 41
1.0
 10
-470.98406971940346
 20
86.440292228882811
 30
0.0
 41
1.0
 10
-470.98775255817498
 20
86.436370649369678
 30
0.0
 41
1.0
 10
-471.0959952864157
 20
86.321111065160949
 30
0.0
 41
0.9995160693750395
 10
-471.19686131594779
 20
86.199343647288174
 30
0.0
 41
1.0
 10
-471.19879503602783
 20
86.197009223080869
 30
0.0
 41
1.0
 10
-471.20072875610788
 20
86.194674798873564
 30
0.0
 41
1.0
 10
-471.29772734547964
 20
86.077576229415712
 30
0.0
 41
0.9996561470513836
 10
-471.38845356414561
 20
85.955553466966421
 30
0.0
 41
1.0
 10
-471.39461123004708
 20
85.947271677924732
 30
0.0
 41
1.0
 10
-471.4007688959486
 20
85.938989888883057
 30
0.0
 41
1.0
 10
-471.47917978281129
 20
85.833530704517514
 30
0.0
 41
0.9998349055173171
 10
-471.55370706474372
 20
85.725292120853851
 30
0.0
 41
1.0
 10
-471.62823434667757
 20
85.61705353718807
 30
0.0
 41
0.9999728109561941
 10
-471.70115724258648
 20
85.507727611634749
 30
0.0
 41
1.0
 10
-471.70247245799806
 20
85.505755842132473
 30
0.0
 41
1.0
 10
-471.70378767340958
 20
85.503784072630197
 30
0.0
 41
1.0
 10
-471.77934100014136
 20
85.390514608072692
 30
0.0
 41
0.9999972147420434
 10
-471.85435881050711
 20
85.276889765249521
 30
0.0
 41
1.0
 10
-471.85933035313451
 20
85.269359676769511
 30
0.0
 41
1.0
 10
-471.86430189576197
 20
85.261829588289515
 30
0.0
 41
1.0
 10
-471.94926279138178
 20
85.133144568507504
 30
0.0
 41
0.9999371979008387
 10
-472.03131814078506
 20
85.002587654731627
 30
0.0
 41
1.0
 10
-472.03482702514702
 20
84.997004726666248
 30
0.0
 41
1.0
 10
-472.03833590950904
 20
84.991421798600868
 30
0.0
 41
1.0
 10
-472.12740902763699
 20
84.849699028693237
 30
0.0
 41
0.9998272025610209
 10
-472.21115241851896
 20
84.704763151951042
 30
0.0
 41
1.0
 10
-472.2263675905433
 20
84.678430037493797
 30
0.0
 41
1.0
 10
-472.2415827625677
 20
84.652096923036538
 30
0.0
 41
1.0
 10
-472.35575649749836
 20
84.454494817379924
 30
0.0
 41
0.9995217214837991
 10
-472.45749618705423
 20
84.250212489517139
 30
0.0
 41
1.0
 10
-472.46513974968946
 20
84.234865039813911
 30
0.0
 41
1.0
 10
-472.47278331232462
 20
84.219517590110698
 30
0.0
 41
1.0
 10
-472.5596886049135
 20
84.045021132030811
 30
0.0
 41
0.9998269762607914
 10
-472.64004307118535
 20
83.867412845307854
 30
0.0
 41
1.0
 10
-472.72039753745639
 20
83.689804558586786
 30
0.0
 41
0.9998944747387702
 10
-472.79555833202039
 20
83.509936832959141
 30
0.0
 41
1.0
 10
-472.8005120016129
 20
83.498082178038601
 30
0.0
 41
1.0
 10
-472.80546567120535
 20
83.48622752311806
 30
0.0
 41
1.0
 10
-472.88611273175758
 20
83.293230583101021
 30
0.0
 41
0.9999506734410136
 10
-472.96291026066115
 20
83.098669778244926
 30
0.0
 41
1.0
 10
-472.97751022592979
 20
83.061681856444665
 30
0.0
 41
1.0
 10
-472.99211019119844
 20
83.024693934644418
 30
0.0
 41
1.0
 10
-473.03970778956466
 20
82.904108973388972
 30
0.0
 41
0.9999912393952538
 10
-473.08629423358724
 20
82.783129770692994
 30
0.0
 41
1.0
 10
-473.13288067760868
 20
82.662150567999987
 30
0.0
 41
0.9999927113984655
 10
-473.17854197200205
 20
82.540819160500277
 30
0.0
 41
1.0
 10
-473.19251040340072
 20
82.503702178498827
 30
0.0
 41
1.0
 10
-473.20647883479938
 20
82.466585196497363
 30
0.0
 41
1.0
 10
-473.28007699198906
 20
82.271019824997566
 30
0.0
 41
0.9999487550950913
 10
-473.3497006169606
 20
82.074004459815313
 30
0.0
 41
1.0
 10
-473.37329422689982
 20
82.007241149516091
 30
0.0
 41
1.0
 10
-473.39688783683897
 20
81.940477839216854
 30
0.0
 41
1.0
 10
-473.49157347120644
 20
81.672544004400848
 30
0.0
 41
0.9999808436949563
 10
-473.58293505984648
 20
81.403458573140142
 30
0.0
 41
1.0
 10
-473.67429664848555
 20
81.134373141882591
 30
0.0
 41
0.9999873932911224
 10
-473.7629513572021
 20
80.864383786873972
 30
0.0
 41
1.0
 10
-473.78304371407341
 20
80.803194454115214
 30
0.0
 41
1.0
 10
-473.80313607094473
 20
80.742005121356442
 30
0.0
 41
1.0
 10
-473.93197549340255
 20
80.349637100834286
 30
0.0
 41
0.9999794883034123
 10
-474.05577827836396
 20
79.955650894545556
 30
0.0
 41
1.0
 10
-474.06693053780191
 20
79.920160284307045
 30
0.0
 41
1.0
 10
-474.07808279723992
 20
79.884669674068533
 30
0.0
 41
1.0
 10
-474.22064096112814
 20
79.430996922011417
 30
0.0
 41
0.9999982761762102
 10
-474.36151340114725
 20
78.976797899876146
 30
0.0
 41
1.0
 10
-475.94965373371986
 20
73.928028168872856
 30
0.0
 41
1.0
 10
-477.53779406629246
 20
68.879258437869566
 30
0.0
 41
1.0
 10
-478.48654467776885
 20
68.879258437869566
 30
0.0
 41
1.0
 10
-479.43529528924523
 20
68.879258437869566
 30
0.0
 41
1.0
 10
-476.19701080309204
 20
79.206580637815705
 30
0.0
 41
1.0
 10
-472.95872631693885
 20
89.533902837761843
 30
0.0
 41
1.0
  0
LWPOLYLINE
  5
59
100
AcDbEntity
  8
0
370
              15
390
0
  6
Continuous
 62
               7
100
AcDbPolyline
 90
      232
 70
             128
 10
-498.6622720907659
 20
88.449560006246656
 42
0.0004370800689736
 10
-498.71514926481956
 20
88.380893367014423
 10
-498.75443349596537
 20
88.329786254093847
 42
0.003048199217476
 10
-498.88477221309103
 20
88.158064561741
 10
-498.92328388483497
 20
88.106677777961522
 42
0.0042058245758572
 10
-499.12726893550655
 20
87.829672032885341
 10
-499.1796740580055
 20
87.757239186107086
 42
0.0120948898741757
 10
-499.47571797476724
 20
87.326489581557539
 10
-499.57191047388909
 20
87.179008846332792
 42
0.0141601263948136
 10
-499.87555452081085
 20
86.683339509597772
 10
-499.91509178823861
 20
86.614495542162857
 42
0.0071131081303067
 10
-500.12036411147523
 20
86.244992743327884
 42
0.0068458791003427
 10
-500.31524363831664
 20
85.86990117985512
 10
-500.32205550077606
 20
85.856339466128134
 42
0.0064120880290912
 10
-500.52019775082164
 20
85.448914991206465
 10
-500.52773243633737
 20
85.432903134488015
 42
0.00588572364478
 10
-500.73048782820615
 20
84.988527023459653
 10
-500.73866275450303
 20
84.970036869819069
 42
0.0053189741895139
 10
-500.94736706717146
 20
84.484073395899074
 10
-500.95611487285191
 20
84.463091517705038
 42
0.0047503650419515
 10
-501.17208859900506
 20
83.93089208448923
 10
-501.18135684735074
 20
83.907415708387475
 42
0.0042071762171967
 10
-501.40590423107653
 20
83.32432211432301
 10
-501.41565363342716
 20
83.298355939448015
 42
0.0036680086484031
 10
-501.65010827674007
 20
82.659720554914358
 10
-501.66031605658702
 20
82.631272020572283
 42
0.0032573142627828
 10
-501.90594834255631
 20
81.932419360811465
 10
-501.9745988633963
 20
81.732956276760433
 42
0.0026133366649005
 10
-502.32304406215241
 20
80.70309299309406
 10
-502.38630084965257
 20
80.512862157702529
 42
0.0020592950740946
 10
-502.60016391862018
 20
79.860758505087915
 10
-502.60321570978346
 20
79.851322016677628
 42
0.0025609928534849
 10
-502.80503621126911
 20
79.216176794312332
 10
-502.8076275783996
 20
79.207874453359636
 42
0.0031362356242465
 10
-502.99711836407272
 20
78.587111597192234
 10
-502.99924940700038
 20
78.579970290980384
 42
0.0037229918028874
 10
-503.1760497939265
 20
77.970984989006979
 10
-503.17772838313203
 20
77.965038098835677
 42
0.0043077623707492
 10
-503.34146918519798
 20
77.36521936706356
 42
0.0047654161824811
 10
-503.49429790771222
 20
76.762533278168206
 10
-503.52876251655306
 20
76.620971501011468
 42
0.0112969368446271
 10
-503.72462687469744
 20
75.729279340383371
 10
-503.75263326379331
 20
75.586451294289418
 42
0.0130056762571296
 10
-503.95347050743993
 20
74.399510222644494
 10
-503.97401025758705
 20
74.255432109167316
 42
0.0138721532144841
 10
-504.07771326212492
 20
73.348602623341776
 10
-504.09700875003273
 20
73.125104901417089
 42
0.0071254697008554
 10
-504.13035539595541
 20
72.661917892569477
 10
-504.13531637011823
 20
72.575913898016637
 42
0.002888179920005
 10
-504.15045466340854
 20
72.284172188166735
 42
0.0060297297134858
 10
-504.16038686318404
 20
71.99222325205055
 10
-504.16144914485119
 20
71.943830880118142
 42
0.0229523164155155
 10
-504.15371811706541
 20
71.621076033835266
 10
-504.14949234354498
 20
71.560672499818239
 42
0.0123673300669892
 10
-504.13041369702671
 20
71.359551774644274
 42
0.0128577674474075
 10
-504.10121830662058
 20
71.159653924718427
 10
-504.09409243323341
 20
71.118325110120509
 42
0.028571785376761
 10
-504.02959843153758
 20
70.840208958806755
 10
-504.0159299078714
 20
70.793554189330507
 42
0.031628309915907
 10
-503.90011932795704
 20
70.474539687504148
 10
-503.89707063620136
 20
70.46755331517835
 42
0.0338984824238145
 10
-503.74763892523436
 20
70.17998735098945
 10
-503.74533019586499
 20
70.176196321714386
 42
0.0350228718353538
 10
-503.56296990519093
 20
69.919144337036641
 10
-503.56208465341575
 20
69.918065259272367
 42
0.0347476747529437
 10
-503.3476599661758
 20
69.690880212052548
 42
0.0331337701912661
 10
-503.10441664042912
 20
69.494751549974936
 10
-503.10331654191327
 20
69.493978846802634
 42
0.0305233319083004
 10
-502.83477184633972
 20
69.328850676711198
 10
-502.83154180183868
 20
69.327126664848606
 42
0.0273744481154975
 10
-502.53898809026413
 20
69.190988520958086
 10
-502.53388355512686
 20
69.188944936488497
 42
0.0240964406195638
 10
-502.21840647948159
 20
69.079961210207273
 10
-502.21182315027119
 20
69.078036470532084
 42
0.0209636179812268
 10
-501.87442299761756
 20
68.994568322599804
 10
-501.86679053716989
 20
68.993016409598567
 42
0.0181388704692242
 10
-501.50846814517087
 20
68.933600316384542
 10
-501.50018729679329
 20
68.932534132567525
 42
0.0156086547586593
 10
-501.12199993260396
 20
68.895797945990822
 10
-501.07880468027662
 20
68.892959443511856
 42
0.0137148329023015
 10
-500.75113153497853
 20
68.880439188260539
 10
-500.70519534503637
 20
68.879944755145331
 42
0.0051057823886108
 10
-500.4690497584603
 20
68.879814500736188
 42
0.0052256693311791
 10
-500.23295247467587
 20
68.884563325200503
 10
-500.16272569093223
 20
68.886710291214513
 42
0.0161507179049089
 10
-499.7869886128293
 20
68.910360661541233
 10
-499.76697565245792
 20
68.912270856828627
 42
0.0101216737833488
 10
-499.35294843096659
 20
68.960263787194251
 10
-499.31889514154045
 20
68.964911484003778
 42
0.0245291776398178
 10
-498.8421054859889
 20
69.053986562080127
 10
-498.75728217046446
 20
69.074182482426039
 42
0.0143509212558243
 10
-498.40065106652571
 20
69.169987116204652
 42
0.0156557857038734
 10
-498.05043500179823
 20
69.286998332023501
 10
-498.04293378730381
 20
69.289768493777615
 42
0.0170137333630415
 10
-497.6863377916211
 20
69.435426108649381
 10
-497.67923386921495
 20
69.43861394421242
 42
0.0183105364409339
 10
-497.3198842010512
 20
69.615948986035406
 10
-497.31293743640992
 20
69.619699420908887
 42
0.0194899958151051
 10
-496.9544566954246
 20
69.83167840280052
 10
-496.94744281608922
 20
69.836203745094622
 42
0.0204869852950075
 10
-496.59342851399566
 20
70.085723760180215
 10
-496.58616290540829
 20
70.091303825528826
 42
0.0212516938556865
 10
-496.24017297430032
 20
70.381207822423363
 10
-496.19365628022445
 20
70.423675132517246
 42
0.0215248918252091
 10
-495.93363011133698
 20
70.682439411511609
 10
-495.88860037695321
 20
70.731283532864879
 42
0.0114578554959636
 10
-495.73380822327903
 20
70.90710646631976
 10
-495.72261368729517
 20
70.920425229861863
 42
0.0061531305132069
 10
-495.59613904129799
 20
71.074714763170846
 42
0.0006325587121287
 10
-495.47176055715119
 20
71.230718138840416
 10
-495.44872042209471
 20
71.259691659505961
 42
0.0041897761557469
 10
-495.28026501811371
 20
71.475211035578582
 10
-495.22180289822984
 20
71.551312382552965
 42
0.0092993880037185
 10
-494.94519097100408
 20
71.925591146439743
 10
-494.86279647780748
 20
72.041528150005021
 42
0.0159321727085773
 10
-494.51618999516484
 20
72.563702370761575
 10
-494.47183385977524
 20
72.635381935012489
 42
0.0085547317022186
 10
-494.23732209445001
 20
73.029256884236247
 42
0.0084601156889205
 10
-494.01634591700815
 20
73.430883733267876
 10
-494.00823044317758
 20
73.446243415541403
 42
0.008142965428472
 10
-493.78498117274114
 20
73.885964928080028
 10
-493.77612100855606
 20
73.904143770101541
 42
0.0076574581329992
 10
-493.54971349798632
 20
74.387326645361227
 10
-493.54023385726566
 20
74.40839112365768
 42
0.0070682724203389
 10
-493.30978894945264
 20
74.940428428453814
 10
-493.29979866547717
 20
74.964417617450522
 42
0.0064559514446598
 10
-493.06446545729517
 20
75.550729883970305
 10
-493.05405609913049
 20
75.577664809411658
 42
0.0058311413905637
 10
-492.81300936236818
 20
76.223696903794021
 10
-492.80225428498022
 20
76.253581244955853
 42
0.0052312425818739
 10
-492.55467300693846
 20
76.964783658792967
 10
-492.54362917055954
 20
76.997610370860116
 42
0.0046680544795593
 10
-492.28870074282815
 20
77.779436686605166
 10
-492.24670859278376
 20
77.912419923899819
 42
0.0041666856444141
 10
-492.04342258038656
 20
78.575388698912548
 10
-492.00576013972034
 20
78.701969806574368
 42
0.0015170975156268
 10
-491.88457356130971
 20
79.113838158059934
 42
-0.0004887993115182
 10
-491.76423378818771
 20
79.525956570097648
 10
-491.6877565306915
 20
79.786913956043009
 42
0.0002583378927851
 10
-491.41454196062273
 20
80.720970659237537
 10
-491.33276911106066
 20
81.001069918770767
 42
0.0006636169672152
 10
-491.13890135103929
 20
81.668422842392147
 10
-491.13380469668408
 20
81.686054425300469
 42
0.0010589131323459
 10
-490.95235599577563
 20
82.31878576832105
 10
-490.94737392529754
 20
82.336298675332685
 42
0.0015655524461394
 10
-490.77910371811237
 20
82.934915354541999
 10
-490.77427351769944
 20
82.952307513470473
 42
0.0021640440477543
 10
-490.61998354571136
 20
83.517334531495976
 10
-490.61534932628035
 20
83.534599261493753
 42
0.0028763871852364
 10
-490.47583360822847
 20
84.066567212336849
 10
-490.4714477440607
 20
84.083691190493397
 42
0.0037310511946068
 10
-490.34749105222437
 20
84.583138784515199
 10
-490.3434158319352
 20
84.600099055761433
 42
0.0047652197771158
 10
-490.23579193142689
 20
85.067576824065782
 10
-490.23210133210443
 20
85.084336379211777
 42
0.0060276699301032
 10
-490.14157123294984
 20
85.52041217435999
 10
-490.1383525426607
 20
85.536913388669319
 42
0.0075824337757814
 10
-490.06566323324523
 20
85.942180553095341
 10
-490.06301785586464
 20
85.958335500547733
 42
0.0095130624607866
 10
-490.00890262023375
 20
86.333424853617657
 10
-490.00191639635108
 20
86.389358411735031
 42
0.0121054653227958
 10
-489.97532506577329
 20
86.654254240208047
 10
-489.974458576014
 20
86.665657683134171
 42
0.0069050827386027
 10
-489.95936975797605
 20
86.908598909981379
 10
-489.9582344583074
 20
86.93212516702863
 42
0.016906397670103
 10
-489.95540717932721
 20
87.128317894326869
 10
-489.95657783085846
 20
87.188653655676688
 42
0.0052007732897944
 10
-489.95883127945149
 20
87.264247045828142
 42
0.0054038123301425
 10
-489.97879479129222
 20
87.384265341848803
 10
-489.98388064716079
 20
87.412923828419252
 42
0.0112050460465669
 10
-490.01926500922013
 20
87.589250266762178
 10
-490.03708997125995
 20
87.668791853479092
 42
0.0240764468011417
 10
-490.12798733740681
 20
87.999028888982139
 10
-490.14654610021972
 20
88.055649053974548
 42
0.0256812331835243
 10
-490.28990902040908
 20
88.427373260231434
 10
-490.29531844623062
 20
88.43950459522145
 42
0.0268360501216856
 10
-490.46474568708038
 20
88.770497729242152
 10
-490.47028209471506
 20
88.780017399553827
 42
0.0274670231728625
 10
-490.66248307112875
 20
89.072304774471718
 10
-490.66786437109192
 20
89.079583922013882
 42
0.0275035967102242
 10
-490.87943725065321
 20
89.335099812317139
 10
-490.88450675161982
 20
89.340578899947701
 42
0.0269557673526032
 10
-491.11191029505932
 20
89.561221185909858
 10
-491.11665335284175
 20
89.565351140370453
 42
0.0259124802209468
 10
-491.3562081842727
 20
89.753041667523007
 10
-491.36073902945435
 20
89.756227169853091
 42
0.0245162153003442
 10
-491.60865538254939
 20
89.912960178963772
 10
-491.61318192887398
 20
89.915520376164849
 42
0.0229282588838663
 10
-491.86560148570095
 20
90.043388568663545
 10
-491.87038197953763
 20
90.045540868425505
 42
0.0212984135695376
 10
-492.12341993199942
 20
90.146739785667819
 10
-492.12872421696795
 20
90.148603348427471
 42
0.0197555462342627
 10
-492.37850255469192
 20
90.225418766392636
 42
0.0183511896788112
 10
-492.63343128015612
 20
90.283001673358271
 10
-492.7197964768776
 20
90.299204463743038
 42
0.0338057877147816
 10
-493.0053038261384
 20
90.333012868883429
 10
-493.096309231183
 20
90.337592524145009
 42
0.0091990524497244
 10
-493.20215633981434
 20
90.340968380066897
 42
0.0028333980780348
 10
-493.30807025580748
 20
90.341796487583636
 10
-493.3089857088566
 20
90.341798457407663
 42
-0.0023619827803688
 10
-493.41673172397327
 20
90.342539298486301
 10
-493.45313689413837
 20
90.34296160494921
 42
0.0008824598477513
 10
-493.6336928839637
 20
90.344737383187251
 10
-493.67755431639421
 20
90.345091344713069
 42
0.0038132665769311
 10
-493.9458372122707
 20
90.345210280779696
 10
-493.96237086706651
 20
90.345091514636124
 42
0.0060665569336232
 10
-494.26365135866223
 20
90.339271215215177
 10
-494.27790169068317
 20
90.338822907247732
 42
0.0080356953337188
 10
-494.60736040702335
 20
90.323155185180809
 10
-494.61943042210964
 20
90.322386602240385
 42
0.009899639910577
 10
-494.97219350675749
 20
90.292901373042483
 10
-494.98223921613521
 20
90.291861076844043
 42
0.0117740981368258
 10
-495.35339607448401
 20
90.244568829314119
 10
-495.36161877096652
 20
90.243323712743404
 42
0.0137435215135803
 10
-495.74620759045206
 20
90.174226739181634
 10
-495.75286462957496
 20
90.172840842948176
 42
0.0158359869386344
 10
-496.14586172337869
 20
90.077948754467073
 10
-496.15127491024458
 20
90.076458813596901
 42
0.0180554124027703
 10
-496.54758995485707
 20
89.951820797358181
 10
-496.55214674294041
 20
89.950204761091868
 42
0.0203657431284334
 10
-496.9466242607532
 20
89.791944419575543
 10
-496.95076779975909
 20
89.790082798134222
 42
0.0226819684655173
 10
-497.33820385596232
 20
89.594440219463394
 10
-497.34240364698087
 20
89.592074627543411
 42
0.0248634984604987
 10
-497.71758558816214
 20
89.355447981596214
 10
-497.76578051694531
 20
89.321590939771056
 42
0.0267044190884409
 10
-498.04007321386257
 20
89.106150563902361
 42
0.0139303002199594
 10
-498.29624037980199
 20
88.868911722989694
 10
-498.3010937655223
 20
88.864159060130305
 42
0.0283460963443005
 10
-498.54516635974954
 20
88.596428399685209
 10
-498.58483486490604
 20
88.547626822212123
 42
0.0070695364822672
 10
-498.6622720907659
 20
88.449560006246656
 42
0.0070695364822672
  0
LWPOLYLINE
  5
5A
100
AcDbEntity
  8
0
370
              15
390
0
  6
Continuous
 62
               7
100
AcDbPolyline
 90
      226
 70
             128
 10
-502.19109252801229
 20
72.727971200062711
 42
-0.0026277636651896
 10
-502.19117041181244
 20
72.7947431257532
 10
-502.1909530535803
 20
72.847898343248858
 42
-0.0088680296729143
 10
-502.18717643728729
 20
73.020914125651089
 10
-502.1848300781748
 20
73.080194151105502
 42
-0.0077381705615621
 10
-502.16878396741163
 20
73.371454646904311
 10
-502.1679160562386
 20
73.383742880588784
 42
-0.0068872530532983
 10
-502.14128397649097
 20
73.698964632652491
 10
-502.14007975230436
 20
73.711205611676519
 42
-0.0062130021487152
 10
-502.10248603547683
 20
74.050075302912958
 10
-502.10098213194141
 20
74.06224917483155
 42
-0.0056726929668347
 10
-502.05206027243906
 20
74.424444396945532
 10
-502.05028682679472
 20
74.436538197190316
 42
-0.0052341884493761
 10
-501.98967624053381
 20
74.821731452713536
 10
-501.98765825175809
 20
74.833736382700636
 42
-0.004976845016873
 10
-501.91491957033156
 20
75.241580950134164
 10
-501.89067055560997
 20
75.370128933139199
 42
-0.0089029805626155
 10
-501.75358970381637
 20
76.031904380556284
 10
-501.7208443284967
 20
76.176935811085059
 42
-0.0080318257099947
 10
-501.49129571415693
 20
77.122645442934996
 10
-501.47931078770773
 20
77.168776078128872
 42
-0.0074265721318478
 10
-501.19529924885836
 20
78.198840656507542
 10
-501.17541970574007
 20
78.266974717102357
 42
-0.0069711922702833
 10
-500.84811512723445
 20
79.333242457426763
 10
-500.78816318013071
 20
79.51926381579193
 42
-0.0052070422894344
 10
-500.55873795486963
 20
80.206535892828697
 10
-500.54145676269235
 20
80.256563173460449
 42
-0.0009167004448393
 10
-500.33836487540799
 20
80.841019021599891
 42
-0.0025162726943793
 10
-500.13126724514319
 20
81.424060285768618
 10
-500.0940426333359
 20
81.527209831679201
 42
-0.0028212681457631
 10
-499.84586671437688
 20
82.2029404638389
 10
-499.83603595162504
 20
82.229247908518772
 42
-0.0031964916821892
 10
-499.59974369396389
 20
82.849452670642677
 10
-499.5901092399663
 20
82.874262660782335
 42
-0.0036281836452252
 10
-499.3650032788637
 20
83.441703341679045
 10
-499.35556486870985
 20
83.465000773172946
 42
-0.0041269166833304
 10
-499.14094717204705
 20
83.982441669160153
 10
-499.1083142156279
 20
84.059320115517451
 42
-0.0047472213057076
 10
-498.95126941007265
 20
84.41974158340463
 10
-498.94437532886502
 20
84.435162180735318
 42
-0.0025651659996505
 10
-498.79601729501428
 20
84.762490236485064
 42
-0.0057144634992704
 10
-498.64226760123938
 20
85.087299909854977
 10
-498.61423689584308
 20
85.144808292239006
 42
-0.0065388068374423
 10
-498.43076986810195
 20
85.509040788906759
 10
-498.42231141232401
 20
85.525300368275197
 42
-0.0074510843024508
 10
-498.2461291664456
 20
85.851988649399004
 10
-498.23794949591553
 20
85.866629426666151
 42
-0.0084648979859715
 10
-498.06831564281453
 20
86.158538437628977
 10
-498.0604595163253
 20
86.171545429281778
 42
-0.0095638542804121
 10
-497.89662406873219
 20
86.431434301258378
 10
-497.88914912506112
 20
86.442803662712763
 42
-0.0107191626806332
 10
-497.7303475446729
 20
86.673414897257885
 10
-497.72333081094223
 20
86.683150989621979
 42
-0.0118458573903248
 10
-497.56878271242931
 20
86.887223184933191
 42
-0.012918451819085
 10
-497.40433008882792
 20
87.083383701103457
 10
-497.37418531646301
 20
87.117509780005051
 42
-0.021774257963433
 10
-497.1975729941293
 20
87.300716550253242
 10
-497.18682744967208
 20
87.310933383453175
 42
-0.0097266568651283
 10
-497.02076983081321
 20
87.462780957893528
 42
-0.0187720905721039
 10
-496.8464222549236
 20
87.604849811282662
 10
-496.81571626424989
 20
87.628008893678597
 42
-0.017942820751909
 10
-496.58329554425336
 20
87.790561070790545
 10
-496.57964321733721
 20
87.792925005678569
 42
-0.0170047877697259
 10
-496.34387957980721
 20
87.934385519829789
 10
-496.34009659106158
 20
87.936483824865533
 42
-0.0160190788365779
 10
-496.10318804342535
 20
88.058135126854154
 42
-0.0151102861491593
 10
-495.85915626097665
 20
88.164817902909604
 10
-495.8067697587669
 20
88.185858035803449
 42
-0.027194544188711
 10
-495.44810719970843
 20
88.307722846509478
 10
-495.37904239922074
 20
88.327072387775686
 42
-0.0237596594022574
 10
-494.96324555219809
 20
88.422523099757314
 10
-494.89518269846809
 20
88.434777787883988
 42
-0.0213715440554144
 10
-494.60930776702236
 20
88.473724819393965
 10
-494.54916060080467
 20
88.47931453409484
 42
-0.0101465655818998
 10
-494.3816680688102
 20
88.491458077358971
 10
-494.37232768261157
 20
88.491944992356252
 42
-0.0100375910879509
 10
-494.22317358204941
 20
88.496720810281431
 10
-494.21291431236892
 20
88.496843249295893
 42
-0.010362563337828
 10
-494.08420631771418
 20
88.495711815769255
 10
-494.06194066644645
 20
88.495054457304349
 42
-0.0115689250230177
 10
-493.97788992891935
 20
88.490624951059203
 42
-0.0072438037427659
 10
-493.89405164947902
 20
88.483035751309757
 10
-493.87725114000739
 20
88.481269208585672
 42
-0.0217917313132696
 10
-493.76068137669256
 20
88.46384931586438
 10
-493.69508128612523
 20
88.451102707449834
 42
-0.0332943556753804
 10
-493.49068912109868
 20
88.397062416143058
 10
-493.46051655254905
 20
88.386894339024764
 42
-0.0184824084801126
 10
-493.32201149608323
 20
88.334443323638084
 42
-0.0198002050695969
 10
-493.18793715558394
 20
88.271559263438775
 10
-493.18605051820697
 20
88.270581476558846
 42
-0.0212242342977712
 10
-493.05391157580533
 20
88.194818737766013
 10
-493.05209628026154
 20
88.193672935557402
 42
-0.0226090605794159
 10
-492.92359237904003
 20
88.104193291993056
 10
-492.92174793730243
 20
88.102781039005436
 42
-0.0238457052234967
 10
-492.79856585600953
 20
87.998785143143209
 10
-492.79661312745043
 20
87.996970265376945
 42
-0.0248160564155279
 10
-492.68041162015027
 20
87.877695664168755
 10
-492.67830798674771
 20
87.875310330463776
 42
-0.0254109591452737
 10
-492.57070276888192
 20
87.740021944499659
 10
-492.56845474696769
 20
87.736880396098854
 42
-0.0255528488288587
 10
-492.4710080681707
 20
87.584853341864758
 10
-492.46867696825444
 20
87.58077173025697
 42
-0.0252146793219466
 10
-492.38289594224477
 20
87.411269484258867
 10
-492.3805937030877
 20
87.406087402347111
 42
-0.0244265635950332
 10
-492.30793900932639
 20
87.21834083030113
 10
-492.29869260785802
 20
87.190475411963448
 42
-0.0231319612901441
 10
-492.25276982886578
 20
87.027174365161045
 42
-0.0112130424358655
 10
-492.2181338063275
 20
86.860970764972492
 10
-492.21693128121507
 20
86.85447417808507
 42
-0.0210527881237974
 10
-492.19124480584441
 20
86.673418532645542
 10
-492.18773421102236
 20
86.638012984096576
 42
-0.0190029892420948
 10
-492.17229273747773
 20
86.384477137822685
 10
-492.17148276103376
 20
86.349001523455286
 42
-0.0137974553663587
 10
-492.17303161386911
 20
86.023970116727739
 10
-492.17387706882488
 20
85.997851372128991
 42
-0.0081336634215635
 10
-492.1887364040474
 20
85.692503904529758
 42
-0.0073526923572074
 10
-492.21304493742184
 20
85.387755660246398
 10
-492.21430636120476
 20
85.374418985578586
 42
-0.0066886138691123
 10
-492.25004194725176
 20
85.043832942076961
 10
-492.25169903672116
 20
85.030211323089929
 42
-0.0061359187354589
 10
-492.29954963877162
 20
84.673447342992773
 10
-492.30158713984491
 20
84.659552540160689
 42
-0.0056698610064257
 10
-492.36223747061263
 20
84.276273971318716
 10
-492.36464290393502
 20
84.262114852091941
 42
-0.0052721077274325
 10
-492.43877510473425
 20
83.851987512416159
 10
-492.44153825357637
 20
83.837570877028043
 42
-0.0049289272178389
 10
-492.52983237167513
 20
83.40026236591163
 10
-492.53294486635895
 20
83.385593513089816
 42
-0.0047415956710722
 10
-492.63618285789227
 20
82.920796755675056
 10
-492.67095106825104
 20
82.770989660295982
 42
-0.0084404470902573
 10
-492.86096751182328
 20
82.01076563576332
 10
-492.86709419980855
 20
81.987901511611426
 42
-0.003963594025822
 10
-493.08854788409337
 20
81.186912647361154
 10
-493.10192467927209
 20
81.139981030772219
 42
-0.0072475040836964
 10
-493.36937156713418
 20
80.250761314385073
 10
-493.43958389396016
 20
80.029020964417384
 42
-0.0051345458828221
 10
-493.72634326602144
 20
79.154695776598828
 10
-493.74786953278749
 20
79.091269509473136
 42
-0.0019150016601997
 10
-494.00340293965564
 20
78.347720389242795
 10
-494.00987054405078
 20
78.329132924324611
 42
-0.0021524362752591
 10
-494.25834859511571
 20
77.624807102613318
 10
-494.26755901580918
 20
77.599053524320212
 42
-0.0024331286821355
 10
-494.50381427484814
 20
76.948454216193682
 10
-494.51286222739253
 20
76.923910909855991
 42
-0.0027449721789006
 10
-494.73747679823407
 20
76.324781030914892
 10
-494.74636680562458
 20
76.301458441067282
 42
-0.0031083229768936
 10
-494.95990929223626
 20
75.751534403482992
 10
-494.9686454239104
 20
75.729444687628799
 42
-0.0035311343281972
 10
-495.17168660950364
 20
75.226461561895121
 10
-495.18027194864936
 20
75.205618838389555
 42
-0.004024564094855
 10
-495.37338375244576
 20
74.747309515792381
 10
-495.38181986604746
 20
74.727730147723435
 42
-0.0046015135852065
 10
-495.56557615921258
 20
74.311825118078104
 10
-495.57386233703977
 20
74.29352797862839
 42
-0.0052768638270197
 10
-495.74883985599644
 20
73.917755094355698
 10
-495.75697206662267
 20
73.900761755813974
 42
-0.0060672675642431
 10
-495.92375167938934
 20
73.562846132698269
 10
-495.93172115986869
 20
73.547180873705273
 42
-0.006990464887062
 10
-496.09088955387239
 20
73.244845067037318
 10
-496.09868095348281
 20
73.230534517810668
 42
-0.0080637022766897
 10
-496.25083281382905
 20
72.961499214656897
 10
-496.25842184646001
 20
72.948571349056607
 42
-0.0093006455668021
 10
-496.40416252299178
 20
72.710556950553041
 10
-496.41151318973613
 20
72.699038981378834
 42
-0.0107060778052048
 10
-496.55146173317388
 20
72.489768664000849
 10
-496.55852350145148
 20
72.479683121437816
 42
-0.0122723111414096
 10
-496.69331721965165
 20
72.296889791946001
 10
-496.69364344320672
 20
72.296469404135038
 42
-0.0141836319624975
 10
-496.83722504617975
 20
72.121899646306815
 10
-496.84417280182925
 20
72.113924646044936
 42
-0.0175957477209704
 10
-496.9840789698664
 20
71.964303757637254
 42
-0.008046635967599
 10
-497.13154273489369
 20
71.821981229488856
 10
-497.17757727941409
 20
71.778960791394866
 42
-0.0269600260393713
 10
-497.43085752539696
 20
71.56663753288565
 10
-497.49742466169283
 20
71.516686118262683
 42
-0.017836283975439
 10
-497.73736915134987
 20
71.349668192009403
 10
-497.74461412235019
 20
71.344999679804602
 42
-0.0174650732649843
 10
-497.98095031979159
 20
71.204138714845385
 42
-0.0169240130164325
 10
-498.22641656565014
 20
71.079846455067525
 10
-498.27240272120713
 20
71.058484499500764
 42
-0.0318883036841571
 10
-498.62275357682671
 20
70.922146189990755
 10
-498.69111911199292
 20
70.900445569514858
 42
-0.0284435909900694
 10
-499.06716923828287
 20
70.8042281340405
 10
-499.10232739878097
 20
70.797334538212084
 42
-0.024390934101367
 10
-499.41577085970039
 20
70.751613507181901
 10
-499.46605158647122
 20
70.74676796028028
 42
-0.0196639292931297
 10
-499.68164716399878
 20
70.734519674766716
 10
-499.7334712351622
 20
70.733616414029996
 42
-0.0100501510684174
 10
-499.84589451682649
 20
70.733916812383086
 10
-499.87755437817231
 20
70.734637884268466
 42
-0.0019752031125971
 10
-499.92664671485193
 20
70.735950044478045
 10
-499.92940701807589
 20
70.736034736304418
 42
0.0065378751995034
 10
-499.97298359282883
 20
70.736801627519299
 42
-0.0167974694646982
 10
-500.0165144157599
 20
70.738461526045299
 10
-500.02059375502273
 20
70.738754536940291
 42
-0.008128327628095
 10
-500.072153552759
 20
70.743301530577952
 10
-500.08389312663979
 20
70.744529448156527
 42
-0.0126703440174502
 10
-500.15861142243284
 20
70.754264239227865
 10
-500.18139929011005
 20
70.757822495143273
 42
-0.0117852088436364
 10
-500.30093827594175
 20
70.779385490300257
 10
-500.35631872770546
 20
70.790729030534976
 42
-0.025177459229488
 10
-500.58316276671343
 20
70.849227039968
 10
-500.62788195656572
 20
70.863193859303635
 42
-0.0146525199886377
 10
-500.81427494410286
 20
70.927460386501366
 42
-0.0166929435857801
 10
-500.9962526002293
 20
71.003267519555834
 10
-501.0009092315027
 20
71.005392420169983
 42
-0.0191684358435658
 10
-501.18609286275108
 20
71.098628503959517
 10
-501.18942544850887
 20
71.100469751513288
 42
-0.0221181781812504
 10
-501.37273575241159
 20
71.212603249884452
 10
-501.37508555641955
 20
71.214187547875099
 42
-0.0254984685383273
 10
-501.55137570680472
 20
71.346598697844556
 10
-501.5738578545068
 20
71.365351006780941
 42
-0.0292492648804836
 10
-501.69862679334983
 20
71.482443806424044
 42
-0.015904895749946
 10
-501.81246679079999
 20
71.610463798023218
 10
-501.81378558137925
 20
71.612045411043141
 42
-0.0343813379565025
 10
-501.91642284300519
 20
71.753916736812101
 10
-501.94791437436618
 20
71.804420128906457
 42
-0.0369117275703514
 10
-502.03380687626361
 20
71.967897369855109
 42
-0.0191751379908458
 10
-502.10100026182056
 20
72.140301975860865
 10
-502.10276358558013
 20
72.145395320535954
 42
-0.0378178042227271
 10
-502.15255830436445
 20
72.334336096617861
 10
-502.15855360009459
 20
72.366896714814246
 42
-0.018484604647513
 10
-502.17927079938903
 20
72.508649535359154
 42
-0.0179866351314571
 10
-502.18960380446276
 20
72.65154034844096
 10
-502.18966024690849
 20
72.653098035052835
 42
-0.0085497186116584
 10
-502.19109252801229
 20
72.727971200062711
 42
-0.0085497186116584
  0
ENDBLK
  5
5B
100
AcDbEntity
  8
template
390
0
100
AcDbBlockEnd
  0
BLOCK
  5
5C
100
AcDbEntity
  8
notes
390
0
100
AcDbBlockBegin
  2
グループ-1
 70
               0
 10
0.0
 20
0.0
 30
0.0
  3
グループ-1
  1

  0
MTEXT
  5
5D
100
AcDbEntity
  8
0
390
0
 62
               7
100
AcDbMText
 10
-1330.4509612721238
 20
1484.5764220584447
 30
0.0
 40
24.432617187500004
 41
0.0
 71
               1
 72
               1
  1
※カウンタ-置きの場合も壁固定が必要です。\P
  7
ＭＳ ゴシック
 73
               1
 44
0.7828267384257843
  0
MTEXT
  5
5E
100
AcDbEntity
  8
0
390
0
 62
               7
100
AcDbMText
 10
-1330.4509612721238
 20
1629.6025307513778
 30
0.0
 40
24.432617187500004
 41
764.7717154610109
 71
               1
 72
               1
  1
※陶器製品には寸法公差があります。\P  洗面器の収め方をご確認の上、必ず現物を合わせて\P  カウンターに切込を行ってください。
  7
ＭＳゴシック
 73
               1
 44
1.0437689845677123
  0
ENDBLK
  5
5F
100
AcDbEntity
  8
notes
390
0
100
AcDbBlockEnd
  0
BLOCK
  5
60
100
AcDbEntity
  8
notes
390
0
100
AcDbBlockBegin
  2
*D4
 70
               1
 10
0.0
 20
0.0
 30
0.0
  3
*D4
  1

  0
LINE
  5
61
100
AcDbEntity
  8
0
370
              -2
390
0
  6
Continuous
 62
               0
100
AcDbLine
 10
-636.65756708437334
 20
813.0543197449424
 30
0.0
 11
-711.65756708437357
 21
813.0543197449424
 31
0.0
  0
LINE
  5
62
100
AcDbEntity
  8
0
370
              -2
390
0
  6
Continuous
 62
               0
100
AcDbLine
 10
-636.65756708437334
 20
713.0543197449424
 30
0.0
 11
-711.65756708437357
 21
713.0543197449424
 31
0.0
  0
LINE
  5
63
100
AcDbEntity
  8
0
370
              -2
390
0
  6
Continuous
 62
               0
100
AcDbLine
 10
-711.65756708437357
 20
813.0543197449424
 30
0.0
 11
-711.65756708437357
 21
713.0543197449424
 31
0.0
  0
CIRCLE
  5
64
102
{ACAD_REACTORS
330
65
102
}
100
AcDbEntity
  8
0
370
              -2
390
0
  6
Continuous
 62
               0
100
AcDbCircle
 10
-711.65756708437357
 20
813.0543197449424
 30
0.0
 40
1.9998779296875
  0
HATCH
  5
65
100
AcDbEntity
  8
0
370
              -2
390
0
  6
Continuous
 62
               0
100
AcDbHatch
 10
0.0
 20
0.0
 30
0.0
210
0.0
220
0.0
230
1.0
  2
SOLID
 70
               1
 71
               1
 91
        1
 92
        1
 93
        1
 72
               2
 10
-711.65756708437357
 20
813.0543197449424
 40
1.9998779296875
 50
0.0
 51
360.0
 73
               0
 97
        1
330
64
 75
               0
 76
               1
 98
        1
 10
0.0
 20
0.0
  0
CIRCLE
  5
66
102
{ACAD_REACTORS
330
67
102
}
100
AcDbEntity
  8
0
370
              -2
390
0
  6
Continuous
 62
               0
100
AcDbCircle
 10
-711.65756708437357
 20
713.0543197449424
 30
0.0
 40
1.9998779296875
  0
HATCH
  5
67
100
AcDbEntity
  8
0
370
              -2
390
0
  6
Continuous
 62
               0
100
AcDbHatch
 10
0.0
 20
0.0
 30
0.0
210
0.0
220
0.0
230
1.0
  2
SOLID
 70
               1
 71
               1
 91
        1
 92
        1
 93
        1
 72
               2
 10
-711.65756708437357
 20
713.0543197449424
 40
1.9998779296875
 50
0.0
 51
360.0
 73
               0
 97
        1
330
66
 75
               0
 76
               1
 98
        1
 10
0.0
 20
0.0
  0
MTEXT
  5
68
100
AcDbEntity
  8
0
390
0
 62
               0
100
AcDbMText
 10
-745.53518427187373
 20
739.24181806276692
 30
0.0
 40
24.432617187500004
 41
0.0
 71
               1
 72
               1
  1
100
  7
ＭＳゴシック
 11
0.0
 21
1.0
 31
0.0
 73
               1
 44
0.7828267384257843
  0
POINT
  5
69
100
AcDbEntity
  8
Defpoints
370
               0
390
0
 62
               0
100
AcDbPoint
 10
-611.65756708437334
 20
713.0543197449424
 30
0.0
  0
POINT
  5
6A
100
AcDbEntity
  8
Defpoints
370
               0
390
0
 62
               0
100
AcDbPoint
 10
-611.65756708437334
 20
813.0543197449424
 30
0.0
  0
POINT
  5
6B
100
AcDbEntity
  8
Defpoints
370
               0
390
0
 62
               0
100
AcDbPoint
 10
-711.65756708437357
 20
813.0543197449424
 30
0.0
  0
ENDBLK
  5
6C
100
AcDbEntity
  8
notes
390
0
100
AcDbBlockEnd
  0
BLOCK
  5
6D
100
AcDbEntity
  8
notes
390
0
100
AcDbBlockBegin
  2
*D5
 70
               1
 10
0.0
 20
0.0
 30
0.0
  3
*D5
  1

  0
LINE
  5
6E
100
AcDbEntity
  8
0
370
              -2
390
0
  6
Continuous
 62
               0
100
AcDbLine
 10
-636.65756708437334
 20
713.0543197449424
 30
0.0
 11
-711.65756708437357
 21
713.0543197449424
 31
0.0
  0
LINE
  5
6F
100
AcDbEntity
  8
0
370
              -2
390
0
  6
Continuous
 62
               0
100
AcDbLine
 10
-561.49071481985152
 20
453.05431974494354
 30
0.0
 11
-711.65756708437357
 21
453.05431974494354
 31
0.0
  0
LINE
  5
70
100
AcDbEntity
  8
0
370
              -2
390
0
  6
Continuous
 62
               0
100
AcDbLine
 10
-711.65756708437357
 20
713.0543197449424
 30
0.0
 11
-711.65756708437357
 21
453.05431974494354
 31
0.0
  0
CIRCLE
  5
71
102
{ACAD_REACTORS
330
72
102
}
100
AcDbEntity
  8
0
370
              -2
390
0
  6
Continuous
 62
               0
100
AcDbCircle
 10
-711.65756708437357
 20
713.0543197449424
 30
0.0
 40
1.9998779296875
  0
HATCH
  5
72
100
AcDbEntity
  8
0
370
              -2
390
0
  6
Continuous
 62
               0
100
AcDbHatch
 10
0.0
 20
0.0
 30
0.0
210
0.0
220
0.0
230
1.0
  2
SOLID
 70
               1
 71
               1
 91
        1
 92
        1
 93
        1
 72
               2
 10
-711.65756708437357
 20
713.0543197449424
 40
1.9998779296875
 50
0.0
 51
360.0
 73
               0
 97
        1
330
71
 75
               0
 76
               1
 98
        1
 10
0.0
 20
0.0
  0
CIRCLE
  5
73
102
{ACAD_REACTORS
330
74
102
}
100
AcDbEntity
  8
0
370
              -2
390
0
  6
Continuous
 62
               0
100
AcDbCircle
 10
-711.65756708437357
 20
453.05431974494354
 30
0.0
 40
1.9998779296875
  0
HATCH
  5
74
100
AcDbEntity
  8
0
370
              -2
390
0
  6
Continuous
 62
               0
100
AcDbHatch
 10
0.0
 20
0.0
 30
0.0
210
0.0
220
0.0
230
1.0
  2
SOLID
 70
               1
 71
               1
 91
        1
 92
        1
 93
        1
 72
               2
 10
-711.65756708437357
 20
453.05431974494354
 40
1.9998779296875
 50
0.0
 51
360.0
 73
               0
 97
        1
330
73
 75
               0
 76
               1
 98
        1
 10
0.0
 20
0.0
  0
MTEXT
  5
75
100
AcDbEntity
  8
0
390
0
 62
               0
100
AcDbMText
 10
-745.53518427187373
 20
559.24181806276738
 30
0.0
 40
24.432617187500004
 41
0.0
 71
               1
 72
               1
  1
260
  7
ＭＳゴシック
 11
0.0
 21
1.0
 31
0.0
 73
               1
 44
0.7828267384257843
  0
POINT
  5
76
100
AcDbEntity
  8
Defpoints
370
               0
390
0
 62
               0
100
AcDbPoint
 10
-536.49071481985152
 20
453.05431974494354
 30
0.0
  0
POINT
  5
77
100
AcDbEntity
  8
Defpoints
370
               0
390
0
 62
               0
100
AcDbPoint
 10
-611.65756708437334
 20
713.0543197449424
 30
0.0
  0
POINT
  5
78
100
AcDbEntity
  8
Defpoints
370
               0
390
0
 62
               0
100
AcDbPoint
 10
-711.65756708437357
 20
713.0543197449424
 30
0.0
  0
ENDBLK
  5
79
100
AcDbEntity
  8
notes
390
0
100
AcDbBlockEnd
  0
BLOCK
  5
7A
100
AcDbEntity
  8
notes
390
0
100
AcDbBlockBegin
  2
*D6
 70
               1
 10
0.0
 20
0.0
 30
0.0
  3
*D6
  1

  0
LINE
  5
7B
100
AcDbEntity
  8
0
370
              -2
390
0
  6
Continuous
 62
               0
100
AcDbLine
 10
-584.11913815448111
 20
-437.86787813860917
 30
0.0
 11
-711.65756708437357
 21
-437.86787813860917
 31
0.0
  0
LINE
  5
7C
100
AcDbEntity
  8
0
370
              -2
390
0
  6
Continuous
 62
               0
100
AcDbLine
 10
-631.60654136269113
 20
-402.86787813860906
 30
0.0
 11
-711.65756708437357
 21
-402.86787813860906
 31
0.0
  0
LINE
  5
7D
100
AcDbEntity
  8
0
370
              -2
390
0
  6
Continuous
 62
               0
100
AcDbLine
 10
-711.65756708437357
 20
-437.86787813860917
 30
0.0
 11
-711.65756708437357
 21
-402.86787813860906
 31
0.0
  0
CIRCLE
  5
7E
102
{ACAD_REACTORS
330
7F
102
}
100
AcDbEntity
  8
0
370
              -2
390
0
  6
Continuous
 62
               0
100
AcDbCircle
 10
-711.65756708437357
 20
-437.86787813860917
 30
0.0
 40
1.9998779296875
  0
HATCH
  5
7F
100
AcDbEntity
  8
0
370
              -2
390
0
  6
Continuous
 62
               0
100
AcDbHatch
 10
0.0
 20
0.0
 30
0.0
210
0.0
220
0.0
230
1.0
  2
SOLID
 70
               1
 71
               1
 91
        1
 92
        1
 93
        1
 72
               2
 10
-711.65756708437357
 20
-437.86787813860917
 40
1.9998779296875
 50
0.0
 51
360.0
 73
               0
 97
        1
330
7E
 75
               0
 76
               1
 98
        1
 10
0.0
 20
0.0
  0
CIRCLE
  5
80
102
{ACAD_REACTORS
330
81
102
}
100
AcDbEntity
  8
0
370
              -2
390
0
  6
Continuous
 62
               0
100
AcDbCircle
 10
-711.65756708437357
 20
-402.86787813860906
 30
0.0
 40
1.9998779296875
  0
HATCH
  5
81
100
AcDbEntity
  8
0
370
              -2
390
0
  6
Continuous
 62
               0
100
AcDbHatch
 10
0.0
 20
0.0
 30
0.0
210
0.0
220
0.0
230
1.0
  2
SOLID
 70
               1
 71
               1
 91
        1
 92
        1
 93
        1
 72
               2
 10
-711.65756708437357
 20
-402.86787813860906
 40
1.9998779296875
 50
0.0
 51
360.0
 73
               0
 97
        1
330
80
 75
               0
 76
               1
 98
        1
 10
0.0
 20
0.0
  0
MTEXT
  5
82
100
AcDbEntity
  8
0
390
0
 62
               0
100
AcDbMText
 10
-745.53518427187373
 20
-436.24287813860906
 30
0.0
 40
24.432617187500004
 41
0.0
 71
               1
 72
               1
  1
35
  7
ＭＳゴシック
 11
0.0
 21
1.0
 31
0.0
 73
               1
 44
0.7828267384257843
  0
POINT
  5
83
100
AcDbEntity
  8
Defpoints
370
               0
390
0
 62
               0
100
AcDbPoint
 10
-606.60654136269113
 20
-402.86787813860906
 30
0.0
  0
POINT
  5
84
100
AcDbEntity
  8
Defpoints
370
               0
390
0
 62
               0
100
AcDbPoint
 10
-559.11913815448111
 20
-437.86787813860917
 30
0.0
  0
POINT
  5
85
100
AcDbEntity
  8
Defpoints
370
               0
390
0
 62
               0
100
AcDbPoint
 10
-711.65756708437357
 20
-437.86787813860917
 30
0.0
  0
ENDBLK
  5
86
100
AcDbEntity
  8
notes
390
0
100
AcDbBlockEnd
  0
BLOCK
  5
87
100
AcDbEntity
  8
notes
390
0
100
AcDbBlockBegin
  2
*D7
 70
               1
 10
0.0
 20
0.0
 30
0.0
  3
*D7
  1

  0
LINE
  5
88
100
AcDbEntity
  8
0
370
              -2
390
0
  6
Continuous
 62
               0
100
AcDbLine
 10
-286.6575670843738
 20
813.0543197449424
 30
0.0
 11
-211.6575670843738
 21
813.0543197449424
 31
0.0
  0
LINE
  5
89
100
AcDbEntity
  8
0
370
              -2
390
0
  6
Continuous
 62
               0
100
AcDbLine
 10
-409.61197918286621
 20
433.06826849304457
 30
0.0
 11
-211.6575670843738
 21
433.06826849304457
 31
0.0
  0
LINE
  5
8A
100
AcDbEntity
  8
0
370
              -2
390
0
  6
Continuous
 62
               0
100
AcDbLine
 10
-211.6575670843738
 20
813.0543197449424
 30
0.0
 11
-211.6575670843738
 21
433.06826849304457
 31
0.0
  0
CIRCLE
  5
8B
102
{ACAD_REACTORS
330
8C
102
}
100
AcDbEntity
  8
0
370
              -2
390
0
  6
Continuous
 62
               0
100
AcDbCircle
 10
-211.6575670843738
 20
813.0543197449424
 30
0.0
 40
1.9998779296875
  0
HATCH
  5
8C
100
AcDbEntity
  8
0
370
              -2
390
0
  6
Continuous
 62
               0
100
AcDbHatch
 10
0.0
 20
0.0
 30
0.0
210
0.0
220
0.0
230
1.0
  2
SOLID
 70
               1
 71
               1
 91
        1
 92
        1
 93
        1
 72
               2
 10
-211.6575670843738
 20
813.0543197449424
 40
1.9998779296875
 50
0.0
 51
360.0
 73
               0
 97
        1
330
8B
 75
               0
 76
               1
 98
        1
 10
0.0
 20
0.0
  0
CIRCLE
  5
8D
102
{ACAD_REACTORS
330
8E
102
}
100
AcDbEntity
  8
0
370
              -2
390
0
  6
Continuous
 62
               0
100
AcDbCircle
 10
-211.6575670843738
 20
433.06826849304457
 30
0.0
 40
1.9998779296875
  0
HATCH
  5
8E
100
AcDbEntity
  8
0
370
              -2
390
0
  6
Continuous
 62
               0
100
AcDbHatch
 10
0.0
 20
0.0
 30
0.0
210
0.0
220
0.0
230
1.0
  2
SOLID
 70
               1
 71
               1
 91
        1
 92
        1
 93
        1
 72
               2
 10
-211.6575670843738
 20
433.06826849304457
 40
1.9998779296875
 50
0.0
 51
360.0
 73
               0
 97
        1
330
8D
 75
               0
 76
               1
 98
        1
 10
0.0
 20
0.0
  0
MTEXT
  5
8F
100
AcDbEntity
  8
0
390
0
 62
               0
100
AcDbMText
 10
-245.53518427187373
 20
599.24879243681789
 30
0.0
 40
24.432617187500004
 41
0.0
 71
               1
 72
               1
  1
380
  7
ＭＳゴシック
 11
0.0
 21
1.0
 31
0.0
 73
               1
 44
0.7828267384257843
  0
POINT
  5
90
100
AcDbEntity
  8
Defpoints
370
               0
390
0
 62
               0
100
AcDbPoint
 10
-434.61197918286621
 20
433.06826849304457
 30
0.0
  0
POINT
  5
91
100
AcDbEntity
  8
Defpoints
370
               0
390
0
 62
               0
100
AcDbPoint
 10
-311.6575670843738
 20
813.0543197449424
 30
0.0
  0
POINT
  5
92
100
AcDbEntity
  8
Defpoints
370
               0
390
0
 62
               0
100
AcDbPoint
 10
-211.6575670843738
 20
813.0543197449424
 30
0.0
  0
ENDBLK
  5
93
100
AcDbEntity
  8
notes
390
0
100
AcDbBlockEnd
  0
BLOCK
  5
94
100
AcDbEntity
  8
notes
390
0
100
AcDbBlockBegin
  2
*D8
 70
               1
 10
0.0
 20
0.0
 30
0.0
  3
*D8
  1

  0
LINE
  5
95
100
AcDbEntity
  8
0
370
              -2
390
0
  6
Continuous
 62
               0
100
AcDbLine
 10
254.93045967472335
 20
-402.86787813860906
 30
0.0
 11
174.93150101598212
 21
-402.86787813860906
 31
0.0
  0
LINE
  5
96
100
AcDbEntity
  8
0
370
              -2
390
0
  6
Continuous
 62
               0
100
AcDbLine
 10
302.39525737172676
 20
-552.86787813860917
 30
0.0
 11
174.93150101598212
 21
-552.86787813860917
 31
0.0
  0
LINE
  5
97
100
AcDbEntity
  8
0
370
              -2
390
0
  6
Continuous
 62
               0
100
AcDbLine
 10
174.93150101598212
 20
-402.86787813860906
 30
0.0
 11
174.93150101598212
 21
-552.86787813860917
 31
0.0
  0
CIRCLE
  5
98
102
{ACAD_REACTORS
330
99
102
}
100
AcDbEntity
  8
0
370
              -2
390
0
  6
Continuous
 62
               0
100
AcDbCircle
 10
174.93150101598212
 20
-402.86787813860906
 30
0.0
 40
1.9998779296875
  0
HATCH
  5
99
100
AcDbEntity
  8
0
370
              -2
390
0
  6
Continuous
 62
               0
100
AcDbHatch
 10
0.0
 20
0.0
 30
0.0
210
0.0
220
0.0
230
1.0
  2
SOLID
 70
               1
 71
               1
 91
        1
 92
        1
 93
        1
 72
               2
 10
174.93150101598212
 20
-402.86787813860906
 40
1.9998779296875
 50
0.0
 51
360.0
 73
               0
 97
        1
330
98
 75
               0
 76
               1
 98
        1
 10
0.0
 20
0.0
  0
CIRCLE
  5
9A
102
{ACAD_REACTORS
330
9B
102
}
100
AcDbEntity
  8
0
370
              -2
390
0
  6
Continuous
 62
               0
100
AcDbCircle
 10
174.93150101598212
 20
-552.86787813860917
 30
0.0
 40
1.9998779296875
  0
HATCH
  5
9B
100
AcDbEntity
  8
0
370
              -2
390
0
  6
Continuous
 62
               0
100
AcDbHatch
 10
0.0
 20
0.0
 30
0.0
210
0.0
220
0.0
230
1.0
  2
SOLID
 70
               1
 71
               1
 91
        1
 92
        1
 93
        1
 72
               2
 10
174.93150101598212
 20
-552.86787813860917
 40
1.9998779296875
 50
0.0
 51
360.0
 73
               0
 97
        1
330
9A
 75
               0
 76
               1
 98
        1
 10
0.0
 20
0.0
  0
MTEXT
  5
9C
100
AcDbEntity
  8
0
390
0
 62
               0
100
AcDbMText
 10
141.05388382848218
 20
-501.68037982078454
 30
0.0
 40
24.432617187500004
 41
0.0
 71
               1
 72
               1
  1
150
  7
ＭＳゴシック
 11
0.0
 21
1.0
 31
0.0
 73
               1
 44
0.7828267384257843
  0
POINT
  5
9D
100
AcDbEntity
  8
Defpoints
370
               0
390
0
 62
               0
100
AcDbPoint
 10
327.39525737172676
 20
-552.86787813860917
 30
0.0
  0
POINT
  5
9E
100
AcDbEntity
  8
Defpoints
370
               0
390
0
 62
               0
100
AcDbPoint
 10
279.93045967472335
 20
-402.86787813860906
 30
0.0
  0
POINT
  5
9F
100
AcDbEntity
  8
Defpoints
370
               0
390
0
 62
               0
100
AcDbPoint
 10
174.93150101598212
 20
-402.86787813860906
 30
0.0
  0
ENDBLK
  5
A0
100
AcDbEntity
  8
notes
390
0
100
AcDbBlockEnd
  0
BLOCK
  5
A1
100
AcDbEntity
  8
notes
390
0
100
AcDbBlockBegin
  2
*D9
 70
               1
 10
0.0
 20
0.0
 30
0.0
  3
*D9
  1

  0
LINE
  5
A2
100
AcDbEntity
  8
0
370
              -2
390
0
  6
Continuous
 62
               0
100
AcDbLine
 10
370.28409958229054
 20
518.05431974494354
 30
0.0
 11
370.28409958229054
 21
443.05431974494331
 31
0.0
  0
LINE
  5
A3
100
AcDbEntity
  8
0
370
              -2
390
0
  6
Continuous
 62
               0
100
AcDbLine
 10
535.28409958229076
 20
518.05431974494354
 30
0.0
 11
535.28409958229076
 21
443.05431974494331
 31
0.0
  0
LINE
  5
A4
100
AcDbEntity
  8
0
370
              -2
390
0
  6
Continuous
 62
               0
100
AcDbLine
 10
370.28409958229054
 20
443.05431974494331
 30
0.0
 11
535.28409958229076
 21
443.05431974494331
 31
0.0
  0
CIRCLE
  5
A5
102
{ACAD_REACTORS
330
A6
102
}
100
AcDbEntity
  8
0
370
              -2
390
0
  6
Continuous
 62
               0
100
AcDbCircle
 10
370.28409958229054
 20
443.05431974494331
 30
0.0
 40
1.9998779296875
  0
HATCH
  5
A6
100
AcDbEntity
  8
0
370
              -2
390
0
  6
Continuous
 62
               0
100
AcDbHatch
 10
0.0
 20
0.0
 30
0.0
210
0.0
220
0.0
230
1.0
  2
SOLID
 70
               1
 71
               1
 91
        1
 92
        1
 93
        1
 72
               2
 10
370.28409958229054
 20
443.05431974494331
 40
1.9998779296875
 50
0.0
 51
360.0
 73
               0
 97
        1
330
A5
 75
               0
 76
               1
 98
        1
 10
0.0
 20
0.0
  0
CIRCLE
  5
A7
102
{ACAD_REACTORS
330
A8
102
}
100
AcDbEntity
  8
0
370
              -2
390
0
  6
Continuous
 62
               0
100
AcDbCircle
 10
535.28409958229076
 20
443.05431974494331
 30
0.0
 40
1.9998779296875
  0
HATCH
  5
A8
100
AcDbEntity
  8
0
370
              -2
390
0
  6
Continuous
 62
               0
100
AcDbHatch
 10
0.0
 20
0.0
 30
0.0
210
0.0
220
0.0
230
1.0
  2
SOLID
 70
               1
 71
               1
 91
        1
 92
        1
 93
        1
 72
               2
 10
535.28409958229076
 20
443.05431974494331
 40
1.9998779296875
 50
0.0
 51
360.0
 73
               0
 97
        1
330
A7
 75
               0
 76
               1
 98
        1
 10
0.0
 20
0.0
  0
MTEXT
  5
A9
100
AcDbEntity
  8
0
390
0
 62
               0
100
AcDbMText
 10
428.97159790011517
 20
476.93193693244325
 30
0.0
 40
24.432617187500004
 41
0.0
 71
               1
 72
               1
  1
165
  7
ＭＳゴシック
 73
               1
 44
0.7828267384257843
  0
POINT
  5
AA
100
AcDbEntity
  8
Defpoints
370
               0
390
0
 62
               0
100
AcDbPoint
 10
535.28409958229076
 20
543.05431974494354
 30
0.0
  0
POINT
  5
AB
100
AcDbEntity
  8
Defpoints
370
               0
390
0
 62
               0
100
AcDbPoint
 10
370.28409958229054
 20
543.05431974494354
 30
0.0
  0
POINT
  5
AC
100
AcDbEntity
  8
Defpoints
370
               0
390
0
 62
               0
100
AcDbPoint
 10
370.28409958229054
 20
443.05431974494331
 30
0.0
  0
ENDBLK
  5
AD
100
AcDbEntity
  8
notes
390
0
100
AcDbBlockEnd
  0
BLOCK
  5
AE
100
AcDbEntity
  8
notes
390
0
100
AcDbBlockBegin
  2
*D10
 70
               1
 10
0.0
 20
0.0
 30
0.0
  3
*D10
  1

  0
LINE
  5
AF
100
AcDbEntity
  8
0
370
              -2
390
0
  6
Continuous
 62
               0
100
AcDbLine
 10
560.28409958229076
 20
543.05431974494354
 30
0.0
 11
702.78409958229247
 21
543.05431974494354
 31
0.0
  0
LINE
  5
B0
100
AcDbEntity
  8
0
370
              -2
390
0
  6
Continuous
 62
               0
100
AcDbLine
 10
560.28409958229076
 20
813.0543197449424
 30
0.0
 11
702.78409958229247
 21
813.0543197449424
 31
0.0
  0
LINE
  5
B1
100
AcDbEntity
  8
0
370
              -2
390
0
  6
Continuous
 62
               0
100
AcDbLine
 10
702.78409958229247
 20
543.05431974494354
 30
0.0
 11
702.78409958229247
 21
813.0543197449424
 31
0.0
  0
CIRCLE
  5
B2
102
{ACAD_REACTORS
330
B3
102
}
100
AcDbEntity
  8
0
370
              -2
390
0
  6
Continuous
 62
               0
100
AcDbCircle
 10
702.78409958229247
 20
543.05431974494354
 30
0.0
 40
1.9998779296875
  0
HATCH
  5
B3
100
AcDbEntity
  8
0
370
              -2
390
0
  6
Continuous
 62
               0
100
AcDbHatch
 10
0.0
 20
0.0
 30
0.0
210
0.0
220
0.0
230
1.0
  2
SOLID
 70
               1
 71
               1
 91
        1
 92
        1
 93
        1
 72
               2
 10
702.78409958229247
 20
543.05431974494354
 40
1.9998779296875
 50
0.0
 51
360.0
 73
               0
 97
        1
330
B2
 75
               0
 76
               1
 98
        1
 10
0.0
 20
0.0
  0
CIRCLE
  5
B4
102
{ACAD_REACTORS
330
B5
102
}
100
AcDbEntity
  8
0
370
              -2
390
0
  6
Continuous
 62
               0
100
AcDbCircle
 10
702.78409958229247
 20
813.0543197449424
 30
0.0
 40
1.9998779296875
  0
HATCH
  5
B5
100
AcDbEntity
  8
0
370
              -2
390
0
  6
Continuous
 62
               0
100
AcDbHatch
 10
0.0
 20
0.0
 30
0.0
210
0.0
220
0.0
230
1.0
  2
SOLID
 70
               1
 71
               1
 91
        1
 92
        1
 93
        1
 72
               2
 10
702.78409958229247
 20
813.0543197449424
 40
1.9998779296875
 50
0.0
 51
360.0
 73
               0
 97
        1
330
B4
 75
               0
 76
               1
 98
        1
 10
0.0
 20
0.0
  0
MTEXT
  5
B6
100
AcDbEntity
  8
0
390
0
 62
               0
100
AcDbMText
 10
668.90648239479242
 20
654.24181806276738
 30
0.0
 40
24.432617187500004
 41
0.0
 71
               1
 72
               1
  1
270
  7
ＭＳゴシック
 11
0.0
 21
1.0
 31
0.0
 73
               1
 44
0.7828267384257843
  0
POINT
  5
B7
100
AcDbEntity
  8
Defpoints
370
               0
390
0
 62
               0
100
AcDbPoint
 10
535.28409958229076
 20
813.0543197449424
 30
0.0
  0
POINT
  5
B8
100
AcDbEntity
  8
Defpoints
370
               0
390
0
 62
               0
100
AcDbPoint
 10
535.28409958229076
 20
543.05431974494354
 30
0.0
  0
POINT
  5
B9
100
AcDbEntity
  8
Defpoints
370
               0
390
0
 62
               0
100
AcDbPoint
 10
702.78409958229247
 20
543.05431974494354
 30
0.0
  0
ENDBLK
  5
BA
100
AcDbEntity
  8
notes
390
0
100
AcDbBlockEnd
  0
BLOCK
  5
BB
100
AcDbEntity
  8
notes
390
0
100
AcDbBlockBegin
  2
*D11
 70
               1
 10
0.0
 20
0.0
 30
0.0
  3
*D11
  1

  0
LINE
  5
BC
100
AcDbEntity
  8
0
370
              -2
390
0
  6
Continuous
 62
               0
100
AcDbLine
 10
-611.65756708437334
 20
838.0543197449424
 30
0.0
 11
-611.65756708437334
 21
913.0543197449424
 31
0.0
  0
LINE
  5
BD
100
AcDbEntity
  8
0
370
              -2
390
0
  6
Continuous
 62
               0
100
AcDbLine
 10
-311.6575670843738
 20
838.0543197449424
 30
0.0
 11
-311.6575670843738
 21
913.0543197449424
 31
0.0
  0
LINE
  5
BE
100
AcDbEntity
  8
0
370
              -2
390
0
  6
Continuous
 62
               0
100
AcDbLine
 10
-611.65756708437334
 20
913.0543197449424
 30
0.0
 11
-311.6575670843738
 21
913.0543197449424
 31
0.0
  0
CIRCLE
  5
BF
102
{ACAD_REACTORS
330
C0
102
}
100
AcDbEntity
  8
0
370
              -2
390
0
  6
Continuous
 62
               0
100
AcDbCircle
 10
-611.65756708437334
 20
913.0543197449424
 30
0.0
 40
1.9998779296875
  0
HATCH
  5
C0
100
AcDbEntity
  8
0
370
              -2
390
0
  6
Continuous
 62
               0
100
AcDbHatch
 10
0.0
 20
0.0
 30
0.0
210
0.0
220
0.0
230
1.0
  2
SOLID
 70
               1
 71
               1
 91
        1
 92
        1
 93
        1
 72
               2
 10
-611.65756708437334
 20
913.0543197449424
 40
1.9998779296875
 50
0.0
 51
360.0
 73
               0
 97
        1
330
BF
 75
               0
 76
               1
 98
        1
 10
0.0
 20
0.0
  0
CIRCLE
  5
C1
102
{ACAD_REACTORS
330
C2
102
}
100
AcDbEntity
  8
0
370
              -2
390
0
  6
Continuous
 62
               0
100
AcDbCircle
 10
-311.6575670843738
 20
913.0543197449424
 30
0.0
 40
1.9998779296875
  0
HATCH
  5
C2
100
AcDbEntity
  8
0
370
              -2
390
0
  6
Continuous
 62
               0
100
AcDbHatch
 10
0.0
 20
0.0
 30
0.0
210
0.0
220
0.0
230
1.0
  2
SOLID
 70
               1
 71
               1
 91
        1
 92
        1
 93
        1
 72
               2
 10
-311.6575670843738
 20
913.0543197449424
 40
1.9998779296875
 50
0.0
 51
360.0
 73
               0
 97
        1
330
C1
 75
               0
 76
               1
 98
        1
 10
0.0
 20
0.0
  0
MTEXT
  5
C3
100
AcDbEntity
  8
0
390
0
 62
               0
100
AcDbMText
 10
-485.47006876654905
 20
946.93193693244257
 30
0.0
 40
24.432617187500004
 41
0.0
 71
               1
 72
               1
  1
300
  7
ＭＳゴシック
 73
               1
 44
0.7828267384257843
  0
POINT
  5
C4
100
AcDbEntity
  8
Defpoints
370
               0
390
0
 62
               0
100
AcDbPoint
 10
-311.6575670843738
 20
813.0543197449424
 30
0.0
  0
POINT
  5
C5
100
AcDbEntity
  8
Defpoints
370
               0
390
0
 62
               0
100
AcDbPoint
 10
-611.65756708437334
 20
813.0543197449424
 30
0.0
  0
POINT
  5
C6
100
AcDbEntity
  8
Defpoints
370
               0
390
0
 62
               0
100
AcDbPoint
 10
-611.65756708437334
 20
913.0543197449424
 30
0.0
  0
ENDBLK
  5
C7
100
AcDbEntity
  8
notes
390
0
100
AcDbBlockEnd
  0
BLOCK
  5
C8
100
AcDbEntity
  8
notes
390
0
100
AcDbBlockBegin
  2
*D12
 70
               1
 10
0.0
 20
0.0
 30
0.0
  3
*D12
  1

  0
LINE
  5
C9
100
AcDbEntity
  8
0
370
              -2
390
0
  6
Continuous
 62
               0
100
AcDbLine
 10
-509.15756708437357
 20
-392.90958977943728
 30
0.0
 11
-509.15756708437357
 21
-302.90958977943683
 31
0.0
  0
LINE
  5
CA
100
AcDbEntity
  8
0
370
              -2
390
0
  6
Continuous
 62
               0
100
AcDbLine
 10
-414.15756708437357
 20
-392.86787813860929
 30
0.0
 11
-414.15756708437357
 21
-302.90958977943683
 31
0.0
  0
LINE
  5
CB
100
AcDbEntity
  8
0
370
              -2
390
0
  6
Continuous
 62
               0
100
AcDbLine
 10
-509.15756708437357
 20
-302.90958977943683
 30
0.0
 11
-414.15756708437357
 21
-302.90958977943683
 31
0.0
  0
CIRCLE
  5
CC
102
{ACAD_REACTORS
330
CD
102
}
100
AcDbEntity
  8
0
370
              -2
390
0
  6
Continuous
 62
               0
100
AcDbCircle
 10
-509.15756708437357
 20
-302.90958977943683
 30
0.0
 40
1.9998779296875
  0
HATCH
  5
CD
100
AcDbEntity
  8
0
370
              -2
390
0
  6
Continuous
 62
               0
100
AcDbHatch
 10
0.0
 20
0.0
 30
0.0
210
0.0
220
0.0
230
1.0
  2
SOLID
 70
               1
 71
               1
 91
        1
 92
        1
 93
        1
 72
               2
 10
-509.15756708437357
 20
-302.90958977943683
 40
1.9998779296875
 50
0.0
 51
360.0
 73
               0
 97
        1
330
CC
 75
               0
 76
               1
 98
        1
 10
0.0
 20
0.0
  0
CIRCLE
  5
CE
102
{ACAD_REACTORS
330
CF
102
}
100
AcDbEntity
  8
0
370
              -2
390
0
  6
Continuous
 62
               0
100
AcDbCircle
 10
-414.15756708437357
 20
-302.90958977943683
 30
0.0
 40
1.9998779296875
  0
HATCH
  5
CF
100
AcDbEntity
  8
0
370
              -2
390
0
  6
Continuous
 62
               0
100
AcDbHatch
 10
0.0
 20
0.0
 30
0.0
210
0.0
220
0.0
230
1.0
  2
SOLID
 70
               1
 71
               1
 91
        1
 92
        1
 93
        1
 72
               2
 10
-414.15756708437357
 20
-302.90958977943683
 40
1.9998779296875
 50
0.0
 51
360.0
 73
               0
 97
        1
330
CE
 75
               0
 76
               1
 98
        1
 10
0.0
 20
0.0
  0
MTEXT
  5
D0
100
AcDbEntity
  8
0
390
0
 62
               0
100
AcDbMText
 10
-477.53256708437357
 20
-269.03197259193689
 30
0.0
 40
24.432617187500004
 41
0.0
 71
               1
 72
               1
  1
95
  7
ＭＳゴシック
 73
               1
 44
0.7828267384257843
  0
POINT
  5
D1
100
AcDbEntity
  8
Defpoints
370
               0
390
0
 62
               0
100
AcDbPoint
 10
-414.15756708437357
 20
-417.86787813860917
 30
0.0
  0
POINT
  5
D2
100
AcDbEntity
  8
Defpoints
370
               0
390
0
 62
               0
100
AcDbPoint
 10
-509.15756708437357
 20
-417.90958977943717
 30
0.0
  0
POINT
  5
D3
100
AcDbEntity
  8
Defpoints
370
               0
390
0
 62
               0
100
AcDbPoint
 10
-509.15756708437357
 20
-302.90958977943683
 30
0.0
  0
ENDBLK
  5
D4
100
AcDbEntity
  8
notes
390
0
100
AcDbBlockEnd
  0
BLOCK
  5
D5
100
AcDbEntity
  8
notes
390
0
100
AcDbBlockBegin
  2
*D13
 70
               1
 10
0.0
 20
0.0
 30
0.0
  3
*D13
  1

  0
LINE
  5
D6
100
AcDbEntity
  8
0
370
              -2
390
0
  6
Continuous
 62
               0
100
AcDbLine
 10
654.87943395304364
 20
-572.86787813860917
 30
0.0
 11
654.87943395304364
 21
-652.86787813860929
 31
0.0
  0
LINE
  5
D7
100
AcDbEntity
  8
0
370
              -2
390
0
  6
Continuous
 62
               0
100
AcDbLine
 10
424.87943395304285
 20
-572.86787813860917
 30
0.0
 11
424.87943395304285
 21
-652.86787813860929
 31
0.0
  0
LINE
  5
D8
100
AcDbEntity
  8
0
370
              -2
390
0
  6
Continuous
 62
               0
100
AcDbLine
 10
654.87943395304364
 20
-652.86787813860929
 30
0.0
 11
424.87943395304285
 21
-652.86787813860929
 31
0.0
  0
CIRCLE
  5
D9
102
{ACAD_REACTORS
330
DA
102
}
100
AcDbEntity
  8
0
370
              -2
390
0
  6
Continuous
 62
               0
100
AcDbCircle
 10
654.87943395304364
 20
-652.86787813860929
 30
0.0
 40
1.9998779296875
  0
HATCH
  5
DA
100
AcDbEntity
  8
0
370
              -2
390
0
  6
Continuous
 62
               0
100
AcDbHatch
 10
0.0
 20
0.0
 30
0.0
210
0.0
220
0.0
230
1.0
  2
SOLID
 70
               1
 71
               1
 91
        1
 92
        1
 93
        1
 72
               2
 10
654.87943395304364
 20
-652.86787813860929
 40
1.9998779296875
 50
0.0
 51
360.0
 73
               0
 97
        1
330
D9
 75
               0
 76
               1
 98
        1
 10
0.0
 20
0.0
  0
CIRCLE
  5
DB
102
{ACAD_REACTORS
330
DC
102
}
100
AcDbEntity
  8
0
370
              -2
390
0
  6
Continuous
 62
               0
100
AcDbCircle
 10
424.87943395304285
 20
-652.86787813860929
 30
0.0
 40
1.9998779296875
  0
HATCH
  5
DC
100
AcDbEntity
  8
0
370
              -2
390
0
  6
Continuous
 62
               0
100
AcDbHatch
 10
0.0
 20
0.0
 30
0.0
210
0.0
220
0.0
230
1.0
  2
SOLID
 70
               1
 71
               1
 91
        1
 92
        1
 93
        1
 72
               2
 10
424.87943395304285
 20
-652.86787813860929
 40
1.9998779296875
 50
0.0
 51
360.0
 73
               0
 97
        1
330
DB
 75
               0
 76
               1
 98
        1
 10
0.0
 20
0.0
  0
MTEXT
  5
DD
100
AcDbEntity
  8
0
390
0
 62
               0
100
AcDbMText
 10
516.06693227086771
 20
-618.99026095110924
 30
0.0
 40
24.432617187500004
 41
0.0
 71
               1
 72
               1
  1
230
  7
ＭＳゴシック
 73
               1
 44
0.7828267384257843
  0
POINT
  5
DE
100
AcDbEntity
  8
Defpoints
370
               0
390
0
 62
               0
100
AcDbPoint
 10
424.87943395304285
 20
-547.86787813860917
 30
0.0
  0
POINT
  5
DF
100
AcDbEntity
  8
Defpoints
370
               0
390
0
 62
               0
100
AcDbPoint
 10
654.87943395304364
 20
-547.86787813860917
 30
0.0
  0
POINT
  5
E0
100
AcDbEntity
  8
Defpoints
370
               0
390
0
 62
               0
100
AcDbPoint
 10
654.87943395304364
 20
-652.86787813860929
 30
0.0
  0
ENDBLK
  5
E1
100
AcDbEntity
  8
notes
390
0
100
AcDbBlockEnd
  0
BLOCK
  5
E2
100
AcDbEntity
  8
notes
390
0
100
AcDbBlockBegin
  2
*D14
 70
               1
 10
0.0
 20
0.0
 30
0.0
  3
*D14
  1

  0
LINE
  5
E3
100
AcDbEntity
  8
0
370
              -2
390
0
  6
Continuous
 62
               0
100
AcDbLine
 10
654.87943395304364
 20
-382.86787813860906
 30
0.0
 11
654.87943395304364
 21
-302.86787813860883
 31
0.0
  0
LINE
  5
E4
100
AcDbEntity
  8
0
370
              -2
390
0
  6
Continuous
 62
               0
100
AcDbLine
 10
589.87943395304364
 20
-377.86787813860906
 30
0.0
 11
589.87943395304364
 21
-302.86787813860883
 31
0.0
  0
LINE
  5
E5
100
AcDbEntity
  8
0
370
              -2
390
0
  6
Continuous
 62
               0
100
AcDbLine
 10
654.87943395304364
 20
-302.86787813860883
 30
0.0
 11
589.87943395304364
 21
-302.86787813860883
 31
0.0
  0
CIRCLE
  5
E6
102
{ACAD_REACTORS
330
E7
102
}
100
AcDbEntity
  8
0
370
              -2
390
0
  6
Continuous
 62
               0
100
AcDbCircle
 10
654.87943395304364
 20
-302.86787813860883
 30
0.0
 40
1.9998779296875
  0
HATCH
  5
E7
100
AcDbEntity
  8
0
370
              -2
390
0
  6
Continuous
 62
               0
100
AcDbHatch
 10
0.0
 20
0.0
 30
0.0
210
0.0
220
0.0
230
1.0
  2
SOLID
 70
               1
 71
               1
 91
        1
 92
        1
 93
        1
 72
               2
 10
654.87943395304364
 20
-302.86787813860883
 40
1.9998779296875
 50
0.0
 51
360.0
 73
               0
 97
        1
330
E6
 75
               0
 76
               1
 98
        1
 10
0.0
 20
0.0
  0
CIRCLE
  5
E8
102
{ACAD_REACTORS
330
E9
102
}
100
AcDbEntity
  8
0
370
              -2
390
0
  6
Continuous
 62
               0
100
AcDbCircle
 10
589.87943395304364
 20
-302.86787813860883
 30
0.0
 40
1.9998779296875
  0
HATCH
  5
E9
100
AcDbEntity
  8
0
370
              -2
390
0
  6
Continuous
 62
               0
100
AcDbHatch
 10
0.0
 20
0.0
 30
0.0
210
0.0
220
0.0
230
1.0
  2
SOLID
 70
               1
 71
               1
 91
        1
 92
        1
 93
        1
 72
               2
 10
589.87943395304364
 20
-302.86787813860883
 40
1.9998779296875
 50
0.0
 51
360.0
 73
               0
 97
        1
330
E8
 75
               0
 76
               1
 98
        1
 10
0.0
 20
0.0
  0
MTEXT
  5
EA
100
AcDbEntity
  8
0
390
0
 62
               0
100
AcDbMText
 10
606.50443395304364
 20
-268.99026095110889
 30
0.0
 40
24.432617187500004
 41
0.0
 71
               1
 72
               1
  1
65
  7
ＭＳゴシック
 73
               1
 44
0.7828267384257843
  0
POINT
  5
EB
100
AcDbEntity
  8
Defpoints
370
               0
390
0
 62
               0
100
AcDbPoint
 10
589.87943395304364
 20
-402.86787813860906
 30
0.0
  0
POINT
  5
EC
100
AcDbEntity
  8
Defpoints
370
               0
390
0
 62
               0
100
AcDbPoint
 10
654.87943395304364
 20
-407.86787813860906
 30
0.0
  0
POINT
  5
ED
100
AcDbEntity
  8
Defpoints
370
               0
390
0
 62
               0
100
AcDbPoint
 10
654.87943395304364
 20
-302.86787813860883
 30
0.0
  0
ENDBLK
  5
EE
100
AcDbEntity
  8
notes
390
0
100
AcDbBlockEnd
  0
BLOCK
  5
EF
100
AcDbEntity
  8
notes
390
0
100
AcDbBlockBegin
  2
*D15
 70
               1
 10
0.0
 20
0.0
 30
0.0
  3
*D15
  1

  0
LINE
  5
F0
100
AcDbEntity
  8
0
370
              -2
390
0
  6
Continuous
 62
               0
100
AcDbLine
 10
399.87943395304217
 20
-402.86787813860906
 30
0.0
 11
412.77609572694155
 21
-402.86787813860906
 31
0.0
  0
LINE
  5
F1
100
AcDbEntity
  8
0
370
              -2
390
0
  6
Continuous
 62
               0
100
AcDbLine
 10
399.87943395304285
 20
-522.86787813860917
 30
0.0
 11
412.77609572694155
 21
-522.86787813860917
 31
0.0
  0
LINE
  5
F2
100
AcDbEntity
  8
0
370
              -2
390
0
  6
Continuous
 62
               0
100
AcDbLine
 10
412.77609572694155
 20
-402.86787813860906
 30
0.0
 11
412.77609572694155
 21
-259.99287813860883
 31
0.0
  0
LINE
  5
F3
100
AcDbEntity
  8
0
370
              -2
390
0
  6
Continuous
 62
               0
100
AcDbLine
 10
412.77609572694155
 20
-402.86787813860906
 30
0.0
 11
412.77609572694155
 21
-522.86787813860917
 31
0.0
  0
CIRCLE
  5
F4
102
{ACAD_REACTORS
330
F5
102
}
100
AcDbEntity
  8
0
370
              -2
390
0
  6
Continuous
 62
               0
100
AcDbCircle
 10
412.77609572694155
 20
-402.86787813860906
 30
0.0
 40
1.9998779296875
  0
HATCH
  5
F5
100
AcDbEntity
  8
0
370
              -2
390
0
  6
Continuous
 62
               0
100
AcDbHatch
 10
0.0
 20
0.0
 30
0.0
210
0.0
220
0.0
230
1.0
  2
SOLID
 70
               1
 71
               1
 91
        1
 92
        1
 93
        1
 72
               2
 10
412.77609572694155
 20
-402.86787813860906
 40
1.9998779296875
 50
0.0
 51
360.0
 73
               0
 97
        1
330
F4
 75
               0
 76
               1
 98
        1
 10
0.0
 20
0.0
  0
CIRCLE
  5
F6
102
{ACAD_REACTORS
330
F7
102
}
100
AcDbEntity
  8
0
370
              -2
390
0
  6
Continuous
 62
               0
100
AcDbCircle
 10
412.77609572694155
 20
-522.86787813860917
 30
0.0
 40
1.9998779296875
  0
HATCH
  5
F7
100
AcDbEntity
  8
0
370
              -2
390
0
  6
Continuous
 62
               0
100
AcDbHatch
 10
0.0
 20
0.0
 30
0.0
210
0.0
220
0.0
230
1.0
  2
SOLID
 70
               1
 71
               1
 91
        1
 92
        1
 93
        1
 72
               2
 10
412.77609572694155
 20
-522.86787813860917
 40
1.9998779296875
 50
0.0
 51
360.0
 73
               0
 97
        1
330
F6
 75
               0
 76
               1
 98
        1
 10
0.0
 20
0.0
  0
MTEXT
  5
F8
100
AcDbEntity
  8
0
390
0
 62
               0
100
AcDbMText
 10
378.89847853944161
 20
-402.86787813860883
 30
0.0
 40
24.432617187500004
 41
0.0
 71
               1
 72
               1
  1
120(深さ)
  7
ＭＳゴシック
 11
0.0
 21
1.0
 31
0.0
 73
               1
 44
0.7828267384257843
  0
POINT
  5
F9
100
AcDbEntity
  8
Defpoints
370
               0
390
0
 62
               0
100
AcDbPoint
 10
424.87943395304285
 20
-522.86787813860917
 30
0.0
  0
POINT
  5
FA
100
AcDbEntity
  8
Defpoints
370
               0
390
0
 62
               0
100
AcDbPoint
 10
424.87943395304217
 20
-402.86787813860906
 30
0.0
  0
POINT
  5
FB
100
AcDbEntity
  8
Defpoints
370
               0
390
0
 62
               0
100
AcDbPoint
 10
412.77609572694155
 20
-402.86787813860906
 30
0.0
  0
ENDBLK
  5
FC
100
AcDbEntity
  8
notes
390
0
100
AcDbBlockEnd
  0
BLOCK
  5
FD
100
AcDbEntity
  8
notes
390
0
100
AcDbBlockBegin
  2
*D16
 70
               1
 10
0.0
 20
0.0
 30
0.0
  3
*D16
  1

  0
LINE
  5
FE
100
AcDbEntity
  8
0
370
              -2
390
0
  6
Continuous
 62
               0
100
AcDbLine
 10
654.87943395304364
 20
-572.86787813860917
 30
0.0
 11
654.87943395304364
 21
-702.86787813860929
 31
0.0
  0
LINE
  5
FF
100
AcDbEntity
  8
0
370
              -2
390
0
  6
Continuous
 62
               0
100
AcDbLine
 10
324.87943395304251
 20
-572.86787813860917
 30
0.0
 11
324.87943395304251
 21
-702.86787813860929
 31
0.0
  0
LINE
  5
100
100
AcDbEntity
  8
0
370
              -2
390
0
  6
Continuous
 62
               0
100
AcDbLine
 10
654.87943395304364
 20
-702.86787813860929
 30
0.0
 11
324.87943395304251
 21
-702.86787813860929
 31
0.0
  0
CIRCLE
  5
101
102
{ACAD_REACTORS
330
102
102
}
100
AcDbEntity
  8
0
370
              -2
390
0
  6
Continuous
 62
               0
100
AcDbCircle
 10
654.87943395304364
 20
-702.86787813860929
 30
0.0
 40
1.9998779296875
  0
HATCH
  5
102
100
AcDbEntity
  8
0
370
              -2
390
0
  6
Continuous
 62
               0
100
AcDbHatch
 10
0.0
 20
0.0
 30
0.0
210
0.0
220
0.0
230
1.0
  2
SOLID
 70
               1
 71
               1
 91
        1
 92
        1
 93
        1
 72
               2
 10
654.87943395304364
 20
-702.86787813860929
 40
1.9998779296875
 50
0.0
 51
360.0
 73
               0
 97
        1
330
101
 75
               0
 76
               1
 98
        1
 10
0.0
 20
0.0
  0
CIRCLE
  5
103
102
{ACAD_REACTORS
330
104
102
}
100
AcDbEntity
  8
0
370
              -2
390
0
  6
Continuous
 62
               0
100
AcDbCircle
 10
324.87943395304251
 20
-702.86787813860929
 30
0.0
 40
1.9998779296875
  0
HATCH
  5
104
100
AcDbEntity
  8
0
370
              -2
390
0
  6
Continuous
 62
               0
100
AcDbHatch
 10
0.0
 20
0.0
 30
0.0
210
0.0
220
0.0
230
1.0
  2
SOLID
 70
               1
 71
               1
 91
        1
 92
        1
 93
        1
 72
               2
 10
324.87943395304251
 20
-702.86787813860929
 40
1.9998779296875
 50
0.0
 51
360.0
 73
               0
 97
        1
330
103
 75
               0
 76
               1
 98
        1
 10
0.0
 20
0.0
  0
MTEXT
  5
105
100
AcDbEntity
  8
0
390
0
 62
               0
100
AcDbMText
 10
466.0669322708676
 20
-668.99026095110924
 30
0.0
 40
24.432617187500004
 41
0.0
 71
               1
 72
               1
  1
330
  7
ＭＳゴシック
 73
               1
 44
0.7828267384257843
  0
POINT
  5
106
100
AcDbEntity
  8
Defpoints
370
               0
390
0
 62
               0
100
AcDbPoint
 10
324.87943395304251
 20
-547.86787813860917
 30
0.0
  0
POINT
  5
107
100
AcDbEntity
  8
Defpoints
370
               0
390
0
 62
               0
100
AcDbPoint
 10
654.87943395304364
 20
-547.86787813860917
 30
0.0
  0
POINT
  5
108
100
AcDbEntity
  8
Defpoints
370
               0
390
0
 62
               0
100
AcDbPoint
 10
654.87943395304364
 20
-702.86787813860929
 30
0.0
  0
ENDBLK
  5
109
100
AcDbEntity
  8
notes
390
0
100
AcDbBlockEnd
  0
BLOCK
  5
10A
100
AcDbEntity
  8
notes
390
0
100
AcDbBlockBegin
  2
*D17
 70
               1
 10
0.0
 20
0.0
 30
0.0
  3
*D17
  1

  0
LINE
  5
10B
100
AcDbEntity
  8
0
370
              -2
390
0
  6
Continuous
 62
               0
100
AcDbLine
 10
-561.61256219160828
 20
-577.86787813860917
 30
0.0
 11
-561.61256219160828
 21
-652.86787813860906
 31
0.0
  0
LINE
  5
10C
100
AcDbEntity
  8
0
370
              -2
390
0
  6
Continuous
 62
               0
100
AcDbLine
 10
-361.61256219160828
 20
-577.86787813860917
 30
0.0
 11
-361.61256219160828
 21
-652.86787813860906
 31
0.0
  0
LINE
  5
10D
100
AcDbEntity
  8
0
370
              -2
390
0
  6
Continuous
 62
               0
100
AcDbLine
 10
-561.61256219160828
 20
-652.86787813860906
 30
0.0
 11
-361.61256219160828
 21
-652.86787813860906
 31
0.0
  0
CIRCLE
  5
10E
102
{ACAD_REACTORS
330
10F
102
}
100
AcDbEntity
  8
0
370
              -2
390
0
  6
Continuous
 62
               0
100
AcDbCircle
 10
-561.61256219160828
 20
-652.86787813860906
 30
0.0
 40
1.9998779296875
  0
HATCH
  5
10F
100
AcDbEntity
  8
0
370
              -2
390
0
  6
Continuous
 62
               0
100
AcDbHatch
 10
0.0
 20
0.0
 30
0.0
210
0.0
220
0.0
230
1.0
  2
SOLID
 70
               1
 71
               1
 91
        1
 92
        1
 93
        1
 72
               2
 10
-561.61256219160828
 20
-652.86787813860906
 40
1.9998779296875
 50
0.0
 51
360.0
 73
               0
 97
        1
330
10E
 75
               0
 76
               1
 98
        1
 10
0.0
 20
0.0
  0
CIRCLE
  5
110
102
{ACAD_REACTORS
330
111
102
}
100
AcDbEntity
  8
0
370
              -2
390
0
  6
Continuous
 62
               0
100
AcDbCircle
 10
-361.61256219160828
 20
-652.86787813860906
 30
0.0
 40
1.9998779296875
  0
HATCH
  5
111
100
AcDbEntity
  8
0
370
              -2
390
0
  6
Continuous
 62
               0
100
AcDbHatch
 10
0.0
 20
0.0
 30
0.0
210
0.0
220
0.0
230
1.0
  2
SOLID
 70
               1
 71
               1
 91
        1
 92
        1
 93
        1
 72
               2
 10
-361.61256219160828
 20
-652.86787813860906
 40
1.9998779296875
 50
0.0
 51
360.0
 73
               0
 97
        1
330
110
 75
               0
 76
               1
 98
        1
 10
0.0
 20
0.0
  0
MTEXT
  5
112
100
AcDbEntity
  8
0
390
0
 62
               0
100
AcDbMText
 10
-485.42506387378376
 20
-618.99026095110901
 30
0.0
 40
24.432617187500004
 41
0.0
 71
               1
 72
               1
  1
200
  7
ＭＳゴシック
 73
               1
 44
0.7828267384257843
  0
POINT
  5
113
100
AcDbEntity
  8
Defpoints
370
               0
390
0
 62
               0
100
AcDbPoint
 10
-361.61256219160828
 20
-552.86787813860917
 30
0.0
  0
POINT
  5
114
100
AcDbEntity
  8
Defpoints
370
               0
390
0
 62
               0
100
AcDbPoint
 10
-561.61256219160828
 20
-552.86787813860917
 30
0.0
  0
POINT
  5
115
100
AcDbEntity
  8
Defpoints
370
               0
390
0
 62
               0
100
AcDbPoint
 10
-561.61256219160828
 20
-652.86787813860906
 30
0.0
  0
ENDBLK
  5
116
100
AcDbEntity
  8
notes
390
0
100
AcDbBlockEnd
  0
BLOCK
  5
117
100
AcDbEntity
  8
ADF70-1104
390
0
100
AcDbBlockBegin
  2
グループ-2
 70
               0
 10
0.0
 20
0.0
 30
0.0
  3
グループ-2
  1

  0
LINE
  5
118
100
AcDbEntity
  8
0
370
               5
390
0
  6
Continuous
 62
               7
100
AcDbLine
 10
-775.5157288214358
 20
2284.1077414494712
 30
0.0
 11
-812.51572882143626
 21
2247.1077414494712
 31
0.0
  0
LINE
  5
119
100
AcDbEntity
  8
0
370
               5
390
0
  6
Continuous
 62
               7
100
AcDbLine
 10
-795.51572882143626
 20
2284.1077414494712
 30
0.0
 11
-832.51572882143626
 21
2247.1077414494712
 31
0.0
  0
LINE
  5
11A
100
AcDbEntity
  8
0
370
               5
390
0
  6
Continuous
 62
               7
100
AcDbLine
 10
-815.51572882143626
 20
2284.1077414494712
 30
0.0
 11
-852.51572882143626
 21
2247.1077414494712
 31
0.0
  0
ENDBLK
  5
11B
100
AcDbEntity
  8
ADF70-1104
390
0
100
AcDbBlockEnd
  0
ENDSEC
  0
SECTION
  2
ENTITIES
  0
MTEXT
  5
11C
100
AcDbEntity
  8
template
390
0
 62
               7
100
AcDbMText
 10
-967.99999999975944
 20
-1147.4176292337006
 30
0.0
 40
16.288411458333332
 41
0.0
 71
               1
 72
               1
  1
品名
  7
ＭＳ ゴシック
 73
               1
 44
0.7828267384257843
  0
MTEXT
  5
11D
100
AcDbEntity
  8
template
390
0
 62
               7
100
AcDbMText
 10
-967.99999999975944
 20
-1232.4176292337006
 30
0.0
 40
16.288411458333332
 41
0.0
 71
               1
 72
               1
  1
仕様
  7
ＭＳ ゴシック
 73
               1
 44
0.7828267384257843
  0
MTEXT
  5
11E
100
AcDbEntity
  8
template
390
0
 62
               7
100
AcDbMText
 10
-914.99999999975944
 20
-1176.0000901712006
 30
0.0
 40
24.432617187500004
 41
0.0
 71
               1
 72
               1
  1
手洗器 -CATALANO,C-
  7
ＭＳ ゴシック
 73
               1
 44
0.7828267384257843
  0
LINE
  5
11F
100
AcDbEntity
  8
template
370
               5
390
0
  6
Continuous
 62
               7
100
AcDbLine
 10
974.99999999975876
 20
-1224.0027073587005
 30
0.0
 11
-975.00000000024147
 21
-1224.0027073587005
 31
0.0
  0
LWPOLYLINE
  5
120
100
AcDbEntity
  8
template
370
               5
390
0
  6
Continuous
 62
               7
100
AcDbPolyline
 90
        5
 70
             128
 10
975.00000000024124
 20
1405.9972926412993
 10
-974.99999999975944
 20
1405.9972926412993
 10
-974.99999999975944
 20
-1394.0027073587005
 10
975.00000000024124
 20
-1394.0027073587005
 10
975.00000000024124
 20
1405.9972926412993
  0
LINE
  5
121
100
AcDbEntity
  8
template
370
               5
390
0
  6
Continuous
 62
               7
100
AcDbLine
 10
974.99999999975876
 20
-1139.0027073587005
 30
0.0
 11
-975.00000000024147
 21
-1139.0027073587005
 31
0.0
  0
LINE
  5
122
100
AcDbEntity
  8
template
370
               5
390
0
  6
Continuous
 62
               7
100
AcDbLine
 10
975.00000000024124
 20
-1309.0027073587005
 30
0.0
 11
222.00000000024124
 21
-1309.0027073587005
 31
0.0
  0
MTEXT
  5
123
100
AcDbEntity
  8
template
390
0
 62
               7
100
AcDbMText
 10
-974.99999999955571
 20
-1405.8565294155574
 30
0.0
 40
21.717881944444446
 41
0.0
 71
               1
 72
               1
  1
100707SH
  7
ＭＳ ゴシック
 73
               1
 44
0.7828267384257843
  0
MTEXT
  5
124
100
AcDbEntity
  8
template
390
0
 62
               7
100
AcDbMText
 10
251.87140625250095
 20
-1338.9131018320081
 30
0.0
 40
24.432617187500004
 41
0.0
 71
               1
 72
               1
  1
大洋金物株式会社 ティーフォルム事業部
  7
ＭＳ ゴシック
 73
               1
 44
0.7828267384257843
  0
INSERT
  5
125
100
AcDbEntity
  8
template
390
0
 62
               7
100
AcDbBlockReference
  2
グループ
 10
1403.2585979657501
 20
-1433.8173312289091
 30
0.0
  0
MTEXT
  5
126
100
AcDbEntity
  8
template
390
0
 62
               7
100
AcDbMText
 10
784.00000000049999
 20
-1261.0000901712006
 30
0.0
 40
24.432617187500004
 41
0.0
 71
               1
 72
               1
  1
1:10
  7
ＭＳ ゴシック
 73
               1
 44
0.7828267384257843
  0
MTEXT
  5
127
100
AcDbEntity
  8
template
390
0
 62
               7
100
AcDbMText
 10
731.00000000049999
 20
-1232.4176292337006
 30
0.0
 40
16.288411458333332
 41
0.0
 71
               1
 72
               1
  1
縮尺
  7
ＭＳ ゴシック
 73
               1
 44
0.7828267384257843
  0
LINE
  5
128
100
AcDbEntity
  8
template
370
               5
390
0
  6
Continuous
 62
               7
100
AcDbLine
 10
724.00000000049999
 20
-1309.0027073587005
 30
0.0
 11
724.00000000049999
 21
-1224.0027073587005
 31
0.0
  0
MTEXT
  5
129
100
AcDbEntity
  8
template
390
0
 62
               7
100
AcDbMText
 10
480.00000000049999
 20
-1232.4176292337006
 30
0.0
 40
16.288411458333332
 41
0.0
 71
               1
 72
               1
  1
容量
  7
ＭＳ ゴシック
 73
               1
 44
0.7828267384257843
  0
MTEXT
  5
12A
100
AcDbEntity
  8
template
390
0
 62
               7
100
AcDbMText
 10
533.00000000049999
 20
-1261.0000901712006
 30
0.0
 40
24.432617187500004
 41
0.0
 71
               1
 72
               1
  1
4.2L
  7
ＭＳ ゴシック
 73
               1
 44
0.7828267384257843
  0
LINE
  5
12B
100
AcDbEntity
  8
template
370
               5
390
0
  6
Continuous
 62
               7
100
AcDbLine
 10
473.00000000049999
 20
-1309.0027073587005
 30
0.0
 11
473.00000000049999
 21
-1224.0027073587005
 31
0.0
  0
MTEXT
  5
12C
100
AcDbEntity
  8
template
390
0
 62
               7
100
AcDbMText
 10
229.00000000049999
 20
-1147.4176292337006
 30
0.0
 40
16.288411458333332
 41
0.0
 71
               1
 72
               1
  1
品番
  7
ＭＳ ゴシック
 73
               1
 44
0.7828267384257843
  0
MTEXT
  5
12D
100
AcDbEntity
  8
template
390
0
 62
               7
100
AcDbMText
 10
229.00000000049999
 20
-1232.4176292337006
 30
0.0
 40
16.288411458333332
 41
0.0
 71
               1
 72
               1
  1
重量
  7
ＭＳ ゴシック
 73
               1
 44
0.7828267384257843
  0
MTEXT
  5
12E
100
AcDbEntity
  8
template
390
0
 62
               7
100
AcDbMText
 10
282.00000000049999
 20
-1176.0000901712006
 30
0.0
 40
24.432617187500004
 41
0.0
 71
               1
 72
               1
  1
ADF70-1104
  7
ＭＳ ゴシック
 73
               1
 44
0.7828267384257843
  0
MTEXT
  5
12F
100
AcDbEntity
  8
template
390
0
 62
               7
100
AcDbMText
 10
282.00000000049999
 20
-1261.0000901712006
 30
0.0
 40
24.432617187500004
 41
0.0
 71
               1
 72
               1
  1
9kg
  7
ＭＳ ゴシック
 73
               1
 44
0.7828267384257843
  0
LINE
  5
130
100
AcDbEntity
  8
template
370
               5
390
0
  6
Continuous
 62
               7
100
AcDbLine
 10
222.00000000049999
 20
-1394.0027073587005
 30
0.0
 11
222.00000000049999
 21
-1139.0027073587005
 31
0.0
  0
MTEXT
  5
131
100
AcDbEntity
  8
template
390
0
 62
               7
100
AcDbMText
 10
-914.99999999975989
 20
-1261.0000901712006
 30
0.0
 40
24.432617187500004
 41
0.0
 71
               1
 72
               1
  1
壁掛け,カウンタ ー置き/オーバーフローなし/壁取付ボルト付属/\P陶器/ホワイト
  7
ＭＳ ゴシック
 73
               1
 44
1.3047112307096407
  0
MTEXT
  5
132
100
AcDbEntity
  8
notes
390
0
 62
               7
100
AcDbMText
 10
-832.14870681672346
 20
195.7851995224687
 30
0.0
 40
24.432617187500004
 41
835.03614462511609
 71
               1
 72
               1
  1
＝φ30もしくはφ35の水栓取付用穴あけ加工を承ります。\P   必要な場合、ご注文の際にご指示ください。
  7
ＭＳゴシック
 73
               1
 44
1.0437689845677123
  0
MTEXT
  5
133
100
AcDbEntity
  8
notes
390
0
 62
               7
100
AcDbMText
 10
-333.27968353472761
 20
-309.34274879565737
 30
0.0
 40
24.432617187500004
 41
0.0
 71
               1
 72
               1
  1
壁取付ボルト穴(2ヶ所)
  7
ＭＳ ゴシック
 73
               1
 44
0.7828267384257843
  0
MTEXT
  5
134
100
AcDbEntity
  8
notes
390
0
 62
               7
100
AcDbMText
 10
316.89160447505833
 20
1061.8597268795561
 30
0.0
 40
24.432617187500004
 41
0.0
 71
               1
 72
               1
  1
カウンター切込寸法
  7
ＭＳゴシック
 73
               1
 44
0.7828267384257843
  0
LINE
  5
135
100
AcDbEntity
  8
notes
370
               5
390
0
  6
Continuous
 62
               7
100
AcDbLine
 10
-414.15756708437357
 20
-437.86787813860917
 30
0.0
 11
-317.49927872520129
 21
-341.20958977943678
 31
0.0
  0
CIRCLE
  5
136
100
AcDbEntity
  8
notes
370
              15
390
0
  6
STYLE_12
 62
               7
100
AcDbCircle
 10
-855.11256219160759
 20
181.26913187522882
 30
0.0
 40
17.5
  0
INSERT
  5
137
100
AcDbEntity
  8
notes
390
0
 62
               7
100
AcDbBlockReference
  2
グループ-1
 10
1403.2585979657501
 20
-1433.8173312289091
 30
0.0
  0
DIMENSION
  5
138
100
AcDbEntity
  8
notes
370
               5
390
0
  6
Continuous
 62
               7
100
AcDbDimension
  2
*D4
 10
-711.65756708437357
 20
813.0543197449424
 30
0.0
 11
-711.65756708437357
 21
763.0543197449424
 31
0.0
 71
               5
 72
               1
 41
1.0
 42
0.0
  3
tform線あり
100
AcDbAlignedDimension
 13
-611.65756708437334
 23
713.0543197449424
 33
0.0
 14
-611.65756708437334
 24
813.0543197449424
 34
0.0
 50
90.0
100
AcDbRotatedDimension
1001
ACAD
1000
DSTYLE
1002
{
1070
             279
1070
               2
1070
             340
1005
34
1070
             147
1040
5.0
1002
}
  0
DIMENSION
  5
139
100
AcDbEntity
  8
notes
370
               5
390
0
  6
Continuous
 62
               7
100
AcDbDimension
  2
*D5
 10
-711.65756708437357
 20
713.0543197449424
 30
0.0
 11
-711.65756708437357
 21
583.05431974494286
 31
0.0
 71
               5
 72
               1
 41
1.0
 42
0.0
  3
tform線あり
100
AcDbAlignedDimension
 13
-536.49071481985152
 23
453.05431974494354
 33
0.0
 14
-611.65756708437334
 24
713.0543197449424
 34
0.0
 50
90.0
100
AcDbRotatedDimension
1001
ACAD
1000
DSTYLE
1002
{
1070
             279
1070
               2
1070
             340
1005
34
1070
             147
1040
5.0
1002
}
  0
DIMENSION
  5
13A
100
AcDbEntity
  8
notes
370
               5
390
0
  6
Continuous
 62
               7
100
AcDbDimension
  2
*D6
 10
-711.65756708437357
 20
-437.86787813860917
 30
0.0
 11
-711.65756708437357
 21
-420.36787813860906
 31
0.0
 71
               5
 72
               1
 41
1.0
 42
0.0
  3
tform線あり
100
AcDbAlignedDimension
 13
-606.60654136269113
 23
-402.86787813860906
 33
0.0
 14
-559.11913815448111
 24
-437.86787813860917
 34
0.0
 50
90.0
100
AcDbRotatedDimension
1001
ACAD
1000
DSTYLE
1002
{
1070
             279
1070
               2
1070
             340
1005
34
1070
             147
1040
5.0
1002
}
  0
DIMENSION
  5
13B
100
AcDbEntity
  8
notes
370
               5
390
0
  6
Continuous
 62
               7
100
AcDbDimension
  2
*D7
 10
-211.6575670843738
 20
813.0543197449424
 30
0.0
 11
-211.6575670843738
 21
623.06129411899337
 31
0.0
 71
               5
 72
               1
 41
1.0
 42
0.0
  3
tform線あり
100
AcDbAlignedDimension
 13
-434.61197918286621
 23
433.06826849304457
 33
0.0
 14
-311.6575670843738
 24
813.0543197449424
 34
0.0
 50
90.0
100
AcDbRotatedDimension
1001
ACAD
1000
DSTYLE
1002
{
1070
             279
1070
               2
1070
             340
1005
34
1070
             147
1040
5.0
1002
}
  0
DIMENSION
  5
13C
100
AcDbEntity
  8
notes
370
               5
390
0
  6
Continuous
 62
               7
100
AcDbDimension
  2
*D8
 10
174.93150101598212
 20
-402.86787813860906
 30
0.0
 11
174.93150101598212
 21
-477.86787813860906
 31
0.0
 71
               5
 72
               1
 41
1.0
 42
0.0
  3
tform線あり
100
AcDbAlignedDimension
 13
327.39525737172676
 23
-552.86787813860917
 33
0.0
 14
279.93045967472335
 24
-402.86787813860906
 34
0.0
 50
90.0
100
AcDbRotatedDimension
1001
ACAD
1000
DSTYLE
1002
{
1070
             279
1070
               2
1070
             340
1005
34
1070
             147
1040
5.0
1002
}
  0
DIMENSION
  5
13D
100
AcDbEntity
  8
notes
370
               5
390
0
  6
Continuous
 62
               7
100
AcDbDimension
  2
*D9
 10
370.28409958229054
 20
443.05431974494331
 30
0.0
 11
452.78409958229065
 21
443.05431974494331
 31
0.0
 71
               5
 72
               1
 41
1.0
 42
0.0
  3
tform線あり
100
AcDbAlignedDimension
 13
535.28409958229076
 23
543.05431974494354
 33
0.0
 14
370.28409958229054
 24
543.05431974494354
 34
0.0
100
AcDbRotatedDimension
1001
ACAD
1000
DSTYLE
1002
{
1070
             279
1070
               2
1070
             340
1005
34
1070
             147
1040
5.0
1002
}
  0
DIMENSION
  5
13E
100
AcDbEntity
  8
notes
370
               5
390
0
  6
Continuous
 62
               7
100
AcDbDimension
  2
*D10
 10
702.78409958229247
 20
543.05431974494354
 30
0.0
 11
707.78409958229247
 21
678.05431974494286
 31
0.0
 70
             128
 71
               5
 72
               1
 41
1.0
 42
0.0
  3
tform線あり
100
AcDbAlignedDimension
 13
535.28409958229076
 23
813.0543197449424
 33
0.0
 14
535.28409958229076
 24
543.05431974494354
 34
0.0
 50
90.0
100
AcDbRotatedDimension
1001
ACAD
1000
DSTYLE
1002
{
1070
             279
1070
               2
1070
             340
1005
34
1070
             147
1040
5.0
1002
}
  0
DIMENSION
  5
13F
100
AcDbEntity
  8
notes
370
               5
390
0
  6
Continuous
 62
               7
100
AcDbDimension
  2
*D11
 10
-611.65756708437334
 20
913.0543197449424
 30
0.0
 11
-461.65756708437357
 21
913.0543197449424
 31
0.0
 71
               5
 72
               1
 41
1.0
 42
0.0
  3
tform線あり
100
AcDbAlignedDimension
 13
-311.6575670843738
 23
813.0543197449424
 33
0.0
 14
-611.65756708437334
 24
813.0543197449424
 34
0.0
100
AcDbRotatedDimension
1001
ACAD
1000
DSTYLE
1002
{
1070
             279
1070
               2
1070
             340
1005
34
1070
             147
1040
5.0
1002
}
  0
DIMENSION
  5
140
100
AcDbEntity
  8
notes
370
               5
390
0
  6
Continuous
 62
               7
100
AcDbDimension
  2
*D12
 10
-509.15756708437357
 20
-302.90958977943683
 30
0.0
 11
-461.65756708437357
 21
-302.90958977943683
 31
0.0
 71
               5
 72
               1
 41
1.0
 42
0.0
  3
tform線あり
100
AcDbAlignedDimension
 13
-414.15756708437357
 23
-417.86787813860917
 33
0.0
 14
-509.15756708437357
 24
-417.90958977943717
 34
0.0
100
AcDbRotatedDimension
1001
ACAD
1000
DSTYLE
1002
{
1070
             279
1070
               2
1070
             340
1005
34
1070
             147
1040
5.0
1002
}
  0
DIMENSION
  5
141
100
AcDbEntity
  8
notes
370
               5
390
0
  6
Continuous
 62
               7
100
AcDbDimension
  2
*D13
 10
654.87943395304364
 20
-652.86787813860929
 30
0.0
 11
539.87943395304319
 21
-652.86787813860929
 31
0.0
 71
               5
 72
               1
 41
1.0
 42
0.0
  3
tform線あり
100
AcDbAlignedDimension
 13
424.87943395304285
 23
-547.86787813860917
 33
0.0
 14
654.87943395304364
 24
-547.86787813860917
 34
0.0
100
AcDbRotatedDimension
1001
ACAD
1000
DSTYLE
1002
{
1070
             279
1070
               2
1070
             340
1005
34
1070
             147
1040
5.0
1002
}
  0
DIMENSION
  5
142
100
AcDbEntity
  8
notes
370
               5
390
0
  6
Continuous
 62
               7
100
AcDbDimension
  2
*D14
 10
654.87943395304364
 20
-302.86787813860883
 30
0.0
 11
622.37943395304364
 21
-302.86787813860883
 31
0.0
 71
               5
 72
               1
 41
1.0
 42
0.0
  3
tform線あり
100
AcDbAlignedDimension
 13
589.87943395304364
 23
-402.86787813860906
 33
0.0
 14
654.87943395304364
 24
-407.86787813860906
 34
0.0
100
AcDbRotatedDimension
1001
ACAD
1000
DSTYLE
1002
{
1070
             279
1070
               2
1070
             340
1005
34
1070
             147
1040
5.0
1002
}
  0
DIMENSION
  5
143
100
AcDbEntity
  8
notes
370
               5
390
0
  6
Continuous
 62
               7
100
AcDbDimension
  2
*D15
 10
412.77609572694155
 20
-402.86787813860906
 30
0.0
 11
407.77609572694155
 21
-402.86787813860883
 31
0.0
 70
             128
 71
               5
 72
               1
 41
1.0
 42
0.0
  3
tform線あり
100
AcDbAlignedDimension
 13
424.87943395304285
 23
-522.86787813860917
 33
0.0
 14
424.87943395304217
 24
-402.86787813860906
 34
0.0
 50
90.0
100
AcDbRotatedDimension
1001
ACAD
1000
DSTYLE
1002
{
1070
             279
1070
               2
1070
             340
1005
34
1070
               3
1000
<>(深さ)
1070
             174
1070
               0
1070
             147
1040
5.0
1002
}
  0
DIMENSION
  5
144
100
AcDbEntity
  8
notes
370
               5
390
0
  6
Continuous
 62
               7
100
AcDbDimension
  2
*D16
 10
654.87943395304364
 20
-702.86787813860929
 30
0.0
 11
489.87943395304308
 21
-702.86787813860929
 31
0.0
 71
               5
 72
               1
 41
1.0
 42
0.0
  3
tform線あり
100
AcDbAlignedDimension
 13
324.87943395304251
 23
-547.86787813860917
 33
0.0
 14
654.87943395304364
 24
-547.86787813860917
 34
0.0
100
AcDbRotatedDimension
1001
ACAD
1000
DSTYLE
1002
{
1070
             279
1070
               2
1070
             340
1005
34
1070
             147
1040
5.0
1002
}
  0
DIMENSION
  5
145
100
AcDbEntity
  8
notes
370
               5
390
0
  6
Continuous
 62
               7
100
AcDbDimension
  2
*D17
 10
-561.61256219160828
 20
-652.86787813860906
 30
0.0
 11
-461.61256219160828
 21
-652.86787813860906
 31
0.0
 71
               5
 72
               1
 41
1.0
 42
0.0
  3
tform線あり
100
AcDbAlignedDimension
 13
-361.61256219160828
 23
-552.86787813860917
 33
0.0
 14
-561.61256219160828
 24
-552.86787813860917
 34
0.0
100
AcDbRotatedDimension
1001
ACAD
1000
DSTYLE
1002
{
1070
             279
1070
               2
1070
             340
1005
34
1070
             147
1040
5.0
1002
}
  0
SPLINE
  5
146
100
AcDbEntity
  8
notes
370
              15
390
0
  6
STYLE_12
 62
               7
100
AcDbSpline
210
0.0
220
0.0
230
1.0
 70
               8
 71
               2
 72
              11
 73
               8
 74
               0
 42
0.000001
 43
0.000001
 40
0.0
 40
0.0
 40
0.0
 40
1.0
 40
1.0
 40
2.0
 40
3.0
 40
3.0
 40
4.0
 40
4.0
 40
4.0
 10
331.64844003472558
 20
-488.75285447229874
 30
0.0
 10
330.60544318076609
 20
-487.21874911227894
 30
0.0
 10
329.56244632680637
 20
-485.68464375225915
 30
0.0
 10
319.71043608846639
 20
-469.9596460658455
 30
0.0
 10
305.16291122069538
 20
-435.99681326411257
 30
0.0
 10
300.86676110808571
 20
-410.82170670931089
 30
0.0
 10
300.63144063251821
 20
-409.02086505440934
 30
0.0
 10
300.3961201569507
 20
-407.22002339950768
 30
0.0
  0
POLYLINE
  5
147
100
AcDbEntity
  8
ADF70-1104
370
              15
390
0
  6
Continuous
 62
               7
100
AcDb2dPolyline
 66
               1
 10
0.0
 20
0.0
 30
0.0
 75
               5
  0
VERTEX
  5
148
100
AcDbEntity
  8
ADF70-1104
370
              15
390
0
  6
Continuous
 62
               7
100
AcDbVertex
100
AcDb2dVertex
 10
-311.6575670843738
 20
583.05431974494377
 30
0.0
  0
VERTEX
  5
149
100
AcDbEntity
  8
ADF70-1104
370
              15
390
0
  6
Continuous
 62
               7
100
AcDbVertex
100
AcDb2dVertex
 10
-311.6575670843738
 20
813.0543197449424
 30
0.0
  0
VERTEX
  5
14A
100
AcDbEntity
  8
ADF70-1104
370
              15
390
0
  6
Continuous
 62
               7
100
AcDbVertex
100
AcDb2dVertex
 10
-611.65756708437334
 20
813.0543197449424
 30
0.0
  0
VERTEX
  5
14B
100
AcDbEntity
  8
ADF70-1104
370
              15
390
0
  6
Continuous
 62
               7
100
AcDbVertex
100
AcDb2dVertex
 10
-611.65756708437334
 20
583.05431974494377
 30
0.0
  0
SEQEND
  5
14C
100
AcDbEntity
  8
ADF70-1104
370
              15
390
0
  6
Continuous
 62
               7
  0
ARC
  5
14D
100
AcDbEntity
  8
ADF70-1104
370
              15
390
0
  6
Continuous
 62
               7
100
AcDbCircle
 10
-461.6575670843738
 20
583.05431974494354
 30
0.0
 40
149.99999999999955
100
AcDbArc
 50
180.0
 51
0.0
  0
CIRCLE
  5
14E
100
AcDbEntity
  8
ADF70-1104
370
              15
390
0
  6
Continuous
 62
               7
100
AcDbCircle
 10
-461.6575670843738
 20
583.05431974494354
 30
0.0
 40
130.0
  0
LINE
  5
14F
100
AcDbEntity
  8
ADF70-1104
370
              15
390
0
  6
Continuous
 62
               7
100
AcDbLine
 10
649.87943395304364
 20
-402.86787813860929
 30
0.0
 11
279.93045967472335
 21
-402.86787813860906
 31
0.0
  0
ARC
  5
150
100
AcDbEntity
  8
ADF70-1104
370
              15
390
0
  6
Continuous
 62
               7
100
AcDbCircle
 10
524.87943395304364
 20
-402.86787813860929
 30
0.0
 40
250.00000000000162
100
AcDbArc
 50
181.16938280561408
 51
216.28745708510974
  0
LINE
  5
151
100
AcDbEntity
  8
ADF70-1104
370
              15
390
0
  6
Continuous
 62
               7
100
AcDbLine
 10
654.87943395304364
 20
-407.86787813860929
 30
0.0
 11
654.87943395304364
 21
-547.8678781386094
 31
0.0
  0
LINE
  5
152
100
AcDbEntity
  8
ADF70-1104
370
              15
390
0
  6
STYLE_12
 62
               7
100
AcDbLine
 10
447.87943395304308
 20
-537.33176329439141
 30
0.0
 11
447.87943395304308
 21
-547.8678781386094
 31
0.0
  0
LINE
  5
153
100
AcDbEntity
  8
ADF70-1104
370
              15
390
0
  6
STYLE_12
 62
               7
100
AcDbLine
 10
401.87943395304285
 20
-537.33176329439141
 30
0.0
 11
401.87943395304285
 21
-547.8678781386094
 31
0.0
  0
LINE
  5
154
100
AcDbEntity
  8
ADF70-1104
370
              15
390
0
  6
STYLE_12
 62
               7
100
AcDbLine
 10
400.09337200147559
 20
-533.50154107879655
 30
0.0
 11
388.57902929718773
 21
-523.83986036237968
 31
0.0
  0
LINE
  5
155
100
AcDbEntity
  8
ADF70-1104
370
              15
390
0
  6
STYLE_12
 62
               7
100
AcDbLine
 10
449.66549590461045
 20
-533.50154107879655
 30
0.0
 11
461.17983860889842
 21
-523.83986036237968
 31
0.0
  0
LINE
  5
156
100
AcDbEntity
  8
ADF70-1104
370
              15
390
0
  6
STYLE_12
 62
               7
100
AcDbLine
 10
463.00135699266741
 20
-522.8678781386094
 30
0.0
 11
386.75751091341851
 21
-522.8678781386094
 31
0.0
  0
LINE
  5
157
100
AcDbEntity
  8
ADF70-1104
370
              15
390
0
  6
STYLE_12
 62
               7
100
AcDbLine
 10
401.30254701949832
 20
-535.00022500361649
 30
0.0
 11
448.45632088658738
 21
-535.00022500361649
 31
0.0
  0
SPLINE
  5
158
100
AcDbEntity
  8
ADF70-1104
370
              15
390
0
  6
STYLE_12
 62
               7
100
AcDbSpline
210
0.0
220
0.0
230
1.0
 70
               8
 71
               2
 72
              11
 73
               8
 74
               0
 42
0.000001
 43
0.000001
 40
0.0
 40
0.0
 40
0.0
 40
1.0
 40
1.0
 40
2.0
 40
3.0
 40
3.0
 40
4.0
 40
4.0
 40
4.0
 10
518.11042787136034
 20
-488.75285447229874
 30
0.0
 10
519.15342472531995
 20
-487.21874911227894
 30
0.0
 10
520.19642157927956
 20
-485.68464375225915
 30
0.0
 10
530.04843181761953
 20
-469.9596460658455
 30
0.0
 10
544.59595668539055
 20
-435.99681326411257
 30
0.0
 10
548.89210679800021
 20
-410.82170670931089
 30
0.0
 10
549.12742727356772
 20
-409.02086505440934
 30
0.0
 10
549.36274774913522
 20
-407.22002339950768
 30
0.0
  0
ARC
  5
159
100
AcDbEntity
  8
ADF70-1104
370
              15
390
0
  6
STYLE_12
 62
               7
100
AcDbCircle
 10
395.02201571462103
 20
-447.79443737720487
 30
0.0
 40
75.457286098765891
100
AcDbArc
 50
212.87463397468196
 51
263.10642683667373
  0
ARC
  5
15A
100
AcDbEntity
  8
ADF70-1104
370
              15
390
0
  6
STYLE_12
 62
               7
100
AcDbCircle
 10
454.73685219146512
 20
-447.79443737720487
 30
0.0
 40
75.457286098765778
100
AcDbArc
 50
276.89357316332649
 51
327.12536602531782
  0
ARC
  5
15B
100
AcDbEntity
  8
ADF70-1104
370
              15
390
0
  6
Continuous
 62
               7
100
AcDbCircle
 10
385.36509124875477
 20
-527.67008257797454
 30
0.0
 40
5.0000000000000018
100
AcDbArc
 50
49.999999999999403
 51
83.106426836674814
  0
ARC
  5
15C
100
AcDbEntity
  8
ADF70-1104
370
              15
390
0
  6
STYLE_12
 62
               7
100
AcDbCircle
 10
295.43826938902498
 20
-407.86787813860951
 30
0.0
 40
5.0000000000001492
100
AcDbArc
 50
7.4447997439741176
 51
90.0
  0
ARC
  5
15D
100
AcDbEntity
  8
ADF70-1104
370
              15
390
0
  6
Continuous
 62
               7
100
AcDbCircle
 10
279.93045967472335
 20
-407.86787813860929
 30
0.0
 40
5.0000000000002274
100
AcDbArc
 50
90.0
 51
181.16938280561635
  0
ARC
  5
15E
100
AcDbEntity
  8
ADF70-1104
370
              15
390
0
  6
STYLE_12
 62
               7
100
AcDbCircle
 10
554.32059851705981
 20
-407.86787813860929
 30
0.0
 40
4.9999999999997726
100
AcDbArc
 50
90.0
 51
172.55520025602556
  0
ARC
  5
15F
100
AcDbEntity
  8
ADF70-1104
370
              15
390
0
  6
Continuous
 62
               7
100
AcDbCircle
 10
649.87943395304364
 20
-547.8678781386094
 30
0.0
 40
5.0
100
AcDbArc
 50
270.0
 51
0.0
  0
ARC
  5
160
100
AcDbEntity
  8
ADF70-1104
370
              15
390
0
  6
Continuous
 62
               7
100
AcDbCircle
 10
649.87943395304364
 20
-407.86787813860929
 30
0.0
 40
5.0
100
AcDbArc
 50
0.0
 51
90.0
  0
ARC
  5
161
100
AcDbEntity
  8
ADF70-1104
370
              15
390
0
  6
Continuous
 62
               7
100
AcDbCircle
 10
327.39525737172698
 20
-547.8678781386094
 30
0.0
 40
4.999999999999865
100
AcDbArc
 50
216.28745708511278
 51
269.99999999999744
  0
LINE
  5
162
100
AcDbEntity
  8
ADF70-1104
370
              15
390
0
  6
Continuous
 62
               7
100
AcDbLine
 10
327.39525737172676
 20
-552.8678781386094
 30
0.0
 11
649.87943395304364
 21
-552.8678781386094
 31
0.0
  0
ARC
  5
163
100
AcDbEntity
  8
ADF70-1104
370
              15
390
0
  6
Continuous
 62
               7
100
AcDbCircle
 10
464.39377665733127
 20
-527.67008257797454
 30
0.0
 40
5.0000000000000071
100
AcDbArc
 50
96.893573163325215
 51
130.00000000000159
  0
LINE
  5
164
100
AcDbEntity
  8
ADF70-1104
370
              15
390
0
  6
STYLE_12
 62
               7
100
AcDbLine
 10
447.87943395304308
 20
-547.8678781386094
 30
0.0
 11
401.87943395304285
 21
-547.8678781386094
 31
0.0
  0
ARC
  5
165
100
AcDbEntity
  8
ADF70-1104
370
              15
390
0
  6
STYLE_12
 62
               7
100
AcDbCircle
 10
452.8794339530433
 20
-537.33176329439141
 30
0.0
 40
5.0000000000000755
100
AcDbArc
 50
130.00000000000165
 51
180.0
  0
ARC
  5
166
100
AcDbEntity
  8
ADF70-1104
370
              15
390
0
  6
STYLE_12
 62
               7
100
AcDbCircle
 10
396.87943395304285
 20
-537.33176329439141
 30
0.0
 40
5.0
100
AcDbArc
 50
0.0
 51
49.999999999999432
  0
CIRCLE
  5
167
100
AcDbEntity
  8
ADF70-1104
370
              15
390
0
  6
Continuous
 62
               7
100
AcDbCircle
 10
-461.6575670843738
 20
583.05431974494354
 30
0.0
 40
23.0
  0
CIRCLE
  5
168
100
AcDbEntity
  8
ADF70-1104
370
              15
390
0
  6
Continuous
 62
               7
100
AcDbCircle
 10
-461.6575670843738
 20
583.05431974494354
 30
0.0
 40
38.914215299169427
  0
LINE
  5
169
100
AcDbEntity
  8
ADF70-1104
370
              15
390
0
  6
Continuous
 62
               7
100
AcDbLine
 10
607.37943395304364
 20
-402.86787813860929
 30
0.0
 11
607.37943395304364
 21
-417.86787813860929
 31
0.0
  0
LINE
  5
16A
100
AcDbEntity
  8
ADF70-1104
370
              15
390
0
  6
Continuous
 62
               7
100
AcDbLine
 10
572.37943395304364
 20
-402.86787813860929
 30
0.0
 11
572.37943395304364
 21
-417.86787813860929
 31
0.0
  0
CIRCLE
  5
16B
100
AcDbEntity
  8
ADF70-1104
370
              15
390
0
  6
STYLE_12
 62
               7
100
AcDbCircle
 10
-461.6575670843738
 20
748.09041022056226
 30
0.0
 40
17.500000000000234
  0
ARC
  5
16C
100
AcDbEntity
  8
ADF70-1104
370
              15
390
0
  6
Continuous
 62
               7
100
AcDbCircle
 10
-561.6575670843738
 20
-402.86787813860929
 30
0.0
 40
250.00000000000006
100
AcDbArc
 50
323.71254291489004
 51
358.83061719438592
  0
LINE
  5
16D
100
AcDbEntity
  8
ADF70-1104
370
              15
390
0
  6
STYLE_12
 62
               7
100
AcDbLine
 10
-438.6575670843738
 20
-537.33176329439141
 30
0.0
 11
-438.6575670843738
 21
-547.8678781386094
 31
0.0
  0
LINE
  5
16E
100
AcDbEntity
  8
ADF70-1104
370
              15
390
0
  6
STYLE_12
 62
               7
100
AcDbLine
 10
-436.87150513280653
 20
-533.50154107879655
 30
0.0
 11
-425.35716242851868
 21
-523.83986036237968
 31
0.0
  0
LINE
  5
16F
100
AcDbEntity
  8
ADF70-1104
370
              15
390
0
  6
STYLE_12
 62
               7
100
AcDbLine
 10
-461.6575670843738
 20
-522.8678781386094
 30
0.0
 11
-423.53564404474946
 21
-522.8678781386094
 31
0.0
  0
SPLINE
  5
170
100
AcDbEntity
  8
ADF70-1104
370
              15
390
0
  6
STYLE_12
 62
               7
100
AcDbSpline
210
0.0
220
0.0
230
1.0
 70
               8
 71
               2
 72
              11
 73
               8
 74
               0
 42
0.000001
 43
0.000001
 40
0.0
 40
0.0
 40
0.0
 40
1.0
 40
1.0
 40
2.0
 40
3.0
 40
3.0
 40
4.0
 40
4.0
 40
4.0
 10
-368.42657316605732
 20
-488.75285447229874
 30
0.0
 10
-367.38357631209783
 20
-487.21874911227894
 30
0.0
 10
-366.34057945813834
 20
-485.68464375225915
 30
0.0
 10
-356.48856921979836
 20
-469.9596460658455
 30
0.0
 10
-341.94104435202757
 20
-435.99681326411257
 30
0.0
 10
-337.64489423941791
 20
-410.82170670931089
 30
0.0
 10
-337.4095737638504
 20
-409.02086505440934
 30
0.0
 10
-337.1742532882829
 20
-407.22002339950768
 30
0.0
  0
ARC
  5
171
100
AcDbEntity
  8
ADF70-1104
370
              15
390
0
  6
STYLE_12
 62
               7
100
AcDbCircle
 10
-431.80014884595198
 20
-447.79443737720487
 30
0.0
 40
75.457286098765749
100
AcDbArc
 50
276.89357316332632
 51
327.1253660253177
  0
ARC
  5
172
100
AcDbEntity
  8
ADF70-1104
370
              15
390
0
  6
STYLE_12
 62
               7
100
AcDbCircle
 10
-422.14322438008571
 20
-527.67008257797454
 30
0.0
 40
5.0000000000000071
100
AcDbArc
 50
96.893573163325215
 51
130.00000000000057
  0
LINE
  5
173
100
AcDbEntity
  8
ADF70-1104
370
              15
390
0
  6
Continuous
 62
               7
100
AcDbLine
 10
-332.21640252035763
 20
-402.86787813860929
 30
0.0
 11
-316.708592806056
 21
-402.86787813860929
 31
0.0
  0
ARC
  5
174
100
AcDbEntity
  8
ADF70-1104
370
              15
390
0
  6
STYLE_12
 62
               7
100
AcDbCircle
 10
-332.21640252035741
 20
-407.86787813860951
 30
0.0
 40
5.0
100
AcDbArc
 50
90.0
 51
172.55520025602556
  0
ARC
  5
175
100
AcDbEntity
  8
ADF70-1104
370
              15
390
0
  6
Continuous
 62
               7
100
AcDbCircle
 10
-316.708592806056
 20
-407.86787813860929
 30
0.0
 40
5.0000000000000551
100
AcDbArc
 50
358.83061719438365
 51
90.0
  0
LINE
  5
176
100
AcDbEntity
  8
ADF70-1104
370
              15
390
0
  6
Continuous
 62
               7
100
AcDbLine
 10
-364.17339050305895
 20
-552.8678781386094
 30
0.0
 11
-369.72597126233472
 21
-552.8678781386094
 31
0.0
  0
ARC
  5
177
100
AcDbEntity
  8
ADF70-1104
370
              15
390
0
  6
Continuous
 62
               7
100
AcDbCircle
 10
-364.17339050305895
 20
-547.8678781386094
 30
0.0
 40
5.0
100
AcDbArc
 50
270.00000000000261
 51
323.71254291488879
  0
ARC
  5
178
100
AcDbEntity
  8
ADF70-1104
370
              15
390
0
  6
STYLE_12
 62
               7
100
AcDbCircle
 10
-433.6575670843738
 20
-537.33176329439141
 30
0.0
 40
5.0000000000000018
100
AcDbArc
 50
130.0000000000006
 51
180.0
  0
ARC
  5
179
100
AcDbEntity
  8
ADF70-1104
370
              15
390
0
  6
Continuous
 62
               7
100
AcDbCircle
 10
-361.65756708437357
 20
-402.86787813860929
 30
0.0
 40
249.9999999999998
100
AcDbArc
 50
181.16938280561411
 51
216.28745708510999
  0
LINE
  5
17A
100
AcDbEntity
  8
ADF70-1104
370
              15
390
0
  6
STYLE_12
 62
               7
100
AcDbLine
 10
-484.65756708437357
 20
-537.33176329439141
 30
0.0
 11
-484.65756708437357
 21
-547.8678781386094
 31
0.0
  0
LINE
  5
17B
100
AcDbEntity
  8
ADF70-1104
370
              15
390
0
  6
STYLE_12
 62
               7
100
AcDbLine
 10
-486.44362903594083
 20
-533.50154107879655
 30
0.0
 11
-497.95797174022869
 21
-523.83986036237968
 31
0.0
  0
LINE
  5
17C
100
AcDbEntity
  8
ADF70-1104
370
              15
390
0
  6
STYLE_12
 62
               7
100
AcDbLine
 10
-461.6575670843738
 20
-522.8678781386094
 30
0.0
 11
-499.7794901239979
 21
-522.8678781386094
 31
0.0
  0
LINE
  5
17D
100
AcDbEntity
  8
ADF70-1104
370
              15
390
0
  6
STYLE_12
 62
               7
100
AcDbLine
 10
-485.2344540179181
 20
-535.00022500361649
 30
0.0
 11
-438.08068015083177
 21
-535.00022500361649
 31
0.0
  0
SPLINE
  5
17E
100
AcDbEntity
  8
ADF70-1104
370
              15
390
0
  6
STYLE_12
 62
               7
100
AcDbSpline
210
0.0
220
0.0
230
1.0
 70
               8
 71
               2
 72
              11
 73
               8
 74
               0
 42
0.000001
 43
0.000001
 40
0.0
 40
0.0
 40
0.0
 40
1.0
 40
1.0
 40
2.0
 40
3.0
 40
3.0
 40
4.0
 40
4.0
 40
4.0
 10
-554.88856100269004
 20
-488.75285447229874
 30
0.0
 10
-555.93155785664953
 20
-487.21874911227894
 30
0.0
 10
-556.97455471060903
 20
-485.68464375225915
 30
0.0
 10
-566.826564948949
 20
-469.9596460658455
 30
0.0
 10
-581.37408981671979
 20
-435.99681326411257
 30
0.0
 10
-585.67023992932945
 20
-410.82170670931089
 30
0.0
 10
-585.90556040489696
 20
-409.02086505440934
 30
0.0
 10
-586.14088088046447
 20
-407.22002339950768
 30
0.0
  0
ARC
  5
17F
100
AcDbEntity
  8
ADF70-1104
370
              15
390
0
  6
STYLE_12
 62
               7
100
AcDbCircle
 10
-491.51498532279538
 20
-447.79443737720487
 30
0.0
 40
75.457286098765806
100
AcDbArc
 50
212.87463397468233
 51
263.10642683667373
  0
ARC
  5
180
100
AcDbEntity
  8
ADF70-1104
370
              15
390
0
  6
STYLE_12
 62
               7
100
AcDbCircle
 10
-501.17190978866165
 20
-527.67008257797454
 30
0.0
 40
5.0000000000000018
100
AcDbArc
 50
49.999999999999403
 51
83.106426836674814
  0
LINE
  5
181
100
AcDbEntity
  8
ADF70-1104
370
              15
390
0
  6
Continuous
 62
               7
100
AcDbLine
 10
-591.09873164838973
 20
-402.86787813860929
 30
0.0
 11
-606.60654136269113
 21
-402.86787813860929
 31
0.0
  0
ARC
  5
182
100
AcDbEntity
  8
ADF70-1104
370
              15
390
0
  6
STYLE_12
 62
               7
100
AcDbCircle
 10
-591.09873164838996
 20
-407.86787813860951
 30
0.0
 40
4.9999999999999236
100
AcDbArc
 50
7.4447997439744569
 51
90.0
  0
ARC
  5
183
100
AcDbEntity
  8
ADF70-1104
370
              15
390
0
  6
Continuous
 62
               7
100
AcDbCircle
 10
-606.60654136269113
 20
-407.86787813860929
 30
0.0
 40
5.0
100
AcDbArc
 50
90.0
 51
181.16938280561635
  0
LINE
  5
184
100
AcDbEntity
  8
ADF70-1104
370
              15
390
0
  6
Continuous
 62
               7
100
AcDbLine
 10
-559.14174366568841
 20
-552.8678781386094
 30
0.0
 11
-553.58916290641264
 21
-552.8678781386094
 31
0.0
  0
ARC
  5
185
100
AcDbEntity
  8
ADF70-1104
370
              15
390
0
  6
Continuous
 62
               7
100
AcDbCircle
 10
-559.14174366568841
 20
-547.8678781386094
 30
0.0
 40
5.0000000000001155
100
AcDbArc
 50
216.28745708511232
 51
269.99999999999744
  0
LINE
  5
186
100
AcDbEntity
  8
ADF70-1104
370
              15
390
0
  6
STYLE_12
 62
               7
100
AcDbLine
 10
-438.6575670843738
 20
-547.8678781386094
 30
0.0
 11
-484.65756708437357
 21
-547.8678781386094
 31
0.0
  0
ARC
  5
187
100
AcDbEntity
  8
ADF70-1104
370
              15
390
0
  6
STYLE_12
 62
               7
100
AcDbCircle
 10
-489.65756708437357
 20
-537.33176329439141
 30
0.0
 40
5.0
100
AcDbArc
 50
0.0
 51
49.999999999999432
  0
LINE
  5
188
100
AcDbEntity
  8
ADF70-1104
370
              15
390
0
  6
Continuous
 62
               7
100
AcDbLine
 10
-591.09873164838973
 20
-402.86787813860929
 30
0.0
 11
-332.21640252035741
 21
-402.86787813860951
 31
0.0
  0
LINE
  5
189
100
AcDbEntity
  8
ADF70-1104
370
              15
390
0
  6
Continuous
 62
               7
100
AcDbLine
 10
-553.58916290641264
 20
-552.8678781386094
 30
0.0
 11
-369.72597126233472
 21
-552.8678781386094
 31
0.0
  0
POLYLINE
  5
18A
100
AcDbEntity
  8
ADF70-1104
370
              15
390
0
  6
Continuous
 62
               7
100
AcDb2dPolyline
 66
               1
 10
0.0
 20
0.0
 30
0.0
 70
               1
 75
               5
  0
VERTEX
  5
18B
100
AcDbEntity
  8
ADF70-1104
370
              15
390
0
  6
Continuous
 62
               7
100
AcDbVertex
100
AcDb2dVertex
 10
370.28409958229054
 20
813.0543197449424
 30
0.0
  0
VERTEX
  5
18C
100
AcDbEntity
  8
ADF70-1104
370
              15
390
0
  6
Continuous
 62
               7
100
AcDbVertex
100
AcDb2dVertex
 10
535.28409958229076
 20
813.0543197449424
 30
0.0
  0
VERTEX
  5
18D
100
AcDbEntity
  8
ADF70-1104
370
              15
390
0
  6
Continuous
 62
               7
100
AcDbVertex
100
AcDb2dVertex
 10
535.28409958229076
 20
543.05431974494354
 30
0.0
  0
VERTEX
  5
18E
100
AcDbEntity
  8
ADF70-1104
370
              15
390
0
  6
Continuous
 62
               7
100
AcDbVertex
100
AcDb2dVertex
 10
370.28409958229054
 20
543.05431974494354
 30
0.0
  0
SEQEND
  5
18F
100
AcDbEntity
  8
ADF70-1104
370
              15
390
0
  6
Continuous
 62
               7
  0
LINE
  5
190
100
AcDbEntity
  8
ADF70-1104
370
               5
390
0
  6
Continuous
 62
               7
100
AcDbLine
 10
252.78409958229145
 20
813.0543197449424
 30
0.0
 11
652.78409958229167
 21
813.0543197449424
 31
0.0
  0
LINE
  5
191
100
AcDbEntity
  8
ADF70-1104
370
              15
390
0
  6
STYLE_12
 62
               7
100
AcDbLine
 10
-509.15756708437357
 20
-457.9095897794374
 30
0.0
 11
-509.15756708437357
 21
-417.9095897794374
 31
0.0
  0
POLYLINE
  5
192
100
AcDbEntity
  8
ADF70-1104
370
               5
390
0
  6
STYLE_12
 62
               7
100
AcDb2dPolyline
 66
               1
 10
0.0
 20
0.0
 30
0.0
 75
               5
  0
VERTEX
  5
193
100
AcDbEntity
  8
ADF70-1104
370
               5
390
0
  6
STYLE_12
 62
               7
100
AcDbVertex
100
AcDb2dVertex
 10
602.78409958229247
 20
583.05431974494377
 30
0.0
  0
VERTEX
  5
194
100
AcDbEntity
  8
ADF70-1104
370
               5
390
0
  6
STYLE_12
 62
               7
100
AcDbVertex
100
AcDb2dVertex
 10
602.78409958229247
 20
813.0543197449424
 30
0.0
  0
VERTEX
  5
195
100
AcDbEntity
  8
ADF70-1104
370
               5
390
0
  6
STYLE_12
 62
               7
100
AcDbVertex
100
AcDb2dVertex
 10
302.78409958229031
 20
813.0543197449424
 30
0.0
  0
VERTEX
  5
196
100
AcDbEntity
  8
ADF70-1104
370
               5
390
0
  6
STYLE_12
 62
               7
100
AcDbVertex
100
AcDb2dVertex
 10
302.78409958229031
 20
583.05431974494377
 30
0.0
  0
SEQEND
  5
197
100
AcDbEntity
  8
ADF70-1104
370
               5
390
0
  6
STYLE_12
 62
               7
  0
ARC
  5
198
100
AcDbEntity
  8
ADF70-1104
370
               5
390
0
  6
STYLE_12
 62
               7
100
AcDbCircle
 10
452.78409958229065
 20
583.05431974494354
 30
0.0
 40
150.00000000000034
100
AcDbArc
 50
180.0
 51
0.0
  0
CIRCLE
  5
199
100
AcDbEntity
  8
ADF70-1104
370
               5
390
0
  6
STYLE_12
 62
               7
100
AcDbCircle
 10
452.78409958229065
 20
583.05431974494354
 30
0.0
 40
23.0
  0
CIRCLE
  5
19A
100
AcDbEntity
  8
ADF70-1104
370
               5
390
0
  6
STYLE_12
 62
               7
100
AcDbCircle
 10
452.78409958229065
 20
748.09041022056226
 30
0.0
 40
17.500000000000011
  0
INSERT
  5
19B
100
AcDbEntity
  8
ADF70-1104
390
0
 62
               7
100
AcDbBlockReference
  2
グループ-2
 10
1403.2585979657501
 20
-1433.8173312289091
 30
0.0
  0
LINE
  5
19C
100
AcDbEntity
  8
ADF70-1104
370
              15
390
0
  6
STYLE_12
 62
               7
100
AcDbLine
 10
-489.15756708437357
 20
-437.90958977943717
 30
0.0
 11
-529.15756708437357
 21
-437.90958977943717
 31
0.0
  0
CIRCLE
  5
19D
100
AcDbEntity
  8
ADF70-1104
370
              15
390
0
  6
STYLE_12
 62
               7
100
AcDbCircle
 10
-509.15756708437357
 20
-437.90958977943717
 30
0.0
 40
10.0
  0
LINE
  5
19E
100
AcDbEntity
  8
ADF70-1104
370
              15
390
0
  6
STYLE_12
 62
               7
100
AcDbLine
 10
-414.15756708437357
 20
-457.90958977943717
 30
0.0
 11
-414.15756708437357
 21
-417.90958977943717
 31
0.0
  0
LINE
  5
19F
100
AcDbEntity
  8
ADF70-1104
370
              15
390
0
  6
STYLE_12
 62
               7
100
AcDbLine
 10
-394.15756708437357
 20
-437.90958977943717
 30
0.0
 11
-434.15756708437357
 21
-437.90958977943717
 31
0.0
  0
CIRCLE
  5
1A0
100
AcDbEntity
  8
ADF70-1104
370
              15
390
0
  6
STYLE_12
 62
               7
100
AcDbCircle
 10
-414.15756708437357
 20
-437.90958977943717
 30
0.0
 40
10.0
  0
ENDSEC
  0
SECTION
  2
OBJECTS
  0
DICTIONARY
  5
19
100
AcDbDictionary
280
               0
281
               1
  3
ACAD_GROUP
350
1A
  3
ACAD_MLINESTYLE
350
1B
  3
ACAD_LAYOUT
350
1E
  3
ACAD_PLOTSETTINGS
350
22
  3
ACAD_PLOTSTYLENAME
350
1F
  0
DICTIONARY
  5
1A
102
{ACAD_REACTORS
330
19
102
}
100
AcDbDictionary
280
               0
281
               1
  0
DICTIONARY
  5
1B
102
{ACAD_REACTORS
330
19
102
}
100
AcDbDictionary
280
               0
281
               1
  3
Standard
350
1C
  0
MLINESTYLE
  5
1C
102
{ACAD_REACTORS
330
1B
102
}
100
AcDbMlineStyle
  2
Standard
 70
               0
  3

 62
               0
 51
90.0
 52
90.0
 71
               2
 49
0.5
 62
             256
  6
ByLayer
 49
-0.5
 62
             256
  6
ByLayer
  0
ACDBDICTIONARYWDFLT
  5
1F
102
{ACAD_REACTORS
330
19
102
}
100
AcDbDictionary
281
               1
  3
Normal
350
1D
100
AcDbDictionaryWithDefault
340
1D
  0
ACDBPLACEHOLDER
  5
1D
102
{ACAD_REACTORS
330
1F
102
}
  0
LAYOUT
  5
20
102
{ACAD_REACTORS
330
1E
102
}
100
AcDbPlotSettings
  1

  2

  4

  6

 40
0.0
 41
0.0
 42
0.0
 43
0.0
 44
0.0
 45
0.0
 46
0.0
 47
0.0
 48
0.0
 49
0.0
140
0.0
141
0.0
142
1.0
143
1.0
 70
            1024
 72
               0
 73
               0
 74
               0
  7

 75
               0
147
1.0
148
0.0
149
0.0
100
AcDbLayout
  1
Model
 70
               0
 71
               0
 10
0.0
 20
0.0
 11
0.0
 21
0.0
 12
0.0
 22
0.0
 32
0.0
 14
0.0
 24
0.0
 34
0.0
 15
0.0
 25
0.0
 35
0.0
146
0.0
 13
0.0
 23
0.0
 33
0.0
 16
0.0
 26
0.0
 36
0.0
 17
0.0
 27
0.0
 37
0.0
 76
               0
330
A
331
0
345
0
346
0
  0
LAYOUT
  5
21
102
{ACAD_REACTORS
330
1E
102
}
100
AcDbPlotSettings
  1

  2

  4

  6

 40
0.0
 41
0.0
 42
0.0
 43
0.0
 44
0.0
 45
0.0
 46
0.0
 47
0.0
 48
0.0
 49
0.0
140
0.0
141
0.0
142
1.0
143
1.0
 70
               0
 72
               0
 73
               0
 74
               0
  7

 75
               0
147
1.0
148
0.0
149
0.0
100
AcDbLayout
  1
Layout1
 70
               0
 71
               0
 10
0.0
 20
0.0
 11
0.0
 21
0.0
 12
0.0
 22
0.0
 32
0.0
 14
0.0
 24
0.0
 34
0.0
 15
0.0
 25
0.0
 35
0.0
146
0.0
 13
0.0
 23
0.0
 33
0.0
 16
0.0
 26
0.0
 36
0.0
 17
0.0
 27
0.0
 37
0.0
 76
               0
330
B
331
0
345
0
346
0
  0
DICTIONARY
  5
1E
102
{ACAD_REACTORS
330
19
102
}
100
AcDbDictionary
280
               0
281
               1
  3
Layout1
350
21
  3
Model
350
20
  0
DICTIONARY
  5
22
102
{ACAD_REACTORS
330
19
102
}
100
AcDbDictionary
280
               0
281
               1
  0
ENDSEC
  0
EOF
