  0
SECTION
  2
HEADER
  9
$ACADVER
  1
AC1015
  9
$ACADMAINTVER
 70
               6
  9
$DWGCODEPAGE
  3
ANSI_932
  9
$INSBASE
 10
0.0
 20
0.0
 30
0.0
  9
$EXTMIN
 10
-975.00000000024102
 20
-1431.5255224711129
 30
-14.834305555555554
  9
$EXTMAX
 10
975.00000000024124
 20
1405.9972926412993
 30
14.834305555555554
  9
$LIMMIN
 10
0.0
 20
0.0
  9
$LIMMAX
 10
0.0
 20
0.0
  9
$ORTHOMODE
 70
               0
  9
$REGENMODE
 70
               1
  9
$FILLMODE
 70
               1
  9
$QTEXTMODE
 70
               0
  9
$MIRRTEXT
 70
               1
  9
$LTSCALE
 40
50.799999999999997
  9
$ATTMODE
 70
               1
  9
$TEXTSIZE
 40
0.2
  9
$TRACEWID
 40
1.0
  9
$TEXTSTYLE
  7
Standard
  9
$CLAYER
  8
notes
  9
$CELTYPE
  6
Continuous
  9
$CECOLOR
 62
             256
  9
$CELTSCALE
 40
1.0
  9
$DISPSILH
 70
               0
  9
$DIMSCALE
 40
1.0
  9
$DIMASZ
 40
31.75
  9
$DIMEXO
 40
0.0
  9
$DIMDLI
 40
6.9999999999999396
  9
$DIMRND
 40
0.0
  9
$DIMDLE
 40
0.0
  9
$DIMEXE
 40
19.999999999996199
  9
$DIMTP
 40
0.0
  9
$DIMTM
 40
0.0
  9
$DIMTXT
 40
21.828125
  9
$DIMCEN
 40
0.0
  9
$DIMTSZ
 40
0.0
  9
$DIMTOL
 70
               0
  9
$DIMLIM
 70
               0
  9
$DIMTIH
 70
               0
  9
$DIMTOH
 70
               0
  9
$DIMSE1
 70
               0
  9
$DIMSE2
 70
               0
  9
$DIMTAD
 70
               1
  9
$DIMZIN
 70
              11
  9
$DIMBLK
  1
VW_FILLEDARROW
  9
$DIMASO
 70
               1
  9
$DIMSHO
 70
               1
  9
$DIMPOST
  1
<>
  9
$DIMAPOST
  1
[]
  9
$DIMALT
 70
               0
  9
$DIMALTD
 70
               1
  9
$DIMALTF
 40
1.0
  9
$DIMLFAC
 40
1.0
  9
$DIMTOFL
 70
               0
  9
$DIMTVP
 40
0.0
  9
$DIMTIX
 70
               1
  9
$DIMSOXD
 70
               0
  9
$DIMSAH
 70
               0
  9
$DIMBLK1
  1

  9
$DIMBLK2
  1

  9
$DIMSTYLE
  2
JIS
  9
$DIMCLRD
 70
               0
  9
$DIMCLRE
 70
               0
  9
$DIMCLRT
 70
               0
  9
$DIMTFAC
 40
1.0
  9
$DIMGAP
 40
1.00000000000108
  9
$DIMJUST
 70
               0
  9
$DIMSD1
 70
               0
  9
$DIMSD2
 70
               0
  9
$DIMTOLJ
 70
               1
  9
$DIMTZIN
 70
              11
  9
$DIMALTZ
 70
              11
  9
$DIMALTTZ
 70
              11
  9
$DIMUPT
 70
               0
  9
$DIMDEC
 70
               1
  9
$DIMTDEC
 70
               1
  9
$DIMALTU
 70
               2
  9
$DIMALTTD
 70
               2
  9
$DIMTXSTY
  7
MS UI Gothic
  9
$DIMAUNIT
 70
               0
  9
$DIMADEC
 70
               2
  9
$DIMALTRND
 40
0.0
  9
$DIMAZIN
 70
               0
  9
$DIMDSEP
 70
              46
  9
$DIMATFIT
 70
               0
  9
$DIMFRAC
 70
               2
  9
$DIMLDRBLK
  1

  9
$DIMLUNIT
 70
               2
  9
$DIMLWD
 70
              -2
  9
$DIMLWE
 70
              -2
  9
$DIMTMOVE
 70
               0
  9
$LUNITS
 70
               2
  9
$LUPREC
 70
               4
  9
$SKETCHINC
 40
0.1
  9
$FILLETRAD
 40
0.0
  9
$AUNITS
 70
               0
  9
$AUPREC
 70
               0
  9
$MENU
  1
acad
  9
$ELEVATION
 40
0.0
  9
$PELEVATION
 40
0.0
  9
$THICKNESS
 40
0.0
  9
$LIMCHECK
 70
               0
  9
$CHAMFERA
 40
0.0
  9
$CHAMFERB
 40
0.0
  9
$CHAMFERC
 40
0.0
  9
$CHAMFERD
 40
0.0
  9
$SKPOLY
 70
               0
  9
$TDCREATE
 40
2456041.593460648
  9
$TDUCREATE
 40
0.000000000
  9
$TDUPDATE
 40
2456041.593460648
  9
$TDUUPDATE
 40
0.000000000
  9
$TDINDWG
 40
0.0000000000
  9
$TDUSRTIMER
 40
0.0000000000
  9
$USRTIMER
 70
               1
  9
$ANGBASE
 50
0.0
  9
$ANGDIR
 70
               0
  9
$PDMODE
 70
               1
  9
$PDSIZE
 40
-2.0
  9
$PLINEWID
 40
0.0
  9
$SPLFRAME
 70
               0
  9
$SPLINETYPE
 70
               6
  9
$SPLINESEGS
 70
               8
  9
$HANDSEED
  5
1AF
  9
$SURFTAB1
 70
               6
  9
$SURFTAB2
 70
               6
  9
$SURFTYPE
 70
               6
  9
$SURFU
 70
               6
  9
$SURFV
 70
               6
  9
$UCSBASE
  2

  9
$UCSNAME
  2

  9
$UCSORG
 10
0.0
 20
0.0
 30
0.0
  9
$UCSXDIR
 10
1.0
 20
0.0
 30
0.0
  9
$UCSYDIR
 10
0.0
 20
1.0
 30
0.0
  9
$UCSORTHOREF
  2

  9
$UCSORTHOVIEW
 70
               0
  9
$UCSORGTOP
 10
0.0
 20
0.0
 30
0.0
  9
$UCSORGBOTTOM
 10
0.0
 20
0.0
 30
0.0
  9
$UCSORGLEFT
 10
0.0
 20
0.0
 30
0.0
  9
$UCSORGRIGHT
 10
0.0
 20
0.0
 30
0.0
  9
$UCSORGFRONT
 10
0.0
 20
0.0
 30
0.0
  9
$UCSORGBACK
 10
0.0
 20
0.0
 30
0.0
  9
$PUCSBASE
  2

  9
$PUCSNAME
  2

  9
$PUCSORG
 10
0.0
 20
0.0
 30
0.0
  9
$PUCSXDIR
 10
1.0
 20
0.0
 30
0.0
  9
$PUCSYDIR
 10
0.0
 20
1.0
 30
0.0
  9
$PUCSORTHOREF
  2

  9
$PUCSORTHOVIEW
 70
               0
  9
$PUCSORGTOP
 10
0.0
 20
0.0
 30
0.0
  9
$PUCSORGBOTTOM
 10
0.0
 20
0.0
 30
0.0
  9
$PUCSORGLEFT
 10
0.0
 20
0.0
 30
0.0
  9
$PUCSORGRIGHT
 10
0.0
 20
0.0
 30
0.0
  9
$PUCSORGFRONT
 10
0.0
 20
0.0
 30
0.0
  9
$PUCSORGBACK
 10
0.0
 20
0.0
 30
0.0
  9
$USERI1
 70
               0
  9
$USERI2
 70
               0
  9
$USERI3
 70
               0
  9
$USERI4
 70
               0
  9
$USERI5
 70
               0
  9
$USERR1
 40
0.0
  9
$USERR2
 40
0.0
  9
$USERR3
 40
0.0
  9
$USERR4
 40
0.0
  9
$USERR5
 40
0.0
  9
$WORLDVIEW
 70
               1
  9
$SHADEDGE
 70
               3
  9
$SHADEDIF
 70
              70
  9
$TILEMODE
 70
               1
  9
$MAXACTVP
 70
              64
  9
$PINSBASE
 10
0.0
 20
0.0
 30
0.0
  9
$PLIMCHECK
 70
               0
  9
$PEXTMIN
 10
1.0000000000000000E+20
 20
1.0000000000000000E+20
 30
1.0000000000000000E+20
  9
$PEXTMAX
 10
-1.0000000000000000E+20
 20
-1.0000000000000000E+20
 30
-1.0000000000000000E+20
  9
$PLIMMIN
 10
0.0
 20
0.0
  9
$PLIMMAX
 10
12.0
 20
9.0
  9
$UNITMODE
 70
               0
  9
$VISRETAIN
 70
               0
  9
$PLINEGEN
 70
               1
  9
$PSLTSCALE
 70
               0
  9
$TREEDEPTH
 70
            3020
  9
$CMLSTYLE
  2
Standard
  9
$CMLJUST
 70
               0
  9
$CMLSCALE
 40
1.0
  9
$PROXYGRAPHICS
 70
               0
  9
$MEASUREMENT
 70
               1
  9
$CELWEIGHT
370
               0
  9
$ENDCAPS
280
               0
  9
$JOINSTYLE
280
               0
  9
$LWDISPLAY
290
               1
  9
$INSUNITS
 70
               4
  9
$HYPERLINKBASE
  1

  9
$STYLESHEET
  1

  9
$XEDIT
290
               1
  9
$CEPSNTYPE
380
               0
  9
$PSTYLEMODE
290
               1
  9
$FINGERPRINTGUID
  2

  9
$VERSIONGUID
  2

  9
$EXTNAMES
290
               1
  9
$PSVPSCALE
 40
0.0
  0
ENDSEC
  0
SECTION
  2
CLASSES
  0
CLASS
  1
LWPOLYLINE
  2
AcDbPolyline
  3
AutoCAD 2000
 90
        0
280
               0
281
               1
  0
CLASS
  1
IMAGE
  2
AcDbRasterImage
  3
ISM
 90
      127
280
               0
281
               1
  0
CLASS
  1
OLE2FRAME
  2
AcDbOle2Frame
  3
AutoCAD 2000
 90
        0
280
               0
281
               1
  0
CLASS
  1
HATCH
  2
AcDbHatch
  3
AutoCAD 2000
 90
        0
280
               0
281
               1
  0
CLASS
  1
DICTIONARYVAR
  2
AcDbDictionaryVar
  3
AutoCAD 2000
 90
        0
280
               0
281
               0
  0
CLASS
  1
RASTERVARIABLES
  2
AcDbRasterVariables
  3
ISM
 90
        0
280
               0
281
               0
  0
CLASS
  1
IMAGEDEF
  2
AcDbRasterImageDef
  3
ISM
 90
        0
280
               0
281
               0
  0
CLASS
  1
IMAGEDEF_REACTOR
  2
AcDbRasterImageDefReactor
  3
ISM
 90
        1
280
               0
281
               0
  0
CLASS
  1
IDBUFFER
  2
AcDbIdBuffer
  3
AutoCAD 2000
 90
        0
280
               0
281
               0
  0
CLASS
  1
SPATIAL_FILTER
  2
AcDbSpatialFilter
  3
AutoCAD 2000
 90
        0
280
               0
281
               0
  0
CLASS
  1
XRECORD
  2
AcDbXrecord
  3
AutoCAD 2000
 90
        0
280
               0
281
               0
  0
CLASS
  1
SORTENTSTABLE
  2
AcDbSortentsTable
  3
AutoCAD 2000
 90
        0
280
               0
281
               0
  0
CLASS
  1
LAYER_INDEX
  2
AcDbLayerIndex
  3
AutoCAD 2000
 90
        0
280
               0
281
               0
  0
CLASS
  1
SPATIAL_INDEX
  2
AcDbSpatialIndex
  3
AutoCAD 2000
 90
        0
280
               0
281
               0
  0
CLASS
  1
OBJECT_PTR
  2
CAseDLPNTableRecord
  3
"ASE-LPNTableRecord"
 90
        1
280
               0
281
               0
  0
CLASS
  1
LAYOUT
  2
AcDbLayout
  3
AutoCAD 2000
 90
        0
280
               0
281
               0
  0
CLASS
  1
PLOTSETTINGS
  2
AcDbPlotSettings
  3
AutoCAD 2000
 90
        0
280
               0
281
               0
  0
CLASS
  1
ACDBDICTIONARYWDFLT
  2
AcDbDictionaryWithDefault
  3
AutoCAD 2000
 90
        0
280
               0
281
               0
  0
CLASS
  1
ACDBPLACEHOLDER
  2
AcDbPlaceHolder
  3
AutoCAD 2000
 90
        0
280
               0
281
               0
  0
ENDSEC
  0
SECTION
  2
TABLES
  0
TABLE
  2
VPORT
  5
7
100
AcDbSymbolTable
 70
               1
  0
VPORT
  5
15
100
AcDbSymbolTableRecord
100
AcDbViewportTableRecord
  2
*ACTIVE
 70
               0
 10
0.0
 20
0.0
 11
1.0
 21
1.0
 12
0.0000000000001137
 22
-12.764114914906941
 13
0.0
 23
0.0
 14
1.0
 24
1.0
 15
0.0
 25
0.0
 16
0.0
 26
0.0
 36
1.0
 17
0.0
 27
0.0
 37
0.0
 40
2837.522815112412
 41
0.688564
 42
50.0
 43
0.0
 44
0.0
 50
0.0
 51
0.0
 71
               0
 72
            2000
 73
               1
 74
               1
 75
               0
 76
               0
 77
               0
 78
               0
281
               0
 65
               0
110
0.0
120
0.0
130
0.0
111
1.0
121
0.0
131
0.0
112
0.0
122
1.0
132
0.0
345
0
346
0
 79
               0
146
0.0
  0
ENDTAB
  0
TABLE
  2
LTYPE
  5
4
100
AcDbSymbolTable
 70
              15
  0
LTYPE
  5
11
100
AcDbSymbolTableRecord
100
AcDbLinetypeTableRecord
  2
ByBlock
 70
              64
  3

 72
              65
 73
               0
 40
0.0
  0
LTYPE
  5
12
100
AcDbSymbolTableRecord
100
AcDbLinetypeTableRecord
  2
ByLayer
 70
              64
  3

 72
              65
 73
               0
 40
0.0
  0
LTYPE
  5
13
100
AcDbSymbolTableRecord
100
AcDbLinetypeTableRecord
  2
Continuous
 70
              64
  3
Solid line
 72
              65
 73
               0
 40
0.0
  0
LTYPE
  5
35
100
AcDbSymbolTableRecord
100
AcDbLinetypeTableRecord
  2
STYLE_01
 70
               0
  3

 72
              65
 73
               2
 40
9.375
 49
6.25
 74
               0
 49
-3.125
 74
               0
  0
LTYPE
  5
36
100
AcDbSymbolTableRecord
100
AcDbLinetypeTableRecord
  2
STYLE_02
 70
               0
  3

 72
              65
 73
               4
 40
0.984251968503937
 49
0.4921259842519685
 74
               0
 49
-0.2460629921259843
 74
               0
 49
0.0004999999999999
 74
               0
 49
-0.2455629921259843
 74
               0
  0
LTYPE
  5
37
100
AcDbSymbolTableRecord
100
AcDbLinetypeTableRecord
  2
STYLE_03
 70
               0
  3

 72
              65
 73
               2
 40
1.25
 49
1.0416400000000001
 74
               0
 49
-0.2083599999999999
 74
               0
  0
LTYPE
  5
38
100
AcDbSymbolTableRecord
100
AcDbLinetypeTableRecord
  2
STYLE_04
 70
               0
  3

 72
              65
 73
               2
 40
1.5277099999999999
 49
1.3194249999999998
 74
               0
 49
-0.208285
 74
               0
  0
LTYPE
  5
39
100
AcDbSymbolTableRecord
100
AcDbLinetypeTableRecord
  2
STYLE_05
 70
               0
  3

 72
              65
 73
               2
 40
0.20828
 49
0.069425
 74
               0
 49
-0.138855
 74
               0
  0
LTYPE
  5
3A
100
AcDbSymbolTableRecord
100
AcDbLinetypeTableRecord
  2
STYLE_06
 70
               0
  3

 72
              65
 73
               4
 40
1.0416400000000001
 49
0.625
 74
               0
 49
-0.20828
 74
               0
 49
0.06943
 74
               0
 49
-0.13893
 74
               0
  0
LTYPE
  5
3B
100
AcDbSymbolTableRecord
100
AcDbLinetypeTableRecord
  2
STYLE_07
 70
               0
  3

 72
              65
 73
               6
 40
1.875
 49
0.625
 74
               0
 49
-0.20828
 74
               0
 49
0.6250000000000001
 74
               0
 49
-0.2083599999999999
 74
               0
 49
0.06943
 74
               0
 49
-0.1389299999999999
 74
               0
  0
LTYPE
  5
3C
100
AcDbSymbolTableRecord
100
AcDbLinetypeTableRecord
  2
STYLE_08
 70
               0
  3

 72
              65
 73
               6
 40
1.25
 49
0.625
 74
               0
 49
-0.20828
 74
               0
 49
0.06943
 74
               0
 49
-0.13893
 74
               0
 49
0.0694299999999999
 74
               0
 49
-0.13893
 74
               0
  0
LTYPE
  5
3D
100
AcDbSymbolTableRecord
100
AcDbLinetypeTableRecord
  2
STYLE_09
 70
               0
  3

 72
              65
 73
               4
 40
5.0
 49
3.75
 74
               0
 49
-0.2777849999999998
 74
               0
 49
0.6944300000000003
 74
               0
 49
-0.2777849999999998
 74
               0
  0
LTYPE
  5
3E
100
AcDbSymbolTableRecord
100
AcDbLinetypeTableRecord
  2
STYLE_10
 70
               0
  3

 72
              65
 73
               6
 40
5.9375
 49
3.75
 74
               0
 49
-0.2777849999999998
 74
               0
 49
0.6944300000000003
 74
               0
 49
-0.2777849999999998
 74
               0
 49
0.625
 74
               0
 49
-0.3125
 74
               0
  0
LTYPE
  5
3F
100
AcDbSymbolTableRecord
100
AcDbLinetypeTableRecord
  2
STYLE_11
 70
               0
  3

 72
              65
 73
               2
 40
0.0694444881889764
 49
0.0347222440944882
 74
               0
 49
-0.0347222440944882
 74
               0
  0
LTYPE
  5
40
100
AcDbSymbolTableRecord
100
AcDbLinetypeTableRecord
  2
STYLE_12
 70
               0
  3

 72
              65
 73
               2
 40
0.3937007874015748
 49
0.1968503937007874
 74
               0
 49
-0.1968503937007874
 74
               0
  0
ENDTAB
  0
TABLE
  2
LAYER
  5
2
100
AcDbSymbolTable
 70
               5
  0
LAYER
  5
14
100
AcDbSymbolTableRecord
100
AcDbLayerTableRecord
  2
0
 70
               0
 62
               7
  6
Continuous
290
               1
370
              -3
390
1D
  0
LAYER
  5
41
100
AcDbSymbolTableRecord
100
AcDbLayerTableRecord
  2
Defpoints
 70
               0
 62
               7
  6
Continuous
290
               0
370
              -3
390
1D
  0
LAYER
  5
42
100
AcDbSymbolTableRecord
100
AcDbLayerTableRecord
  2
template
 70
               0
 62
               7
  6
Continuous
290
               1
370
              -3
390
1D
  0
LAYER
  5
43
100
AcDbSymbolTableRecord
100
AcDbLayerTableRecord
  2
notes
 70
               0
 62
               7
  6
Continuous
290
               1
370
              -3
390
1D
  0
LAYER
  5
44
100
AcDbSymbolTableRecord
100
AcDbLayerTableRecord
  2
ADF70-1201
 70
               0
 62
               7
  6
Continuous
290
               1
370
              -3
390
1D
  0
ENDTAB
  0
TABLE
  2
STYLE
  5
3
100
AcDbSymbolTable
 70
               3
  0
STYLE
  5
17
100
AcDbSymbolTableRecord
100
AcDbTextStyleTableRecord
  2
Standard
 70
               0
 40
0.0
 41
1.0
 50
0.0
 71
               0
 42
0.0
  3
txt
  4
BIGFONT.SHX
  0
STYLE
  5
33
100
AcDbSymbolTableRecord
100
AcDbTextStyleTableRecord
  2
MS UI Gothic
 70
               0
 40
0.0
 41
1.0
 50
0.0
 71
               0
 42
0.0
  3

  4
MS UI Gothic
1001
ACAD
1000
MS UI Gothic
1071
        0
  0
STYLE
  5
34
100
AcDbSymbolTableRecord
100
AcDbTextStyleTableRecord
  2
ＭＳ ゴシック
 70
               0
 40
0.0
 41
1.0
 50
0.0
 71
               0
 42
0.0
  3

  4
ＭＳ ゴシック
1001
ACAD
1000
ＭＳ ゴシック
1071
        0
  0
ENDTAB
  0
TABLE
  2
VIEW
  5
5
100
AcDbSymbolTable
 70
               0
  0
ENDTAB
  0
TABLE
  2
UCS
  5
6
100
AcDbSymbolTable
 70
               0
  0
ENDTAB
  0
TABLE
  2
APPID
  5
8
100
AcDbSymbolTable
 70
               1
  0
APPID
  5
16
100
AcDbSymbolTableRecord
100
AcDbRegAppTableRecord
  2
ACAD
 70
               0
  0
ENDTAB
  0
TABLE
  2
DIMSTYLE
  5
9
100
AcDbSymbolTable
 70
               3
100
AcDbDimStyleTable
 71
               0
  0
DIMSTYLE
105
18
100
AcDbSymbolTableRecord
100
AcDbDimStyleTableRecord
  2
Standard
 70
               0
  3

  4

 40
1.0
 41
0.18
 42
0.0625
 43
0.38
 44
0.18
 45
0.0
 46
0.0
 47
0.0
 48
0.0
 71
               0
 72
               0
 73
               1
 74
               1
 75
               0
 76
               0
 77
               0
 78
               0
 79
               0
140
0.18
141
0.09
142
0.0
143
25.399999999999999
144
1.0
145
0.0
146
1.0
147
0.09
148
0.0
170
               0
171
               2
172
               0
173
               0
174
               0
175
               0
176
               0
177
               0
178
               0
179
               0
271
               4
272
               4
273
               2
274
               2
275
               0
276
               0
277
               2
278
              46
279
               0
280
               0
281
               0
282
               0
283
               1
284
               0
285
               0
286
               0
288
               0
289
               3
340
17
341
0
342
0
343
0
344
0
371
              -2
372
              -2
  0
DIMSTYLE
105
4D
100
AcDbSymbolTableRecord
100
AcDbDimStyleTableRecord
  2
tform線あり
 70
               0
  3
<>
  4
[]
 40
1.0
 41
9.9993896484374982
 42
24.999999999999996
 43
0.9999999999999999
 44
0.0
 45
0.0
 46
0.0
 47
0.0
 48
0.0
 71
               0
 72
               0
 73
               0
 74
               0
 75
               0
 76
               0
 77
               1
 78
              11
 79
               0
140
21.828125
141
0.0
142
0.0
143
1.0
144
1.0
145
0.0
146
1.0
147
0.4999999999999999
148
0.0
170
               0
171
               1
172
               0
173
               0
174
               1
175
               0
176
               0
177
               0
178
               0
179
               2
271
               1
272
               1
273
               2
274
               2
275
               0
276
               2
277
               2
278
              46
279
               0
280
               0
281
               0
282
               0
283
               1
284
              11
285
              11
286
              11
288
               0
289
               0
340
33
341
45
342
45
343
0
344
0
371
              -2
372
              -2
  0
DIMSTYLE
105
52
100
AcDbSymbolTableRecord
100
AcDbDimStyleTableRecord
  2
JIS
 70
               0
  3
<>
  4
[]
 40
1.0
 41
31.75
 42
0.0
 43
6.9999999999999396
 44
19.999999999996199
 45
0.0
 46
0.0
 47
0.0
 48
0.0
 71
               0
 72
               0
 73
               0
 74
               0
 75
               0
 76
               0
 77
               1
 78
              11
 79
               0
140
21.828125
141
0.0
142
0.0
143
1.0
144
1.0
145
0.0
146
1.0
147
1.00000000000108
148
0.0
170
               0
171
               1
172
               0
173
               0
174
               1
175
               0
176
               0
177
               0
178
               0
179
               2
271
               1
272
               1
273
               2
274
               2
275
               0
276
               2
277
               2
278
              46
279
               0
280
               0
281
               0
282
               0
283
               1
284
              11
285
              11
286
              11
288
               0
289
               0
340
33
341
4E
342
4E
343
0
344
0
371
              -2
372
              -2
  0
ENDTAB
  0
TABLE
  2
BLOCK_RECORD
  5
1
100
AcDbSymbolTable
 70
              18
  0
BLOCK_RECORD
  5
A
100
AcDbSymbolTableRecord
100
AcDbBlockTableRecord
  2
*MODEL_SPACE
340
20
  0
BLOCK_RECORD
  5
B
100
AcDbSymbolTableRecord
100
AcDbBlockTableRecord
  2
*PAPER_SPACE
340
21
  0
BLOCK_RECORD
  5
45
100
AcDbSymbolTableRecord
100
AcDbBlockTableRecord
  2
_DOT
340
0
  0
BLOCK_RECORD
  5
4E
100
AcDbSymbolTableRecord
100
AcDbBlockTableRecord
  2
VW_FILLEDARROW
340
0
  0
BLOCK_RECORD
  5
23
100
AcDbSymbolTableRecord
100
AcDbBlockTableRecord
  2
グループ
340
0
102
{BLKREFS
331
129
102
}
  0
BLOCK_RECORD
  5
24
100
AcDbSymbolTableRecord
100
AcDbBlockTableRecord
  2
*D3
340
0
  0
BLOCK_RECORD
  5
25
100
AcDbSymbolTableRecord
100
AcDbBlockTableRecord
  2
*D4
340
0
  0
BLOCK_RECORD
  5
26
100
AcDbSymbolTableRecord
100
AcDbBlockTableRecord
  2
*D5
340
0
  0
BLOCK_RECORD
  5
27
100
AcDbSymbolTableRecord
100
AcDbBlockTableRecord
  2
*D6
340
0
  0
BLOCK_RECORD
  5
28
100
AcDbSymbolTableRecord
100
AcDbBlockTableRecord
  2
*D7
340
0
  0
BLOCK_RECORD
  5
29
100
AcDbSymbolTableRecord
100
AcDbBlockTableRecord
  2
*D8
340
0
  0
BLOCK_RECORD
  5
2A
100
AcDbSymbolTableRecord
100
AcDbBlockTableRecord
  2
*D9
340
0
  0
BLOCK_RECORD
  5
2B
100
AcDbSymbolTableRecord
100
AcDbBlockTableRecord
  2
*D10
340
0
  0
BLOCK_RECORD
  5
2C
100
AcDbSymbolTableRecord
100
AcDbBlockTableRecord
  2
*D11
340
0
  0
BLOCK_RECORD
  5
2D
100
AcDbSymbolTableRecord
100
AcDbBlockTableRecord
  2
*D12
340
0
  0
BLOCK_RECORD
  5
2E
100
AcDbSymbolTableRecord
100
AcDbBlockTableRecord
  2
*D13
340
0
  0
BLOCK_RECORD
  5
2F
100
AcDbSymbolTableRecord
100
AcDbBlockTableRecord
  2
*D14
340
0
  0
BLOCK_RECORD
  5
30
100
AcDbSymbolTableRecord
100
AcDbBlockTableRecord
  2
*D15
340
0
  0
BLOCK_RECORD
  5
31
100
AcDbSymbolTableRecord
100
AcDbBlockTableRecord
  2
*D16
340
0
  0
BLOCK_RECORD
  5
32
100
AcDbSymbolTableRecord
100
AcDbBlockTableRecord
  2
*D17
340
0
  0
ENDTAB
  0
ENDSEC
  0
SECTION
  2
BLOCKS
  0
BLOCK
  5
D
100
AcDbEntity
  8
0
390
0
100
AcDbBlockBegin
  2
*MODEL_SPACE
 70
               0
 10
0.0
 20
0.0
 30
0.0
  3
*MODEL_SPACE
  1

  0
ENDBLK
  5
E
100
AcDbEntity
  8
0
390
0
100
AcDbBlockEnd
  0
BLOCK
  5
F
100
AcDbEntity
 67
               1
  8
0
390
0
100
AcDbBlockBegin
  2
*PAPER_SPACE
 70
               0
 10
0.0
 20
0.0
 30
0.0
  3
*PAPER_SPACE
  1

  0
ENDBLK
  5
10
100
AcDbEntity
 67
               1
  8
0
390
0
100
AcDbBlockEnd
  0
BLOCK
  5
46
100
AcDbEntity
  8
0
390
0
100
AcDbBlockBegin
  2
_DOT
 70
               0
 10
0.0
 20
0.0
 30
0.0
  3
_DOT
  1

  0
POLYLINE
  5
47
100
AcDbEntity
  8
0
370
              -2
390
0
  6
ByBlock
 62
               0
100
AcDb2dPolyline
 66
               1
 10
0.0
 20
0.0
 30
0.0
 70
               1
 40
0.5
 41
0.5
  0
VERTEX
  5
48
100
AcDbEntity
  8
0
370
              -2
390
0
  6
ByBlock
 62
               0
100
AcDbVertex
100
AcDb2dVertex
 10
-0.25
 20
0.0
 30
0.0
 42
1.0
  0
VERTEX
  5
49
100
AcDbEntity
  8
0
370
              -2
390
0
  6
ByBlock
 62
               0
100
AcDbVertex
100
AcDb2dVertex
 10
0.25
 20
0.0
 30
0.0
 42
1.0
  0
SEQEND
  5
4A
100
AcDbEntity
  8
0
390
0
  0
LINE
  5
4B
100
AcDbEntity
  8
0
370
              -2
390
0
  6
ByBlock
 62
               0
100
AcDbLine
 10
-0.5
 20
0.0
 30
0.0
 11
-1.0
 21
0.0
 31
0.0
  0
ENDBLK
  5
4C
100
AcDbEntity
  8
0
390
0
100
AcDbBlockEnd
  0
BLOCK
  5
4F
100
AcDbEntity
  8
0
370
              -2
390
0
  6
ByBlock
 62
               0
100
AcDbBlockBegin
  2
VW_FILLEDARROW
 70
               0
 10
0.0
 20
0.0
 30
0.0
  3
VW_FILLEDARROW
  1

  0
SOLID
  5
50
100
AcDbEntity
  8
0
370
              -2
390
0
 62
               0
100
AcDbTrace
 10
0.0
 20
0.0
 30
0.0
 11
-0.9921874999999999
 21
-0.2658558393652545
 31
0.0
 12
-0.9921874999999999
 22
0.2658558393652548
 32
0.0
 13
-0.9921874999999999
 23
0.2658558393652548
 33
0.0
  0
ENDBLK
  5
51
100
AcDbEntity
  8
0
390
0
100
AcDbBlockEnd
  0
BLOCK
  5
53
100
AcDbEntity
  8
template
390
0
100
AcDbBlockBegin
  2
グループ
 70
               0
 10
0.0
 20
0.0
 30
0.0
  3
グループ
  1

  0
LWPOLYLINE
  5
54
100
AcDbEntity
  8
0
370
              15
390
0
  6
Continuous
 62
               7
100
AcDbPolyline
 90
        8
 70
             129
 10
-1028.4619722156826
 20
-346.0206548419302
 10
-1028.4619722156826
 20
-352.01804353550608
 10
-1037.9631691336858
 20
-352.01804353550608
 10
-1037.9631691336858
 20
-376.46900679901489
 10
-1046.3185463954687
 20
-376.46900679901489
 10
-1046.3185463954687
 20
-352.01804353550608
 10
-1055.6515033417782
 20
-352.01804353550608
 10
-1055.6515033417782
 20
-346.0206548419302
  0
LWPOLYLINE
  5
55
100
AcDbEntity
  8
0
370
              15
390
0
  6
Continuous
 62
               7
100
AcDbPolyline
 90
      101
 70
             128
 10
-1015.7336803851257
 20
-346.74890333486667
 10
-1015.7183303563413
 20
-346.74454257818178
 42
-0.0222221607815271
 10
-1015.4283257796696
 20
-346.67591811293698
 10
-1015.4125320156777
 20
-346.6729146898403
 42
-0.0146883565586022
 10
-1015.1498293104519
 20
-346.63091150289063
 42
-0.0127458844184715
 10
-1014.8851903432977
 20
-346.60337453481804
 10
-1014.822735264986
 20
-346.59848111222993
 42
-0.0198099018565778
 10
-1014.4318861555125
 20
-346.58339595483329
 10
-1014.3800746860654
 20
-346.58344973049839
 42
-0.014761738276183
 10
-1013.8854512250892
 20
-346.59856975574337
 10
-1013.8127597702161
 20
-346.60294236263098
 42
-0.016262454900337
 10
-1013.4226061407517
 20
-346.63917523790326
 10
-1013.3010737494916
 20
-346.65446179689991
 42
-0.0080020874665295
 10
-1013.1554947184009
 20
-346.6751446441682
 10
-1013.1171752478139
 20
-346.68121592197804
 42
-0.005382192968167
 10
-1013.0486911424911
 20
-346.69282344580085
 10
-1013.7750968416897
 20
-348.87375190151477
 42
0.0108667757392107
 10
-1013.8424139118193
 20
-348.86056478629507
 10
-1013.87988193501
 20
-348.85406704370041
 42
0.017066320331021
 10
-1014.0230987219262
 20
-348.83423744640862
 10
-1014.0909740546085
 20
-348.82719027582118
 42
0.0220162375274614
 10
-1014.3713534624632
 20
-348.81050791505106
 10
-1014.4492090295162
 20
-348.80930854778455
 42
0.0282606915786511
 10
-1014.7848453530938
 20
-348.8231118247536
 10
-1014.8287586268667
 20
-348.82741181475734
 42
0.0169677213689019
 10
-1015.074683121825
 20
-348.85994886430922
 42
0.0190576269866093
 10
-1015.3175910844066
 20
-348.91009573641594
 10
-1015.323850272516
 20
-348.91163871052493
 42
0.0213685642845501
 10
-1015.5742347569939
 20
-348.98483899562973
 10
-1015.5797246519099
 20
-348.98670199168873
 42
0.0237595297595929
 10
-1015.8332195368093
 20
-349.08638651358467
 10
-1015.8383216108383
 20
-349.0886782890625
 42
0.0261857468814324
 10
-1016.0904923870671
 20
-349.21821462643635
 10
-1016.1009185761546
 20
-349.22428010090505
 42
0.0272553062020013
 10
-1016.3373483513938
 20
-349.37965230684972
 10
-1016.3721113649026
 20
-349.40531345494145
 42
0.0325996893169118
 10
-1016.5222667085548
 20
-349.53206132791331
 10
-1016.5459761376783
 20
-349.55487935642657
 42
0.0138050960637198
 10
-1016.6378592938879
 20
-349.64832901797786
 42
0.0125280103798985
 10
-1016.7247018267176
 20
-349.74649234457331
 10
-1016.7483822716298
 20
-349.77465084276525
 42
0.0205218024739801
 10
-1016.8734823471457
 20
-349.93644415699737
 10
-1016.8959486876306
 20
-349.96810388682127
 42
0.0163110129581649
 10
-1017.0516590668807
 20
-350.20343432188912
 10
-1017.0543829629329
 20
-350.20785808387666
 42
0.0131897341898357
 10
-1017.2011834838398
 20
-350.460990176243
 10
-1017.2028835792053
 20
-350.46410841537681
 42
0.010789557606294
 10
-1017.3406602814148
 20
-350.73032362500953
 10
-1017.341393170941
 20
-350.73181785765848
 42
0.0091371507216467
 10
-1017.4698731195884
 20
-351.0063430554132
 10
-1017.4996187509998
 20
-351.0730495625769
 42
0.0135418326351345
 10
-1017.6713326900724
 20
-351.48798734784805
 10
-1017.7049374985035
 20
-351.57585349012101
 42
0.0092834542411425
 10
-1017.8761665584266
 20
-352.04975198843226
 10
-1017.9017836861393
 20
-352.12499305821103
 42
0.0054261043579164
 10
-1018.0094218344373
 20
-352.45275703129073
 10
-1018.0269478206369
 20
-352.50814519359096
 42
0.0008225090818111
 10
-1018.0956178724447
 20
-352.72641395167
 10
-1019.0803070043781
 20
-355.75130524492658
 10
-1015.8476831643043
 20
-355.75130524492658
 10
-1016.3518755941577
 20
-357.65578354327897
 10
-1019.607931876141
 20
-357.65578354327897
 10
-1025.4370809084949
 20
-376.46900660928384
 10
-1027.2621785188053
 20
-376.46900660928384
 10
-1021.4275004833042
 20
-357.65578354327897
 10
-1023.8326168523446
 20
-357.65578354327897
 10
-1023.3284244224911
 20
-355.75130524492658
 10
-1020.8998756115411
 20
-355.75130524492658
 10
-1020.0397206933525
 20
-353.11489224422769
 42
-0.0005863560641505
 10
-1020.002986015165
 20
-352.99806582398645
 10
-1019.9268981814886
 20
-352.75707352455049
 42
-0.0087522378927224
 10
-1019.7274300380321
 20
-352.16179743740514
 10
-1019.6351657626154
 20
-351.90165726888301
 42
-0.0077400953829693
 10
-1019.3772321034871
 20
-351.2086525913428
 10
-1019.3614671319109
 20
-351.1682217079636
 42
-0.0082369946331478
 10
-1019.1143826612963
 20
-350.56414264176101
 42
-0.0085725238363695
 10
-1018.8471365652925
 20
-349.96871660247183
 10
-1018.7455069642855
 20
-349.75229550048778
 42
-0.0168109410596139
 10
-1018.458562535556
 20
-349.19108797438446
 10
-1018.332719145131
 20
-348.96412394144807
 42
-0.0007817726868855
 10
-1018.2784347950403
 20
-348.86657969635598
 10
-1018.2783064890203
 20
-348.86634998761468
 42
-0.0036626142153334
 10
-1018.2234186250018
 20
-348.76975210765102
 42
-0.0080221150681435
 10
-1018.1662943695987
 20
-348.67447287290406
 10
-1018.1355944182339
 20
-348.62508192377595
 42
-0.0202139325567125
 10
-1018.0079386784253
 20
-348.43710032309173
 10
-1017.9538712132396
 20
-348.3640214588537
 42
-0.0249323791801237
 10
-1017.6947084195211
 20
-348.04797621670008
 10
-1017.6705686053934
 20
-348.02136194378681
 42
-0.0242132121539349
 10
-1017.3308878638517
 20
-347.68147845758313
 10
-1017.2829762911008
 20
-347.63796932139672
 42
-0.0251017527858014
 10
-1016.9989945904601
 20
-347.40497657563196
 10
-1016.9975491136473
 20
-347.40390731805371
 42
-0.0130868069037632
 10
-1016.6992884636891
 20
-347.19512684951053
 10
-1016.6977266445464
 20
-347.19409340923556
 42
-0.0290329526390091
 10
-1016.3866155031531
 20
-347.01326790760618
 10
-1016.3567699411665
 20
-346.99816552476631
 42
-0.0160250190047671
 10
-1016.0908655274022
 20
-346.87414941455336
 42
-0.0267600374782538
 10
-1015.8155894499333
 20
-346.77340109400473
 10
-1015.7888535304127
 20
-346.76520853517911
 42
-0.0049981587669762
 10
-1015.7336803851257
 20
-346.74890333486667
 42
-0.0049981587669762
  0
LWPOLYLINE
  5
56
100
AcDbEntity
  8
0
370
              15
390
0
  6
Continuous
 62
               7
100
AcDbPolyline
 90
      118
 70
             128
 10
-995.91931282067878
 20
-355.82528857275395
 10
-994.04419089617932
 20
-355.82528857275395
 10
-994.8822298017792
 20
-358.506855099154
 42
-0.001058722924878
 10
-994.85077398621002
 20
-358.46995056580187
 10
-994.79257989557527
 20
-358.40196830962293
 42
-0.0071874740403863
 10
-994.6422046774743
 20
-358.23132761759058
 10
-994.50048190421501
 20
-358.0750914762807
 42
-0.0148118053512729
 10
-994.05035261150226
 20
-357.60747763026768
 10
-993.96313027660096
 20
-357.52208030941466
 42
-0.0086273358693876
 10
-993.62758147559202
 20
-357.20470467539769
 10
-993.58374775936431
 20
-357.16465503106298
 42
-0.0103138323113511
 10
-993.32572405713267
 20
-356.93849189372634
 10
-993.27994965080677
 20
-356.90000984646713
 42
-0.0060206748567167
 10
-993.10710158669337
 20
-356.75821519571173
 10
-993.10507045580891
 20
-356.75658949008164
 42
-0.0067069027294711
 10
-992.93277764114487
 20
-356.6224388562855
 10
-992.93022887521749
 20
-356.6205086864091
 42
-0.0076184352046373
 10
-992.75932360934758
 20
-356.4951338111664
 42
-0.0089652861673677
 10
-992.58436264661111
 20
-356.37550055083256
 10
-992.54801092646881
 20
-356.35158933735124
 42
-0.0156916245937425
 10
-992.35205142930795
 20
-356.23132685087648
 42
-0.0023299011064958
 10
-992.15178938534314
 20
-356.11814891134395
 10
-992.13640525294829
 20
-356.10954891627091
 42
-0.0107669341490082
 10
-991.90216842784878
 20
-355.98514878292229
 10
-991.87990362677215
 20
-355.97393203297145
 42
-0.0078058045895952
 10
-991.59631350881943
 20
-355.83657057733296
 10
-991.58640642111027
 20
-355.83196144946453
 42
-0.0181829330468273
 10
-991.27609701649442
 20
-355.70109770836876
 10
-991.2220415739281
 20
-355.68058258842547
 42
-0.0208411536031035
 10
-990.8729566064776
 20
-355.56449212593225
 10
-990.85860050635051
 20
-355.5603736809789
 42
-0.022279981713981
 10
-990.52988071243294
 20
-355.48173211483845
 10
-990.52099174919499
 20
-355.48002010425319
 42
-0.0215509523882642
 10
-990.20452078091603
 20
-355.43310441571907
 10
-990.16203881986712
 20
-355.42866688892821
 42
-0.018254592487187
 10
-989.92793004056193
 20
-355.4128230635373
 10
-989.88852902421672
 20
-355.41159851845816
 42
-0.0072962856533677
 10
-989.73260614452488
 20
-355.40902918993595
 10
-989.70350647395753
 20
-355.40897435453223
 42
-0.0059227516317129
 10
-989.60575697480795
 20
-355.40994806632261
 10
-989.57651475730984
 20
-355.41058583292647
 42
-0.0011833111898512
 10
-989.53726347360362
 20
-355.41153483723599
 10
-990.33265006921079
 20
-357.950268782335
 42
0.0143932051572779
 10
-990.35905145156471
 20
-357.94006981228853
 10
-990.36632342397866
 20
-357.93749859343234
 42
0.0234388603497579
 10
-990.40815428991039
 20
-357.92487935771715
 10
-990.41683595282348
 20
-357.92269839571202
 42
0.0199162742981376
 10
-990.47712478690437
 20
-357.91008166037676
 10
-990.49793872470968
 20
-357.90658446094847
 42
0.0293643550671106
 10
-990.60101358346947
 20
-357.89543441529531
 10
-990.62569876418911
 20
-357.8942227982767
 42
0.0214606686865693
 10
-990.77883968013998
 20
-357.89328423785923
 10
-990.78821159095958
 20
-357.89362914940352
 42
0.0167564054182853
 10
-990.95973178207112
 20
-357.90570619177186
 10
-990.96819157482696
 20
-357.90658753219873
 42
0.0137677553241653
 10
-991.15554488809198
 20
-357.93133684074218
 10
-991.16289662759959
 20
-357.93251476071021
 42
0.0118497261484299
 10
-991.36339439170229
 20
-357.96953211089954
 10
-991.36954439894816
 20
-357.97081897361943
 42
0.0106421143890148
 10
-991.58042528623673
 20
-358.0196513491951
 10
-991.58533409462223
 20
-358.02089869187932
 42
0.009974637970438
 10
-991.80379256378581
 20
-358.08107322019436
 10
-991.86534060395502
 20
-358.09935509882473
 42
0.0191613675861071
 10
-992.20132506647099
 20
-358.2133324791119
 10
-992.28938483921627
 20
-358.24701938943588
 42
0.02052740801445
 10
-992.67469161111671
 20
-358.41284779726232
 10
-992.73234089309699
 20
-358.44051576183386
 42
0.0181256912191119
 10
-992.99061783376567
 20
-358.5761995808125
 10
-993.0435732170813
 20
-358.60651719402824
 42
0.0140709242413296
 10
-993.18852815170794
 20
-358.69501186746163
 10
-993.21477702032416
 20
-358.7120686861756
 42
0.0086667884399263
 10
-993.30370318186897
 20
-358.7720713540599
 42
0.0036408192021741
 10
-993.39113641989923
 20
-358.83425221185001
 10
-993.42636329437096
 20
-358.85969315776504
 42
0.0052260781279651
 10
-993.58259199176518
 20
-358.9750255444016
 10
-993.59879884802172
 20
-358.98725365501741
 42
0.0050024435891588
 10
-993.7848021910745
 20
-359.13053622327487
 10
-993.80012034759568
 20
-359.14258224572541
 42
0.0136138710280927
 10
-994.01056161592044
 20
-359.31754875063837
 10
-994.04422949171453
 20
-359.34712772335297
 42
0.0172815186915345
 10
-994.3086330333756
 20
-359.59612439597493
 10
-994.31119537921973
 20
-359.59871021312347
 42
0.0189403857990362
 10
-994.56177717779678
 20
-359.87151547792547
 10
-994.59440867133685
 20
-359.90985940942738
 42
0.0185044199508347
 10
-994.78636511031482
 20
-360.15310799054782
 42
0.0088565243899586
 10
-994.96482521694077
 20
-360.40662441069435
 10
-994.97400319659175
 20
-360.42016579045787
 42
0.0157195347230737
 10
-995.15722380292846
 20
-360.70968799977788
 10
-995.20330674485604
 20
-360.7878401967933
 42
0.0095451879783829
 10
-995.36839229499435
 20
-361.08043483915094
 10
-995.37954021392613
 20
-361.10110551128696
 42
0.0100351706258862
 10
-995.51158396308324
 20
-361.35816107177368
 42
0.0086935915424742
 10
-995.63391511487919
 20
-361.61999421718235
 10
-995.6372358562918
 20
-361.62743654014992
 42
0.0072580174869834
 10
-995.75758230824079
 20
-361.9080285317429
 10
-995.76084394154304
 20
-361.91594855775088
 42
0.0060005122614599
 10
-995.88004460988486
 20
-362.21555822835387
 10
-995.88325558822737
 20
-362.22391975626078
 42
0.0049017786980144
 10
-996.0021557470867
 20
-362.54284873687021
 10
-996.00532155347526
 20
-362.55160167409554
 42
0.0039415167604695
 10
-996.12475783153354
 20
-362.89014373651355
 10
-996.12788893418406
 20
-362.89924693738487
 42
0.0031035838764226
 10
-996.2486937198737
 20
-363.25768679914785
 10
-996.25180376440755
 20
-363.26710742053319
 42
0.0025070747153649
 10
-996.37470511572894
 20
-363.64575463749577
 10
-996.41199901214827
 20
-363.7626463027301
 42
0.0029081910284286
 10
-996.60401730995818
 20
-364.37680996101847
 10
-996.64482047847616
 20
-364.51003320329767
 42
0.0009266453733688
 10
-996.91323785279349
 20
-365.39225766322971
 10
-996.93412532545381
 20
-365.4613695425308
 42
-0.0005809993664277
 10
-997.21146200602266
 20
-366.37517764909603
 10
-997.27774380430219
 20
-366.59266258127724
 42
-0.001201870816809
 10
-997.42472811372477
 20
-367.0708252457764
 10
-997.4770479652658
 20
-367.23958438656297
 42
-0.0002691059609487
 10
-997.52061744645891
 20
-367.37985200698415
 10
-1000.3535733447482
 20
-376.46900660928384
 10
-1002.1715622367267
 20
-376.46900660928384
 10
-995.91931282067878
 20
-355.82528857275395
  0
SPLINE
  5
57
100
AcDbEntity
  8
0
370
              15
390
0
  6
Continuous
 62
               7
100
AcDbSpline
210
0.0
220
0.0
230
1.0
 70
              13
 71
               2
 72
             782
 73
             779
 74
               0
 42
0.000001
 43
0.000001
 40
0.0
 40
0.0
 40
0.0
 40
1.0
 40
1.0
 40
2.0
 40
2.0
 40
3.0
 40
3.0
 40
4.0
 40
4.0
 40
5.0
 40
5.0
 40
6.0
 40
6.0
 40
7.0
 40
7.0
 40
8.0
 40
8.0
 40
9.0
 40
9.0
 40
10.0
 40
10.0
 40
11.0
 40
11.0
 40
12.0
 40
12.0
 40
13.0
 40
13.0
 40
14.0
 40
14.0
 40
15.0
 40
15.0
 40
16.0
 40
16.0
 40
17.0
 40
17.0
 40
18.0
 40
18.0
 40
19.0
 40
19.0
 40
20.0
 40
20.0
 40
21.0
 40
21.0
 40
22.0
 40
22.0
 40
23.0
 40
23.0
 40
24.0
 40
24.0
 40
25.0
 40
25.0
 40
26.0
 40
26.0
 40
27.0
 40
27.0
 40
28.0
 40
28.0
 40
29.0
 40
29.0
 40
30.0
 40
30.0
 40
31.0
 40
31.0
 40
32.0
 40
32.0
 40
33.0
 40
33.0
 40
34.0
 40
34.0
 40
35.0
 40
35.0
 40
36.0
 40
36.0
 40
37.0
 40
37.0
 40
38.0
 40
38.0
 40
39.0
 40
39.0
 40
40.0
 40
40.0
 40
41.0
 40
41.0
 40
42.0
 40
42.0
 40
43.0
 40
43.0
 40
44.0
 40
44.0
 40
45.0
 40
45.0
 40
46.0
 40
46.0
 40
47.0
 40
47.0
 40
48.0
 40
48.0
 40
49.0
 40
49.0
 40
50.0
 40
50.0
 40
51.0
 40
51.0
 40
52.0
 40
52.0
 40
53.0
 40
53.0
 40
54.0
 40
54.0
 40
55.0
 40
55.0
 40
56.0
 40
56.0
 40
57.0
 40
57.0
 40
58.0
 40
58.0
 40
59.0
 40
59.0
 40
60.0
 40
60.0
 40
61.0
 40
61.0
 40
62.0
 40
62.0
 40
63.0
 40
63.0
 40
64.0
 40
64.0
 40
65.0
 40
65.0
 40
66.0
 40
66.0
 40
67.0
 40
67.0
 40
68.0
 40
68.0
 40
69.0
 40
69.0
 40
70.0
 40
70.0
 40
71.0
 40
71.0
 40
72.0
 40
72.0
 40
73.0
 40
73.0
 40
74.0
 40
74.0
 40
75.0
 40
75.0
 40
76.0
 40
76.0
 40
77.0
 40
77.0
 40
78.0
 40
78.0
 40
79.0
 40
79.0
 40
80.0
 40
80.0
 40
81.0
 40
81.0
 40
82.0
 40
82.0
 40
83.0
 40
83.0
 40
84.0
 40
84.0
 40
85.0
 40
85.0
 40
86.0
 40
86.0
 40
87.0
 40
87.0
 40
88.0
 40
88.0
 40
89.0
 40
89.0
 40
90.0
 40
90.0
 40
91.0
 40
91.0
 40
92.0
 40
92.0
 40
93.0
 40
93.0
 40
94.0
 40
94.0
 40
95.0
 40
95.0
 40
96.0
 40
96.0
 40
97.0
 40
97.0
 40
98.0
 40
98.0
 40
99.0
 40
99.0
 40
100.0
 40
100.0
 40
101.0
 40
101.0
 40
102.0
 40
102.0
 40
103.0
 40
103.0
 40
104.0
 40
104.0
 40
105.0
 40
105.0
 40
106.0
 40
106.0
 40
107.0
 40
107.0
 40
108.0
 40
108.0
 40
109.0
 40
109.0
 40
110.0
 40
110.0
 40
111.0
 40
111.0
 40
112.0
 40
112.0
 40
113.0
 40
113.0
 40
114.0
 40
114.0
 40
115.0
 40
115.0
 40
116.0
 40
116.0
 40
117.0
 40
117.0
 40
118.0
 40
118.0
 40
119.0
 40
119.0
 40
120.0
 40
120.0
 40
121.0
 40
121.0
 40
122.0
 40
122.0
 40
123.0
 40
123.0
 40
124.0
 40
124.0
 40
125.0
 40
125.0
 40
126.0
 40
126.0
 40
127.0
 40
127.0
 40
128.0
 40
128.0
 40
129.0
 40
129.0
 40
130.0
 40
130.0
 40
131.0
 40
131.0
 40
132.0
 40
132.0
 40
133.0
 40
133.0
 40
134.0
 40
134.0
 40
135.0
 40
135.0
 40
136.0
 40
136.0
 40
137.0
 40
137.0
 40
138.0
 40
138.0
 40
139.0
 40
139.0
 40
140.0
 40
140.0
 40
141.0
 40
141.0
 40
142.0
 40
142.0
 40
143.0
 40
143.0
 40
144.0
 40
144.0
 40
145.0
 40
145.0
 40
146.0
 40
146.0
 40
147.0
 40
147.0
 40
148.0
 40
148.0
 40
149.0
 40
149.0
 40
150.0
 40
150.0
 40
151.0
 40
151.0
 40
152.0
 40
152.0
 40
153.0
 40
153.0
 40
154.0
 40
154.0
 40
155.0
 40
155.0
 40
156.0
 40
156.0
 40
157.0
 40
157.0
 40
158.0
 40
158.0
 40
159.0
 40
159.0
 40
160.0
 40
160.0
 40
161.0
 40
161.0
 40
162.0
 40
162.0
 40
163.0
 40
163.0
 40
164.0
 40
164.0
 40
165.0
 40
165.0
 40
166.0
 40
166.0
 40
167.0
 40
167.0
 40
168.0
 40
168.0
 40
169.0
 40
169.0
 40
170.0
 40
170.0
 40
171.0
 40
171.0
 40
172.0
 40
172.0
 40
173.0
 40
173.0
 40
174.0
 40
174.0
 40
175.0
 40
175.0
 40
176.0
 40
176.0
 40
177.0
 40
177.0
 40
178.0
 40
178.0
 40
179.0
 40
179.0
 40
180.0
 40
180.0
 40
181.0
 40
181.0
 40
182.0
 40
182.0
 40
183.0
 40
183.0
 40
184.0
 40
184.0
 40
185.0
 40
185.0
 40
186.0
 40
186.0
 40
187.0
 40
187.0
 40
188.0
 40
188.0
 40
189.0
 40
189.0
 40
190.0
 40
190.0
 40
191.0
 40
191.0
 40
192.0
 40
192.0
 40
193.0
 40
193.0
 40
194.0
 40
194.0
 40
195.0
 40
195.0
 40
196.0
 40
196.0
 40
197.0
 40
197.0
 40
198.0
 40
198.0
 40
199.0
 40
199.0
 40
200.0
 40
200.0
 40
201.0
 40
201.0
 40
202.0
 40
202.0
 40
203.0
 40
203.0
 40
204.0
 40
204.0
 40
205.0
 40
205.0
 40
206.0
 40
206.0
 40
207.0
 40
207.0
 40
208.0
 40
208.0
 40
209.0
 40
209.0
 40
210.0
 40
210.0
 40
211.0
 40
211.0
 40
212.0
 40
212.0
 40
213.0
 40
213.0
 40
214.0
 40
214.0
 40
215.0
 40
215.0
 40
216.0
 40
216.0
 40
217.0
 40
217.0
 40
218.0
 40
218.0
 40
219.0
 40
219.0
 40
220.0
 40
220.0
 40
221.0
 40
221.0
 40
222.0
 40
222.0
 40
223.0
 40
223.0
 40
224.0
 40
224.0
 40
225.0
 40
225.0
 40
226.0
 40
226.0
 40
227.0
 40
227.0
 40
228.0
 40
228.0
 40
229.0
 40
229.0
 40
230.0
 40
230.0
 40
231.0
 40
231.0
 40
232.0
 40
232.0
 40
233.0
 40
233.0
 40
234.0
 40
234.0
 40
235.0
 40
235.0
 40
236.0
 40
236.0
 40
237.0
 40
237.0
 40
238.0
 40
238.0
 40
239.0
 40
239.0
 40
240.0
 40
240.0
 40
241.0
 40
241.0
 40
242.0
 40
242.0
 40
243.0
 40
243.0
 40
244.0
 40
244.0
 40
245.0
 40
245.0
 40
246.0
 40
246.0
 40
247.0
 40
247.0
 40
248.0
 40
248.0
 40
249.0
 40
249.0
 40
250.0
 40
250.0
 40
251.0
 40
251.0
 40
252.0
 40
252.0
 40
253.0
 40
253.0
 40
254.0
 40
254.0
 40
255.0
 40
255.0
 40
256.0
 40
256.0
 40
257.0
 40
257.0
 40
258.0
 40
258.0
 40
259.0
 40
259.0
 40
260.0
 40
260.0
 40
261.0
 40
261.0
 40
262.0
 40
262.0
 40
263.0
 40
263.0
 40
264.0
 40
264.0
 40
265.0
 40
265.0
 40
266.0
 40
266.0
 40
267.0
 40
267.0
 40
268.0
 40
268.0
 40
269.0
 40
269.0
 40
270.0
 40
270.0
 40
271.0
 40
271.0
 40
272.0
 40
272.0
 40
273.0
 40
273.0
 40
274.0
 40
274.0
 40
275.0
 40
275.0
 40
276.0
 40
276.0
 40
277.0
 40
277.0
 40
278.0
 40
278.0
 40
279.0
 40
279.0
 40
280.0
 40
280.0
 40
281.0
 40
281.0
 40
282.0
 40
282.0
 40
283.0
 40
283.0
 40
284.0
 40
284.0
 40
285.0
 40
285.0
 40
286.0
 40
286.0
 40
287.0
 40
287.0
 40
288.0
 40
288.0
 40
289.0
 40
289.0
 40
290.0
 40
290.0
 40
291.0
 40
291.0
 40
292.0
 40
292.0
 40
293.0
 40
293.0
 40
294.0
 40
294.0
 40
295.0
 40
295.0
 40
296.0
 40
296.0
 40
297.0
 40
297.0
 40
298.0
 40
298.0
 40
299.0
 40
299.0
 40
300.0
 40
300.0
 40
301.0
 40
301.0
 40
302.0
 40
302.0
 40
303.0
 40
303.0
 40
304.0
 40
304.0
 40
305.0
 40
305.0
 40
306.0
 40
306.0
 40
307.0
 40
307.0
 40
308.0
 40
308.0
 40
309.0
 40
309.0
 40
310.0
 40
310.0
 40
311.0
 40
311.0
 40
312.0
 40
312.0
 40
313.0
 40
313.0
 40
314.0
 40
314.0
 40
315.0
 40
315.0
 40
316.0
 40
316.0
 40
317.0
 40
317.0
 40
318.0
 40
318.0
 40
319.0
 40
319.0
 40
320.0
 40
320.0
 40
321.0
 40
321.0
 40
322.0
 40
322.0
 40
323.0
 40
323.0
 40
324.0
 40
324.0
 40
325.0
 40
325.0
 40
326.0
 40
326.0
 40
327.0
 40
327.0
 40
328.0
 40
328.0
 40
329.0
 40
329.0
 40
330.0
 40
330.0
 40
331.0
 40
331.0
 40
332.0
 40
332.0
 40
333.0
 40
333.0
 40
334.0
 40
334.0
 40
335.0
 40
335.0
 40
336.0
 40
336.0
 40
337.0
 40
337.0
 40
338.0
 40
338.0
 40
339.0
 40
339.0
 40
340.0
 40
340.0
 40
341.0
 40
341.0
 40
342.0
 40
342.0
 40
343.0
 40
343.0
 40
344.0
 40
344.0
 40
345.0
 40
345.0
 40
346.0
 40
346.0
 40
347.0
 40
347.0
 40
348.0
 40
348.0
 40
349.0
 40
349.0
 40
350.0
 40
350.0
 40
351.0
 40
351.0
 40
352.0
 40
352.0
 40
353.0
 40
353.0
 40
354.0
 40
354.0
 40
355.0
 40
355.0
 40
356.0
 40
356.0
 40
357.0
 40
357.0
 40
358.0
 40
358.0
 40
359.0
 40
359.0
 40
360.0
 40
360.0
 40
361.0
 40
361.0
 40
362.0
 40
362.0
 40
363.0
 40
363.0
 40
364.0
 40
364.0
 40
365.0
 40
365.0
 40
366.0
 40
366.0
 40
367.0
 40
367.0
 40
368.0
 40
368.0
 40
369.0
 40
369.0
 40
370.0
 40
370.0
 40
371.0
 40
371.0
 40
372.0
 40
372.0
 40
373.0
 40
373.0
 40
374.0
 40
374.0
 40
375.0
 40
375.0
 40
376.0
 40
376.0
 40
377.0
 40
377.0
 40
378.0
 40
378.0
 40
379.0
 40
379.0
 40
380.0
 40
380.0
 40
381.0
 40
381.0
 40
382.0
 40
382.0
 40
383.0
 40
383.0
 40
384.0
 40
384.0
 40
385.0
 40
385.0
 40
386.0
 40
386.0
 40
387.0
 40
387.0
 40
388.0
 40
388.0
 40
389.0
 40
389.0
 40
389.0
 10
-985.59060836994615
 20
-355.81436220939156
 30
0.0
 41
1.0
 10
-984.77218426122568
 20
-355.81436220939156
 30
0.0
 41
1.0
 10
-983.9537601525052
 20
-355.81436220939156
 30
0.0
 41
1.0
 10
-984.3675138880219
 20
-357.15698847364126
 30
0.0
 41
1.0
 10
-984.78126762353872
 20
-358.49961473789097
 30
0.0
 41
1.0
 10
-984.76292812837073
 20
-358.47091396497933
 30
0.0
 41
0.9999957264380724
 10
-984.74442113153918
 20
-358.44232091482741
 30
0.0
 41
1.0
 10
-984.71399180740229
 20
-358.39530803645226
 30
0.0
 41
1.0
 10
-984.6835624832654
 20
-358.34829515807712
 30
0.0
 41
1.0
 10
-984.60419683816042
 20
-358.22567635117514
 30
0.0
 41
0.9995394069080932
 10
-984.51753844660902
 20
-358.10809828943422
 30
0.0
 41
1.0
 10
-984.48178158434871
 20
-358.05958339683991
 30
0.0
 41
1.0
 10
-984.4460247220884
 20
-358.01106850424566
 30
0.0
 41
1.0
 10
-984.3122980542704
 20
-357.82962822911912
 30
0.0
 41
0.999446061714356
 10
-984.16679757298175
 20
-357.65748583146865
 30
0.0
 41
1.0
 10
-984.16240939200725
 20
-357.65229415108661
 30
0.0
 41
1.0
 10
-984.15802121103263
 20
-357.64710247070457
 30
0.0
 41
1.0
 10
-984.02129709169424
 20
-357.48534343381948
 30
0.0
 41
0.9994359394934522
 10
-983.87402286134238
 20
-357.33312723265442
 30
0.0
 41
1.0
 10
-983.87163950738864
 20
-357.33066390228078
 30
0.0
 41
1.0
 10
-983.86925615343489
 20
-357.32820057190719
 30
0.0
 41
1.0
 10
-983.72674863099064
 20
-357.18091103148936
 30
0.0
 41
0.9995293688567521
 10
-983.57547695000881
 20
-357.04263781932559
 30
0.0
 41
1.0
 10
-983.55618319074688
 20
-357.02500193367575
 30
0.0
 41
1.0
 10
-983.53688943148506
 20
-357.00736604802586
 30
0.0
 41
1.0
 10
-983.42420526902663
 20
-356.90436460716148
 30
0.0
 41
0.9997087614803877
 10
-983.30668238007161
 20
-356.80692032636364
 30
0.0
 41
1.0
 10
-983.28751630689635
 20
-356.79102874785599
 30
0.0
 41
1.0
 10
-983.26835023372121
 20
-356.77513716934828
 30
0.0
 41
1.0
 10
-983.18915949111499
 20
-356.70947604556437
 30
0.0
 41
0.9999595338696079
 10
-983.1088002202614
 20
-356.64525031491075
 30
0.0
 41
1.0
 10
-983.02844094940542
 20
-356.58102458425503
 30
0.0
 41
0.9999749417507586
 10
-982.94718041506451
 20
-356.51794303031073
 30
0.0
 41
1.0
 10
-982.92619426889723
 20
-356.50165174300537
 30
0.0
 41
1.0
 10
-982.90520812272996
 20
-356.4853604557
 30
0.0
 41
1.0
 10
-982.82064023742851
 20
-356.41971144585932
 30
0.0
 41
0.9999792037120153
 10
-982.73523263766037
 20
-356.35515866421679
 30
0.0
 41
1.0
 10
-982.7144078117559
 20
-356.33941884196435
 30
0.0
 41
1.0
 10
-982.69358298585144
 20
-356.3236790197119
 30
0.0
 41
1.0
 10
-982.64982503789884
 20
-356.29060588257914
 30
0.0
 41
0.9999993373778995
 10
-982.60614335174773
 20
-356.25743208714914
 30
0.0
 41
1.0
 10
-982.56246166560334
 20
-356.22425829172425
 30
0.0
 41
0.9999160953816795
 10
-982.51793525468224
 20
-356.19222722652501
 30
0.0
 41
1.0
 10
-982.48511336726415
 20
-356.16861607094103
 30
0.0
 41
1.0
 10
-982.45229147984594
 20
-356.14500491535705
 30
0.0
 41
1.0
 10
-982.34212129408797
 20
-356.06575153898939
 30
0.0
 41
0.9980964527231718
 10
-982.22303230058787
 20
-356.00066406613371
 30
0.0
 41
1.0
 10
-982.1859996936596
 20
-355.98042408654055
 30
0.0
 41
1.0
 10
-982.14896708673143
 20
-355.96018410694734
 30
0.0
 41
1.0
 10
-981.96964007345764
 20
-355.8621738562457
 30
0.0
 41
0.9984572810572663
 10
-981.78055150709861
 20
-355.78465159489929
 30
0.0
 41
1.0
 10
-981.77690523770252
 20
-355.78315670256126
 30
0.0
 41
1.0
 10
-981.77325896830655
 20
-355.78166181022323
 30
0.0
 41
1.0
 10
-981.59146294073958
 20
-355.70712933355281
 30
0.0
 41
0.9987838528034223
 10
-981.40321028218045
 20
-355.65086369338712
 30
0.0
 41
1.0
 10
-981.39897233298211
 20
-355.64959703969703
 30
0.0
 41
1.0
 10
-981.39473438378377
 20
-355.64833038600693
 30
0.0
 41
1.0
 10
-981.21495762362133
 20
-355.59459805322138
 30
0.0
 41
0.9990652816207273
 10
-981.03121169190536
 20
-355.55659437367933
 30
0.0
 41
1.0
 10
-981.02602329087438
 20
-355.55552127057291
 30
0.0
 41
1.0
 10
-981.0208348898434
 20
-355.55444816746649
 30
0.0
 41
1.0
 10
-980.84746576018995
 20
-355.51859069413734
 30
0.0
 41
0.9992909934270171
 10
-980.67188999373116
 20
-355.49588026167078
 30
0.0
 41
1.0
 10
-980.49631422727168
 20
-355.47316982920427
 30
0.0
 41
0.999455353944862
 10
-980.31962279417883
 20
-355.4620905249979
 30
0.0
 41
1.0
 10
-980.28418838638413
 20
-355.4598686369502
 30
0.0
 41
1.0
 10
-980.24875397858943
 20
-355.45764674890245
 30
0.0
 41
1.0
 10
-980.0825282120195
 20
-355.4472236864907
 30
0.0
 41
0.9990928098293077
 10
-979.91601842011642
 20
-355.45098332772523
 30
0.0
 41
1.0
 10
-979.87745658484573
 20
-355.45185401925818
 30
0.0
 41
1.0
 10
-979.83889474957505
 20
-355.45272471079113
 30
0.0
 41
1.0
 10
-979.74950862821493
 20
-355.45474296895969
 30
0.0
 41
0.999838208920614
 10
-979.6602529454276
 20
-355.45997509548783
 30
0.0
 41
1.0
 10
-979.6598230392068
 20
-355.46000029639015
 30
0.0
 41
1.0
 10
-979.659393132986
 20
-355.46002549729246
 30
0.0
 41
1.0
 10
-979.5709972626405
 20
-355.46520722201598
 30
0.0
 41
0.9997558016757215
 10
-979.48291668544061
 20
-355.47428973738238
 30
0.0
 41
1.0
 10
-979.48244054701149
 20
-355.47433883486485
 30
0.0
 41
1.0
 10
-979.48196440858237
 20
-355.47438793234738
 30
0.0
 41
1.0
 10
-979.39483610823936
 20
-355.48337225274895
 30
0.0
 41
0.9996565144181683
 10
-979.30829825489764
 20
-355.49690955943788
 30
0.0
 41
1.0
 10
-979.3078323295199
 20
-355.49698244516924
 30
0.0
 41
1.0
 10
-979.30736640414204
 20
-355.49705533090065
 30
0.0
 41
1.0
 10
-979.22176040155443
 20
-355.51044686612715
 30
0.0
 41
0.9995321806867606
 10
-979.13713332122768
 20
-355.52904735455616
 30
0.0
 41
1.0
 10
-979.13674412665523
 20
-355.52913289702212
 30
0.0
 41
1.0
 10
-979.13635493208267
 20
-355.52921843948815
 30
0.0
 41
1.0
 10
-979.05250624089842
 20
-355.54764784298584
 30
0.0
 41
0.9993819199219992
 10
-978.9701597067035
 20
-355.5719232262461
 30
0.0
 41
1.0
 10
-978.9699212732055
 20
-355.57199351535542
 30
0.0
 41
1.0
 10
-978.96968283970762
 20
-355.57206380446473
 30
0.0
 41
1.0
 10
-978.88781317250744
 20
-355.5961986095067
 30
0.0
 41
0.99920885685058
 10
-978.80812065351904
 20
-355.62676384530118
 30
0.0
 41
1.0
 10
-978.72843966263997
 20
-355.65732344603441
 30
0.0
 41
0.999022610177303
 10
-978.65176899273285
 20
-355.69480087764896
 30
0.0
 41
1.0
 10
-978.57510985093438
 20
-355.73227267420253
 30
0.0
 41
0.9988424273972374
 10
-978.50240622372291
 20
-355.77693744945503
 30
0.0
 41
1.0
 10
-978.5021385153434
 20
-355.77710191352742
 30
0.0
 41
1.0
 10
-978.50187080696378
 20
-355.77726637759974
 30
0.0
 41
1.0
 10
-978.42863176299306
 20
-355.82226008099701
 30
0.0
 41
0.9986928844491292
 10
-978.36036889628269
 20
-355.87449581527704
 30
0.0
 41
1.0
 10
-978.3597876040601
 20
-355.87494062850476
 30
0.0
 41
1.0
 10
-978.35920631183762
 20
-355.87538544173253
 30
0.0
 41
1.0
 10
-978.28978086068253
 20
-355.92851080246783
 30
0.0
 41
0.9986007262278297
 10
-978.2263546909154
 20
-355.98867157216165
 30
0.0
 41
1.0
 10
-978.22546027545832
 20
-355.98951993999663
 30
0.0
 41
1.0
 10
-978.22456586000112
 20
-355.99036830783166
 30
0.0
 41
1.0
 10
-978.15935085932051
 20
-356.05222581319464
 30
0.0
 41
0.9985581491380895
 10
-978.10114324761935
 20
-356.12071830346576
 30
0.0
 41
1.0
 10
-978.09188479402303
 20
-356.13161266116811
 30
0.0
 41
1.0
 10
-978.08262634042671
 20
-356.14250701887045
 30
0.0
 41
1.0
 10
-978.00590182153337
 20
-356.23278822454552
 30
0.0
 41
0.9970460233519974
 10
-977.94390992037404
 20
-356.33375530872712
 30
0.0
 41
1.0
 10
-977.9294405552946
 20
-356.35732176780823
 30
0.0
 41
1.0
 10
-977.91497119021517
 20
-356.38088822688928
 30
0.0
 41
1.0
 10
-977.87523449020284
 20
-356.4456079509211
 30
0.0
 41
0.9988468816636075
 10
-977.84188811945114
 20
-356.51384040334904
 30
0.0
 41
1.0
 10
-977.83485209695959
 20
-356.52823732448667
 30
0.0
 41
1.0
 10
-977.82781607446805
 20
-356.54263424562436
 30
0.0
 41
1.0
 10
-977.80854174870001
 20
-356.58207285577583
 30
0.0
 41
0.999843118999872
 10
-977.79067642120458
 20
-356.62216941021745
 30
0.0
 41
1.0
 10
-977.77281109368971
 20
-356.66226596470301
 30
0.0
 41
0.9999989989745152
 10
-977.75483237023434
 20
-356.70231180236084
 30
0.0
 41
1.0
 10
-977.7486600586667
 20
-356.71606001911402
 30
0.0
 41
1.0
 10
-977.74248774709918
 20
-356.72980823586727
 30
0.0
 41
1.0
 10
-977.71216440048647
 20
-356.79735050708183
 30
0.0
 41
0.9998790356321344
 10
-977.68395652034599
 20
-356.86580325902503
 30
0.0
 41
1.0
 10
-977.67712133906309
 20
-356.88239036044905
 30
0.0
 41
1.0
 10
-977.6702861577802
 20
-356.89897746187307
 30
0.0
 41
1.0
 10
-977.64672849540102
 20
-356.9561454167561
 30
0.0
 41
0.9998227574561643
 10
-977.6253397470125
 20
-357.01415972503128
 30
0.0
 41
1.0
 10
-977.6039509986233
 20
-357.07217403330827
 30
0.0
 41
0.9996797971041249
 10
-977.58552471366431
 20
-357.1311961524259
 30
0.0
 41
1.0
 10
-977.58162091093868
 20
-357.14370061059532
 30
0.0
 41
1.0
 10
-977.57771710821294
 20
-357.15620506876473
 30
0.0
 41
1.0
 10
-977.55148321780257
 20
-357.24023610422091
 30
0.0
 41
0.9979274938734265
 10
-977.53625869432335
 20
-357.32694046288145
 30
0.0
 41
1.0
 10
-977.53403500706213
 20
-357.33960446370304
 30
0.0
 41
1.0
 10
-977.53181131980079
 20
-357.35226846452457
 30
0.0
 41
1.0
 10
-977.52088138010265
 20
-357.41451497181441
 30
0.0
 41
0.9994985982137015
 10
-977.51391321492588
 20
-357.47732847295561
 30
0.0
 41
1.0
 10
-977.50694504974888
 20
-357.54014197409737
 30
0.0
 41
0.9996372611201531
 10
-977.50336918398114
 20
-357.60323955278028
 30
0.0
 41
1.0
 10
-977.50320060649187
 20
-357.60621416986226
 30
0.0
 41
1.0
 10
-977.5030320290025
 20
-357.60918878694417
 30
0.0
 41
1.0
 10
-977.499119008256
 20
-357.67823559979661
 30
0.0
 41
0.9997730630736429
 10
-977.4981506947679
 20
-357.74738642383676
 30
0.0
 41
1.0
 10
-977.49809358834989
 20
-357.75146460297242
 30
0.0
 41
1.0
 10
-977.49803648193188
 20
-357.75554278210814
 30
0.0
 41
1.0
 10
-977.49695395560752
 20
-357.83284996442671
 30
0.0
 41
0.9998772614069411
 10
-977.49829404233935
 20
-357.91015311099159
 30
0.0
 41
1.0
 10
-977.49838330553803
 20
-357.91530227482593
 30
0.0
 41
1.0
 10
-977.49847256873682
 20
-357.92045143866028
 30
0.0
 41
1.0
 10
-977.49999118186577
 20
-358.00805291288998
 30
0.0
 41
0.9999415567325229
 10
-977.5034034921116
 20
-358.09560107456025
 30
0.0
 41
1.0
 10
-977.50364481278712
 20
-358.10179253430226
 30
0.0
 41
1.0
 10
-977.50388613346263
 20
-358.10798399404428
 30
0.0
 41
1.0
 10
-977.50778108505926
 20
-358.20791507519624
 30
0.0
 41
0.9999716810426785
 10
-977.51317966817783
 20
-358.3077762134252
 30
0.0
 41
1.0
 10
-977.51639246696664
 20
-358.36720546308345
 30
0.0
 41
1.0
 10
-977.51960526575556
 20
-358.4266347127417
 30
0.0
 41
1.0
 10
-977.52767917490803
 20
-358.57598311402057
 30
0.0
 41
0.9999819129900677
 10
-977.53754896652458
 20
-358.72522359172979
 30
0.0
 41
1.0
 10
-977.54741875814113
 20
-358.87446406944116
 30
0.0
 41
1.0
 10
-977.54985807870503
 20
-358.9116571152905
 30
0.0
 41
1.0
 10
-977.52715984489089
 20
-358.87291611798935
 30
0.0
 41
0.9999982128196052
 10
-977.50431528614274
 20
-358.83426122404376
 30
0.0
 41
1.0
 10
-977.47740572624582
 20
-358.78872800996811
 30
0.0
 41
1.0
 10
-977.4504961663489
 20
-358.74319479589246
 30
0.0
 41
1.0
 10
-977.3738324878218
 20
-358.61347347382065
 30
0.0
 41
0.9998609190057888
 10
-977.29288517495843
 20
-358.48638109188897
 30
0.0
 41
1.0
 10
-977.26323685347961
 20
-358.43983135893632
 30
0.0
 41
1.0
 10
-977.23358853200079
 20
-358.39328162598366
 30
0.0
 41
1.0
 10
-977.15131631176246
 20
-358.26410905598641
 30
0.0
 41
0.9999067609733585
 10
-977.06554730229664
 20
-358.13723136654266
 30
0.0
 41
1.0
 10
-977.06314259909459
 20
-358.13367410048619
 30
0.0
 41
1.0
 10
-977.06073789589266
 20
-358.13011683442971
 30
0.0
 41
1.0
 10
-976.97977829283207
 20
-358.01035367710062
 30
0.0
 41
0.9998784952151412
 10
-976.89512468315127
 20
-357.89317246039263
 30
0.0
 41
1.0
 10
-976.81047107347149
 20
-357.77599124368601
 30
0.0
 41
0.9998532968284387
 10
-976.72185345265075
 20
-357.66177833521795
 30
0.0
 41
1.0
 10
-976.70189166365753
 20
-357.63605101419506
 30
0.0
 41
1.0
 10
-976.68192987466432
 20
-357.61032369317218
 30
0.0
 41
1.0
 10
-976.5634458249059
 20
-357.45761808220431
 30
0.0
 41
0.9991551975795436
 10
-976.43282137528263
 20
-357.31515852012114
 30
0.0
 41
1.0
 10
-976.42931175930187
 20
-357.31133091849568
 30
0.0
 41
1.0
 10
-976.42580214332111
 20
-357.30750331687022
 30
0.0
 41
1.0
 10
-976.30219692565834
 20
-357.17269895803685
 30
0.0
 41
0.9997418144181683
 10
-976.17259478595861
 20
-357.04364954742516
 30
0.0
 41
1.0
 10
-976.04299264625786
 20
-356.91460013681262
 30
0.0
 41
0.9989238204633402
 10
-975.90199009800688
 20
-356.79811517477378
 30
0.0
 41
1.0
 10
-975.85674241986726
 20
-356.76073518316491
 30
0.0
 41
1.0
 10
-975.81149474172764
 20
-356.7233551915561
 30
0.0
 41
1.0
 10
-975.67125468450581
 20
-356.60750013826498
 30
0.0
 41
0.9990825084096596
 10
-975.52161475190246
 20
-356.50407114043242
 30
0.0
 41
1.0
 10
-975.51156938784538
 20
-356.49712792735278
 30
0.0
 41
1.0
 10
-975.50152402378831
 20
-356.49018471427314
 30
0.0
 41
1.0
 10
-975.3719748192982
 20
-356.40064214259928
 30
0.0
 41
0.9998164899826358
 10
-975.23909061592224
 20
-356.31612790108306
 30
0.0
 41
1.0
 10
-975.22724505539747
 20
-356.30859413455812
 30
0.0
 41
1.0
 10
-975.21539949487271
 20
-356.30106036803323
 30
0.0
 41
1.0
 10
-975.10620641254786
 20
-356.23161365956781
 30
0.0
 41
0.9997473449130153
 10
-974.9940024552966
 20
-356.167144701751
 30
0.0
 41
1.0
 10
-974.88179849804465
 20
-356.10267574393401
 30
0.0
 41
0.9999327861147641
 10
-974.76812988728159
 20
-356.04082575225272
 30
0.0
 41
1.0
 10
-974.76757788472196
 20
-356.04052539357417
 30
0.0
 41
1.0
 10
-974.76702588216222
 20
-356.04022503489557
 30
0.0
 41
1.0
 10
-974.6522532662774
 20
-355.97777432585588
 30
0.0
 41
0.9996956420483824
 10
-974.53453994043741
 20
-355.92106085888122
 30
0.0
 41
1.0
 10
-974.50409953554367
 20
-355.90639488215072
 30
0.0
 41
1.0
 10
-974.47365913065005
 20
-355.89172890542028
 30
0.0
 41
1.0
 10
-974.3706820239056
 20
-355.84211524697668
 30
0.0
 41
0.9998070570176452
 10
-974.26583563496695
 20
-355.79658466007663
 30
0.0
 41
1.0
 10
-974.16098924602557
 20
-355.75105407317551
 30
0.0
 41
0.9997827436147662
 10
-974.05433630941775
 20
-355.70993290186442
 30
0.0
 41
1.0
 10
-974.03511345978552
 20
-355.70252132823168
 30
0.0
 41
1.0
 10
-974.01589061015329
 20
-355.695109754599
 30
0.0
 41
1.0
 10
-973.87079197428
 20
-355.6391654360221
 30
0.0
 41
0.9988031841976945
 10
-973.72092161167484
 20
-355.5976653718543
 30
0.0
 41
1.0
 10
-973.696004363312
 20
-355.59076562604753
 30
0.0
 41
1.0
 10
-973.67108711494916
 20
-355.58386588024075
 30
0.0
 41
1.0
 10
-973.50381708930229
 20
-355.53754773783402
 30
0.0
 41
0.998474804055005
 10
-973.33246018065336
 20
-355.50995350556911
 30
0.0
 41
1.0
 10
-973.3277210444046
 20
-355.50919034505569
 30
0.0
 41
1.0
 10
-973.32298190815584
 20
-355.50842718454226
 30
0.0
 41
1.0
 10
-973.16110327200431
 20
-355.48235927330427
 30
0.0
 41
0.9984436495479985
 10
-972.9973285282797
 20
-355.47448131948556
 30
0.0
 41
1.0
 10
-972.97563132014841
 20
-355.47343763228594
 30
0.0
 41
1.0
 10
-972.95393411201712
 20
-355.47239394508625
 30
0.0
 41
1.0
 10
-972.83355378455553
 20
-355.4666033656668
 30
0.0
 41
0.998795478933515
 10
-972.71318553964511
 20
-355.47263989340911
 30
0.0
 41
1.0
 10
-972.69322074715058
 20
-355.47364113774768
 30
0.0
 41
1.0
 10
-972.67325595465604
 20
-355.4746423820863
 30
0.0
 41
1.0
 10
-972.59281729473378
 20
-355.47867642115153
 30
0.0
 41
0.9997941595877727
 10
-972.51260851664085
 20
-355.48597048707245
 30
0.0
 41
1.0
 10
-972.43239973854611
 20
-355.49326455299354
 30
0.0
 41
0.9998589466237404
 10
-972.35248119169125
 20
-355.50324840744361
 30
0.0
 41
1.0
 10
-972.3200749898831
 20
-355.50729676436282
 30
0.0
 41
1.0
 10
-972.28766878807494
 20
-355.51134512128203
 30
0.0
 41
1.0
 10
-972.14293783760297
 20
-355.52942568957064
 30
0.0
 41
0.9993495063249395
 10
-971.99988659383678
 20
-355.55789139931244
 30
0.0
 41
1.0
 10
-971.96695289668673
 20
-355.56444486252684
 30
0.0
 41
1.0
 10
-971.93401919953658
 20
-355.57099832574124
 30
0.0
 41
1.0
 10
-971.82472537633055
 20
-355.59274665987687
 30
0.0
 41
0.9996788715561197
 10
-971.71667380437282
 20
-355.62000445924025
 30
0.0
 41
1.0
 10
-971.7146108018336
 20
-355.62052488581321
 30
0.0
 41
1.0
 10
-971.71254779929438
 20
-355.62104531238623
 30
0.0
 41
1.0
 10
-971.60862223241691
 20
-355.64726225860312
 30
0.0
 41
0.9995480654492353
 10
-971.50645999718699
 20
-355.67967721522768
 30
0.0
 41
1.0
 10
-971.50477035505719
 20
-355.68021332014189
 30
0.0
 41
1.0
 10
-971.50308071292727
 20
-355.68074942505604
 30
0.0
 41
1.0
 10
-971.40429776195765
 20
-355.71209217185208
 30
0.0
 41
0.9993867959456253
 10
-971.307950603515
 20
-355.75027154114184
 30
0.0
 41
1.0
 10
-971.30670765443028
 20
-355.75076408303801
 30
0.0
 41
1.0
 10
-971.30546470534557
 20
-355.75125662493423
 30
0.0
 41
1.0
 10
-971.21160344507234
 20
-355.78845091043166
 30
0.0
 41
0.9992050256522009
 10
-971.12100377003912
 20
-355.83300480967034
 30
0.0
 41
1.0
 10
-971.12026908732651
 20
-355.83336610213127
 30
0.0
 41
1.0
 10
-971.11953440461377
 20
-355.83372739459219
 30
0.0
 41
1.0
 10
-971.03040409500579
 20
-355.87755870890908
 30
0.0
 41
0.9990222350741865
 10
-970.94549403361202
 20
-355.92909197660742
 30
0.0
 41
1.0
 10
-970.94531014832933
 20
-355.92920357951226
 30
0.0
 41
1.0
 10
-970.94512626304652
 20
-355.9293151824171
 30
0.0
 41
1.0
 10
-970.86058397221825
 20
-355.98062524430588
 30
0.0
 41
0.998864274380518
 10
-970.78130943759948
 20
-356.03974943183096
 30
0.0
 41
1.0
 10
-970.70203490298002
 20
-356.09887361935648
 30
0.0
 41
0.9987681233310629
 10
-970.62901111870258
 20
-356.1655643107585
 30
0.0
 41
1.0
 10
-970.62868219073766
 20
-356.16586471197195
 30
0.0
 41
1.0
 10
-970.62835326277263
 20
-356.16616511318534
 30
0.0
 41
1.0
 10
-970.55467162256582
 20
-356.23345660701358
 30
0.0
 41
0.9987496570898109
 10
-970.4880778172394
 20
-356.30776942109947
 30
0.0
 41
1.0
 10
-970.48730564747814
 20
-356.30863109445824
 30
0.0
 41
1.0
 10
-970.48653347771688
 20
-356.30949276781701
 30
0.0
 41
1.0
 10
-970.41839533287009
 20
-356.38552892861765
 30
0.0
 41
0.9988147669826635
 10
-970.35797307864595
 20
-356.46782993545884
 30
0.0
 41
1.0
 10
-970.35685375256708
 20
-356.46935456681285
 30
0.0
 41
1.0
 10
-970.35573442648831
 20
-356.47087919816693
 30
0.0
 41
1.0
 10
-970.29307352010721
 20
-356.55622946771547
 30
0.0
 41
0.9989452636216231
 10
-970.23850660714515
 20
-356.64696815687444
 30
0.0
 41
1.0
 10
-970.23715788106017
 20
-356.64921093789951
 30
0.0
 41
1.0
 10
-970.23580915497519
 20
-356.65145371892459
 30
0.0
 41
1.0
 10
-970.17854478984293
 20
-356.74667797013393
 30
0.0
 41
0.9991046436070489
 10
-970.12953557652179
 20
-356.84640240315832
 30
0.0
 41
1.0
 10
-970.12807171493137
 20
-356.84938108323178
 30
0.0
 41
1.0
 10
-970.12660785334083
 20
-356.85235976330523
 30
0.0
 41
1.0
 10
-970.07467091683873
 20
-356.9580415564767
 30
0.0
 41
0.9992763831101178
 10
-970.0309177882832
 20
-357.06736561843366
 30
0.0
 41
1.0
 10
-970.02943851862028
 20
-357.07106180596622
 30
0.0
 41
1.0
 10
-970.02795924895736
 20
-357.07475799349879
 30
0.0
 41
1.0
 10
-969.98124758107565
 20
-357.19147443052202
 30
0.0
 41
0.9994163472883016
 10
-969.942614549886
 20
-357.31110801898564
 30
0.0
 41
1.0
 10
-969.94137639763835
 20
-357.3149421627711
 30
0.0
 41
1.0
 10
-969.9401382453907
 20
-357.31877630655663
 30
0.0
 41
1.0
 10
-969.90025468437443
 20
-357.44228236803247
 30
0.0
 41
0.9997268055890776
 10
-969.86618662846308
 20
-357.5675173999806
 30
0.0
 41
1.0
 10
-969.86525644819335
 20
-357.57093676608991
 30
0.0
 41
1.0
 10
-969.86432626792373
 20
-357.57435613219923
 30
0.0
 41
1.0
 10
-969.83211857255105
 20
-357.69275243193124
 30
0.0
 41
0.9996701319000372
 10
-969.80603295578067
 20
-357.81264638519474
 30
0.0
 41
1.0
 10
-969.77994733901028
 20
-357.9325403384571
 30
0.0
 41
0.9995785451109358
 10
-969.76086376167063
 20
-358.05374609948848
 30
0.0
 41
1.0
 10
-969.75664397949686
 20
-358.08054725425427
 30
0.0
 41
1.0
 10
-969.75242419732297
 20
-358.10734840902006
 30
0.0
 41
1.0
 10
-969.72584922138435
 20
-358.27613438272323
 30
0.0
 41
0.9979925101216601
 10
-969.72082363545803
 20
-358.44692571081453
 30
0.0
 41
1.0
 10
-969.71999882303339
 20
-358.4749564342992
 30
0.0
 41
1.0
 10
-969.71917401060864
 20
-358.50298715778388
 30
0.0
 41
1.0
 10
-969.71579804953183
 20
-358.61771703890918
 30
0.0
 41
0.9995314902263749
 10
-969.71944824167019
 20
-358.73243852265819
 30
0.0
 41
1.0
 10
-969.72309843380867
 20
-358.84716000640947
 30
0.0
 41
0.999624548694425
 10
-969.73302752893949
 20
-358.96150927753365
 30
0.0
 41
1.0
 10
-969.73319057693379
 20
-358.96338703366911
 30
0.0
 41
1.0
 10
-969.73335362492799
 20
-358.96526478980456
 30
0.0
 41
1.0
 10
-969.74360881604753
 20
-359.0833695732
 30
0.0
 41
0.9997286095000409
 10
-969.75935413961895
 20
-359.20086848209434
 30
0.0
 41
1.0
 10
-969.75974763226918
 20
-359.20380490679588
 30
0.0
 41
1.0
 10
-969.76014112491953
 20
-359.20674133149748
 30
0.0
 41
1.0
 10
-969.77667343379176
 20
-359.33011308979644
 30
0.0
 41
0.9998265533970175
 10
-969.79778889252441
 20
-359.45278356458488
 30
0.0
 41
1.0
 10
-969.79846543466147
 20
-359.45671394309215
 30
0.0
 41
1.0
 10
-969.79914197679864
 20
-359.46064432159937
 30
0.0
 41
1.0
 10
-969.82161051980597
 20
-359.59117555340532
 30
0.0
 41
0.9999022530851937
 10
-969.84771998441602
 20
-359.72102752204421
 30
0.0
 41
1.0
 10
-969.84869862558116
 20
-359.72589466443003
 30
0.0
 41
1.0
 10
-969.8496772667462
 20
-359.73076180681585
 30
0.0
 41
1.0
 10
-969.87774401368642
 20
-359.87034806022695
 30
0.0
 41
0.9999524761930464
 10
-969.90852698252013
 20
-360.00936055338678
 30
0.0
 41
1.0
 10
-969.90980308969642
 20
-360.01512331269259
 30
0.0
 41
1.0
 10
-969.91107919687261
 20
-360.02088607199835
 30
0.0
 41
1.0
 10
-969.94441438005538
 20
-360.17142408375508
 30
0.0
 41
0.9999813588722853
 10
-969.97958538084868
 20
-360.32154379640031
 30
0.0
 41
1.0
 10
-969.98113930630791
 20
-360.32817638683423
 30
0.0
 41
1.0
 10
-969.98269323176714
 20
-360.33480897726815
 30
0.0
 41
1.0
 10
-970.02097208347482
 20
-360.49819387076366
 30
0.0
 41
0.9999955237671423
 10
-970.06022796145555
 20
-360.66134677437122
 30
0.0
 41
1.0
 10
-970.0725095970904
 20
-360.71239096489637
 30
0.0
 41
1.0
 10
-970.08479123272537
 20
-360.76343515542146
 30
0.0
 41
1.0
 10
-970.14861038197205
 20
-361.02867644006301
 30
0.0
 41
0.9999993604775154
 10
-970.2130293291433
 20
-361.29377269076116
 30
0.0
 41
1.0
 10
-970.21774816468997
 20
-361.31319159880002
 30
0.0
 41
1.0
 10
-970.22246700023663
 20
-361.33261050683882
 30
0.0
 41
1.0
 10
-970.29632361849883
 20
-361.63654457360462
 30
0.0
 41
0.9999659914725625
 10
-970.37518321438563
 20
-361.93921912016992
 30
0.0
 41
1.0
 10
-970.38013590331457
 20
-361.95822825734592
 30
0.0
 41
1.0
 10
-970.38508859224362
 20
-361.97723739452192
 30
0.0
 41
1.0
 10
-970.4738535659892
 20
-362.31793021544172
 30
0.0
 41
0.9999441976025632
 10
-970.56979659895364
 20
-362.65667164074409
 30
0.0
 41
1.0
 10
-970.5864971173786
 20
-362.71563535326976
 30
0.0
 41
1.0
 10
-970.60319763580355
 20
-362.77459906579543
 30
0.0
 41
1.0
 10
-970.73254170561813
 20
-363.23126791614959
 30
0.0
 41
0.9999625120737803
 10
-970.86977447294146
 20
-363.68562845014526
 30
0.0
 41
1.0
 10
-970.9055644160228
 20
-363.80412447676679
 30
0.0
 41
1.0
 10
-970.94135435910403
 20
-363.92262050338832
 30
0.0
 41
1.0
 10
-971.0158745631461
 20
-364.16934758149392
 30
0.0
 41
0.999979338630234
 10
-971.09356058628623
 20
-364.41509622073806
 30
0.0
 41
1.0
 10
-971.17124660942375
 20
-364.66084485997419
 30
0.0
 41
1.0
 10
-971.18202616829444
 20
-364.69486276434884
 30
0.0
 41
1.0
 10
-973.03239922156354
 20
-370.58193468681634
 30
0.0
 41
1.0
 10
-974.88277227483275
 20
-376.46900660928384
 30
0.0
 41
1.0
 10
-975.84402896485631
 20
-376.46900660928384
 30
0.0
 41
1.0
 10
-976.80528565487987
 20
-376.46900660928384
 30
0.0
 41
1.0
 10
-975.18634087620148
 20
-371.3209781074944
 30
0.0
 41
1.0
 10
-973.56739609752299
 20
-366.17294960570496
 30
0.0
 41
1.0
 10
-973.52223027435082
 20
-366.02891838344181
 30
0.0
 41
1.0
 10
-973.47706445117865
 20
-365.88488716117871
 30
0.0
 41
1.0
 10
-973.30676003381404
 20
-365.34179613201042
 30
0.0
 41
0.9999911657886108
 10
-973.14102722213147
 20
-364.79729260063903
 30
0.0
 41
1.0
 10
-973.11133127863513
 20
-364.69972866060232
 30
0.0
 41
1.0
 10
-973.08163533513891
 20
-364.60216472056555
 30
0.0
 41
1.0
 10
-972.9752944104564
 20
-364.25278906929282
 30
0.0
 41
0.9999952428112857
 10
-972.87111082112619
 20
-363.90276404492579
 30
0.0
 41
1.0
 10
-972.86605135079208
 20
-363.88576577064475
 30
0.0
 41
1.0
 10
-972.86099188045785
 20
-363.86876749636377
 30
0.0
 41
1.0
 10
-972.76692723179713
 20
-363.55273902056234
 30
0.0
 41
0.9999931687550561
 10
-972.67520139392764
 20
-363.23602380730574
 30
0.0
 41
1.0
 10
-972.67026612946688
 20
-363.21898309803061
 30
0.0
 41
1.0
 10
-972.66533086500624
 20
-363.20194238875547
 30
0.0
 41
1.0
 10
-972.58347555605292
 20
-362.91930859403141
 30
0.0
 41
0.9999893840775269
 10
-972.50422832959714
 20
-362.63593246478865
 30
0.0
 41
1.0
 10
-972.42498110313954
 20
-362.35255633553959
 30
0.0
 41
0.9999833980078243
 10
-972.34900486239883
 20
-362.06828575251473
 30
0.0
 41
1.0
 10
-972.34000092567601
 20
-362.03459687403438
 30
0.0
 41
1.0
 10
-972.33099698895319
 20
-362.00090799555409
 30
0.0
 41
1.0
 10
-972.26203244008684
 20
-361.74287216325706
 30
0.0
 41
0.999923365806356
 10
-972.1994774688668
 20
-361.48320800453564
 30
0.0
 41
1.0
 10
-972.13692249764654
 20
-361.2235438458132
 30
0.0
 41
1.0
 10
-972.09743907878897
 20
-361.05973718138705
 30
0.0
 41
1.0
 10
-972.09246047481133
 20
-361.03908221951497
 30
0.0
 41
1.0
 10
-972.08748187083359
 20
-361.01842725764294
 30
0.0
 41
1.0
 10
-972.05795565993003
 20
-360.89593051695522
 30
0.0
 41
0.9999868670841442
 10
-972.02968657593522
 20
-360.77313757131549
 30
0.0
 41
1.0
 10
-972.02578908877535
 20
-360.7562079838894
 30
0.0
 41
1.0
 10
-972.02189160161561
 20
-360.73927839646331
 30
0.0
 41
1.0
 10
-972.00141749193767
 20
-360.65034462566388
 30
0.0
 41
0.9999778173357046
 10
-971.98212989382364
 20
-360.56114600843955
 30
0.0
 41
1.0
 10
-971.96284229570745
 20
-360.47194739120607
 30
0.0
 41
0.9999602692858401
 10
-971.94514793707492
 20
-360.38241910277026
 30
0.0
 41
1.0
 10
-971.94194410499858
 20
-360.36620864789086
 30
0.0
 41
1.0
 10
-971.93874027292213
 20
-360.3499981930114
 30
0.0
 41
1.0
 10
-971.91463825013602
 20
-360.22804899481338
 30
0.0
 41
0.9995617985320485
 10
-971.89779490291744
 20
-360.10488724710751
 30
0.0
 41
1.0
 10
-971.89533041301115
 20
-360.08686642974186
 30
0.0
 41
1.0
 10
-971.89286592310498
 20
-360.06884561237621
 30
0.0
 41
1.0
 10
-971.87258266205663
 20
-359.92053056267559
 30
0.0
 41
0.9991121410639799
 10
-971.86485730846834
 20
-359.771034463869
 30
0.0
 41
1.0
 10
-971.86393851844377
 20
-359.7532546272933
 30
0.0
 41
1.0
 10
-971.86301972841932
 20
-359.7354747907176
 30
0.0
 41
1.0
 10
-971.85713195488006
 20
-359.62153836506332
 30
0.0
 41
0.9989792494905341
 10
-971.86155104699742
 20
-359.50753552916444
 30
0.0
 41
1.0
 10
-971.86219901886602
 20
-359.49081928323903
 30
0.0
 41
1.0
 10
-971.86284699073462
 20
-359.47410303731368
 30
0.0
 41
1.0
 10
-971.86597013911467
 20
-359.39353269326773
 30
0.0
 41
0.9997820295394843
 10
-971.87245413649043
 20
-359.31316297152205
 30
0.0
 41
1.0
 10
-971.87893813386609
 20
-359.23279324977739
 30
0.0
 41
0.9998335105971872
 10
-971.888350329378
 20
-359.15271363332647
 30
0.0
 41
1.0
 10
-971.88994525405428
 20
-359.13914390284418
 30
0.0
 41
1.0
 10
-971.89154017873057
 20
-359.12557417236189
 30
0.0
 41
1.0
 10
-971.90414222359482
 20
-359.01835509494686
 30
0.0
 41
0.9996876457879702
 10
-971.92208613639286
 20
-358.91189966723186
 30
0.0
 41
1.0
 10
-971.92431779953881
 20
-358.89865993198606
 30
0.0
 41
1.0
 10
-971.92654946268487
 20
-358.88542019674026
 30
0.0
 41
1.0
 10
-971.94034528410543
 20
-358.80357405278482
 30
0.0
 41
0.9995547496494593
 10
-971.95899860599752
 20
-358.7226965555966
 30
0.0
 41
1.0
 10
-971.95937256286902
 20
-358.72107514489016
 30
0.0
 41
1.0
 10
-971.95974651974063
 20
-358.71945373418367
 30
0.0
 41
1.0
 10
-971.97765192789041
 20
-358.64181905840428
 30
0.0
 41
0.9994899427174989
 10
-972.00047683656953
 20
-358.56548577557101
 30
0.0
 41
1.0
 10
-972.00093536331008
 20
-358.56395232578302
 30
0.0
 41
1.0
 10
-972.00139389005062
 20
-358.56241887599509
 30
0.0
 41
1.0
 10
-972.02330174524843
 20
-358.48915249273779
 30
0.0
 41
0.9993784877590553
 10
-972.05031738035541
 20
-358.41761178757758
 30
0.0
 41
1.0
 10
-972.05084907133289
 20
-358.41620380485551
 30
0.0
 41
1.0
 10
-972.05138076231037
 20
-358.41479582213339
 30
0.0
 41
1.0
 10
-972.07733301546284
 20
-358.34607108241619
 30
0.0
 41
0.9992430832254271
 10
-972.10854955062132
 20
-358.27957193035024
 30
0.0
 41
1.0
 10
-972.10913166667785
 20
-358.27833187523305
 30
0.0
 41
1.0
 10
-972.10971378273439
 20
-358.27709182011586
 30
0.0
 41
1.0
 10
-972.13976608578059
 20
-358.2130727782822
 30
0.0
 41
0.9990789632798555
 10
-972.17519671255741
 20
-358.15186616653239
 30
0.0
 41
1.0
 10
-972.17579241873977
 20
-358.15083708067249
 30
0.0
 41
1.0
 10
-972.17638812492225
 20
-358.14980799481259
 30
0.0
 41
1.0
 10
-972.21062733933468
 20
-358.09065955478178
 30
0.0
 41
0.9988874801120581
 10
-972.25028661536612
 20
-358.03499984236487
 30
0.0
 41
1.0
 10
-972.25084214143089
 20
-358.03422019068955
 30
0.0
 41
1.0
 10
-972.25139766749555
 20
-358.03344053901418
 30
0.0
 41
1.0
 10
-972.28994589139859
 20
-357.97934012994648
 30
0.0
 41
0.9986762060692452
 10
-972.33384836267442
 20
-357.92948641550788
 30
0.0
 41
1.0
 10
-972.33429232300705
 20
-357.92898227369074
 30
0.0
 41
1.0
 10
-972.33473628333968
 20
-357.92847813187365
 30
0.0
 41
1.0
 10
-972.37775083395127
 20
-357.87963270106786
 30
0.0
 41
0.9984621642487083
 10
-972.42590839072841
 20
-357.83584940059757
 30
0.0
 41
1.0
 10
-972.42615502524563
 20
-357.83562516843352
 30
0.0
 41
1.0
 10
-972.42640165976275
 20
-357.83540093626948
 30
0.0
 41
1.0
 10
-972.4740659475068
 20
-357.79206610012585
 30
0.0
 41
0.9982724693850822
 10
-972.52648457934765
 20
-357.75462174960876
 30
0.0
 41
1.0
 10
-972.57890321118862
 20
-357.71717739909138
 30
0.0
 41
0.9981399180158929
 10
-972.635489274581
 20
-357.6863908796484
 30
0.0
 41
1.0
 10
-972.63553493666018
 20
-357.68636603649088
 30
0.0
 41
1.0
 10
-972.63558059873935
 20
-357.68634119333331
 30
0.0
 41
1.0
 10
-972.69225798628975
 20
-357.6555049875754
 30
0.0
 41
0.9980927086836522
 10
-972.75230333735635
 20
-357.63188817872287
 30
0.0
 41
1.0
 10
-972.75274350706786
 20
-357.63171505284794
 30
0.0
 41
1.0
 10
-972.75318367677937
 20
-357.631541926973
 30
0.0
 41
1.0
 10
-972.81410936726911
 20
-357.60757886637049
 30
0.0
 41
0.9981411356561551
 10
-972.87749788866893
 20
-357.59120622486489
 30
0.0
 41
1.0
 10
-972.87838000537022
 20
-357.59097838265944
 30
0.0
 41
1.0
 10
-972.8792621220714
 20
-357.590750540454
 30
0.0
 41
1.0
 10
-972.94441487687459
 20
-357.57392221453722
 30
0.0
 41
0.9983031812934423
 10
-973.01108230586931
 20
-357.56478285336112
 30
0.0
 41
1.0
 10
-973.01995333127229
 20
-357.56356673468997
 30
0.0
 41
1.0
 10
-973.02882435667516
 20
-357.56235061601876
 30
0.0
 41
1.0
 10
-973.08317399917962
 20
-357.55489988602761
 30
0.0
 41
0.9983887708263729
 10
-973.13801784847317
 20
-357.55365521239423
 30
0.0
 41
1.0
 10
-973.1460812536908
 20
-357.55347221451939
 30
0.0
 41
1.0
 10
-973.15414465890842
 20
-357.55328921664454
 30
0.0
 41
1.0
 10
-973.19286169776615
 20
-357.55241053876091
 30
0.0
 41
0.9998869563077801
 10
-973.23158765096866
 20
-357.5526964081206
 30
0.0
 41
1.0
 10
-973.27031360417482
 20
-357.55298227748028
 30
0.0
 41
0.9999972320057833
 10
-973.30903778339018
 20
-357.55345037700943
 30
0.0
 41
1.0
 10
-973.3283907999662
 20
-357.55368431709877
 30
0.0
 41
1.0
 10
-973.34774381654211
 20
-357.55391825718812
 30
0.0
 41
1.0
 10
-973.42517402891337
 20
-357.55485423689595
 30
0.0
 41
0.9997304945087303
 10
-973.50247733515153
 20
-357.55938333068207
 30
0.0
 41
1.0
 10
-973.51152697685529
 20
-357.55991353667196
 30
0.0
 41
1.0
 10
-973.52057661855895
 20
-357.56044374266185
 30
0.0
 41
1.0
 10
-973.61597920820486
 20
-357.56603324842774
 30
0.0
 41
0.999788830641605
 10
-973.71107154404456
 20
-357.57553821291657
 30
0.0
 41
1.0
 10
-973.71979260561886
 20
-357.57640992754887
 30
0.0
 41
1.0
 10
-973.72851366719317
 20
-357.57728164218111
 30
0.0
 41
1.0
 10
-973.84104812618193
 20
-357.58853003593447
 30
0.0
 41
0.9984170238190785
 10
-973.95160727353391
 20
-357.6123461178704
 30
0.0
 41
1.0
 10
-973.98798840451957
 20
-357.62018315367641
 30
0.0
 41
1.0
 10
-974.02436953550523
 20
-357.62802018948236
 30
0.0
 41
1.0
 10
-974.13956060392718
 20
-357.65283405599217
 30
0.0
 41
0.9976592854199314
 10
-974.25028877033196
 20
-357.69313273313924
 30
0.0
 41
1.0
 10
-974.3610169367372
 20
-357.73343141028647
 30
0.0
 41
0.9993255074352088
 10
-974.46848873552767
 20
-357.78174830877879
 30
0.0
 41
1.0
 10
-974.47311391445101
 20
-357.78382768497852
 30
0.0
 41
1.0
 10
-974.47773909337434
 20
-357.78590706117825
 30
0.0
 41
1.0
 10
-974.59446125001125
 20
-357.83838271206992
 30
0.0
 41
0.9976475078275028
 10
-974.70290859432123
 20
-357.90633070172805
 30
0.0
 41
1.0
 10
-974.72125098845686
 20
-357.91782318054311
 30
0.0
 41
1.0
 10
-974.73959338259249
 20
-357.92931565935811
 30
0.0
 41
1.0
 10
-974.82379557414413
 20
-357.98207278012626
 30
0.0
 41
0.9995131336406598
 10
-974.9045432891013
 20
-358.03997899207923
 30
0.0
 41
1.0
 10
-974.98529100405926
 20
-358.09788520403282
 30
0.0
 41
0.9995810107606247
 10
-975.06255265178754
 20
-358.16036688649837
 30
0.0
 41
1.0
 10
-975.06552268299765
 20
-358.16276875796291
 30
0.0
 41
1.0
 10
-975.06849271420765
 20
-358.16517062942739
 30
0.0
 41
1.0
 10
-975.15169442435729
 20
-358.23245605482299
 30
0.0
 41
0.9996617837954834
 10
-975.23128511149253
 20
-358.30397651038294
 30
0.0
 41
1.0
 10
-975.24341586236824
 20
-358.31487724337239
 30
0.0
 41
1.0
 10
-975.25554661324384
 20
-358.32577797636185
 30
0.0
 41
1.0
 10
-975.32382214064194
 20
-358.38713059183556
 30
0.0
 41
0.9997267750052942
 10
-975.38915564892704
 20
-358.45160712836218
 30
0.0
 41
1.0
 10
-975.45448915721158
 20
-358.51608366488824
 30
0.0
 41
0.9999667288965736
 10
-975.5187621003596
 20
-358.58161747178406
 30
0.0
 41
1.0
 10
-975.58758954813356
 20
-358.65179513054125
 30
0.0
 41
1.0
 10
-975.65641699590765
 20
-358.72197278929843
 30
0.0
 41
1.0
 10
-975.8583448346044
 20
-358.92786191370925
 30
0.0
 41
0.9988205335174951
 10
-976.03935045158357
 20
-359.15236614576946
 30
0.0
 41
1.0
 10
-976.06999041648851
 20
-359.19036939619957
 30
0.0
 41
1.0
 10
-976.10063038139333
 20
-359.22837264662974
 30
0.0
 41
1.0
 10
-976.34291592818306
 20
-359.52888337955119
 30
0.0
 41
0.9997077826754945
 10
-976.57039387928785
 20
-359.84075317376704
 30
0.0
 41
1.0
 10
-976.57211729441815
 20
-359.84311595714632
 30
0.0
 41
1.0
 10
-976.57384070954845
 20
-359.84547874052566
 30
0.0
 41
1.0
 10
-976.80476549091418
 20
-360.16207410150054
 30
0.0
 41
0.9989147567079021
 10
-977.00522899379769
 20
-360.49878356268528
 30
0.0
 41
1.0
 10
-977.02997013910419
 20
-360.5403401432369
 30
0.0
 41
1.0
 10
-977.0547112844107
 20
-360.58189672378859
 30
0.0
 41
1.0
 10
-977.20992258304864
 20
-360.84259810824238
 30
0.0
 41
0.999747659818202
 10
-977.35326757055896
 20
-361.11000785682597
 30
0.0
 41
1.0
 10
-977.49661255806814
 20
-361.37741760540757
 30
0.0
 41
0.9996258967110209
 10
-977.62512080999988
 20
-361.65226554203167
 30
0.0
 41
1.0
 10
-977.63832071944819
 20
-361.68049694212436
 30
0.0
 41
1.0
 10
-977.65152062889649
 20
-361.708728342217
 30
0.0
 41
1.0
 10
-977.79172934989765
 20
-362.00860074017294
 30
0.0
 41
0.9998735413944297
 10
-977.92233069662007
 20
-362.31278033964486
 30
0.0
 41
1.0
 10
-977.92577352468106
 20
-362.32079892511064
 30
0.0
 41
1.0
 10
-977.92921635274206
 20
-362.32881751057641
 30
0.0
 41
1.0
 10
-978.05293204334066
 20
-362.61695993911303
 30
0.0
 41
0.9999377418862356
 10
-978.17018684551522
 20
-362.90779140678751
 30
0.0
 41
1.0
 10
-978.28744164769148
 20
-363.19862287446642
 30
0.0
 41
0.999950829950408
 10
-978.39890559106846
 20
-363.49172255128701
 30
0.0
 41
1.0
 10
-978.40198635973047
 20
-363.4998235772498
 30
0.0
 41
1.0
 10
-978.4050671283926
 20
-363.50792460321259
 30
0.0
 41
1.0
 10
-978.522692609096
 20
-363.81722633196421
 30
0.0
 41
0.9999609228434352
 10
-978.63483121197112
 20
-364.1285593479833
 30
0.0
 41
1.0
 10
-978.63778722231973
 20
-364.13676618838974
 30
0.0
 41
1.0
 10
-978.64074323266823
 20
-364.14497302879613
 30
0.0
 41
1.0
 10
-978.75879385623955
 20
-364.47271972562538
 30
0.0
 41
0.9999674607403813
 10
-978.87154138230653
 20
-364.80232834561633
 30
0.0
 41
1.0
 10
-978.92293977286977
 20
-364.95258754131066
 30
0.0
 41
1.0
 10
-978.97433816343312
 20
-365.10284673700505
 30
0.0
 41
1.0
 10
-979.09034877019189
 20
-365.44199471951072
 30
0.0
 41
0.9999287532309306
 10
-979.1982301741632
 20
-365.78381545848833
 30
0.0
 41
1.0
 10
-979.24470743030565
 20
-365.93107800286953
 30
0.0
 41
1.0
 10
-979.29118468644799
 20
-366.07834054725078
 30
0.0
 41
1.0
 10
-979.30611157813826
 20
-366.12563619747766
 30
0.0
 41
0.9999998224929254
 10
-979.32098208686443
 20
-366.17294960570496
 30
0.0
 41
1.0
 10
-980.94163822365988
 20
-371.3209781074944
 30
0.0
 41
1.0
 10
-982.56229436045533
 20
-376.46900660928384
 30
0.0
 41
1.0
 10
-983.46760280434626
 20
-376.46900660928384
 30
0.0
 41
1.0
 10
-984.37291124823719
 20
-376.46900660928384
 30
0.0
 41
1.0
 10
-982.52082683685114
 20
-370.58193468681634
 30
0.0
 41
1.0
 10
-980.6687424254651
 20
-364.69486276434884
 30
0.0
 41
1.0
 10
-980.65862066716238
 20
-364.66281955089914
 30
0.0
 41
1.0
 10
-980.58601299831264
 20
-364.4325200090733
 30
0.0
 41
1.0
 10
-980.51340532946517
 20
-364.20222046725473
 30
0.0
 41
0.9999825681969642
 10
-980.44352229025549
 20
-363.97107957219612
 30
0.0
 41
1.0
 10
-980.39523122809305
 20
-363.81135498869457
 30
0.0
 41
1.0
 10
-980.3469401659305
 20
-363.65163040519298
 30
0.0
 41
1.0
 10
-980.2497878126145
 20
-363.33029518342084
 30
0.0
 41
0.9999672528963914
 10
-980.15784900699055
 20
-363.0074296378325
 30
0.0
 41
1.0
 10
-980.15506012331866
 20
-362.99763579243529
 30
0.0
 41
1.0
 10
-980.15227123964689
 20
-362.98784194703802
 30
0.0
 41
1.0
 10
-980.06591020136386
 20
-362.68456409223455
 30
0.0
 41
0.9999899749153318
 10
-979.98226859183251
 20
-362.38052500379376
 30
0.0
 41
1.0
 10
-979.97216267281351
 20
-362.34378976611021
 30
0.0
 41
1.0
 10
-979.96205675379463
 20
-362.30705452842665
 30
0.0
 41
1.0
 10
-979.89862698229695
 20
-362.07648591533825
 30
0.0
 41
0.999921420050272
 10
-979.84099755392003
 20
-361.84439957313202
 30
0.0
 41
1.0
 10
-979.82823170173788
 20
-361.79298868772906
 30
0.0
 41
1.0
 10
-979.81546584955561
 20
-361.74157780232611
 30
0.0
 41
1.0
 10
-979.78336812554107
 20
-361.61231323091744
 30
0.0
 41
0.9999828681673715
 10
-979.75278587354694
 20
-361.48268175645524
 30
0.0
 41
1.0
 10
-979.72220362155201
 20
-361.35305028198991
 30
0.0
 41
0.9999389844478899
 10
-979.69449263276294
 20
-361.22277482609076
 30
0.0
 41
1.0
 10
-979.68735488904235
 20
-361.18921872225178
 30
0.0
 41
1.0
 10
-979.68021714532188
 20
-361.15566261841286
 30
0.0
 41
1.0
 10
-979.63823066909242
 20
-360.95827495483866
 30
0.0
 41
0.9998933699442515
 10
-979.60202640469038
 20
-360.75974534708138
 30
0.0
 41
1.0
 10
-979.60065357947383
 20
-360.75221732638374
 30
0.0
 41
1.0
 10
-979.59928075425728
 20
-360.74468930568617
 30
0.0
 41
1.0
 10
-979.56033083942179
 20
-360.53110365653174
 30
0.0
 41
0.9996850305192957
 10
-979.5321471631629
 20
-360.31583265109225
 30
0.0
 41
1.0
 10
-979.53015212979415
 20
-360.30059429697445
 30
0.0
 41
1.0
 10
-979.52815709642539
 20
-360.28535594285665
 30
0.0
 41
1.0
 10
-979.50074923396608
 20
-360.07601071570025
 30
0.0
 41
0.9994697936706559
 10
-979.48702467474641
 20
-359.86532552036851
 30
0.0
 41
1.0
 10
-979.48654760549653
 20
-359.85800204815541
 30
0.0
 41
1.0
 10
-979.48607053624676
 20
-359.85067857594237
 30
0.0
 41
1.0
 10
-979.47330011552663
 20
-359.65464032503576
 30
0.0
 41
0.9991804893136443
 10
-979.4764284317996
 20
-359.45821147506433
 30
0.0
 41
1.0
 10
-979.47651231062173
 20
-359.45294467365051
 30
0.0
 41
1.0
 10
-979.47659618944385
 20
-359.44767787223668
 30
0.0
 41
1.0
 10
-979.47955674807235
 20
-359.26178262508978
 30
0.0
 41
0.9988448329321576
 10
-979.50034829369611
 20
-359.07703003525751
 30
0.0
 41
1.0
 10
-979.50194236739924
 20
-359.06286517948524
 30
0.0
 41
1.0
 10
-979.50353644110237
 20
-359.04870032371304
 30
0.0
 41
1.0
 10
-979.52113983931997
 20
-358.89227744542325
 30
0.0
 41
0.998550320945867
 10
-979.55545611161938
 20
-358.73865326133489
 30
0.0
 41
1.0
 10
-979.56304210369058
 20
-358.70469293393501
 30
0.0
 41
1.0
 10
-979.57062809576166
 20
-358.67073260653518
 30
0.0
 41
1.0
 10
-979.5897723839189
 20
-358.58502907724585
 30
0.0
 41
0.9991036781370255
 10
-979.61609724557024
 20
-358.50125198992066
 30
0.0
 41
1.0
 10
-979.62007947102688
 20
-358.48857882740799
 30
0.0
 41
1.0
 10
-979.62406169648352
 20
-358.47590566489538
 30
0.0
 41
1.0
 10
-979.64242210722193
 20
-358.41747490259388
 30
0.0
 41
0.9998874504366999
 10
-979.66252731489976
 20
-358.3596213003724
 30
0.0
 41
1.0
 10
-979.68263252257816
 20
-358.30176769814943
 30
0.0
 41
0.9994041637544094
 10
-979.70668113551233
 20
-358.24543899425964
 30
0.0
 41
1.0
 10
-979.71087791973628
 20
-358.23560892977781
 30
0.0
 41
1.0
 10
-979.71507470396034
 20
-358.22577886529598
 30
0.0
 41
1.0
 10
-979.74295353495506
 20
-358.16047869932845
 30
0.0
 41
0.9991846840702098
 10
-979.77600989164819
 20
-358.09764066804803
 30
0.0
 41
1.0
 10
-979.77714649804307
 20
-358.09548005159343
 30
0.0
 41
1.0
 10
-979.77828310443806
 20
-358.09331943513882
 30
0.0
 41
1.0
 10
-979.8090662483412
 20
-358.03480263676784
 30
0.0
 41
0.9989253167923121
 10
-979.84513567239628
 20
-357.97938770837754
 30
0.0
 41
1.0
 10
-979.84618979706954
 20
-357.97776821361674
 30
0.0
 41
1.0
 10
-979.8472439217428
 20
-357.97614871885588
 30
0.0
 41
1.0
 10
-979.88120509645034
 20
-357.92397277998862
 30
0.0
 41
0.9986467172837277
 10
-979.92040224908851
 20
-357.87560674635779
 30
0.0
 41
1.0
 10
-979.92127637778992
 20
-357.87452814407868
 30
0.0
 41
1.0
 10
-979.92215050649133
 20
-357.87344954179957
 30
0.0
 41
1.0
 10
-979.95959940172668
 20
-357.8272407127273
 30
0.0
 41
0.9984001104267554
 10
-980.00202613224315
 20
-357.78555560535938
 30
0.0
 41
1.0
 10
-980.00261327035219
 20
-357.78497873047837
 30
0.0
 41
1.0
 10
-980.00320040846134
 20
-357.78440185559737
 30
0.0
 41
1.0
 10
-980.04445286275995
 20
-357.74387049799083
 30
0.0
 41
0.9982442159082805
 10
-980.09020896409584
 20
-357.70850193673039
 30
0.0
 41
1.0
 10
-980.09042375955812
 20
-357.70833590408677
 30
0.0
 41
1.0
 10
-980.0906385550204
 20
-357.70816987144315
 30
0.0
 41
1.0
 10
-980.13596506543195
 20
-357.67313337546983
 30
0.0
 41
0.9982450060836248
 10
-980.18511604450327
 20
-357.64370159243663
 30
0.0
 41
1.0
 10
-980.23426702357426
 20
-357.61426980940348
 30
0.0
 41
0.9983922639635292
 10
-980.28643332973843
 20
-357.59059017474965
 30
0.0
 41
1.0
 10
-980.28666020706362
 20
-357.59048718926789
 30
0.0
 41
1.0
 10
-980.28688708438881
 20
-357.59038420378613
 30
0.0
 41
1.0
 10
-980.33950714520279
 20
-357.56649859816912
 30
0.0
 41
0.9986517147150003
 10
-980.39432011807139
 20
-357.54819747904719
 30
0.0
 41
1.0
 10
-980.39499803949877
 20
-357.54797113261588
 30
0.0
 41
1.0
 10
-980.39567596092616
 20
-357.54774478618458
 30
0.0
 41
1.0
 10
-980.45184477665009
 20
-357.52899097419987
 30
0.0
 41
0.9989435598956266
 10
-980.50949816380216
 20
-357.51547327196522
 30
0.0
 41
1.0
 10
-980.51057828338344
 20
-357.51522002171231
 30
0.0
 41
1.0
 10
-980.51165840296471
 20
-357.5149667714594
 30
0.0
 41
1.0
 10
-980.57147202927979
 20
-357.50094256871881
 30
0.0
 41
0.9992249241239941
 10
-980.63220353817724
 20
-357.49166722600364
 30
0.0
 41
1.0
 10
-980.633617226468
 20
-357.49145131759582
 30
0.0
 41
1.0
 10
-980.63503091475889
 20
-357.49123540918799
 30
0.0
 41
1.0
 10
-980.69858980023821
 20
-357.48152824965712
 30
0.0
 41
0.9994396597834309
 10
-980.76265573677483
 20
-357.47609532731144
 30
0.0
 41
1.0
 10
-980.78179640425287
 20
-357.47447215959278
 30
0.0
 41
1.0
 10
-980.80093707173091
 20
-357.47284899187412
 30
0.0
 41
1.0
 10
-980.9032843432235
 20
-357.46416973409112
 30
0.0
 41
0.9987693403121498
 10
-981.00598796681027
 20
-357.46567279754379
 30
0.0
 41
1.0
 10
-981.01624230103778
 20
-357.465822869318
 30
0.0
 41
1.0
 10
-981.02649663526529
 20
-357.46597294109216
 30
0.0
 41
1.0
 10
-981.13605240144454
 20
-357.46757628537961
 30
0.0
 41
0.9989753644966178
 10
-981.24501440146037
 20
-357.47907929230473
 30
0.0
 41
1.0
 10
-981.35397640147596
 20
-357.49058229922986
 30
0.0
 41
0.9983190067306328
 10
-981.46087521244147
 20
-357.51461729101658
 30
0.0
 41
1.0
 10
-981.46977616404843
 20
-357.51661856957935
 30
0.0
 41
1.0
 10
-981.47867711565527
 20
-357.51861984814207
 30
0.0
 41
1.0
 10
-981.60337782983345
 20
-357.5466573970541
 30
0.0
 41
0.9985539388302942
 10
-981.72434758351164
 20
-357.58792107309984
 30
0.0
 41
1.0
 10
-981.72669301447195
 20
-357.58872111691562
 30
0.0
 41
1.0
 10
-981.72903844543225
 20
-357.58952116073146
 30
0.0
 41
1.0
 10
-981.85469906103071
 20
-357.63238492440871
 30
0.0
 41
0.9988468746493702
 10
-981.97566940333127
 20
-357.68710300947123
 30
0.0
 41
1.0
 10
-981.97885222531988
 20
-357.68854268403112
 30
0.0
 41
1.0
 10
-981.9820350473085
 20
-357.68998235859101
 30
0.0
 41
1.0
 10
-982.10937103358629
 20
-357.74757979277331
 30
0.0
 41
0.9991322885919234
 10
-982.23147161764462
 20
-357.81557512495596
 30
0.0
 41
1.0
 10
-982.24907362868782
 20
-357.82537732694539
 30
0.0
 41
1.0
 10
-982.26667563973103
 20
-357.83517952893487
 30
0.0
 41
1.0
 10
-982.36885232078794
 20
-357.89207964471541
 30
0.0
 41
0.9993860037849507
 10
-982.46679332486144
 20
-357.95599566030398
 30
0.0
 41
1.0
 10
-982.47241163771241
 20
-357.959662154998
 30
0.0
 41
1.0
 10
-982.47802995056327
 20
-357.96332864969196
 30
0.0
 41
1.0
 10
-982.56473432893222
 20
-358.01991167589074
 30
0.0
 41
0.9998821494951982
 10
-982.6496607047477
 20
-358.07912990596924
 30
0.0
 41
1.0
 10
-982.73458708056023
 20
-358.13834813604586
 30
0.0
 41
0.9997976482744492
 10
-982.81706271096414
 20
-358.20093454408777
 30
0.0
 41
1.0
 10
-982.83169897576909
 20
-358.21204123386758
 30
0.0
 41
1.0
 10
-982.84633524057392
 20
-358.22314792364739
 30
0.0
 41
1.0
 10
-982.95808340058693
 20
-358.3079477112484
 30
0.0
 41
0.9998091630800867
 10
-983.06643367861352
 20
-358.39704806194891
 30
0.0
 41
1.0
 10
-983.0794394310916
 20
-358.4077431623956
 30
0.0
 41
1.0
 10
-983.09244518356968
 20
-358.4184382628423
 30
0.0
 41
1.0
 10
-983.22680696655232
 20
-358.52892881443614
 30
0.0
 41
0.9995035112317208
 10
-983.35394284431595
 20
-358.64766263145123
 30
0.0
 41
1.0
 10
-983.36359015470384
 20
-358.65667237760965
 30
0.0
 41
1.0
 10
-983.37323746509162
 20
-358.66568212376808
 30
0.0
 41
1.0
 10
-983.49666052785585
 20
-358.78094849552292
 30
0.0
 41
0.9994630424299291
 10
-983.61226893363914
 20
-358.90405123875746
 30
0.0
 41
1.0
 10
-983.61595177240963
 20
-358.90797281826951
 30
0.0
 41
1.0
 10
-983.61963461118012
 20
-358.91189439778151
 30
0.0
 41
1.0
 10
-983.72787733942232
 20
-359.02715398199172
 30
0.0
 41
0.9995160693749698
 10
-983.82874336895509
 20
-359.14892139986523
 30
0.0
 41
1.0
 10
-983.83067708903536
 20
-359.15125582407273
 30
0.0
 41
1.0
 10
-983.83261080911552
 20
-359.15359024828024
 30
0.0
 41
1.0
 10
-983.92960939848717
 20
-359.27068881773806
 30
0.0
 41
0.9996561470515072
 10
-984.02033561715291
 20
-359.39271158018698
 30
0.0
 41
1.0
 10
-984.02649328305392
 20
-359.4009933692281
 30
0.0
 41
1.0
 10
-984.03265094895505
 20
-359.40927515826922
 30
0.0
 41
1.0
 10
-984.11106183581842
 20
-359.51473434263556
 30
0.0
 41
0.9998349055172812
 10
-984.18558911775108
 20
-359.62297292629955
 30
0.0
 41
1.0
 10
-984.26011639968374
 20
-359.73121150996354
 30
0.0
 41
0.9999728109570477
 10
-984.33303929559031
 20
-359.84053743551357
 30
0.0
 41
1.0
 10
-984.33435451100354
 20
-359.84250920501836
 30
0.0
 41
1.0
 10
-984.33566972641688
 20
-359.84448097452321
 30
0.0
 41
1.0
 10
-984.4112230531664
 20
-359.95775043910743
 30
0.0
 41
0.9999972147347332
 10
-984.48624086356085
 20
-360.0713752819741
 30
0.0
 41
1.0
 10
-984.491212406165
 20
-360.07890537041897
 30
0.0
 41
1.0
 10
-984.49618394876927
 20
-360.08643545886389
 30
0.0
 41
1.0
 10
-984.58114484439159
 20
-360.21512047864974
 30
0.0
 41
0.9999371979006915
 10
-984.66320019379634
 20
-360.34567739242829
 30
0.0
 41
1.0
 10
-984.66670907815637
 20
-360.35126032049038
 30
0.0
 41
1.0
 10
-984.67021796251629
 20
-360.35684324855254
 30
0.0
 41
1.0
 10
-984.75929108064429
 20
-360.49856601846022
 30
0.0
 41
0.9998272025610901
 10
-984.84303447152627
 20
-360.64350189520223
 30
0.0
 41
1.0
 10
-984.85824964355061
 20
-360.66983500965955
 30
0.0
 41
1.0
 10
-984.87346481557506
 20
-360.69616812411687
 30
0.0
 41
1.0
 10
-984.98763855050538
 20
-360.89377022977305
 30
0.0
 41
0.9995217214838262
 10
-985.08937824006114
 20
-361.09805255763536
 30
0.0
 41
1.0
 10
-985.09702180269585
 20
-361.11340000733765
 30
0.0
 41
1.0
 10
-985.10466536533056
 20
-361.12874745703999
 30
0.0
 41
1.0
 10
-985.1915706579199
 20
-361.30324391512079
 30
0.0
 41
0.9998269762607067
 10
-985.27192512419265
 20
-361.48085220184555
 30
0.0
 41
1.0
 10
-985.3522795904662
 20
-361.65846048857219
 30
0.0
 41
0.999894474738979
 10
-985.42744038503167
 20
-361.83832821420361
 30
0.0
 41
1.0
 10
-985.43239405462327
 20
-361.85018286912191
 30
0.0
 41
1.0
 10
-985.43734772421476
 20
-361.86203752404015
 30
0.0
 41
1.0
 10
-985.51799478476607
 20
-362.05503446405521
 30
0.0
 41
0.9999506734409202
 10
-985.59479231366845
 20
-362.24959526890848
 30
0.0
 41
1.0
 10
-985.60939227893869
 20
-362.28658319071269
 30
0.0
 41
1.0
 10
-985.62399224420881
 20
-362.32357111251685
 30
0.0
 41
1.0
 10
-985.6715898425748
 20
-362.4441560737713
 30
0.0
 41
0.9999912393917678
 10
-985.7181762865946
 20
-362.56513527646041
 30
0.0
 41
1.0
 10
-985.76476273061235
 20
-362.68611447914424
 30
0.0
 41
0.9999927113976128
 10
-985.81042402500202
 20
-362.80744588663379
 30
0.0
 41
1.0
 10
-985.82439245640433
 20
-362.84456286864491
 30
0.0
 41
1.0
 10
-985.83836088780663
 20
-362.88167985065604
 30
0.0
 41
1.0
 10
-985.91195904499682
 20
-363.0772452221571
 30
0.0
 41
0.9999487550946716
 10
-985.98158266996916
 20
-363.27426058734153
 30
0.0
 41
1.0
 10
-986.00517627990507
 20
-363.34102389763166
 30
0.0
 41
1.0
 10
-986.0287698898411
 20
-363.40778720792184
 30
0.0
 41
1.0
 10
-986.12345552421129
 20
-363.67572104274552
 30
0.0
 41
0.999980843693456
 10
-986.21481711285378
 20
-363.94480647401326
 30
0.0
 41
1.0
 10
-986.3061787014949
 20
-364.21389190527714
 30
0.0
 41
0.9999873932921592
 10
-986.39483341021321
 20
-364.48388126029101
 30
0.0
 41
1.0
 10
-986.41492576708265
 20
-364.54507059304399
 30
0.0
 41
1.0
 10
-986.43501812395198
 20
-364.60625992579696
 30
0.0
 41
1.0
 10
-986.56385754640939
 20
-364.99862794631781
 30
0.0
 41
0.9999794883026588
 10
-986.68766033136967
 20
-365.39261415260262
 30
0.0
 41
1.0
 10
-986.6988125908108
 20
-365.42810476285115
 30
0.0
 41
1.0
 10
-986.70996485025194
 20
-365.46359537309962
 30
0.0
 41
1.0
 10
-986.85252301414016
 20
-365.91726812515708
 30
0.0
 41
0.9999982761785126
 10
-986.99339545415455
 20
-366.37146714727726
 30
0.0
 41
1.0
 10
-988.58153578672716
 20
-371.42023687828055
 30
0.0
 41
1.0
 10
-990.16967611929977
 20
-376.46900660928384
 30
0.0
 41
1.0
 10
-991.11842673077615
 20
-376.46900660928384
 30
0.0
 41
1.0
 10
-992.06717734225253
 20
-376.46900660928384
 30
0.0
 41
1.0
 10
-988.8288928560994
 20
-366.1416844093377
 30
0.0
 41
1.0
 10
-985.59060836994615
 20
-355.81436220939156
 30
0.0
 41
1.0
  0
LWPOLYLINE
  5
58
100
AcDbEntity
  8
0
370
              15
390
0
  6
Continuous
 62
               7
100
AcDbPolyline
 90
      232
 70
             128
 10
-1011.2941541437732
 20
-356.89870504090675
 42
0.0004370800689895
 10
-1011.3470313177985
 20
-356.96737168010213
 10
-1011.3863155489727
 20
-357.01847879305956
 42
0.0030481992174601
 10
-1011.5166542661009
 20
-357.1902004854158
 10
-1011.5551659378423
 20
-357.24158726919188
 42
0.0042058245758374
 10
-1011.7591509885149
 20
-357.51859301426941
 10
-1011.8115561110128
 20
-357.59102586104632
 42
0.0120948898742687
 10
-1012.1076000277759
 20
-358.02177546559807
 10
-1012.2037925268971
 20
-358.16925620082179
 42
0.0141601263948774
 10
-1012.5074365738182
 20
-358.66492553755563
 10
-1012.5469738412454
 20
-358.73376950498965
 42
0.0071131081301174
 10
-1012.7522461644826
 20
-359.10327230382552
 42
0.0068458791002495
 10
-1012.9471256913232
 20
-359.47836386729688
 10
-1012.9539375537834
 20
-359.49192558102527
 42
0.0064120880288249
 10
-1013.1520798038226
 20
-359.89935005593344
 10
-1013.1596144893447
 20
-359.91536191266539
 42
0.0058857236448531
 10
-1013.362369881217
 20
-360.35973802370171
 10
-1013.3705448075103
 20
-360.37822817733434
 42
0.0053189741895844
 10
-1013.579249120178
 20
-360.86419165125272
 10
-1013.5879969258592
 20
-360.88517352944837
 42
0.0047503650419632
 10
-1013.8039706520134
 20
-361.41737296266672
 10
-1013.8132389003581
 20
-361.44084933876593
 42
0.0042071762172132
 10
-1014.0377862840887
 20
-362.02394293284328
 10
-1014.0475356864345
 20
-362.04990910770539
 42
0.003668008648475
 10
-1014.2819903297527
 20
-362.68854449225387
 10
-1014.2921981095943
 20
-362.71699302658112
 42
0.0032573142627274
 10
-1014.5378303955516
 20
-363.41584568630753
 10
-1014.6064809164085
 20
-363.61530877040741
 42
0.0026133366649935
 10
-1014.9549261151597
 20
-364.64517205405934
 10
-1015.0181829026568
 20
-364.83540288944158
 42
0.0020592950740912
 10
-1015.2320459716275
 20
-365.48750654206549
 10
-1015.2350977627929
 20
-365.49694303048238
 42
0.0025609928535337
 10
-1015.4369182642764
 20
-366.13208825284107
 10
-1015.4395096314048
 20
-366.14039059378717
 42
0.0031362356242
 10
-1015.6290004170801
 20
-366.76115344996117
 10
-1015.6311314600065
 20
-366.76829475616876
 42
0.0037229918028016
 10
-1015.8079318469338
 20
-367.37728005814643
 10
-1015.8096104361356
 20
-367.3832269483043
 42
0.0043077623706622
 10
-1015.9733512382053
 20
-367.98304568008984
 42
0.0047654161824986
 10
-1016.1261799607209
 20
-368.58573176899091
 10
-1016.1606445695604
 20
-368.72729354614194
 42
0.0112969368445313
 10
-1016.356508927704
 20
-369.61898570676613
 10
-1016.3845153168006
 20
-369.76181375286399
 42
0.0130056762571083
 10
-1016.5853525604473
 20
-370.94875482450891
 10
-1016.6058923105956
 20
-371.09283293799405
 42
0.0138721532145596
 10
-1016.7095953151322
 20
-371.99966242381163
 10
-1016.7288908030403
 20
-372.22316014573789
 42
0.0071254697008427
 10
-1016.7622374489627
 20
-372.68634715458393
 10
-1016.7671984231264
 20
-372.77235114915294
 42
0.002888179920387
 10
-1016.7823367164158
 20
-373.06409285898667
 42
0.0060297297134433
 10
-1016.7922689161912
 20
-373.35604179509716
 10
-1016.7933311978585
 20
-373.40443416703505
 42
0.02295231641549
 10
-1016.7856001700727
 20
-373.72718901331814
 10
-1016.7813743965521
 20
-373.78759254733677
 42
0.0123673300672278
 10
-1016.762295750034
 20
-373.98871327250913
 42
0.0128577674477628
 10
-1016.733100359627
 20
-374.18861112244019
 10
-1016.7259744862407
 20
-374.2299399370329
 42
0.0285717853766312
 10
-1016.6614804845455
 20
-374.50805608834463
 10
-1016.6478119608786
 20
-374.55471085782318
 42
0.0316283099158224
 10
-1016.5320013809644
 20
-374.87372535964926
 10
-1016.5289526892082
 20
-374.88071173197653
 42
0.0338984824238291
 10
-1016.3795209782417
 20
-375.16827769616395
 10
-1016.3772122488715
 20
-375.1720687254404
 42
0.0350228718354245
 10
-1016.1948519581982
 20
-375.42912071011676
 10
-1016.1939667064235
 20
-375.43019978788055
 42
0.0347476747529726
 10
-1015.9795420191831
 20
-375.65738483510086
 42
0.0331337701911844
 10
-1015.7362986934372
 20
-375.85351349717791
 10
-1015.7351985949206
 20
-375.85428620035077
 42
0.0305233319081584
 10
-1015.4666538993466
 20
-376.01941437044246
 10
-1015.463423854846
 20
-376.0211383823048
 42
0.0273744481153493
 10
-1015.1708701432709
 20
-376.15727652619552
 10
-1015.1657656081342
 20
-376.15932011066491
 42
0.0240964406195572
 10
-1014.8502885324893
 20
-376.26830383694596
 10
-1014.8437052032784
 20
-376.27022857662132
 42
0.0209636179813701
 10
-1014.5063050506241
 20
-376.35369672455374
 10
-1014.4986725901772
 20
-376.35524863755484
 42
0.0181388704692479
 10
-1014.1403501981787
 20
-376.41466473076878
 10
-1014.1320693498005
 20
-376.41573091458588
 42
0.0156086547587541
 10
-1013.7538819856105
 20
-376.45246710116265
 10
-1013.7106867332838
 20
-376.45530560364153
 42
0.0137148329020574
 10
-1013.3830135879858
 20
-376.46782585889287
 10
-1013.3370773980454
 20
-376.46832029200806
 42
0.0051057823886529
 10
-1013.1009318114676
 20
-376.46845054641722
 42
0.0052256693312495
 10
-1012.8648345276848
 20
-376.46370172195293
 10
-1012.7946077439395
 20
-376.46155475593889
 42
0.0161507179048939
 10
-1012.4188706658371
 20
-376.43790438561223
 10
-1012.3988577054652
 20
-376.43599419032478
 42
0.010121673783285
 10
-1011.984830483974
 20
-376.38800125995914
 10
-1011.9507771945478
 20
-376.38335356314963
 42
0.0245291776398509
 10
-1011.4739875389963
 20
-376.29427848507328
 10
-1011.389164223471
 20
-376.27408256472717
 42
0.0143509212560643
 10
-1011.032533119533
 20
-376.17827793094875
 42
0.0156557857038893
 10
-1010.6823170548066
 20
-376.06126671513027
 10
-1010.6748158403111
 20
-376.05849655337579
 42
0.0170137333630521
 10
-1010.3182198446284
 20
-375.91283893850402
 10
-1010.3111159222223
 20
-375.90965110294098
 42
0.0183105364410629
 10
-1009.9517662540578
 20
-375.73231606111761
 10
-1009.9448194894172
 20
-375.72856562624452
 42
0.0194899958150944
 10
-1009.5863387484329
 20
-375.51658664435354
 10
-1009.5793248690966
 20
-375.51206130205878
 42
0.0204869852949898
 10
-1009.2253105670028
 20
-375.26254128697309
 10
-1009.2180449584156
 20
-375.25696122162458
 42
0.0212516938556466
 10
-1008.8720550273075
 20
-374.96705722472996
 10
-1008.8255383332323
 20
-374.92458991463661
 42
0.0215248918251846
 10
-1008.5655121643442
 20
-374.6658256356418
 10
-1008.5204824299609
 20
-374.61698151428902
 42
0.0114578554959121
 10
-1008.3656902762864
 20
-374.44115858083364
 10
-1008.3544957402996
 20
-374.42783981728815
 42
0.0061531305133919
 10
-1008.2280210943053
 20
-374.27355028398256
 42
0.0006325587124249
 10
-1008.1036426101126
 20
-374.11754690825524
 10
-1008.0806024751021
 20
-374.08857338764744
 42
0.0041897761559672
 10
-1007.9121470711125
 20
-373.8730540115638
 10
-1007.8536849512371
 20
-373.79695266460044
 42
0.0092993880037342
 10
-1007.5770730240108
 20
-373.42267390071282
 10
-1007.4946785308141
 20
-373.30673689714735
 42
0.0159321727086662
 10
-1007.1480720481721
 20
-372.78456267639183
 10
-1007.1037159127852
 20
-372.71288311214522
 42
0.0085547317020823
 10
-1006.8692041474574
 20
-372.31900816291716
 42
0.0084601156891273
 10
-1006.6482279700123
 20
-371.9173813138795
 10
-1006.6401124961849
 20
-371.902021631612
 42
0.0081429654285086
 10
-1006.416863225748
 20
-371.46230011907238
 10
-1006.4080030615634
 20
-371.44412127705186
 42
0.0076574581329493
 10
-1006.1815955509944
 20
-370.96093840179401
 10
-1006.172115910273
 20
-370.93987392349572
 42
0.0070682724202024
 10
-1005.9416710024625
 20
-370.40783661870586
 10
-1005.9316807184845
 20
-370.38384742970288
 42
0.0064559514446501
 10
-1005.6963475103034
 20
-369.79753516318556
 10
-1005.6859381521379
 20
-369.77060023774175
 42
0.005831141390622
 10
-1005.4448914153754
 20
-369.12456814335911
 10
-1005.4341363379875
 20
-369.09468380219755
 42
0.0052312425818128
 10
-1005.1865550599492
 20
-368.38348138837063
 10
-1005.1755112235669
 20
-368.35065467629329
 42
0.0046680544796277
 10
-1004.9205827958341
 20
-367.56882836054388
 10
-1004.8785906457828
 20
-367.43584512322707
 42
0.0041666856445923
 10
-1004.6753046333938
 20
-366.77287634824086
 10
-1004.6376421927288
 20
-366.6462952405833
 42
0.0015170975154759
 10
-1004.516455614317
 20
-366.23442688909347
 42
-0.0004887993115324
 10
-1004.3961158412163
 20
-365.82230847712833
 10
-1004.3196385836989
 20
-365.5613510911104
 42
0.0002583378928656
 10
-1004.0464240135608
 20
-364.62729438767866
 10
-1003.9646511640748
 20
-364.34719512840604
 42
0.0006636169671734
 10
-1003.7707834040466
 20
-363.67984220476126
 10
-1003.7656867496926
 20
-363.66221062185724
 42
0.0010589131322934
 10
-1003.5842380487829
 20
-363.02947927883235
 10
-1003.5792559783066
 20
-363.01196637182687
 42
0.0015655524460597
 10
-1003.4109857711196
 20
-362.4133496926114
 10
-1003.4061555707127
 20
-362.39595753370452
 42
0.0021640440476998
 10
-1003.2518655987187
 20
-361.83093051565743
 10
-1003.247231379291
 20
-361.81366578567162
 42
0.0028763871852292
 10
-1003.1077156612357
 20
-361.28169783481655
 10
-1003.1033297970683
 20
-361.26457385666168
 42
0.0037310511944785
 10
-1002.9793731052316
 20
-360.7651262626382
 10
-1002.9752978849407
 20
-360.7481659913845
 42
0.0047652197771799
 10
-1002.8676739844342
 20
-360.28068822308762
 10
-1002.8639833851108
 20
-360.26392866793776
 42
0.0060276699301597
 10
-1002.7734532859572
 20
-359.82785287279341
 10
-1002.7702345956652
 20
-359.81135165846933
 42
0.0075824337761494
 10
-1002.6975452862525
 20
-359.40608449405806
 10
-1002.6948999088712
 20
-359.38992954660091
 42
0.0095130624610376
 10
-1002.6407846732411
 20
-359.01484019353575
 10
-1002.6337984493591
 20
-358.9589066354236
 42
0.0121054653227035
 10
-1002.6072071187806
 20
-358.69401080694536
 10
-1002.6063406290205
 20
-358.68260736400811
 42
0.0069050827388037
 10
-1002.5912518109833
 20
-358.43966613717203
 10
-1002.5901165113147
 20
-358.41613988012637
 42
0.0169063976699078
 10
-1002.5872892323346
 20
-358.21994715282653
 10
-1002.588459883866
 20
-358.159611391471
 42
0.0052007732909699
 10
-1002.5907133324588
 20
-358.08401800132526
 42
0.00540381233019
 10
-1002.6106768443008
 20
-357.96399970529711
 10
-1002.615762700168
 20
-357.93534121873415
 42
0.0112050460461146
 10
-1002.6511470622257
 20
-357.75901478039918
 10
-1002.6689720242673
 20
-357.67947319367431
 42
0.0240764468011827
 10
-1002.7598693904141
 20
-357.3492361581711
 10
-1002.7784281532266
 20
-357.29261599317999
 42
0.0256812331834788
 10
-1002.9217910734164
 20
-356.92089178692197
 10
-1002.9272004992381
 20
-356.90876045193181
 42
0.0268360501217909
 10
-1003.0966277400877
 20
-356.57776731791125
 10
-1003.1021641477217
 20
-356.56824764760063
 42
0.0274670231727112
 10
-1003.294365124136
 20
-356.27596027268169
 10
-1003.2997464240984
 20
-356.26868112514057
 42
0.0275035967099984
 10
-1003.5113193036605
 20
-356.01316523483626
 10
-1003.5163888046272
 20
-356.0076861472055
 42
0.0269557673524613
 10
-1003.7437923480666
 20
-355.78704386124355
 10
-1003.7485354058495
 20
-355.78291390678254
 42
0.0259124802207908
 10
-1003.9880902372799
 20
-355.5952233796304
 10
-1003.9926210824618
 20
-355.59203787730013
 42
0.024516215300233
 10
-1004.2405374355567
 20
-355.43530486818963
 10
-1004.2450639818795
 20
-355.43274467098956
 42
0.0229282588837553
 10
-1004.4974835387083
 20
-355.30487647848986
 10
-1004.5022640325446
 20
-355.302724178728
 42
0.0212984135695409
 10
-1004.7553019850068
 20
-355.20152526148559
 10
-1004.7606062699738
 20
-355.19966169872646
 42
0.0197555462341828
 10
-1005.0103846076993
 20
-355.12284628076077
 42
0.0183511896787832
 10
-1005.2653133331628
 20
-355.06526337379523
 10
-1005.3516785298847
 20
-355.04906058341038
 42
0.0338057877149496
 10
-1005.6371858791457
 20
-355.01525217826998
 10
-1005.7281912841917
 20
-355.01067252300834
 42
0.0091990524498927
 10
-1005.8340383928216
 20
-355.00729666708651
 42
0.0028333980781964
 10
-1005.9399523088116
 20
-355.00646855956978
 10
-1005.940867761864
 20
-355.00646658974574
 42
-0.0023619827798165
 10
-1006.0486137769843
 20
-355.00572574866709
 10
-1006.0850189471457
 20
-355.00530344220419
 42
0.0008824598477356
 10
-1006.2655749369759
 20
-355.00352766396611
 10
-1006.3094363694015
 20
-355.00317370244034
 42
0.0038132665768238
 10
-1006.5777192652785
 20
-355.00305476637374
 10
-1006.5942529200738
 20
-355.00317353251728
 42
0.0060665569335865
 10
-1006.8955334116705
 20
-355.00899383193826
 10
-1006.9097837436905
 20
-355.00944213990567
 42
0.0080356953336834
 10
-1007.2392424600311
 20
-355.02510986197262
 10
-1007.2513124751169
 20
-355.02587844491302
 42
0.0098996399104353
 10
-1007.6040755597646
 20
-355.05536367411088
 10
-1007.6141212691425
 20
-355.05640397030936
 42
0.0117740981367574
 10
-1007.9852781274903
 20
-355.10369621783917
 10
-1007.9935008239738
 20
-355.10494133441
 42
0.0137435215134944
 10
-1008.37808964346
 20
-355.1740383079719
 10
-1008.3847466825823
 20
-355.17542420420523
 42
0.0158359869384664
 10
-1008.7777437763849
 20
-355.270316292686
 10
-1008.7831569632519
 20
-355.2718062335565
 42
0.0180554124026368
 10
-1009.1794720078627
 20
-355.39644424979463
 10
-1009.1840287959477
 20
-355.39806028606154
 42
0.0203657431285075
 10
-1009.5785063137606
 20
-355.55632062757792
 10
-1009.5826498527664
 20
-355.55818224901918
 42
0.0226819684654649
 10
-1009.9700859089692
 20
-355.75382482768975
 10
-1009.9742856999882
 20
-355.75619041960999
 42
0.0248634984606025
 10
-1010.3494676411699
 20
-355.99281706555752
 10
-1010.3976625699528
 20
-356.02667410738246
 42
0.0267044190883929
 10
-1010.6719552668699
 20
-356.24211448325104
 42
0.0139303002200302
 10
-1010.9281224328104
 20
-356.47935332416478
 10
-1010.9329758185296
 20
-356.4841059870231
 42
0.0283460963443784
 10
-1011.1770484127568
 20
-356.75183664746811
 10
-1011.2167169179133
 20
-356.80063822494128
 42
0.0070695364822751
 10
-1011.2941541437732
 20
-356.89870504090675
 42
0.0070695364822751
  0
LWPOLYLINE
  5
59
100
AcDbEntity
  8
0
370
              15
390
0
  6
Continuous
 62
               7
100
AcDbPolyline
 90
      226
 70
             128
 10
-1014.8229745810196
 20
-372.62029384709069
 42
-0.0026277636623429
 10
-1014.8230524648196
 20
-372.55352192134723
 10
-1014.8228351065876
 20
-372.50036670390455
 42
-0.0088680296732892
 10
-1014.8190584902948
 20
-372.32735092150756
 10
-1014.8167121311822
 20
-372.2680708960479
 42
-0.0077381705617253
 10
-1014.8006660204194
 20
-371.97681040025611
 10
-1014.7997981092459
 20
-371.96452216656462
 42
-0.0068872530531602
 10
-1014.7731660294971
 20
-371.6493004144898
 10
-1014.7719618053117
 20
-371.63705943547689
 42
-0.0062130021485566
 10
-1014.7343680884842
 20
-371.29818974424023
 10
-1014.7328641849488
 20
-371.28601587232185
 42
-0.0056726929668409
 10
-1014.683942325447
 20
-370.92382065021218
 10
-1014.682168879802
 20
-370.91172684996309
 42
-0.0052341884493946
 10
-1014.6215582935417
 20
-370.52653359444326
 10
-1014.6195403047655
 20
-370.51452866445277
 42
-0.0049768450168967
 10
-1014.5468016233384
 20
-370.10668409701719
 10
-1014.5225526086173
 20
-369.97813611401421
 42
-0.0089029805625172
 10
-1014.3854717568224
 20
-369.31636066659144
 10
-1014.352726381504
 20
-369.17132923606835
 42
-0.0080318257099791
 10
-1014.123177767164
 20
-368.22561960421729
 10
-1014.111192840715
 20
-368.17948896902453
 42
-0.0074265721318263
 10
-1013.8271813018629
 20
-367.14942439063657
 10
-1013.8073017587469
 20
-367.08129033004951
 42
-0.0069711922702693
 10
-1013.4799971802418
 20
-366.01502258972664
 10
-1013.4200452331381
 20
-365.82900123136204
 42
-0.0052070422894597
 10
-1013.190620007877
 20
-365.14172915432471
 10
-1013.1733388156915
 20
-365.09170187366942
 42
-0.0009167004448393
 10
-1012.9702469284152
 20
-364.50724602555351
 42
-0.0025162726942773
 10
-1012.7631492981371
 20
-363.92420476134782
 10
-1012.7259246863428
 20
-363.82105521547311
 42
-0.0028212681458246
 10
-1012.4777487673841
 20
-363.1453245833145
 10
-1012.4679180046254
 20
-363.1190171386163
 42
-0.0031964916821458
 10
-1012.2316257469712
 20
-362.49881237651073
 10
-1012.2219912929791
 20
-362.47400238638505
 42
-0.0036281836453132
 10
-1011.996885331871
 20
-361.90656170547436
 10
-1011.9874469217174
 20
-361.88326427398107
 42
-0.0041269166833371
 10
-1011.7728292250544
 20
-361.36582337799325
 10
-1011.7401962686303
 20
-361.28894493162431
 42
-0.0047472213055512
 10
-1011.58315146308
 20
-360.92852346374877
 10
-1011.5762573818804
 20
-360.91310286643608
 42
-0.0025651659997073
 10
-1011.4278993480216
 20
-360.58577481066834
 42
-0.0057144634996517
 10
-1011.2741496542532
 20
-360.26096513731176
 10
-1011.2461189488496
 20
-360.20345675491257
 42
-0.0065388068373404
 10
-1011.0626519211092
 20
-359.83922425824665
 10
-1011.0541934653352
 20
-359.82296467888557
 42
-0.0074510843025896
 10
-1010.8780112194529
 20
-359.4962763977544
 10
-1010.8698315489225
 20
-359.48163562048677
 42
-0.0084648979860273
 10
-1010.7001976958218
 20
-359.18972660952443
 10
-1010.6923415693302
 20
-359.17671961786772
 42
-0.0095638542802495
 10
-1010.5285061217395
 20
-358.91683074589503
 10
-1010.5210311780673
 20
-358.90546138443904
 42
-0.0107191626806015
 10
-1010.3622295976802
 20
-358.67485014989552
 10
-1010.3552128639469
 20
-358.66511405752777
 42
-0.0118458573900347
 10
-1010.2006647654366
 20
-358.46104186222021
 42
-0.0129184518194483
 10
-1010.0362121418375
 20
-358.26488134605262
 10
-1010.0060673694701
 20
-358.2307552671482
 42
-0.0217742579634697
 10
-1009.8294550471367
 20
-358.04754849690016
 10
-1009.8187095026764
 20
-358.03733166369727
 42
-0.0097266568648728
 10
-1009.6526518838205
 20
-357.88548408925988
 42
-0.0187720905722712
 10
-1009.47830430793
 20
-357.74341523587003
 10
-1009.4475983172588
 20
-357.72025615347604
 42
-0.0179428207521103
 10
-1009.2151775972607
 20
-357.55770397636286
 10
-1009.2115252703425
 20
-357.55534004147353
 42
-0.0170047877696152
 10
-1008.9757616328145
 20
-357.41387952732362
 10
-1008.97197864407
 20
-357.41178122228848
 42
-0.0160190788366863
 10
-1008.7350700964327
 20
-357.29012992029925
 42
-0.0151102861491069
 10
-1008.4910383139837
 20
-357.1834471442437
 10
-1008.4386518117742
 20
-357.16240701134996
 42
-0.0271945441886821
 10
-1008.0799892527158
 20
-357.04054220064393
 10
-1008.0109244522283
 20
-357.02119265937779
 42
-0.0237596594022577
 10
-1007.5951276052053
 20
-356.92574194739609
 10
-1007.5270647514758
 20
-356.91348725926952
 42
-0.0213715440554241
 10
-1007.2411898200296
 20
-356.87454022775944
 10
-1007.1810426538111
 20
-356.86895051305851
 42
-0.0101465655818985
 10
-1007.0135501218175
 20
-356.85680696979443
 10
-1007.0042097356182
 20
-356.85632005479715
 42
-0.0100375910880111
 10
-1006.8550556350567
 20
-356.85154423687197
 10
-1006.8447963653762
 20
-356.85142179785754
 42
-0.0103625633382473
 10
-1006.7160883707215
 20
-356.85255323138415
 10
-1006.6938227194554
 20
-356.85321058984903
 42
-0.0115689250235758
 10
-1006.6097719819267
 20
-356.8576400960942
 42
-0.0072438037438754
 10
-1006.5259337024836
 20
-356.8652292958439
 10
-1006.5091331930147
 20
-356.86699583856773
 42
-0.0217917313131318
 10
-1006.3925634297
 20
-356.88441573128898
 10
-1006.3269633391327
 20
-356.89716233970353
 42
-0.0332943556754901
 10
-1006.122571174106
 20
-356.95120263101035
 10
-1006.0923986055564
 20
-356.96137070812864
 42
-0.0184824084802585
 10
-1005.9538935490905
 20
-357.01382172351532
 42
-0.0198002050693095
 10
-1005.8198192085921
 20
-357.07670578371415
 10
-1005.8179325712142
 20
-357.07768357059456
 42
-0.0212242342976039
 10
-1005.6857936288114
 20
-357.15344630938819
 10
-1005.6839783332689
 20
-357.154592111596
 42
-0.0226090605791788
 10
-1005.5554744320456
 20
-357.24407175516166
 10
-1005.5536299903097
 20
-357.24548400814797
 42
-0.0238457052239881
 10
-1005.4304479090194
 20
-357.34947990400781
 10
-1005.4284951804577
 20
-357.35129478177646
 42
-0.0248160564155848
 10
-1005.3122936731577
 20
-357.47056938298454
 10
-1005.3101900397551
 20
-357.47295471668963
 42
-0.0254109591453328
 10
-1005.2025848218885
 20
-357.60824310265474
 10
-1005.200336799975
 20
-357.61138465105455
 42
-0.025552848828929
 10
-1005.1028901211783
 20
-357.76341170528792
 10
-1005.1005590212617
 20
-357.76749331689643
 42
-0.0252146793221629
 10
-1005.0147779952533
 20
-357.9369955628917
 10
-1005.012475756095
 20
-357.94217764480629
 42
-0.0244265635952533
 10
-1004.9398210623343
 20
-358.12992421685033
 10
-1004.9305746608653
 20
-358.15778963519017
 42
-0.0231319612903221
 10
-1004.8846518818731
 20
-358.32109068199236
 42
-0.011213042435494
 10
-1004.8500158593346
 20
-358.48729428218155
 10
-1004.8488133342223
 20
-358.49379086906833
 42
-0.0210527881237614
 10
-1004.8231268588518
 20
-358.67484651450764
 10
-1004.8196162640297
 20
-358.71025206305683
 42
-0.0190029892426096
 10
-1004.8041747904851
 20
-358.96378790932505
 10
-1004.8033648140411
 20
-358.99926352369812
 42
-0.0137974553666138
 10
-1004.8049136668762
 20
-359.32429493041997
 10
-1004.8057591218322
 20
-359.350413675026
 42
-0.008133663421526
 10
-1004.8206184570547
 20
-359.65576114262365
 42
-0.0073526923572498
 10
-1004.8449269904291
 20
-359.96050938690678
 10
-1004.8461884142121
 20
-359.97384606157482
 42
-0.0066886138692534
 10
-1004.8819240002587
 20
-360.30443210507264
 10
-1004.8835810897285
 20
-360.31805372406347
 42
-0.0061359187356614
 10
-1004.9314316917794
 20
-360.6748177041631
 10
-1004.9334691928523
 20
-360.68871250699272
 42
-0.005669861006422
 10
-1004.9941195236202
 20
-361.07199107583625
 10
-1004.9965249569423
 20
-361.08615019506146
 42
-0.0052721077273983
 10
-1005.0706571577417
 20
-361.49627753473794
 10
-1005.0734203065837
 20
-361.51069417012536
 42
-0.0049289272178713
 10
-1005.1617144246816
 20
-361.94800268123788
 10
-1005.1648269193663
 20
-361.96267153406359
 42
-0.0047415956712669
 10
-1005.2680649108968
 20
-362.42746829146631
 10
-1005.3028331212583
 20
-362.57727538685742
 42
-0.0084404470902203
 10
-1005.4928495648318
 20
-363.33749941139445
 10
-1005.4989762528159
 20
-363.36036353554198
 42
-0.003963594025829
 10
-1005.7204299370991
 20
-364.16135239978661
 10
-1005.7338067322794
 20
-364.20828401638119
 42
-0.0072475040836859
 10
-1006.0012536201427
 20
-365.09750373277217
 10
-1006.0714659469678
 20
-365.31924408273721
 42
-0.0051345458827951
 10
-1006.3582253190287
 20
-366.19356927055458
 10
-1006.3797515858041
 20
-366.25699553770784
 42
-0.001915001660091
 10
-1006.6352849926629
 20
-367.00054465791061
 10
-1006.6417525970542
 20
-367.01913212281761
 42
-0.002152436275243
 10
-1006.890230648123
 20
-367.72345794454009
 10
-1006.8994410688081
 20
-367.74921152280979
 42
-0.0024331286821611
 10
-1007.1356963278554
 20
-368.39981083095972
 10
-1007.1447442804119
 20
-368.42435413733045
 42
-0.0027449721787186
 10
-1007.3693588512414
 20
-369.02348401623851
 10
-1007.3782488586354
 20
-369.04680660609546
 42
-0.0031083229768356
 10
-1007.5917913452436
 20
-369.59673064367041
 10
-1007.6005274769185
 20
-369.61882035952664
 42
-0.0035311343282031
 10
-1007.803568662511
 20
-370.12180348525828
 10
-1007.8121540016618
 20
-370.14264620877634
 42
-0.0040245640947653
 10
-1008.0052658054531
 20
-370.60095553136102
 10
-1008.0137019190522
 20
-370.62053489942389
 42
-0.0046015135853377
 10
-1008.1974582122199
 20
-371.0364399290753
 10
-1008.2057443900516
 20
-371.05473706853491
 42
-0.0052768638269539
 10
-1008.3807219090038
 20
-371.43050995279771
 10
-1008.388854119632
 20
-371.44750329134371
 42
-0.0060672675642099
 10
-1008.5556337323967
 20
-371.78541891445514
 10
-1008.5636032128773
 20
-371.80108417345065
 42
-0.0069904648870154
 10
-1008.7227716068796
 20
-372.10341998011609
 10
-1008.7305630064914
 20
-372.11773052934507
 42
-0.008063702276515
 10
-1008.8827148668363
 20
-372.38676583249651
 10
-1008.8903038994652
 20
-372.39969369809319
 42
-0.0093006455668566
 10
-1009.0360445759991
 20
-372.63770809660036
 10
-1009.0433952427427
 20
-372.64922606577335
 42
-0.0107060778053215
 10
-1009.1833437861812
 20
-372.85849638315256
 10
-1009.190405554462
 20
-372.86858192572009
 42
-0.0122723111412676
 10
-1009.3251992726589
 20
-373.0513752552074
 10
-1009.3255254962121
 20
-373.05179564301585
 42
-0.0141836319627276
 10
-1009.4691070991871
 20
-373.22636540084659
 10
-1009.4760548548367
 20
-373.23434040110851
 42
-0.0175957477211647
 10
-1009.6159610228738
 20
-373.38396128951615
 42
-0.0080466359671954
 10
-1009.7634247879033
 20
-373.52628381766675
 10
-1009.8094593324214
 20
-373.56930425575854
 42
-0.0269600260394425
 10
-1010.0627395784043
 20
-373.78162751426771
 10
-1010.1293067146999
 20
-373.83157892889045
 42
-0.0178362839754916
 10
-1010.3692512043572
 20
-373.998596855144
 10
-1010.3764961753581
 20
-374.00326536734917
 42
-0.0174650732650284
 10
-1010.6128323727989
 20
-374.14412633230802
 42
-0.0169240130168779
 10
-1010.8582986186562
 20
-374.26841859208531
 10
-1010.9042847742144
 20
-374.28978054765264
 42
-0.0318883036840603
 10
-1011.2546356298341
 20
-374.42611885716269
 10
-1011.3230011649999
 20
-374.44781947763846
 42
-0.0284435909901252
 10
-1011.6990512912902
 20
-374.5440369131129
 10
-1011.7342094517885
 20
-374.55093050894135
 42
-0.0243909341012087
 10
-1012.0476529127077
 20
-374.5966515399715
 10
-1012.0979336394789
 20
-374.60149708687317
 42
-0.0196639292929219
 10
-1012.3135292170061
 20
-374.61374537238669
 10
-1012.3653532881699
 20
-374.61464863312341
 42
-0.0100501510686315
 10
-1012.4777765698338
 20
-374.61434823477032
 10
-1012.5094364311885
 20
-374.61362716288477
 42
-0.0019752031118945
 10
-1012.5585287678592
 20
-374.61231500267536
 10
-1012.5612890710865
 20
-374.61223031084887
 42
0.0065378751998441
 10
-1012.6048656458361
 20
-374.61146341963411
 42
-0.0167974694670236
 10
-1012.6483964687674
 20
-374.60980352110806
 10
-1012.65247580803
 20
-374.60951051021311
 42
-0.0081283276277372
 10
-1012.7040356057676
 20
-374.60496351657531
 10
-1012.7157751796472
 20
-374.60373559899688
 42
-0.0126703440173833
 10
-1012.7904934754414
 20
-374.59400080792534
 10
-1012.8132813431173
 20
-374.59044255201013
 42
-0.0117852088440117
 10
-1012.9328203289465
 20
-374.56887955685363
 10
-1012.9882007807128
 20
-374.55753601661843
 42
-0.025177459229225
 10
-1013.2150448197223
 20
-374.49903800718494
 10
-1013.2597640095748
 20
-374.4850711878492
 42
-0.0146525199886377
 10
-1013.4461569971102
 20
-374.42080466065204
 42
-0.0166929435858267
 10
-1013.6281346532352
 20
-374.3449975275982
 10
-1013.6327912845099
 20
-374.34287262698342
 42
-0.01916843584339
 10
-1013.8179749157565
 20
-374.24963654319498
 10
-1013.8213075015162
 20
-374.24779529564012
 42
-0.0221181781809907
 10
-1014.0046178054187
 20
-374.13566179726917
 10
-1014.0069676094269
 20
-374.13407749927831
 42
-0.0254984685386629
 10
-1014.1832577598103
 20
-374.00166634931026
 10
-1014.205739907515
 20
-373.98291404037172
 42
-0.0292492648803587
 10
-1014.3305088463571
 20
-373.86582124072936
 42
-0.0159048957497425
 10
-1014.4443488438085
 20
-373.73780124912878
 10
-1014.4456676343866
 20
-373.73621963611026
 42
-0.0343813379559723
 10
-1014.5483048960131
 20
-373.59434831034048
 10
-1014.5797964273738
 20
-373.54384491824646
 42
-0.0369117275700596
 10
-1014.6656889292709
 20
-373.3803676772983
 42
-0.0191751379905059
 10
-1014.7328823148285
 20
-373.20796307129052
 10
-1014.7346456385874
 20
-373.20286972661745
 42
-0.0378178042226633
 10
-1014.7844403573719
 20
-373.01392895053527
 10
-1014.7904356531017
 20
-372.98136833234076
 42
-0.018484604647266
 10
-1014.8111528523964
 20
-372.83961551179425
 42
-0.0179866351304934
 10
-1014.8214858574703
 20
-372.69672469870676
 10
-1014.8215422999158
 20
-372.69516701210057
 42
-0.0085497186116495
 10
-1014.8229745810196
 20
-372.62029384709069
 42
-0.0085497186116495
  0
ENDBLK
  5
5A
100
AcDbEntity
  8
template
390
0
100
AcDbBlockEnd
  0
BLOCK
  5
5B
100
AcDbEntity
  8
notes
390
0
100
AcDbBlockBegin
  2
*D3
 70
               1
 10
0.0
 20
0.0
 30
0.0
  3
*D3
  1

  0
LINE
  5
5C
100
AcDbEntity
  8
0
370
              -2
390
0
  6
Continuous
 62
               0
100
AcDbLine
 10
-676.63130940675092
 20
-806.25540806293043
 30
0.0
 11
-755.63130940675092
 21
-806.25540806293043
 31
0.0
  0
LINE
  5
5D
100
AcDbEntity
  8
0
370
              -2
390
0
  6
Continuous
 62
               0
100
AcDbLine
 10
-676.63130940675092
 20
243.74459193707037
 30
0.0
 11
-755.63130940675092
 21
243.74459193707037
 31
0.0
  0
LINE
  5
5E
100
AcDbEntity
  8
0
370
              -2
390
0
  6
Continuous
 62
               0
100
AcDbLine
 10
-755.63130940675092
 20
-806.25540806293043
 30
0.0
 11
-755.63130940675092
 21
243.74459193707037
 31
0.0
  0
CIRCLE
  5
5F
102
{ACAD_REACTORS
330
60
102
}
100
AcDbEntity
  8
0
370
              -2
390
0
  6
Continuous
 62
               0
100
AcDbCircle
 10
-755.63130940675092
 20
-806.25540806293043
 30
0.0
 40
4.99969482421875
  0
HATCH
  5
60
100
AcDbEntity
  8
0
370
              -2
390
0
  6
Continuous
 62
               0
100
AcDbHatch
 10
0.0
 20
0.0
 30
0.0
210
0.0
220
0.0
230
1.0
  2
SOLID
 70
               1
 71
               1
 91
        1
 92
        1
 93
        1
 72
               2
 10
-755.63130940675092
 20
-806.25540806293043
 40
4.99969482421875
 50
0.0
 51
360.0
 73
               0
 97
        1
330
5F
 75
               0
 76
               1
 98
        1
 10
0.0
 20
0.0
  0
CIRCLE
  5
61
102
{ACAD_REACTORS
330
62
102
}
100
AcDbEntity
  8
0
370
              -2
390
0
  6
Continuous
 62
               0
100
AcDbCircle
 10
-755.63130940675092
 20
243.74459193707037
 30
0.0
 40
4.99969482421875
  0
HATCH
  5
62
100
AcDbEntity
  8
0
370
              -2
390
0
  6
Continuous
 62
               0
100
AcDbHatch
 10
0.0
 20
0.0
 30
0.0
210
0.0
220
0.0
230
1.0
  2
SOLID
 70
               1
 71
               1
 91
        1
 92
        1
 93
        1
 72
               2
 10
-755.63130940675092
 20
243.74459193707037
 40
4.99969482421875
 50
0.0
 51
360.0
 73
               0
 97
        1
330
61
 75
               0
 76
               1
 98
        1
 10
0.0
 20
0.0
  0
MTEXT
  5
63
100
AcDbEntity
  8
0
390
0
 62
               0
100
AcDbMText
 10
-786.90443440675108
 20
-313.00540806292997
 30
0.0
 40
21.828125
 41
0.0
 71
               1
 72
               1
  1
1050
  7
MS UI Gothic
 11
0.0
 21
1.0
 31
0.0
 73
               1
 44
0.8762322015334064
  0
POINT
  5
64
100
AcDbEntity
  8
Defpoints
370
               0
390
0
 62
               0
100
AcDbPoint
 10
-651.63130940675092
 20
243.74459193707037
 30
0.0
  0
POINT
  5
65
100
AcDbEntity
  8
Defpoints
370
               0
390
0
 62
               0
100
AcDbPoint
 10
-651.63130940675092
 20
-806.25540806293043
 30
0.0
  0
POINT
  5
66
100
AcDbEntity
  8
Defpoints
370
               0
390
0
 62
               0
100
AcDbPoint
 10
-755.63130940675092
 20
-806.25540806293043
 30
0.0
  0
ENDBLK
  5
67
100
AcDbEntity
  8
notes
390
0
100
AcDbBlockEnd
  0
BLOCK
  5
68
100
AcDbEntity
  8
notes
390
0
100
AcDbBlockBegin
  2
*D4
 70
               1
 10
0.0
 20
0.0
 30
0.0
  3
*D4
  1

  0
LINE
  5
69
100
AcDbEntity
  8
0
370
              -2
390
0
  6
Continuous
 62
               0
100
AcDbLine
 10
-655.63130940675092
 20
264.74459193707037
 30
0.0
 11
-655.63130940675092
 21
343.74459193707037
 31
0.0
  0
LINE
  5
6A
100
AcDbEntity
  8
0
370
              -2
390
0
  6
Continuous
 62
               0
100
AcDbLine
 10
-175.63130940675092
 20
-158.76581174794308
 30
0.0
 11
-175.63130940675092
 21
343.74459193707037
 31
0.0
  0
LINE
  5
6B
100
AcDbEntity
  8
0
370
              -2
390
0
  6
Continuous
 62
               0
100
AcDbLine
 10
-655.63130940675092
 20
343.74459193707037
 30
0.0
 11
-175.63130940675092
 21
343.74459193707037
 31
0.0
  0
CIRCLE
  5
6C
102
{ACAD_REACTORS
330
6D
102
}
100
AcDbEntity
  8
0
370
              -2
390
0
  6
Continuous
 62
               0
100
AcDbCircle
 10
-655.63130940675092
 20
343.74459193707037
 30
0.0
 40
4.99969482421875
  0
HATCH
  5
6D
100
AcDbEntity
  8
0
370
              -2
390
0
  6
Continuous
 62
               0
100
AcDbHatch
 10
0.0
 20
0.0
 30
0.0
210
0.0
220
0.0
230
1.0
  2
SOLID
 70
               1
 71
               1
 91
        1
 92
        1
 93
        1
 72
               2
 10
-655.63130940675092
 20
343.74459193707037
 40
4.99969482421875
 50
0.0
 51
360.0
 73
               0
 97
        1
330
6C
 75
               0
 76
               1
 98
        1
 10
0.0
 20
0.0
  0
CIRCLE
  5
6E
102
{ACAD_REACTORS
330
6F
102
}
100
AcDbEntity
  8
0
370
              -2
390
0
  6
Continuous
 62
               0
100
AcDbCircle
 10
-175.63130940675092
 20
343.74459193707037
 30
0.0
 40
4.99969482421875
  0
HATCH
  5
6F
100
AcDbEntity
  8
0
370
              -2
390
0
  6
Continuous
 62
               0
100
AcDbHatch
 10
0.0
 20
0.0
 30
0.0
210
0.0
220
0.0
230
1.0
  2
SOLID
 70
               1
 71
               1
 91
        1
 92
        1
 93
        1
 72
               2
 10
-175.63130940675092
 20
343.74459193707037
 40
4.99969482421875
 50
0.0
 51
360.0
 73
               0
 97
        1
330
6E
 75
               0
 76
               1
 98
        1
 10
0.0
 20
0.0
  0
MTEXT
  5
70
100
AcDbEntity
  8
0
390
0
 62
               0
100
AcDbMText
 10
-439.4438110889264
 20
375.0177169370703
 30
0.0
 40
21.828125
 41
0.0
 71
               1
 72
               1
  1
480
  7
MS UI Gothic
 73
               1
 44
0.8762322015334064
  0
POINT
  5
71
100
AcDbEntity
  8
Defpoints
370
               0
390
0
 62
               0
100
AcDbPoint
 10
-175.63130940675092
 20
-183.76581174794308
 30
0.0
  0
POINT
  5
72
100
AcDbEntity
  8
Defpoints
370
               0
390
0
 62
               0
100
AcDbPoint
 10
-655.63130940675092
 20
239.74459193707037
 30
0.0
  0
POINT
  5
73
100
AcDbEntity
  8
Defpoints
370
               0
390
0
 62
               0
100
AcDbPoint
 10
-655.63130940675092
 20
343.74459193707037
 30
0.0
  0
ENDBLK
  5
74
100
AcDbEntity
  8
notes
390
0
100
AcDbBlockEnd
  0
BLOCK
  5
75
100
AcDbEntity
  8
notes
390
0
100
AcDbBlockBegin
  2
*D5
 70
               1
 10
0.0
 20
0.0
 30
0.0
  3
*D5
  1

  0
LINE
  5
76
100
AcDbEntity
  8
0
370
              -2
390
0
  6
Continuous
 62
               0
100
AcDbLine
 10
-655.63130940675092
 20
-827.25540806293043
 30
0.0
 11
-655.63130940675092
 21
-961.88040806292997
 31
0.0
  0
LINE
  5
77
100
AcDbEntity
  8
0
370
              -2
390
0
  6
Continuous
 62
               0
100
AcDbLine
 10
-325.63130940675183
 20
-827.25540806293043
 30
0.0
 11
-325.63130940675183
 21
-961.88040806292997
 31
0.0
  0
LINE
  5
78
100
AcDbEntity
  8
0
370
              -2
390
0
  6
Continuous
 62
               0
100
AcDbLine
 10
-655.63130940675092
 20
-961.88040806292997
 30
0.0
 11
-325.63130940675183
 21
-961.88040806292997
 31
0.0
  0
CIRCLE
  5
79
102
{ACAD_REACTORS
330
7A
102
}
100
AcDbEntity
  8
0
370
              -2
390
0
  6
Continuous
 62
               0
100
AcDbCircle
 10
-655.63130940675092
 20
-961.88040806292997
 30
0.0
 40
4.99969482421875
  0
HATCH
  5
7A
100
AcDbEntity
  8
0
370
              -2
390
0
  6
Continuous
 62
               0
100
AcDbHatch
 10
0.0
 20
0.0
 30
0.0
210
0.0
220
0.0
230
1.0
  2
SOLID
 70
               1
 71
               1
 91
        1
 92
        1
 93
        1
 72
               2
 10
-655.63130940675092
 20
-961.88040806292997
 40
4.99969482421875
 50
0.0
 51
360.0
 73
               0
 97
        1
330
79
 75
               0
 76
               1
 98
        1
 10
0.0
 20
0.0
  0
CIRCLE
  5
7B
102
{ACAD_REACTORS
330
7C
102
}
100
AcDbEntity
  8
0
370
              -2
390
0
  6
Continuous
 62
               0
100
AcDbCircle
 10
-325.63130940675183
 20
-961.88040806292997
 30
0.0
 40
4.99969482421875
  0
HATCH
  5
7C
100
AcDbEntity
  8
0
370
              -2
390
0
  6
Continuous
 62
               0
100
AcDbHatch
 10
0.0
 20
0.0
 30
0.0
210
0.0
220
0.0
230
1.0
  2
SOLID
 70
               1
 71
               1
 91
        1
 92
        1
 93
        1
 72
               2
 10
-325.63130940675183
 20
-961.88040806292997
 40
4.99969482421875
 50
0.0
 51
360.0
 73
               0
 97
        1
330
7B
 75
               0
 76
               1
 98
        1
 10
0.0
 20
0.0
  0
MTEXT
  5
7D
100
AcDbEntity
  8
0
390
0
 62
               0
100
AcDbMText
 10
-524.81881108892685
 20
-930.60728306293004
 30
0.0
 40
21.828125
 41
0.0
 71
               1
 72
               1
  1
330
  7
MS UI Gothic
 73
               1
 44
0.8762322015334064
  0
POINT
  5
7E
100
AcDbEntity
  8
Defpoints
370
               0
390
0
 62
               0
100
AcDbPoint
 10
-325.63130940675183
 20
-802.25540806293043
 30
0.0
  0
POINT
  5
7F
100
AcDbEntity
  8
Defpoints
370
               0
390
0
 62
               0
100
AcDbPoint
 10
-655.63130940675092
 20
-802.25540806293043
 30
0.0
  0
POINT
  5
80
100
AcDbEntity
  8
Defpoints
370
               0
390
0
 62
               0
100
AcDbPoint
 10
-655.63130940675092
 20
-961.88040806292997
 30
0.0
  0
ENDBLK
  5
81
100
AcDbEntity
  8
notes
390
0
100
AcDbBlockEnd
  0
BLOCK
  5
82
100
AcDbEntity
  8
notes
390
0
100
AcDbBlockBegin
  2
*D6
 70
               1
 10
0.0
 20
0.0
 30
0.0
  3
*D6
  1

  0
LINE
  5
83
100
AcDbEntity
  8
0
370
              -2
390
0
  6
Continuous
 62
               0
100
AcDbLine
 10
-244.58987473740217
 20
-516.24500437791858
 30
0.0
 11
-75.631309406750916
 21
-516.24500437791858
 31
0.0
  0
LINE
  5
84
100
AcDbEntity
  8
0
370
              -2
390
0
  6
Continuous
 62
               0
100
AcDbLine
 10
-244.58987473740217
 20
-46.265811747942962
 30
0.0
 11
-75.631309406750916
 21
-46.265811747942962
 31
0.0
  0
LINE
  5
85
100
AcDbEntity
  8
0
370
              -2
390
0
  6
Continuous
 62
               0
100
AcDbLine
 10
-75.631309406750916
 20
-516.24500437791858
 30
0.0
 11
-75.631309406750916
 21
-46.265811747942962
 31
0.0
  0
CIRCLE
  5
86
102
{ACAD_REACTORS
330
87
102
}
100
AcDbEntity
  8
0
370
              -2
390
0
  6
Continuous
 62
               0
100
AcDbCircle
 10
-75.631309406750916
 20
-516.24500437791858
 30
0.0
 40
4.99969482421875
  0
HATCH
  5
87
100
AcDbEntity
  8
0
370
              -2
390
0
  6
Continuous
 62
               0
100
AcDbHatch
 10
0.0
 20
0.0
 30
0.0
210
0.0
220
0.0
230
1.0
  2
SOLID
 70
               1
 71
               1
 91
        1
 92
        1
 93
        1
 72
               2
 10
-75.631309406750916
 20
-516.24500437791858
 40
4.99969482421875
 50
0.0
 51
360.0
 73
               0
 97
        1
330
86
 75
               0
 76
               1
 98
        1
 10
0.0
 20
0.0
  0
CIRCLE
  5
88
102
{ACAD_REACTORS
330
89
102
}
100
AcDbEntity
  8
0
370
              -2
390
0
  6
Continuous
 62
               0
100
AcDbCircle
 10
-75.631309406750916
 20
-46.265811747942962
 30
0.0
 40
4.99969482421875
  0
HATCH
  5
89
100
AcDbEntity
  8
0
370
              -2
390
0
  6
Continuous
 62
               0
100
AcDbHatch
 10
0.0
 20
0.0
 30
0.0
210
0.0
220
0.0
230
1.0
  2
SOLID
 70
               1
 71
               1
 91
        1
 92
        1
 93
        1
 72
               2
 10
-75.631309406750916
 20
-46.265811747942962
 40
4.99969482421875
 50
0.0
 51
360.0
 73
               0
 97
        1
330
88
 75
               0
 76
               1
 98
        1
 10
0.0
 20
0.0
  0
MTEXT
  5
8A
100
AcDbEntity
  8
0
390
0
 62
               0
100
AcDbMText
 10
-106.90443440675085
 20
-305.06790974510625
 30
0.0
 40
21.828125
 41
0.0
 71
               1
 72
               1
  1
470
  7
MS UI Gothic
 11
0.0
 21
1.0
 31
0.0
 73
               1
 44
0.8762322015334064
  0
POINT
  5
8B
100
AcDbEntity
  8
Defpoints
370
               0
390
0
 62
               0
100
AcDbPoint
 10
-269.58987473740217
 20
-46.265811747942962
 30
0.0
  0
POINT
  5
8C
100
AcDbEntity
  8
Defpoints
370
               0
390
0
 62
               0
100
AcDbPoint
 10
-269.58987473740217
 20
-516.24500437791858
 30
0.0
  0
POINT
  5
8D
100
AcDbEntity
  8
Defpoints
370
               0
390
0
 62
               0
100
AcDbPoint
 10
-75.631309406750916
 20
-516.24500437791858
 30
0.0
  0
ENDBLK
  5
8E
100
AcDbEntity
  8
notes
390
0
100
AcDbBlockEnd
  0
BLOCK
  5
8F
100
AcDbEntity
  8
notes
390
0
100
AcDbBlockBegin
  2
*D7
 70
               1
 10
0.0
 20
0.0
 30
0.0
  3
*D7
  1

  0
LINE
  5
90
100
AcDbEntity
  8
0
370
              -2
390
0
  6
Continuous
 62
               0
100
AcDbLine
 10
-530.63130940675092
 20
-416.74500437791892
 30
0.0
 11
-530.63130940675092
 21
-620.0
 31
0.0
  0
LINE
  5
91
100
AcDbEntity
  8
0
370
              -2
390
0
  6
Continuous
 62
               0
100
AcDbLine
 10
-200.66341858098986
 20
-420.0
 30
0.0
 11
-200.66341858098986
 21
-620.0
 31
0.0
  0
LINE
  5
92
100
AcDbEntity
  8
0
370
              -2
390
0
  6
Continuous
 62
               0
100
AcDbLine
 10
-530.63130940675092
 20
-620.0
 30
0.0
 11
-200.66341858098986
 21
-620.0
 31
0.0
  0
CIRCLE
  5
93
102
{ACAD_REACTORS
330
94
102
}
100
AcDbEntity
  8
0
370
              -2
390
0
  6
Continuous
 62
               0
100
AcDbCircle
 10
-530.63130940675092
 20
-620.0
 30
0.0
 40
4.99969482421875
  0
HATCH
  5
94
100
AcDbEntity
  8
0
370
              -2
390
0
  6
Continuous
 62
               0
100
AcDbHatch
 10
0.0
 20
0.0
 30
0.0
210
0.0
220
0.0
230
1.0
  2
SOLID
 70
               1
 71
               1
 91
        1
 92
        1
 93
        1
 72
               2
 10
-530.63130940675092
 20
-620.0
 40
4.99969482421875
 50
0.0
 51
360.0
 73
               0
 97
        1
330
93
 75
               0
 76
               1
 98
        1
 10
0.0
 20
0.0
  0
CIRCLE
  5
95
102
{ACAD_REACTORS
330
96
102
}
100
AcDbEntity
  8
0
370
              -2
390
0
  6
Continuous
 62
               0
100
AcDbCircle
 10
-200.66341858098986
 20
-620.0
 30
0.0
 40
4.99969482421875
  0
HATCH
  5
96
100
AcDbEntity
  8
0
370
              -2
390
0
  6
Continuous
 62
               0
100
AcDbHatch
 10
0.0
 20
0.0
 30
0.0
210
0.0
220
0.0
230
1.0
  2
SOLID
 70
               1
 71
               1
 91
        1
 92
        1
 93
        1
 72
               2
 10
-200.66341858098986
 20
-620.0
 40
4.99969482421875
 50
0.0
 51
360.0
 73
               0
 97
        1
330
95
 75
               0
 76
               1
 98
        1
 10
0.0
 20
0.0
  0
MTEXT
  5
97
100
AcDbEntity
  8
0
390
0
 62
               0
100
AcDbMText
 10
-389.45986567604587
 20
-588.72687500000006
 30
0.0
 40
21.828125
 41
0.0
 71
               1
 72
               1
  1
330
  7
MS UI Gothic
 73
               1
 44
0.8762322015334064
  0
POINT
  5
98
100
AcDbEntity
  8
Defpoints
370
               0
390
0
 62
               0
100
AcDbPoint
 10
-200.66341858098986
 20
-395.0
 30
0.0
  0
POINT
  5
99
100
AcDbEntity
  8
Defpoints
370
               0
390
0
 62
               0
100
AcDbPoint
 10
-530.63130940675092
 20
-391.74500437791892
 30
0.0
  0
POINT
  5
9A
100
AcDbEntity
  8
Defpoints
370
               0
390
0
 62
               0
100
AcDbPoint
 10
-530.63130940675092
 20
-620.0
 30
0.0
  0
ENDBLK
  5
9B
100
AcDbEntity
  8
notes
390
0
100
AcDbBlockEnd
  0
BLOCK
  5
9C
100
AcDbEntity
  8
notes
390
0
100
AcDbBlockBegin
  2
*D8
 70
               1
 10
0.0
 20
0.0
 30
0.0
  3
*D8
  1

  0
LINE
  5
9D
100
AcDbEntity
  8
0
370
              -2
390
0
  6
Continuous
 62
               0
100
AcDbLine
 10
438.80838595022306
 20
-421.21923647221149
 30
0.0
 11
343.80838595022306
 21
-421.21923647221149
 31
0.0
  0
LINE
  5
9E
100
AcDbEntity
  8
0
370
              -2
390
0
  6
Continuous
 62
               0
100
AcDbLine
 10
438.76972746233059
 20
-141.21923647221138
 30
0.0
 11
343.80838595022306
 21
-141.21923647221138
 31
0.0
  0
LINE
  5
9F
100
AcDbEntity
  8
0
370
              -2
390
0
  6
Continuous
 62
               0
100
AcDbLine
 10
343.80838595022306
 20
-421.21923647221149
 30
0.0
 11
343.80838595022306
 21
-141.21923647221138
 31
0.0
  0
CIRCLE
  5
A0
102
{ACAD_REACTORS
330
A1
102
}
100
AcDbEntity
  8
0
370
              -2
390
0
  6
Continuous
 62
               0
100
AcDbCircle
 10
343.80838595022306
 20
-421.21923647221149
 30
0.0
 40
4.99969482421875
  0
HATCH
  5
A1
100
AcDbEntity
  8
0
370
              -2
390
0
  6
Continuous
 62
               0
100
AcDbHatch
 10
0.0
 20
0.0
 30
0.0
210
0.0
220
0.0
230
1.0
  2
SOLID
 70
               1
 71
               1
 91
        1
 92
        1
 93
        1
 72
               2
 10
343.80838595022306
 20
-421.21923647221149
 40
4.99969482421875
 50
0.0
 51
360.0
 73
               0
 97
        1
330
A0
 75
               0
 76
               1
 98
        1
 10
0.0
 20
0.0
  0
CIRCLE
  5
A2
102
{ACAD_REACTORS
330
A3
102
}
100
AcDbEntity
  8
0
370
              -2
390
0
  6
Continuous
 62
               0
100
AcDbCircle
 10
343.80838595022306
 20
-141.21923647221138
 30
0.0
 40
4.99969482421875
  0
HATCH
  5
A3
100
AcDbEntity
  8
0
370
              -2
390
0
  6
Continuous
 62
               0
100
AcDbHatch
 10
0.0
 20
0.0
 30
0.0
210
0.0
220
0.0
230
1.0
  2
SOLID
 70
               1
 71
               1
 91
        1
 92
        1
 93
        1
 72
               2
 10
343.80838595022306
 20
-141.21923647221138
 40
4.99969482421875
 50
0.0
 51
360.0
 73
               0
 97
        1
330
A2
 75
               0
 76
               1
 98
        1
 10
0.0
 20
0.0
  0
MTEXT
  5
A4
100
AcDbEntity
  8
0
390
0
 62
               0
100
AcDbMText
 10
312.53526095022312
 20
-305.03173815438697
 30
0.0
 40
21.828125
 41
0.0
 71
               1
 72
               1
  1
280
  7
MS UI Gothic
 11
0.0
 21
1.0
 31
0.0
 73
               1
 44
0.8762322015334064
  0
POINT
  5
A5
100
AcDbEntity
  8
Defpoints
370
               0
390
0
 62
               0
100
AcDbPoint
 10
463.76972746233059
 20
-141.21923647221138
 30
0.0
  0
POINT
  5
A6
100
AcDbEntity
  8
Defpoints
370
               0
390
0
 62
               0
100
AcDbPoint
 10
463.80838595022306
 20
-421.21923647221149
 30
0.0
  0
POINT
  5
A7
100
AcDbEntity
  8
Defpoints
370
               0
390
0
 62
               0
100
AcDbPoint
 10
343.80838595022306
 20
-421.21923647221149
 30
0.0
  0
ENDBLK
  5
A8
100
AcDbEntity
  8
notes
390
0
100
AcDbBlockEnd
  0
BLOCK
  5
A9
100
AcDbEntity
  8
notes
390
0
100
AcDbBlockBegin
  2
*D9
 70
               1
 10
0.0
 20
0.0
 30
0.0
  3
*D9
  1

  0
LINE
  5
AA
100
AcDbEntity
  8
0
370
              -2
390
0
  6
Continuous
 62
               0
100
AcDbLine
 10
443.76972746233059
 20
-831.25997942597428
 30
0.0
 11
443.76972746233059
 21
-906.2554080629302
 31
0.0
  0
LINE
  5
AB
100
AcDbEntity
  8
0
370
              -2
390
0
  6
Continuous
 62
               0
100
AcDbLine
 10
483.76972746233014
 20
-496.21923647221149
 30
0.0
 11
483.76972746233014
 21
-906.2554080629302
 31
0.0
  0
LINE
  5
AC
100
AcDbEntity
  8
0
370
              -2
390
0
  6
Continuous
 62
               0
100
AcDbLine
 10
443.76972746233059
 20
-906.2554080629302
 30
0.0
 11
483.76972746233014
 21
-906.2554080629302
 31
0.0
  0
CIRCLE
  5
AD
102
{ACAD_REACTORS
330
AE
102
}
100
AcDbEntity
  8
0
370
              -2
390
0
  6
Continuous
 62
               0
100
AcDbCircle
 10
443.76972746233059
 20
-906.2554080629302
 30
0.0
 40
4.99969482421875
  0
HATCH
  5
AE
100
AcDbEntity
  8
0
370
              -2
390
0
  6
Continuous
 62
               0
100
AcDbHatch
 10
0.0
 20
0.0
 30
0.0
210
0.0
220
0.0
230
1.0
  2
SOLID
 70
               1
 71
               1
 91
        1
 92
        1
 93
        1
 72
               2
 10
443.76972746233059
 20
-906.2554080629302
 40
4.99969482421875
 50
0.0
 51
360.0
 73
               0
 97
        1
330
AD
 75
               0
 76
               1
 98
        1
 10
0.0
 20
0.0
  0
CIRCLE
  5
AF
102
{ACAD_REACTORS
330
B0
102
}
100
AcDbEntity
  8
0
370
              -2
390
0
  6
Continuous
 62
               0
100
AcDbCircle
 10
483.76972746233014
 20
-906.2554080629302
 30
0.0
 40
4.99969482421875
  0
HATCH
  5
B0
100
AcDbEntity
  8
0
370
              -2
390
0
  6
Continuous
 62
               0
100
AcDbHatch
 10
0.0
 20
0.0
 30
0.0
210
0.0
220
0.0
230
1.0
  2
SOLID
 70
               1
 71
               1
 91
        1
 92
        1
 93
        1
 72
               2
 10
483.76972746233014
 20
-906.2554080629302
 40
4.99969482421875
 50
0.0
 51
360.0
 73
               0
 97
        1
330
AF
 75
               0
 76
               1
 98
        1
 10
0.0
 20
0.0
  0
MTEXT
  5
B1
100
AcDbEntity
  8
0
390
0
 62
               0
100
AcDbMText
 10
447.89472746233037
 20
-874.98228306293015
 30
0.0
 40
21.828125
 41
0.0
 71
               1
 72
               1
  1
40
  7
MS UI Gothic
 73
               1
 44
0.8762322015334064
  0
POINT
  5
B2
100
AcDbEntity
  8
Defpoints
370
               0
390
0
 62
               0
100
AcDbPoint
 10
483.76972746233014
 20
-471.21923647221149
 30
0.0
  0
POINT
  5
B3
100
AcDbEntity
  8
Defpoints
370
               0
390
0
 62
               0
100
AcDbPoint
 10
443.76972746233059
 20
-806.25997942597428
 30
0.0
  0
POINT
  5
B4
100
AcDbEntity
  8
Defpoints
370
               0
390
0
 62
               0
100
AcDbPoint
 10
443.76972746233059
 20
-906.2554080629302
 30
0.0
  0
ENDBLK
  5
B5
100
AcDbEntity
  8
notes
390
0
100
AcDbBlockEnd
  0
BLOCK
  5
B6
100
AcDbEntity
  8
notes
390
0
100
AcDbBlockBegin
  2
*D10
 70
               1
 10
0.0
 20
0.0
 30
0.0
  3
*D10
  1

  0
LINE
  5
B7
100
AcDbEntity
  8
0
370
              -2
390
0
  6
Continuous
 62
               0
100
AcDbLine
 10
443.76972746233059
 20
268.74002057402652
 30
0.0
 11
443.76972746233059
 21
343.74002057402652
 31
0.0
  0
LINE
  5
B8
100
AcDbEntity
  8
0
370
              -2
390
0
  6
Continuous
 62
               0
100
AcDbLine
 10
493.76972746233014
 20
268.74002057402652
 30
0.0
 11
493.76972746233014
 21
343.74002057402652
 31
0.0
  0
LINE
  5
B9
100
AcDbEntity
  8
0
370
              -2
390
0
  6
Continuous
 62
               0
100
AcDbLine
 10
443.76972746233059
 20
343.74002057402652
 30
0.0
 11
493.76972746233014
 21
343.74002057402652
 31
0.0
  0
CIRCLE
  5
BA
102
{ACAD_REACTORS
330
BB
102
}
100
AcDbEntity
  8
0
370
              -2
390
0
  6
Continuous
 62
               0
100
AcDbCircle
 10
443.76972746233059
 20
343.74002057402652
 30
0.0
 40
4.99969482421875
  0
HATCH
  5
BB
100
AcDbEntity
  8
0
370
              -2
390
0
  6
Continuous
 62
               0
100
AcDbHatch
 10
0.0
 20
0.0
 30
0.0
210
0.0
220
0.0
230
1.0
  2
SOLID
 70
               1
 71
               1
 91
        1
 92
        1
 93
        1
 72
               2
 10
443.76972746233059
 20
343.74002057402652
 40
4.99969482421875
 50
0.0
 51
360.0
 73
               0
 97
        1
330
BA
 75
               0
 76
               1
 98
        1
 10
0.0
 20
0.0
  0
CIRCLE
  5
BC
102
{ACAD_REACTORS
330
BD
102
}
100
AcDbEntity
  8
0
370
              -2
390
0
  6
Continuous
 62
               0
100
AcDbCircle
 10
493.76972746233014
 20
343.74002057402652
 30
0.0
 40
4.99969482421875
  0
HATCH
  5
BD
100
AcDbEntity
  8
0
370
              -2
390
0
  6
Continuous
 62
               0
100
AcDbHatch
 10
0.0
 20
0.0
 30
0.0
210
0.0
220
0.0
230
1.0
  2
SOLID
 70
               1
 71
               1
 91
        1
 92
        1
 93
        1
 72
               2
 10
493.76972746233014
 20
343.74002057402652
 40
4.99969482421875
 50
0.0
 51
360.0
 73
               0
 97
        1
330
BC
 75
               0
 76
               1
 98
        1
 10
0.0
 20
0.0
  0
MTEXT
  5
BE
100
AcDbEntity
  8
0
390
0
 62
               0
100
AcDbMText
 10
452.89472746233037
 20
375.01314557402645
 30
0.0
 40
21.828125
 41
0.0
 71
               1
 72
               1
  1
50
  7
MS UI Gothic
 73
               1
 44
0.8762322015334064
  0
POINT
  5
BF
100
AcDbEntity
  8
Defpoints
370
               0
390
0
 62
               0
100
AcDbPoint
 10
493.76972746233014
 20
243.74002057402652
 30
0.0
  0
POINT
  5
C0
100
AcDbEntity
  8
Defpoints
370
               0
390
0
 62
               0
100
AcDbPoint
 10
443.76972746233059
 20
243.74002057402652
 30
0.0
  0
POINT
  5
C1
100
AcDbEntity
  8
Defpoints
370
               0
390
0
 62
               0
100
AcDbPoint
 10
443.76972746233059
 20
343.74002057402652
 30
0.0
  0
ENDBLK
  5
C2
100
AcDbEntity
  8
notes
390
0
100
AcDbBlockEnd
  0
BLOCK
  5
C3
100
AcDbEntity
  8
notes
390
0
100
AcDbBlockBegin
  2
*D11
 70
               1
 10
0.0
 20
0.0
 30
0.0
  3
*D11
  1

  0
LINE
  5
C4
100
AcDbEntity
  8
0
370
              -2
390
0
  6
Continuous
 62
               0
100
AcDbLine
 10
493.76972746233014
 20
268.74002057402652
 30
0.0
 11
493.76972746233014
 21
343.74002057402652
 31
0.0
  0
LINE
  5
C5
100
AcDbEntity
  8
0
370
              -2
390
0
  6
Continuous
 62
               0
100
AcDbLine
 10
633.76972746232877
 20
-91.478507027442561
 30
0.0
 11
633.76972746232877
 21
343.74002057402652
 31
0.0
  0
LINE
  5
C6
100
AcDbEntity
  8
0
370
              -2
390
0
  6
Continuous
 62
               0
100
AcDbLine
 10
493.76972746233014
 20
343.74002057402652
 30
0.0
 11
633.76972746232877
 21
343.74002057402652
 31
0.0
  0
CIRCLE
  5
C7
102
{ACAD_REACTORS
330
C8
102
}
100
AcDbEntity
  8
0
370
              -2
390
0
  6
Continuous
 62
               0
100
AcDbCircle
 10
493.76972746233014
 20
343.74002057402652
 30
0.0
 40
4.99969482421875
  0
HATCH
  5
C8
100
AcDbEntity
  8
0
370
              -2
390
0
  6
Continuous
 62
               0
100
AcDbHatch
 10
0.0
 20
0.0
 30
0.0
210
0.0
220
0.0
230
1.0
  2
SOLID
 70
               1
 71
               1
 91
        1
 92
        1
 93
        1
 72
               2
 10
493.76972746233014
 20
343.74002057402652
 40
4.99969482421875
 50
0.0
 51
360.0
 73
               0
 97
        1
330
C7
 75
               0
 76
               1
 98
        1
 10
0.0
 20
0.0
  0
CIRCLE
  5
C9
102
{ACAD_REACTORS
330
CA
102
}
100
AcDbEntity
  8
0
370
              -2
390
0
  6
Continuous
 62
               0
100
AcDbCircle
 10
633.76972746232877
 20
343.74002057402652
 30
0.0
 40
4.99969482421875
  0
HATCH
  5
CA
100
AcDbEntity
  8
0
370
              -2
390
0
  6
Continuous
 62
               0
100
AcDbHatch
 10
0.0
 20
0.0
 30
0.0
210
0.0
220
0.0
230
1.0
  2
SOLID
 70
               1
 71
               1
 91
        1
 92
        1
 93
        1
 72
               2
 10
633.76972746232877
 20
343.74002057402652
 40
4.99969482421875
 50
0.0
 51
360.0
 73
               0
 97
        1
330
C9
 75
               0
 76
               1
 98
        1
 10
0.0
 20
0.0
  0
MTEXT
  5
CB
100
AcDbEntity
  8
0
390
0
 62
               0
100
AcDbMText
 10
539.95722578015398
 20
377.61763776152645
 30
0.0
 40
24.432617187500004
 41
0.0
 71
               1
 72
               1
  1
140
  7
ＭＳ ゴシック
 73
               1
 44
0.7828267384257843
  0
POINT
  5
CC
100
AcDbEntity
  8
Defpoints
370
               0
390
0
 62
               0
100
AcDbPoint
 10
633.76972746232877
 20
-116.47850702744256
 30
0.0
  0
POINT
  5
CD
100
AcDbEntity
  8
Defpoints
370
               0
390
0
 62
               0
100
AcDbPoint
 10
493.76972746233014
 20
243.74002057402652
 30
0.0
  0
POINT
  5
CE
100
AcDbEntity
  8
Defpoints
370
               0
390
0
 62
               0
100
AcDbPoint
 10
493.76972746233014
 20
343.74002057402652
 30
0.0
  0
ENDBLK
  5
CF
100
AcDbEntity
  8
notes
390
0
100
AcDbBlockEnd
  0
BLOCK
  5
D0
100
AcDbEntity
  8
notes
390
0
100
AcDbBlockBegin
  2
*D12
 70
               1
 10
0.0
 20
0.0
 30
0.0
  3
*D12
  1

  0
LINE
  5
D1
100
AcDbEntity
  8
0
370
              -2
390
0
  6
Continuous
 62
               0
100
AcDbLine
 10
633.76972746232877
 20
784.64271642373785
 30
0.0
 11
633.76972746232877
 21
624.25300115970538
 31
0.0
  0
LINE
  5
D2
100
AcDbEntity
  8
0
370
              -2
390
0
  6
Continuous
 62
               0
100
AcDbLine
 10
443.76972746233105
 20
698.51133248616168
 30
0.0
 11
443.76972746233105
 21
624.25300115970538
 31
0.0
  0
LINE
  5
D3
100
AcDbEntity
  8
0
370
              -2
390
0
  6
Continuous
 62
               0
100
AcDbLine
 10
633.76972746232877
 20
624.25300115970538
 30
0.0
 11
443.76972746233105
 21
624.25300115970538
 31
0.0
  0
CIRCLE
  5
D4
102
{ACAD_REACTORS
330
D5
102
}
100
AcDbEntity
  8
0
370
              -2
390
0
  6
Continuous
 62
               0
100
AcDbCircle
 10
633.76972746232877
 20
624.25300115970538
 30
0.0
 40
4.99969482421875
  0
HATCH
  5
D5
100
AcDbEntity
  8
0
370
              -2
390
0
  6
Continuous
 62
               0
100
AcDbHatch
 10
0.0
 20
0.0
 30
0.0
210
0.0
220
0.0
230
1.0
  2
SOLID
 70
               1
 71
               1
 91
        1
 92
        1
 93
        1
 72
               2
 10
633.76972746232877
 20
624.25300115970538
 40
4.99969482421875
 50
0.0
 51
360.0
 73
               0
 97
        1
330
D4
 75
               0
 76
               1
 98
        1
 10
0.0
 20
0.0
  0
CIRCLE
  5
D6
102
{ACAD_REACTORS
330
D7
102
}
100
AcDbEntity
  8
0
370
              -2
390
0
  6
Continuous
 62
               0
100
AcDbCircle
 10
443.76972746233105
 20
624.25300115970538
 30
0.0
 40
4.99969482421875
  0
HATCH
  5
D7
100
AcDbEntity
  8
0
370
              -2
390
0
  6
Continuous
 62
               0
100
AcDbHatch
 10
0.0
 20
0.0
 30
0.0
210
0.0
220
0.0
230
1.0
  2
SOLID
 70
               1
 71
               1
 91
        1
 92
        1
 93
        1
 72
               2
 10
443.76972746233105
 20
624.25300115970538
 40
4.99969482421875
 50
0.0
 51
360.0
 73
               0
 97
        1
330
D6
 75
               0
 76
               1
 98
        1
 10
0.0
 20
0.0
  0
MTEXT
  5
D8
100
AcDbEntity
  8
0
390
0
 62
               0
100
AcDbMText
 10
514.95722578015443
 20
655.52612615970531
 30
0.0
 40
21.828125
 41
0.0
 71
               1
 72
               1
  1
190
  7
MS UI Gothic
 73
               1
 44
0.8762322015334064
  0
POINT
  5
D9
100
AcDbEntity
  8
Defpoints
370
               0
390
0
 62
               0
100
AcDbPoint
 10
443.76972746233105
 20
723.51133248616168
 30
0.0
  0
POINT
  5
DA
100
AcDbEntity
  8
Defpoints
370
               0
390
0
 62
               0
100
AcDbPoint
 10
633.76972746232877
 20
809.64271642373785
 30
0.0
  0
POINT
  5
DB
100
AcDbEntity
  8
Defpoints
370
               0
390
0
 62
               0
100
AcDbPoint
 10
633.76972746232877
 20
624.25300115970538
 30
0.0
  0
ENDBLK
  5
DC
100
AcDbEntity
  8
notes
390
0
100
AcDbBlockEnd
  0
BLOCK
  5
DD
100
AcDbEntity
  8
notes
390
0
100
AcDbBlockBegin
  2
*D13
 70
               1
 10
0.0
 20
0.0
 30
0.0
  3
*D13
  1

  0
LINE
  5
DE
100
AcDbEntity
  8
0
370
              -2
390
0
  6
Continuous
 62
               0
100
AcDbLine
 10
654.76972746232877
 20
1204.2519728963225
 30
0.0
 11
733.76972746232877
 21
1204.2519728963225
 31
0.0
  0
LINE
  5
DF
100
AcDbEntity
  8
0
370
              -2
390
0
  6
Continuous
 62
               0
100
AcDbLine
 10
653.76972746232877
 20
914.25197289632263
 30
0.0
 11
733.76972746232877
 21
914.25197289632263
 31
0.0
  0
LINE
  5
E0
100
AcDbEntity
  8
0
370
              -2
390
0
  6
Continuous
 62
               0
100
AcDbLine
 10
733.76972746232877
 20
1204.2519728963225
 30
0.0
 11
733.76972746232877
 21
914.25197289632263
 31
0.0
  0
CIRCLE
  5
E1
102
{ACAD_REACTORS
330
E2
102
}
100
AcDbEntity
  8
0
370
              -2
390
0
  6
Continuous
 62
               0
100
AcDbCircle
 10
733.76972746232877
 20
1204.2519728963225
 30
0.0
 40
4.99969482421875
  0
HATCH
  5
E2
100
AcDbEntity
  8
0
370
              -2
390
0
  6
Continuous
 62
               0
100
AcDbHatch
 10
0.0
 20
0.0
 30
0.0
210
0.0
220
0.0
230
1.0
  2
SOLID
 70
               1
 71
               1
 91
        1
 92
        1
 93
        1
 72
               2
 10
733.76972746232877
 20
1204.2519728963225
 40
4.99969482421875
 50
0.0
 51
360.0
 73
               0
 97
        1
330
E1
 75
               0
 76
               1
 98
        1
 10
0.0
 20
0.0
  0
CIRCLE
  5
E3
102
{ACAD_REACTORS
330
E4
102
}
100
AcDbEntity
  8
0
370
              -2
390
0
  6
Continuous
 62
               0
100
AcDbCircle
 10
733.76972746232877
 20
914.25197289632263
 30
0.0
 40
4.99969482421875
  0
HATCH
  5
E4
100
AcDbEntity
  8
0
370
              -2
390
0
  6
Continuous
 62
               0
100
AcDbHatch
 10
0.0
 20
0.0
 30
0.0
210
0.0
220
0.0
230
1.0
  2
SOLID
 70
               1
 71
               1
 91
        1
 92
        1
 93
        1
 72
               2
 10
733.76972746232877
 20
914.25197289632263
 40
4.99969482421875
 50
0.0
 51
360.0
 73
               0
 97
        1
330
E3
 75
               0
 76
               1
 98
        1
 10
0.0
 20
0.0
  0
MTEXT
  5
E5
100
AcDbEntity
  8
0
390
0
 62
               0
100
AcDbMText
 10
702.49660246232884
 20
1035.439471214147
 30
0.0
 40
21.828125
 41
0.0
 71
               1
 72
               1
  1
290
  7
MS UI Gothic
 11
0.0
 21
1.0
 31
0.0
 73
               1
 44
0.8762322015334064
  0
POINT
  5
E6
100
AcDbEntity
  8
Defpoints
370
               0
390
0
 62
               0
100
AcDbPoint
 10
628.76972746232877
 20
914.25197289632263
 30
0.0
  0
POINT
  5
E7
100
AcDbEntity
  8
Defpoints
370
               0
390
0
 62
               0
100
AcDbPoint
 10
629.76972746232877
 20
1204.2519728963225
 30
0.0
  0
POINT
  5
E8
100
AcDbEntity
  8
Defpoints
370
               0
390
0
 62
               0
100
AcDbPoint
 10
733.76972746232877
 20
1204.2519728963225
 30
0.0
  0
ENDBLK
  5
E9
100
AcDbEntity
  8
notes
390
0
100
AcDbBlockEnd
  0
BLOCK
  5
EA
100
AcDbEntity
  8
notes
390
0
100
AcDbBlockBegin
  2
*D14
 70
               1
 10
0.0
 20
0.0
 30
0.0
  3
*D14
  1

  0
LINE
  5
EB
100
AcDbEntity
  8
0
370
              -2
390
0
  6
Continuous
 62
               0
100
AcDbLine
 10
423.76972746233059
 20
1204.2519728963225
 30
0.0
 11
343.76972746233059
 21
1204.2519728963225
 31
0.0
  0
LINE
  5
EC
100
AcDbEntity
  8
0
370
              -2
390
0
  6
Continuous
 62
               0
100
AcDbLine
 10
418.76972746233059
 20
1139.2519728963225
 30
0.0
 11
343.76972746233059
 21
1139.2519728963225
 31
0.0
  0
LINE
  5
ED
100
AcDbEntity
  8
0
370
              -2
390
0
  6
Continuous
 62
               0
100
AcDbLine
 10
343.76972746233059
 20
1204.2519728963225
 30
0.0
 11
343.76972746233059
 21
1139.2519728963225
 31
0.0
  0
CIRCLE
  5
EE
102
{ACAD_REACTORS
330
EF
102
}
100
AcDbEntity
  8
0
370
              -2
390
0
  6
Continuous
 62
               0
100
AcDbCircle
 10
343.76972746233059
 20
1204.2519728963225
 30
0.0
 40
4.99969482421875
  0
HATCH
  5
EF
100
AcDbEntity
  8
0
370
              -2
390
0
  6
Continuous
 62
               0
100
AcDbHatch
 10
0.0
 20
0.0
 30
0.0
210
0.0
220
0.0
230
1.0
  2
SOLID
 70
               1
 71
               1
 91
        1
 92
        1
 93
        1
 72
               2
 10
343.76972746233059
 20
1204.2519728963225
 40
4.99969482421875
 50
0.0
 51
360.0
 73
               0
 97
        1
330
EE
 75
               0
 76
               1
 98
        1
 10
0.0
 20
0.0
  0
CIRCLE
  5
F0
102
{ACAD_REACTORS
330
F1
102
}
100
AcDbEntity
  8
0
370
              -2
390
0
  6
Continuous
 62
               0
100
AcDbCircle
 10
343.76972746233059
 20
1139.2519728963225
 30
0.0
 40
4.99969482421875
  0
HATCH
  5
F1
100
AcDbEntity
  8
0
370
              -2
390
0
  6
Continuous
 62
               0
100
AcDbHatch
 10
0.0
 20
0.0
 30
0.0
210
0.0
220
0.0
230
1.0
  2
SOLID
 70
               1
 71
               1
 91
        1
 92
        1
 93
        1
 72
               2
 10
343.76972746233059
 20
1139.2519728963225
 40
4.99969482421875
 50
0.0
 51
360.0
 73
               0
 97
        1
330
F0
 75
               0
 76
               1
 98
        1
 10
0.0
 20
0.0
  0
MTEXT
  5
F2
100
AcDbEntity
  8
0
390
0
 62
               0
100
AcDbMText
 10
312.49660246233066
 20
1155.8769728963225
 30
0.0
 40
21.828125
 41
0.0
 71
               1
 72
               1
  1
65
  7
MS UI Gothic
 11
0.0
 21
1.0
 31
0.0
 73
               1
 44
0.8762322015334064
  0
POINT
  5
F3
100
AcDbEntity
  8
Defpoints
370
               0
390
0
 62
               0
100
AcDbPoint
 10
443.76972746233059
 20
1139.2519728963225
 30
0.0
  0
POINT
  5
F4
100
AcDbEntity
  8
Defpoints
370
               0
390
0
 62
               0
100
AcDbPoint
 10
448.76972746233059
 20
1204.2519728963225
 30
0.0
  0
POINT
  5
F5
100
AcDbEntity
  8
Defpoints
370
               0
390
0
 62
               0
100
AcDbPoint
 10
343.76972746233059
 20
1204.2519728963225
 30
0.0
  0
ENDBLK
  5
F6
100
AcDbEntity
  8
notes
390
0
100
AcDbBlockEnd
  0
BLOCK
  5
F7
100
AcDbEntity
  8
notes
390
0
100
AcDbBlockBegin
  2
*D15
 70
               1
 10
0.0
 20
0.0
 30
0.0
  3
*D15
  1

  0
LINE
  5
F8
100
AcDbEntity
  8
0
370
              -2
390
0
  6
Continuous
 62
               0
100
AcDbLine
 10
443.76972746233059
 20
926.26851013055705
 30
0.0
 11
443.76972746233059
 21
923.41998656842827
 31
0.0
  0
LINE
  5
F9
100
AcDbEntity
  8
0
370
              -2
390
0
  6
Continuous
 62
               0
100
AcDbLine
 10
578.76972746233059
 20
926.26851013055705
 30
0.0
 11
578.76972746233059
 21
923.41998656842827
 31
0.0
  0
LINE
  5
FA
100
AcDbEntity
  8
0
370
              -2
390
0
  6
Continuous
 62
               0
100
AcDbLine
 10
443.76972746233059
 20
923.41998656842827
 30
0.0
 11
302.97587572259522
 21
923.41998656842827
 31
0.0
  0
LINE
  5
FB
100
AcDbEntity
  8
0
370
              -2
390
0
  6
Continuous
 62
               0
100
AcDbLine
 10
443.76972746233059
 20
923.41998656842827
 30
0.0
 11
578.76972746233059
 21
923.41998656842827
 31
0.0
  0
CIRCLE
  5
FC
102
{ACAD_REACTORS
330
FD
102
}
100
AcDbEntity
  8
0
370
              -2
390
0
  6
Continuous
 62
               0
100
AcDbCircle
 10
443.76972746233059
 20
923.41998656842827
 30
0.0
 40
4.99969482421875
  0
HATCH
  5
FD
100
AcDbEntity
  8
0
370
              -2
390
0
  6
Continuous
 62
               0
100
AcDbHatch
 10
0.0
 20
0.0
 30
0.0
210
0.0
220
0.0
230
1.0
  2
SOLID
 70
               1
 71
               1
 91
        1
 92
        1
 93
        1
 72
               2
 10
443.76972746233059
 20
923.41998656842827
 40
4.99969482421875
 50
0.0
 51
360.0
 73
               0
 97
        1
330
FC
 75
               0
 76
               1
 98
        1
 10
0.0
 20
0.0
  0
CIRCLE
  5
FE
102
{ACAD_REACTORS
330
FF
102
}
100
AcDbEntity
  8
0
370
              -2
390
0
  6
Continuous
 62
               0
100
AcDbCircle
 10
578.76972746233059
 20
923.41998656842827
 30
0.0
 40
4.99969482421875
  0
HATCH
  5
FF
100
AcDbEntity
  8
0
370
              -2
390
0
  6
Continuous
 62
               0
100
AcDbHatch
 10
0.0
 20
0.0
 30
0.0
210
0.0
220
0.0
230
1.0
  2
SOLID
 70
               1
 71
               1
 91
        1
 92
        1
 93
        1
 72
               2
 10
578.76972746233059
 20
923.41998656842827
 40
4.99969482421875
 50
0.0
 51
360.0
 73
               0
 97
        1
330
FE
 75
               0
 76
               1
 98
        1
 10
0.0
 20
0.0
  0
MTEXT
  5
100
100
AcDbEntity
  8
0
390
0
 62
               0
100
AcDbMText
 10
302.97587572259522
 20
954.69311156842821
 30
0.0
 40
21.828125
 41
0.0
 71
               1
 72
               1
  1
135（深さ）
  7
MS UI Gothic
 73
               1
 44
0.8762322015334064
  0
POINT
  5
101
100
AcDbEntity
  8
Defpoints
370
               0
390
0
 62
               0
100
AcDbPoint
 10
578.76972746233059
 20
951.26851013055705
 30
0.0
  0
POINT
  5
102
100
AcDbEntity
  8
Defpoints
370
               0
390
0
 62
               0
100
AcDbPoint
 10
443.76972746233059
 20
951.26851013055705
 30
0.0
  0
POINT
  5
103
100
AcDbEntity
  8
Defpoints
370
               0
390
0
 62
               0
100
AcDbPoint
 10
443.76972746233059
 20
923.41998656842827
 30
0.0
  0
ENDBLK
  5
104
100
AcDbEntity
  8
notes
390
0
100
AcDbBlockEnd
  0
BLOCK
  5
105
100
AcDbEntity
  8
notes
390
0
100
AcDbBlockBegin
  2
*D16
 70
               1
 10
0.0
 20
0.0
 30
0.0
  3
*D16
  1

  0
LINE
  5
106
100
AcDbEntity
  8
0
370
              -2
390
0
  6
Continuous
 62
               0
100
AcDbLine
 10
-655.63130940675092
 20
-827.25540806293043
 30
0.0
 11
-655.63130940675092
 21
-888.0
 31
0.0
  0
LINE
  5
107
100
AcDbEntity
  8
0
370
              -2
390
0
  6
Continuous
 62
               0
100
AcDbLine
 10
-530.63130940675092
 20
-831.25540806293043
 30
0.0
 11
-530.63130940675092
 21
-888.0
 31
0.0
  0
LINE
  5
108
100
AcDbEntity
  8
0
370
              -2
390
0
  6
Continuous
 62
               0
100
AcDbLine
 10
-655.63130940675092
 20
-888.0
 30
0.0
 11
-530.63130940675092
 21
-888.0
 31
0.0
  0
CIRCLE
  5
109
102
{ACAD_REACTORS
330
10A
102
}
100
AcDbEntity
  8
0
370
              -2
390
0
  6
Continuous
 62
               0
100
AcDbCircle
 10
-655.63130940675092
 20
-888.0
 30
0.0
 40
4.99969482421875
  0
HATCH
  5
10A
100
AcDbEntity
  8
0
370
              -2
390
0
  6
Continuous
 62
               0
100
AcDbHatch
 10
0.0
 20
0.0
 30
0.0
210
0.0
220
0.0
230
1.0
  2
SOLID
 70
               1
 71
               1
 91
        1
 92
        1
 93
        1
 72
               2
 10
-655.63130940675092
 20
-888.0
 40
4.99969482421875
 50
0.0
 51
360.0
 73
               0
 97
        1
330
109
 75
               0
 76
               1
 98
        1
 10
0.0
 20
0.0
  0
CIRCLE
  5
10B
102
{ACAD_REACTORS
330
10C
102
}
100
AcDbEntity
  8
0
370
              -2
390
0
  6
Continuous
 62
               0
100
AcDbCircle
 10
-530.63130940675092
 20
-888.0
 30
0.0
 40
4.99969482421875
  0
HATCH
  5
10C
100
AcDbEntity
  8
0
370
              -2
390
0
  6
Continuous
 62
               0
100
AcDbHatch
 10
0.0
 20
0.0
 30
0.0
210
0.0
220
0.0
230
1.0
  2
SOLID
 70
               1
 71
               1
 91
        1
 92
        1
 93
        1
 72
               2
 10
-530.63130940675092
 20
-888.0
 40
4.99969482421875
 50
0.0
 51
360.0
 73
               0
 97
        1
330
10B
 75
               0
 76
               1
 98
        1
 10
0.0
 20
0.0
  0
MTEXT
  5
10D
100
AcDbEntity
  8
0
390
0
 62
               0
100
AcDbMText
 10
-616.9438110889264
 20
-854.12238281250006
 30
0.0
 40
24.432617187500004
 41
0.0
 71
               1
 72
               1
  1
125
  7
ＭＳ ゴシック
 73
               1
 44
0.7828267384257843
  0
POINT
  5
10E
100
AcDbEntity
  8
Defpoints
370
               0
390
0
 62
               0
100
AcDbPoint
 10
-530.63130940675092
 20
-806.25540806293043
 30
0.0
  0
POINT
  5
10F
100
AcDbEntity
  8
Defpoints
370
               0
390
0
 62
               0
100
AcDbPoint
 10
-655.63130940675092
 20
-802.25540806293043
 30
0.0
  0
POINT
  5
110
100
AcDbEntity
  8
Defpoints
370
               0
390
0
 62
               0
100
AcDbPoint
 10
-655.63130940675092
 20
-888.0
 30
0.0
  0
ENDBLK
  5
111
100
AcDbEntity
  8
notes
390
0
100
AcDbBlockEnd
  0
BLOCK
  5
112
100
AcDbEntity
  8
notes
390
0
100
AcDbBlockBegin
  2
*D17
 70
               1
 10
0.0
 20
0.0
 30
0.0
  3
*D17
  1

  0
LINE
  5
113
100
AcDbEntity
  8
0
370
              -2
390
0
  6
Continuous
 62
               0
100
AcDbLine
 10
623.76972746232877
 20
867.44104841438309
 30
0.0
 11
623.76972746232877
 21
846.00000000000011
 31
0.0
  0
LINE
  5
114
100
AcDbEntity
  8
0
370
              -2
390
0
  6
Continuous
 62
               0
100
AcDbLine
 10
633.76972746232877
 20
866.00000000000011
 30
0.0
 11
633.76972746232877
 21
846.00000000000011
 31
0.0
  0
LINE
  5
115
100
AcDbEntity
  8
0
370
              -2
390
0
  6
Continuous
 62
               0
100
AcDbLine
 10
633.76972746232877
 20
846.00000000000011
 30
0.0
 11
678.75
 21
846.00000000000011
 31
0.0
  0
LINE
  5
116
100
AcDbEntity
  8
0
370
              -2
390
0
  6
Continuous
 62
               0
100
AcDbLine
 10
623.76972746232877
 20
846.00000000000011
 30
0.0
 11
633.76972746232877
 21
846.00000000000011
 31
0.0
  0
CIRCLE
  5
117
102
{ACAD_REACTORS
330
118
102
}
100
AcDbEntity
  8
0
370
              -2
390
0
  6
Continuous
 62
               0
100
AcDbCircle
 10
623.76972746232877
 20
846.00000000000011
 30
0.0
 40
4.99969482421875
  0
HATCH
  5
118
100
AcDbEntity
  8
0
370
              -2
390
0
  6
Continuous
 62
               0
100
AcDbHatch
 10
0.0
 20
0.0
 30
0.0
210
0.0
220
0.0
230
1.0
  2
SOLID
 70
               1
 71
               1
 91
        1
 92
        1
 93
        1
 72
               2
 10
623.76972746232877
 20
846.00000000000011
 40
4.99969482421875
 50
0.0
 51
360.0
 73
               0
 97
        1
330
117
 75
               0
 76
               1
 98
        1
 10
0.0
 20
0.0
  0
CIRCLE
  5
119
102
{ACAD_REACTORS
330
11A
102
}
100
AcDbEntity
  8
0
370
              -2
390
0
  6
Continuous
 62
               0
100
AcDbCircle
 10
633.76972746232877
 20
846.00000000000011
 30
0.0
 40
4.99969482421875
  0
HATCH
  5
11A
100
AcDbEntity
  8
0
370
              -2
390
0
  6
Continuous
 62
               0
100
AcDbHatch
 10
0.0
 20
0.0
 30
0.0
210
0.0
220
0.0
230
1.0
  2
SOLID
 70
               1
 71
               1
 91
        1
 92
        1
 93
        1
 72
               2
 10
633.76972746232877
 20
846.00000000000011
 40
4.99969482421875
 50
0.0
 51
360.0
 73
               0
 97
        1
330
119
 75
               0
 76
               1
 98
        1
 10
0.0
 20
0.0
  0
MTEXT
  5
11B
100
AcDbEntity
  8
0
390
0
 62
               0
100
AcDbMText
 10
647.0
 20
879.87761718750005
 30
0.0
 40
24.432617187500004
 41
0.0
 71
               1
 72
               1
  1
10
  7
ＭＳ ゴシック
 73
               1
 44
0.7828267384257843
  0
POINT
  5
11C
100
AcDbEntity
  8
Defpoints
370
               0
390
0
 62
               0
100
AcDbPoint
 10
633.76972746232877
 20
891.00000000000011
 30
0.0
  0
POINT
  5
11D
100
AcDbEntity
  8
Defpoints
370
               0
390
0
 62
               0
100
AcDbPoint
 10
623.76972746232877
 20
892.44104841438309
 30
0.0
  0
POINT
  5
11E
100
AcDbEntity
  8
Defpoints
370
               0
390
0
 62
               0
100
AcDbPoint
 10
623.76972746232877
 20
846.00000000000011
 30
0.0
  0
ENDBLK
  5
11F
100
AcDbEntity
  8
notes
390
0
100
AcDbBlockEnd
  0
ENDSEC
  0
SECTION
  2
ENTITIES
  0
MTEXT
  5
120
100
AcDbEntity
  8
template
390
0
 62
               7
100
AcDbMText
 10
-967.99999999975898
 20
-1147.4176292337006
 30
0.0
 40
16.288411458333332
 41
0.0
 71
               1
 72
               1
  1
品名
  7
ＭＳ ゴシック
 73
               1
 44
0.7828267384257843
  0
MTEXT
  5
121
100
AcDbEntity
  8
template
390
0
 62
               7
100
AcDbMText
 10
-967.99999999975898
 20
-1232.4176292337006
 30
0.0
 40
16.288411458333332
 41
0.0
 71
               1
 72
               1
  1
仕様
  7
ＭＳ ゴシック
 73
               1
 44
0.7828267384257843
  0
MTEXT
  5
122
100
AcDbEntity
  8
template
390
0
 62
               7
100
AcDbMText
 10
-914.99999999975898
 20
-1176.0000901712006
 30
0.0
 40
24.432617187500004
 41
0.0
 71
               1
 72
               1
  1
洗面器 -CATALANO,C-
  7
ＭＳ ゴシック
 73
               1
 44
0.7828267384257843
  0
LINE
  5
123
100
AcDbEntity
  8
template
370
               5
390
0
  6
Continuous
 62
               7
100
AcDbLine
 10
974.99999999975876
 20
-1224.0027073587005
 30
0.0
 11
-975.00000000024102
 21
-1224.0027073587005
 31
0.0
  0
LWPOLYLINE
  5
124
100
AcDbEntity
  8
template
370
               5
390
0
  6
Continuous
 62
               7
100
AcDbPolyline
 90
        5
 70
             128
 10
975.00000000024124
 20
1405.9972926412993
 10
-974.99999999975898
 20
1405.9972926412993
 10
-974.99999999975898
 20
-1394.0027073587005
 10
975.00000000024124
 20
-1394.0027073587005
 10
975.00000000024124
 20
1405.9972926412993
  0
LINE
  5
125
100
AcDbEntity
  8
template
370
               5
390
0
  6
Continuous
 62
               7
100
AcDbLine
 10
974.99999999975876
 20
-1139.0027073587005
 30
0.0
 11
-975.00000000024102
 21
-1139.0027073587005
 31
0.0
  0
LINE
  5
126
100
AcDbEntity
  8
template
370
               5
390
0
  6
Continuous
 62
               7
100
AcDbLine
 10
975.00000000024124
 20
-1309.0027073587005
 30
0.0
 11
222.00000000024124
 21
-1309.0027073587005
 31
0.0
  0
MTEXT
  5
127
100
AcDbEntity
  8
template
390
0
 62
               7
100
AcDbMText
 10
-974.99999999955617
 20
-1405.8565294155574
 30
0.0
 40
21.717881944444446
 41
0.0
 71
               1
 72
               1
  1
100707SH
  7
ＭＳ ゴシック
 73
               1
 44
0.7828267384257843
  0
MTEXT
  5
128
100
AcDbEntity
  8
template
390
0
 62
               7
100
AcDbMText
 10
251.87140625250095
 20
-1338.9131018320081
 30
0.0
 40
24.432617187500004
 41
0.0
 71
               1
 72
               1
  1
大洋金物株式会社 ティーフォルム事業部
  7
ＭＳ ゴシック
 73
               1
 44
0.7828267384257843
  0
INSERT
  5
129
100
AcDbEntity
  8
template
390
0
 62
               7
100
AcDbBlockReference
  2
グループ
 10
1915.8904800187574
 20
-988.46906618175569
 30
0.0
  0
MTEXT
  5
12A
100
AcDbEntity
  8
template
390
0
 62
               7
100
AcDbMText
 10
784.00000000049999
 20
-1261.0000901712006
 30
0.0
 40
24.432617187500004
 41
0.0
 71
               1
 72
               1
  1
1:10
  7
ＭＳ ゴシック
 73
               1
 44
0.7828267384257843
  0
MTEXT
  5
12B
100
AcDbEntity
  8
template
390
0
 62
               7
100
AcDbMText
 10
731.00000000049999
 20
-1232.4176292337006
 30
0.0
 40
16.288411458333332
 41
0.0
 71
               1
 72
               1
  1
縮尺
  7
ＭＳ ゴシック
 73
               1
 44
0.7828267384257843
  0
LINE
  5
12C
100
AcDbEntity
  8
template
370
               5
390
0
  6
Continuous
 62
               7
100
AcDbLine
 10
724.00000000049999
 20
-1309.0027073587005
 30
0.0
 11
724.00000000049999
 21
-1224.0027073587005
 31
0.0
  0
MTEXT
  5
12D
100
AcDbEntity
  8
template
390
0
 62
               7
100
AcDbMText
 10
480.00000000049999
 20
-1232.4176292337006
 30
0.0
 40
16.288411458333332
 41
0.0
 71
               1
 72
               1
  1
容量
  7
ＭＳ ゴシック
 73
               1
 44
0.7828267384257843
  0
MTEXT
  5
12E
100
AcDbEntity
  8
template
390
0
 62
               7
100
AcDbMText
 10
533.00000000049999
 20
-1261.0000901712006
 30
0.0
 40
24.432617187500004
 41
0.0
 71
               1
 72
               1
  1
6.5L
  7
ＭＳ ゴシック
 73
               1
 44
0.7828267384257843
  0
LINE
  5
12F
100
AcDbEntity
  8
template
370
               5
390
0
  6
Continuous
 62
               7
100
AcDbLine
 10
473.00000000049999
 20
-1309.0027073587005
 30
0.0
 11
473.00000000049999
 21
-1224.0027073587005
 31
0.0
  0
MTEXT
  5
130
100
AcDbEntity
  8
template
390
0
 62
               7
100
AcDbMText
 10
229.00000000049999
 20
-1147.4176292337006
 30
0.0
 40
16.288411458333332
 41
0.0
 71
               1
 72
               1
  1
品番
  7
ＭＳ ゴシック
 73
               1
 44
0.7828267384257843
  0
MTEXT
  5
131
100
AcDbEntity
  8
template
390
0
 62
               7
100
AcDbMText
 10
229.00000000049999
 20
-1232.4176292337006
 30
0.0
 40
16.288411458333332
 41
0.0
 71
               1
 72
               1
  1
重量
  7
ＭＳ ゴシック
 73
               1
 44
0.7828267384257843
  0
MTEXT
  5
132
100
AcDbEntity
  8
template
390
0
 62
               7
100
AcDbMText
 10
282.00000000049999
 20
-1176.0000901712006
 30
0.0
 40
24.432617187500004
 41
0.0
 71
               1
 72
               1
  1
ADF70-1201
  7
ＭＳ ゴシック
 73
               1
 44
0.7828267384257843
  0
MTEXT
  5
133
100
AcDbEntity
  8
template
390
0
 62
               7
100
AcDbMText
 10
282.00000000049999
 20
-1261.0000901712006
 30
0.0
 40
24.432617187500004
 41
0.0
 71
               1
 72
               1
  1
24kg
  7
ＭＳ ゴシック
 73
               1
 44
0.7828267384257843
  0
LINE
  5
134
100
AcDbEntity
  8
template
370
               5
390
0
  6
Continuous
 62
               7
100
AcDbLine
 10
222.00000000049999
 20
-1394.0027073587005
 30
0.0
 11
222.00000000049999
 21
-1139.0027073587005
 31
0.0
  0
MTEXT
  5
135
100
AcDbEntity
  8
template
390
0
 62
               7
100
AcDbMText
 10
-914.99999999975989
 20
-1261.0000901712006
 30
0.0
 40
24.432617187500004
 41
0.0
 71
               1
 72
               1
  1
壁掛け/オーバーフロー付き/壁取付ボルト付属/\P陶器/ホワイト
  7
ＭＳ ゴシック
 73
               1
 44
1.3047112307096407
  0
MTEXT
  5
136
100
AcDbEntity
  8
notes
390
0
 62
               7
100
AcDbMText
 10
29.153338059786847
 20
-640.83019719128174
 30
0.0
 40
21.828125
 41
836.66157930359611
 71
               1
 72
               1
  1
＝φ30もしくはφ35の水栓取付用穴あけ加工を承ります。\P   必要な場合、ご注文の際にご指示ください。
  7
MS UI Gothic
 11
0.0
 21
1.0
 31
0.0
 73
               1
 44
1.1683096020445418
  0
LINE
  5
137
100
AcDbEntity
  8
notes
370
               5
390
0
  6
Continuous
 62
               7
100
AcDbLine
 10
483.76972746233014
 20
-141.21923647221138
 30
0.0
 11
397.77750059102323
 21
78.341180838357445
 31
0.0
  0
DIMENSION
  5
138
100
AcDbEntity
  8
notes
370
               5
390
0
  6
Continuous
 62
               7
100
AcDbDimension
  2
*D3
 10
-755.63130940675092
 20
-806.25540806293043
 30
0.0
 11
-755.63130940675092
 21
-281.25540806293009
 31
0.0
 71
               5
 72
               1
 41
1.0
 42
0.0
  3
tform線あり
100
AcDbAlignedDimension
 13
-651.63130940675092
 23
243.74459193707037
 33
0.0
 14
-651.63130940675092
 24
-806.25540806293043
 34
0.0
 50
90.0
100
AcDbRotatedDimension
1001
ACAD
1000
DSTYLE
1002
{
1070
             279
1070
               2
1070
             340
1005
33
1070
             147
1040
5.0
1002
}
  0
DIMENSION
  5
139
100
AcDbEntity
  8
notes
370
               5
390
0
  6
Continuous
 62
               7
100
AcDbDimension
  2
*D4
 10
-655.63130940675092
 20
343.74459193707037
 30
0.0
 11
-415.63130940675092
 21
343.74459193707037
 31
0.0
 71
               5
 72
               1
 41
1.0
 42
0.0
  3
tform線あり
100
AcDbAlignedDimension
 13
-175.63130940675092
 23
-183.76581174794308
 33
0.0
 14
-655.63130940675092
 24
239.74459193707037
 34
0.0
100
AcDbRotatedDimension
1001
ACAD
1000
DSTYLE
1002
{
1070
             279
1070
               2
1070
             340
1005
33
1070
             147
1040
5.0
1002
}
  0
DIMENSION
  5
13A
100
AcDbEntity
  8
notes
370
               5
390
0
  6
Continuous
 62
               7
100
AcDbDimension
  2
*D5
 10
-655.63130940675092
 20
-961.88040806292997
 30
0.0
 11
-501.00630940675137
 21
-956.88040806292997
 31
0.0
 70
             128
 71
               5
 72
               1
 41
1.0
 42
0.0
  3
tform線あり
100
AcDbAlignedDimension
 13
-325.63130940675183
 23
-802.25540806293043
 33
0.0
 14
-655.63130940675092
 24
-802.25540806293043
 34
0.0
100
AcDbRotatedDimension
1001
ACAD
1000
DSTYLE
1002
{
1070
             279
1070
               2
1070
             340
1005
33
1070
             147
1040
5.0
1002
}
  0
DIMENSION
  5
13B
100
AcDbEntity
  8
notes
370
               5
390
0
  6
Continuous
 62
               7
100
AcDbDimension
  2
*D6
 10
-75.631309406750916
 20
-516.24500437791858
 30
0.0
 11
-75.631309406750916
 21
-281.25540806293077
 31
0.0
 71
               5
 72
               1
 41
1.0
 42
0.0
  3
tform線あり
100
AcDbAlignedDimension
 13
-269.58987473740217
 23
-46.265811747942962
 33
0.0
 14
-269.58987473740217
 24
-516.24500437791858
 34
0.0
 50
90.0
100
AcDbRotatedDimension
1001
ACAD
1000
DSTYLE
1002
{
1070
             279
1070
               2
1070
             340
1005
33
1070
             147
1040
5.0
1002
}
  0
DIMENSION
  5
13C
100
AcDbEntity
  8
notes
370
               5
390
0
  6
Continuous
 62
               7
100
AcDbDimension
  2
*D7
 10
-530.63130940675092
 20
-620.0
 30
0.0
 11
-365.64736399387039
 21
-620.0
 31
0.0
 71
               5
 72
               1
 41
1.0
 42
0.0
  3
tform線あり
100
AcDbAlignedDimension
 13
-200.66341858098986
 23
-395.0
 33
0.0
 14
-530.63130940675092
 24
-391.74500437791892
 34
0.0
100
AcDbRotatedDimension
1001
ACAD
1000
DSTYLE
1002
{
1070
             279
1070
               2
1070
             340
1005
33
1070
             147
1040
5.0
1002
}
  0
DIMENSION
  5
13D
100
AcDbEntity
  8
notes
370
               5
390
0
  6
Continuous
 62
               7
100
AcDbDimension
  2
*D8
 10
343.80838595022306
 20
-421.21923647221149
 30
0.0
 11
343.80838595022306
 21
-281.21923647221149
 31
0.0
 71
               5
 72
               1
 41
1.0
 42
0.0
  3
tform線あり
100
AcDbAlignedDimension
 13
463.76972746233059
 23
-141.21923647221138
 33
0.0
 14
463.80838595022306
 24
-421.21923647221149
 34
0.0
 50
90.0
100
AcDbRotatedDimension
1001
ACAD
1000
DSTYLE
1002
{
1070
             279
1070
               2
1070
             340
1005
33
1070
             147
1040
5.0
1002
}
  0
DIMENSION
  5
13E
100
AcDbEntity
  8
notes
370
               5
390
0
  6
Continuous
 62
               7
100
AcDbDimension
  2
*D9
 10
443.76972746233059
 20
-906.2554080629302
 30
0.0
 11
463.76972746233037
 21
-906.2554080629302
 31
0.0
 71
               5
 72
               1
 41
1.0
 42
0.0
  3
tform線あり
100
AcDbAlignedDimension
 13
483.76972746233014
 23
-471.21923647221149
 33
0.0
 14
443.76972746233059
 24
-806.25997942597428
 34
0.0
100
AcDbRotatedDimension
1001
ACAD
1000
DSTYLE
1002
{
1070
             279
1070
               2
1070
             340
1005
33
1070
             147
1040
5.0
1002
}
  0
DIMENSION
  5
13F
100
AcDbEntity
  8
notes
370
               5
390
0
  6
Continuous
 62
               7
100
AcDbDimension
  2
*D10
 10
443.76972746233059
 20
343.74002057402652
 30
0.0
 11
468.76972746233037
 21
343.74002057402652
 31
0.0
 71
               5
 72
               1
 41
1.0
 42
0.0
  3
tform線あり
100
AcDbAlignedDimension
 13
493.76972746233014
 23
243.74002057402652
 33
0.0
 14
443.76972746233059
 24
243.74002057402652
 34
0.0
100
AcDbRotatedDimension
1001
ACAD
1000
DSTYLE
1002
{
1070
             279
1070
               2
1070
             340
1005
33
1070
             147
1040
5.0
1002
}
  0
CIRCLE
  5
140
100
AcDbEntity
  8
notes
370
               5
390
0
  6
STYLE_12
 62
               7
100
AcDbCircle
 10
40.572868266677688
 20
-663.66861788768563
 30
0.0
 40
17.500000000000028
  0
DIMENSION
  5
141
100
AcDbEntity
  8
notes
370
               5
390
0
  6
Continuous
 62
               7
100
AcDbDimension
  2
*D11
 10
493.76972746233014
 20
343.74002057402652
 30
0.0
 11
563.76972746232946
 21
343.74002057402652
 31
0.0
 71
               5
 72
               1
 41
1.0
 42
0.0
  3
tform線あり
100
AcDbAlignedDimension
 13
633.76972746232877
 23
-116.47850702744256
 33
0.0
 14
493.76972746233014
 24
243.74002057402652
 34
0.0
100
AcDbRotatedDimension
1001
ACAD
1000
DSTYLE
1002
{
1070
             279
1070
               2
1070
             340
1005
34
1070
             140
1040
24.432617187500004
1070
             147
1040
5.0
1002
}
  0
DIMENSION
  5
142
100
AcDbEntity
  8
notes
370
               5
390
0
  6
Continuous
 62
               7
100
AcDbDimension
  2
*D12
 10
633.76972746232877
 20
624.25300115970538
 30
0.0
 11
538.76972746232991
 21
624.25300115970538
 31
0.0
 71
               5
 72
               1
 41
1.0
 42
0.0
  3
tform線あり
100
AcDbAlignedDimension
 13
443.76972746233105
 23
723.51133248616168
 33
0.0
 14
633.76972746232877
 24
809.64271642373785
 34
0.0
100
AcDbRotatedDimension
1001
ACAD
1000
DSTYLE
1002
{
1070
             279
1070
               2
1070
             340
1005
33
1070
             147
1040
5.0
1002
}
  0
DIMENSION
  5
143
100
AcDbEntity
  8
notes
370
               5
390
0
  6
Continuous
 62
               7
100
AcDbDimension
  2
*D13
 10
733.76972746232877
 20
1204.2519728963225
 30
0.0
 11
733.76972746232877
 21
1059.2519728963225
 31
0.0
 71
               5
 72
               1
 41
1.0
 42
0.0
  3
tform線あり
100
AcDbAlignedDimension
 13
628.76972746232877
 23
914.25197289632263
 33
0.0
 14
629.76972746232877
 24
1204.2519728963225
 34
0.0
 50
90.0
100
AcDbRotatedDimension
1001
ACAD
1000
DSTYLE
1002
{
1070
             279
1070
               2
1070
             340
1005
33
1070
             147
1040
5.0
1002
}
  0
DIMENSION
  5
144
100
AcDbEntity
  8
notes
370
               5
390
0
  6
Continuous
 62
               7
100
AcDbDimension
  2
*D14
 10
343.76972746233059
 20
1204.2519728963225
 30
0.0
 11
343.76972746233059
 21
1171.7519728963225
 31
0.0
 71
               5
 72
               1
 41
1.0
 42
0.0
  3
tform線あり
100
AcDbAlignedDimension
 13
443.76972746233059
 23
1139.2519728963225
 33
0.0
 14
448.76972746233059
 24
1204.2519728963225
 34
0.0
 50
90.0
100
AcDbRotatedDimension
1001
ACAD
1000
DSTYLE
1002
{
1070
             279
1070
               2
1070
             340
1005
33
1070
             147
1040
5.0
1002
}
  0
DIMENSION
  5
145
100
AcDbEntity
  8
notes
370
               5
390
0
  6
Continuous
 62
               7
100
AcDbDimension
  2
*D15
 10
443.76972746233059
 20
923.41998656842827
 30
0.0
 11
436.00838595022242
 21
928.41998656842827
 31
0.0
 70
             128
 71
               5
 72
               1
 41
1.0
 42
0.0
  3
tform線あり
100
AcDbAlignedDimension
 13
578.76972746233059
 23
951.26851013055705
 33
0.0
 14
443.76972746233059
 24
951.26851013055705
 34
0.0
100
AcDbRotatedDimension
1001
ACAD
1000
DSTYLE
1002
{
1070
             279
1070
               2
1070
             340
1005
33
1070
               3
1000
<>（深さ）
1070
             174
1070
               0
1070
             147
1040
5.0
1002
}
  0
DIMENSION
  5
146
100
AcDbEntity
  8
notes
370
               5
390
0
  6
Continuous
 62
               7
100
AcDbDimension
  2
*D16
 10
-655.63130940675092
 20
-888.0
 30
0.0
 11
-593.13130940675092
 21
-888.0
 31
0.0
 71
               5
 72
               1
 41
1.0
 42
0.0
  3
tform線あり
100
AcDbAlignedDimension
 13
-530.63130940675092
 23
-806.25540806293043
 33
0.0
 14
-655.63130940675092
 24
-802.25540806293043
 34
0.0
100
AcDbRotatedDimension
1001
ACAD
1000
DSTYLE
1002
{
1070
             279
1070
               2
1070
             340
1005
34
1070
             140
1040
24.432617187500004
1070
             147
1040
5.0
1002
}
  0
MTEXT
  5
147
100
AcDbEntity
  8
notes
390
0
 62
               7
100
AcDbMText
 10
347.68488281250006
 20
50.840911844343623
 30
0.0
 40
24.432617187500004
 41
0.0
 71
               1
 72
               1
  1
壁取付ボルト穴(2ヶ所)
  7
ＭＳ ゴシック
 11
0.0
 21
1.0
 31
0.0
 73
               1
 44
0.7828267384257843
  0
DIMENSION
  5
148
100
AcDbEntity
  8
notes
370
               5
390
0
  6
Continuous
 62
               7
100
AcDbDimension
  2
*D17
 10
623.76972746232877
 20
846.00000000000011
 30
0.0
 11
647.0
 21
851.00000000000011
 31
0.0
 70
             128
 71
               5
 72
               1
 41
1.0
 42
0.0
  3
tform線あり
100
AcDbAlignedDimension
 13
633.76972746232877
 23
891.00000000000011
 33
0.0
 14
623.76972746232877
 24
892.44104841438309
 34
0.0
100
AcDbRotatedDimension
1001
ACAD
1000
DSTYLE
1002
{
1070
             279
1070
               2
1070
             340
1005
34
1070
             140
1040
24.432617187500004
1070
             174
1070
               0
1070
             147
1040
5.0
1002
}
  0
CIRCLE
  5
149
100
AcDbEntity
  8
ADF70-1201
370
              15
390
0
  6
Continuous
 62
               7
100
AcDbCircle
 10
-365.63130940675092
 20
-281.25540806293054
 30
0.0
 40
22.5
  0
CIRCLE
  5
14A
100
AcDbEntity
  8
ADF70-1201
370
              15
390
0
  6
Continuous
 62
               7
100
AcDbCircle
 10
-365.63130940675092
 20
-281.25540806293054
 30
0.0
 40
39.0
  0
LINE
  5
14B
100
AcDbEntity
  8
ADF70-1201
370
              15
390
0
  6
Continuous
 62
               7
100
AcDbLine
 10
-655.63130940675092
 20
-281.25540806293054
 30
0.0
 11
-655.63130940675092
 21
239.74459193707037
 31
0.0
  0
LINE
  5
14C
100
AcDbEntity
  8
ADF70-1201
370
              15
390
0
  6
Continuous
 62
               7
100
AcDbLine
 10
-325.63130940675183
 20
239.74459193707037
 30
0.0
 11
-325.63130940675183
 21
-17.062916621134491
 31
0.0
  0
SPLINE
  5
14D
100
AcDbEntity
  8
ADF70-1201
370
              15
390
0
  6
Continuous
 62
               7
100
AcDbSpline
210
0.0
220
0.0
230
1.0
 70
               9
 71
               2
 72
              30
 73
              27
 74
               0
 42
0.000001
 43
0.000001
 40
0.0
 40
0.0
 40
0.0
 40
1.0
 40
1.0
 40
2.0
 40
3.0
 40
4.0
 40
5.0
 40
6.0
 40
7.0
 40
8.0
 40
9.0
 40
10.0
 40
11.0
 40
12.0
 40
13.0
 40
14.0
 40
15.0
 40
16.0
 40
17.0
 40
18.0
 40
19.0
 40
20.0
 40
21.0
 40
22.0
 40
22.0
 40
23.0
 40
23.0
 40
23.0
 10
-513.63130940675183
 20
-293.75540806293054
 30
0.0
 10
-513.51076028757143
 20
-293.75540806293054
 30
0.0
 10
-513.39021116839149
 20
-293.75540806293054
 30
0.0
 10
-512.1097204752582
 20
-293.43700622817516
 30
0.0
 10
-510.65845826932673
 20
-291.14696118211634
 30
0.0
 10
-509.85393009280915
 20
-289.04005800471657
 30
0.0
 10
-509.26930883773775
 20
-286.53399801576359
 30
0.0
 10
-508.77663422177147
 20
-282.53882753263031
 30
0.0
 10
-508.93334891860468
 20
-278.65958670872431
 30
0.0
 10
-509.26931025049635
 20
-275.97681811009727
 30
0.0
 10
-509.85392185171622
 20
-273.47075812114338
 30
0.0
 10
-511.08911471142392
 20
-270.28537158401321
 30
0.0
 10
-512.6400168199475
 20
-268.95322166787662
 30
0.0
 10
-514.11588789192774
 20
-268.52809392444158
 30
0.0
 10
-515.64709800503942
 20
-269.83297768829027
 30
0.0
 10
-516.60411251037795
 20
-271.36385494374474
 30
0.0
 10
-517.40869696178697
 20
-273.47075812114383
 30
0.0
 10
-517.99330856300685
 20
-275.97681811009772
 30
0.0
 10
-518.32926989489852
 20
-278.65958670872385
 30
0.0
 10
-518.49161704650442
 20
-282.52433632522741
 30
0.0
 10
-517.99330997576544
 20
-286.53399801576336
 30
0.0
 10
-517.40868872069404
 20
-289.04005800471703
 30
0.0
 10
-516.60416054417647
 20
-291.14696118211612
 30
0.0
 10
-515.14146199723382
 20
-293.43230310033312
 30
0.0
 10
-513.87240764511171
 20
-293.75540806293054
 30
0.0
 10
-513.75185852593177
 20
-293.75540806293054
 30
0.0
 10
-513.63130940675183
 20
-293.75540806293054
 30
0.0
  0
CIRCLE
  5
14E
100
AcDbEntity
  8
ADF70-1201
370
              15
390
0
  6
Continuous
 62
               7
100
AcDbCircle
 10
-365.63130940675092
 20
-281.25540806293054
 30
0.0
 40
22.5
  0
LINE
  5
14F
100
AcDbEntity
  8
ADF70-1201
370
              15
390
0
  6
Continuous
 62
               7
100
AcDbLine
 10
-655.63130940675092
 20
-281.25540806293054
 30
0.0
 11
-655.63130940675092
 21
-802.25540806293043
 31
0.0
  0
LINE
  5
150
100
AcDbEntity
  8
ADF70-1201
370
              15
390
0
  6
Continuous
 62
               7
100
AcDbLine
 10
-325.63130940675183
 20
-802.25540806293043
 30
0.0
 11
-325.63130940675183
 21
-545.44789950472682
 31
0.0
  0
ARC
  5
151
100
AcDbEntity
  8
ADF70-1201
370
              15
390
0
  6
Continuous
 62
               7
100
AcDbCircle
 10
-365.63130940675092
 20
-208.76581174794285
 30
0.0
 40
165.0
100
AcDbArc
 50
359.99999999999989
 51
179.99999999999989
  0
ARC
  5
152
100
AcDbEntity
  8
ADF70-1201
370
              15
390
0
  6
Continuous
 62
               7
100
AcDbCircle
 10
-365.63130940675092
 20
-353.74500437791892
 30
0.0
 40
165.0
100
AcDbArc
 50
180.0
 51
0.0
  0
LINE
  5
153
100
AcDbEntity
  8
ADF70-1201
370
              15
390
0
  6
Continuous
 62
               7
100
AcDbLine
 10
-530.63130940675092
 20
-353.74500437791892
 30
0.0
 11
-530.63130940675092
 21
-208.76581174794308
 31
0.0
  0
LINE
  5
154
100
AcDbEntity
  8
ADF70-1201
370
              15
390
0
  6
Continuous
 62
               7
100
AcDbLine
 10
-200.63130940675092
 20
-353.74500437791892
 30
0.0
 11
-200.63130940675092
 21
-208.76581174794308
 31
0.0
  0
ARC
  5
155
100
AcDbEntity
  8
ADF70-1201
370
              15
390
0
  6
Continuous
 62
               7
100
AcDbCircle
 10
-363.13130940675137
 20
-353.74500437791892
 30
0.0
 40
187.49999999999989
100
AcDbArc
 50
283.91642623355619
 51
0.0
  0
ARC
  5
156
100
AcDbEntity
  8
ADF70-1201
370
              15
390
0
  6
Continuous
 62
               7
100
AcDbCircle
 10
-363.13130940675137
 20
-208.76581174794285
 30
0.0
 40
187.50000000000045
100
AcDbArc
 50
359.99999999999994
 51
76.083573766443692
  0
ARC
  5
157
100
AcDbEntity
  8
ADF70-1201
370
              15
390
0
  6
Continuous
 62
               7
100
AcDbCircle
 10
-315.63130940675183
 20
-545.44789950472682
 30
0.0
 40
9.9999999999999982
100
AcDbArc
 50
103.91642623355428
 51
180.0
  0
ARC
  5
158
100
AcDbEntity
  8
ADF70-1201
370
              15
390
0
  6
Continuous
 62
               7
100
AcDbCircle
 10
-315.63130940675183
 20
-17.062916621134491
 30
0.0
 40
10.0
100
AcDbArc
 50
180.0
 51
256.08357376644307
  0
LINE
  5
159
100
AcDbEntity
  8
ADF70-1201
370
              15
390
0
  6
Continuous
 62
               7
100
AcDbLine
 10
-175.63130940675092
 20
-353.74500437791892
 30
0.0
 11
-175.63130940675092
 21
-208.76581174794308
 31
0.0
  0
LINE
  5
15A
100
AcDbEntity
  8
ADF70-1201
370
              15
390
0
  6
Continuous
 62
               7
100
AcDbLine
 10
-329.63130940675183
 20
243.74459193707037
 30
0.0
 11
-651.63130940675092
 21
243.74459193707037
 31
0.0
  0
ARC
  5
15B
100
AcDbEntity
  8
ADF70-1201
370
              15
390
0
  6
Continuous
 62
               7
100
AcDbCircle
 10
-329.63130940675183
 20
239.74459193707037
 30
0.0
 40
4.0
100
AcDbArc
 50
0.0
 51
90.0
  0
ARC
  5
15C
100
AcDbEntity
  8
ADF70-1201
370
              15
390
0
  6
Continuous
 62
               7
100
AcDbCircle
 10
-651.63130940675092
 20
239.74459193707037
 30
0.0
 40
4.0
100
AcDbArc
 50
90.0
 51
180.0
  0
LINE
  5
15D
100
AcDbEntity
  8
ADF70-1201
370
              15
390
0
  6
Continuous
 62
               7
100
AcDbLine
 10
-329.63130940675183
 20
-806.25540806293043
 30
0.0
 11
-651.63130940675092
 21
-806.25540806293043
 31
0.0
  0
ARC
  5
15E
100
AcDbEntity
  8
ADF70-1201
370
              15
390
0
  6
Continuous
 62
               7
100
AcDbCircle
 10
-329.63130940675183
 20
-802.25540806293043
 30
0.0
 40
4.0
100
AcDbArc
 50
270.0
 51
0.0
  0
ARC
  5
15F
100
AcDbEntity
  8
ADF70-1201
370
              15
390
0
  6
Continuous
 62
               7
100
AcDbCircle
 10
-651.63130940675092
 20
-802.25540806293043
 30
0.0
 40
4.0
100
AcDbArc
 50
180.0
 51
270.0
  0
LINE
  5
160
100
AcDbEntity
  8
ADF70-1201
370
              15
390
0
  6
STYLE_12
 62
               7
100
AcDbLine
 10
623.76972746232877
 20
935.12747877286085
 30
0.0
 11
623.76972746232877
 21
892.44104841438309
 31
0.0
  0
LINE
  5
161
100
AcDbEntity
  8
ADF70-1201
370
              15
390
0
  6
STYLE_12
 62
               7
100
AcDbLine
 10
578.76972746232968
 20
951.75197289632263
 30
0.0
 11
578.76972746232968
 21
874.60563904575872
 31
0.0
  0
LINE
  5
162
100
AcDbEntity
  8
ADF70-1201
370
              15
390
0
  6
STYLE_12
 62
               7
100
AcDbLine
 10
590.76972746232968
 20
935.12747877286085
 30
0.0
 11
590.76972746232968
 21
892.44104841438309
 31
0.0
  0
LINE
  5
163
100
AcDbEntity
  8
ADF70-1201
370
              15
390
0
  6
Continuous
 62
               7
100
AcDbLine
 10
448.75306079566326
 20
1204.2519728963225
 30
0.0
 11
629.76972746232877
 21
1204.2519728963225
 31
0.0
  0
ARC
  5
164
100
AcDbEntity
  8
ADF70-1201
370
              15
390
0
  6
Continuous
 62
               7
100
AcDbCircle
 10
629.76972746232877
 20
1200.2519728963225
 30
0.0
 40
4.0
100
AcDbArc
 50
0.0
 51
90.0
  0
LINE
  5
165
100
AcDbEntity
  8
ADF70-1201
370
              15
390
0
  6
Continuous
 62
               7
100
AcDbLine
 10
633.76972746232877
 20
1200.2519728963225
 30
0.0
 11
633.76972746232877
 21
812.83179194179854
 31
0.0
  0
LINE
  5
166
100
AcDbEntity
  8
ADF70-1201
370
              15
390
0
  6
Continuous
 62
               7
100
AcDbLine
 10
443.76972746233059
 20
1077.8857750369684
 30
0.0
 11
443.76972746233059
 21
744.58839516414844
 31
0.0
  0
LINE
  5
167
100
AcDbEntity
  8
ADF70-1201
370
              15
390
0
  6
STYLE_12
 62
               7
100
AcDbLine
 10
590.76972746232968
 20
892.44104841438309
 30
0.0
 11
623.76972746232877
 21
892.44104841438309
 31
0.0
  0
LINE
  5
168
100
AcDbEntity
  8
ADF70-1201
370
              15
390
0
  6
STYLE_12
 62
               7
100
AcDbLine
 10
579.7095533104748
 20
876.31162777626093
 30
0.0
 11
590.76972746232968
 21
892.44104841438309
 31
0.0
  0
ARC
  5
169
100
AcDbEntity
  8
ADF70-1201
370
              15
390
0
  6
STYLE_12
 62
               7
100
AcDbCircle
 10
587.95684182893183
 20
870.65634422074356
 30
0.0
 40
9.999999999998785
100
AcDbArc
 50
145.56101069117867
 51
168.79939795856907
  0
POLYLINE
  5
16A
100
AcDbEntity
  8
ADF70-1201
370
              15
390
0
  6
STYLE_12
 62
               7
100
AcDb2dPolyline
 66
               1
 10
0.0
 20
0.0
 30
0.0
 75
               5
  0
VERTEX
  5
16B
100
AcDbEntity
  8
ADF70-1201
370
              15
390
0
  6
STYLE_12
 62
               7
100
AcDbVertex
100
AcDb2dVertex
 10
578.14731068536094
 20
872.59879080772896
 30
0.0
  0
VERTEX
  5
16C
100
AcDbEntity
  8
ADF70-1201
370
              15
390
0
  6
STYLE_12
 62
               7
100
AcDbVertex
100
AcDb2dVertex
 10
578.14731068536094
 20
872.59879080772896
 30
0.0
  0
VERTEX
  5
16D
100
AcDbEntity
  8
ADF70-1201
370
              15
390
0
  6
STYLE_12
 62
               7
100
AcDbVertex
100
AcDb2dVertex
 10
578.14731068536139
 20
872.59879080773078
 30
0.0
  0
SEQEND
  5
16E
100
AcDbEntity
  8
ADF70-1201
370
              15
390
0
  6
STYLE_12
 62
               7
  0
ARC
  5
16F
100
AcDbEntity
  8
ADF70-1201
370
              15
390
0
  6
STYLE_12
 62
               7
100
AcDbCircle
 10
443.55491998376715
 20
888.16225519600232
 30
0.0
 40
135.48923595081465
100
AcDbArc
 50
272.01269809174852
 51
353.40395148310967
  0
ARC
  5
170
100
AcDbEntity
  8
ADF70-1201
370
              15
390
0
  6
STYLE_12
 62
               7
100
AcDbCircle
 10
448.76972746233082
 20
747.77747068220867
 30
0.0
 40
5.0000000000005409
100
AcDbArc
 50
95.236007700621883
 51
179.99999999999736
  0
LINE
  5
171
100
AcDbEntity
  8
ADF70-1201
370
              15
390
0
  6
Continuous
 62
               7
100
AcDbLine
 10
443.76972746233059
 20
729.2519598184914
 30
0.0
 11
443.76972746233059
 21
747.7774706822089
 31
0.0
  0
ARC
  5
172
100
AcDbEntity
  8
ADF70-1201
370
              15
390
0
  6
Continuous
 62
               7
100
AcDbCircle
 10
448.76972746233037
 20
729.2519598184914
 30
0.0
 40
4.9999999999997726
100
AcDbArc
 50
180.0
 51
271.16938278025691
  0
ARC
  5
173
100
AcDbEntity
  8
ADF70-1201
370
              15
390
0
  6
Continuous
 62
               7
100
AcDbCircle
 10
443.76972757077465
 20
974.20093409901858
 30
0.0
 40
249.99999999999568
100
AcDbArc
 50
271.16938278024816
 51
319.20788921770469
  0
ARC
  5
174
100
AcDbEntity
  8
ADF70-1201
370
              15
390
0
  6
Continuous
 62
               7
100
AcDbCircle
 10
630.76972746232968
 20
812.83179194179968
 30
0.0
 40
2.9999999999991318
100
AcDbArc
 50
319.20788921766695
 51
359.99999999997829
  0
ARC
  5
175
100
AcDbEntity
  8
ADF70-1201
370
              15
390
0
  6
Continuous
 62
               7
100
AcDbCircle
 10
448.75306079566326
 20
1199.2686395629898
 30
0.0
 40
4.9833333333326664
100
AcDbArc
 50
90.0
 51
179.99999999998954
  0
POLYLINE
  5
176
100
AcDbEntity
  8
ADF70-1201
370
              15
390
0
  6
Continuous
 62
               7
100
AcDb2dPolyline
 66
               1
 10
0.0
 20
0.0
 30
0.0
 75
               5
  0
VERTEX
  5
177
100
AcDbEntity
  8
ADF70-1201
370
              15
390
0
  6
Continuous
 62
               7
100
AcDbVertex
100
AcDb2dVertex
 10
443.76972746233059
 20
1078.3069956965005
 30
0.0
  0
VERTEX
  5
178
100
AcDbEntity
  8
ADF70-1201
370
              15
390
0
  6
Continuous
 62
               7
100
AcDbVertex
100
AcDb2dVertex
 10
443.76972746233059
 20
1079.3333387027233
 30
0.0
  0
VERTEX
  5
179
100
AcDbEntity
  8
ADF70-1201
370
              15
390
0
  6
Continuous
 62
               7
100
AcDbVertex
100
AcDb2dVertex
 10
443.76972746233059
 20
1199.2686395629908
 30
0.0
  0
SEQEND
  5
17A
100
AcDbEntity
  8
ADF70-1201
370
              15
390
0
  6
Continuous
 62
               7
  0
ARC
  5
17B
100
AcDbEntity
  8
ADF70-1201
370
              15
390
0
  6
STYLE_12
 62
               7
100
AcDbCircle
 10
447.75580704327285
 20
1078.3069956965005
 30
0.0
 40
3.9860795809422598
100
AcDbArc
 50
180.0
 51
267.47617487587576
  0
POLYLINE
  5
17C
100
AcDbEntity
  8
ADF70-1201
370
              15
390
0
  6
STYLE_12
 62
               7
100
AcDb2dPolyline
 66
               1
 10
0.0
 20
0.0
 30
0.0
 75
               5
  0
VERTEX
  5
17D
100
AcDbEntity
  8
ADF70-1201
370
              15
390
0
  6
STYLE_12
 62
               7
100
AcDbVertex
100
AcDb2dVertex
 10
447.62215757089871
 20
1074.3229367966014
 30
0.0
  0
VERTEX
  5
17E
100
AcDbEntity
  8
ADF70-1201
370
              15
390
0
  6
STYLE_12
 62
               7
100
AcDbVertex
100
AcDb2dVertex
 10
447.59300025716675
 20
1074.3242219801396
 30
0.0
  0
VERTEX
  5
17F
100
AcDbEntity
  8
ADF70-1201
370
              15
390
0
  6
STYLE_12
 62
               7
100
AcDbVertex
100
AcDb2dVertex
 10
447.58028076767482
 20
1074.3247826243287
 30
0.0
  0
SEQEND
  5
180
100
AcDbEntity
  8
ADF70-1201
370
              15
390
0
  6
STYLE_12
 62
               7
  0
LINE
  5
181
100
AcDbEntity
  8
ADF70-1201
370
              15
390
0
  6
STYLE_12
 62
               7
100
AcDbLine
 10
590.76972746232968
 20
935.12747877286085
 30
0.0
 11
623.76972746232877
 21
935.12747877286085
 31
0.0
  0
LINE
  5
182
100
AcDbEntity
  8
ADF70-1201
370
              15
390
0
  6
STYLE_12
 62
               7
100
AcDbLine
 10
578.76972746232968
 20
952.51659549624753
 30
0.0
 11
590.76972746232968
 21
935.12747877286085
 31
0.0
  0
ARC
  5
183
100
AcDbEntity
  8
ADF70-1201
370
              15
390
0
  6
STYLE_12
 62
               7
100
AcDbCircle
 10
442.5786615748807
 20
936.61101764343027
 30
0.0
 40
137.11671610125259
100
AcDbArc
 50
6.6613231844211649
 51
70.635195937386811
  0
CIRCLE
  5
184
100
AcDbEntity
  8
ADF70-1201
370
              15
390
0
  6
STYLE_12
 62
               7
100
AcDbCircle
 10
-590.64300070403579
 20
-281.25540806292986
 30
0.0
 40
17.49999999999995
  0
LINE
  5
185
100
AcDbEntity
  8
ADF70-1201
370
              15
390
0
  6
STYLE_12
 62
               7
100
AcDbLine
 10
623.76972746232877
 20
-281.25997942597439
 30
0.0
 11
623.76972746232877
 21
-258.75997942597417
 31
0.0
  0
LINE
  5
186
100
AcDbEntity
  8
ADF70-1201
370
              15
390
0
  6
STYLE_12
 62
               7
100
AcDbLine
 10
578.76972746232968
 20
-281.25997942597439
 30
0.0
 11
578.76972746232968
 21
-241.25997942597417
 31
0.0
  0
LINE
  5
187
100
AcDbEntity
  8
ADF70-1201
370
              15
390
0
  6
STYLE_12
 62
               7
100
AcDbLine
 10
590.76972746232968
 20
-281.25997942597439
 30
0.0
 11
590.76972746232968
 21
-258.75997942597417
 31
0.0
  0
LINE
  5
188
100
AcDbEntity
  8
ADF70-1201
370
              15
390
0
  6
Continuous
 62
               7
100
AcDbLine
 10
633.76972746232877
 20
-132.05910674505765
 30
0.0
 11
633.7697274374741
 21
-132.05910673368624
 31
0.0
  0
LINE
  5
189
100
AcDbEntity
  8
ADF70-1201
370
              15
390
0
  6
STYLE_05
 62
               7
100
AcDbLine
 10
631.26972746232877
 20
-134.55910674505719
 30
0.0
 11
631.26972743744909
 21
-134.55910673371079
 31
0.0
  0
LINE
  5
18A
100
AcDbEntity
  8
ADF70-1201
370
              15
390
0
  6
STYLE_12
 62
               7
100
AcDbLine
 10
590.76972746232968
 20
-258.91923647221154
 30
0.0
 11
579.7095533104748
 21
-242.78981583408938
 31
0.0
  0
LINE
  5
18B
100
AcDbEntity
  8
ADF70-1201
370
              15
390
0
  6
STYLE_12
 62
               7
100
AcDbLine
 10
623.76972746232877
 20
-258.91923647221154
 30
0.0
 11
590.76972746232968
 21
-258.91923647221154
 31
0.0
  0
ARC
  5
18C
100
AcDbEntity
  8
ADF70-1201
370
              15
390
0
  6
STYLE_12
 62
               7
100
AcDbCircle
 10
443.55491998376738
 20
-185.92059634395434
 30
0.0
 40
135.48923595081465
100
AcDbArc
 50
6.5960485168911873
 51
87.987301908251681
  0
ARC
  5
18D
100
AcDbEntity
  8
ADF70-1201
370
              15
390
0
  6
STYLE_05
 62
               7
100
AcDbCircle
 10
448.76972746233059
 20
-45.535811830159105
 30
0.0
 40
5.0
100
AcDbArc
 50
180.0
 51
264.76399229938022
  0
LWPOLYLINE
  5
18E
100
AcDbEntity
  8
ADF70-1201
370
              15
390
0
  6
Continuous
 62
               7
100
AcDbPolyline
 90
        6
 70
             128
 10
443.76972746233059
 20
-45.535811830159105
 10
443.76972746233059
 20
-27.010300966441719
 42
-0.4202041027565175
 10
448.87176827644453
 20
-22.011342307655582
 42
-0.223759528061843
 10
629.42628968174222
 20
-111.61902324720518
 10
633.06972746232896
 20
-116.21923647221138
 10
633.76972746232877
 20
-116.47850702744256
  0
POLYLINE
  5
18F
100
AcDbEntity
  8
ADF70-1201
370
              15
390
0
  6
Continuous
 62
               7
100
AcDb2dPolyline
 66
               1
 10
0.0
 20
0.0
 30
0.0
 75
               5
  0
VERTEX
  5
190
100
AcDbEntity
  8
ADF70-1201
370
              15
390
0
  6
Continuous
 62
               7
100
AcDbVertex
100
AcDb2dVertex
 10
493.76972746233014
 20
-27.248846168491468
 30
0.0
  0
VERTEX
  5
191
100
AcDbEntity
  8
ADF70-1201
370
              15
390
0
  6
Continuous
 62
               7
100
AcDbVertex
100
AcDb2dVertex
 10
493.76972746233014
 20
243.74002057402652
 30
0.0
  0
VERTEX
  5
192
100
AcDbEntity
  8
ADF70-1201
370
              15
390
0
  6
Continuous
 62
               7
100
AcDbVertex
100
AcDb2dVertex
 10
443.76972746233059
 20
243.74002057402652
 30
0.0
  0
VERTEX
  5
193
100
AcDbEntity
  8
ADF70-1201
370
              15
390
0
  6
Continuous
 62
               7
100
AcDbVertex
100
AcDb2dVertex
 10
443.76972746233059
 20
-806.25997942597428
 30
0.0
  0
VERTEX
  5
194
100
AcDbEntity
  8
ADF70-1201
370
              15
390
0
  6
Continuous
 62
               7
100
AcDbVertex
100
AcDb2dVertex
 10
493.76972746233014
 20
-806.25997942597428
 30
0.0
  0
VERTEX
  5
195
100
AcDbEntity
  8
ADF70-1201
370
              15
390
0
  6
Continuous
 62
               7
100
AcDbVertex
100
AcDb2dVertex
 10
493.76972746233014
 20
-535.27111268345698
 30
0.0
  0
SEQEND
  5
196
100
AcDbEntity
  8
ADF70-1201
370
              15
390
0
  6
Continuous
 62
               7
  0
ARC
  5
197
100
AcDbEntity
  8
ADF70-1201
370
              15
390
0
  6
STYLE_12
 62
               7
100
AcDbCircle
 10
-1540.8309113330433
 20
-224.41262229464553
 30
0.0
 40
2119.6675922002637
100
AcDbArc
 50
359.54460188633681
 51
1.4613080223857082
  0
LINE
  5
198
100
AcDbEntity
  8
ADF70-1201
370
              15
390
0
  6
STYLE_12
 62
               7
100
AcDbLine
 10
623.76972746232877
 20
-281.25997942597439
 30
0.0
 11
623.76972746232877
 21
-303.75997942597439
 31
0.0
  0
LINE
  5
199
100
AcDbEntity
  8
ADF70-1201
370
              15
390
0
  6
STYLE_12
 62
               7
100
AcDbLine
 10
578.76972746232968
 20
-281.25997942597439
 30
0.0
 11
578.76972746232968
 21
-321.25997942597439
 31
0.0
  0
LINE
  5
19A
100
AcDbEntity
  8
ADF70-1201
370
              15
390
0
  6
STYLE_12
 62
               7
100
AcDbLine
 10
590.76972746232968
 20
-281.25997942597439
 30
0.0
 11
590.76972746232968
 21
-303.75997942597439
 31
0.0
  0
LINE
  5
19B
100
AcDbEntity
  8
ADF70-1201
370
              15
390
0
  6
Continuous
 62
               7
100
AcDbLine
 10
633.76972746232877
 20
-430.46085210689091
 30
0.0
 11
633.7697274374741
 21
-430.46085211826232
 31
0.0
  0
LINE
  5
19C
100
AcDbEntity
  8
ADF70-1201
370
              15
390
0
  6
STYLE_05
 62
               7
100
AcDbLine
 10
631.26972746232877
 20
-427.96085210689137
 30
0.0
 11
631.26972743744909
 21
-427.96085211823777
 31
0.0
  0
LINE
  5
19D
100
AcDbEntity
  8
ADF70-1201
370
              15
390
0
  6
STYLE_12
 62
               7
100
AcDbLine
 10
590.76972746232968
 20
-303.60072237973725
 30
0.0
 11
579.7095533104748
 21
-319.7301430178594
 31
0.0
  0
LINE
  5
19E
100
AcDbEntity
  8
ADF70-1201
370
              15
390
0
  6
STYLE_12
 62
               7
100
AcDbLine
 10
623.76972746232877
 20
-303.60072237973725
 30
0.0
 11
590.76972746232968
 21
-303.60072237973725
 31
0.0
  0
ARC
  5
19F
100
AcDbEntity
  8
ADF70-1201
370
              15
390
0
  6
STYLE_12
 62
               7
100
AcDbCircle
 10
443.55491998376738
 20
-376.59936250799399
 30
0.0
 40
135.48923595081655
100
AcDbArc
 50
272.01269809174835
 51
353.40395148310876
  0
ARC
  5
1A0
100
AcDbEntity
  8
ADF70-1201
370
              15
390
0
  6
STYLE_05
 62
               7
100
AcDbCircle
 10
448.76972746233059
 20
-516.98414702178911
 30
0.0
 40
5.0000000000000675
100
AcDbArc
 50
95.23600770061978
 51
180.0
  0
LWPOLYLINE
  5
1A1
100
AcDbEntity
  8
ADF70-1201
370
              15
390
0
  6
Continuous
 62
               7
100
AcDbPolyline
 90
        6
 70
             128
 10
633.76972746232877
 20
-446.041451824506
 10
633.06972746232896
 20
-446.30072237973729
 10
629.42628968174222
 20
-450.90093560474349
 42
-0.2237595280618442
 10
448.87176827644453
 20
-540.50861654429286
 42
-0.4202041027565512
 10
443.76972746233059
 20
-535.50965788550661
 10
443.76972746233059
 20
-516.98414702178911
  0
ARC
  5
1A2
100
AcDbEntity
  8
ADF70-1201
370
              15
390
0
  6
STYLE_12
 62
               7
100
AcDbCircle
 10
-1540.8309113330433
 20
-338.10733655730303
 30
0.0
 40
2119.6675922002637
100
AcDbArc
 50
358.53869197761429
 51
0.4553981136631364
  0
LINE
  5
1A3
100
AcDbEntity
  8
ADF70-1201
370
              15
390
0
  6
Continuous
 62
               7
100
AcDbLine
 10
633.76972746232877
 20
-446.041451824506
 30
0.0
 11
633.76972746232877
 21
-116.47850702744256
 31
0.0
  0
LINE
  5
1A4
100
AcDbEntity
  8
ADF70-1201
370
              15
390
0
  6
STYLE_12
 62
               7
100
AcDbLine
 10
503.8083859502226
 20
-421.21923647221149
 30
0.0
 11
463.80838595022306
 21
-421.21923647221149
 31
0.0
  0
LINE
  5
1A5
100
AcDbEntity
  8
ADF70-1201
370
              15
390
0
  6
STYLE_12
 62
               7
100
AcDbLine
 10
483.80838595022283
 20
-401.21923647221183
 30
0.0
 11
483.80838595022283
 21
-441.21923647221115
 31
0.0
  0
CIRCLE
  5
1A6
100
AcDbEntity
  8
ADF70-1201
370
              15
390
0
  6
STYLE_12
 62
               7
100
AcDbCircle
 10
483.80838595022283
 20
-421.21923647221149
 30
0.0
 40
10.0
  0
LINE
  5
1A7
100
AcDbEntity
  8
ADF70-1201
370
              15
390
0
  6
STYLE_12
 62
               7
100
AcDbLine
 10
503.8083859502226
 20
-141.21923647221149
 30
0.0
 11
463.80838595022306
 21
-141.21923647221149
 31
0.0
  0
LINE
  5
1A8
100
AcDbEntity
  8
ADF70-1201
370
              15
390
0
  6
STYLE_12
 62
               7
100
AcDbLine
 10
483.80838595022283
 20
-121.21923647221183
 30
0.0
 11
483.80838595022283
 21
-161.21923647221115
 31
0.0
  0
CIRCLE
  5
1A9
100
AcDbEntity
  8
ADF70-1201
370
              15
390
0
  6
STYLE_12
 62
               7
100
AcDbCircle
 10
483.80838595022283
 20
-141.21923647221149
 30
0.0
 40
10.0
  0
ARC
  5
1AA
100
AcDbEntity
  8
ADF70-1201
370
              15
390
0
  6
STYLE_12
 62
               7
100
AcDbCircle
 10
428.10077907477148
 20
877.80503976595639
 30
0.0
 40
197.48281018692387
100
AcDbArc
 50
72.329852955002963
 51
84.339198085537404
  0
LINE
  5
1AB
100
AcDbEntity
  8
ADF70-1201
370
              15
390
0
  6
Continuous
 62
               7
100
AcDbLine
 10
443.76972746233059
 20
1156.7519728963225
 30
0.0
 11
458.76972746233059
 21
1156.7519728963225
 31
0.0
  0
LINE
  5
1AC
100
AcDbEntity
  8
ADF70-1201
370
              15
390
0
  6
Continuous
 62
               7
100
AcDbLine
 10
443.76972746233059
 20
1121.7519728963225
 30
0.0
 11
458.76972746233059
 21
1121.7519728963225
 31
0.0
  0
LINE
  5
1AD
100
AcDbEntity
  8
ADF70-1201
370
              15
390
0
  6
Continuous
 62
               7
100
AcDbLine
 10
493.76972746233014
 20
874.25197289632263
 30
0.0
 11
493.76972746233014
 21
1204.2519728963225
 31
0.0
  0
LINE
  5
1AE
100
AcDbEntity
  8
ADF70-1201
370
              15
390
0
  6
Continuous
 62
               7
100
AcDbLine
 10
493.76972746233014
 20
874.25197289632263
 30
0.0
 11
443.76972746233059
 21
874.25197289632263
 31
0.0
  0
ENDSEC
  0
SECTION
  2
OBJECTS
  0
DICTIONARY
  5
19
100
AcDbDictionary
280
               0
281
               1
  3
ACAD_GROUP
350
1A
  3
ACAD_MLINESTYLE
350
1B
  3
ACAD_LAYOUT
350
1E
  3
ACAD_PLOTSETTINGS
350
22
  3
ACAD_PLOTSTYLENAME
350
1F
  0
DICTIONARY
  5
1A
102
{ACAD_REACTORS
330
19
102
}
100
AcDbDictionary
280
               0
281
               1
  0
DICTIONARY
  5
1B
102
{ACAD_REACTORS
330
19
102
}
100
AcDbDictionary
280
               0
281
               1
  3
Standard
350
1C
  0
MLINESTYLE
  5
1C
102
{ACAD_REACTORS
330
1B
102
}
100
AcDbMlineStyle
  2
Standard
 70
               0
  3

 62
               0
 51
90.0
 52
90.0
 71
               2
 49
0.5
 62
             256
  6
ByLayer
 49
-0.5
 62
             256
  6
ByLayer
  0
ACDBDICTIONARYWDFLT
  5
1F
102
{ACAD_REACTORS
330
19
102
}
100
AcDbDictionary
281
               1
  3
Normal
350
1D
100
AcDbDictionaryWithDefault
340
1D
  0
ACDBPLACEHOLDER
  5
1D
102
{ACAD_REACTORS
330
1F
102
}
  0
LAYOUT
  5
20
102
{ACAD_REACTORS
330
1E
102
}
100
AcDbPlotSettings
  1

  2

  4

  6

 40
0.0
 41
0.0
 42
0.0
 43
0.0
 44
0.0
 45
0.0
 46
0.0
 47
0.0
 48
0.0
 49
0.0
140
0.0
141
0.0
142
1.0
143
1.0
 70
            1024
 72
               0
 73
               0
 74
               0
  7

 75
               0
147
1.0
148
0.0
149
0.0
100
AcDbLayout
  1
Model
 70
               0
 71
               0
 10
0.0
 20
0.0
 11
0.0
 21
0.0
 12
0.0
 22
0.0
 32
0.0
 14
0.0
 24
0.0
 34
0.0
 15
0.0
 25
0.0
 35
0.0
146
0.0
 13
0.0
 23
0.0
 33
0.0
 16
0.0
 26
0.0
 36
0.0
 17
0.0
 27
0.0
 37
0.0
 76
               0
330
A
331
0
345
0
346
0
  0
LAYOUT
  5
21
102
{ACAD_REACTORS
330
1E
102
}
100
AcDbPlotSettings
  1

  2

  4

  6

 40
0.0
 41
0.0
 42
0.0
 43
0.0
 44
0.0
 45
0.0
 46
0.0
 47
0.0
 48
0.0
 49
0.0
140
0.0
141
0.0
142
1.0
143
1.0
 70
               0
 72
               0
 73
               0
 74
               0
  7

 75
               0
147
1.0
148
0.0
149
0.0
100
AcDbLayout
  1
Layout1
 70
               0
 71
               0
 10
0.0
 20
0.0
 11
0.0
 21
0.0
 12
0.0
 22
0.0
 32
0.0
 14
0.0
 24
0.0
 34
0.0
 15
0.0
 25
0.0
 35
0.0
146
0.0
 13
0.0
 23
0.0
 33
0.0
 16
0.0
 26
0.0
 36
0.0
 17
0.0
 27
0.0
 37
0.0
 76
               0
330
B
331
0
345
0
346
0
  0
DICTIONARY
  5
1E
102
{ACAD_REACTORS
330
19
102
}
100
AcDbDictionary
280
               0
281
               1
  3
Layout1
350
21
  3
Model
350
20
  0
DICTIONARY
  5
22
102
{ACAD_REACTORS
330
19
102
}
100
AcDbDictionary
280
               0
281
               1
  0
ENDSEC
  0
EOF
