  0
SECTION
  2
HEADER
  9
$ACADVER
  1
AC1015
  9
$ACADMAINTVER
 70
               6
  9
$DWGCODEPAGE
  3
ANSI_932
  9
$INSBASE
 10
0.0
 20
0.0
 30
0.0
  9
$EXTMIN
 10
-975.00000000048203
 20
-1418.7614075562763
 30
-14.834305555555554
  9
$EXTMAX
 10
975.0
 20
1418.7614075561362
 30
14.834305555555554
  9
$LIMMIN
 10
0.0
 20
0.0
  9
$LIMMAX
 10
0.0
 20
0.0
  9
$ORTHOMODE
 70
               0
  9
$REGENMODE
 70
               1
  9
$FILLMODE
 70
               1
  9
$QTEXTMODE
 70
               0
  9
$MIRRTEXT
 70
               1
  9
$LTSCALE
 40
50.799999999999997
  9
$ATTMODE
 70
               1
  9
$TEXTSIZE
 40
0.2
  9
$TRACEWID
 40
1.0
  9
$TEXTSTYLE
  7
Standard
  9
$CLAYER
  8
notes
  9
$CELTYPE
  6
Continuous
  9
$CECOLOR
 62
             256
  9
$CELTSCALE
 40
1.0
  9
$DISPSILH
 70
               0
  9
$DIMSCALE
 40
1.0
  9
$DIMASZ
 40
31.75
  9
$DIMEXO
 40
0.0
  9
$DIMDLI
 40
6.9999999999999396
  9
$DIMRND
 40
0.0
  9
$DIMDLE
 40
0.0
  9
$DIMEXE
 40
19.999999999996199
  9
$DIMTP
 40
0.0
  9
$DIMTM
 40
0.0
  9
$DIMTXT
 40
21.828125
  9
$DIMCEN
 40
0.0
  9
$DIMTSZ
 40
0.0
  9
$DIMTOL
 70
               0
  9
$DIMLIM
 70
               0
  9
$DIMTIH
 70
               0
  9
$DIMTOH
 70
               0
  9
$DIMSE1
 70
               0
  9
$DIMSE2
 70
               0
  9
$DIMTAD
 70
               1
  9
$DIMZIN
 70
              11
  9
$DIMBLK
  1
VW_FILLEDARROW
  9
$DIMASO
 70
               1
  9
$DIMSHO
 70
               1
  9
$DIMPOST
  1
<>
  9
$DIMAPOST
  1
[]
  9
$DIMALT
 70
               0
  9
$DIMALTD
 70
               1
  9
$DIMALTF
 40
1.0
  9
$DIMLFAC
 40
1.0
  9
$DIMTOFL
 70
               0
  9
$DIMTVP
 40
0.0
  9
$DIMTIX
 70
               1
  9
$DIMSOXD
 70
               0
  9
$DIMSAH
 70
               0
  9
$DIMBLK1
  1

  9
$DIMBLK2
  1

  9
$DIMSTYLE
  2
JIS
  9
$DIMCLRD
 70
               0
  9
$DIMCLRE
 70
               0
  9
$DIMCLRT
 70
               0
  9
$DIMTFAC
 40
1.0
  9
$DIMGAP
 40
1.00000000000108
  9
$DIMJUST
 70
               0
  9
$DIMSD1
 70
               0
  9
$DIMSD2
 70
               0
  9
$DIMTOLJ
 70
               1
  9
$DIMTZIN
 70
              11
  9
$DIMALTZ
 70
              11
  9
$DIMALTTZ
 70
              11
  9
$DIMUPT
 70
               0
  9
$DIMDEC
 70
               1
  9
$DIMTDEC
 70
               1
  9
$DIMALTU
 70
               2
  9
$DIMALTTD
 70
               2
  9
$DIMTXSTY
  7
MS UI Gothic
  9
$DIMAUNIT
 70
               0
  9
$DIMADEC
 70
               2
  9
$DIMALTRND
 40
0.0
  9
$DIMAZIN
 70
               0
  9
$DIMDSEP
 70
              46
  9
$DIMATFIT
 70
               0
  9
$DIMFRAC
 70
               2
  9
$DIMLDRBLK
  1

  9
$DIMLUNIT
 70
               2
  9
$DIMLWD
 70
              -2
  9
$DIMLWE
 70
              -2
  9
$DIMTMOVE
 70
               0
  9
$LUNITS
 70
               2
  9
$LUPREC
 70
               4
  9
$SKETCHINC
 40
0.1
  9
$FILLETRAD
 40
0.0
  9
$AUNITS
 70
               0
  9
$AUPREC
 70
               0
  9
$MENU
  1
acad
  9
$ELEVATION
 40
0.0
  9
$PELEVATION
 40
0.0
  9
$THICKNESS
 40
0.0
  9
$LIMCHECK
 70
               0
  9
$CHAMFERA
 40
0.0
  9
$CHAMFERB
 40
0.0
  9
$CHAMFERC
 40
0.0
  9
$CHAMFERD
 40
0.0
  9
$SKPOLY
 70
               0
  9
$TDCREATE
 40
2456041.706782408
  9
$TDUCREATE
 40
0.000000000
  9
$TDUPDATE
 40
2456041.706782408
  9
$TDUUPDATE
 40
0.000000000
  9
$TDINDWG
 40
0.0000000000
  9
$TDUSRTIMER
 40
0.0000000000
  9
$USRTIMER
 70
               1
  9
$ANGBASE
 50
0.0
  9
$ANGDIR
 70
               0
  9
$PDMODE
 70
               1
  9
$PDSIZE
 40
-2.0
  9
$PLINEWID
 40
0.0
  9
$SPLFRAME
 70
               0
  9
$SPLINETYPE
 70
               6
  9
$SPLINESEGS
 70
               8
  9
$HANDSEED
  5
1D0
  9
$SURFTAB1
 70
               6
  9
$SURFTAB2
 70
               6
  9
$SURFTYPE
 70
               6
  9
$SURFU
 70
               6
  9
$SURFV
 70
               6
  9
$UCSBASE
  2

  9
$UCSNAME
  2

  9
$UCSORG
 10
0.0
 20
0.0
 30
0.0
  9
$UCSXDIR
 10
1.0
 20
0.0
 30
0.0
  9
$UCSYDIR
 10
0.0
 20
1.0
 30
0.0
  9
$UCSORTHOREF
  2

  9
$UCSORTHOVIEW
 70
               0
  9
$UCSORGTOP
 10
0.0
 20
0.0
 30
0.0
  9
$UCSORGBOTTOM
 10
0.0
 20
0.0
 30
0.0
  9
$UCSORGLEFT
 10
0.0
 20
0.0
 30
0.0
  9
$UCSORGRIGHT
 10
0.0
 20
0.0
 30
0.0
  9
$UCSORGFRONT
 10
0.0
 20
0.0
 30
0.0
  9
$UCSORGBACK
 10
0.0
 20
0.0
 30
0.0
  9
$PUCSBASE
  2

  9
$PUCSNAME
  2

  9
$PUCSORG
 10
0.0
 20
0.0
 30
0.0
  9
$PUCSXDIR
 10
1.0
 20
0.0
 30
0.0
  9
$PUCSYDIR
 10
0.0
 20
1.0
 30
0.0
  9
$PUCSORTHOREF
  2

  9
$PUCSORTHOVIEW
 70
               0
  9
$PUCSORGTOP
 10
0.0
 20
0.0
 30
0.0
  9
$PUCSORGBOTTOM
 10
0.0
 20
0.0
 30
0.0
  9
$PUCSORGLEFT
 10
0.0
 20
0.0
 30
0.0
  9
$PUCSORGRIGHT
 10
0.0
 20
0.0
 30
0.0
  9
$PUCSORGFRONT
 10
0.0
 20
0.0
 30
0.0
  9
$PUCSORGBACK
 10
0.0
 20
0.0
 30
0.0
  9
$USERI1
 70
               0
  9
$USERI2
 70
               0
  9
$USERI3
 70
               0
  9
$USERI4
 70
               0
  9
$USERI5
 70
               0
  9
$USERR1
 40
0.0
  9
$USERR2
 40
0.0
  9
$USERR3
 40
0.0
  9
$USERR4
 40
0.0
  9
$USERR5
 40
0.0
  9
$WORLDVIEW
 70
               1
  9
$SHADEDGE
 70
               3
  9
$SHADEDIF
 70
              70
  9
$TILEMODE
 70
               1
  9
$MAXACTVP
 70
              64
  9
$PINSBASE
 10
0.0
 20
0.0
 30
0.0
  9
$PLIMCHECK
 70
               0
  9
$PEXTMIN
 10
1.0000000000000000E+20
 20
1.0000000000000000E+20
 30
1.0000000000000000E+20
  9
$PEXTMAX
 10
-1.0000000000000000E+20
 20
-1.0000000000000000E+20
 30
-1.0000000000000000E+20
  9
$PLIMMIN
 10
0.0
 20
0.0
  9
$PLIMMAX
 10
12.0
 20
9.0
  9
$UNITMODE
 70
               0
  9
$VISRETAIN
 70
               0
  9
$PLINEGEN
 70
               1
  9
$PSLTSCALE
 70
               0
  9
$TREEDEPTH
 70
            3020
  9
$CMLSTYLE
  2
Standard
  9
$CMLJUST
 70
               0
  9
$CMLSCALE
 40
1.0
  9
$PROXYGRAPHICS
 70
               0
  9
$MEASUREMENT
 70
               1
  9
$CELWEIGHT
370
               0
  9
$ENDCAPS
280
               0
  9
$JOINSTYLE
280
               0
  9
$LWDISPLAY
290
               1
  9
$INSUNITS
 70
               4
  9
$HYPERLINKBASE
  1

  9
$STYLESHEET
  1

  9
$XEDIT
290
               1
  9
$CEPSNTYPE
380
               0
  9
$PSTYLEMODE
290
               1
  9
$FINGERPRINTGUID
  2

  9
$VERSIONGUID
  2

  9
$EXTNAMES
290
               1
  9
$PSVPSCALE
 40
0.0
  0
ENDSEC
  0
SECTION
  2
CLASSES
  0
CLASS
  1
LWPOLYLINE
  2
AcDbPolyline
  3
AutoCAD 2000
 90
        0
280
               0
281
               1
  0
CLASS
  1
IMAGE
  2
AcDbRasterImage
  3
ISM
 90
      127
280
               0
281
               1
  0
CLASS
  1
OLE2FRAME
  2
AcDbOle2Frame
  3
AutoCAD 2000
 90
        0
280
               0
281
               1
  0
CLASS
  1
HATCH
  2
AcDbHatch
  3
AutoCAD 2000
 90
        0
280
               0
281
               1
  0
CLASS
  1
DICTIONARYVAR
  2
AcDbDictionaryVar
  3
AutoCAD 2000
 90
        0
280
               0
281
               0
  0
CLASS
  1
RASTERVARIABLES
  2
AcDbRasterVariables
  3
ISM
 90
        0
280
               0
281
               0
  0
CLASS
  1
IMAGEDEF
  2
AcDbRasterImageDef
  3
ISM
 90
        0
280
               0
281
               0
  0
CLASS
  1
IMAGEDEF_REACTOR
  2
AcDbRasterImageDefReactor
  3
ISM
 90
        1
280
               0
281
               0
  0
CLASS
  1
IDBUFFER
  2
AcDbIdBuffer
  3
AutoCAD 2000
 90
        0
280
               0
281
               0
  0
CLASS
  1
SPATIAL_FILTER
  2
AcDbSpatialFilter
  3
AutoCAD 2000
 90
        0
280
               0
281
               0
  0
CLASS
  1
XRECORD
  2
AcDbXrecord
  3
AutoCAD 2000
 90
        0
280
               0
281
               0
  0
CLASS
  1
SORTENTSTABLE
  2
AcDbSortentsTable
  3
AutoCAD 2000
 90
        0
280
               0
281
               0
  0
CLASS
  1
LAYER_INDEX
  2
AcDbLayerIndex
  3
AutoCAD 2000
 90
        0
280
               0
281
               0
  0
CLASS
  1
SPATIAL_INDEX
  2
AcDbSpatialIndex
  3
AutoCAD 2000
 90
        0
280
               0
281
               0
  0
CLASS
  1
OBJECT_PTR
  2
CAseDLPNTableRecord
  3
"ASE-LPNTableRecord"
 90
        1
280
               0
281
               0
  0
CLASS
  1
LAYOUT
  2
AcDbLayout
  3
AutoCAD 2000
 90
        0
280
               0
281
               0
  0
CLASS
  1
PLOTSETTINGS
  2
AcDbPlotSettings
  3
AutoCAD 2000
 90
        0
280
               0
281
               0
  0
CLASS
  1
ACDBDICTIONARYWDFLT
  2
AcDbDictionaryWithDefault
  3
AutoCAD 2000
 90
        0
280
               0
281
               0
  0
CLASS
  1
ACDBPLACEHOLDER
  2
AcDbPlaceHolder
  3
AutoCAD 2000
 90
        0
280
               0
281
               0
  0
ENDSEC
  0
SECTION
  2
TABLES
  0
TABLE
  2
VPORT
  5
7
100
AcDbSymbolTable
 70
               1
  0
VPORT
  5
15
100
AcDbSymbolTableRecord
100
AcDbViewportTableRecord
  2
*ACTIVE
 70
               0
 10
0.0
 20
0.0
 11
1.0
 21
1.0
 12
-0.0000000002410161
 22
-0.0000000000700311
 13
0.0
 23
0.0
 14
1.0
 24
1.0
 15
0.0
 25
0.0
 16
0.0
 26
0.0
 36
1.0
 17
0.0
 27
0.0
 37
0.0
 40
2837.5228151124124
 41
0.688564
 42
50.0
 43
0.0
 44
0.0
 50
0.0
 51
0.0
 71
               0
 72
            2000
 73
               1
 74
               1
 75
               0
 76
               0
 77
               0
 78
               0
281
               0
 65
               0
110
0.0
120
0.0
130
0.0
111
1.0
121
0.0
131
0.0
112
0.0
122
1.0
132
0.0
345
0
346
0
 79
               0
146
0.0
  0
ENDTAB
  0
TABLE
  2
LTYPE
  5
4
100
AcDbSymbolTable
 70
              15
  0
LTYPE
  5
11
100
AcDbSymbolTableRecord
100
AcDbLinetypeTableRecord
  2
ByBlock
 70
              64
  3

 72
              65
 73
               0
 40
0.0
  0
LTYPE
  5
12
100
AcDbSymbolTableRecord
100
AcDbLinetypeTableRecord
  2
ByLayer
 70
              64
  3

 72
              65
 73
               0
 40
0.0
  0
LTYPE
  5
13
100
AcDbSymbolTableRecord
100
AcDbLinetypeTableRecord
  2
Continuous
 70
              64
  3
Solid line
 72
              65
 73
               0
 40
0.0
  0
LTYPE
  5
36
100
AcDbSymbolTableRecord
100
AcDbLinetypeTableRecord
  2
STYLE_01
 70
               0
  3

 72
              65
 73
               2
 40
9.375
 49
6.25
 74
               0
 49
-3.125
 74
               0
  0
LTYPE
  5
37
100
AcDbSymbolTableRecord
100
AcDbLinetypeTableRecord
  2
STYLE_02
 70
               0
  3

 72
              65
 73
               4
 40
0.984251968503937
 49
0.4921259842519685
 74
               0
 49
-0.2460629921259843
 74
               0
 49
0.0004999999999999
 74
               0
 49
-0.2455629921259843
 74
               0
  0
LTYPE
  5
38
100
AcDbSymbolTableRecord
100
AcDbLinetypeTableRecord
  2
STYLE_03
 70
               0
  3

 72
              65
 73
               2
 40
1.25
 49
1.0416400000000001
 74
               0
 49
-0.2083599999999999
 74
               0
  0
LTYPE
  5
39
100
AcDbSymbolTableRecord
100
AcDbLinetypeTableRecord
  2
STYLE_04
 70
               0
  3

 72
              65
 73
               2
 40
1.5277099999999999
 49
1.3194249999999998
 74
               0
 49
-0.208285
 74
               0
  0
LTYPE
  5
3A
100
AcDbSymbolTableRecord
100
AcDbLinetypeTableRecord
  2
STYLE_05
 70
               0
  3

 72
              65
 73
               2
 40
0.20828
 49
0.069425
 74
               0
 49
-0.138855
 74
               0
  0
LTYPE
  5
3B
100
AcDbSymbolTableRecord
100
AcDbLinetypeTableRecord
  2
STYLE_06
 70
               0
  3

 72
              65
 73
               4
 40
1.0416400000000001
 49
0.625
 74
               0
 49
-0.20828
 74
               0
 49
0.06943
 74
               0
 49
-0.13893
 74
               0
  0
LTYPE
  5
3C
100
AcDbSymbolTableRecord
100
AcDbLinetypeTableRecord
  2
STYLE_07
 70
               0
  3

 72
              65
 73
               6
 40
1.875
 49
0.625
 74
               0
 49
-0.20828
 74
               0
 49
0.6250000000000001
 74
               0
 49
-0.2083599999999999
 74
               0
 49
0.06943
 74
               0
 49
-0.1389299999999999
 74
               0
  0
LTYPE
  5
3D
100
AcDbSymbolTableRecord
100
AcDbLinetypeTableRecord
  2
STYLE_08
 70
               0
  3

 72
              65
 73
               6
 40
1.25
 49
0.625
 74
               0
 49
-0.20828
 74
               0
 49
0.06943
 74
               0
 49
-0.13893
 74
               0
 49
0.0694299999999999
 74
               0
 49
-0.13893
 74
               0
  0
LTYPE
  5
3E
100
AcDbSymbolTableRecord
100
AcDbLinetypeTableRecord
  2
STYLE_09
 70
               0
  3

 72
              65
 73
               4
 40
5.0
 49
3.75
 74
               0
 49
-0.2777849999999998
 74
               0
 49
0.6944300000000003
 74
               0
 49
-0.2777849999999998
 74
               0
  0
LTYPE
  5
3F
100
AcDbSymbolTableRecord
100
AcDbLinetypeTableRecord
  2
STYLE_10
 70
               0
  3

 72
              65
 73
               6
 40
5.9375
 49
3.75
 74
               0
 49
-0.2777849999999998
 74
               0
 49
0.6944300000000003
 74
               0
 49
-0.2777849999999998
 74
               0
 49
0.625
 74
               0
 49
-0.3125
 74
               0
  0
LTYPE
  5
40
100
AcDbSymbolTableRecord
100
AcDbLinetypeTableRecord
  2
STYLE_11
 70
               0
  3

 72
              65
 73
               2
 40
0.0694444881889764
 49
0.0347222440944882
 74
               0
 49
-0.0347222440944882
 74
               0
  0
LTYPE
  5
41
100
AcDbSymbolTableRecord
100
AcDbLinetypeTableRecord
  2
STYLE_12
 70
               0
  3

 72
              65
 73
               2
 40
0.3937007874015748
 49
0.1968503937007874
 74
               0
 49
-0.1968503937007874
 74
               0
  0
ENDTAB
  0
TABLE
  2
LAYER
  5
2
100
AcDbSymbolTable
 70
               5
  0
LAYER
  5
14
100
AcDbSymbolTableRecord
100
AcDbLayerTableRecord
  2
0
 70
               0
 62
               7
  6
Continuous
290
               1
370
              -3
390
1D
  0
LAYER
  5
42
100
AcDbSymbolTableRecord
100
AcDbLayerTableRecord
  2
Defpoints
 70
               0
 62
               7
  6
Continuous
290
               0
370
              -3
390
1D
  0
LAYER
  5
43
100
AcDbSymbolTableRecord
100
AcDbLayerTableRecord
  2
template
 70
               0
 62
               7
  6
Continuous
290
               1
370
              -3
390
1D
  0
LAYER
  5
44
100
AcDbSymbolTableRecord
100
AcDbLayerTableRecord
  2
notes
 70
               0
 62
               7
  6
Continuous
290
               1
370
              -3
390
1D
  0
LAYER
  5
45
100
AcDbSymbolTableRecord
100
AcDbLayerTableRecord
  2
ADF70-1207
 70
               0
 62
               7
  6
Continuous
290
               1
370
              -3
390
1D
  0
ENDTAB
  0
TABLE
  2
STYLE
  5
3
100
AcDbSymbolTable
 70
               3
  0
STYLE
  5
17
100
AcDbSymbolTableRecord
100
AcDbTextStyleTableRecord
  2
Standard
 70
               0
 40
0.0
 41
1.0
 50
0.0
 71
               0
 42
0.0
  3
txt
  4
BIGFONT.SHX
  0
STYLE
  5
34
100
AcDbSymbolTableRecord
100
AcDbTextStyleTableRecord
  2
MS UI Gothic
 70
               0
 40
0.0
 41
1.0
 50
0.0
 71
               0
 42
0.0
  3

  4
MS UI Gothic
1001
ACAD
1000
MS UI Gothic
1071
        0
  0
STYLE
  5
35
100
AcDbSymbolTableRecord
100
AcDbTextStyleTableRecord
  2
ＭＳ ゴシック
 70
               0
 40
0.0
 41
1.0
 50
0.0
 71
               0
 42
0.0
  3

  4
ＭＳ ゴシック
1001
ACAD
1000
ＭＳ ゴシック
1071
        0
  0
ENDTAB
  0
TABLE
  2
VIEW
  5
5
100
AcDbSymbolTable
 70
               0
  0
ENDTAB
  0
TABLE
  2
UCS
  5
6
100
AcDbSymbolTable
 70
               0
  0
ENDTAB
  0
TABLE
  2
APPID
  5
8
100
AcDbSymbolTable
 70
               1
  0
APPID
  5
16
100
AcDbSymbolTableRecord
100
AcDbRegAppTableRecord
  2
ACAD
 70
               0
  0
ENDTAB
  0
TABLE
  2
DIMSTYLE
  5
9
100
AcDbSymbolTable
 70
               3
100
AcDbDimStyleTable
 71
               0
  0
DIMSTYLE
105
18
100
AcDbSymbolTableRecord
100
AcDbDimStyleTableRecord
  2
Standard
 70
               0
  3

  4

 40
1.0
 41
0.18
 42
0.0625
 43
0.38
 44
0.18
 45
0.0
 46
0.0
 47
0.0
 48
0.0
 71
               0
 72
               0
 73
               1
 74
               1
 75
               0
 76
               0
 77
               0
 78
               0
 79
               0
140
0.18
141
0.09
142
0.0
143
25.399999999999999
144
1.0
145
0.0
146
1.0
147
0.09
148
0.0
170
               0
171
               2
172
               0
173
               0
174
               0
175
               0
176
               0
177
               0
178
               0
179
               0
271
               4
272
               4
273
               2
274
               2
275
               0
276
               0
277
               2
278
              46
279
               0
280
               0
281
               0
282
               0
283
               1
284
               0
285
               0
286
               0
288
               0
289
               3
340
17
341
0
342
0
343
0
344
0
371
              -2
372
              -2
  0
DIMSTYLE
105
4E
100
AcDbSymbolTableRecord
100
AcDbDimStyleTableRecord
  2
tform線あり
 70
               0
  3
<>
  4
[]
 40
1.0
 41
9.9993896484374982
 42
24.999999999999996
 43
0.9999999999999999
 44
0.0
 45
0.0
 46
0.0
 47
0.0
 48
0.0
 71
               0
 72
               0
 73
               0
 74
               0
 75
               0
 76
               0
 77
               1
 78
              11
 79
               0
140
21.828125
141
0.0
142
0.0
143
1.0
144
1.0
145
0.0
146
1.0
147
0.4999999999999999
148
0.0
170
               0
171
               1
172
               0
173
               0
174
               1
175
               0
176
               0
177
               0
178
               0
179
               2
271
               1
272
               1
273
               2
274
               2
275
               0
276
               2
277
               2
278
              46
279
               0
280
               0
281
               0
282
               0
283
               1
284
              11
285
              11
286
              11
288
               0
289
               0
340
34
341
46
342
46
343
0
344
0
371
              -2
372
              -2
  0
DIMSTYLE
105
53
100
AcDbSymbolTableRecord
100
AcDbDimStyleTableRecord
  2
JIS
 70
               0
  3
<>
  4
[]
 40
1.0
 41
31.75
 42
0.0
 43
6.9999999999999396
 44
19.999999999996199
 45
0.0
 46
0.0
 47
0.0
 48
0.0
 71
               0
 72
               0
 73
               0
 74
               0
 75
               0
 76
               0
 77
               1
 78
              11
 79
               0
140
21.828125
141
0.0
142
0.0
143
1.0
144
1.0
145
0.0
146
1.0
147
1.00000000000108
148
0.0
170
               0
171
               1
172
               0
173
               0
174
               1
175
               0
176
               0
177
               0
178
               0
179
               2
271
               1
272
               1
273
               2
274
               2
275
               0
276
               2
277
               2
278
              46
279
               0
280
               0
281
               0
282
               0
283
               1
284
              11
285
              11
286
              11
288
               0
289
               0
340
34
341
4F
342
4F
343
0
344
0
371
              -2
372
              -2
  0
ENDTAB
  0
TABLE
  2
BLOCK_RECORD
  5
1
100
AcDbSymbolTable
 70
              19
  0
BLOCK_RECORD
  5
A
100
AcDbSymbolTableRecord
100
AcDbBlockTableRecord
  2
*MODEL_SPACE
340
20
  0
BLOCK_RECORD
  5
B
100
AcDbSymbolTableRecord
100
AcDbBlockTableRecord
  2
*PAPER_SPACE
340
21
  0
BLOCK_RECORD
  5
46
100
AcDbSymbolTableRecord
100
AcDbBlockTableRecord
  2
_DOT
340
0
  0
BLOCK_RECORD
  5
4F
100
AcDbSymbolTableRecord
100
AcDbBlockTableRecord
  2
VW_FILLEDARROW
340
0
  0
BLOCK_RECORD
  5
23
100
AcDbSymbolTableRecord
100
AcDbBlockTableRecord
  2
グループ
340
0
102
{BLKREFS
331
136
102
}
  0
BLOCK_RECORD
  5
24
100
AcDbSymbolTableRecord
100
AcDbBlockTableRecord
  2
*D3
340
0
  0
BLOCK_RECORD
  5
25
100
AcDbSymbolTableRecord
100
AcDbBlockTableRecord
  2
*D4
340
0
  0
BLOCK_RECORD
  5
26
100
AcDbSymbolTableRecord
100
AcDbBlockTableRecord
  2
*D5
340
0
  0
BLOCK_RECORD
  5
27
100
AcDbSymbolTableRecord
100
AcDbBlockTableRecord
  2
*D6
340
0
  0
BLOCK_RECORD
  5
28
100
AcDbSymbolTableRecord
100
AcDbBlockTableRecord
  2
*D7
340
0
  0
BLOCK_RECORD
  5
29
100
AcDbSymbolTableRecord
100
AcDbBlockTableRecord
  2
*D8
340
0
  0
BLOCK_RECORD
  5
2A
100
AcDbSymbolTableRecord
100
AcDbBlockTableRecord
  2
*D9
340
0
  0
BLOCK_RECORD
  5
2B
100
AcDbSymbolTableRecord
100
AcDbBlockTableRecord
  2
*D10
340
0
  0
BLOCK_RECORD
  5
2C
100
AcDbSymbolTableRecord
100
AcDbBlockTableRecord
  2
*D11
340
0
  0
BLOCK_RECORD
  5
2D
100
AcDbSymbolTableRecord
100
AcDbBlockTableRecord
  2
*D12
340
0
  0
BLOCK_RECORD
  5
2E
100
AcDbSymbolTableRecord
100
AcDbBlockTableRecord
  2
*D13
340
0
  0
BLOCK_RECORD
  5
2F
100
AcDbSymbolTableRecord
100
AcDbBlockTableRecord
  2
*D14
340
0
  0
BLOCK_RECORD
  5
30
100
AcDbSymbolTableRecord
100
AcDbBlockTableRecord
  2
*D15
340
0
  0
BLOCK_RECORD
  5
31
100
AcDbSymbolTableRecord
100
AcDbBlockTableRecord
  2
*D16
340
0
  0
BLOCK_RECORD
  5
32
100
AcDbSymbolTableRecord
100
AcDbBlockTableRecord
  2
*D17
340
0
  0
BLOCK_RECORD
  5
33
100
AcDbSymbolTableRecord
100
AcDbBlockTableRecord
  2
*D18
340
0
  0
ENDTAB
  0
ENDSEC
  0
SECTION
  2
BLOCKS
  0
BLOCK
  5
D
100
AcDbEntity
  8
0
390
0
100
AcDbBlockBegin
  2
*MODEL_SPACE
 70
               0
 10
0.0
 20
0.0
 30
0.0
  3
*MODEL_SPACE
  1

  0
ENDBLK
  5
E
100
AcDbEntity
  8
0
390
0
100
AcDbBlockEnd
  0
BLOCK
  5
F
100
AcDbEntity
 67
               1
  8
0
390
0
100
AcDbBlockBegin
  2
*PAPER_SPACE
 70
               0
 10
0.0
 20
0.0
 30
0.0
  3
*PAPER_SPACE
  1

  0
ENDBLK
  5
10
100
AcDbEntity
 67
               1
  8
0
390
0
100
AcDbBlockEnd
  0
BLOCK
  5
47
100
AcDbEntity
  8
0
390
0
100
AcDbBlockBegin
  2
_DOT
 70
               0
 10
0.0
 20
0.0
 30
0.0
  3
_DOT
  1

  0
POLYLINE
  5
48
100
AcDbEntity
  8
0
370
              -2
390
0
  6
ByBlock
 62
               0
100
AcDb2dPolyline
 66
               1
 10
0.0
 20
0.0
 30
0.0
 70
               1
 40
0.5
 41
0.5
  0
VERTEX
  5
49
100
AcDbEntity
  8
0
370
              -2
390
0
  6
ByBlock
 62
               0
100
AcDbVertex
100
AcDb2dVertex
 10
-0.25
 20
0.0
 30
0.0
 42
1.0
  0
VERTEX
  5
4A
100
AcDbEntity
  8
0
370
              -2
390
0
  6
ByBlock
 62
               0
100
AcDbVertex
100
AcDb2dVertex
 10
0.25
 20
0.0
 30
0.0
 42
1.0
  0
SEQEND
  5
4B
100
AcDbEntity
  8
0
390
0
  0
LINE
  5
4C
100
AcDbEntity
  8
0
370
              -2
390
0
  6
ByBlock
 62
               0
100
AcDbLine
 10
-0.5
 20
0.0
 30
0.0
 11
-1.0
 21
0.0
 31
0.0
  0
ENDBLK
  5
4D
100
AcDbEntity
  8
0
390
0
100
AcDbBlockEnd
  0
BLOCK
  5
50
100
AcDbEntity
  8
0
370
              -2
390
0
  6
ByBlock
 62
               0
100
AcDbBlockBegin
  2
VW_FILLEDARROW
 70
               0
 10
0.0
 20
0.0
 30
0.0
  3
VW_FILLEDARROW
  1

  0
SOLID
  5
51
100
AcDbEntity
  8
0
370
              -2
390
0
 62
               0
100
AcDbTrace
 10
0.0
 20
0.0
 30
0.0
 11
-0.9921874999999999
 21
-0.2658558393652545
 31
0.0
 12
-0.9921874999999999
 22
0.2658558393652548
 32
0.0
 13
-0.9921874999999999
 23
0.2658558393652548
 33
0.0
  0
ENDBLK
  5
52
100
AcDbEntity
  8
0
390
0
100
AcDbBlockEnd
  0
BLOCK
  5
54
100
AcDbEntity
  8
template
390
0
100
AcDbBlockBegin
  2
グループ
 70
               0
 10
0.0
 20
0.0
 30
0.0
  3
グループ
  1

  0
LWPOLYLINE
  5
55
100
AcDbEntity
  8
0
370
              15
390
0
  6
Continuous
 62
               7
100
AcDbPolyline
 90
        8
 70
             129
 10
-881.66826932234108
 20
-740.87042185701853
 10
-881.66826932234108
 20
-746.86781055059441
 10
-891.16946624034426
 20
-746.86781055059441
 10
-891.16946624034426
 20
-771.31877381410322
 10
-899.52484350212717
 20
-771.31877381410322
 10
-899.52484350212717
 20
-746.86781055059441
 10
-908.85780044843659
 20
-746.86781055059441
 10
-908.85780044843659
 20
-740.87042185701853
  0
LWPOLYLINE
  5
56
100
AcDbEntity
  8
0
370
              15
390
0
  6
Continuous
 62
               7
100
AcDbPolyline
 90
      101
 70
             128
 10
-868.93997749178425
 20
-741.598670349955
 10
-868.92462746299998
 20
-741.59430959327017
 42
-0.0222221607814721
 10
-868.63462288632809
 20
-741.52568512802532
 10
-868.61882912233432
 20
-741.52268170492835
 42
-0.0146883565587814
 10
-868.35612641711032
 20
-741.48067851797896
 42
-0.0127458844184257
 10
-868.09148744995684
 20
-741.45314154990638
 10
-868.02903237164446
 20
-741.44824812731827
 42
-0.019809901856683
 10
-867.63818326217279
 20
-741.43316296992157
 10
-867.58637179272387
 20
-741.43321674558672
 42
-0.0147617382762183
 10
-867.09174833174814
 20
-741.4483367708317
 10
-867.01905687687156
 20
-741.45270937771954
 42
-0.016262454900331
 10
-866.62890324741011
 20
-741.48894225299159
 10
-866.5073708561514
 20
-741.50422881198813
 42
-0.0080020874666848
 10
-866.36179182505953
 20
-741.52491165925653
 10
-866.32347235446787
 20
-741.53098293706705
 42
-0.0053821929672502
 10
-866.25498824914939
 20
-741.54259046088919
 10
-866.98139394834789
 20
-743.7235189166031
 42
0.010866775739695
 10
-867.04871101848209
 20
-743.71033180138272
 10
-867.08617904166863
 20
-743.70383405878874
 42
0.0170663203307161
 10
-867.2293958285851
 20
-743.68400446149678
 10
-867.29727116126696
 20
-743.67695729090951
 42
0.0220162375274646
 10
-867.57765056912092
 20
-743.66027493013939
 10
-867.65550613617404
 20
-743.65907556287289
 42
0.0282606915784844
 10
-867.99114245975238
 20
-743.67287883984193
 10
-868.0350557335247
 20
-743.67717882984562
 42
0.0169677213687672
 10
-868.28098022848349
 20
-743.70971587939755
 42
0.0190576269867445
 10
-868.5238881910667
 20
-743.75986275150467
 10
-868.53014737917442
 20
-743.76140572561326
 42
0.0213685642844916
 10
-868.78053186365185
 20
-743.83460601071783
 10
-868.78602175856849
 20
-743.83646900677707
 42
0.0237595297595144
 10
-869.03951664346744
 20
-743.93615352867278
 10
-869.04461871749686
 20
-743.93844530415083
 42
0.0261857468816037
 10
-869.29678949372612
 20
-744.06798164152497
 10
-869.30721568281263
 20
-744.07404711599315
 42
0.0272553062018062
 10
-869.54364545805197
 20
-744.22941932193805
 10
-869.57840847156126
 20
-744.25508047003018
 42
0.0325996893173947
 10
-869.72856381521319
 20
-744.38182834300164
 10
-869.7522732443399
 20
-744.40464637151786
 42
0.0138050960644517
 10
-869.84415640054658
 20
-744.49809603306619
 42
0.0125280103803363
 10
-869.93099893337842
 20
-744.59625935966426
 10
-869.95467937828835
 20
-744.62441785785359
 42
0.0205218024734182
 10
-870.07977945380208
 20
-744.78621117208286
 10
-870.10224579428905
 20
-744.8178709019096
 42
0.0163110129585797
 10
-870.25795617354049
 20
-745.05320133698001
 10
-870.26068006959122
 20
-745.05762509896499
 42
0.0131897341891913
 10
-870.40748059049679
 20
-745.31075719132855
 10
-870.4091806858637
 20
-745.31387543046515
 42
0.0107895576067689
 10
-870.54695738807482
 20
-745.58009064010071
 10
-870.54769027759971
 20
-745.58158487274682
 42
0.0091371507217219
 10
-870.6761702262487
 20
-745.85611007050545
 10
-870.70591585765828
 20
-745.92281657766523
 42
0.013541832635158
 10
-870.87762979673073
 20
-746.33775436293615
 10
-870.9112346051636
 20
-746.4256205052136
 42
0.0092834542411432
 10
-871.08246366508502
 20
-746.8995190035206
 10
-871.10808079280002
 20
-746.97476007330636
 42
0.0054261043578921
 10
-871.2157189410957
 20
-747.30252404637906
 10
-871.23324492728523
 20
-747.35791220864735
 42
0.0008225090828994
 10
-871.301914979103
 20
-747.57618096675833
 10
-872.28660411103647
 20
-750.60107226001492
 10
-869.05398027096271
 20
-750.60107226001492
 10
-869.55817270081616
 20
-752.5055505583673
 10
-872.8142289827997
 20
-752.5055505583673
 10
-878.6433780151533
 20
-771.31877362437217
 10
-880.46847562546373
 20
-771.31877362437217
 10
-874.6337975899628
 20
-752.5055505583673
 10
-877.03891395900291
 20
-752.5055505583673
 10
-876.53472152914946
 20
-750.60107226001492
 10
-874.10617271819956
 20
-750.60107226001492
 10
-873.24601780001103
 20
-747.96465925931602
 42
-0.0005863560632748
 10
-873.20928312183401
 20
-747.8478328391094
 10
-873.13319528814691
 20
-747.60684053963882
 42
-0.0087522378928683
 10
-872.93372714469126
 20
-747.01156445249535
 10
-872.84146286927773
 20
-746.75142428398181
 42
-0.0077400953832706
 10
-872.58352921014557
 20
-746.05841960643113
 10
-872.56776423856752
 20
-746.0179887230471
 42
-0.00823699463289
 10
-872.32067976795452
 20
-745.41390965684934
 42
-0.008572523836274
 10
-872.05343367194939
 20
-744.81848361755715
 10
-871.95180407094369
 20
-744.60206251557554
 42
-0.016810941059735
 10
-871.66485964221465
 20
-744.04085498947279
 10
-871.53901625177843
 20
-743.8138909565165
 42
-0.000781772686708
 10
-871.48473190169898
 20
-743.71634671144432
 10
-871.48460359568514
 20
-743.7161170027141
 42
-0.0036626142160837
 10
-871.42971573166051
 20
-743.61951912273935
 42
-0.0080221150674808
 10
-871.372591476254
 20
-743.52423988798682
 10
-871.34189152489262
 20
-743.47484893886428
 42
-0.0202139325571213
 10
-871.21423578508643
 20
-743.28686733818347
 10
-871.16016831989828
 20
-743.21378847394203
 42
-0.0249323791800478
 10
-870.90100552617935
 20
-742.89774323178801
 10
-870.87686571205199
 20
-742.87112895887515
 42
-0.0242132121537701
 10
-870.53718497050966
 20
-742.531245472671
 10
-870.48927339775935
 20
-742.48773633648511
 42
-0.0251017527858593
 10
-870.20529169711858
 20
-742.2547435907203
 10
-870.20384622030542
 20
-742.2536743331417
 42
-0.0130868069038098
 10
-869.90558557034751
 20
-742.04489386459886
 10
-869.90402375120618
 20
-742.04386042432475
 42
-0.0290329526390336
 10
-869.59291260981149
 20
-741.86303492269451
 10
-869.56306704782276
 20
-741.84793253985356
 42
-0.0160250190047611
 10
-869.2971626340609
 20
-741.72391642964169
 42
-0.026760037478273
 10
-869.02188655659245
 20
-741.62316810909317
 10
-868.99515063707122
 20
-741.61497555026745
 42
-0.0049981587670164
 10
-868.93997749178425
 20
-741.598670349955
 42
-0.0049981587670164
  0
LWPOLYLINE
  5
57
100
AcDbEntity
  8
0
370
              15
390
0
  6
Continuous
 62
               7
100
AcDbPolyline
 90
      118
 70
             128
 10
-849.12560992733734
 20
-750.67505558784228
 10
-847.25048800283776
 20
-750.67505558784228
 10
-848.08852690843787
 20
-753.35662211424233
 42
-0.0010587229207621
 10
-848.05707109286061
 20
-753.31971758088105
 10
-847.99887700223371
 20
-753.25173532471126
 42
-0.0071874740409309
 10
-847.84850178413888
 20
-753.08109463268568
 10
-847.70677901087356
 20
-752.92485849136904
 42
-0.0148118053513507
 10
-847.25664971816127
 20
-752.45724464535635
 10
-847.16942738326009
 20
-752.37184732450362
 42
-0.008627335869337
 10
-846.83387858225046
 20
-752.05447169048603
 10
-846.79004486602503
 20
-752.01442204615341
 42
-0.0103138323112057
 10
-846.53202116379111
 20
-751.78825890881467
 10
-846.48624675745918
 20
-751.74977686155046
 42
-0.0060206748567628
 10
-846.31339869335193
 20
-751.60798221080006
 10
-846.31136756247099
 20
-751.60635650517281
 42
-0.0067069027295042
 10
-846.13907474780353
 20
-751.47220587137383
 10
-846.13652598187321
 20
-751.47027570149521
 42
-0.0076184352049579
 10
-845.96562071600601
 20
-751.34490082625473
 42
-0.0089652861667994
 10
-845.79065975326989
 20
-751.22526756592117
 10
-845.75430803312793
 20
-751.20135635244014
 42
-0.0156916245940471
 10
-845.55834853596639
 20
-751.08109386596482
 42
-0.0023299011063528
 10
-845.35808649200601
 20
-750.96791592643478
 10
-845.34270235960662
 20
-750.95931593135924
 42
-0.0107669341487103
 10
-845.10846553450438
 20
-750.83491579800932
 10
-845.08620073343036
 20
-750.82369904805978
 42
-0.0078058045896859
 10
-844.80261061547981
 20
-750.68633759242232
 10
-844.79270352776848
 20
-750.68172846455286
 42
-0.0181829330471391
 10
-844.48239412315286
 20
-750.55086472345715
 10
-844.42833868058608
 20
-750.53034960351374
 42
-0.0208411536030465
 10
-844.07925371313604
 20
-750.41425914102058
 10
-844.06489761300895
 20
-750.41014069606717
 42
-0.022279981713884
 10
-843.73617781909138
 20
-750.33149912992678
 10
-843.72728885585468
 20
-750.32978711934174
 42
-0.0215509523883294
 10
-843.41081788757447
 20
-750.2828714308074
 10
-843.3683359265242
 20
-750.27843390401642
 42
-0.0182545924871196
 10
-843.13422714722014
 20
-750.26259007862564
 10
-843.09482613087607
 20
-750.2613655335465
 42
-0.0072962856533287
 10
-842.93890325118332
 20
-750.25879620502428
 10
-842.9098035806137
 20
-750.25874136962057
 42
-0.0059227516315933
 10
-842.81205408146639
 20
-750.25971508141095
 10
-842.78281186397146
 20
-750.2603528480148
 42
-0.001183311190936
 10
-842.74356058026206
 20
-750.26130185232432
 10
-843.53894717586945
 20
-752.80003579742333
 42
0.0143932051588523
 10
-843.56534855821701
 20
-752.78983682737908
 10
-843.5726205306371
 20
-752.78726560852067
 42
0.023438860350702
 10
-843.61445139657155
 20
-752.7746463728048
 10
-843.62313305948192
 20
-752.77246541080035
 42
0.0199162742986509
 10
-843.68342189356008
 20
-752.75984867546561
 10
-843.70423583136812
 20
-752.7563514760368
 42
0.0293643550668068
 10
-843.80731069012768
 20
-752.74520143038364
 10
-843.83199587084755
 20
-752.74398981336503
 42
0.0214606686867711
 10
-843.98513678680001
 20
-752.74305125294757
 10
-843.9945086976179
 20
-752.74339616449186
 42
0.0167564054181223
 10
-844.16602888872717
 20
-752.75547320685996
 10
-844.1744886814854
 20
-752.75635454728706
 42
0.0137677553243787
 10
-844.36184199475133
 20
-752.78110385583068
 10
-844.36919373425803
 20
-752.78228177579854
 42
0.0118497261486402
 10
-844.56969149836061
 20
-752.81929912598787
 10
-844.5758415056066
 20
-752.82058598870776
 42
0.0106421143889281
 10
-844.78672239289563
 20
-752.86941836428355
 10
-844.79163120128055
 20
-752.87066570696766
 42
0.0099746379702382
 10
-845.01008967044118
 20
-752.93084023528183
 10
-845.07163771061346
 20
-752.94912211391306
 42
0.0191613675863076
 10
-845.40762217313147
 20
-753.06309949420097
 10
-845.49568194587448
 20
-753.09678640452398
 42
0.0205274080143759
 10
-845.88098871777515
 20
-753.26261481235065
 10
-845.93863799975577
 20
-753.29028277692237
 42
0.0181256912193534
 10
-846.19691494042422
 20
-753.42596659590083
 10
-846.24987032373974
 20
-753.45628420911646
 42
0.0140709242413326
 10
-846.39482525836661
 20
-753.54477888254996
 10
-846.42107412698044
 20
-753.56183570126234
 42
0.0086667884389412
 10
-846.51000028852764
 20
-753.62183836914824
 42
0.0036408192024162
 10
-846.59743352656164
 20
-753.68401922694102
 10
-846.63266040102963
 20
-753.70946017285337
 42
0.0052260781278974
 10
-846.78888909842567
 20
-753.82479255949147
 10
-846.80509595468016
 20
-753.83702067010574
 42
0.0050024435891283
 10
-846.99109929773385
 20
-753.98030323836383
 10
-847.00641745425423
 20
-753.99234926081374
 42
0.0136138710281784
 10
-847.21685872257899
 20
-754.16731576572658
 10
-847.2505265983732
 20
-754.1968947384413
 42
0.017281518691602
 10
-847.51493014003518
 20
-754.44589141106439
 10
-847.51749248587817
 20
-754.4484772282118
 42
0.0189403857991866
 10
-847.76807428445602
 20
-754.72128249301477
 10
-847.80070577799336
 20
-754.75962642451361
 42
0.0185044199502234
 10
-847.99266221697326
 20
-755.00287500563616
 42
0.0088565243903755
 10
-848.17112232360046
 20
-755.25639142578427
 10
-848.18030030325031
 20
-755.2699328055462
 42
0.0157195347227197
 10
-848.36352090958542
 20
-755.5594550148636
 10
-848.40960385151448
 20
-755.63760721188135
 42
0.0095451879784717
 10
-848.5746894016529
 20
-755.93020185423927
 10
-848.58583732058321
 20
-755.95087252637245
 42
0.0100351706255272
 10
-848.71788106974168
 20
-756.20792808686201
 42
0.00869359154236
 10
-848.84021222153774
 20
-756.46976123227125
 10
-848.84353296295012
 20
-756.47720355523825
 42
0.007258017486316
 10
-848.96387941489468
 20
-756.75779554681992
 10
-848.96714104820148
 20
-756.76571557283921
 42
0.0060005122615709
 10
-849.08634171655001
 20
-757.06532524345926
 10
-849.08955269488592
 20
-757.07368677134912
 42
0.0049017786984335
 10
-849.20845285374446
 20
-757.39261575195655
 10
-849.21161866013381
 20
-757.40136868918387
 42
0.0039415167602706
 10
-849.3310549381913
 20
-757.73991075159984
 10
-849.3341860408425
 20
-757.74901395247321
 42
0.0031035838764539
 10
-849.45499082653748
 20
-758.10745381425284
 10
-849.45810087106588
 20
-758.11687443562153
 42
0.0025070747152929
 10
-849.58100222237954
 20
-758.49552165256011
 10
-849.61829611880671
 20
-758.61241331781844
 42
0.002908191028357
 10
-849.81031441662162
 20
-759.22657697612249
 10
-849.85111758513472
 20
-759.359800218386
 42
0.0009266453733838
 10
-850.11953495943737
 20
-760.24202467826922
 10
-850.14042243211316
 20
-760.31113655762169
 42
-0.0005809993664039
 10
-850.4177591126811
 20
-761.22494466418436
 10
-850.48404091095949
 20
-761.4424295963621
 42
-0.0012018708169764
 10
-850.63102522038321
 20
-761.92059226086474
 10
-850.68334507198938
 20
-762.08935140186122
 42
-0.0002691059602783
 10
-850.72691455311724
 20
-762.22961902207248
 10
-853.55987045140637
 20
-771.31877362437217
 10
-855.3778593433849
 20
-771.31877362437217
 10
-849.12560992733734
 20
-750.67505558784228
  0
SPLINE
  5
58
100
AcDbEntity
  8
0
370
              15
390
0
  6
Continuous
 62
               7
100
AcDbSpline
210
0.0
220
0.0
230
1.0
 70
              13
 71
               2
 72
             782
 73
             779
 74
               0
 42
0.000001
 43
0.000001
 40
0.0
 40
0.0
 40
0.0
 40
1.0
 40
1.0
 40
2.0
 40
2.0
 40
3.0
 40
3.0
 40
4.0
 40
4.0
 40
5.0
 40
5.0
 40
6.0
 40
6.0
 40
7.0
 40
7.0
 40
8.0
 40
8.0
 40
9.0
 40
9.0
 40
10.0
 40
10.0
 40
11.0
 40
11.0
 40
12.0
 40
12.0
 40
13.0
 40
13.0
 40
14.0
 40
14.0
 40
15.0
 40
15.0
 40
16.0
 40
16.0
 40
17.0
 40
17.0
 40
18.0
 40
18.0
 40
19.0
 40
19.0
 40
20.0
 40
20.0
 40
21.0
 40
21.0
 40
22.0
 40
22.0
 40
23.0
 40
23.0
 40
24.0
 40
24.0
 40
25.0
 40
25.0
 40
26.0
 40
26.0
 40
27.0
 40
27.0
 40
28.0
 40
28.0
 40
29.0
 40
29.0
 40
30.0
 40
30.0
 40
31.0
 40
31.0
 40
32.0
 40
32.0
 40
33.0
 40
33.0
 40
34.0
 40
34.0
 40
35.0
 40
35.0
 40
36.0
 40
36.0
 40
37.0
 40
37.0
 40
38.0
 40
38.0
 40
39.0
 40
39.0
 40
40.0
 40
40.0
 40
41.0
 40
41.0
 40
42.0
 40
42.0
 40
43.0
 40
43.0
 40
44.0
 40
44.0
 40
45.0
 40
45.0
 40
46.0
 40
46.0
 40
47.0
 40
47.0
 40
48.0
 40
48.0
 40
49.0
 40
49.0
 40
50.0
 40
50.0
 40
51.0
 40
51.0
 40
52.0
 40
52.0
 40
53.0
 40
53.0
 40
54.0
 40
54.0
 40
55.0
 40
55.0
 40
56.0
 40
56.0
 40
57.0
 40
57.0
 40
58.0
 40
58.0
 40
59.0
 40
59.0
 40
60.0
 40
60.0
 40
61.0
 40
61.0
 40
62.0
 40
62.0
 40
63.0
 40
63.0
 40
64.0
 40
64.0
 40
65.0
 40
65.0
 40
66.0
 40
66.0
 40
67.0
 40
67.0
 40
68.0
 40
68.0
 40
69.0
 40
69.0
 40
70.0
 40
70.0
 40
71.0
 40
71.0
 40
72.0
 40
72.0
 40
73.0
 40
73.0
 40
74.0
 40
74.0
 40
75.0
 40
75.0
 40
76.0
 40
76.0
 40
77.0
 40
77.0
 40
78.0
 40
78.0
 40
79.0
 40
79.0
 40
80.0
 40
80.0
 40
81.0
 40
81.0
 40
82.0
 40
82.0
 40
83.0
 40
83.0
 40
84.0
 40
84.0
 40
85.0
 40
85.0
 40
86.0
 40
86.0
 40
87.0
 40
87.0
 40
88.0
 40
88.0
 40
89.0
 40
89.0
 40
90.0
 40
90.0
 40
91.0
 40
91.0
 40
92.0
 40
92.0
 40
93.0
 40
93.0
 40
94.0
 40
94.0
 40
95.0
 40
95.0
 40
96.0
 40
96.0
 40
97.0
 40
97.0
 40
98.0
 40
98.0
 40
99.0
 40
99.0
 40
100.0
 40
100.0
 40
101.0
 40
101.0
 40
102.0
 40
102.0
 40
103.0
 40
103.0
 40
104.0
 40
104.0
 40
105.0
 40
105.0
 40
106.0
 40
106.0
 40
107.0
 40
107.0
 40
108.0
 40
108.0
 40
109.0
 40
109.0
 40
110.0
 40
110.0
 40
111.0
 40
111.0
 40
112.0
 40
112.0
 40
113.0
 40
113.0
 40
114.0
 40
114.0
 40
115.0
 40
115.0
 40
116.0
 40
116.0
 40
117.0
 40
117.0
 40
118.0
 40
118.0
 40
119.0
 40
119.0
 40
120.0
 40
120.0
 40
121.0
 40
121.0
 40
122.0
 40
122.0
 40
123.0
 40
123.0
 40
124.0
 40
124.0
 40
125.0
 40
125.0
 40
126.0
 40
126.0
 40
127.0
 40
127.0
 40
128.0
 40
128.0
 40
129.0
 40
129.0
 40
130.0
 40
130.0
 40
131.0
 40
131.0
 40
132.0
 40
132.0
 40
133.0
 40
133.0
 40
134.0
 40
134.0
 40
135.0
 40
135.0
 40
136.0
 40
136.0
 40
137.0
 40
137.0
 40
138.0
 40
138.0
 40
139.0
 40
139.0
 40
140.0
 40
140.0
 40
141.0
 40
141.0
 40
142.0
 40
142.0
 40
143.0
 40
143.0
 40
144.0
 40
144.0
 40
145.0
 40
145.0
 40
146.0
 40
146.0
 40
147.0
 40
147.0
 40
148.0
 40
148.0
 40
149.0
 40
149.0
 40
150.0
 40
150.0
 40
151.0
 40
151.0
 40
152.0
 40
152.0
 40
153.0
 40
153.0
 40
154.0
 40
154.0
 40
155.0
 40
155.0
 40
156.0
 40
156.0
 40
157.0
 40
157.0
 40
158.0
 40
158.0
 40
159.0
 40
159.0
 40
160.0
 40
160.0
 40
161.0
 40
161.0
 40
162.0
 40
162.0
 40
163.0
 40
163.0
 40
164.0
 40
164.0
 40
165.0
 40
165.0
 40
166.0
 40
166.0
 40
167.0
 40
167.0
 40
168.0
 40
168.0
 40
169.0
 40
169.0
 40
170.0
 40
170.0
 40
171.0
 40
171.0
 40
172.0
 40
172.0
 40
173.0
 40
173.0
 40
174.0
 40
174.0
 40
175.0
 40
175.0
 40
176.0
 40
176.0
 40
177.0
 40
177.0
 40
178.0
 40
178.0
 40
179.0
 40
179.0
 40
180.0
 40
180.0
 40
181.0
 40
181.0
 40
182.0
 40
182.0
 40
183.0
 40
183.0
 40
184.0
 40
184.0
 40
185.0
 40
185.0
 40
186.0
 40
186.0
 40
187.0
 40
187.0
 40
188.0
 40
188.0
 40
189.0
 40
189.0
 40
190.0
 40
190.0
 40
191.0
 40
191.0
 40
192.0
 40
192.0
 40
193.0
 40
193.0
 40
194.0
 40
194.0
 40
195.0
 40
195.0
 40
196.0
 40
196.0
 40
197.0
 40
197.0
 40
198.0
 40
198.0
 40
199.0
 40
199.0
 40
200.0
 40
200.0
 40
201.0
 40
201.0
 40
202.0
 40
202.0
 40
203.0
 40
203.0
 40
204.0
 40
204.0
 40
205.0
 40
205.0
 40
206.0
 40
206.0
 40
207.0
 40
207.0
 40
208.0
 40
208.0
 40
209.0
 40
209.0
 40
210.0
 40
210.0
 40
211.0
 40
211.0
 40
212.0
 40
212.0
 40
213.0
 40
213.0
 40
214.0
 40
214.0
 40
215.0
 40
215.0
 40
216.0
 40
216.0
 40
217.0
 40
217.0
 40
218.0
 40
218.0
 40
219.0
 40
219.0
 40
220.0
 40
220.0
 40
221.0
 40
221.0
 40
222.0
 40
222.0
 40
223.0
 40
223.0
 40
224.0
 40
224.0
 40
225.0
 40
225.0
 40
226.0
 40
226.0
 40
227.0
 40
227.0
 40
228.0
 40
228.0
 40
229.0
 40
229.0
 40
230.0
 40
230.0
 40
231.0
 40
231.0
 40
232.0
 40
232.0
 40
233.0
 40
233.0
 40
234.0
 40
234.0
 40
235.0
 40
235.0
 40
236.0
 40
236.0
 40
237.0
 40
237.0
 40
238.0
 40
238.0
 40
239.0
 40
239.0
 40
240.0
 40
240.0
 40
241.0
 40
241.0
 40
242.0
 40
242.0
 40
243.0
 40
243.0
 40
244.0
 40
244.0
 40
245.0
 40
245.0
 40
246.0
 40
246.0
 40
247.0
 40
247.0
 40
248.0
 40
248.0
 40
249.0
 40
249.0
 40
250.0
 40
250.0
 40
251.0
 40
251.0
 40
252.0
 40
252.0
 40
253.0
 40
253.0
 40
254.0
 40
254.0
 40
255.0
 40
255.0
 40
256.0
 40
256.0
 40
257.0
 40
257.0
 40
258.0
 40
258.0
 40
259.0
 40
259.0
 40
260.0
 40
260.0
 40
261.0
 40
261.0
 40
262.0
 40
262.0
 40
263.0
 40
263.0
 40
264.0
 40
264.0
 40
265.0
 40
265.0
 40
266.0
 40
266.0
 40
267.0
 40
267.0
 40
268.0
 40
268.0
 40
269.0
 40
269.0
 40
270.0
 40
270.0
 40
271.0
 40
271.0
 40
272.0
 40
272.0
 40
273.0
 40
273.0
 40
274.0
 40
274.0
 40
275.0
 40
275.0
 40
276.0
 40
276.0
 40
277.0
 40
277.0
 40
278.0
 40
278.0
 40
279.0
 40
279.0
 40
280.0
 40
280.0
 40
281.0
 40
281.0
 40
282.0
 40
282.0
 40
283.0
 40
283.0
 40
284.0
 40
284.0
 40
285.0
 40
285.0
 40
286.0
 40
286.0
 40
287.0
 40
287.0
 40
288.0
 40
288.0
 40
289.0
 40
289.0
 40
290.0
 40
290.0
 40
291.0
 40
291.0
 40
292.0
 40
292.0
 40
293.0
 40
293.0
 40
294.0
 40
294.0
 40
295.0
 40
295.0
 40
296.0
 40
296.0
 40
297.0
 40
297.0
 40
298.0
 40
298.0
 40
299.0
 40
299.0
 40
300.0
 40
300.0
 40
301.0
 40
301.0
 40
302.0
 40
302.0
 40
303.0
 40
303.0
 40
304.0
 40
304.0
 40
305.0
 40
305.0
 40
306.0
 40
306.0
 40
307.0
 40
307.0
 40
308.0
 40
308.0
 40
309.0
 40
309.0
 40
310.0
 40
310.0
 40
311.0
 40
311.0
 40
312.0
 40
312.0
 40
313.0
 40
313.0
 40
314.0
 40
314.0
 40
315.0
 40
315.0
 40
316.0
 40
316.0
 40
317.0
 40
317.0
 40
318.0
 40
318.0
 40
319.0
 40
319.0
 40
320.0
 40
320.0
 40
321.0
 40
321.0
 40
322.0
 40
322.0
 40
323.0
 40
323.0
 40
324.0
 40
324.0
 40
325.0
 40
325.0
 40
326.0
 40
326.0
 40
327.0
 40
327.0
 40
328.0
 40
328.0
 40
329.0
 40
329.0
 40
330.0
 40
330.0
 40
331.0
 40
331.0
 40
332.0
 40
332.0
 40
333.0
 40
333.0
 40
334.0
 40
334.0
 40
335.0
 40
335.0
 40
336.0
 40
336.0
 40
337.0
 40
337.0
 40
338.0
 40
338.0
 40
339.0
 40
339.0
 40
340.0
 40
340.0
 40
341.0
 40
341.0
 40
342.0
 40
342.0
 40
343.0
 40
343.0
 40
344.0
 40
344.0
 40
345.0
 40
345.0
 40
346.0
 40
346.0
 40
347.0
 40
347.0
 40
348.0
 40
348.0
 40
349.0
 40
349.0
 40
350.0
 40
350.0
 40
351.0
 40
351.0
 40
352.0
 40
352.0
 40
353.0
 40
353.0
 40
354.0
 40
354.0
 40
355.0
 40
355.0
 40
356.0
 40
356.0
 40
357.0
 40
357.0
 40
358.0
 40
358.0
 40
359.0
 40
359.0
 40
360.0
 40
360.0
 40
361.0
 40
361.0
 40
362.0
 40
362.0
 40
363.0
 40
363.0
 40
364.0
 40
364.0
 40
365.0
 40
365.0
 40
366.0
 40
366.0
 40
367.0
 40
367.0
 40
368.0
 40
368.0
 40
369.0
 40
369.0
 40
370.0
 40
370.0
 40
371.0
 40
371.0
 40
372.0
 40
372.0
 40
373.0
 40
373.0
 40
374.0
 40
374.0
 40
375.0
 40
375.0
 40
376.0
 40
376.0
 40
377.0
 40
377.0
 40
378.0
 40
378.0
 40
379.0
 40
379.0
 40
380.0
 40
380.0
 40
381.0
 40
381.0
 40
382.0
 40
382.0
 40
383.0
 40
383.0
 40
384.0
 40
384.0
 40
385.0
 40
385.0
 40
386.0
 40
386.0
 40
387.0
 40
387.0
 40
388.0
 40
388.0
 40
389.0
 40
389.0
 40
389.0
 10
-838.79690547660448
 20
-750.66412922447989
 30
0.0
 41
1.0
 10
-837.97848136788411
 20
-750.66412922447989
 30
0.0
 41
1.0
 10
-837.16005725916375
 20
-750.66412922447989
 30
0.0
 41
1.0
 10
-837.57381099468057
 20
-752.0067554887296
 30
0.0
 41
1.0
 10
-837.98756473019739
 20
-753.3493817529793
 30
0.0
 41
1.0
 10
-837.96922523502826
 20
-753.3206809800663
 30
0.0
 41
0.99999572644466
 10
-837.95071823819512
 20
-753.29208792991176
 30
0.0
 41
1.0
 10
-837.92028891405948
 20
-753.24507505153861
 30
0.0
 41
1.0
 10
-837.88985958992384
 20
-753.19806217316545
 30
0.0
 41
1.0
 10
-837.8104939448184
 20
-753.0754433662629
 30
0.0
 41
0.9995394069080977
 10
-837.72383555326667
 20
-752.95786530452165
 30
0.0
 41
1.0
 10
-837.68807869100613
 20
-752.90935041192711
 30
0.0
 41
1.0
 10
-837.65232182874558
 20
-752.86083551933268
 30
0.0
 41
1.0
 10
-837.5185951609277
 20
-752.67939524420638
 30
0.0
 41
0.9994460617143269
 10
-837.37309467963996
 20
-752.50725284655698
 30
0.0
 41
1.0
 10
-837.36870649866523
 20
-752.5020611661746
 30
0.0
 41
1.0
 10
-837.36431831769039
 20
-752.49686948579233
 30
0.0
 41
1.0
 10
-837.22759419835234
 20
-752.3351104489077
 30
0.0
 41
0.9994359394934241
 10
-837.08031996800082
 20
-752.18289424774275
 30
0.0
 41
1.0
 10
-837.07793661404685
 20
-752.18043091736899
 30
0.0
 41
1.0
 10
-837.07555326009299
 20
-752.17796758699524
 30
0.0
 41
1.0
 10
-836.93304573764954
 20
-752.03067804657803
 30
0.0
 41
0.9995293688567525
 10
-836.78177405666725
 20
-751.89240483441392
 30
0.0
 41
1.0
 10
-836.76248029740532
 20
-751.87476894876409
 30
0.0
 41
1.0
 10
-836.74318653814328
 20
-751.85713306311413
 30
0.0
 41
1.0
 10
-836.63050237568564
 20
-751.75413162225038
 30
0.0
 41
0.9997087614803455
 10
-836.51297948673005
 20
-751.65668734145197
 30
0.0
 41
1.0
 10
-836.49381341355274
 20
-751.64079576294262
 30
0.0
 41
1.0
 10
-836.47464734037555
 20
-751.62490418443326
 30
0.0
 41
1.0
 10
-836.39545659777309
 20
-751.55924306065253
 30
0.0
 41
0.9999595338696609
 10
-836.31509732691984
 20
-751.49501732999909
 30
0.0
 41
1.0
 10
-836.23473805606784
 20
-751.43079159934655
 30
0.0
 41
0.9999749417510059
 10
-836.15347752172579
 20
-751.3677100454014
 30
0.0
 41
1.0
 10
-836.13249137555056
 20
-751.35141875808984
 30
0.0
 41
1.0
 10
-836.11150522937533
 20
-751.33512747077827
 30
0.0
 41
1.0
 10
-836.02693734408319
 20
-751.26947846094492
 30
0.0
 41
0.9999792037123619
 10
-835.94152974431881
 20
-751.20492567930512
 30
0.0
 41
1.0
 10
-835.92070491837887
 20
-751.1891858570259
 30
0.0
 41
1.0
 10
-835.89988009243893
 20
-751.17344603474658
 30
0.0
 41
1.0
 10
-835.85612214451976
 20
-751.14037289763905
 30
0.0
 41
0.9999993374029892
 10
-835.81244045840617
 20
-751.10719910223747
 30
0.0
 41
1.0
 10
-835.76875877226223
 20
-751.07402530681293
 30
0.0
 41
0.9999160953815697
 10
-835.72423236134125
 20
-751.04199424161379
 30
0.0
 41
1.0
 10
-835.69141047392282
 20
-751.01838308602964
 30
0.0
 41
1.0
 10
-835.65858858650427
 20
-750.99477193044538
 30
0.0
 41
1.0
 10
-835.54841840074562
 20
-750.91551855407738
 30
0.0
 41
0.9980964527232116
 10
-835.42932940724495
 20
-750.85043108122136
 30
0.0
 41
1.0
 10
-835.39229680031713
 20
-750.83019110162832
 30
0.0
 41
1.0
 10
-835.35526419338919
 20
-750.80995112203539
 30
0.0
 41
1.0
 10
-835.17593718011619
 20
-750.71194087133415
 30
0.0
 41
0.9984572810572787
 10
-834.98684861375705
 20
-750.63441860998762
 30
0.0
 41
1.0
 10
-834.98320234436119
 20
-750.63292371764965
 30
0.0
 41
1.0
 10
-834.97955607496544
 20
-750.63142882531179
 30
0.0
 41
1.0
 10
-834.79776004739824
 20
-750.5568963486412
 30
0.0
 41
0.9987838528033947
 10
-834.60950738883912
 20
-750.50063070847546
 30
0.0
 41
1.0
 10
-834.60526943964044
 20
-750.49936405478525
 30
0.0
 41
1.0
 10
-834.60103149044176
 20
-750.49809740109504
 30
0.0
 41
1.0
 10
-834.42125473027988
 20
-750.44436506830971
 30
0.0
 41
0.9990652816207299
 10
-834.23750879856402
 20
-750.40636138876766
 30
0.0
 41
1.0
 10
-834.23232039753259
 20
-750.40528828566107
 30
0.0
 41
1.0
 10
-834.22713199650116
 20
-750.40421518255459
 30
0.0
 41
1.0
 10
-834.05376286684793
 20
-750.36835770922562
 30
0.0
 41
0.9992909934270388
 10
-833.8781871003896
 20
-750.34564727675911
 30
0.0
 41
1.0
 10
-833.70261133393171
 20
-750.3229368442926
 30
0.0
 41
0.999455353944831
 10
-833.52591990083886
 20
-750.31185754008641
 30
0.0
 41
1.0
 10
-833.49048549304302
 20
-750.30963565203865
 30
0.0
 41
1.0
 10
-833.45505108524719
 20
-750.30741376399078
 30
0.0
 41
1.0
 10
-833.28882531867748
 20
-750.29699070157903
 30
0.0
 41
0.9990928098292694
 10
-833.12231552677486
 20
-750.30075034281356
 30
0.0
 41
1.0
 10
-833.08375369150258
 20
-750.30162103434657
 30
0.0
 41
1.0
 10
-833.0451918562303
 20
-750.30249172587958
 30
0.0
 41
1.0
 10
-832.95580573487177
 20
-750.30450998404808
 30
0.0
 41
0.9998382089206724
 10
-832.86655005208604
 20
-750.30974211057617
 30
0.0
 41
1.0
 10
-832.86612014586672
 20
-750.30976731147837
 30
0.0
 41
1.0
 10
-832.86569023964739
 20
-750.30979251238057
 30
0.0
 41
1.0
 10
-832.77729436930031
 20
-750.31497423710425
 30
0.0
 41
0.9997558016758883
 10
-832.68921379209905
 20
-750.32405675247071
 30
0.0
 41
1.0
 10
-832.68873765366743
 20
-750.32410584995341
 30
0.0
 41
1.0
 10
-832.68826151523581
 20
-750.32415494743623
 30
0.0
 41
1.0
 10
-832.60113321489632
 20
-750.33313926783751
 30
0.0
 41
0.9996565144182213
 10
-832.51459536155608
 20
-750.34667657452621
 30
0.0
 41
1.0
 10
-832.51412943617868
 20
-750.34674946025757
 30
0.0
 41
1.0
 10
-832.51366351080128
 20
-750.34682234598881
 30
0.0
 41
1.0
 10
-832.42805750821424
 20
-750.36021388121526
 30
0.0
 41
0.9995321806867173
 10
-832.34343042788601
 20
-750.37881436964449
 30
0.0
 41
1.0
 10
-832.34304123331481
 20
-750.37889991211023
 30
0.0
 41
1.0
 10
-832.34265203874349
 20
-750.37898545457597
 30
0.0
 41
1.0
 10
-832.25880334755868
 20
-750.3974148580736
 30
0.0
 41
0.9993819199219166
 10
-832.17645681336171
 20
-750.42169024133443
 30
0.0
 41
1.0
 10
-832.17621837986303
 20
-750.42176053044398
 30
0.0
 41
1.0
 10
-832.17597994636424
 20
-750.42183081955352
 30
0.0
 41
1.0
 10
-832.09411027916497
 20
-750.44596562459526
 30
0.0
 41
0.9992088568506073
 10
-832.01441776017737
 20
-750.47653086038952
 30
0.0
 41
1.0
 10
-831.93473676929841
 20
-750.50709046112274
 30
0.0
 41
0.9990226101773563
 10
-831.85806609939118
 20
-750.54456789273729
 30
0.0
 41
1.0
 10
-831.78140695759305
 20
-750.58203968929058
 30
0.0
 41
0.9988424273971914
 10
-831.70870333038101
 20
-750.62670446454354
 30
0.0
 41
1.0
 10
-831.70843562200162
 20
-750.62686892861575
 30
0.0
 41
1.0
 10
-831.70816791362222
 20
-750.62703339268808
 30
0.0
 41
1.0
 10
-831.6349288696515
 20
-750.67202709608546
 30
0.0
 41
0.9986928844491865
 10
-831.5666660029417
 20
-750.72426283036498
 30
0.0
 41
1.0
 10
-831.56608471071888
 20
-750.72470764359286
 30
0.0
 41
1.0
 10
-831.56550341849606
 20
-750.72515245682087
 30
0.0
 41
1.0
 10
-831.49607796734017
 20
-750.77827781755673
 30
0.0
 41
0.9986007262277624
 10
-831.43265179757293
 20
-750.83843858725095
 30
0.0
 41
1.0
 10
-831.4317573821163
 20
-750.83928695508553
 30
0.0
 41
1.0
 10
-831.43086296665956
 20
-750.84013532291999
 30
0.0
 41
1.0
 10
-831.36564796597884
 20
-750.90199282828337
 30
0.0
 41
0.9985581491381386
 10
-831.30744035427733
 20
-750.97048531855467
 30
0.0
 41
1.0
 10
-831.29818190068124
 20
-750.98137967625667
 30
0.0
 41
1.0
 10
-831.28892344708515
 20
-750.99227403395878
 30
0.0
 41
1.0
 10
-831.21219892819215
 20
-751.08255523963328
 30
0.0
 41
0.997046023352006
 10
-831.15020702703293
 20
-751.1835223238146
 30
0.0
 41
1.0
 10
-831.1357376619535
 20
-751.20708878289565
 30
0.0
 41
1.0
 10
-831.12126829687395
 20
-751.23065524197671
 30
0.0
 41
1.0
 10
-831.08153159686128
 20
-751.29537496600892
 30
0.0
 41
0.9988468816635463
 10
-831.04818522610958
 20
-751.36360741843737
 30
0.0
 41
1.0
 10
-831.0411492036169
 20
-751.37800433957739
 30
0.0
 41
1.0
 10
-831.03411318112421
 20
-751.39240126071741
 30
0.0
 41
1.0
 10
-831.01483885535731
 20
-751.43183987086729
 30
0.0
 41
0.9998431189999938
 10
-830.99697352786325
 20
-751.47193642530578
 30
0.0
 41
1.0
 10
-830.97910820036213
 20
-751.51203297976031
 30
0.0
 41
0.9999989989914214
 10
-830.96112947693121
 20
-751.55207881736351
 30
0.0
 41
1.0
 10
-830.95495716534447
 20
-751.56582703415961
 30
0.0
 41
1.0
 10
-830.94878485375762
 20
-751.5795752509556
 30
0.0
 41
1.0
 10
-830.91846150714809
 20
-751.64711752216215
 30
0.0
 41
0.9998790356320297
 10
-830.89025362701113
 20
-751.71557027409722
 30
0.0
 41
1.0
 10
-830.88341844572437
 20
-751.73215737553073
 30
0.0
 41
1.0
 10
-830.8765832644375
 20
-751.74874447696425
 30
0.0
 41
1.0
 10
-830.85302560205901
 20
-751.80591243184585
 30
0.0
 41
0.9998227574562358
 10
-830.83163685367094
 20
-751.86392674011961
 30
0.0
 41
1.0
 10
-830.8102481052814
 20
-751.92194104839746
 30
0.0
 41
0.9996797971041459
 10
-830.79182182032207
 20
-751.98096316751594
 30
0.0
 41
1.0
 10
-830.78791801759667
 20
-751.9934676256845
 30
0.0
 41
1.0
 10
-830.78401421487115
 20
-752.00597208385307
 30
0.0
 41
1.0
 10
-830.75778032446101
 20
-752.09000311930788
 30
0.0
 41
0.9979274938733397
 10
-830.74255580098213
 20
-752.17670747796683
 30
0.0
 41
1.0
 10
-830.74033211372068
 20
-752.18937147878978
 30
0.0
 41
1.0
 10
-830.73810842645923
 20
-752.20203547961273
 30
0.0
 41
1.0
 10
-830.72717848676109
 20
-752.26428198690246
 30
0.0
 41
0.9994985982137695
 10
-830.72021032158432
 20
-752.32709548804394
 30
0.0
 41
1.0
 10
-830.71324215640743
 20
-752.38990898918553
 30
0.0
 41
0.9996372611202663
 10
-830.70966629063957
 20
-752.45300656786833
 30
0.0
 41
1.0
 10
-830.70949771315031
 20
-752.45598118495036
 30
0.0
 41
1.0
 10
-830.70932913566094
 20
-752.45895580203251
 30
0.0
 41
1.0
 10
-830.70541611491444
 20
-752.52800261487937
 30
0.0
 41
0.9997730630734736
 10
-830.70444780142645
 20
-752.59715343891389
 30
0.0
 41
1.0
 10
-830.70439069500844
 20
-752.60123161805518
 30
0.0
 41
1.0
 10
-830.70433358859032
 20
-752.60530979719647
 30
0.0
 41
1.0
 10
-830.70325106226608
 20
-752.68261697950936
 30
0.0
 41
0.9998772614070312
 10
-830.70459114899768
 20
-752.75992012606878
 30
0.0
 41
1.0
 10
-830.70468041219647
 20
-752.76506928990875
 30
0.0
 41
1.0
 10
-830.70476967539526
 20
-752.77021845374861
 30
0.0
 41
1.0
 10
-830.70628828852443
 20
-752.85781992798741
 30
0.0
 41
0.9999415567326853
 10
-830.7097005987705
 20
-752.94536808966654
 30
0.0
 41
1.0
 10
-830.70994191944567
 20
-752.95155954939958
 30
0.0
 41
1.0
 10
-830.71018324012084
 20
-752.95775100913261
 30
0.0
 41
1.0
 10
-830.71407819171748
 20
-753.0576820902844
 30
0.0
 41
0.9999716810424388
 10
-830.71947677483615
 20
-753.1575432285133
 30
0.0
 41
1.0
 10
-830.72268957362485
 20
-753.21697247816974
 30
0.0
 41
1.0
 10
-830.72590237241366
 20
-753.27640172782617
 30
0.0
 41
1.0
 10
-830.73397628156636
 20
-753.42575012910629
 30
0.0
 41
0.9999819129908171
 10
-830.74384607318302
 20
-753.57499060681812
 30
0.0
 41
1.0
 10
-830.75371586479969
 20
-753.72423108452949
 30
0.0
 41
1.0
 10
-830.7561551853637
 20
-753.76142413037883
 30
0.0
 41
1.0
 10
-830.73345695152364
 20
-753.72268313303448
 30
0.0
 41
0.9999982128248676
 10
-830.71061239275093
 20
-753.68402823904717
 30
0.0
 41
1.0
 10
-830.68370283287913
 20
-753.63849502501398
 30
0.0
 41
1.0
 10
-830.65679327300722
 20
-753.5929618109808
 30
0.0
 41
1.0
 10
-830.58012959448149
 20
-753.4632404889112
 30
0.0
 41
0.9998609190058132
 10
-830.49918228161869
 20
-753.33614810698032
 30
0.0
 41
1.0
 10
-830.46953396013987
 20
-753.28959837402772
 30
0.0
 41
1.0
 10
-830.43988563866117
 20
-753.24304864107501
 30
0.0
 41
1.0
 10
-830.35761341842135
 20
-753.11387607107542
 30
0.0
 41
0.9999067609731801
 10
-830.27184440895508
 20
-752.986998381631
 30
0.0
 41
1.0
 10
-830.26943970575371
 20
-752.98344111557549
 30
0.0
 41
1.0
 10
-830.26703500255223
 20
-752.97988384951987
 30
0.0
 41
1.0
 10
-830.18607539949107
 20
-752.86012069218987
 30
0.0
 41
0.999878495214872
 10
-830.10142178980959
 20
-752.74293947548097
 30
0.0
 41
1.0
 10
-830.01676818012766
 20
-752.62575825877138
 30
0.0
 41
0.9998532968284543
 10
-829.92815055930441
 20
-752.51154535030048
 30
0.0
 41
1.0
 10
-829.90818877031381
 20
-752.48581802928095
 30
0.0
 41
1.0
 10
-829.88822698132321
 20
-752.46009070826142
 30
0.0
 41
1.0
 10
-829.76974293156445
 20
-752.30738509729304
 30
0.0
 41
0.9991551975795688
 10
-829.63911848194107
 20
-752.16492553520948
 30
0.0
 41
1.0
 10
-829.63560886596065
 20
-752.1610979335843
 30
0.0
 41
1.0
 10
-829.63209924998012
 20
-752.15727033195913
 30
0.0
 41
1.0
 10
-829.50849403231723
 20
-752.02246597312546
 30
0.0
 41
0.9997418144181115
 10
-829.37889189261705
 20
-751.89341656251349
 30
0.0
 41
1.0
 10
-829.24928975291652
 20
-751.76436715190118
 30
0.0
 41
0.9989238204633298
 10
-829.10828720466588
 20
-751.64788218986246
 30
0.0
 41
1.0
 10
-829.06303952652615
 20
-751.6105021982537
 30
0.0
 41
1.0
 10
-829.01779184838654
 20
-751.57312220664483
 30
0.0
 41
1.0
 10
-828.87755179116505
 20
-751.45726715335388
 30
0.0
 41
0.9990825084096537
 10
-828.7279118585609
 20
-751.35383815552075
 30
0.0
 41
1.0
 10
-828.71786649450451
 20
-751.34689494244162
 30
0.0
 41
1.0
 10
-828.70782113044822
 20
-751.3399517293625
 30
0.0
 41
1.0
 10
-828.57827192595755
 20
-751.25040915768818
 30
0.0
 41
0.9998164899827404
 10
-828.44538772258079
 20
-751.1658949161714
 30
0.0
 41
1.0
 10
-828.43354216205444
 20
-751.15836114964543
 30
0.0
 41
1.0
 10
-828.42169660152797
 20
-751.15082738311946
 30
0.0
 41
1.0
 10
-828.31250351920391
 20
-751.08138067465461
 30
0.0
 41
0.9997473449129884
 10
-828.20029956195503
 20
-751.01691171683933
 30
0.0
 41
1.0
 10
-828.08809560470479
 20
-750.95244275902337
 30
0.0
 41
0.9999327861143713
 10
-827.97442699393901
 20
-750.89059276734054
 30
0.0
 41
1.0
 10
-827.97387499137983
 20
-750.89029240866216
 30
0.0
 41
1.0
 10
-827.97332298882066
 20
-750.8899920499839
 30
0.0
 41
1.0
 10
-827.85855037293629
 20
-750.82754134094432
 30
0.0
 41
0.9996956420483196
 10
-827.74083704709687
 20
-750.77082787397001
 30
0.0
 41
1.0
 10
-827.7103966422028
 20
-750.75616189723951
 30
0.0
 41
1.0
 10
-827.67995623730883
 20
-750.7414959205089
 30
0.0
 41
1.0
 10
-827.57697913056552
 20
-750.69188226206575
 30
0.0
 41
0.9998070570176435
 10
-827.47213274162527
 20
-750.64635167516496
 30
0.0
 41
1.0
 10
-827.36728635268526
 20
-750.6008210882643
 30
0.0
 41
0.9997827436148056
 10
-827.26063341607687
 20
-750.55969991695304
 30
0.0
 41
1.0
 10
-827.2414105664443
 20
-750.55228834332024
 30
0.0
 41
1.0
 10
-827.22218771681173
 20
-750.54487676968733
 30
0.0
 41
1.0
 10
-827.07708908093809
 20
-750.48893245111037
 30
0.0
 41
0.9988031841976719
 10
-826.9272187183326
 20
-750.44743238694241
 30
0.0
 41
1.0
 10
-826.9023014699701
 20
-750.44053264113575
 30
0.0
 41
1.0
 10
-826.87738422160749
 20
-750.43363289532908
 30
0.0
 41
1.0
 10
-826.71011419596061
 20
-750.38731475292229
 30
0.0
 41
0.9984748040550014
 10
-826.53875728731191
 20
-750.35972052065745
 30
0.0
 41
1.0
 10
-826.53401815106326
 20
-750.35895736014413
 30
0.0
 41
1.0
 10
-826.52927901481473
 20
-750.3581941996307
 30
0.0
 41
1.0
 10
-826.36740037866309
 20
-750.3321262883926
 30
0.0
 41
0.9984436495479753
 10
-826.20362563493813
 20
-750.32424833457389
 30
0.0
 41
1.0
 10
-826.18192842680639
 20
-750.32320464737427
 30
0.0
 41
1.0
 10
-826.16023121867465
 20
-750.32216096017453
 30
0.0
 41
1.0
 10
-826.03985089121306
 20
-750.31637038075519
 30
0.0
 41
0.9987954789335485
 10
-825.91948264630355
 20
-750.32240690849744
 30
0.0
 41
1.0
 10
-825.89951785381118
 20
-750.3234081528359
 30
0.0
 41
1.0
 10
-825.8795530613188
 20
-750.32440939717435
 30
0.0
 41
1.0
 10
-825.79911440139585
 20
-750.32844343623958
 30
0.0
 41
0.9997941595877191
 10
-825.71890562329941
 20
-750.33573750216078
 30
0.0
 41
1.0
 10
-825.63869684520364
 20
-750.34303156808198
 30
0.0
 41
0.9998589466237469
 10
-825.55877829834753
 20
-750.35301542253228
 30
0.0
 41
1.0
 10
-825.52637209654051
 20
-750.35706377945132
 30
0.0
 41
1.0
 10
-825.49396589473349
 20
-750.36111213637037
 30
0.0
 41
1.0
 10
-825.34923494426209
 20
-750.37919270465886
 30
0.0
 41
0.9993495063249437
 10
-825.20618370049647
 20
-750.40765841440054
 30
0.0
 41
1.0
 10
-825.17325000334449
 20
-750.41421187761534
 30
0.0
 41
1.0
 10
-825.14031630619263
 20
-750.42076534083014
 30
0.0
 41
1.0
 10
-825.03102248298774
 20
-750.44251367496554
 30
0.0
 41
0.9996788715560913
 10
-824.92297091103137
 20
-750.46977147432858
 30
0.0
 41
1.0
 10
-824.9209079084917
 20
-750.47029190090166
 30
0.0
 41
1.0
 10
-824.91884490595214
 20
-750.47081232747473
 30
0.0
 41
1.0
 10
-824.81491933907409
 20
-750.49702927369185
 30
0.0
 41
0.9995480654492325
 10
-824.71275710384543
 20
-750.52944423031602
 30
0.0
 41
1.0
 10
-824.71106746171768
 20
-750.52998033522954
 30
0.0
 41
1.0
 10
-824.7093778195898
 20
-750.53051644014306
 30
0.0
 41
1.0
 10
-824.61059486861723
 20
-750.56185918693984
 30
0.0
 41
0.9993867959456244
 10
-824.51424771017332
 20
-750.60003855623017
 30
0.0
 41
1.0
 10
-824.51300476108827
 20
-750.60053109812657
 30
0.0
 41
1.0
 10
-824.51176181200333
 20
-750.60102364002285
 30
0.0
 41
1.0
 10
-824.41790055173101
 20
-750.63821792551983
 30
0.0
 41
0.9992050256521604
 10
-824.32730087669756
 20
-750.68277182475867
 30
0.0
 41
1.0
 10
-824.32656619398324
 20
-750.68313311722045
 30
0.0
 41
1.0
 10
-824.32583151126892
 20
-750.68349440968211
 30
0.0
 41
1.0
 10
-824.23670120166275
 20
-750.72732572399832
 30
0.0
 41
0.9990222350742186
 10
-824.15179114027069
 20
-750.77885899169576
 30
0.0
 41
1.0
 10
-824.15160725498799
 20
-750.77897059460054
 30
0.0
 41
1.0
 10
-824.1514233697053
 20
-750.77908219750532
 30
0.0
 41
1.0
 10
-824.06688107887692
 20
-750.83039225939422
 30
0.0
 41
0.9988642743805699
 10
-823.98760654425791
 20
-750.88951644691929
 30
0.0
 41
1.0
 10
-823.90833200963903
 20
-750.94864063444436
 30
0.0
 41
0.9987681233310458
 10
-823.83530822536284
 20
-751.01533132584518
 30
0.0
 41
1.0
 10
-823.83497929739701
 20
-751.01563172705937
 30
0.0
 41
1.0
 10
-823.83465036943107
 20
-751.01593212827368
 30
0.0
 41
1.0
 10
-823.76096872922403
 20
-751.08322362210208
 30
0.0
 41
0.9987496570898293
 10
-823.6943749238975
 20
-751.15753643618814
 30
0.0
 41
1.0
 10
-823.69360275413646
 20
-751.15839810954674
 30
0.0
 41
1.0
 10
-823.69283058437532
 20
-751.15925978290534
 30
0.0
 41
1.0
 10
-823.62469243952694
 20
-751.23529594370825
 30
0.0
 41
0.9988147669827006
 10
-823.56427018530167
 20
-751.31759695055121
 30
0.0
 41
1.0
 10
-823.56315085922427
 20
-751.31912158190323
 30
0.0
 41
1.0
 10
-823.56203153314686
 20
-751.32064621325526
 30
0.0
 41
1.0
 10
-823.49937062676736
 20
-751.40599648280124
 30
0.0
 41
0.9989452636216081
 10
-823.44480371380666
 20
-751.49673517195765
 30
0.0
 41
1.0
 10
-823.44345498772009
 20
-751.49897795298534
 30
0.0
 41
1.0
 10
-823.44210626163363
 20
-751.50122073401292
 30
0.0
 41
1.0
 10
-823.38484189650183
 20
-751.59644498522107
 30
0.0
 41
0.9991046436069926
 10
-823.33583268318137
 20
-751.69616941824427
 30
0.0
 41
1.0
 10
-823.33436882159026
 20
-751.69914809831891
 30
0.0
 41
1.0
 10
-823.33290495999927
 20
-751.70212677839356
 30
0.0
 41
1.0
 10
-823.28096802349796
 20
-751.80780857156344
 30
0.0
 41
0.9992763831100974
 10
-823.23721489494324
 20
-751.91713263351858
 30
0.0
 41
1.0
 10
-823.23573562527963
 20
-751.92082882105285
 30
0.0
 41
1.0
 10
-823.23425635561603
 20
-751.92452500858712
 30
0.0
 41
1.0
 10
-823.18754468773386
 20
-752.04124144561149
 30
0.0
 41
0.9994163472883998
 10
-823.14891165654365
 20
-752.16087503407641
 30
0.0
 41
1.0
 10
-823.14767350429634
 20
-752.16470917786114
 30
0.0
 41
1.0
 10
-823.14643535204891
 20
-752.16854332164576
 30
0.0
 41
1.0
 10
-823.10655179103253
 20
-752.29204938312125
 30
0.0
 41
0.9997268055891857
 10
-823.0724837351213
 20
-752.41728441506893
 30
0.0
 41
1.0
 10
-823.07155355485111
 20
-752.42070378118001
 30
0.0
 41
1.0
 10
-823.07062337458092
 20
-752.42412314729097
 30
0.0
 41
1.0
 10
-823.03841567920892
 20
-752.54251944702128
 30
0.0
 41
0.9996701319000427
 10
-823.01233006243888
 20
-752.66241340028307
 30
0.0
 41
1.0
 10
-822.9862444456686
 20
-752.78230735354612
 30
0.0
 41
0.9995785451109133
 10
-822.96716086832873
 20
-752.90351311457755
 30
0.0
 41
1.0
 10
-822.96294108615507
 20
-752.93031426934203
 30
0.0
 41
1.0
 10
-822.95872130398152
 20
-752.95711542410641
 30
0.0
 41
1.0
 10
-822.93214632804256
 20
-753.12590139781059
 30
0.0
 41
0.9979925101216177
 10
-822.92712074211636
 20
-753.29669272590286
 30
0.0
 41
1.0
 10
-822.92629592969172
 20
-753.3247234493856
 30
0.0
 41
1.0
 10
-822.92547111726708
 20
-753.35275417286834
 30
0.0
 41
1.0
 10
-822.92209515619015
 20
-753.46748405399558
 30
0.0
 41
0.9995314902263597
 10
-822.92574534832852
 20
-753.58220553774652
 30
0.0
 41
1.0
 10
-822.92939554046666
 20
-753.69692702149587
 30
0.0
 41
0.9996245486944113
 10
-822.93932463559759
 20
-753.81127629261812
 30
0.0
 41
1.0
 10
-822.93948768359201
 20
-753.81315404875545
 30
0.0
 41
1.0
 10
-822.93965073158643
 20
-753.8150318048929
 30
0.0
 41
1.0
 10
-822.94990592270585
 20
-753.93313658828629
 30
0.0
 41
0.9997286095001555
 10
-822.96565124627682
 20
-754.05063549717886
 30
0.0
 41
1.0
 10
-822.96604473892739
 20
-754.05357192188239
 30
0.0
 41
1.0
 10
-822.96643823157797
 20
-754.05650834658582
 30
0.0
 41
1.0
 10
-822.98297054045031
 20
-754.17988010488625
 30
0.0
 41
0.9998265533969449
 10
-823.00408599918319
 20
-754.30255057967656
 30
0.0
 41
1.0
 10
-823.00476254132002
 20
-754.30648095818219
 30
0.0
 41
1.0
 10
-823.00543908345685
 20
-754.31041133668771
 30
0.0
 41
1.0
 10
-823.02790762646373
 20
-754.44094256849098
 30
0.0
 41
0.9999022530852572
 10
-823.05401709107321
 20
-754.57079453712686
 30
0.0
 41
1.0
 10
-823.05499573223892
 20
-754.57566167951552
 30
0.0
 41
1.0
 10
-823.05597437340452
 20
-754.58052882190418
 30
0.0
 41
1.0
 10
-823.08404112034486
 20
-754.72011507531533
 30
0.0
 41
0.9999524761938837
 10
-823.11482408917891
 20
-754.85912756847665
 30
0.0
 41
1.0
 10
-823.11610019635498
 20
-754.86489032778172
 30
0.0
 41
1.0
 10
-823.11737630353105
 20
-754.87065308708668
 30
0.0
 41
1.0
 10
-823.15071148671734
 20
-755.02119109885848
 30
0.0
 41
0.9999813588712667
 10
-823.18588248751428
 20
-755.17131081151922
 30
0.0
 41
1.0
 10
-823.18743641296987
 20
-755.17794340193791
 30
0.0
 41
1.0
 10
-823.18899033842558
 20
-755.18457599235649
 30
0.0
 41
1.0
 10
-823.22726919013462
 20
-755.3479608858579
 30
0.0
 41
0.9999955237691153
 10
-823.26652506811615
 20
-755.51111378946837
 30
0.0
 41
1.0
 10
-823.27880670374998
 20
-755.56215797998902
 30
0.0
 41
1.0
 10
-823.2910883393838
 20
-755.61320217050979
 30
0.0
 41
1.0
 10
-823.35490748864004
 20
-755.87844345519068
 30
0.0
 41
0.999999360430721
 10
-823.41932643582606
 20
-756.14353970594925
 30
0.0
 41
1.0
 10
-823.42404527136068
 20
-756.16295861393814
 30
0.0
 41
1.0
 10
-823.42876410689519
 20
-756.18237752192715
 30
0.0
 41
1.0
 10
-823.50262072515557
 20
-756.48631158868557
 30
0.0
 41
0.9999659914722189
 10
-823.58148032104032
 20
-756.78898613524257
 30
0.0
 41
1.0
 10
-823.5864330099713
 20
-756.80799527242641
 30
0.0
 41
1.0
 10
-823.59138569890229
 20
-756.82700440961025
 30
0.0
 41
1.0
 10
-823.68015067264741
 20
-757.16769723052914
 30
0.0
 41
0.9999441976026201
 10
-823.77609370561152
 20
-757.50643865583038
 30
0.0
 41
1.0
 10
-823.7927942240367
 20
-757.56540236835713
 30
0.0
 41
1.0
 10
-823.80949474246199
 20
-757.62436608088376
 30
0.0
 41
1.0
 10
-823.93883881227623
 20
-758.08103493123724
 30
0.0
 41
0.9999625120736619
 10
-824.07607157959967
 20
-758.5353954652328
 30
0.0
 41
1.0
 10
-824.11186152268453
 20
-758.65389149186581
 30
0.0
 41
1.0
 10
-824.1476514657694
 20
-758.77238751849882
 30
0.0
 41
1.0
 10
-824.22217166980852
 20
-759.01911459659414
 30
0.0
 41
0.9999793386322275
 10
-824.29985769294467
 20
-759.2648632358264
 30
0.0
 41
1.0
 10
-824.37754371608207
 20
-759.51061187506252
 30
0.0
 41
1.0
 10
-824.38832327495265
 20
-759.54462977943717
 30
0.0
 41
1.0
 10
-826.23869632822198
 20
-765.43170170190467
 30
0.0
 41
1.0
 10
-828.0890693814913
 20
-771.31877362437217
 30
0.0
 41
1.0
 10
-829.05032607151475
 20
-771.31877362437217
 30
0.0
 41
1.0
 10
-830.01158276153819
 20
-771.31877362437217
 30
0.0
 41
1.0
 10
-828.3926379828597
 20
-766.17074512258273
 30
0.0
 41
1.0
 10
-826.7736932041812
 20
-761.02271662079329
 30
0.0
 41
1.0
 10
-826.72852738100596
 20
-760.87868539852002
 30
0.0
 41
1.0
 10
-826.68336155783061
 20
-760.73465417624686
 30
0.0
 41
1.0
 10
-826.5130571404685
 20
-760.19156314708562
 30
0.0
 41
0.9999911657909835
 10
-826.34732432878991
 20
-759.64705961572736
 30
0.0
 41
1.0
 10
-826.31762838529289
 20
-759.54949567568815
 30
0.0
 41
1.0
 10
-826.28793244179587
 20
-759.45193173564905
 30
0.0
 41
1.0
 10
-826.18159151711325
 20
-759.10255608437592
 30
0.0
 41
0.9999952428166633
 10
-826.07740792778463
 20
-758.75253106001412
 30
0.0
 41
1.0
 10
-826.07234845744767
 20
-758.73553278572399
 30
0.0
 41
1.0
 10
-826.06728898711071
 20
-758.71853451143375
 30
0.0
 41
1.0
 10
-825.97322433845329
 20
-758.40250603564346
 30
0.0
 41
0.9999931687555698
 10
-825.88149850058608
 20
-758.08579082239407
 30
0.0
 41
1.0
 10
-825.8765632361285
 20
-758.06875011312968
 30
0.0
 41
1.0
 10
-825.87162797167082
 20
-758.05170940386529
 30
0.0
 41
1.0
 10
-825.78977266271409
 20
-757.76907560912855
 30
0.0
 41
0.9999893840791567
 10
-825.71052543625569
 20
-757.48569947987698
 30
0.0
 41
1.0
 10
-825.63127820979867
 20
-757.20232335062974
 30
0.0
 41
0.9999833980081125
 10
-825.55530196905897
 20
-756.91805276760931
 30
0.0
 41
1.0
 10
-825.54629803233593
 20
-756.88436388912805
 30
0.0
 41
1.0
 10
-825.53729409561276
 20
-756.85067501064668
 30
0.0
 41
1.0
 10
-825.46832954674574
 20
-756.59263917834812
 30
0.0
 41
0.9999233658067155
 10
-825.40577457552513
 20
-756.33297501962397
 30
0.0
 41
1.0
 10
-825.34321960430498
 20
-756.07331086090153
 30
0.0
 41
1.0
 10
-825.30373618544741
 20
-755.90950419647538
 30
0.0
 41
1.0
 10
-825.29875758146909
 20
-755.88884923460046
 30
0.0
 41
1.0
 10
-825.29377897749066
 20
-755.86819427272565
 30
0.0
 41
1.0
 10
-825.26425276658824
 20
-755.74569753204219
 30
0.0
 41
0.9999868670875999
 10
-825.23598368259354
 20
-755.62290458640382
 30
0.0
 41
1.0
 10
-825.23208619543561
 20
-755.60597499898631
 30
0.0
 41
1.0
 10
-825.2281887082778
 20
-755.58904541156869
 30
0.0
 41
1.0
 10
-825.2077145985977
 20
-755.50011164076068
 30
0.0
 41
0.9999778173338524
 10
-825.18842700048185
 20
-755.41091302352788
 30
0.0
 41
1.0
 10
-825.16913940236543
 20
-755.32171440629259
 30
0.0
 41
0.9999602692863805
 10
-825.15144504373291
 20
-755.23218611785649
 30
0.0
 41
1.0
 10
-825.1482412116568
 20
-755.21597566297805
 30
0.0
 41
1.0
 10
-825.14503737958057
 20
-755.19976520809973
 30
0.0
 41
1.0
 10
-825.12093535679492
 20
-755.07781600990347
 30
0.0
 41
0.9995617985320745
 10
-825.10409200957633
 20
-754.95465426219926
 30
0.0
 41
1.0
 10
-825.10162751967005
 20
-754.93663344483366
 30
0.0
 41
1.0
 10
-825.09916302976387
 20
-754.91861262746795
 30
0.0
 41
1.0
 10
-825.0788797687153
 20
-754.77029757776563
 30
0.0
 41
0.9991121410639746
 10
-825.07115441512678
 20
-754.62080147895733
 30
0.0
 41
1.0
 10
-825.07023562510221
 20
-754.60302164237964
 30
0.0
 41
1.0
 10
-825.06931683507753
 20
-754.58524180580207
 30
0.0
 41
1.0
 10
-825.06342906153839
 20
-754.47130538014972
 30
0.0
 41
0.9989792494905159
 10
-825.06784815365586
 20
-754.35730254425278
 30
0.0
 41
1.0
 10
-825.06849612552458
 20
-754.34058629832361
 30
0.0
 41
1.0
 10
-825.06914409739329
 20
-754.32387005239445
 30
0.0
 41
1.0
 10
-825.07226724577333
 20
-754.24329970835242
 30
0.0
 41
0.9997820295393496
 10
-825.07875124314887
 20
-754.16292998661038
 30
0.0
 41
1.0
 10
-825.08523524052453
 20
-754.08256026486561
 30
0.0
 41
0.9998335105974652
 10
-825.09464743603655
 20
-754.00248064841458
 30
0.0
 41
1.0
 10
-825.09624236071272
 20
-753.98891091793234
 30
0.0
 41
1.0
 10
-825.09783728538901
 20
-753.97534118745023
 30
0.0
 41
1.0
 10
-825.1104393302536
 20
-753.86812211003337
 30
0.0
 41
0.9996876457880054
 10
-825.12838324305199
 20
-753.76166668231633
 30
0.0
 41
1.0
 10
-825.13061490619771
 20
-753.7484269470724
 30
0.0
 41
1.0
 10
-825.13284656934331
 20
-753.73518721182836
 30
0.0
 41
1.0
 10
-825.14664239076376
 20
-753.65334106787304
 30
0.0
 41
0.9995547496494214
 10
-825.16529571265596
 20
-753.57246357068493
 30
0.0
 41
1.0
 10
-825.16566966952701
 20
-753.57084215998066
 30
0.0
 41
1.0
 10
-825.16604362639805
 20
-753.56922074927638
 30
0.0
 41
1.0
 10
-825.18394903454839
 20
-753.491586073495
 30
0.0
 41
0.9994899427176165
 10
-825.20677394322797
 20
-753.41525279065934
 30
0.0
 41
1.0
 10
-825.20723246996909
 20
-753.41371934086942
 30
0.0
 41
1.0
 10
-825.20769099671031
 20
-753.4121858910795
 30
0.0
 41
1.0
 10
-825.22959885190755
 20
-753.33891950782402
 30
0.0
 41
0.9993784877590485
 10
-825.25661448701385
 20
-753.26737880266592
 30
0.0
 41
1.0
 10
-825.25714617799008
 20
-753.26597081994737
 30
0.0
 41
1.0
 10
-825.2576778689662
 20
-753.26456283722882
 30
0.0
 41
1.0
 10
-825.28363012211992
 20
-753.19583809750839
 30
0.0
 41
0.999243083225458
 10
-825.31484665727976
 20
-753.12933894543858
 30
0.0
 41
1.0
 10
-825.31542877333641
 20
-753.12809889032121
 30
0.0
 41
1.0
 10
-825.31601088939294
 20
-753.12685883520385
 30
0.0
 41
1.0
 10
-825.34606319243903
 20
-753.06283979337036
 30
0.0
 41
0.9990789632798355
 10
-825.38149381921585
 20
-753.00163318162072
 30
0.0
 41
1.0
 10
-825.38208952539776
 20
-753.00060409576167
 30
0.0
 41
1.0
 10
-825.38268523157967
 20
-752.99957500990274
 30
0.0
 41
1.0
 10
-825.41692444599266
 20
-752.94042656987108
 30
0.0
 41
0.9988874801121539
 10
-825.45658372202456
 20
-752.8847668574532
 30
0.0
 41
1.0
 10
-825.45713924808808
 20
-752.88398720577948
 30
0.0
 41
1.0
 10
-825.45769477415161
 20
-752.88320755410575
 30
0.0
 41
1.0
 10
-825.49624299805589
 20
-752.82910714503623
 30
0.0
 41
0.9986762060692968
 10
-825.54014546933263
 20
-752.77925343059621
 30
0.0
 41
1.0
 10
-825.54058942966515
 20
-752.77874928877918
 30
0.0
 41
1.0
 10
-825.54103338999766
 20
-752.77824514696226
 30
0.0
 41
1.0
 10
-825.58404794060925
 20
-752.72939971615665
 30
0.0
 41
0.9984621642487495
 10
-825.63220549738685
 20
-752.6856164156859
 30
0.0
 41
1.0
 10
-825.63245213190351
 20
-752.68539218352225
 30
0.0
 41
1.0
 10
-825.63269876642016
 20
-752.68516795135872
 30
0.0
 41
1.0
 10
-825.68036305416479
 20
-752.64183311521481
 30
0.0
 41
0.9982724693852565
 10
-825.73278168600609
 20
-752.60438876469709
 30
0.0
 41
1.0
 10
-825.78520031784717
 20
-752.56694441417949
 30
0.0
 41
0.9981399180158795
 10
-825.84178638124035
 20
-752.53615789473611
 30
0.0
 41
1.0
 10
-825.84183204331896
 20
-752.53613305157887
 30
0.0
 41
1.0
 10
-825.84187770539756
 20
-752.53610820842164
 30
0.0
 41
1.0
 10
-825.89855509294694
 20
-752.50527200266424
 30
0.0
 41
0.9980927086837386
 10
-825.95860044401218
 20
-752.48165519381212
 30
0.0
 41
1.0
 10
-825.95904061372494
 20
-752.48148206793667
 30
0.0
 41
1.0
 10
-825.95948078343758
 20
-752.48130894206133
 30
0.0
 41
1.0
 10
-826.02040647392869
 20
-752.45734588145831
 30
0.0
 41
0.9981411356561357
 10
-826.08379499532964
 20
-752.44097323995254
 30
0.0
 41
1.0
 10
-826.08467711202957
 20
-752.44074539774738
 30
0.0
 41
1.0
 10
-826.08555922872961
 20
-752.44051755554233
 30
0.0
 41
1.0
 10
-826.15071198353178
 20
-752.42368922962578
 30
0.0
 41
0.9983031812934775
 10
-826.21737941252661
 20
-752.41454986844963
 30
0.0
 41
1.0
 10
-826.22625043793028
 20
-752.4133337497783
 30
0.0
 41
1.0
 10
-826.23512146333394
 20
-752.41211763110709
 30
0.0
 41
1.0
 10
-826.2894711058384
 20
-752.40466690111589
 30
0.0
 41
0.9983887708263116
 10
-826.34431495513172
 20
-752.40342222748257
 30
0.0
 41
1.0
 10
-826.3523783603498
 20
-752.40323922960772
 30
0.0
 41
1.0
 10
-826.36044176556788
 20
-752.40305623173288
 30
0.0
 41
1.0
 10
-826.39915880442516
 20
-752.40217755384924
 30
0.0
 41
0.9998869563077514
 10
-826.43788475762722
 20
-752.40246342320893
 30
0.0
 41
1.0
 10
-826.47661071080847
 20
-752.4027492925685
 30
0.0
 41
0.9999972320033045
 10
-826.51533488999712
 20
-752.40321739209719
 30
0.0
 41
1.0
 10
-826.53468790659883
 20
-752.40345133218682
 30
0.0
 41
1.0
 10
-826.55404092320055
 20
-752.40368527227645
 30
0.0
 41
1.0
 10
-826.63147113557352
 20
-752.40462125198428
 30
0.0
 41
0.9997304945087469
 10
-826.70877444181338
 20
-752.40915034577063
 30
0.0
 41
1.0
 10
-826.71782408351532
 20
-752.4096805517604
 30
0.0
 41
1.0
 10
-826.72687372521727
 20
-752.41021075775018
 30
0.0
 41
1.0
 10
-826.82227631486296
 20
-752.41580026351608
 30
0.0
 41
0.9997888306414811
 10
-826.91736865070493
 20
-752.42530522800507
 30
0.0
 41
1.0
 10
-826.92608971227821
 20
-752.42617694263731
 30
0.0
 41
1.0
 10
-826.9348107738515
 20
-752.42704865726944
 30
0.0
 41
1.0
 10
-827.04734523283992
 20
-752.4382970510228
 30
0.0
 41
0.9984170238190957
 10
-827.15790438019133
 20
-752.46211313295851
 30
0.0
 41
1.0
 10
-827.19428551117744
 20
-752.46995016876463
 30
0.0
 41
1.0
 10
-827.23066664216367
 20
-752.47778720457075
 30
0.0
 41
1.0
 10
-827.34585771058528
 20
-752.50260107108033
 30
0.0
 41
0.9976592854198829
 10
-827.4565858769904
 20
-752.54289974822757
 30
0.0
 41
1.0
 10
-827.56731404339519
 20
-752.58319842537469
 30
0.0
 41
0.9993255074352441
 10
-827.67478584218566
 20
-752.63151532386689
 30
0.0
 41
1.0
 10
-827.67941102110922
 20
-752.63359470006674
 30
0.0
 41
1.0
 10
-827.68403620003278
 20
-752.63567407626658
 30
0.0
 41
1.0
 10
-827.80075835667014
 20
-752.68814972715847
 30
0.0
 41
0.9976475078274667
 10
-827.90920570098069
 20
-752.75609771681695
 30
0.0
 41
1.0
 10
-827.92754809511553
 20
-752.76759019563156
 30
0.0
 41
1.0
 10
-827.94589048925047
 20
-752.77908267444616
 30
0.0
 41
1.0
 10
-828.03009268080166
 20
-752.83183979521414
 30
0.0
 41
0.9995131336407023
 10
-828.11084039575962
 20
-752.88974600716756
 30
0.0
 41
1.0
 10
-828.19158811071679
 20
-752.94765221912053
 30
0.0
 41
0.9995810107605948
 10
-828.26884975844564
 20
-753.01013390158641
 30
0.0
 41
1.0
 10
-828.27181978965586
 20
-753.01253577305101
 30
0.0
 41
1.0
 10
-828.27478982086609
 20
-753.01493764451573
 30
0.0
 41
1.0
 10
-828.35799153101505
 20
-753.0822230699107
 30
0.0
 41
0.9996617837955196
 10
-828.43758221815062
 20
-753.15374352547099
 30
0.0
 41
1.0
 10
-828.44971296902668
 20
-753.16464425846084
 30
0.0
 41
1.0
 10
-828.46184371990262
 20
-753.17554499145058
 30
0.0
 41
1.0
 10
-828.53011924730117
 20
-753.23689760692469
 30
0.0
 41
0.9997267750053361
 10
-828.59545275558548
 20
-753.30137414345052
 30
0.0
 41
1.0
 10
-828.66078626387093
 20
-753.36585067997748
 30
0.0
 41
0.999966728896847
 10
-828.72505920701974
 20
-753.43138448687421
 30
0.0
 41
1.0
 10
-828.79388665479291
 20
-753.50156214563049
 30
0.0
 41
1.0
 10
-828.86271410256609
 20
-753.57173980438677
 30
0.0
 41
1.0
 10
-829.06464194126227
 20
-753.77762892879707
 30
0.0
 41
0.9988205335175182
 10
-829.24564755824167
 20
-754.00213316085751
 30
0.0
 41
1.0
 10
-829.27628752314672
 20
-754.04013641128779
 30
0.0
 41
1.0
 10
-829.30692748805177
 20
-754.07813966171807
 30
0.0
 41
1.0
 10
-829.54921303484173
 20
-754.37865039463975
 30
0.0
 41
0.9997077826754827
 10
-829.77669098594765
 20
-754.69052018885714
 30
0.0
 41
1.0
 10
-829.77841440107727
 20
-754.69288297223557
 30
0.0
 41
1.0
 10
-829.78013781620689
 20
-754.695245755614
 30
0.0
 41
1.0
 10
-830.01106259757262
 20
-755.01184111658893
 30
0.0
 41
0.9989147567078791
 10
-830.21152610045624
 20
-755.34855057777395
 30
0.0
 41
1.0
 10
-830.2362672457632
 20
-755.39010715832637
 30
0.0
 41
1.0
 10
-830.26100839107016
 20
-755.43166373887891
 30
0.0
 41
1.0
 10
-830.41621968970787
 20
-755.69236512333237
 30
0.0
 41
0.9997476598181444
 10
-830.55956467721717
 20
-755.95977487191431
 30
0.0
 41
1.0
 10
-830.70290966472714
 20
-756.22718462049738
 30
0.0
 41
0.9996258967110031
 10
-830.83141791665946
 20
-756.50203255712256
 30
0.0
 41
1.0
 10
-830.84461782610845
 20
-756.53026395721668
 30
0.0
 41
1.0
 10
-830.85781773555743
 20
-756.5584953573109
 30
0.0
 41
1.0
 10
-830.99802645655745
 20
-756.858367755264
 30
0.0
 41
0.9998735413946288
 10
-831.1286278032785
 20
-757.16254735473319
 30
0.0
 41
1.0
 10
-831.13207063133973
 20
-757.17056594019959
 30
0.0
 41
1.0
 10
-831.13551345940095
 20
-757.17858452566588
 30
0.0
 41
1.0
 10
-831.25922914999921
 20
-757.4667269542017
 30
0.0
 41
0.9999377418861035
 10
-831.37648395217366
 20
-757.75755842187584
 30
0.0
 41
1.0
 10
-831.49373875434878
 20
-758.04838988955157
 30
0.0
 41
0.9999508299504475
 10
-831.60520269772496
 20
-758.34148956636966
 30
0.0
 41
1.0
 10
-831.60828346638812
 20
-758.34959059233529
 30
0.0
 41
1.0
 10
-831.61136423505127
 20
-758.35769161830092
 30
0.0
 41
1.0
 10
-831.72898971575228
 20
-758.66699334704617
 30
0.0
 41
0.9999609228429764
 10
-831.84112831862558
 20
-758.97832636306043
 30
0.0
 41
1.0
 10
-831.84408432897612
 20
-758.98653320347239
 30
0.0
 41
1.0
 10
-831.84704033932667
 20
-758.99474004388446
 30
0.0
 41
1.0
 10
-831.9650909628981
 20
-759.32248674071457
 30
0.0
 41
0.9999674607399124
 10
-832.07783848896622
 20
-759.65209536070881
 30
0.0
 41
1.0
 10
-832.1292368795298
 20
-759.80235455640423
 30
0.0
 41
1.0
 10
-832.18063527009349
 20
-759.95261375209952
 30
0.0
 41
1.0
 10
-832.29664587685136
 20
-760.29176173460201
 30
0.0
 41
0.9999287532309645
 10
-832.40452728082164
 20
-760.63358247357667
 30
0.0
 41
1.0
 10
-832.4510045369617
 20
-760.78084501795047
 30
0.0
 41
1.0
 10
-832.49748179310177
 20
-760.92810756232439
 30
0.0
 41
1.0
 10
-832.51240868479726
 20
-760.97540321256793
 30
0.0
 41
0.9999998223568667
 10
-832.52727919352265
 20
-761.02271662079329
 30
0.0
 41
1.0
 10
-834.14793533031821
 20
-766.17074512258273
 30
0.0
 41
1.0
 10
-835.76859146711377
 20
-771.31877362437217
 30
0.0
 41
1.0
 10
-836.67389991100458
 20
-771.31877362437217
 30
0.0
 41
1.0
 10
-837.5792083548954
 20
-771.31877362437217
 30
0.0
 41
1.0
 10
-835.72712394350947
 20
-765.43170170190467
 30
0.0
 41
1.0
 10
-833.87503953212354
 20
-759.54462977943717
 30
0.0
 41
1.0
 10
-833.86491777382071
 20
-759.51258656598748
 30
0.0
 41
1.0
 10
-833.79231010497097
 20
-759.28228702416163
 30
0.0
 41
1.0
 10
-833.71970243612202
 20
-759.05198748233852
 30
0.0
 41
0.9999825681970477
 10
-833.64981939691108
 20
-758.82084658727513
 30
0.0
 41
1.0
 10
-833.60152833475036
 20
-758.66112200377938
 30
0.0
 41
1.0
 10
-833.55323727258963
 20
-758.50139742028375
 30
0.0
 41
1.0
 10
-833.45608491927305
 20
-758.18006219850986
 30
0.0
 41
0.9999672528965077
 10
-833.36414611364899
 20
-757.85719665292083
 30
0.0
 41
1.0
 10
-833.36135722998006
 20
-757.84740280753397
 30
0.0
 41
1.0
 10
-833.35856834631124
 20
-757.8376089621471
 30
0.0
 41
1.0
 10
-833.27220730802594
 20
-757.53433110733522
 30
0.0
 41
0.9999899749169176
 10
-833.18856569849095
 20
-757.2302920188821
 30
0.0
 41
1.0
 10
-833.17845977947127
 20
-757.19355678119609
 30
0.0
 41
1.0
 10
-833.1683538604517
 20
-757.15682154351009
 30
0.0
 41
1.0
 10
-833.10492408895459
 20
-756.92625293042408
 30
0.0
 41
0.9999214200504371
 10
-833.04729466057847
 20
-756.69416658822036
 30
0.0
 41
1.0
 10
-833.03452880839654
 20
-756.6427557028187
 30
0.0
 41
1.0
 10
-833.02176295621462
 20
-756.59134481741694
 30
0.0
 41
1.0
 10
-832.98966523219997
 20
-756.46208024600742
 30
0.0
 41
0.9999828681667008
 10
-832.95908298020549
 20
-756.33244877154357
 30
0.0
 41
1.0
 10
-832.92850072821091
 20
-756.20281729707904
 30
0.0
 41
0.9999389844478313
 10
-832.90078973942207
 20
-756.07254184118165
 30
0.0
 41
1.0
 10
-832.89365199570125
 20
-756.03898573734136
 30
0.0
 41
1.0
 10
-832.88651425198032
 20
-756.00542963350119
 30
0.0
 41
1.0
 10
-832.84452777575098
 20
-755.80804196992858
 30
0.0
 41
0.9998933699442306
 10
-832.80832351134904
 20
-755.60951236217215
 30
0.0
 41
1.0
 10
-832.80695068613227
 20
-755.60198434147333
 30
0.0
 41
1.0
 10
-832.80557786091549
 20
-755.5944563207745
 30
0.0
 41
1.0
 10
-832.76662794608012
 20
-755.38087067162041
 30
0.0
 41
0.9996850305193193
 10
-832.73844426982123
 20
-755.16559966618127
 30
0.0
 41
1.0
 10
-832.73644923645247
 20
-755.15036131206307
 30
0.0
 41
1.0
 10
-832.73445420308371
 20
-755.13512295794476
 30
0.0
 41
1.0
 10
-832.70704634062452
 20
-754.92577773078835
 30
0.0
 41
0.999469793670698
 10
-832.69332178140485
 20
-754.71509253545685
 30
0.0
 41
1.0
 10
-832.69284471215519
 20
-754.70776906324545
 30
0.0
 41
1.0
 10
-832.69236764290542
 20
-754.70044559103405
 30
0.0
 41
1.0
 10
-832.67959722218529
 20
-754.50440734012602
 30
0.0
 41
0.9991804893137367
 10
-832.68272553845804
 20
-754.30797849015266
 30
0.0
 41
1.0
 10
-832.68280941728017
 20
-754.30271168873969
 30
0.0
 41
1.0
 10
-832.68289329610229
 20
-754.29744488732661
 30
0.0
 41
1.0
 10
-832.68585385473079
 20
-754.11154964017896
 30
0.0
 41
0.9988448329321439
 10
-832.70664540035455
 20
-753.92679705034584
 30
0.0
 41
1.0
 10
-832.70823947405768
 20
-753.91263219457392
 30
0.0
 41
1.0
 10
-832.70983354776081
 20
-753.89846733880199
 30
0.0
 41
1.0
 10
-832.72743694597841
 20
-753.74204446051181
 30
0.0
 41
0.99855032094585
 10
-832.76175321827782
 20
-753.58842027642322
 30
0.0
 41
1.0
 10
-832.76933921034868
 20
-753.55445994902459
 30
0.0
 41
1.0
 10
-832.77692520241953
 20
-753.52049962162596
 30
0.0
 41
1.0
 10
-832.796069490577
 20
-753.43479609233555
 30
0.0
 41
0.9991036781370625
 10
-832.82239435222846
 20
-753.35101900500899
 30
0.0
 41
1.0
 10
-832.82637657768544
 20
-753.3383458424953
 30
0.0
 41
1.0
 10
-832.83035880314242
 20
-753.32567267998172
 30
0.0
 41
1.0
 10
-832.84871921388071
 20
-753.26724191768051
 30
0.0
 41
0.9998874504367631
 10
-832.8688244215582
 20
-753.20938831546073
 30
0.0
 41
1.0
 10
-832.88892962923683
 20
-753.15153471323742
 30
0.0
 41
0.9994041637544554
 10
-832.91297824217122
 20
-753.09520600934729
 30
0.0
 41
1.0
 10
-832.91717502639449
 20
-753.08537594486711
 30
0.0
 41
1.0
 10
-832.92137181061776
 20
-753.07554588038681
 30
0.0
 41
1.0
 10
-832.94925064161305
 20
-753.01024571441803
 30
0.0
 41
0.9991846840702593
 10
-832.98230699830674
 20
-752.94740768313636
 30
0.0
 41
1.0
 10
-832.98344360470242
 20
-752.94524706668039
 30
0.0
 41
1.0
 10
-832.98458021109809
 20
-752.94308645022454
 30
0.0
 41
1.0
 10
-833.01536335500055
 20
-752.8845696518548
 30
0.0
 41
0.9989253167922716
 10
-833.05143277905472
 20
-752.82915472346588
 30
0.0
 41
1.0
 10
-833.05248690372866
 20
-752.82753522870394
 30
0.0
 41
1.0
 10
-833.05354102840261
 20
-752.825915733942
 30
0.0
 41
1.0
 10
-833.08750220310924
 20
-752.77373979507615
 30
0.0
 41
0.9986467172836934
 10
-833.12669935574695
 20
-752.72537376144612
 30
0.0
 41
1.0
 10
-833.12757348444825
 20
-752.72429515916724
 30
0.0
 41
1.0
 10
-833.12844761314955
 20
-752.72321655688825
 30
0.0
 41
1.0
 10
-833.165896508385
 20
-752.67700772781575
 30
0.0
 41
0.9984001104266714
 10
-833.20832323890158
 20
-752.63532262044771
 30
0.0
 41
1.0
 10
-833.20891037701131
 20
-752.63474574556608
 30
0.0
 41
1.0
 10
-833.20949751512103
 20
-752.63416887068445
 30
0.0
 41
1.0
 10
-833.25074996941908
 20
-752.59363751307865
 30
0.0
 41
0.9982442159083259
 10
-833.29650607075428
 20
-752.55826895181872
 30
0.0
 41
1.0
 10
-833.29672086621497
 20
-752.55810291917635
 30
0.0
 41
1.0
 10
-833.29693566167566
 20
-752.55793688653398
 30
0.0
 41
1.0
 10
-833.34226217208868
 20
-752.52290039055936
 30
0.0
 41
0.9982450060836553
 10
-833.39141315116149
 20
-752.49346860752496
 30
0.0
 41
1.0
 10
-833.44056413023316
 20
-752.46403682449147
 30
0.0
 41
0.9983922639634488
 10
-833.49273043639801
 20
-752.44035718983741
 30
0.0
 41
1.0
 10
-833.49295731372251
 20
-752.44025420435594
 30
0.0
 41
1.0
 10
-833.49318419104702
 20
-752.44015121887446
 30
0.0
 41
1.0
 10
-833.5458042518618
 20
-752.41626561325711
 30
0.0
 41
0.9986517147149195
 10
-833.60061722473085
 20
-752.39796449413518
 30
0.0
 41
1.0
 10
-833.60129514615778
 20
-752.3977381477041
 30
0.0
 41
1.0
 10
-833.60197306758459
 20
-752.39751180127291
 30
0.0
 41
1.0
 10
-833.65814188330774
 20
-752.37875798928849
 30
0.0
 41
0.9989435598957035
 10
-833.71579527045856
 20
-752.36524028705401
 30
0.0
 41
1.0
 10
-833.71687539004085
 20
-752.36498703680081
 30
0.0
 41
1.0
 10
-833.71795550962315
 20
-752.36473378654773
 30
0.0
 41
1.0
 10
-833.77776913593868
 20
-752.35070958380697
 30
0.0
 41
0.999224924123967
 10
-833.83850064483659
 20
-752.34143424109186
 30
0.0
 41
1.0
 10
-833.83991433312701
 20
-752.34121833268409
 30
0.0
 41
1.0
 10
-833.84132802141744
 20
-752.34100242427633
 30
0.0
 41
1.0
 10
-833.90488690689642
 20
-752.33129526474556
 30
0.0
 41
0.9994396597834083
 10
-833.9689528434327
 20
-752.32586234239989
 30
0.0
 41
1.0
 10
-833.98809351091109
 20
-752.32423917468122
 30
0.0
 41
1.0
 10
-834.00723417838935
 20
-752.32261600696245
 30
0.0
 41
1.0
 10
-834.10958144988217
 20
-752.31393674917945
 30
0.0
 41
0.9987693403121257
 10
-834.21228507346916
 20
-752.31543981263212
 30
0.0
 41
1.0
 10
-834.22253940769588
 20
-752.31558988440634
 30
0.0
 41
1.0
 10
-834.23279374192259
 20
-752.31573995618044
 30
0.0
 41
1.0
 10
-834.34234950810185
 20
-752.31734330046788
 30
0.0
 41
0.9989753644966447
 10
-834.45131150811881
 20
-752.32884630739306
 30
0.0
 41
1.0
 10
-834.56027350813577
 20
-752.34034931431836
 30
0.0
 41
0.9983190067305815
 10
-834.66717231910116
 20
-752.36438430610519
 30
0.0
 41
1.0
 10
-834.67607327070743
 20
-752.3663855846678
 30
0.0
 41
1.0
 10
-834.68497422231371
 20
-752.3683868632304
 30
0.0
 41
1.0
 10
-834.809674936492
 20
-752.39642441214255
 30
0.0
 41
0.9985539388303162
 10
-834.93064469016974
 20
-752.437688088188
 30
0.0
 41
1.0
 10
-834.93299012113016
 20
-752.43848813200384
 30
0.0
 41
1.0
 10
-834.93533555209069
 20
-752.4392881758198
 30
0.0
 41
1.0
 10
-835.06099616768881
 20
-752.48215193949693
 30
0.0
 41
0.9988468746493733
 10
-835.18196650998902
 20
-752.53687002455922
 30
0.0
 41
1.0
 10
-835.18514933197798
 20
-752.53830969911928
 30
0.0
 41
1.0
 10
-835.18833215396694
 20
-752.53974937367934
 30
0.0
 41
1.0
 10
-835.31566814024484
 20
-752.59734680786164
 30
0.0
 41
0.9991322885918984
 10
-835.43776872430215
 20
-752.66534214004378
 30
0.0
 41
1.0
 10
-835.45537073534592
 20
-752.67514434203349
 30
0.0
 41
1.0
 10
-835.47297274638959
 20
-752.68494654402321
 30
0.0
 41
1.0
 10
-835.57514942744626
 20
-752.74184665980374
 30
0.0
 41
0.9993860037849267
 10
-835.67309043151977
 20
-752.80576267539232
 30
0.0
 41
1.0
 10
-835.67870874437131
 20
-752.80942917008679
 30
0.0
 41
1.0
 10
-835.68432705722284
 20
-752.81309566478114
 30
0.0
 41
1.0
 10
-835.77103143559225
 20
-752.86967869098032
 30
0.0
 41
0.9998821494953395
 10
-835.85595781140591
 20
-752.92889692105757
 30
0.0
 41
1.0
 10
-835.94088418721867
 20
-752.98811515113425
 30
0.0
 41
0.9997976482744493
 10
-836.02335981762235
 20
-753.0507015591761
 30
0.0
 41
1.0
 10
-836.0379960824273
 20
-753.06180824895591
 30
0.0
 41
1.0
 10
-836.05263234723225
 20
-753.07291493873572
 30
0.0
 41
1.0
 10
-836.16438050724673
 20
-753.15771472633787
 30
0.0
 41
0.9998091630800268
 10
-836.27273078527503
 20
-753.24681507703974
 30
0.0
 41
1.0
 10
-836.28573653775152
 20
-753.25751017748519
 30
0.0
 41
1.0
 10
-836.29874229022812
 20
-753.26820527793063
 30
0.0
 41
1.0
 10
-836.43310407321007
 20
-753.37869582952385
 30
0.0
 41
0.9995035112317097
 10
-836.56023995097337
 20
-753.49742964653854
 30
0.0
 41
1.0
 10
-836.56988726136149
 20
-753.50643939269719
 30
0.0
 41
1.0
 10
-836.5795345717496
 20
-753.51544913885584
 30
0.0
 41
1.0
 10
-836.70295763451406
 20
-753.63071551061091
 30
0.0
 41
0.9994630424298785
 10
-836.81856604029758
 20
-753.75381825384579
 30
0.0
 41
1.0
 10
-836.82224887906864
 20
-753.75773983335853
 30
0.0
 41
1.0
 10
-836.82593171783981
 20
-753.76166141287126
 30
0.0
 41
1.0
 10
-836.93417444608099
 20
-753.87692099708045
 30
0.0
 41
0.999516069375051
 10
-837.03504047561341
 20
-753.99868841495356
 30
0.0
 41
1.0
 10
-837.03697419569426
 20
-754.00102283916181
 30
0.0
 41
1.0
 10
-837.03890791577498
 20
-754.00335726336994
 30
0.0
 41
1.0
 10
-837.13590650514607
 20
-754.12045583282679
 30
0.0
 41
0.9996561470515092
 10
-837.22663272381146
 20
-754.24247859527532
 30
0.0
 41
1.0
 10
-837.23279038971248
 20
-754.25076038431632
 30
0.0
 41
1.0
 10
-837.23894805561349
 20
-754.25904217335733
 30
0.0
 41
1.0
 10
-837.31735894247686
 20
-754.36450135772373
 30
0.0
 41
0.9998349055172434
 10
-837.39188622440952
 20
-754.47273994138789
 30
0.0
 41
1.0
 10
-837.46641350633865
 20
-754.58097852504704
 30
0.0
 41
0.9999728109563575
 10
-837.53933640224443
 20
-754.69030445059536
 30
0.0
 41
1.0
 10
-837.54065161765993
 20
-754.69227622010339
 30
0.0
 41
1.0
 10
-837.54196683307532
 20
-754.69424798961154
 30
0.0
 41
1.0
 10
-837.61752015981097
 20
-754.80751745417456
 30
0.0
 41
0.9999972147287473
 10
-837.69253797018575
 20
-754.92114229701167
 30
0.0
 41
1.0
 10
-837.69750951280685
 20
-754.92867238548195
 30
0.0
 41
1.0
 10
-837.70248105542782
 20
-754.93620247395222
 30
0.0
 41
1.0
 10
-837.78744195104605
 20
-755.0648874937317
 30
0.0
 41
0.9999371979005259
 10
-837.86949730044853
 20
-755.19544440750656
 30
0.0
 41
1.0
 10
-837.87300618481163
 20
-755.20102733557371
 30
0.0
 41
1.0
 10
-837.87651506917473
 20
-755.20661026364087
 30
0.0
 41
1.0
 10
-837.96558818730193
 20
-755.34833303354776
 30
0.0
 41
0.999827202561045
 10
-838.04933157818323
 20
-755.49326891028841
 30
0.0
 41
1.0
 10
-838.06454675020825
 20
-755.51960202474675
 30
0.0
 41
1.0
 10
-838.07976192223327
 20
-755.5459351392052
 30
0.0
 41
1.0
 10
-838.19393565716348
 20
-755.74353724486093
 30
0.0
 41
0.9995217214838567
 10
-838.29567534671901
 20
-755.94781957272266
 30
0.0
 41
1.0
 10
-838.3033189093552
 20
-755.96316702242791
 30
0.0
 41
1.0
 10
-838.31096247199139
 20
-755.97851447213316
 30
0.0
 41
1.0
 10
-838.39786776457993
 20
-756.15301093021219
 30
0.0
 41
0.9998269762607681
 10
-838.47822223085109
 20
-756.33061921693388
 30
0.0
 41
1.0
 10
-838.55857669712213
 20
-756.50822750365523
 30
0.0
 41
0.9998944747389189
 10
-838.63373749168625
 20
-756.68809522928291
 30
0.0
 41
1.0
 10
-838.63869116127944
 20
-756.69994988420513
 30
0.0
 41
1.0
 10
-838.64364483087263
 20
-756.71180453912734
 30
0.0
 41
1.0
 10
-838.72429189142451
 20
-756.90480147914286
 30
0.0
 41
0.999950673441221
 10
-838.80108942032712
 20
-757.09936228399681
 30
0.0
 41
1.0
 10
-838.8156893855994
 20
-757.13635020580637
 30
0.0
 41
1.0
 10
-838.83028935087179
 20
-757.17333812761603
 30
0.0
 41
1.0
 10
-838.87788694923438
 20
-757.29392308886213
 30
0.0
 41
0.9999912393939254
 10
-838.92447339325304
 20
-757.41490229154874
 30
0.0
 41
1.0
 10
-838.97105983727602
 20
-757.53588149424627
 30
0.0
 41
0.9999927113974688
 10
-839.01672113167047
 20
-757.65721290174872
 30
0.0
 41
1.0
 10
-839.03068956306777
 20
-757.6943298837466
 30
0.0
 41
1.0
 10
-839.04465799446507
 20
-757.73144686574437
 30
0.0
 41
1.0
 10
-839.11825615165412
 20
-757.92701223724225
 30
0.0
 41
0.999948755095014
 10
-839.18787977662487
 20
-758.12402760242196
 30
0.0
 41
1.0
 10
-839.21147338656351
 20
-758.19079091271988
 30
0.0
 41
1.0
 10
-839.23506699650227
 20
-758.25755422301768
 30
0.0
 41
1.0
 10
-839.32975263087155
 20
-758.52548805783817
 30
0.0
 41
0.9999808436930922
 10
-839.42111421951222
 20
-758.79457348910159
 30
0.0
 41
1.0
 10
-839.51247580815129
 20
-759.06365892036024
 30
0.0
 41
0.9999873932903125
 10
-839.60113051686767
 20
-759.33364827536764
 30
0.0
 41
1.0
 10
-839.62122287373904
 20
-759.39483760812641
 30
0.0
 41
1.0
 10
-839.64131523061042
 20
-759.45602694088529
 30
0.0
 41
1.0
 10
-839.77015465306783
 20
-759.8483949614058
 30
0.0
 41
0.9999794883029314
 10
-839.89395743802754
 20
-760.2423811676889
 30
0.0
 41
1.0
 10
-839.90510969745878
 20
-760.27787177790606
 30
0.0
 41
1.0
 10
-839.91626195688991
 20
-760.3133623881231
 30
0.0
 41
1.0
 10
-840.05882012078837
 20
-760.76703514021301
 30
0.0
 41
0.9999982761803499
 10
-840.19969256081322
 20
-761.22123416236559
 30
0.0
 41
1.0
 10
-841.78783289338571
 20
-766.27000389336888
 30
0.0
 41
1.0
 10
-843.37597322595821
 20
-771.31877362437217
 30
0.0
 41
1.0
 10
-844.3247238374347
 20
-771.31877362437217
 30
0.0
 41
1.0
 10
-845.2734744489112
 20
-771.31877362437217
 30
0.0
 41
1.0
 10
-842.03518996275784
 20
-760.99145142442603
 30
0.0
 41
1.0
 10
-838.79690547660448
 20
-750.66412922447989
 30
0.0
 41
1.0
  0
LWPOLYLINE
  5
59
100
AcDbEntity
  8
0
370
              15
390
0
  6
Continuous
 62
               7
100
AcDbPolyline
 90
      232
 70
             128
 10
-864.50045125043152
 20
-751.74847205599508
 42
0.0004370800689895
 10
-864.55332842443056
 20
-751.81713869515636
 10
-864.592612655631
 20
-751.86824580814789
 42
0.0030481992176422
 10
-864.72295137275808
 20
-752.03996750050271
 10
-864.76146304450072
 20
-752.09135428428021
 42
0.0042058245759611
 10
-864.96544809517218
 20
-752.36836002935604
 10
-865.01785321767125
 20
-752.44079287613465
 42
0.0120948898740965
 10
-865.31389713443309
 20
-752.87154248068452
 10
-865.41008963355409
 20
-753.01902321590785
 42
0.014160126394895
 10
-865.71373368047671
 20
-753.51469255264396
 10
-865.75327094790669
 20
-753.5835365200827
 42
0.0071131081304081
 10
-865.95854327114102
 20
-753.95303931891385
 42
0.0068458791003529
 10
-866.15342279798415
 20
-754.32813088239016
 10
-866.1602346604418
 20
-754.3416925961136
 42
0.0064120880289818
 10
-866.35837691048516
 20
-754.74911707103047
 10
-866.36591159600312
 20
-754.76512892775372
 42
0.0058857236448908
 10
-866.56866698787201
 20
-755.20950503878259
 10
-866.57684191416865
 20
-755.22799519242267
 42
0.0053189741894565
 10
-866.78554622683612
 20
-755.71395866634077
 10
-866.79429403251743
 20
-755.7349405445367
 42
0.0047503650418244
 10
-867.01026775866762
 20
-756.26713997774482
 10
-867.01953600701631
 20
-756.29061635385426
 42
0.004207176217238
 10
-867.24408339074569
 20
-756.87370994792786
 10
-867.2538327930929
 20
-756.89967612279372
 42
0.0036680086484958
 10
-867.48828743640593
 20
-757.53831150732742
 10
-867.49849521625288
 20
-757.56676004166945
 42
0.0032573142628638
 10
-867.74412750222075
 20
-758.26561270142656
 10
-867.81277802305988
 20
-758.46507578547528
 42
0.0026133366647465
 10
-868.16122322181809
 20
-759.49493906914768
 10
-868.22448000931877
 20
-759.68516990454066
 42
0.0020592950742833
 10
-868.43834307828593
 20
-760.33727355715382
 10
-868.44139486944766
 20
-760.34671004555958
 42
0.0025609928534307
 10
-868.64321537093474
 20
-760.9818552679294
 10
-868.64580673805995
 20
-760.99015760886527
 42
0.0031362356240562
 10
-868.83529752373852
 20
-761.6109204650495
 10
-868.83742856666697
 20
-761.61806177126414
 42
0.003722991803057
 10
-869.01422895359246
 20
-762.22704707323476
 10
-869.01590754279596
 20
-762.23299396339883
 42
0.0043077623707959
 10
-869.17964834486384
 20
-762.83281269517818
 42
0.0047654161824505
 10
-869.33247706737905
 20
-763.43549878407805
 10
-869.36694167621886
 20
-763.57706056123027
 42
0.011296936844672
 10
-869.56280603436255
 20
-764.46875272185514
 10
-869.59081242345906
 20
-764.61158076795232
 42
0.0130056762571083
 10
-869.7916496671055
 20
-765.79852183959724
 10
-869.81218941725297
 20
-765.94259995307664
 42
0.0138721532144765
 10
-869.91589242179043
 20
-766.84942943889996
 10
-869.93518790969813
 20
-767.07292716082236
 42
0.0071254697005505
 10
-869.96853455562109
 20
-767.53611416967226
 10
-869.97349552978494
 20
-767.62211816424099
 42
0.0028881799205576
 10
-869.98863382307422
 20
-767.913859874075
 42
0.0060297297130945
 10
-869.99856602284979
 20
-768.20580881019623
 10
-869.99962830451682
 20
-768.2542011821231
 42
0.0229523164156576
 10
-869.99189727673115
 20
-768.57695602840647
 10
-869.98767150321044
 20
-768.6373595624267
 42
0.0123673300670583
 10
-869.96859285669257
 20
-768.83848028759746
 42
0.0128577674485091
 10
-869.93939746628496
 20
-769.03837813753194
 10
-869.93227159289927
 20
-769.07970695212123
 42
0.0285717853765946
 10
-869.86777759120321
 20
-769.35782310343541
 10
-869.85410906753725
 20
-769.40447787291089
 42
0.0316283099157583
 10
-869.73829848762284
 20
-769.72349237473759
 10
-869.73524979586705
 20
-769.73047874706367
 42
0.0338984824239061
 10
-869.58581808490021
 20
-770.01804471125229
 10
-869.5835093555304
 20
-770.0218357405281
 42
0.035022871835442
 10
-869.40114906485678
 20
-770.2788877252051
 10
-869.40026381308121
 20
-770.27996680296985
 42
0.0347476747530705
 10
-869.18583912584154
 20
-770.50715185018919
 42
0.0331337701911853
 10
-868.94259580009441
 20
-770.70328051226704
 10
-868.94149570157902
 20
-770.7040532154391
 42
0.030523331908482
 10
-868.67295100600586
 20
-770.86918138553028
 10
-868.66972096150448
 20
-770.87090539739313
 42
0.0273744481154533
 10
-868.37716724992947
 20
-771.00704354128379
 10
-868.37206271479249
 20
-771.00908712575324
 42
0.0240964406195875
 10
-868.05658563914608
 20
-771.11807085203475
 10
-868.05000230993687
 20
-771.11999559170965
 42
0.0209636179813001
 10
-867.71260215728432
 20
-771.20346373964173
 10
-867.70496969683563
 20
-771.20501565264317
 42
0.0181388704693479
 10
-867.34664730483507
 20
-771.26443174585734
 10
-867.33836645645897
 20
-771.26549792967421
 42
0.0156086547586433
 10
-866.96017909226987
 20
-771.30223411625093
 10
-866.91698383994299
 20
-771.30507261872981
 42
0.0137148329022676
 10
-866.58931069464415
 20
-771.3175928739812
 10
-866.54337450469893
 20
-771.31808730709645
 42
0.0051057823886298
 10
-866.30722891812593
 20
-771.31821756150555
 42
0.0052256693311074
 10
-866.07113163434542
 20
-771.31346873704138
 10
-866.00090485059786
 20
-771.31132177102722
 42
0.0161507179049102
 10
-865.62516777249584
 20
-771.28767140070056
 10
-865.6051548121236
 20
-771.28576120541311
 42
0.0101216737833241
 10
-865.19112759063057
 20
-771.2377682750473
 10
-865.15707430120619
 20
-771.23312057823796
 42
0.0245291776397074
 10
-864.68028464565668
 20
-771.14404550016206
 10
-864.59546133012725
 20
-771.12384957981499
 42
0.0143509212559574
 10
-864.23883022619157
 20
-771.02804494603708
 42
0.0156557857037629
 10
-863.88861416146506
 20
-770.91103373021861
 10
-863.88111294696955
 20
-770.90826356846412
 42
0.0170137333633041
 10
-863.52451695128582
 20
-770.7626059535919
 10
-863.51741302888058
 20
-770.75941811802932
 42
0.0183105364407521
 10
-863.15806336071671
 20
-770.58208307620635
 10
-863.15111659607555
 20
-770.57833264133285
 42
0.0194899958151208
 10
-862.79263585509148
 20
-770.3663536594421
 10
-862.78562197575479
 20
-770.36182831714711
 42
0.0204869852949763
 10
-862.43160767366089
 20
-770.11230830206125
 10
-862.42434206507392
 20
-770.10672823671291
 42
0.0212516938556617
 10
-862.07835213396584
 20
-769.81682423981829
 10
-862.03183543988962
 20
-769.77435692972404
 42
0.021524891825339
 10
-861.77180927100267
 20
-769.51559265073013
 10
-861.72677953662219
 20
-769.46674852938042
 42
0.0114578554957248
 10
-861.57198738294483
 20
-769.29092559592198
 10
-861.56079284695954
 20
-769.2776068323783
 42
0.0061531305130016
 10
-861.43431820096384
 20
-769.12331729907089
 42
0.0006325587122165
 10
-861.30993971675366
 20
-768.96731392332174
 10
-861.28689958176051
 20
-768.93834040273578
 42
0.0041897761557734
 10
-861.11844417778252
 20
-768.72282102666713
 10
-861.0599820578957
 20
-768.64671967968877
 42
0.0092993880034155
 10
-860.78337013067232
 20
-768.27244091580542
 10
-860.70097563747481
 20
-768.15650391223892
 42
0.0159321727085938
 10
-860.35436915483047
 20
-767.63432969148016
 10
-860.310013019439
 20
-767.56265012722611
 42
0.0085547317022827
 10
-860.07550125411558
 20
-767.16877517800549
 42
0.0084601156891658
 10
-859.85452507667321
 20
-766.76714832897267
 10
-859.84640960284332
 20
-766.75178864670033
 42
0.0081429654282802
 10
-859.62316033240495
 20
-766.31206713415747
 10
-859.61430016822192
 20
-766.2938882921402
 42
0.0076574581330064
 10
-859.38789265765388
 20
-765.81070541688462
 10
-859.37841301693129
 20
-765.78964093858406
 42
0.0070682724203733
 10
-859.14796810912298
 20
-765.25760363379925
 10
-859.1379778251428
 20
-765.23361444479121
 42
0.006455951444548
 10
-858.90264461696268
 20
-764.64730217827594
 10
-858.89223525879629
 20
-764.62036725283008
 42
0.0058311413905899
 10
-858.65118852203057
 20
-763.97433515843818
 10
-858.64043344464608
 20
-763.94445081728588
 42
0.0052312425818248
 10
-858.39285216660551
 20
-763.23324840345242
 10
-858.38180833022534
 20
-763.20042169138162
 42
0.0046680544796827
 10
-858.1268799024881
 20
-762.41859537561834
 10
-858.08488775244314
 20
-762.28561213832154
 42
0.004166685644544
 10
-857.88160174005225
 20
-761.62264336332919
 10
-857.84393929939495
 20
-761.49606225569778
 42
0.0015170975155765
 10
-857.72275272097545
 20
-761.0841939041818
 42
-0.0004887993116318
 10
-857.60241294786522
 20
-760.67207549218369
 10
-857.5259356903573
 20
-760.41111810619873
 42
0.0002583378928925
 10
-857.25272112022401
 20
-759.47706140278319
 10
-857.17094827074243
 20
-759.19696214352518
 42
0.0006636169669956
 10
-856.97708051070504
 20
-758.52960921984959
 10
-856.97198385635545
 20
-758.51197763696064
 42
0.0010589131326735
 10
-856.79053515544138
 20
-757.87924629392069
 10
-856.78555308495004
 20
-757.86173338686228
 42
0.0015655524460996
 10
-856.61728287777828
 20
-757.26311670769974
 10
-856.61245267736899
 20
-757.24572454878444
 42
0.0021640440476869
 10
-856.45816270537716
 20
-756.68069753074576
 10
-856.45352848594734
 20
-756.6634328007525
 42
0.0028763871851906
 10
-856.31401276789416
 20
-756.13146484990489
 10
-856.30962690372303
 20
-756.11434087173518
 42
0.0037310511948318
 10
-856.18567021189006
 20
-755.61489327772654
 10
-856.18159499159992
 20
-755.59793300647618
 42
0.0047652197772337
 10
-856.07397109109274
 20
-755.13045523817595
 10
-856.07028049176915
 20
-755.11369568302496
 42
0.00602766992982
 10
-855.97975039261564
 20
-754.67761988788175
 10
-855.97653170232604
 20
-754.66111867357006
 42
0.0075824337761521
 10
-855.90384239291097
 20
-754.2558515091464
 10
-855.90119701553022
 20
-754.23969656169265
 42
0.0095130624606691
 10
-855.84708177989955
 20
-753.86460720862408
 10
-855.84009555601654
 20
-753.80867365050437
 42
0.0121054653231347
 10
-855.81350422543915
 20
-753.54377782203369
 10
-855.81263773567923
 20
-753.53237437909991
 42
0.0069050827383896
 10
-855.79754891764196
 20
-753.28943315226036
 10
-855.7964136179736
 20
-753.26590689521811
 42
0.0169063976697825
 10
-855.79358633899301
 20
-753.06971416791487
 10
-855.79475699052432
 20
-753.00937840656275
 42
0.0052007732919307
 10
-855.79701043911746
 20
-752.93378501641359
 42
0.0054038123301027
 10
-855.81697395095796
 20
-752.81376672039426
 10
-855.8220598068267
 20
-752.78510823382248
 42
0.0112050460459956
 10
-855.85744416888326
 20
-752.60878179549184
 10
-855.87526913092574
 20
-752.52924020876264
 42
0.0240764468012099
 10
-855.96616649707266
 20
-752.19900317325914
 10
-855.98472525988439
 20
-752.14238300826992
 42
0.0256812331834511
 10
-856.12808818007466
 20
-751.7706588020103
 10
-856.1334976058962
 20
-751.75852746702014
 42
0.0268360501214992
 10
-856.30292484674601
 20
-751.42753433299958
 10
-856.30846125438211
 20
-751.41801466268555
 42
0.0274670231732307
 10
-856.50066223079443
 20
-751.12572728777002
 10
-856.50604353075892
 20
-751.11844814022606
 42
0.02750359671023
 10
-856.7176164103189
 20
-750.8629322499246
 10
-856.72268591128534
 20
-750.85745316229418
 42
0.0269557673526714
 10
-856.950089454725
 20
-750.63681087633188
 10
-856.95483251250846
 20
-750.63268092187036
 42
0.0259124802209152
 10
-857.19438734393839
 20
-750.44499039471873
 10
-857.19891818911719
 20
-750.44180489239056
 42
0.0245162153001314
 10
-857.44683454221513
 20
-750.28507188327796
 10
-857.45136108853956
 20
-750.28251168607699
 42
0.0229282588837735
 10
-857.70378064536681
 20
-750.15464349357819
 10
-857.70856113920388
 20
-750.15249119381599
 42
0.021298413569475
 10
-857.96159909166522
 20
-750.05129227657392
 10
-857.96690337663426
 20
-750.04942871381411
 42
0.0197555462343795
 10
-858.21668171435772
 20
-749.9726132958491
 42
0.0183511896788586
 10
-858.47161043982419
 20
-749.915030388883
 10
-858.55797563654255
 20
-749.89882759849888
 42
0.0338057877146185
 10
-858.84348298580426
 20
-749.86501919335831
 10
-858.93448839085374
 20
-749.86043953809644
 42
0.0091990524499779
 10
-859.04033549948008
 20
-749.85706368217484
 42
0.002833398077736
 10
-859.14624941547231
 20
-749.85623557465806
 10
-859.1471648685224
 20
-749.85623360483407
 42
-0.0023619827797166
 10
-859.25491088365141
 20
-749.85549276375536
 10
-859.29131605380417
 20
-749.85507045729253
 42
0.0008824598479479
 10
-859.47187204366526
 20
-749.85329467905422
 10
-859.51573347605995
 20
-749.85294071752867
 42
0.0038132665768147
 10
-859.78401637193576
 20
-749.85282178146201
 10
-859.80055002673225
 20
-749.85294054760561
 42
0.0060665569335614
 10
-860.10183051832394
 20
-749.85876084702647
 10
-860.11608085034891
 20
-749.85920915499401
 42
0.0080356953336273
 10
-860.4455395666879
 20
-749.87487687706084
 10
-860.45760958177539
 20
-749.87564546000135
 42
0.0098996399106436
 10
-860.8103726664267
 20
-749.90513068919961
 10
-860.82041837580095
 20
-749.90617098539769
 42
0.0117740981366861
 10
-861.19157523414742
 20
-749.95346323292722
 10
-861.19979793063226
 20
-749.95470834949833
 42
0.0137435215135444
 10
-861.58438675011757
 20
-750.02380532306006
 10
-861.59104378924076
 20
-750.02519121929356
 42
0.0158359869386611
 10
-861.9840408830438
 20
-750.12008330777451
 10
-861.98945406991038
 20
-750.12157324864484
 42
0.0180554124027576
 10
-862.38576911452299
 20
-750.24621126488364
 10
-862.39032590260604
 20
-750.24782730114987
 42
0.0203657431284098
 10
-862.78480342041894
 20
-750.40608764266631
 10
-862.78894695942472
 20
-750.40794926410751
 42
0.0226819684654627
 10
-863.17638301562772
 20
-750.60359184277809
 10
-863.18058280664673
 20
-750.60595743469833
 42
0.0248634984606613
 10
-863.55576474782856
 20
-750.84258408064591
 10
-863.60395967661168
 20
-750.87644112247096
 42
0.0267044190883345
 10
-863.87825237352831
 20
-751.09188149833938
 42
0.0139303002200173
 10
-864.13441953946699
 20
-751.3291203392514
 10
-864.13927292518792
 20
-751.33387300211143
 42
0.0283460963439294
 10
-864.38334551941489
 20
-751.60160366255604
 10
-864.42301402457178
 20
-751.65040524002961
 42
0.0070695364825991
 10
-864.50045125043152
 20
-751.74847205599508
 42
0.0070695364825991
  0
LWPOLYLINE
  5
5A
100
AcDbEntity
  8
0
370
              15
390
0
  6
Continuous
 62
               7
100
AcDbPolyline
 90
      226
 70
             128
 10
-868.02927168767792
 20
-767.47006086217903
 42
-0.0026277636647671
 10
-868.02934957147806
 20
-767.40328893648257
 10
-868.02913221324593
 20
-767.35013371899288
 42
-0.0088680296733002
 10
-868.02535559695286
 20
-767.17711793659203
 10
-868.02300923784037
 20
-767.11783791113623
 42
-0.0077381705613576
 10
-868.00696312707748
 20
-766.82657741534058
 10
-868.00609521590422
 20
-766.81428918165295
 42
-0.0068872530533517
 10
-867.97946313615512
 20
-766.49906742957432
 10
-867.97825891196999
 20
-766.48682645056522
 42
-0.0062130021483768
 10
-867.94066519514115
 20
-766.14795675931919
 10
-867.93916129160698
 20
-766.13578288741019
 42
-0.0056726929665974
 10
-867.89023943210327
 20
-765.77358766528573
 10
-867.88846598646046
 20
-765.76149386505142
 42
-0.0052341884497128
 10
-867.82785540020075
 20
-765.37630060953506
 10
-867.82583741142389
 20
-765.3642956795411
 42
-0.0049768450169539
 10
-867.75309872999708
 20
-764.95645111210706
 10
-867.7288497152756
 20
-764.82790312910254
 42
-0.0089029805623176
 10
-867.5917688634803
 20
-764.16612768167772
 10
-867.55902348816244
 20
-764.02109625115668
 42
-0.0080318257101079
 10
-867.32947487382205
 20
-763.07538661930369
 10
-867.31748994737359
 20
-763.02925598411287
 42
-0.0074265721317235
 10
-867.03347840852052
 20
-761.99919140572194
 10
-867.01359886540831
 20
-761.93105734514802
 42
-0.0069711922702484
 10
-866.68629428690019
 20
-760.86478960481497
 10
-866.62634233979395
 20
-760.67876824644202
 42
-0.005207042289481
 10
-866.39691711453543
 20
-759.99149616941304
 10
-866.37963592237327
 20
-759.94146888882494
 42
-0.0009167004448772
 10
-866.17654403507368
 20
-759.35701304064185
 42
-0.0025162726942635
 10
-865.96944640480342
 20
-758.7739717764581
 10
-865.93222179300597
 20
-758.6708222305748
 42
-0.0028212681457754
 10
-865.68404587404257
 20
-757.99509159840284
 10
-865.67421511128737
 20
-757.96878415371395
 42
-0.0031964916822457
 10
-865.43792285362952
 20
-757.34857939159906
 10
-865.42828839963272
 20
-757.32376940146162
 42
-0.0036281836450282
 10
-865.20318243852944
 20
-756.75632872056269
 10
-865.1937440283757
 20
-756.73303128906889
 42
-0.0041269166835574
 10
-864.97912633171291
 20
-756.21559039308158
 10
-864.94649337529324
 20
-756.13871194672333
 42
-0.0047472213056769
 10
-864.7894485697384
 20
-755.77829047883711
 10
-864.78255448852872
 20
-755.76286988150184
 42
-0.0025651659996018
 10
-864.63419645468002
 20
-755.43554182575667
 42
-0.0057144634994173
 10
-864.48044676090728
 20
-755.11073215239128
 10
-864.45241605550962
 20
-755.05322377000425
 42
-0.006538806837542
 10
-864.2689490277678
 20
-754.68899127333498
 10
-864.26049057198975
 20
-754.67273169396628
 42
-0.0074510843025728
 10
-864.08430832611134
 20
-754.34604341284273
 10
-864.07612865557928
 20
-754.33140263557209
 42
-0.0084648979857255
 10
-863.90649480248021
 20
-754.03949362461276
 10
-863.89863867599388
 20
-754.02648663296463
 42
-0.0095638542806908
 10
-863.73480322839782
 20
-753.76659776098336
 10
-863.7273282847267
 20
-753.75522839952885
 42
-0.0107191626801002
 10
-863.56852670433864
 20
-753.52461716498385
 10
-863.56150997061047
 20
-753.51488107262321
 42
-0.0118458573912051
 10
-863.40696187209505
 20
-753.31080887730855
 42
-0.0129184518183357
 10
-863.24250924849127
 20
-753.11464836113566
 10
-863.21236447612887
 20
-753.08052228223687
 42
-0.0217742579637475
 10
-863.0357521537951
 20
-752.8973155119885
 10
-863.0250066093389
 20
-752.88709867878947
 42
-0.0097266568650762
 10
-862.85894899047889
 20
-752.73525110434821
 42
-0.0187720905717656
 10
-862.68460141458877
 20
-752.59318225095865
 10
-862.65389542391699
 20
-752.57002316856415
 42
-0.0179428207519938
 10
-862.4214747039191
 20
-752.40747099145119
 10
-862.41782237700181
 20
-752.40510705656243
 42
-0.0170047877696303
 10
-862.18205873947295
 20
-752.26364654241195
 10
-862.17827575072772
 20
-752.26154823737636
 42
-0.0160190788364148
 10
-861.9413672030912
 20
-752.13989693538758
 42
-0.0151102861492802
 10
-861.69733542064318
 20
-752.03321415933237
 10
-861.64494891843287
 20
-752.01217402643829
 42
-0.0271945441886532
 10
-861.28628635937355
 20
-751.89030921573203
 10
-861.21722155888745
 20
-751.87095967446623
 42
-0.0237596594022167
 10
-860.80142471186377
 20
-751.77550896248442
 10
-860.73336185813264
 20
-751.76325427435756
 42
-0.0213715440553685
 10
-860.44748692668804
 20
-751.72430724284777
 10
-860.38733976047035
 20
-751.71871752814684
 42
-0.0101465655817671
 10
-860.21984722847583
 20
-751.70657398488277
 10
-860.21050684227987
 20
-751.7060870698856
 42
-0.0100375910880387
 10
-860.06135274171493
 20
-751.70131125196031
 10
-860.05109347203165
 20
-751.70118881294582
 42
-0.0103625633377549
 10
-859.92238547737975
 20
-751.70232024647248
 10
-859.90011982611304
 20
-751.70297760493736
 42
-0.011568925023367
 10
-859.81606908858498
 20
-751.70740711118253
 42
-0.0072438037433896
 10
-859.73223080914693
 20
-751.71499631093172
 10
-859.71543029967302
 20
-751.71676285365606
 42
-0.0217917313130217
 10
-859.5988605363583
 20
-751.73418274637731
 10
-859.53326044579137
 20
-751.74692935479186
 42
-0.0332943556755571
 10
-859.32886828076448
 20
-751.80096964609868
 10
-859.29869571221366
 20
-751.81113772321737
 42
-0.0184824084799833
 10
-859.16019065574915
 20
-751.86358873860365
 42
-0.0198002050690157
 10
-859.02611631525019
 20
-751.92647279880271
 10
-859.02422967787288
 20
-751.92745058568289
 42
-0.0212242342977097
 10
-858.89209073547079
 20
-752.00321332447595
 10
-858.89027543992734
 20
-752.00435912668434
 42
-0.0226090605792625
 10
-858.76177153870469
 20
-752.09383877024948
 10
-858.75992709696811
 20
-752.0952510232363
 42
-0.0238457052241465
 10
-858.63674501567596
 20
-752.19924691909796
 10
-858.63479228711617
 20
-752.20106179686479
 42
-0.0248160564147128
 10
-858.51859077981442
 20
-752.3203363980748
 10
-858.51648714641351
 20
-752.32272173177796
 42
-0.0254109591459039
 10
-858.40888192854902
 20
-752.45801011774029
 10
-858.40663390663349
 20
-752.46115166614288
 42
-0.0255528488286475
 10
-858.30918722783656
 20
-752.61317872037694
 10
-858.30685612792035
 20
-752.61726033198477
 42
-0.0252146793218307
 10
-858.22107510191086
 20
-752.78676257798259
 10
-858.21877286275367
 20
-752.79194465989463
 42
-0.0244265635948894
 10
-858.1461181689923
 20
-752.97969123194059
 10
-858.13687176752319
 20
-753.00755665028089
 42
-0.0231319612896454
 10
-858.09094898853164
 20
-753.17085769708069
 42
-0.0112130424365019
 10
-858.05631296599415
 20
-753.33706129726431
 10
-858.05511044088075
 20
-753.34355788415667
 42
-0.0210527881237075
 10
-858.02942396550998
 20
-753.52461352959574
 10
-858.02591337068793
 20
-753.56001907814516
 42
-0.0190029892424926
 10
-858.01047189714336
 20
-753.81355492441674
 10
-858.00966192069927
 20
-753.84903053878645
 42
-0.0137974553661488
 10
-858.0112107735348
 20
-754.17406194551904
 10
-858.01205622849034
 20
-754.20018069011041
 42
-0.008133663421654
 10
-858.02691556371292
 20
-754.50552815771198
 42
-0.0073526923574707
 10
-858.05122409708747
 20
-754.81027640199488
 10
-858.0524855208705
 20
-754.82361307666315
 42
-0.0066886138687512
 10
-858.08822110691619
 20
-755.15419912015352
 10
-858.08987819638696
 20
-755.16782073915181
 42
-0.0061359187355766
 10
-858.13772879843782
 20
-755.52458471925308
 10
-858.13976629951048
 20
-755.53847952208105
 42
-0.0056698610066154
 10
-858.20041663027848
 20
-755.92175809092441
 10
-858.20282206360071
 20
-755.9359172101498
 42
-0.0052721077271824
 10
-858.27695426440016
 20
-756.34604454982605
 10
-858.27971741324222
 20
-756.36046118521369
 42
-0.0049289272178727
 10
-858.36801153133968
 20
-756.79776969632417
 10
-858.37112402602475
 20
-756.81243854915192
 42
-0.0047415956711396
 10
-858.47436201755659
 20
-757.27723530656078
 10
-858.50913022791678
 20
-757.42704240194576
 42
-0.0084404470904465
 10
-858.69914667148635
 20
-758.187266426468
 10
-858.7052733594744
 20
-758.21013055063031
 42
-0.0039635940256136
 10
-858.9267270437598
 20
-759.01111941488296
 10
-858.94010383893783
 20
-759.05805103146952
 42
-0.0072475040838238
 10
-859.20755072680072
 20
-759.94727074785976
 10
-859.27776305362556
 20
-760.1690110978235
 42
-0.0051345458827329
 10
-859.56452242568707
 20
-761.04333628564291
 10
-859.58604869245869
 20
-761.10676255278486
 42
-0.0019150016603953
 10
-859.84158209932139
 20
-761.85031167299894
 10
-859.84804970370817
 20
-761.86889913789298
 42
-0.0021524362751882
 10
-860.09652775478162
 20
-762.57322495962842
 10
-860.10573817548243
 20
-762.598978537942
 42
-0.0024331286819929
 10
-860.34199343451382
 20
-763.24957784604806
 10
-860.35104138706083
 20
-763.27412115239304
 42
-0.0027449721790295
 10
-860.5756559578997
 20
-763.87325103132684
 10
-860.58454596528668
 20
-763.89657362116532
 42
-0.0031083229768311
 10
-860.798088451902
 20
-764.44649765875874
 10
-860.80682458357546
 20
-764.46858737461105
 42
-0.0035311343283092
 10
-861.00986576916944
 20
-764.97157050034662
 10
-861.01845110831573
 20
-764.99241322385353
 42
-0.0040245640946929
 10
-861.2115629121115
 20
-765.45072254644936
 10
-861.21999902571633
 20
-765.47030191452552
 42
-0.0046015135852669
 10
-861.40375531887821
 20
-765.88620694416363
 10
-861.41204149670307
 20
-765.90450408360823
 42
-0.005276863827259
 10
-861.58701901566224
 20
-766.28027696788604
 10
-861.59515122629045
 20
-766.29727030643198
 42
-0.0060672675637353
 10
-861.76193083905514
 20
-766.63518592954347
 10
-861.7699003195321
 20
-766.65085118853176
 42
-0.006990464887482
 10
-861.92906871353807
 20
-766.95318699520442
 10
-861.93686011314935
 20
-766.96749754443272
 42
-0.0080637022764125
 10
-862.08901197349473
 20
-767.23653284758484
 10
-862.09660100612473
 20
-767.24946071318345
 42
-0.0093006455671267
 10
-862.24234168265752
 20
-767.4874751116887
 10
-862.24969234940068
 20
-767.49899308086117
 42
-0.0107060778048469
 10
-862.38964089283968
 20
-767.70826339824089
 10
-862.39670266111739
 20
-767.71834894080405
 42
-0.0122723111414696
 10
-862.53149637931733
 20
-767.90114227029574
 10
-862.53182260286951
 20
-767.90156265810299
 42
-0.0141836319627452
 10
-862.67540420584533
 20
-768.07613241593492
 10
-862.68235196149487
 20
-768.08410741619684
 42
-0.0175957477211481
 10
-862.82225812953197
 20
-768.23372830460448
 42
-0.0080466359671764
 10
-862.96972189456415
 20
-768.37605083275741
 10
-863.01575643907972
 20
-768.41907127084687
 42
-0.0269600260395618
 10
-863.26903668506225
 20
-768.6313945293557
 10
-863.33560382135727
 20
-768.68134594397804
 42
-0.0178362839751991
 10
-863.57554831101561
 20
-768.84836387023233
 10
-863.58279328201661
 20
-768.85303238243762
 42
-0.0174650732651418
 10
-863.81912947945716
 20
-768.99389334739635
 42
-0.0169240130164674
 10
-864.06459572531548
 20
-769.11818560717404
 10
-864.11058188087281
 20
-769.13954756274097
 42
-0.031888303684159
 10
-864.46093273649228
 20
-769.27588587225091
 10
-864.52929827165929
 20
-769.29758649272708
 42
-0.0284435909899798
 10
-864.9053483979485
 20
-769.39380392820124
 10
-864.94050655844569
 20
-769.40069752402951
 42
-0.0243909341013595
 10
-865.25395001936613
 20
-769.44641855505984
 10
-865.30423074613623
 20
-769.45126410196133
 42
-0.0196639292933117
 10
-865.51982632366457
 20
-769.46351238747502
 10
-865.57165039482902
 20
-769.4644156482118
 42
-0.0100501510681591
 10
-865.68407367649229
 20
-769.46411524985865
 10
-865.71573353783117
 20
-769.46339417797344
 42
-0.0019752031128466
 10
-865.76482587451778
 20
-769.46208201776369
 10
-865.76758617773362
 20
-769.46199732593755
 42
0.0065378751981033
 10
-865.81116275249451
 20
-769.46123043472244
 42
-0.016797469464668
 10
-865.85469357542559
 20
-769.45957053619645
 10
-865.85877291468842
 20
-769.45927752530145
 42
-0.0081283276288379
 10
-865.9103327124194
 20
-769.45473053166438
 10
-865.92207228630559
 20
-769.45350261408521
 42
-0.0126703440176853
 10
-865.99679058210165
 20
-769.44376782301333
 10
-866.01957844977574
 20
-769.44020956709846
 42
-0.0117852088434585
 10
-866.13911743560607
 20
-769.41864657194174
 10
-866.1944978873712
 20
-769.40730303170676
 42
-0.025177459229874
 10
-866.42134192637718
 20
-769.34880502227441
 10
-866.46606111623657
 20
-769.33483820293645
 42
-0.0146525199881993
 10
-866.65245410376838
 20
-769.27057167574037
 42
-0.0166929435858205
 10
-866.83443175989339
 20
-769.19476454268658
 10
-866.83908839116839
 20
-769.19263964207175
 42
-0.01916843584392
 10
-867.02427202241643
 20
-769.09940355828246
 10
-867.02760460817467
 20
-769.09756231072845
 42
-0.0221181781808631
 10
-867.21091491207824
 20
-768.98542881235676
 10
-867.2132647160854
 20
-768.98384451436664
 42
-0.0254984685385535
 10
-867.38955486647001
 20
-768.85143336439774
 10
-867.4120370141726
 20
-768.83268105546085
 42
-0.0292492648812656
 10
-867.53680595301557
 20
-768.71558825581769
 42
-0.015904895749325
 10
-867.65064595046658
 20
-768.58756826421723
 10
-867.65196474104482
 20
-768.5859866511986
 42
-0.0343813379564289
 10
-867.75460200267162
 20
-768.44411532542824
 10
-867.78609353403249
 20
-768.39361193333423
 42
-0.0369117275700003
 10
-867.87198603592924
 20
-768.23013469238663
 42
-0.0191751379905457
 10
-867.9391794214863
 20
-768.05773008638084
 10
-867.94094274524582
 20
-768.05263674170578
 42
-0.03781780422307
 10
-867.99073746402996
 20
-767.8636959656252
 10
-867.99673275976113
 20
-767.83113534742347
 42
-0.0184846046473991
 10
-868.01744995905483
 20
-767.68938252688258
 42
-0.017986635131663
 10
-868.02778296412839
 20
-767.54649171379856
 10
-868.027839406574
 20
-767.5449340271889
 42
-0.0085497186139145
 10
-868.02927168767792
 20
-767.47006086217903
 42
-0.0085497186139145
  0
ENDBLK
  5
5B
100
AcDbEntity
  8
template
390
0
100
AcDbBlockEnd
  0
BLOCK
  5
5C
100
AcDbEntity
  8
notes
390
0
100
AcDbBlockBegin
  2
*D3
 70
               1
 10
0.0
 20
0.0
 30
0.0
  3
*D3
  1

  0
LINE
  5
5D
100
AcDbEntity
  8
0
370
              -2
390
0
  6
Continuous
 62
               0
100
AcDbLine
 10
-676.63130940699193
 20
-868.49129314809375
 30
0.0
 11
-755.63130940699239
 21
-868.49129314809375
 31
0.0
  0
LINE
  5
5E
100
AcDbEntity
  8
0
370
              -2
390
0
  6
Continuous
 62
               0
100
AcDbLine
 10
-676.63130940699193
 20
331.50870685190705
 30
0.0
 11
-755.63130940699239
 21
331.50870685190705
 31
0.0
  0
LINE
  5
5F
100
AcDbEntity
  8
0
370
              -2
390
0
  6
Continuous
 62
               0
100
AcDbLine
 10
-755.63130940699239
 20
-868.49129314809375
 30
0.0
 11
-755.63130940699239
 21
331.50870685190705
 31
0.0
  0
CIRCLE
  5
60
102
{ACAD_REACTORS
330
61
102
}
100
AcDbEntity
  8
0
370
              -2
390
0
  6
Continuous
 62
               0
100
AcDbCircle
 10
-755.63130940699239
 20
-868.49129314809375
 30
0.0
 40
4.99969482421875
  0
HATCH
  5
61
100
AcDbEntity
  8
0
370
              -2
390
0
  6
Continuous
 62
               0
100
AcDbHatch
 10
0.0
 20
0.0
 30
0.0
210
0.0
220
0.0
230
1.0
  2
SOLID
 70
               1
 71
               1
 91
        1
 92
        1
 93
        1
 72
               2
 10
-755.63130940699239
 20
-868.49129314809375
 40
4.99969482421875
 50
0.0
 51
360.0
 73
               0
 97
        1
330
60
 75
               0
 76
               1
 98
        1
 10
0.0
 20
0.0
  0
CIRCLE
  5
62
102
{ACAD_REACTORS
330
63
102
}
100
AcDbEntity
  8
0
370
              -2
390
0
  6
Continuous
 62
               0
100
AcDbCircle
 10
-755.63130940699239
 20
331.50870685190705
 30
0.0
 40
4.99969482421875
  0
HATCH
  5
63
100
AcDbEntity
  8
0
370
              -2
390
0
  6
Continuous
 62
               0
100
AcDbHatch
 10
0.0
 20
0.0
 30
0.0
210
0.0
220
0.0
230
1.0
  2
SOLID
 70
               1
 71
               1
 91
        1
 92
        1
 93
        1
 72
               2
 10
-755.63130940699239
 20
331.50870685190705
 40
4.99969482421875
 50
0.0
 51
360.0
 73
               0
 97
        1
330
62
 75
               0
 76
               1
 98
        1
 10
0.0
 20
0.0
  0
MTEXT
  5
64
100
AcDbEntity
  8
0
390
0
 62
               0
100
AcDbMText
 10
-786.90443440699255
 20
-300.24129314809329
 30
0.0
 40
21.828125
 41
0.0
 71
               1
 72
               1
  1
1200
  7
MS UI Gothic
 11
0.0
 21
1.0
 31
0.0
 73
               1
 44
0.8762322015334064
  0
POINT
  5
65
100
AcDbEntity
  8
Defpoints
370
               0
390
0
 62
               0
100
AcDbPoint
 10
-651.63130940699193
 20
331.50870685190705
 30
0.0
  0
POINT
  5
66
100
AcDbEntity
  8
Defpoints
370
               0
390
0
 62
               0
100
AcDbPoint
 10
-651.63130940699193
 20
-868.49129314809375
 30
0.0
  0
POINT
  5
67
100
AcDbEntity
  8
Defpoints
370
               0
390
0
 62
               0
100
AcDbPoint
 10
-755.63130940699239
 20
-868.49129314809375
 30
0.0
  0
ENDBLK
  5
68
100
AcDbEntity
  8
notes
390
0
100
AcDbBlockEnd
  0
BLOCK
  5
69
100
AcDbEntity
  8
notes
390
0
100
AcDbBlockBegin
  2
*D4
 70
               1
 10
0.0
 20
0.0
 30
0.0
  3
*D4
  1

  0
LINE
  5
6A
100
AcDbEntity
  8
0
370
              -2
390
0
  6
Continuous
 62
               0
100
AcDbLine
 10
-655.63130940699193
 20
352.50870685190705
 30
0.0
 11
-655.63130940699193
 21
431.50870685190705
 31
0.0
  0
LINE
  5
6B
100
AcDbEntity
  8
0
370
              -2
390
0
  6
Continuous
 62
               0
100
AcDbLine
 10
-175.63130940699193
 20
-71.001696833106394
 30
0.0
 11
-175.63130940699193
 21
431.50870685190705
 31
0.0
  0
LINE
  5
6C
100
AcDbEntity
  8
0
370
              -2
390
0
  6
Continuous
 62
               0
100
AcDbLine
 10
-655.63130940699193
 20
431.50870685190705
 30
0.0
 11
-175.63130940699193
 21
431.50870685190705
 31
0.0
  0
CIRCLE
  5
6D
102
{ACAD_REACTORS
330
6E
102
}
100
AcDbEntity
  8
0
370
              -2
390
0
  6
Continuous
 62
               0
100
AcDbCircle
 10
-655.63130940699193
 20
431.50870685190705
 30
0.0
 40
4.99969482421875
  0
HATCH
  5
6E
100
AcDbEntity
  8
0
370
              -2
390
0
  6
Continuous
 62
               0
100
AcDbHatch
 10
0.0
 20
0.0
 30
0.0
210
0.0
220
0.0
230
1.0
  2
SOLID
 70
               1
 71
               1
 91
        1
 92
        1
 93
        1
 72
               2
 10
-655.63130940699193
 20
431.50870685190705
 40
4.99969482421875
 50
0.0
 51
360.0
 73
               0
 97
        1
330
6D
 75
               0
 76
               1
 98
        1
 10
0.0
 20
0.0
  0
CIRCLE
  5
6F
102
{ACAD_REACTORS
330
70
102
}
100
AcDbEntity
  8
0
370
              -2
390
0
  6
Continuous
 62
               0
100
AcDbCircle
 10
-175.63130940699193
 20
431.50870685190705
 30
0.0
 40
4.99969482421875
  0
HATCH
  5
70
100
AcDbEntity
  8
0
370
              -2
390
0
  6
Continuous
 62
               0
100
AcDbHatch
 10
0.0
 20
0.0
 30
0.0
210
0.0
220
0.0
230
1.0
  2
SOLID
 70
               1
 71
               1
 91
        1
 92
        1
 93
        1
 72
               2
 10
-175.63130940699193
 20
431.50870685190705
 40
4.99969482421875
 50
0.0
 51
360.0
 73
               0
 97
        1
330
6F
 75
               0
 76
               1
 98
        1
 10
0.0
 20
0.0
  0
MTEXT
  5
71
100
AcDbEntity
  8
0
390
0
 62
               0
100
AcDbMText
 10
-439.44381108916741
 20
462.7818318519071
 30
0.0
 40
21.828125
 41
0.0
 71
               1
 72
               1
  1
480
  7
MS UI Gothic
 73
               1
 44
0.8762322015334064
  0
POINT
  5
72
100
AcDbEntity
  8
Defpoints
370
               0
390
0
 62
               0
100
AcDbPoint
 10
-175.63130940699193
 20
-96.001696833106394
 30
0.0
  0
POINT
  5
73
100
AcDbEntity
  8
Defpoints
370
               0
390
0
 62
               0
100
AcDbPoint
 10
-655.63130940699193
 20
327.50870685190705
 30
0.0
  0
POINT
  5
74
100
AcDbEntity
  8
Defpoints
370
               0
390
0
 62
               0
100
AcDbPoint
 10
-655.63130940699193
 20
431.50870685190705
 30
0.0
  0
ENDBLK
  5
75
100
AcDbEntity
  8
notes
390
0
100
AcDbBlockEnd
  0
BLOCK
  5
76
100
AcDbEntity
  8
notes
390
0
100
AcDbBlockBegin
  2
*D5
 70
               1
 10
0.0
 20
0.0
 30
0.0
  3
*D5
  1

  0
LINE
  5
77
100
AcDbEntity
  8
0
370
              -2
390
0
  6
Continuous
 62
               0
100
AcDbLine
 10
-655.63130940699193
 20
-889.49129314809375
 30
0.0
 11
-655.63130940699193
 21
-993.25
 31
0.0
  0
LINE
  5
78
100
AcDbEntity
  8
0
370
              -2
390
0
  6
Continuous
 62
               0
100
AcDbLine
 10
-325.63130940699284
 20
-889.49129314809375
 30
0.0
 11
-325.63130940699284
 21
-993.25
 31
0.0
  0
LINE
  5
79
100
AcDbEntity
  8
0
370
              -2
390
0
  6
Continuous
 62
               0
100
AcDbLine
 10
-655.63130940699193
 20
-993.25
 30
0.0
 11
-325.63130940699284
 21
-993.25
 31
0.0
  0
CIRCLE
  5
7A
102
{ACAD_REACTORS
330
7B
102
}
100
AcDbEntity
  8
0
370
              -2
390
0
  6
Continuous
 62
               0
100
AcDbCircle
 10
-655.63130940699193
 20
-993.25
 30
0.0
 40
4.99969482421875
  0
HATCH
  5
7B
100
AcDbEntity
  8
0
370
              -2
390
0
  6
Continuous
 62
               0
100
AcDbHatch
 10
0.0
 20
0.0
 30
0.0
210
0.0
220
0.0
230
1.0
  2
SOLID
 70
               1
 71
               1
 91
        1
 92
        1
 93
        1
 72
               2
 10
-655.63130940699193
 20
-993.25
 40
4.99969482421875
 50
0.0
 51
360.0
 73
               0
 97
        1
330
7A
 75
               0
 76
               1
 98
        1
 10
0.0
 20
0.0
  0
CIRCLE
  5
7C
102
{ACAD_REACTORS
330
7D
102
}
100
AcDbEntity
  8
0
370
              -2
390
0
  6
Continuous
 62
               0
100
AcDbCircle
 10
-325.63130940699284
 20
-993.25
 30
0.0
 40
4.99969482421875
  0
HATCH
  5
7D
100
AcDbEntity
  8
0
370
              -2
390
0
  6
Continuous
 62
               0
100
AcDbHatch
 10
0.0
 20
0.0
 30
0.0
210
0.0
220
0.0
230
1.0
  2
SOLID
 70
               1
 71
               1
 91
        1
 92
        1
 93
        1
 72
               2
 10
-325.63130940699284
 20
-993.25
 40
4.99969482421875
 50
0.0
 51
360.0
 73
               0
 97
        1
330
7C
 75
               0
 76
               1
 98
        1
 10
0.0
 20
0.0
  0
MTEXT
  5
7E
100
AcDbEntity
  8
0
390
0
 62
               0
100
AcDbMText
 10
-523.93510423726138
 20
-961.97687500000006
 30
0.0
 40
21.828125
 41
0.0
 71
               1
 72
               1
  1
330
  7
MS UI Gothic
 73
               1
 44
0.8762322015334064
  0
POINT
  5
7F
100
AcDbEntity
  8
Defpoints
370
               0
390
0
 62
               0
100
AcDbPoint
 10
-325.63130940699284
 20
-864.49129314809375
 30
0.0
  0
POINT
  5
80
100
AcDbEntity
  8
Defpoints
370
               0
390
0
 62
               0
100
AcDbPoint
 10
-655.63130940699193
 20
-864.49129314809375
 30
0.0
  0
POINT
  5
81
100
AcDbEntity
  8
Defpoints
370
               0
390
0
 62
               0
100
AcDbPoint
 10
-655.63130940699193
 20
-993.25
 30
0.0
  0
ENDBLK
  5
82
100
AcDbEntity
  8
notes
390
0
100
AcDbBlockEnd
  0
BLOCK
  5
83
100
AcDbEntity
  8
notes
390
0
100
AcDbBlockBegin
  2
*D6
 70
               1
 10
0.0
 20
0.0
 30
0.0
  3
*D6
  1

  0
LINE
  5
84
100
AcDbEntity
  8
0
370
              -2
390
0
  6
Continuous
 62
               0
100
AcDbLine
 10
-244.58987473764319
 20
-503.48088946308189
 30
0.0
 11
-75.631309406991932
 21
-503.48088946308189
 31
0.0
  0
LINE
  5
85
100
AcDbEntity
  8
0
370
              -2
390
0
  6
Continuous
 62
               0
100
AcDbLine
 10
-244.58987473764319
 20
-33.50169683310628
 30
0.0
 11
-75.631309406991932
 21
-33.50169683310628
 31
0.0
  0
LINE
  5
86
100
AcDbEntity
  8
0
370
              -2
390
0
  6
Continuous
 62
               0
100
AcDbLine
 10
-75.631309406991932
 20
-503.48088946308189
 30
0.0
 11
-75.631309406991932
 21
-33.50169683310628
 31
0.0
  0
CIRCLE
  5
87
102
{ACAD_REACTORS
330
88
102
}
100
AcDbEntity
  8
0
370
              -2
390
0
  6
Continuous
 62
               0
100
AcDbCircle
 10
-75.631309406991932
 20
-503.48088946308189
 30
0.0
 40
4.99969482421875
  0
HATCH
  5
88
100
AcDbEntity
  8
0
370
              -2
390
0
  6
Continuous
 62
               0
100
AcDbHatch
 10
0.0
 20
0.0
 30
0.0
210
0.0
220
0.0
230
1.0
  2
SOLID
 70
               1
 71
               1
 91
        1
 92
        1
 93
        1
 72
               2
 10
-75.631309406991932
 20
-503.48088946308189
 40
4.99969482421875
 50
0.0
 51
360.0
 73
               0
 97
        1
330
87
 75
               0
 76
               1
 98
        1
 10
0.0
 20
0.0
  0
CIRCLE
  5
89
102
{ACAD_REACTORS
330
8A
102
}
100
AcDbEntity
  8
0
370
              -2
390
0
  6
Continuous
 62
               0
100
AcDbCircle
 10
-75.631309406991932
 20
-33.50169683310628
 30
0.0
 40
4.99969482421875
  0
HATCH
  5
8A
100
AcDbEntity
  8
0
370
              -2
390
0
  6
Continuous
 62
               0
100
AcDbHatch
 10
0.0
 20
0.0
 30
0.0
210
0.0
220
0.0
230
1.0
  2
SOLID
 70
               1
 71
               1
 91
        1
 92
        1
 93
        1
 72
               2
 10
-75.631309406991932
 20
-33.50169683310628
 40
4.99969482421875
 50
0.0
 51
360.0
 73
               0
 97
        1
330
89
 75
               0
 76
               1
 98
        1
 10
0.0
 20
0.0
  0
MTEXT
  5
8B
100
AcDbEntity
  8
0
390
0
 62
               0
100
AcDbMText
 10
-106.90443440699187
 20
-292.30379483026962
 30
0.0
 40
21.828125
 41
0.0
 71
               1
 72
               1
  1
470
  7
MS UI Gothic
 11
0.0
 21
1.0
 31
0.0
 73
               1
 44
0.8762322015334064
  0
POINT
  5
8C
100
AcDbEntity
  8
Defpoints
370
               0
390
0
 62
               0
100
AcDbPoint
 10
-269.58987473764319
 20
-33.50169683310628
 30
0.0
  0
POINT
  5
8D
100
AcDbEntity
  8
Defpoints
370
               0
390
0
 62
               0
100
AcDbPoint
 10
-269.58987473764319
 20
-503.48088946308189
 30
0.0
  0
POINT
  5
8E
100
AcDbEntity
  8
Defpoints
370
               0
390
0
 62
               0
100
AcDbPoint
 10
-75.631309406991932
 20
-503.48088946308189
 30
0.0
  0
ENDBLK
  5
8F
100
AcDbEntity
  8
notes
390
0
100
AcDbBlockEnd
  0
BLOCK
  5
90
100
AcDbEntity
  8
notes
390
0
100
AcDbBlockBegin
  2
*D7
 70
               1
 10
0.0
 20
0.0
 30
0.0
  3
*D7
  1

  0
LINE
  5
91
100
AcDbEntity
  8
0
370
              -2
390
0
  6
Continuous
 62
               0
100
AcDbLine
 10
-525.63130940699284
 20
-390.98088946308224
 30
0.0
 11
-525.63130940699284
 21
-603.48088946308224
 31
0.0
  0
LINE
  5
92
100
AcDbEntity
  8
0
370
              -2
390
0
  6
Continuous
 62
               0
100
AcDbLine
 10
-200.63130940699284
 20
-390.98088946308224
 30
0.0
 11
-200.63130940699284
 21
-603.48088946308224
 31
0.0
  0
LINE
  5
93
100
AcDbEntity
  8
0
370
              -2
390
0
  6
Continuous
 62
               0
100
AcDbLine
 10
-525.63130940699284
 20
-603.48088946308224
 30
0.0
 11
-200.63130940699284
 21
-603.48088946308224
 31
0.0
  0
CIRCLE
  5
94
102
{ACAD_REACTORS
330
95
102
}
100
AcDbEntity
  8
0
370
              -2
390
0
  6
Continuous
 62
               0
100
AcDbCircle
 10
-525.63130940699284
 20
-603.48088946308224
 30
0.0
 40
4.99969482421875
  0
HATCH
  5
95
100
AcDbEntity
  8
0
370
              -2
390
0
  6
Continuous
 62
               0
100
AcDbHatch
 10
0.0
 20
0.0
 30
0.0
210
0.0
220
0.0
230
1.0
  2
SOLID
 70
               1
 71
               1
 91
        1
 92
        1
 93
        1
 72
               2
 10
-525.63130940699284
 20
-603.48088946308224
 40
4.99969482421875
 50
0.0
 51
360.0
 73
               0
 97
        1
330
94
 75
               0
 76
               1
 98
        1
 10
0.0
 20
0.0
  0
CIRCLE
  5
96
102
{ACAD_REACTORS
330
97
102
}
100
AcDbEntity
  8
0
370
              -2
390
0
  6
Continuous
 62
               0
100
AcDbCircle
 10
-200.63130940699284
 20
-603.48088946308224
 30
0.0
 40
4.99969482421875
  0
HATCH
  5
97
100
AcDbEntity
  8
0
370
              -2
390
0
  6
Continuous
 62
               0
100
AcDbHatch
 10
0.0
 20
0.0
 30
0.0
210
0.0
220
0.0
230
1.0
  2
SOLID
 70
               1
 71
               1
 91
        1
 92
        1
 93
        1
 72
               2
 10
-200.63130940699284
 20
-603.48088946308224
 40
4.99969482421875
 50
0.0
 51
360.0
 73
               0
 97
        1
330
96
 75
               0
 76
               1
 98
        1
 10
0.0
 20
0.0
  0
MTEXT
  5
98
100
AcDbEntity
  8
0
390
0
 62
               0
100
AcDbMText
 10
-386.94381108916832
 20
-572.20776446308219
 30
0.0
 40
21.828125
 41
0.0
 71
               1
 72
               1
  1
325
  7
MS UI Gothic
 73
               1
 44
0.8762322015334064
  0
POINT
  5
99
100
AcDbEntity
  8
Defpoints
370
               0
390
0
 62
               0
100
AcDbPoint
 10
-200.63130940699284
 20
-365.98088946308224
 30
0.0
  0
POINT
  5
9A
100
AcDbEntity
  8
Defpoints
370
               0
390
0
 62
               0
100
AcDbPoint
 10
-525.63130940699284
 20
-365.98088946308224
 30
0.0
  0
POINT
  5
9B
100
AcDbEntity
  8
Defpoints
370
               0
390
0
 62
               0
100
AcDbPoint
 10
-525.63130940699284
 20
-603.48088946308224
 30
0.0
  0
ENDBLK
  5
9C
100
AcDbEntity
  8
notes
390
0
100
AcDbBlockEnd
  0
BLOCK
  5
9D
100
AcDbEntity
  8
notes
390
0
100
AcDbBlockBegin
  2
*D8
 70
               1
 10
0.0
 20
0.0
 30
0.0
  3
*D8
  1

  0
LINE
  5
9E
100
AcDbEntity
  8
0
370
              -2
390
0
  6
Continuous
 62
               0
100
AcDbLine
 10
438.80838594998204
 20
-408.45512155737481
 30
0.0
 11
343.80838594998204
 21
-408.45512155737481
 31
0.0
  0
LINE
  5
9F
100
AcDbEntity
  8
0
370
              -2
390
0
  6
Continuous
 62
               0
100
AcDbLine
 10
438.76972746208958
 20
-128.4551215573747
 30
0.0
 11
343.80838594998204
 21
-128.4551215573747
 31
0.0
  0
LINE
  5
A0
100
AcDbEntity
  8
0
370
              -2
390
0
  6
Continuous
 62
               0
100
AcDbLine
 10
343.80838594998204
 20
-408.45512155737481
 30
0.0
 11
343.80838594998204
 21
-128.4551215573747
 31
0.0
  0
CIRCLE
  5
A1
102
{ACAD_REACTORS
330
A2
102
}
100
AcDbEntity
  8
0
370
              -2
390
0
  6
Continuous
 62
               0
100
AcDbCircle
 10
343.80838594998204
 20
-408.45512155737481
 30
0.0
 40
4.99969482421875
  0
HATCH
  5
A2
100
AcDbEntity
  8
0
370
              -2
390
0
  6
Continuous
 62
               0
100
AcDbHatch
 10
0.0
 20
0.0
 30
0.0
210
0.0
220
0.0
230
1.0
  2
SOLID
 70
               1
 71
               1
 91
        1
 92
        1
 93
        1
 72
               2
 10
343.80838594998204
 20
-408.45512155737481
 40
4.99969482421875
 50
0.0
 51
360.0
 73
               0
 97
        1
330
A1
 75
               0
 76
               1
 98
        1
 10
0.0
 20
0.0
  0
CIRCLE
  5
A3
102
{ACAD_REACTORS
330
A4
102
}
100
AcDbEntity
  8
0
370
              -2
390
0
  6
Continuous
 62
               0
100
AcDbCircle
 10
343.80838594998204
 20
-128.4551215573747
 30
0.0
 40
4.99969482421875
  0
HATCH
  5
A4
100
AcDbEntity
  8
0
370
              -2
390
0
  6
Continuous
 62
               0
100
AcDbHatch
 10
0.0
 20
0.0
 30
0.0
210
0.0
220
0.0
230
1.0
  2
SOLID
 70
               1
 71
               1
 91
        1
 92
        1
 93
        1
 72
               2
 10
343.80838594998204
 20
-128.4551215573747
 40
4.99969482421875
 50
0.0
 51
360.0
 73
               0
 97
        1
330
A3
 75
               0
 76
               1
 98
        1
 10
0.0
 20
0.0
  0
MTEXT
  5
A5
100
AcDbEntity
  8
0
390
0
 62
               0
100
AcDbMText
 10
312.5352609499821
 20
-292.26762323955029
 30
0.0
 40
21.828125
 41
0.0
 71
               1
 72
               1
  1
280
  7
MS UI Gothic
 11
0.0
 21
1.0
 31
0.0
 73
               1
 44
0.8762322015334064
  0
POINT
  5
A6
100
AcDbEntity
  8
Defpoints
370
               0
390
0
 62
               0
100
AcDbPoint
 10
463.76972746208958
 20
-128.4551215573747
 30
0.0
  0
POINT
  5
A7
100
AcDbEntity
  8
Defpoints
370
               0
390
0
 62
               0
100
AcDbPoint
 10
463.80838594998204
 20
-408.45512155737481
 30
0.0
  0
POINT
  5
A8
100
AcDbEntity
  8
Defpoints
370
               0
390
0
 62
               0
100
AcDbPoint
 10
343.80838594998204
 20
-408.45512155737481
 30
0.0
  0
ENDBLK
  5
A9
100
AcDbEntity
  8
notes
390
0
100
AcDbBlockEnd
  0
BLOCK
  5
AA
100
AcDbEntity
  8
notes
390
0
100
AcDbBlockBegin
  2
*D9
 70
               1
 10
0.0
 20
0.0
 30
0.0
  3
*D9
  1

  0
LINE
  5
AB
100
AcDbEntity
  8
0
370
              -2
390
0
  6
Continuous
 62
               0
100
AcDbLine
 10
443.76972746208958
 20
-893.4958645111376
 30
0.0
 11
443.76972746208958
 21
-968.49129314809352
 31
0.0
  0
LINE
  5
AC
100
AcDbEntity
  8
0
370
              -2
390
0
  6
Continuous
 62
               0
100
AcDbLine
 10
483.80838594998204
 20
-453.45512155737447
 30
0.0
 11
483.80838594998204
 21
-968.49129314809352
 31
0.0
  0
LINE
  5
AD
100
AcDbEntity
  8
0
370
              -2
390
0
  6
Continuous
 62
               0
100
AcDbLine
 10
443.76972746208958
 20
-968.49129314809352
 30
0.0
 11
483.80838594998204
 21
-968.49129314809352
 31
0.0
  0
CIRCLE
  5
AE
102
{ACAD_REACTORS
330
AF
102
}
100
AcDbEntity
  8
0
370
              -2
390
0
  6
Continuous
 62
               0
100
AcDbCircle
 10
443.76972746208958
 20
-968.49129314809352
 30
0.0
 40
4.99969482421875
  0
HATCH
  5
AF
100
AcDbEntity
  8
0
370
              -2
390
0
  6
Continuous
 62
               0
100
AcDbHatch
 10
0.0
 20
0.0
 30
0.0
210
0.0
220
0.0
230
1.0
  2
SOLID
 70
               1
 71
               1
 91
        1
 92
        1
 93
        1
 72
               2
 10
443.76972746208958
 20
-968.49129314809352
 40
4.99969482421875
 50
0.0
 51
360.0
 73
               0
 97
        1
330
AE
 75
               0
 76
               1
 98
        1
 10
0.0
 20
0.0
  0
CIRCLE
  5
B0
102
{ACAD_REACTORS
330
B1
102
}
100
AcDbEntity
  8
0
370
              -2
390
0
  6
Continuous
 62
               0
100
AcDbCircle
 10
483.80838594998204
 20
-968.49129314809352
 30
0.0
 40
4.99969482421875
  0
HATCH
  5
B1
100
AcDbEntity
  8
0
370
              -2
390
0
  6
Continuous
 62
               0
100
AcDbHatch
 10
0.0
 20
0.0
 30
0.0
210
0.0
220
0.0
230
1.0
  2
SOLID
 70
               1
 71
               1
 91
        1
 92
        1
 93
        1
 72
               2
 10
483.80838594998204
 20
-968.49129314809352
 40
4.99969482421875
 50
0.0
 51
360.0
 73
               0
 97
        1
330
B0
 75
               0
 76
               1
 98
        1
 10
0.0
 20
0.0
  0
MTEXT
  5
B2
100
AcDbEntity
  8
0
390
0
 62
               0
100
AcDbMText
 10
447.91405670603581
 20
-937.21816814809358
 30
0.0
 40
21.828125
 41
0.0
 71
               1
 72
               1
  1
40
  7
MS UI Gothic
 73
               1
 44
0.8762322015334064
  0
POINT
  5
B3
100
AcDbEntity
  8
Defpoints
370
               0
390
0
 62
               0
100
AcDbPoint
 10
483.80838594998204
 20
-428.45512155737447
 30
0.0
  0
POINT
  5
B4
100
AcDbEntity
  8
Defpoints
370
               0
390
0
 62
               0
100
AcDbPoint
 10
443.76972746208958
 20
-868.4958645111376
 30
0.0
  0
POINT
  5
B5
100
AcDbEntity
  8
Defpoints
370
               0
390
0
 62
               0
100
AcDbPoint
 10
443.76972746208958
 20
-968.49129314809352
 30
0.0
  0
ENDBLK
  5
B6
100
AcDbEntity
  8
notes
390
0
100
AcDbBlockEnd
  0
BLOCK
  5
B7
100
AcDbEntity
  8
notes
390
0
100
AcDbBlockBegin
  2
*D10
 70
               1
 10
0.0
 20
0.0
 30
0.0
  3
*D10
  1

  0
LINE
  5
B8
100
AcDbEntity
  8
0
370
              -2
390
0
  6
Continuous
 62
               0
100
AcDbLine
 10
443.76972746208958
 20
356.5041354888632
 30
0.0
 11
443.76972746208958
 21
431.5041354888632
 31
0.0
  0
LINE
  5
B9
100
AcDbEntity
  8
0
370
              -2
390
0
  6
Continuous
 62
               0
100
AcDbLine
 10
493.76972746208867
 20
356.5041354888632
 30
0.0
 11
493.76972746208867
 21
431.5041354888632
 31
0.0
  0
LINE
  5
BA
100
AcDbEntity
  8
0
370
              -2
390
0
  6
Continuous
 62
               0
100
AcDbLine
 10
443.76972746208958
 20
431.5041354888632
 30
0.0
 11
493.76972746208867
 21
431.5041354888632
 31
0.0
  0
CIRCLE
  5
BB
102
{ACAD_REACTORS
330
BC
102
}
100
AcDbEntity
  8
0
370
              -2
390
0
  6
Continuous
 62
               0
100
AcDbCircle
 10
443.76972746208958
 20
431.5041354888632
 30
0.0
 40
4.99969482421875
  0
HATCH
  5
BC
100
AcDbEntity
  8
0
370
              -2
390
0
  6
Continuous
 62
               0
100
AcDbHatch
 10
0.0
 20
0.0
 30
0.0
210
0.0
220
0.0
230
1.0
  2
SOLID
 70
               1
 71
               1
 91
        1
 92
        1
 93
        1
 72
               2
 10
443.76972746208958
 20
431.5041354888632
 40
4.99969482421875
 50
0.0
 51
360.0
 73
               0
 97
        1
330
BB
 75
               0
 76
               1
 98
        1
 10
0.0
 20
0.0
  0
CIRCLE
  5
BD
102
{ACAD_REACTORS
330
BE
102
}
100
AcDbEntity
  8
0
370
              -2
390
0
  6
Continuous
 62
               0
100
AcDbCircle
 10
493.76972746208867
 20
431.5041354888632
 30
0.0
 40
4.99969482421875
  0
HATCH
  5
BE
100
AcDbEntity
  8
0
370
              -2
390
0
  6
Continuous
 62
               0
100
AcDbHatch
 10
0.0
 20
0.0
 30
0.0
210
0.0
220
0.0
230
1.0
  2
SOLID
 70
               1
 71
               1
 91
        1
 92
        1
 93
        1
 72
               2
 10
493.76972746208867
 20
431.5041354888632
 40
4.99969482421875
 50
0.0
 51
360.0
 73
               0
 97
        1
330
BD
 75
               0
 76
               1
 98
        1
 10
0.0
 20
0.0
  0
MTEXT
  5
BF
100
AcDbEntity
  8
0
390
0
 62
               0
100
AcDbMText
 10
452.89472746208912
 20
462.77726048886325
 30
0.0
 40
21.828125
 41
0.0
 71
               1
 72
               1
  1
50
  7
MS UI Gothic
 73
               1
 44
0.8762322015334064
  0
POINT
  5
C0
100
AcDbEntity
  8
Defpoints
370
               0
390
0
 62
               0
100
AcDbPoint
 10
493.76972746208867
 20
331.5041354888632
 30
0.0
  0
POINT
  5
C1
100
AcDbEntity
  8
Defpoints
370
               0
390
0
 62
               0
100
AcDbPoint
 10
443.76972746208958
 20
331.5041354888632
 30
0.0
  0
POINT
  5
C2
100
AcDbEntity
  8
Defpoints
370
               0
390
0
 62
               0
100
AcDbPoint
 10
443.76972746208958
 20
431.5041354888632
 30
0.0
  0
ENDBLK
  5
C3
100
AcDbEntity
  8
notes
390
0
100
AcDbBlockEnd
  0
BLOCK
  5
C4
100
AcDbEntity
  8
notes
390
0
100
AcDbBlockBegin
  2
*D11
 70
               1
 10
0.0
 20
0.0
 30
0.0
  3
*D11
  1

  0
LINE
  5
C5
100
AcDbEntity
  8
0
370
              -2
390
0
  6
Continuous
 62
               0
100
AcDbLine
 10
493.76972746208867
 20
356.5041354888632
 30
0.0
 11
493.76972746208867
 21
431.5041354888632
 31
0.0
  0
LINE
  5
C6
100
AcDbEntity
  8
0
370
              -2
390
0
  6
Continuous
 62
               0
100
AcDbLine
 10
633.76972746208776
 20
-78.714392112605879
 30
0.0
 11
633.76972746208776
 21
431.5041354888632
 31
0.0
  0
LINE
  5
C7
100
AcDbEntity
  8
0
370
              -2
390
0
  6
Continuous
 62
               0
100
AcDbLine
 10
493.76972746208867
 20
431.5041354888632
 30
0.0
 11
633.76972746208776
 21
431.5041354888632
 31
0.0
  0
CIRCLE
  5
C8
102
{ACAD_REACTORS
330
C9
102
}
100
AcDbEntity
  8
0
370
              -2
390
0
  6
Continuous
 62
               0
100
AcDbCircle
 10
493.76972746208867
 20
431.5041354888632
 30
0.0
 40
4.99969482421875
  0
HATCH
  5
C9
100
AcDbEntity
  8
0
370
              -2
390
0
  6
Continuous
 62
               0
100
AcDbHatch
 10
0.0
 20
0.0
 30
0.0
210
0.0
220
0.0
230
1.0
  2
SOLID
 70
               1
 71
               1
 91
        1
 92
        1
 93
        1
 72
               2
 10
493.76972746208867
 20
431.5041354888632
 40
4.99969482421875
 50
0.0
 51
360.0
 73
               0
 97
        1
330
C8
 75
               0
 76
               1
 98
        1
 10
0.0
 20
0.0
  0
CIRCLE
  5
CA
102
{ACAD_REACTORS
330
CB
102
}
100
AcDbEntity
  8
0
370
              -2
390
0
  6
Continuous
 62
               0
100
AcDbCircle
 10
633.76972746208776
 20
431.5041354888632
 30
0.0
 40
4.99969482421875
  0
HATCH
  5
CB
100
AcDbEntity
  8
0
370
              -2
390
0
  6
Continuous
 62
               0
100
AcDbHatch
 10
0.0
 20
0.0
 30
0.0
210
0.0
220
0.0
230
1.0
  2
SOLID
 70
               1
 71
               1
 91
        1
 92
        1
 93
        1
 72
               2
 10
633.76972746208776
 20
431.5041354888632
 40
4.99969482421875
 50
0.0
 51
360.0
 73
               0
 97
        1
330
CA
 75
               0
 76
               1
 98
        1
 10
0.0
 20
0.0
  0
MTEXT
  5
CC
100
AcDbEntity
  8
0
390
0
 62
               0
100
AcDbMText
 10
539.95722577991273
 20
465.38175267636325
 30
0.0
 40
24.432617187500004
 41
0.0
 71
               1
 72
               1
  1
140
  7
ＭＳ ゴシック
 73
               1
 44
0.7828267384257843
  0
POINT
  5
CD
100
AcDbEntity
  8
Defpoints
370
               0
390
0
 62
               0
100
AcDbPoint
 10
633.76972746208776
 20
-103.71439211260588
 30
0.0
  0
POINT
  5
CE
100
AcDbEntity
  8
Defpoints
370
               0
390
0
 62
               0
100
AcDbPoint
 10
493.76972746208867
 20
331.5041354888632
 30
0.0
  0
POINT
  5
CF
100
AcDbEntity
  8
Defpoints
370
               0
390
0
 62
               0
100
AcDbPoint
 10
493.76972746208867
 20
431.5041354888632
 30
0.0
  0
ENDBLK
  5
D0
100
AcDbEntity
  8
notes
390
0
100
AcDbBlockEnd
  0
BLOCK
  5
D1
100
AcDbEntity
  8
notes
390
0
100
AcDbBlockBegin
  2
*D12
 70
               1
 10
0.0
 20
0.0
 30
0.0
  3
*D12
  1

  0
LINE
  5
D2
100
AcDbEntity
  8
0
370
              -2
390
0
  6
Continuous
 62
               0
100
AcDbLine
 10
633.76972746208776
 20
797.40683133857442
 30
0.0
 11
633.76972746208776
 21
637.01711607454195
 31
0.0
  0
LINE
  5
D3
100
AcDbEntity
  8
0
370
              -2
390
0
  6
Continuous
 62
               0
100
AcDbLine
 10
443.76972746209049
 20
711.27544740099825
 30
0.0
 11
443.76972746209049
 21
637.01711607454195
 31
0.0
  0
LINE
  5
D4
100
AcDbEntity
  8
0
370
              -2
390
0
  6
Continuous
 62
               0
100
AcDbLine
 10
633.76972746208776
 20
637.01711607454195
 30
0.0
 11
443.76972746209049
 21
637.01711607454195
 31
0.0
  0
CIRCLE
  5
D5
102
{ACAD_REACTORS
330
D6
102
}
100
AcDbEntity
  8
0
370
              -2
390
0
  6
Continuous
 62
               0
100
AcDbCircle
 10
633.76972746208776
 20
637.01711607454195
 30
0.0
 40
4.99969482421875
  0
HATCH
  5
D6
100
AcDbEntity
  8
0
370
              -2
390
0
  6
Continuous
 62
               0
100
AcDbHatch
 10
0.0
 20
0.0
 30
0.0
210
0.0
220
0.0
230
1.0
  2
SOLID
 70
               1
 71
               1
 91
        1
 92
        1
 93
        1
 72
               2
 10
633.76972746208776
 20
637.01711607454195
 40
4.99969482421875
 50
0.0
 51
360.0
 73
               0
 97
        1
330
D5
 75
               0
 76
               1
 98
        1
 10
0.0
 20
0.0
  0
CIRCLE
  5
D7
102
{ACAD_REACTORS
330
D8
102
}
100
AcDbEntity
  8
0
370
              -2
390
0
  6
Continuous
 62
               0
100
AcDbCircle
 10
443.76972746209049
 20
637.01711607454195
 30
0.0
 40
4.99969482421875
  0
HATCH
  5
D8
100
AcDbEntity
  8
0
370
              -2
390
0
  6
Continuous
 62
               0
100
AcDbHatch
 10
0.0
 20
0.0
 30
0.0
210
0.0
220
0.0
230
1.0
  2
SOLID
 70
               1
 71
               1
 91
        1
 92
        1
 93
        1
 72
               2
 10
443.76972746209049
 20
637.01711607454195
 40
4.99969482421875
 50
0.0
 51
360.0
 73
               0
 97
        1
330
D7
 75
               0
 76
               1
 98
        1
 10
0.0
 20
0.0
  0
MTEXT
  5
D9
100
AcDbEntity
  8
0
390
0
 62
               0
100
AcDbMText
 10
514.95722577991364
 20
668.29024107454188
 30
0.0
 40
21.828125
 41
0.0
 71
               1
 72
               1
  1
190
  7
MS UI Gothic
 73
               1
 44
0.8762322015334064
  0
POINT
  5
DA
100
AcDbEntity
  8
Defpoints
370
               0
390
0
 62
               0
100
AcDbPoint
 10
443.76972746209049
 20
736.27544740099825
 30
0.0
  0
POINT
  5
DB
100
AcDbEntity
  8
Defpoints
370
               0
390
0
 62
               0
100
AcDbPoint
 10
633.76972746208776
 20
822.40683133857442
 30
0.0
  0
POINT
  5
DC
100
AcDbEntity
  8
Defpoints
370
               0
390
0
 62
               0
100
AcDbPoint
 10
633.76972746208776
 20
637.01711607454195
 30
0.0
  0
ENDBLK
  5
DD
100
AcDbEntity
  8
notes
390
0
100
AcDbBlockEnd
  0
BLOCK
  5
DE
100
AcDbEntity
  8
notes
390
0
100
AcDbBlockBegin
  2
*D13
 70
               1
 10
0.0
 20
0.0
 30
0.0
  3
*D13
  1

  0
LINE
  5
DF
100
AcDbEntity
  8
0
370
              -2
390
0
  6
Continuous
 62
               0
100
AcDbLine
 10
654.76972746208776
 20
1217.0160878111594
 30
0.0
 11
733.76972746208776
 21
1217.0160878111594
 31
0.0
  0
LINE
  5
E0
100
AcDbEntity
  8
0
370
              -2
390
0
  6
Continuous
 62
               0
100
AcDbLine
 10
653.76972746208776
 20
927.01608781115942
 30
0.0
 11
733.76972746208776
 21
927.01608781115942
 31
0.0
  0
LINE
  5
E1
100
AcDbEntity
  8
0
370
              -2
390
0
  6
Continuous
 62
               0
100
AcDbLine
 10
733.76972746208776
 20
1217.0160878111594
 30
0.0
 11
733.76972746208776
 21
927.01608781115942
 31
0.0
  0
CIRCLE
  5
E2
102
{ACAD_REACTORS
330
E3
102
}
100
AcDbEntity
  8
0
370
              -2
390
0
  6
Continuous
 62
               0
100
AcDbCircle
 10
733.76972746208776
 20
1217.0160878111594
 30
0.0
 40
4.99969482421875
  0
HATCH
  5
E3
100
AcDbEntity
  8
0
370
              -2
390
0
  6
Continuous
 62
               0
100
AcDbHatch
 10
0.0
 20
0.0
 30
0.0
210
0.0
220
0.0
230
1.0
  2
SOLID
 70
               1
 71
               1
 91
        1
 92
        1
 93
        1
 72
               2
 10
733.76972746208776
 20
1217.0160878111594
 40
4.99969482421875
 50
0.0
 51
360.0
 73
               0
 97
        1
330
E2
 75
               0
 76
               1
 98
        1
 10
0.0
 20
0.0
  0
CIRCLE
  5
E4
102
{ACAD_REACTORS
330
E5
102
}
100
AcDbEntity
  8
0
370
              -2
390
0
  6
Continuous
 62
               0
100
AcDbCircle
 10
733.76972746208776
 20
927.01608781115942
 30
0.0
 40
4.99969482421875
  0
HATCH
  5
E5
100
AcDbEntity
  8
0
370
              -2
390
0
  6
Continuous
 62
               0
100
AcDbHatch
 10
0.0
 20
0.0
 30
0.0
210
0.0
220
0.0
230
1.0
  2
SOLID
 70
               1
 71
               1
 91
        1
 92
        1
 93
        1
 72
               2
 10
733.76972746208776
 20
927.01608781115942
 40
4.99969482421875
 50
0.0
 51
360.0
 73
               0
 97
        1
330
E4
 75
               0
 76
               1
 98
        1
 10
0.0
 20
0.0
  0
MTEXT
  5
E6
100
AcDbEntity
  8
0
390
0
 62
               0
100
AcDbMText
 10
702.49660246208782
 20
1048.2035861289839
 30
0.0
 40
21.828125
 41
0.0
 71
               1
 72
               1
  1
290
  7
MS UI Gothic
 11
0.0
 21
1.0
 31
0.0
 73
               1
 44
0.8762322015334064
  0
POINT
  5
E7
100
AcDbEntity
  8
Defpoints
370
               0
390
0
 62
               0
100
AcDbPoint
 10
628.76972746208776
 20
927.01608781115942
 30
0.0
  0
POINT
  5
E8
100
AcDbEntity
  8
Defpoints
370
               0
390
0
 62
               0
100
AcDbPoint
 10
629.76972746208776
 20
1217.0160878111594
 30
0.0
  0
POINT
  5
E9
100
AcDbEntity
  8
Defpoints
370
               0
390
0
 62
               0
100
AcDbPoint
 10
733.76972746208776
 20
1217.0160878111594
 30
0.0
  0
ENDBLK
  5
EA
100
AcDbEntity
  8
notes
390
0
100
AcDbBlockEnd
  0
BLOCK
  5
EB
100
AcDbEntity
  8
notes
390
0
100
AcDbBlockBegin
  2
*D14
 70
               1
 10
0.0
 20
0.0
 30
0.0
  3
*D14
  1

  0
LINE
  5
EC
100
AcDbEntity
  8
0
370
              -2
390
0
  6
Continuous
 62
               0
100
AcDbLine
 10
423.76972746208958
 20
1217.0160878111594
 30
0.0
 11
343.76972746208958
 21
1217.0160878111594
 31
0.0
  0
LINE
  5
ED
100
AcDbEntity
  8
0
370
              -2
390
0
  6
Continuous
 62
               0
100
AcDbLine
 10
418.76972746208958
 20
1152.0160878111594
 30
0.0
 11
343.76972746208958
 21
1152.0160878111594
 31
0.0
  0
LINE
  5
EE
100
AcDbEntity
  8
0
370
              -2
390
0
  6
Continuous
 62
               0
100
AcDbLine
 10
343.76972746208958
 20
1217.0160878111594
 30
0.0
 11
343.76972746208958
 21
1152.0160878111594
 31
0.0
  0
CIRCLE
  5
EF
102
{ACAD_REACTORS
330
F0
102
}
100
AcDbEntity
  8
0
370
              -2
390
0
  6
Continuous
 62
               0
100
AcDbCircle
 10
343.76972746208958
 20
1217.0160878111594
 30
0.0
 40
4.99969482421875
  0
HATCH
  5
F0
100
AcDbEntity
  8
0
370
              -2
390
0
  6
Continuous
 62
               0
100
AcDbHatch
 10
0.0
 20
0.0
 30
0.0
210
0.0
220
0.0
230
1.0
  2
SOLID
 70
               1
 71
               1
 91
        1
 92
        1
 93
        1
 72
               2
 10
343.76972746208958
 20
1217.0160878111594
 40
4.99969482421875
 50
0.0
 51
360.0
 73
               0
 97
        1
330
EF
 75
               0
 76
               1
 98
        1
 10
0.0
 20
0.0
  0
CIRCLE
  5
F1
102
{ACAD_REACTORS
330
F2
102
}
100
AcDbEntity
  8
0
370
              -2
390
0
  6
Continuous
 62
               0
100
AcDbCircle
 10
343.76972746208958
 20
1152.0160878111594
 30
0.0
 40
4.99969482421875
  0
HATCH
  5
F2
100
AcDbEntity
  8
0
370
              -2
390
0
  6
Continuous
 62
               0
100
AcDbHatch
 10
0.0
 20
0.0
 30
0.0
210
0.0
220
0.0
230
1.0
  2
SOLID
 70
               1
 71
               1
 91
        1
 92
        1
 93
        1
 72
               2
 10
343.76972746208958
 20
1152.0160878111594
 40
4.99969482421875
 50
0.0
 51
360.0
 73
               0
 97
        1
330
F1
 75
               0
 76
               1
 98
        1
 10
0.0
 20
0.0
  0
MTEXT
  5
F3
100
AcDbEntity
  8
0
390
0
 62
               0
100
AcDbMText
 10
312.49660246208964
 20
1168.6410878111594
 30
0.0
 40
21.828125
 41
0.0
 71
               1
 72
               1
  1
65
  7
MS UI Gothic
 11
0.0
 21
1.0
 31
0.0
 73
               1
 44
0.8762322015334064
  0
POINT
  5
F4
100
AcDbEntity
  8
Defpoints
370
               0
390
0
 62
               0
100
AcDbPoint
 10
443.76972746208958
 20
1152.0160878111594
 30
0.0
  0
POINT
  5
F5
100
AcDbEntity
  8
Defpoints
370
               0
390
0
 62
               0
100
AcDbPoint
 10
448.76972746208958
 20
1217.0160878111594
 30
0.0
  0
POINT
  5
F6
100
AcDbEntity
  8
Defpoints
370
               0
390
0
 62
               0
100
AcDbPoint
 10
343.76972746208958
 20
1217.0160878111594
 30
0.0
  0
ENDBLK
  5
F7
100
AcDbEntity
  8
notes
390
0
100
AcDbBlockEnd
  0
BLOCK
  5
F8
100
AcDbEntity
  8
notes
390
0
100
AcDbBlockBegin
  2
*D15
 70
               1
 10
0.0
 20
0.0
 30
0.0
  3
*D15
  1

  0
LINE
  5
F9
100
AcDbEntity
  8
0
370
              -2
390
0
  6
Continuous
 62
               0
100
AcDbLine
 10
443.76972746208958
 20
939.03262504539384
 30
0.0
 11
443.76972746208958
 21
936.18410148326507
 31
0.0
  0
LINE
  5
FA
100
AcDbEntity
  8
0
370
              -2
390
0
  6
Continuous
 62
               0
100
AcDbLine
 10
573.76972746208776
 20
939.03262504539384
 30
0.0
 11
573.76972746208776
 21
936.18410148326507
 31
0.0
  0
LINE
  5
FB
100
AcDbEntity
  8
0
370
              -2
390
0
  6
Continuous
 62
               0
100
AcDbLine
 10
443.76972746208958
 20
936.18410148326507
 30
0.0
 11
302.9758757223542
 21
936.18410148326507
 31
0.0
  0
LINE
  5
FC
100
AcDbEntity
  8
0
370
              -2
390
0
  6
Continuous
 62
               0
100
AcDbLine
 10
443.76972746208958
 20
936.18410148326507
 30
0.0
 11
573.76972746208776
 21
936.18410148326507
 31
0.0
  0
CIRCLE
  5
FD
102
{ACAD_REACTORS
330
FE
102
}
100
AcDbEntity
  8
0
370
              -2
390
0
  6
Continuous
 62
               0
100
AcDbCircle
 10
443.76972746208958
 20
936.18410148326507
 30
0.0
 40
4.99969482421875
  0
HATCH
  5
FE
100
AcDbEntity
  8
0
370
              -2
390
0
  6
Continuous
 62
               0
100
AcDbHatch
 10
0.0
 20
0.0
 30
0.0
210
0.0
220
0.0
230
1.0
  2
SOLID
 70
               1
 71
               1
 91
        1
 92
        1
 93
        1
 72
               2
 10
443.76972746208958
 20
936.18410148326507
 40
4.99969482421875
 50
0.0
 51
360.0
 73
               0
 97
        1
330
FD
 75
               0
 76
               1
 98
        1
 10
0.0
 20
0.0
  0
CIRCLE
  5
FF
102
{ACAD_REACTORS
330
100
102
}
100
AcDbEntity
  8
0
370
              -2
390
0
  6
Continuous
 62
               0
100
AcDbCircle
 10
573.76972746208776
 20
936.18410148326507
 30
0.0
 40
4.99969482421875
  0
HATCH
  5
100
100
AcDbEntity
  8
0
370
              -2
390
0
  6
Continuous
 62
               0
100
AcDbHatch
 10
0.0
 20
0.0
 30
0.0
210
0.0
220
0.0
230
1.0
  2
SOLID
 70
               1
 71
               1
 91
        1
 92
        1
 93
        1
 72
               2
 10
573.76972746208776
 20
936.18410148326507
 40
4.99969482421875
 50
0.0
 51
360.0
 73
               0
 97
        1
330
FF
 75
               0
 76
               1
 98
        1
 10
0.0
 20
0.0
  0
MTEXT
  5
101
100
AcDbEntity
  8
0
390
0
 62
               0
100
AcDbMText
 10
302.9758757223542
 20
967.457226483265
 30
0.0
 40
21.828125
 41
0.0
 71
               1
 72
               1
  1
130（深さ）
  7
MS UI Gothic
 73
               1
 44
0.8762322015334064
  0
POINT
  5
102
100
AcDbEntity
  8
Defpoints
370
               0
390
0
 62
               0
100
AcDbPoint
 10
573.76972746208776
 20
964.03262504539384
 30
0.0
  0
POINT
  5
103
100
AcDbEntity
  8
Defpoints
370
               0
390
0
 62
               0
100
AcDbPoint
 10
443.76972746208958
 20
964.03262504539384
 30
0.0
  0
POINT
  5
104
100
AcDbEntity
  8
Defpoints
370
               0
390
0
 62
               0
100
AcDbPoint
 10
443.76972746208958
 20
936.18410148326507
 30
0.0
  0
ENDBLK
  5
105
100
AcDbEntity
  8
notes
390
0
100
AcDbBlockEnd
  0
BLOCK
  5
106
100
AcDbEntity
  8
notes
390
0
100
AcDbBlockBegin
  2
*D16
 70
               1
 10
0.0
 20
0.0
 30
0.0
  3
*D16
  1

  0
LINE
  5
107
100
AcDbEntity
  8
0
370
              -2
390
0
  6
Continuous
 62
               0
100
AcDbLine
 10
438.80838594998204
 20
-128.45512155737481
 30
0.0
 11
343.80838594998204
 21
-128.45512155737481
 31
0.0
  0
LINE
  5
108
100
AcDbEntity
  8
0
370
              -2
390
0
  6
Continuous
 62
               0
100
AcDbLine
 10
438.80838594998204
 20
36.54487844262519
 30
0.0
 11
343.80838594998204
 21
36.54487844262519
 31
0.0
  0
LINE
  5
109
100
AcDbEntity
  8
0
370
              -2
390
0
  6
Continuous
 62
               0
100
AcDbLine
 10
343.80838594998204
 20
-128.45512155737481
 30
0.0
 11
343.80838594998204
 21
36.54487844262519
 31
0.0
  0
CIRCLE
  5
10A
102
{ACAD_REACTORS
330
10B
102
}
100
AcDbEntity
  8
0
370
              -2
390
0
  6
Continuous
 62
               0
100
AcDbCircle
 10
343.80838594998204
 20
-128.45512155737481
 30
0.0
 40
4.99969482421875
  0
HATCH
  5
10B
100
AcDbEntity
  8
0
370
              -2
390
0
  6
Continuous
 62
               0
100
AcDbHatch
 10
0.0
 20
0.0
 30
0.0
210
0.0
220
0.0
230
1.0
  2
SOLID
 70
               1
 71
               1
 91
        1
 92
        1
 93
        1
 72
               2
 10
343.80838594998204
 20
-128.45512155737481
 40
4.99969482421875
 50
0.0
 51
360.0
 73
               0
 97
        1
330
10A
 75
               0
 76
               1
 98
        1
 10
0.0
 20
0.0
  0
CIRCLE
  5
10C
102
{ACAD_REACTORS
330
10D
102
}
100
AcDbEntity
  8
0
370
              -2
390
0
  6
Continuous
 62
               0
100
AcDbCircle
 10
343.80838594998204
 20
36.54487844262519
 30
0.0
 40
4.99969482421875
  0
HATCH
  5
10D
100
AcDbEntity
  8
0
370
              -2
390
0
  6
Continuous
 62
               0
100
AcDbHatch
 10
0.0
 20
0.0
 30
0.0
210
0.0
220
0.0
230
1.0
  2
SOLID
 70
               1
 71
               1
 91
        1
 92
        1
 93
        1
 72
               2
 10
343.80838594998204
 20
36.54487844262519
 40
4.99969482421875
 50
0.0
 51
360.0
 73
               0
 97
        1
330
10C
 75
               0
 76
               1
 98
        1
 10
0.0
 20
0.0
  0
MTEXT
  5
10E
100
AcDbEntity
  8
0
390
0
 62
               0
100
AcDbMText
 10
309.9307687624821
 20
-69.767623239550346
 30
0.0
 40
24.432617187500004
 41
0.0
 71
               1
 72
               1
  1
165
  7
ＭＳ ゴシック
 11
0.0
 21
1.0
 31
0.0
 73
               1
 44
0.7828267384257843
  0
POINT
  5
10F
100
AcDbEntity
  8
Defpoints
370
               0
390
0
 62
               0
100
AcDbPoint
 10
463.80838594998204
 20
36.54487844262519
 30
0.0
  0
POINT
  5
110
100
AcDbEntity
  8
Defpoints
370
               0
390
0
 62
               0
100
AcDbPoint
 10
463.80838594998204
 20
-128.45512155737481
 30
0.0
  0
POINT
  5
111
100
AcDbEntity
  8
Defpoints
370
               0
390
0
 62
               0
100
AcDbPoint
 10
343.80838594998204
 20
-128.45512155737481
 30
0.0
  0
ENDBLK
  5
112
100
AcDbEntity
  8
notes
390
0
100
AcDbBlockEnd
  0
BLOCK
  5
113
100
AcDbEntity
  8
notes
390
0
100
AcDbBlockBegin
  2
*D17
 70
               1
 10
0.0
 20
0.0
 30
0.0
  3
*D17
  1

  0
LINE
  5
114
100
AcDbEntity
  8
0
370
              -2
390
0
  6
Continuous
 62
               0
100
AcDbLine
 10
438.80838594998204
 20
-408.45512155737481
 30
0.0
 11
343.80838594998204
 21
-408.45512155737481
 31
0.0
  0
LINE
  5
115
100
AcDbEntity
  8
0
370
              -2
390
0
  6
Continuous
 62
               0
100
AcDbLine
 10
438.80838594998204
 20
-573.45512155737481
 30
0.0
 11
343.80838594998204
 21
-573.45512155737481
 31
0.0
  0
LINE
  5
116
100
AcDbEntity
  8
0
370
              -2
390
0
  6
Continuous
 62
               0
100
AcDbLine
 10
343.80838594998204
 20
-408.45512155737481
 30
0.0
 11
343.80838594998204
 21
-573.45512155737481
 31
0.0
  0
CIRCLE
  5
117
102
{ACAD_REACTORS
330
118
102
}
100
AcDbEntity
  8
0
370
              -2
390
0
  6
Continuous
 62
               0
100
AcDbCircle
 10
343.80838594998204
 20
-408.45512155737481
 30
0.0
 40
4.99969482421875
  0
HATCH
  5
118
100
AcDbEntity
  8
0
370
              -2
390
0
  6
Continuous
 62
               0
100
AcDbHatch
 10
0.0
 20
0.0
 30
0.0
210
0.0
220
0.0
230
1.0
  2
SOLID
 70
               1
 71
               1
 91
        1
 92
        1
 93
        1
 72
               2
 10
343.80838594998204
 20
-408.45512155737481
 40
4.99969482421875
 50
0.0
 51
360.0
 73
               0
 97
        1
330
117
 75
               0
 76
               1
 98
        1
 10
0.0
 20
0.0
  0
CIRCLE
  5
119
102
{ACAD_REACTORS
330
11A
102
}
100
AcDbEntity
  8
0
370
              -2
390
0
  6
Continuous
 62
               0
100
AcDbCircle
 10
343.80838594998204
 20
-573.45512155737481
 30
0.0
 40
4.99969482421875
  0
HATCH
  5
11A
100
AcDbEntity
  8
0
370
              -2
390
0
  6
Continuous
 62
               0
100
AcDbHatch
 10
0.0
 20
0.0
 30
0.0
210
0.0
220
0.0
230
1.0
  2
SOLID
 70
               1
 71
               1
 91
        1
 92
        1
 93
        1
 72
               2
 10
343.80838594998204
 20
-573.45512155737481
 40
4.99969482421875
 50
0.0
 51
360.0
 73
               0
 97
        1
330
119
 75
               0
 76
               1
 98
        1
 10
0.0
 20
0.0
  0
MTEXT
  5
11B
100
AcDbEntity
  8
0
390
0
 62
               0
100
AcDbMText
 10
309.9307687624821
 20
-514.7676232395504
 30
0.0
 40
24.432617187500004
 41
0.0
 71
               1
 72
               1
  1
165
  7
ＭＳ ゴシック
 11
0.0
 21
1.0
 31
0.0
 73
               1
 44
0.7828267384257843
  0
POINT
  5
11C
100
AcDbEntity
  8
Defpoints
370
               0
390
0
 62
               0
100
AcDbPoint
 10
463.80838594998204
 20
-573.45512155737481
 30
0.0
  0
POINT
  5
11D
100
AcDbEntity
  8
Defpoints
370
               0
390
0
 62
               0
100
AcDbPoint
 10
463.80838594998204
 20
-408.45512155737481
 30
0.0
  0
POINT
  5
11E
100
AcDbEntity
  8
Defpoints
370
               0
390
0
 62
               0
100
AcDbPoint
 10
343.80838594998204
 20
-408.45512155737481
 30
0.0
  0
ENDBLK
  5
11F
100
AcDbEntity
  8
notes
390
0
100
AcDbBlockEnd
  0
BLOCK
  5
120
100
AcDbEntity
  8
notes
390
0
100
AcDbBlockBegin
  2
*D18
 70
               1
 10
0.0
 20
0.0
 30
0.0
  3
*D18
  1

  0
LINE
  5
121
100
AcDbEntity
  8
0
370
              -2
390
0
  6
Continuous
 62
               0
100
AcDbLine
 10
-655.63130940699193
 20
-889.49129314809375
 30
0.0
 11
-655.63130940699193
 21
-935.0
 31
0.0
  0
LINE
  5
122
100
AcDbEntity
  8
0
370
              -2
390
0
  6
Continuous
 62
               0
100
AcDbLine
 10
-525.63130940699284
 20
-889.49129314809375
 30
0.0
 11
-525.63130940699284
 21
-935.0
 31
0.0
  0
LINE
  5
123
100
AcDbEntity
  8
0
370
              -2
390
0
  6
Continuous
 62
               0
100
AcDbLine
 10
-655.63130940699193
 20
-935.0
 30
0.0
 11
-525.63130940699284
 21
-935.0
 31
0.0
  0
CIRCLE
  5
124
102
{ACAD_REACTORS
330
125
102
}
100
AcDbEntity
  8
0
370
              -2
390
0
  6
Continuous
 62
               0
100
AcDbCircle
 10
-655.63130940699193
 20
-935.0
 30
0.0
 40
4.99969482421875
  0
HATCH
  5
125
100
AcDbEntity
  8
0
370
              -2
390
0
  6
Continuous
 62
               0
100
AcDbHatch
 10
0.0
 20
0.0
 30
0.0
210
0.0
220
0.0
230
1.0
  2
SOLID
 70
               1
 71
               1
 91
        1
 92
        1
 93
        1
 72
               2
 10
-655.63130940699193
 20
-935.0
 40
4.99969482421875
 50
0.0
 51
360.0
 73
               0
 97
        1
330
124
 75
               0
 76
               1
 98
        1
 10
0.0
 20
0.0
  0
CIRCLE
  5
126
102
{ACAD_REACTORS
330
127
102
}
100
AcDbEntity
  8
0
370
              -2
390
0
  6
Continuous
 62
               0
100
AcDbCircle
 10
-525.63130940699284
 20
-935.0
 30
0.0
 40
4.99969482421875
  0
HATCH
  5
127
100
AcDbEntity
  8
0
370
              -2
390
0
  6
Continuous
 62
               0
100
AcDbHatch
 10
0.0
 20
0.0
 30
0.0
210
0.0
220
0.0
230
1.0
  2
SOLID
 70
               1
 71
               1
 91
        1
 92
        1
 93
        1
 72
               2
 10
-525.63130940699284
 20
-935.0
 40
4.99969482421875
 50
0.0
 51
360.0
 73
               0
 97
        1
330
126
 75
               0
 76
               1
 98
        1
 10
0.0
 20
0.0
  0
MTEXT
  5
128
100
AcDbEntity
  8
0
390
0
 62
               0
100
AcDbMText
 10
-614.44381108916787
 20
-901.12238281250006
 30
0.0
 40
24.432617187500004
 41
0.0
 71
               1
 72
               1
  1
130
  7
ＭＳ ゴシック
 73
               1
 44
0.7828267384257843
  0
POINT
  5
129
100
AcDbEntity
  8
Defpoints
370
               0
390
0
 62
               0
100
AcDbPoint
 10
-525.63130940699284
 20
-864.49129314809375
 30
0.0
  0
POINT
  5
12A
100
AcDbEntity
  8
Defpoints
370
               0
390
0
 62
               0
100
AcDbPoint
 10
-655.63130940699193
 20
-864.49129314809375
 30
0.0
  0
POINT
  5
12B
100
AcDbEntity
  8
Defpoints
370
               0
390
0
 62
               0
100
AcDbPoint
 10
-655.63130940699193
 20
-935.0
 30
0.0
  0
ENDBLK
  5
12C
100
AcDbEntity
  8
notes
390
0
100
AcDbBlockEnd
  0
ENDSEC
  0
SECTION
  2
ENTITIES
  0
MTEXT
  5
12D
100
AcDbEntity
  8
template
390
0
 62
               7
100
AcDbMText
 10
-968.0
 20
-1134.6535143188639
 30
0.0
 40
16.288411458333332
 41
0.0
 71
               1
 72
               1
  1
品名
  7
ＭＳ ゴシック
 73
               1
 44
0.7828267384257843
  0
MTEXT
  5
12E
100
AcDbEntity
  8
template
390
0
 62
               7
100
AcDbMText
 10
-968.0
 20
-1219.6535143188639
 30
0.0
 40
16.288411458333332
 41
0.0
 71
               1
 72
               1
  1
仕様
  7
ＭＳ ゴシック
 73
               1
 44
0.7828267384257843
  0
MTEXT
  5
12F
100
AcDbEntity
  8
template
390
0
 62
               7
100
AcDbMText
 10
-915.0
 20
-1163.2359752563639
 30
0.0
 40
24.432617187500004
 41
0.0
 71
               1
 72
               1
  1
洗面器 -CATALANO,C-
  7
ＭＳ ゴシック
 73
               1
 44
0.7828267384257843
  0
LINE
  5
130
100
AcDbEntity
  8
template
370
               5
390
0
  6
Continuous
 62
               7
100
AcDbLine
 10
974.99999999951797
 20
-1211.2385924438638
 30
0.0
 11
-975.00000000048203
 21
-1211.2385924438638
 31
0.0
  0
LWPOLYLINE
  5
131
100
AcDbEntity
  8
template
370
               5
390
0
  6
Continuous
 62
               7
100
AcDbPolyline
 90
        5
 70
             128
 10
975.0
 20
1418.7614075561362
 10
-975.0
 20
1418.7614075561362
 10
-975.0
 20
-1381.2385924438638
 10
975.0
 20
-1381.2385924438638
 10
975.0
 20
1418.7614075561362
  0
LINE
  5
132
100
AcDbEntity
  8
template
370
               5
390
0
  6
Continuous
 62
               7
100
AcDbLine
 10
974.99999999951797
 20
-1126.2385924438638
 30
0.0
 11
-975.00000000048203
 21
-1126.2385924438638
 31
0.0
  0
LINE
  5
133
100
AcDbEntity
  8
template
370
               5
390
0
  6
Continuous
 62
               7
100
AcDbLine
 10
975.0
 20
-1296.2385924438638
 30
0.0
 11
222.0
 21
-1296.2385924438638
 31
0.0
  0
MTEXT
  5
134
100
AcDbEntity
  8
template
390
0
 62
               7
100
AcDbMText
 10
-974.99999999979718
 20
-1393.0924145007207
 30
0.0
 40
21.717881944444446
 41
0.0
 71
               1
 72
               1
  1
110629SO
  7
ＭＳ ゴシック
 73
               1
 44
0.7828267384257843
  0
MTEXT
  5
135
100
AcDbEntity
  8
template
390
0
 62
               7
100
AcDbMText
 10
251.87140625226039
 20
-1326.1489869171714
 30
0.0
 40
24.432617187500004
 41
0.0
 71
               1
 72
               1
  1
大洋金物株式会社 ティーフォルム事業部
  7
ＭＳ ゴシック
 73
               1
 44
0.7828267384257843
  0
INSERT
  5
136
100
AcDbEntity
  8
template
390
0
 62
               7
100
AcDbBlockReference
  2
グループ
 10
1769.0967771251749
 20
-580.85518425183068
 30
0.0
  0
MTEXT
  5
137
100
AcDbEntity
  8
template
390
0
 62
               7
100
AcDbMText
 10
784.00000000025921
 20
-1248.2359752563639
 30
0.0
 40
24.432617187500004
 41
0.0
 71
               1
 72
               1
  1
1:10
  7
ＭＳ ゴシック
 73
               1
 44
0.7828267384257843
  0
MTEXT
  5
138
100
AcDbEntity
  8
template
390
0
 62
               7
100
AcDbMText
 10
731.00000000025921
 20
-1219.6535143188639
 30
0.0
 40
16.288411458333332
 41
0.0
 71
               1
 72
               1
  1
縮尺
  7
ＭＳ ゴシック
 73
               1
 44
0.7828267384257843
  0
LINE
  5
139
100
AcDbEntity
  8
template
370
               5
390
0
  6
Continuous
 62
               7
100
AcDbLine
 10
724.00000000025921
 20
-1296.2385924438638
 30
0.0
 11
724.00000000025921
 21
-1211.2385924438638
 31
0.0
  0
MTEXT
  5
13A
100
AcDbEntity
  8
template
390
0
 62
               7
100
AcDbMText
 10
480.00000000025921
 20
-1219.6535143188639
 30
0.0
 40
16.288411458333332
 41
0.0
 71
               1
 72
               1
  1
容量
  7
ＭＳ ゴシック
 73
               1
 44
0.7828267384257843
  0
MTEXT
  5
13B
100
AcDbEntity
  8
template
390
0
 62
               7
100
AcDbMText
 10
533.00000000025921
 20
-1248.2359752563639
 30
0.0
 40
24.432617187500004
 41
0.0
 71
               1
 72
               1
  1
-L
  7
ＭＳ ゴシック
 73
               1
 44
0.7828267384257843
  0
LINE
  5
13C
100
AcDbEntity
  8
template
370
               5
390
0
  6
Continuous
 62
               7
100
AcDbLine
 10
473.00000000025921
 20
-1296.2385924438638
 30
0.0
 11
473.00000000025921
 21
-1211.2385924438638
 31
0.0
  0
MTEXT
  5
13D
100
AcDbEntity
  8
template
390
0
 62
               7
100
AcDbMText
 10
229.00000000025921
 20
-1134.6535143188639
 30
0.0
 40
16.288411458333332
 41
0.0
 71
               1
 72
               1
  1
品番
  7
ＭＳ ゴシック
 73
               1
 44
0.7828267384257843
  0
MTEXT
  5
13E
100
AcDbEntity
  8
template
390
0
 62
               7
100
AcDbMText
 10
229.00000000025921
 20
-1219.6535143188639
 30
0.0
 40
16.288411458333332
 41
0.0
 71
               1
 72
               1
  1
重量
  7
ＭＳ ゴシック
 73
               1
 44
0.7828267384257843
  0
MTEXT
  5
13F
100
AcDbEntity
  8
template
390
0
 62
               7
100
AcDbMText
 10
282.00000000025921
 20
-1163.2359752563639
 30
0.0
 40
24.432617187500004
 41
0.0
 71
               1
 72
               1
  1
ADF70-1207
  7
ＭＳ ゴシック
 73
               1
 44
0.7828267384257843
  0
MTEXT
  5
140
100
AcDbEntity
  8
template
390
0
 62
               7
100
AcDbMText
 10
282.00000000025921
 20
-1248.2359752563639
 30
0.0
 40
24.432617187500004
 41
0.0
 71
               1
 72
               1
  1
-kg
  7
ＭＳ ゴシック
 73
               1
 44
0.7828267384257843
  0
LINE
  5
141
100
AcDbEntity
  8
template
370
               5
390
0
  6
Continuous
 62
               7
100
AcDbLine
 10
222.00000000025921
 20
-1381.2385924438638
 30
0.0
 11
222.00000000025921
 21
-1126.2385924438638
 31
0.0
  0
MTEXT
  5
142
100
AcDbEntity
  8
template
390
0
 62
               7
100
AcDbMText
 10
-915.00000000000091
 20
-1248.2359752563639
 30
0.0
 40
24.432617187500004
 41
0.0
 71
               1
 72
               1
  1
壁掛け/オーバーフロー付き/壁取付ボルト付属/\P陶器/ホワイト
  7
ＭＳ ゴシック
 73
               1
 44
1.3047112307096407
  0
MTEXT
  5
143
100
AcDbEntity
  8
notes
390
0
 62
               7
100
AcDbMText
 10
29.761879726211873
 20
-628.06608227644506
 30
0.0
 40
24.253472222222221
 41
836.66157930359611
 71
               1
 72
               1
  1
＝φ30もしくはφ35の水栓取付用穴あけ加工を承ります。\P   必要な場合、ご注文の際にご指示ください。
  7
MS UI Gothic
 11
0.0
 21
1.0
 31
0.0
 73
               1
 44
1.0514786418400877
  0
MTEXT
  5
144
100
AcDbEntity
  8
notes
390
0
 62
               7
100
AcDbMText
 10
357.67829933913504
 20
207.27701681146357
 30
0.0
 40
24.253472222222221
 41
0.0
 71
               1
 72
               1
  1
壁取付ボルト位置
  7
MS UI Gothic
 11
0.0
 21
1.0
 31
0.0
 73
               1
 44
0.8762322015334064
  0
LINE
  5
145
100
AcDbEntity
  8
notes
370
               5
390
0
  6
Continuous
 62
               7
100
AcDbLine
 10
483.76972746208867
 20
35.844820966618727
 30
0.0
 11
397.77750059078244
 21
255.40523827718755
 31
0.0
  0
DIMENSION
  5
146
100
AcDbEntity
  8
notes
370
               5
390
0
  6
Continuous
 62
               7
100
AcDbDimension
  2
*D3
 10
-755.63130940699239
 20
-868.49129314809375
 30
0.0
 11
-755.63130940699239
 21
-268.49129314809335
 31
0.0
 71
               5
 72
               1
 41
1.0
 42
0.0
  3
tform線あり
100
AcDbAlignedDimension
 13
-651.63130940699193
 23
331.50870685190705
 33
0.0
 14
-651.63130940699193
 24
-868.49129314809375
 34
0.0
 50
90.0
100
AcDbRotatedDimension
1001
ACAD
1000
DSTYLE
1002
{
1070
             279
1070
               2
1070
             340
1005
34
1070
             147
1040
5.0
1002
}
  0
DIMENSION
  5
147
100
AcDbEntity
  8
notes
370
               5
390
0
  6
Continuous
 62
               7
100
AcDbDimension
  2
*D4
 10
-655.63130940699193
 20
431.50870685190705
 30
0.0
 11
-415.63130940699193
 21
431.50870685190705
 31
0.0
 71
               5
 72
               1
 41
1.0
 42
0.0
  3
tform線あり
100
AcDbAlignedDimension
 13
-175.63130940699193
 23
-96.001696833106394
 33
0.0
 14
-655.63130940699193
 24
327.50870685190705
 34
0.0
100
AcDbRotatedDimension
1001
ACAD
1000
DSTYLE
1002
{
1070
             279
1070
               2
1070
             340
1005
34
1070
             147
1040
5.0
1002
}
  0
DIMENSION
  5
148
100
AcDbEntity
  8
notes
370
               5
390
0
  6
Continuous
 62
               7
100
AcDbDimension
  2
*D5
 10
-655.63130940699193
 20
-993.25
 30
0.0
 11
-500.1226025550859
 21
-988.25
 31
0.0
 70
             128
 71
               5
 72
               1
 41
1.0
 42
0.0
  3
tform線あり
100
AcDbAlignedDimension
 13
-325.63130940699284
 23
-864.49129314809375
 33
0.0
 14
-655.63130940699193
 24
-864.49129314809375
 34
0.0
100
AcDbRotatedDimension
1001
ACAD
1000
DSTYLE
1002
{
1070
             279
1070
               2
1070
             340
1005
34
1070
             147
1040
5.0
1002
}
  0
DIMENSION
  5
149
100
AcDbEntity
  8
notes
370
               5
390
0
  6
Continuous
 62
               7
100
AcDbDimension
  2
*D6
 10
-75.631309406991932
 20
-503.48088946308189
 30
0.0
 11
-75.631309406991932
 21
-268.49129314809409
 31
0.0
 71
               5
 72
               1
 41
1.0
 42
0.0
  3
tform線あり
100
AcDbAlignedDimension
 13
-269.58987473764319
 23
-33.50169683310628
 33
0.0
 14
-269.58987473764319
 24
-503.48088946308189
 34
0.0
 50
90.0
100
AcDbRotatedDimension
1001
ACAD
1000
DSTYLE
1002
{
1070
             279
1070
               2
1070
             340
1005
34
1070
             147
1040
5.0
1002
}
  0
DIMENSION
  5
14A
100
AcDbEntity
  8
notes
370
               5
390
0
  6
Continuous
 62
               7
100
AcDbDimension
  2
*D7
 10
-525.63130940699284
 20
-603.48088946308224
 30
0.0
 11
-363.13130940699284
 21
-603.48088946308224
 31
0.0
 71
               5
 72
               1
 41
1.0
 42
0.0
  3
tform線あり
100
AcDbAlignedDimension
 13
-200.63130940699284
 23
-365.98088946308224
 33
0.0
 14
-525.63130940699284
 24
-365.98088946308224
 34
0.0
100
AcDbRotatedDimension
1001
ACAD
1000
DSTYLE
1002
{
1070
             279
1070
               2
1070
             340
1005
34
1070
             147
1040
5.0
1002
}
  0
DIMENSION
  5
14B
100
AcDbEntity
  8
notes
370
               5
390
0
  6
Continuous
 62
               7
100
AcDbDimension
  2
*D8
 10
343.80838594998204
 20
-408.45512155737481
 30
0.0
 11
343.80838594998204
 21
-268.45512155737475
 31
0.0
 71
               5
 72
               1
 41
1.0
 42
0.0
  3
tform線あり
100
AcDbAlignedDimension
 13
463.76972746208958
 23
-128.4551215573747
 33
0.0
 14
463.80838594998204
 24
-408.45512155737481
 34
0.0
 50
90.0
100
AcDbRotatedDimension
1001
ACAD
1000
DSTYLE
1002
{
1070
             279
1070
               2
1070
             340
1005
34
1070
             147
1040
5.0
1002
}
  0
DIMENSION
  5
14C
100
AcDbEntity
  8
notes
370
               5
390
0
  6
Continuous
 62
               7
100
AcDbDimension
  2
*D9
 10
443.76972746208958
 20
-968.49129314809352
 30
0.0
 11
463.78905670603581
 21
-968.49129314809352
 31
0.0
 71
               5
 72
               1
 41
1.0
 42
0.0
  3
tform線あり
100
AcDbAlignedDimension
 13
483.80838594998204
 23
-428.45512155737447
 33
0.0
 14
443.76972746208958
 24
-868.4958645111376
 34
0.0
100
AcDbRotatedDimension
1001
ACAD
1000
DSTYLE
1002
{
1070
             279
1070
               2
1070
             340
1005
34
1070
             147
1040
5.0
1002
}
  0
DIMENSION
  5
14D
100
AcDbEntity
  8
notes
370
               5
390
0
  6
Continuous
 62
               7
100
AcDbDimension
  2
*D10
 10
443.76972746208958
 20
431.5041354888632
 30
0.0
 11
468.76972746208912
 21
431.5041354888632
 31
0.0
 71
               5
 72
               1
 41
1.0
 42
0.0
  3
tform線あり
100
AcDbAlignedDimension
 13
493.76972746208867
 23
331.5041354888632
 33
0.0
 14
443.76972746208958
 24
331.5041354888632
 34
0.0
100
AcDbRotatedDimension
1001
ACAD
1000
DSTYLE
1002
{
1070
             279
1070
               2
1070
             340
1005
34
1070
             147
1040
5.0
1002
}
  0
CIRCLE
  5
14E
100
AcDbEntity
  8
notes
370
              15
390
0
  6
STYLE_12
 62
               7
100
AcDbCircle
 10
40.572868266436672
 20
-650.90450297284895
 30
0.0
 40
17.500000000000064
  0
DIMENSION
  5
14F
100
AcDbEntity
  8
notes
370
               5
390
0
  6
Continuous
 62
               7
100
AcDbDimension
  2
*D11
 10
493.76972746208867
 20
431.5041354888632
 30
0.0
 11
563.76972746208821
 21
431.5041354888632
 31
0.0
 71
               5
 72
               1
 41
1.0
 42
0.0
  3
tform線あり
100
AcDbAlignedDimension
 13
633.76972746208776
 23
-103.71439211260588
 33
0.0
 14
493.76972746208867
 24
331.5041354888632
 34
0.0
100
AcDbRotatedDimension
1001
ACAD
1000
DSTYLE
1002
{
1070
             279
1070
               2
1070
             340
1005
35
1070
             140
1040
24.432617187500004
1070
             147
1040
5.0
1002
}
  0
DIMENSION
  5
150
100
AcDbEntity
  8
notes
370
               5
390
0
  6
Continuous
 62
               7
100
AcDbDimension
  2
*D12
 10
633.76972746208776
 20
637.01711607454195
 30
0.0
 11
538.76972746208912
 21
637.01711607454195
 31
0.0
 71
               5
 72
               1
 41
1.0
 42
0.0
  3
tform線あり
100
AcDbAlignedDimension
 13
443.76972746209049
 23
736.27544740099825
 33
0.0
 14
633.76972746208776
 24
822.40683133857442
 34
0.0
100
AcDbRotatedDimension
1001
ACAD
1000
DSTYLE
1002
{
1070
             279
1070
               2
1070
             340
1005
34
1070
             147
1040
5.0
1002
}
  0
DIMENSION
  5
151
100
AcDbEntity
  8
notes
370
               5
390
0
  6
Continuous
 62
               7
100
AcDbDimension
  2
*D13
 10
733.76972746208776
 20
1217.0160878111594
 30
0.0
 11
733.76972746208776
 21
1072.0160878111594
 31
0.0
 71
               5
 72
               1
 41
1.0
 42
0.0
  3
tform線あり
100
AcDbAlignedDimension
 13
628.76972746208776
 23
927.01608781115942
 33
0.0
 14
629.76972746208776
 24
1217.0160878111594
 34
0.0
 50
90.0
100
AcDbRotatedDimension
1001
ACAD
1000
DSTYLE
1002
{
1070
             279
1070
               2
1070
             340
1005
34
1070
             147
1040
5.0
1002
}
  0
DIMENSION
  5
152
100
AcDbEntity
  8
notes
370
               5
390
0
  6
Continuous
 62
               7
100
AcDbDimension
  2
*D14
 10
343.76972746208958
 20
1217.0160878111594
 30
0.0
 11
343.76972746208958
 21
1184.5160878111594
 31
0.0
 71
               5
 72
               1
 41
1.0
 42
0.0
  3
tform線あり
100
AcDbAlignedDimension
 13
443.76972746208958
 23
1152.0160878111594
 33
0.0
 14
448.76972746208958
 24
1217.0160878111594
 34
0.0
 50
90.0
100
AcDbRotatedDimension
1001
ACAD
1000
DSTYLE
1002
{
1070
             279
1070
               2
1070
             340
1005
34
1070
             147
1040
5.0
1002
}
  0
DIMENSION
  5
153
100
AcDbEntity
  8
notes
370
               5
390
0
  6
Continuous
 62
               7
100
AcDbDimension
  2
*D15
 10
443.76972746208958
 20
936.18410148326507
 30
0.0
 11
436.0083859499814
 21
941.18410148326507
 31
0.0
 70
             128
 71
               5
 72
               1
 41
1.0
 42
0.0
  3
tform線あり
100
AcDbAlignedDimension
 13
573.76972746208776
 23
964.03262504539384
 33
0.0
 14
443.76972746208958
 24
964.03262504539384
 34
0.0
100
AcDbRotatedDimension
1001
ACAD
1000
DSTYLE
1002
{
1070
             279
1070
               2
1070
             340
1005
34
1070
               3
1000
<>（深さ）
1070
             174
1070
               0
1070
             147
1040
5.0
1002
}
  0
DIMENSION
  5
154
100
AcDbEntity
  8
notes
370
               5
390
0
  6
Continuous
 62
               7
100
AcDbDimension
  2
*D16
 10
343.80838594998204
 20
-128.45512155737481
 30
0.0
 11
343.80838594998204
 21
-45.95512155737481
 31
0.0
 71
               5
 72
               1
 41
1.0
 42
0.0
  3
tform線あり
100
AcDbAlignedDimension
 13
463.80838594998204
 23
36.54487844262519
 33
0.0
 14
463.80838594998204
 24
-128.45512155737481
 34
0.0
 50
90.0
100
AcDbRotatedDimension
1001
ACAD
1000
DSTYLE
1002
{
1070
             279
1070
               2
1070
             340
1005
35
1070
             140
1040
24.432617187500004
1070
             147
1040
5.0
1002
}
  0
DIMENSION
  5
155
100
AcDbEntity
  8
notes
370
               5
390
0
  6
Continuous
 62
               7
100
AcDbDimension
  2
*D17
 10
343.80838594998204
 20
-408.45512155737481
 30
0.0
 11
343.80838594998204
 21
-490.95512155737481
 31
0.0
 71
               5
 72
               1
 41
1.0
 42
0.0
  3
tform線あり
100
AcDbAlignedDimension
 13
463.80838594998204
 23
-573.45512155737481
 33
0.0
 14
463.80838594998204
 24
-408.45512155737481
 34
0.0
 50
90.0
100
AcDbRotatedDimension
1001
ACAD
1000
DSTYLE
1002
{
1070
             279
1070
               2
1070
             340
1005
35
1070
             140
1040
24.432617187500004
1070
             147
1040
5.0
1002
}
  0
MTEXT
  5
156
100
AcDbEntity
  8
notes
390
0
 62
               7
100
AcDbMText
 10
29.761879726211873
 20
-628.06608227644506
 30
0.0
 40
24.253472222222221
 41
836.66157930359611
 71
               1
 72
               1
  1
＝φ30もしくはφ35の水栓取付用穴あけ加工を承ります。\P   必要な場合、ご注文の際にご指示ください。
  7
MS UI Gothic
 11
0.0
 21
1.0
 31
0.0
 73
               1
 44
1.0514786418400877
  0
DIMENSION
  5
157
100
AcDbEntity
  8
notes
370
               5
390
0
  6
Continuous
 62
               7
100
AcDbDimension
  2
*D18
 10
-655.63130940699193
 20
-935.0
 30
0.0
 11
-590.63130940699239
 21
-935.0
 31
0.0
 71
               5
 72
               1
 41
1.0
 42
0.0
  3
tform線あり
100
AcDbAlignedDimension
 13
-525.63130940699284
 23
-864.49129314809375
 33
0.0
 14
-655.63130940699193
 24
-864.49129314809375
 34
0.0
100
AcDbRotatedDimension
1001
ACAD
1000
DSTYLE
1002
{
1070
             279
1070
               2
1070
             340
1005
35
1070
             140
1040
24.432617187500004
1070
             147
1040
5.0
1002
}
  0
LINE
  5
158
100
AcDbEntity
  8
notes
370
              15
390
0
  6
Continuous
 62
               7
100
AcDbLine
 10
443.76972746208958
 20
893.0
 30
0.0
 11
493.0
 21
893.0
 31
0.0
  0
ARC
  5
159
100
AcDbEntity
  8
notes
370
              15
390
0
  6
Continuous
 62
               7
100
AcDbCircle
 10
491.44118224798785
 20
894.75012716543642
 30
0.0
 40
2.3436846799829398
100
AcDbArc
 50
311.69108026033678
 51
6.515944516544721
  0
CIRCLE
  5
15A
100
AcDbEntity
  8
ADF70-1207
370
              15
390
0
  6
Continuous
 62
               7
100
AcDbCircle
 10
-363.13130940699284
 20
-268.49129314809386
 30
0.0
 40
22.5
  0
CIRCLE
  5
15B
100
AcDbEntity
  8
ADF70-1207
370
              15
390
0
  6
Continuous
 62
               7
100
AcDbCircle
 10
-363.13130940699284
 20
-268.49129314809386
 30
0.0
 40
39.0
  0
LINE
  5
15C
100
AcDbEntity
  8
ADF70-1207
370
              15
390
0
  6
Continuous
 62
               7
100
AcDbLine
 10
-655.63130940699193
 20
-268.49129314809386
 30
0.0
 11
-655.63130940699193
 21
327.50870685190705
 31
0.0
  0
LINE
  5
15D
100
AcDbEntity
  8
ADF70-1207
370
              15
390
0
  6
Continuous
 62
               7
100
AcDbLine
 10
-325.63130940699284
 20
327.50870685190705
 30
0.0
 11
-325.63130940699284
 21
-4.2988017062978088
 31
0.0
  0
SPLINE
  5
15E
100
AcDbEntity
  8
ADF70-1207
370
              15
390
0
  6
Continuous
 62
               7
100
AcDbSpline
210
0.0
220
0.0
230
1.0
 70
               9
 71
               2
 72
              30
 73
              27
 74
               0
 42
0.000001
 43
0.000001
 40
0.0
 40
0.0
 40
0.0
 40
1.0
 40
1.0
 40
2.0
 40
3.0
 40
4.0
 40
5.0
 40
6.0
 40
7.0
 40
8.0
 40
9.0
 40
10.0
 40
11.0
 40
12.0
 40
13.0
 40
14.0
 40
15.0
 40
16.0
 40
17.0
 40
18.0
 40
19.0
 40
20.0
 40
21.0
 40
22.0
 40
22.0
 40
23.0
 40
23.0
 40
23.0
 10
-513.63130940699284
 20
-280.99129314809386
 30
0.0
 10
-513.51076028781245
 20
-280.99129314809386
 30
0.0
 10
-513.39021116863205
 20
-280.99129314809386
 30
0.0
 10
-512.10972047549967
 20
-280.67289131333848
 30
0.0
 10
-510.65845826956775
 20
-278.38284626727966
 30
0.0
 10
-509.85393009305062
 20
-276.27594308987989
 30
0.0
 10
-509.26930883797922
 20
-273.7698831009269
 30
0.0
 10
-508.77663422201204
 20
-269.77471261779363
 30
0.0
 10
-508.9333489188457
 20
-265.89547179388762
 30
0.0
 10
-509.26931025073736
 20
-263.21270319526059
 30
0.0
 10
-509.85392185195724
 20
-260.70664320630669
 30
0.0
 10
-511.08911471166448
 20
-257.52125666917652
 30
0.0
 10
-512.64001682018807
 20
-256.18910675303994
 30
0.0
 10
-514.11588789216876
 20
-255.7639790096049
 30
0.0
 10
-515.6470980052809
 20
-257.06886277345359
 30
0.0
 10
-516.60411251061942
 20
-258.59974002890806
 30
0.0
 10
-517.40869696202844
 20
-260.70664320630715
 30
0.0
 10
-517.99330856324832
 20
-263.21270319526104
 30
0.0
 10
-518.32926989513999
 20
-265.89547179388717
 30
0.0
 10
-518.49161704674498
 20
-269.76022141039073
 30
0.0
 10
-517.99330997600646
 20
-273.76988310092668
 30
0.0
 10
-517.40868872093506
 20
-276.27594308988034
 30
0.0
 10
-516.60416054441794
 20
-278.38284626727943
 30
0.0
 10
-515.14146199747483
 20
-280.66818818549643
 30
0.0
 10
-513.87240764535272
 20
-280.99129314809386
 30
0.0
 10
-513.75185852617278
 20
-280.99129314809386
 30
0.0
 10
-513.63130940699284
 20
-280.99129314809386
 30
0.0
  0
CIRCLE
  5
15F
100
AcDbEntity
  8
ADF70-1207
370
              15
390
0
  6
Continuous
 62
               7
100
AcDbCircle
 10
-363.13130940699284
 20
-268.49129314809386
 30
0.0
 40
22.5
  0
LINE
  5
160
100
AcDbEntity
  8
ADF70-1207
370
              15
390
0
  6
Continuous
 62
               7
100
AcDbLine
 10
-655.63130940699193
 20
-268.49129314809386
 30
0.0
 11
-655.63130940699193
 21
-864.49129314809375
 31
0.0
  0
LINE
  5
161
100
AcDbEntity
  8
ADF70-1207
370
              15
390
0
  6
Continuous
 62
               7
100
AcDbLine
 10
-325.63130940699284
 20
-864.49129314809375
 30
0.0
 11
-325.63130940699284
 21
-532.68378458989014
 31
0.0
  0
ARC
  5
162
100
AcDbEntity
  8
ADF70-1207
370
              15
390
0
  6
Continuous
 62
               7
100
AcDbCircle
 10
-363.13130940699284
 20
-196.00169683310617
 30
0.0
 40
162.5
100
AcDbArc
 50
359.99999999999989
 51
180.0
  0
ARC
  5
163
100
AcDbEntity
  8
ADF70-1207
370
              15
390
0
  6
Continuous
 62
               7
100
AcDbCircle
 10
-363.13130940699284
 20
-340.98088946308224
 30
0.0
 40
162.5
100
AcDbArc
 50
180.0
 51
0.0
  0
LINE
  5
164
100
AcDbEntity
  8
ADF70-1207
370
              15
390
0
  6
Continuous
 62
               7
100
AcDbLine
 10
-525.63130940699284
 20
-340.98088946308224
 30
0.0
 11
-525.63130940699284
 21
-196.00169683310639
 31
0.0
  0
LINE
  5
165
100
AcDbEntity
  8
ADF70-1207
370
              15
390
0
  6
Continuous
 62
               7
100
AcDbLine
 10
-200.63130940699284
 20
-340.98088946308224
 30
0.0
 11
-200.63130940699284
 21
-196.00169683310639
 31
0.0
  0
ARC
  5
166
100
AcDbEntity
  8
ADF70-1207
370
              15
390
0
  6
Continuous
 62
               7
100
AcDbCircle
 10
-363.13130940699284
 20
-340.98088946308224
 30
0.0
 40
187.49999999999989
100
AcDbArc
 50
283.91642623355619
 51
0.0
  0
ARC
  5
167
100
AcDbEntity
  8
ADF70-1207
370
              15
390
0
  6
Continuous
 62
               7
100
AcDbCircle
 10
-363.13130940699284
 20
-196.00169683310617
 30
0.0
 40
187.50000000000091
100
AcDbArc
 50
359.99999999999994
 51
76.083573766443592
  0
ARC
  5
168
100
AcDbEntity
  8
ADF70-1207
370
              15
390
0
  6
Continuous
 62
               7
100
AcDbCircle
 10
-315.63130940699284
 20
-532.68378458989014
 30
0.0
 40
9.9999999999998899
100
AcDbArc
 50
103.91642623355175
 51
180.0
  0
ARC
  5
169
100
AcDbEntity
  8
ADF70-1207
370
              15
390
0
  6
Continuous
 62
               7
100
AcDbCircle
 10
-315.63130940699284
 20
-4.2988017062978088
 30
0.0
 40
10.0
100
AcDbArc
 50
180.0
 51
256.08357376644307
  0
LINE
  5
16A
100
AcDbEntity
  8
ADF70-1207
370
              15
390
0
  6
Continuous
 62
               7
100
AcDbLine
 10
-175.63130940699193
 20
-340.98088946308224
 30
0.0
 11
-175.63130940699193
 21
-196.00169683310639
 31
0.0
  0
LINE
  5
16B
100
AcDbEntity
  8
ADF70-1207
370
              15
390
0
  6
Continuous
 62
               7
100
AcDbLine
 10
-329.63130940699284
 20
331.50870685190705
 30
0.0
 11
-651.63130940699193
 21
331.50870685190705
 31
0.0
  0
ARC
  5
16C
100
AcDbEntity
  8
ADF70-1207
370
              15
390
0
  6
Continuous
 62
               7
100
AcDbCircle
 10
-329.63130940699284
 20
327.50870685190705
 30
0.0
 40
4.0
100
AcDbArc
 50
0.0
 51
90.0
  0
ARC
  5
16D
100
AcDbEntity
  8
ADF70-1207
370
              15
390
0
  6
Continuous
 62
               7
100
AcDbCircle
 10
-651.63130940699193
 20
327.50870685190705
 30
0.0
 40
4.0
100
AcDbArc
 50
90.0
 51
180.0
  0
LINE
  5
16E
100
AcDbEntity
  8
ADF70-1207
370
              15
390
0
  6
Continuous
 62
               7
100
AcDbLine
 10
-329.63130940699284
 20
-868.49129314809375
 30
0.0
 11
-651.63130940699193
 21
-868.49129314809375
 31
0.0
  0
ARC
  5
16F
100
AcDbEntity
  8
ADF70-1207
370
              15
390
0
  6
Continuous
 62
               7
100
AcDbCircle
 10
-329.63130940699284
 20
-864.49129314809375
 30
0.0
 40
4.0
100
AcDbArc
 50
270.0
 51
0.0
  0
ARC
  5
170
100
AcDbEntity
  8
ADF70-1207
370
              15
390
0
  6
Continuous
 62
               7
100
AcDbCircle
 10
-651.63130940699193
 20
-864.49129314809375
 30
0.0
 40
4.0
100
AcDbArc
 50
180.0
 51
270.0
  0
LINE
  5
171
100
AcDbEntity
  8
ADF70-1207
370
              15
390
0
  6
STYLE_12
 62
               7
100
AcDbLine
 10
628.76972746208776
 20
947.91608781116133
 30
0.0
 11
628.76972746208776
 21
905.20516332921966
 31
0.0
  0
LINE
  5
172
100
AcDbEntity
  8
ADF70-1207
370
              15
390
0
  6
STYLE_12
 62
               7
100
AcDbLine
 10
578.76972746208867
 20
964.51608781115942
 30
0.0
 11
578.76972746208867
 21
887.36975396059529
 31
0.0
  0
LINE
  5
173
100
AcDbEntity
  8
ADF70-1207
370
              15
390
0
  6
STYLE_12
 62
               7
100
AcDbLine
 10
590.76972746208867
 20
947.89159368769765
 30
0.0
 11
590.76972746208867
 21
905.20516332921966
 31
0.0
  0
LINE
  5
174
100
AcDbEntity
  8
ADF70-1207
370
              15
390
0
  6
Continuous
 62
               7
100
AcDbLine
 10
567.63151607997497
 20
1217.0160878111594
 30
0.0
 11
629.76972746208776
 21
1217.0160878111594
 31
0.0
  0
LINE
  5
175
100
AcDbEntity
  8
ADF70-1207
370
              15
390
0
  6
Continuous
 62
               7
100
AcDbLine
 10
633.76972746208776
 20
1196.3956750017403
 30
0.0
 11
633.76972746208776
 21
1213.0160878111594
 31
0.0
  0
ARC
  5
176
100
AcDbEntity
  8
ADF70-1207
370
              15
390
0
  6
STYLE_12
 62
               7
100
AcDbCircle
 10
439.64370319924365
 20
942.05260546866452
 30
0.0
 40
144.95825669151307
100
AcDbArc
 50
68.726467594566131
 51
79.757646727961756
  0
ARC
  5
177
100
AcDbEntity
  8
ADF70-1207
370
              15
390
0
  6
Continuous
 62
               7
100
AcDbCircle
 10
629.76972746208776
 20
1213.0160878111594
 30
0.0
 40
4.0
100
AcDbArc
 50
0.0
 51
90.0
  0
LINE
  5
178
100
AcDbEntity
  8
ADF70-1207
370
              15
390
0
  6
Continuous
 62
               7
100
AcDbLine
 10
633.76972746208776
 20
1196.3956750017403
 30
0.0
 11
633.76972746208776
 21
825.59590685663511
 31
0.0
  0
LINE
  5
179
100
AcDbEntity
  8
ADF70-1207
370
              15
390
0
  6
Continuous
 62
               7
100
AcDbLine
 10
443.76972746208958
 20
1090.6498899518053
 30
0.0
 11
443.76972746208958
 21
757.35251007898501
 31
0.0
  0
LINE
  5
17A
100
AcDbEntity
  8
ADF70-1207
370
              15
390
0
  6
STYLE_12
 62
               7
100
AcDbLine
 10
590.76972746208867
 20
905.20516332921966
 30
0.0
 11
628.76972746208776
 21
905.20516332921966
 31
0.0
  0
LINE
  5
17B
100
AcDbEntity
  8
ADF70-1207
370
              15
390
0
  6
STYLE_12
 62
               7
100
AcDbLine
 10
579.70955331023379
 20
889.0757426910975
 30
0.0
 11
590.76972746208867
 21
905.20516332921966
 31
0.0
  0
ARC
  5
17C
100
AcDbEntity
  8
ADF70-1207
370
              15
390
0
  6
STYLE_12
 62
               7
100
AcDbCircle
 10
587.95684182869491
 20
883.42045913557831
 30
0.0
 40
10.000000000003318
100
AcDbArc
 50
145.56101069118225
 51
168.79939795857408
  0
ARC
  5
17D
100
AcDbEntity
  8
ADF70-1207
370
              15
390
0
  6
STYLE_12
 62
               7
100
AcDbCircle
 10
443.55491998352613
 20
900.92637011083889
 30
0.0
 40
135.48923595081465
100
AcDbArc
 50
272.01269809174852
 51
353.40395148310967
  0
ARC
  5
17E
100
AcDbEntity
  8
ADF70-1207
370
              15
390
0
  6
STYLE_12
 62
               7
100
AcDbCircle
 10
448.76972746208935
 20
760.54158559704592
 30
0.0
 40
4.9999999999998206
100
AcDbArc
 50
95.236007700617435
 51
180.00000000000261
  0
LINE
  5
17F
100
AcDbEntity
  8
ADF70-1207
370
              15
390
0
  6
Continuous
 62
               7
100
AcDbLine
 10
443.76972746208958
 20
742.0160747333282
 30
0.0
 11
443.76972746208958
 21
760.5415855970457
 31
0.0
  0
ARC
  5
180
100
AcDbEntity
  8
ADF70-1207
370
              15
390
0
  6
Continuous
 62
               7
100
AcDbCircle
 10
448.76972746208935
 20
742.0160747333282
 30
0.0
 40
4.9999999999997726
100
AcDbArc
 50
180.0
 51
271.16938278025691
  0
ARC
  5
181
100
AcDbEntity
  8
ADF70-1207
370
              15
390
0
  6
Continuous
 62
               7
100
AcDbCircle
 10
443.76972757053363
 20
986.96504901385583
 30
0.0
 40
249.99999999999613
100
AcDbArc
 50
271.16938278024816
 51
319.20788921770446
  0
ARC
  5
182
100
AcDbEntity
  8
ADF70-1207
370
              15
390
0
  6
Continuous
 62
               7
100
AcDbCircle
 10
630.76972746208503
 20
825.59590685663738
 30
0.0
 40
3.000000000002629
100
AcDbArc
 50
319.20788921769588
 51
359.99999999995663
  0
LINE
  5
183
100
AcDbEntity
  8
ADF70-1207
370
              15
390
0
  6
Continuous
 62
               7
100
AcDbLine
 10
446.76972746208958
 20
1134.1251040476939
 30
0.0
 11
451.76972746208958
 21
1134.1251040476939
 31
0.0
  0
LINE
  5
184
100
AcDbEntity
  8
ADF70-1207
370
              15
390
0
  6
Continuous
 62
               7
100
AcDbLine
 10
446.76972746208958
 20
1135.1217707143603
 30
0.0
 11
446.76972746208958
 21
1134.1251040476939
 31
0.0
  0
LINE
  5
185
100
AcDbEntity
  8
ADF70-1207
370
              15
390
0
  6
Continuous
 62
               7
100
AcDbLine
 10
451.76972746208958
 20
1135.1217707143603
 30
0.0
 11
446.76972746208958
 21
1135.1217707143603
 31
0.0
  0
LINE
  5
186
100
AcDbEntity
  8
ADF70-1207
370
              15
390
0
  6
Continuous
 62
               7
100
AcDbLine
 10
446.76972746208958
 20
1169.0084373810271
 30
0.0
 11
451.76972746208958
 21
1169.0084373810271
 31
0.0
  0
LINE
  5
187
100
AcDbEntity
  8
ADF70-1207
370
              15
390
0
  6
Continuous
 62
               7
100
AcDbLine
 10
446.76972746208958
 20
1170.005104047694
 30
0.0
 11
446.76972746208958
 21
1169.0084373810271
 31
0.0
  0
LINE
  5
188
100
AcDbEntity
  8
ADF70-1207
370
              15
390
0
  6
Continuous
 62
               7
100
AcDbLine
 10
451.76972746208958
 20
1170.005104047694
 30
0.0
 11
446.76972746208958
 21
1170.005104047694
 31
0.0
  0
POLYLINE
  5
189
100
AcDbEntity
  8
ADF70-1207
370
              15
390
0
  6
Continuous
 62
               7
100
AcDb2dPolyline
 66
               1
 10
0.0
 20
0.0
 30
0.0
 75
               5
  0
VERTEX
  5
18A
100
AcDbEntity
  8
ADF70-1207
370
              15
390
0
  6
Continuous
 62
               7
100
AcDbVertex
100
AcDb2dVertex
 10
448.75306079542224
 20
1217.0160878111594
 30
0.0
  0
VERTEX
  5
18B
100
AcDbEntity
  8
ADF70-1207
370
              15
390
0
  6
Continuous
 62
               7
100
AcDbVertex
100
AcDb2dVertex
 10
448.76972746208958
 20
1217.0160878111594
 30
0.0
  0
VERTEX
  5
18C
100
AcDbEntity
  8
ADF70-1207
370
              15
390
0
  6
Continuous
 62
               7
100
AcDbVertex
100
AcDb2dVertex
 10
567.63151607997406
 20
1217.0160878111612
 30
0.0
  0
VERTEX
  5
18D
100
AcDbEntity
  8
ADF70-1207
370
              15
390
0
  6
Continuous
 62
               7
100
AcDbVertex
100
AcDb2dVertex
 10
567.64818274664049
 20
1217.0160878111612
 30
0.0
  0
SEQEND
  5
18E
100
AcDbEntity
  8
ADF70-1207
370
              15
390
0
  6
Continuous
 62
               7
  0
ARC
  5
18F
100
AcDbEntity
  8
ADF70-1207
370
              15
390
0
  6
Continuous
 62
               7
100
AcDbCircle
 10
448.75306079542224
 20
1212.0327544778268
 30
0.0
 40
4.9833333333326664
100
AcDbArc
 50
90.0
 51
179.99999999998954
  0
POLYLINE
  5
190
100
AcDbEntity
  8
ADF70-1207
370
              15
390
0
  6
Continuous
 62
               7
100
AcDb2dPolyline
 66
               1
 10
0.0
 20
0.0
 30
0.0
 75
               5
  0
VERTEX
  5
191
100
AcDbEntity
  8
ADF70-1207
370
              15
390
0
  6
Continuous
 62
               7
100
AcDbVertex
100
AcDb2dVertex
 10
443.76972746208958
 20
1091.0711106113374
 30
0.0
  0
VERTEX
  5
192
100
AcDbEntity
  8
ADF70-1207
370
              15
390
0
  6
Continuous
 62
               7
100
AcDbVertex
100
AcDb2dVertex
 10
443.76972746208958
 20
1092.0974536175602
 30
0.0
  0
VERTEX
  5
193
100
AcDbEntity
  8
ADF70-1207
370
              15
390
0
  6
Continuous
 62
               7
100
AcDbVertex
100
AcDb2dVertex
 10
443.76972746208958
 20
1212.0327544778277
 30
0.0
  0
SEQEND
  5
194
100
AcDbEntity
  8
ADF70-1207
370
              15
390
0
  6
Continuous
 62
               7
  0
ARC
  5
195
100
AcDbEntity
  8
ADF70-1207
370
              15
390
0
  6
STYLE_12
 62
               7
100
AcDbCircle
 10
447.75580704303138
 20
1091.0711106113374
 30
0.0
 40
3.986079580941805
100
AcDbArc
 50
180.0
 51
267.47617487588246
  0
POLYLINE
  5
196
100
AcDbEntity
  8
ADF70-1207
370
              15
390
0
  6
STYLE_12
 62
               7
100
AcDb2dPolyline
 66
               1
 10
0.0
 20
0.0
 30
0.0
 75
               5
  0
VERTEX
  5
197
100
AcDbEntity
  8
ADF70-1207
370
              15
390
0
  6
STYLE_12
 62
               7
100
AcDbVertex
100
AcDb2dVertex
 10
447.62215757066133
 20
1087.0870517114381
 30
0.0
  0
VERTEX
  5
198
100
AcDbEntity
  8
ADF70-1207
370
              15
390
0
  6
STYLE_12
 62
               7
100
AcDbVertex
100
AcDb2dVertex
 10
447.59300025692573
 20
1087.0883368949765
 30
0.0
  0
VERTEX
  5
199
100
AcDbEntity
  8
ADF70-1207
370
              15
390
0
  6
STYLE_12
 62
               7
100
AcDbVertex
100
AcDb2dVertex
 10
447.58028076743381
 20
1087.0888975391654
 30
0.0
  0
SEQEND
  5
19A
100
AcDbEntity
  8
ADF70-1207
370
              15
390
0
  6
STYLE_12
 62
               7
  0
ARC
  5
19B
100
AcDbEntity
  8
ADF70-1207
370
              15
390
0
  6
STYLE_12
 62
               7
100
AcDbCircle
 10
441.5363630394877
 20
949.01695107248383
 30
0.0
 40
138.20415907463357
100
AcDbArc
 50
80.060670127479469
 51
87.476174875876779
  0
POLYLINE
  5
19C
100
AcDbEntity
  8
ADF70-1207
370
              15
390
0
  6
STYLE_12
 62
               7
100
AcDb2dPolyline
 66
               1
 10
0.0
 20
0.0
 30
0.0
 75
               5
  0
VERTEX
  5
19D
100
AcDbEntity
  8
ADF70-1207
370
              15
390
0
  6
STYLE_12
 62
               7
100
AcDbVertex
100
AcDb2dVertex
 10
628.76972746208776
 20
947.91608781116133
 30
0.0
  0
VERTEX
  5
19E
100
AcDbEntity
  8
ADF70-1207
370
              15
390
0
  6
STYLE_12
 62
               7
100
AcDbVertex
100
AcDb2dVertex
 10
590.76431024493922
 20
947.91608781116088
 30
0.0
  0
VERTEX
  5
19F
100
AcDbEntity
  8
ADF70-1207
370
              15
390
0
  6
STYLE_12
 62
               7
100
AcDbVertex
100
AcDb2dVertex
 10
590.75282439068837
 20
947.91608781116088
 30
0.0
  0
SEQEND
  5
1A0
100
AcDbEntity
  8
ADF70-1207
370
              15
390
0
  6
STYLE_12
 62
               7
  0
LINE
  5
1A1
100
AcDbEntity
  8
ADF70-1207
370
              15
390
0
  6
STYLE_12
 62
               7
100
AcDbLine
 10
578.76972746208867
 20
965.2807104110841
 30
0.0
 11
590.76972746208867
 21
947.89159368769765
 31
0.0
  0
ARC
  5
1A2
100
AcDbEntity
  8
ADF70-1207
370
              15
390
0
  6
STYLE_12
 62
               7
100
AcDbCircle
 10
442.57866157464014
 20
949.37513255826707
 30
0.0
 40
137.11671610125211
100
AcDbArc
 50
6.6613231844210938
 51
68.580124696681622
  0
CIRCLE
  5
1A3
100
AcDbEntity
  8
ADF70-1207
370
              15
390
0
  6
STYLE_12
 62
               7
100
AcDbCircle
 10
-590.64300070427726
 20
-268.49129314809318
 30
0.0
 40
17.49999999999995
  0
LINE
  5
1A4
100
AcDbEntity
  8
ADF70-1207
370
              15
390
0
  6
STYLE_12
 62
               7
100
AcDbLine
 10
628.76972746208776
 20
-268.49586451113771
 30
0.0
 11
628.76972746208776
 21
-245.99586451113748
 31
0.0
  0
LINE
  5
1A5
100
AcDbEntity
  8
ADF70-1207
370
              15
390
0
  6
STYLE_12
 62
               7
100
AcDbLine
 10
578.76972746208867
 20
-268.49586451113771
 30
0.0
 11
578.76972746208867
 21
-228.49586451113748
 31
0.0
  0
LINE
  5
1A6
100
AcDbEntity
  8
ADF70-1207
370
              15
390
0
  6
STYLE_12
 62
               7
100
AcDbLine
 10
590.76972746208867
 20
-268.49586451113771
 30
0.0
 11
590.76972746208867
 21
-245.99586451113748
 31
0.0
  0
LINE
  5
1A7
100
AcDbEntity
  8
ADF70-1207
370
              15
390
0
  6
Continuous
 62
               7
100
AcDbLine
 10
633.76972746208776
 20
-119.29499183022097
 30
0.0
 11
633.76972743723309
 21
-119.29499181884955
 31
0.0
  0
LINE
  5
1A8
100
AcDbEntity
  8
ADF70-1207
370
              15
390
0
  6
STYLE_05
 62
               7
100
AcDbLine
 10
631.26972746208776
 20
-121.79499183022051
 30
0.0
 11
631.26972743720853
 21
-121.79499181887411
 31
0.0
  0
LINE
  5
1A9
100
AcDbEntity
  8
ADF70-1207
370
              15
390
0
  6
STYLE_12
 62
               7
100
AcDbLine
 10
590.76972746208867
 20
-246.15512155737486
 30
0.0
 11
579.70955331023379
 21
-230.0257009192527
 31
0.0
  0
LINE
  5
1AA
100
AcDbEntity
  8
ADF70-1207
370
              15
390
0
  6
STYLE_12
 62
               7
100
AcDbLine
 10
628.76972746208776
 20
-246.15512155737486
 30
0.0
 11
590.76972746208867
 21
-246.15512155737486
 31
0.0
  0
ARC
  5
1AB
100
AcDbEntity
  8
ADF70-1207
370
              15
390
0
  6
STYLE_12
 62
               7
100
AcDbCircle
 10
443.55491998352682
 20
-173.15648142911766
 30
0.0
 40
135.48923595081419
100
AcDbArc
 50
6.5960485168912086
 51
87.98730190825178
  0
ARC
  5
1AC
100
AcDbEntity
  8
ADF70-1207
370
              15
390
0
  6
STYLE_05
 62
               7
100
AcDbCircle
 10
448.76972746208958
 20
-32.771696915322423
 30
0.0
 40
5.0
100
AcDbArc
 50
180.0
 51
264.76399229938022
  0
LWPOLYLINE
  5
1AD
100
AcDbEntity
  8
ADF70-1207
370
              15
390
0
  6
Continuous
 62
               7
100
AcDbPolyline
 90
        6
 70
             128
 10
443.76972746208958
 20
-32.771696915322423
 10
443.76972746208958
 20
-14.246186051605036
 42
-0.4202041027564973
 10
448.87176827620351
 20
-9.2472273928188997
 42
-0.2237595280618449
 10
629.42628968150075
 20
-98.854908332368495
 10
633.06972746208794
 20
-103.4551215573747
 10
633.76972746208776
 20
-103.71439211260588
  0
POLYLINE
  5
1AE
100
AcDbEntity
  8
ADF70-1207
370
              15
390
0
  6
Continuous
 62
               7
100
AcDb2dPolyline
 66
               1
 10
0.0
 20
0.0
 30
0.0
 75
               5
  0
VERTEX
  5
1AF
100
AcDbEntity
  8
ADF70-1207
370
              15
390
0
  6
Continuous
 62
               7
100
AcDbVertex
100
AcDb2dVertex
 10
493.76972746208867
 20
-14.484731253654786
 30
0.0
  0
VERTEX
  5
1B0
100
AcDbEntity
  8
ADF70-1207
370
              15
390
0
  6
Continuous
 62
               7
100
AcDbVertex
100
AcDb2dVertex
 10
493.76972746208867
 20
331.5041354888632
 30
0.0
  0
VERTEX
  5
1B1
100
AcDbEntity
  8
ADF70-1207
370
              15
390
0
  6
Continuous
 62
               7
100
AcDbVertex
100
AcDb2dVertex
 10
443.76972746208958
 20
331.5041354888632
 30
0.0
  0
VERTEX
  5
1B2
100
AcDbEntity
  8
ADF70-1207
370
              15
390
0
  6
Continuous
 62
               7
100
AcDbVertex
100
AcDb2dVertex
 10
443.76972746208958
 20
-868.4958645111376
 30
0.0
  0
VERTEX
  5
1B3
100
AcDbEntity
  8
ADF70-1207
370
              15
390
0
  6
Continuous
 62
               7
100
AcDbVertex
100
AcDb2dVertex
 10
493.76972746208867
 20
-868.4958645111376
 30
0.0
  0
VERTEX
  5
1B4
100
AcDbEntity
  8
ADF70-1207
370
              15
390
0
  6
Continuous
 62
               7
100
AcDbVertex
100
AcDb2dVertex
 10
493.76972746208867
 20
-522.50699776862029
 30
0.0
  0
SEQEND
  5
1B5
100
AcDbEntity
  8
ADF70-1207
370
              15
390
0
  6
Continuous
 62
               7
  0
ARC
  5
1B6
100
AcDbEntity
  8
ADF70-1207
370
              15
390
0
  6
STYLE_12
 62
               7
100
AcDbCircle
 10
-1540.8309113332843
 20
-211.64850737980885
 30
0.0
 40
2119.6675922002637
100
AcDbArc
 50
359.54460188633681
 51
1.4613080223857082
  0
LINE
  5
1B7
100
AcDbEntity
  8
ADF70-1207
370
              15
390
0
  6
STYLE_12
 62
               7
100
AcDbLine
 10
628.76972746208776
 20
-268.49586451113771
 30
0.0
 11
628.76972746208776
 21
-290.99586451113771
 31
0.0
  0
LINE
  5
1B8
100
AcDbEntity
  8
ADF70-1207
370
              15
390
0
  6
STYLE_12
 62
               7
100
AcDbLine
 10
578.76972746208867
 20
-268.49586451113771
 30
0.0
 11
578.76972746208867
 21
-308.49586451113771
 31
0.0
  0
LINE
  5
1B9
100
AcDbEntity
  8
ADF70-1207
370
              15
390
0
  6
STYLE_12
 62
               7
100
AcDbLine
 10
590.76972746208867
 20
-268.49586451113771
 30
0.0
 11
590.76972746208867
 21
-290.99586451113771
 31
0.0
  0
LINE
  5
1BA
100
AcDbEntity
  8
ADF70-1207
370
              15
390
0
  6
Continuous
 62
               7
100
AcDbLine
 10
633.76972746208776
 20
-417.69673719205423
 30
0.0
 11
633.76972743723309
 21
-417.69673720342564
 31
0.0
  0
LINE
  5
1BB
100
AcDbEntity
  8
ADF70-1207
370
              15
390
0
  6
STYLE_05
 62
               7
100
AcDbLine
 10
631.26972746208776
 20
-415.19673719205468
 30
0.0
 11
631.26972743720853
 21
-415.19673720340109
 31
0.0
  0
LINE
  5
1BC
100
AcDbEntity
  8
ADF70-1207
370
              15
390
0
  6
STYLE_12
 62
               7
100
AcDbLine
 10
590.76972746208867
 20
-290.83660746490057
 30
0.0
 11
579.70955331023379
 21
-306.96602810302272
 31
0.0
  0
LINE
  5
1BD
100
AcDbEntity
  8
ADF70-1207
370
              15
390
0
  6
STYLE_12
 62
               7
100
AcDbLine
 10
628.76972746208776
 20
-290.83660746490057
 30
0.0
 11
590.76972746208867
 21
-290.83660746490057
 31
0.0
  0
ARC
  5
1BE
100
AcDbEntity
  8
ADF70-1207
370
              15
390
0
  6
STYLE_12
 62
               7
100
AcDbCircle
 10
443.55491998352682
 20
-363.83524759315731
 30
0.0
 40
135.48923595081655
100
AcDbArc
 50
272.01269809174823
 51
353.40395148310876
  0
ARC
  5
1BF
100
AcDbEntity
  8
ADF70-1207
370
              15
390
0
  6
STYLE_05
 62
               7
100
AcDbCircle
 10
448.76972746208958
 20
-504.22003210695243
 30
0.0
 40
5.0000000000000675
100
AcDbArc
 50
95.23600770061978
 51
180.0
  0
LWPOLYLINE
  5
1C0
100
AcDbEntity
  8
ADF70-1207
370
              15
390
0
  6
Continuous
 62
               7
100
AcDbPolyline
 90
        6
 70
             128
 10
633.76972746208776
 20
-433.27733690966932
 10
633.06972746208794
 20
-433.53660746490061
 10
629.42628968150075
 20
-438.13682068990681
 42
-0.2237595280618453
 10
448.87176827620351
 20
-527.74450162945618
 42
-0.4202041027565512
 10
443.76972746208958
 20
-522.74554297066993
 10
443.76972746208958
 20
-504.22003210695243
  0
ARC
  5
1C1
100
AcDbEntity
  8
ADF70-1207
370
              15
390
0
  6
STYLE_12
 62
               7
100
AcDbCircle
 10
-1540.8309113332843
 20
-325.34322164246635
 30
0.0
 40
2119.6675922002637
100
AcDbArc
 50
358.53869197761429
 51
0.4553981136631364
  0
LINE
  5
1C2
100
AcDbEntity
  8
ADF70-1207
370
              15
390
0
  6
Continuous
 62
               7
100
AcDbLine
 10
633.76972746208776
 20
-433.27733690966932
 30
0.0
 11
633.76972746208776
 21
-103.71439211260588
 31
0.0
  0
LINE
  5
1C3
100
AcDbEntity
  8
ADF70-1207
370
              15
390
0
  6
STYLE_12
 62
               7
100
AcDbLine
 10
503.80838594998113
 20
-408.45512155737481
 30
0.0
 11
463.80838594998204
 21
-408.45512155737481
 31
0.0
  0
LINE
  5
1C4
100
AcDbEntity
  8
ADF70-1207
370
              15
390
0
  6
STYLE_12
 62
               7
100
AcDbLine
 10
483.80838594998204
 20
-388.45512155737515
 30
0.0
 11
483.80838594998204
 21
-428.45512155737447
 31
0.0
  0
CIRCLE
  5
1C5
100
AcDbEntity
  8
ADF70-1207
370
              15
390
0
  6
STYLE_12
 62
               7
100
AcDbCircle
 10
483.80838594998204
 20
-408.45512155737481
 30
0.0
 40
10.0
  0
LINE
  5
1C6
100
AcDbEntity
  8
ADF70-1207
370
              15
390
0
  6
STYLE_12
 62
               7
100
AcDbLine
 10
503.80838594998113
 20
-128.45512155737481
 30
0.0
 11
463.80838594998204
 21
-128.45512155737481
 31
0.0
  0
LINE
  5
1C7
100
AcDbEntity
  8
ADF70-1207
370
              15
390
0
  6
STYLE_12
 62
               7
100
AcDbLine
 10
483.80838594998204
 20
-108.45512155737515
 30
0.0
 11
483.80838594998204
 21
-148.45512155737447
 31
0.0
  0
CIRCLE
  5
1C8
100
AcDbEntity
  8
ADF70-1207
370
              15
390
0
  6
STYLE_12
 62
               7
100
AcDbCircle
 10
483.80838594998204
 20
-128.45512155737481
 30
0.0
 40
10.0
  0
LINE
  5
1C9
100
AcDbEntity
  8
ADF70-1207
370
              15
390
0
  6
STYLE_12
 62
               7
100
AcDbLine
 10
503.80838594998113
 20
36.54487844262519
 30
0.0
 11
463.80838594998204
 21
36.54487844262519
 31
0.0
  0
LINE
  5
1CA
100
AcDbEntity
  8
ADF70-1207
370
              15
390
0
  6
STYLE_12
 62
               7
100
AcDbLine
 10
483.80838594998204
 20
56.544878442624849
 30
0.0
 11
483.80838594998204
 21
16.544878442625532
 31
0.0
  0
CIRCLE
  5
1CB
100
AcDbEntity
  8
ADF70-1207
370
              15
390
0
  6
STYLE_12
 62
               7
100
AcDbCircle
 10
483.80838594998204
 20
36.54487844262519
 30
0.0
 40
10.0
  0
LINE
  5
1CC
100
AcDbEntity
  8
ADF70-1207
370
              15
390
0
  6
STYLE_12
 62
               7
100
AcDbLine
 10
503.80838594998113
 20
-573.45512155737481
 30
0.0
 11
463.80838594998204
 21
-573.45512155737481
 31
0.0
  0
LINE
  5
1CD
100
AcDbEntity
  8
ADF70-1207
370
              15
390
0
  6
STYLE_12
 62
               7
100
AcDbLine
 10
483.80838594998204
 20
-553.45512155737515
 30
0.0
 11
483.80838594998204
 21
-593.45512155737447
 31
0.0
  0
CIRCLE
  5
1CE
100
AcDbEntity
  8
ADF70-1207
370
              15
390
0
  6
STYLE_12
 62
               7
100
AcDbCircle
 10
483.80838594998204
 20
-573.45512155737481
 30
0.0
 40
10.0
  0
LINE
  5
1CF
100
AcDbEntity
  8
ADF70-1207
370
              15
390
0
  6
Continuous
 62
               7
100
AcDbLine
 10
493.76972746208867
 20
1217.0160878111594
 30
0.0
 11
493.76972746208867
 21
895.01608781116033
 31
0.0
  0
ENDSEC
  0
SECTION
  2
OBJECTS
  0
DICTIONARY
  5
19
100
AcDbDictionary
280
               0
281
               1
  3
ACAD_GROUP
350
1A
  3
ACAD_MLINESTYLE
350
1B
  3
ACAD_LAYOUT
350
1E
  3
ACAD_PLOTSETTINGS
350
22
  3
ACAD_PLOTSTYLENAME
350
1F
  0
DICTIONARY
  5
1A
102
{ACAD_REACTORS
330
19
102
}
100
AcDbDictionary
280
               0
281
               1
  0
DICTIONARY
  5
1B
102
{ACAD_REACTORS
330
19
102
}
100
AcDbDictionary
280
               0
281
               1
  3
Standard
350
1C
  0
MLINESTYLE
  5
1C
102
{ACAD_REACTORS
330
1B
102
}
100
AcDbMlineStyle
  2
Standard
 70
               0
  3

 62
               0
 51
90.0
 52
90.0
 71
               2
 49
0.5
 62
             256
  6
ByLayer
 49
-0.5
 62
             256
  6
ByLayer
  0
ACDBDICTIONARYWDFLT
  5
1F
102
{ACAD_REACTORS
330
19
102
}
100
AcDbDictionary
281
               1
  3
Normal
350
1D
100
AcDbDictionaryWithDefault
340
1D
  0
ACDBPLACEHOLDER
  5
1D
102
{ACAD_REACTORS
330
1F
102
}
  0
LAYOUT
  5
20
102
{ACAD_REACTORS
330
1E
102
}
100
AcDbPlotSettings
  1

  2

  4

  6

 40
0.0
 41
0.0
 42
0.0
 43
0.0
 44
0.0
 45
0.0
 46
0.0
 47
0.0
 48
0.0
 49
0.0
140
0.0
141
0.0
142
1.0
143
1.0
 70
            1024
 72
               0
 73
               0
 74
               0
  7

 75
               0
147
1.0
148
0.0
149
0.0
100
AcDbLayout
  1
Model
 70
               0
 71
               0
 10
0.0
 20
0.0
 11
0.0
 21
0.0
 12
0.0
 22
0.0
 32
0.0
 14
0.0
 24
0.0
 34
0.0
 15
0.0
 25
0.0
 35
0.0
146
0.0
 13
0.0
 23
0.0
 33
0.0
 16
0.0
 26
0.0
 36
0.0
 17
0.0
 27
0.0
 37
0.0
 76
               0
330
A
331
0
345
0
346
0
  0
LAYOUT
  5
21
102
{ACAD_REACTORS
330
1E
102
}
100
AcDbPlotSettings
  1

  2

  4

  6

 40
0.0
 41
0.0
 42
0.0
 43
0.0
 44
0.0
 45
0.0
 46
0.0
 47
0.0
 48
0.0
 49
0.0
140
0.0
141
0.0
142
1.0
143
1.0
 70
               0
 72
               0
 73
               0
 74
               0
  7

 75
               0
147
1.0
148
0.0
149
0.0
100
AcDbLayout
  1
Layout1
 70
               0
 71
               0
 10
0.0
 20
0.0
 11
0.0
 21
0.0
 12
0.0
 22
0.0
 32
0.0
 14
0.0
 24
0.0
 34
0.0
 15
0.0
 25
0.0
 35
0.0
146
0.0
 13
0.0
 23
0.0
 33
0.0
 16
0.0
 26
0.0
 36
0.0
 17
0.0
 27
0.0
 37
0.0
 76
               0
330
B
331
0
345
0
346
0
  0
DICTIONARY
  5
1E
102
{ACAD_REACTORS
330
19
102
}
100
AcDbDictionary
280
               0
281
               1
  3
Layout1
350
21
  3
Model
350
20
  0
DICTIONARY
  5
22
102
{ACAD_REACTORS
330
19
102
}
100
AcDbDictionary
280
               0
281
               1
  0
ENDSEC
  0
EOF
