  0
SECTION
  2
HEADER
  9
$ACADVER
  1
AC1015
  9
$ACADMAINTVER
 70
               6
  9
$DWGCODEPAGE
  3
ANSI_932
  9
$INSBASE
 10
0.0
 20
0.0
 30
0.0
  9
$EXTMIN
 10
-1050.0
 20
-1485.0
 30
-14.834305555555556
  9
$EXTMAX
 10
1049.9999999999998
 20
1485.0
 30
14.834305555555556
  9
$LIMMIN
 10
0.0
 20
0.0
  9
$LIMMAX
 10
0.0
 20
0.0
  9
$ORTHOMODE
 70
               0
  9
$REGENMODE
 70
               1
  9
$FILLMODE
 70
               1
  9
$QTEXTMODE
 70
               0
  9
$MIRRTEXT
 70
               1
  9
$LTSCALE
 40
50.799999999999997
  9
$ATTMODE
 70
               1
  9
$TEXTSIZE
 40
0.2
  9
$TRACEWID
 40
1.0
  9
$TEXTSTYLE
  7
Standard
  9
$CLAYER
  8
notes
  9
$CELTYPE
  6
Continuous
  9
$CECOLOR
 62
             256
  9
$CELTSCALE
 40
1.0
  9
$DISPSILH
 70
               0
  9
$DIMSCALE
 40
1.0
  9
$DIMASZ
 40
31.75
  9
$DIMEXO
 40
0.0
  9
$DIMDLI
 40
6.9999999999999396
  9
$DIMRND
 40
0.0
  9
$DIMDLE
 40
0.0
  9
$DIMEXE
 40
19.999999999996199
  9
$DIMTP
 40
0.0
  9
$DIMTM
 40
0.0
  9
$DIMTXT
 40
24.432617187500004
  9
$DIMCEN
 40
0.0
  9
$DIMTSZ
 40
0.0
  9
$DIMTOL
 70
               0
  9
$DIMLIM
 70
               0
  9
$DIMTIH
 70
               0
  9
$DIMTOH
 70
               0
  9
$DIMSE1
 70
               0
  9
$DIMSE2
 70
               0
  9
$DIMTAD
 70
               1
  9
$DIMZIN
 70
              11
  9
$DIMBLK
  1
VW_FILLEDARROW
  9
$DIMASO
 70
               1
  9
$DIMSHO
 70
               1
  9
$DIMPOST
  1
<>
  9
$DIMAPOST
  1
[]
  9
$DIMALT
 70
               0
  9
$DIMALTD
 70
               1
  9
$DIMALTF
 40
1.0
  9
$DIMLFAC
 40
1.0
  9
$DIMTOFL
 70
               0
  9
$DIMTVP
 40
0.0
  9
$DIMTIX
 70
               1
  9
$DIMSOXD
 70
               0
  9
$DIMSAH
 70
               0
  9
$DIMBLK1
  1

  9
$DIMBLK2
  1

  9
$DIMSTYLE
  2
JIS
  9
$DIMCLRD
 70
               0
  9
$DIMCLRE
 70
               0
  9
$DIMCLRT
 70
               0
  9
$DIMTFAC
 40
1.0
  9
$DIMGAP
 40
1.00000000000108
  9
$DIMJUST
 70
               0
  9
$DIMSD1
 70
               0
  9
$DIMSD2
 70
               0
  9
$DIMTOLJ
 70
               1
  9
$DIMTZIN
 70
              11
  9
$DIMALTZ
 70
              11
  9
$DIMALTTZ
 70
              11
  9
$DIMUPT
 70
               0
  9
$DIMDEC
 70
               1
  9
$DIMTDEC
 70
               1
  9
$DIMALTU
 70
               2
  9
$DIMALTTD
 70
               2
  9
$DIMTXSTY
  7
ＭＳ ゴシック
  9
$DIMAUNIT
 70
               0
  9
$DIMADEC
 70
               2
  9
$DIMALTRND
 40
0.0
  9
$DIMAZIN
 70
               0
  9
$DIMDSEP
 70
              46
  9
$DIMATFIT
 70
               0
  9
$DIMFRAC
 70
               2
  9
$DIMLDRBLK
  1

  9
$DIMLUNIT
 70
               2
  9
$DIMLWD
 70
              -2
  9
$DIMLWE
 70
              -2
  9
$DIMTMOVE
 70
               0
  9
$LUNITS
 70
               2
  9
$LUPREC
 70
               4
  9
$SKETCHINC
 40
0.1
  9
$FILLETRAD
 40
0.0
  9
$AUNITS
 70
               0
  9
$AUPREC
 70
               0
  9
$MENU
  1
acad
  9
$ELEVATION
 40
0.0
  9
$PELEVATION
 40
0.0
  9
$THICKNESS
 40
0.0
  9
$LIMCHECK
 70
               0
  9
$CHAMFERA
 40
0.0
  9
$CHAMFERB
 40
0.0
  9
$CHAMFERC
 40
0.0
  9
$CHAMFERD
 40
0.0
  9
$SKPOLY
 70
               0
  9
$TDCREATE
 40
2456041.597210648
  9
$TDUCREATE
 40
0.000000000
  9
$TDUPDATE
 40
2456041.597210648
  9
$TDUUPDATE
 40
0.000000000
  9
$TDINDWG
 40
0.0000000000
  9
$TDUSRTIMER
 40
0.0000000000
  9
$USRTIMER
 70
               1
  9
$ANGBASE
 50
0.0
  9
$ANGDIR
 70
               0
  9
$PDMODE
 70
               1
  9
$PDSIZE
 40
-2.0
  9
$PLINEWID
 40
0.0
  9
$SPLFRAME
 70
               0
  9
$SPLINETYPE
 70
               6
  9
$SPLINESEGS
 70
               8
  9
$HANDSEED
  5
1D9
  9
$SURFTAB1
 70
               6
  9
$SURFTAB2
 70
               6
  9
$SURFTYPE
 70
               6
  9
$SURFU
 70
               6
  9
$SURFV
 70
               6
  9
$UCSBASE
  2

  9
$UCSNAME
  2

  9
$UCSORG
 10
0.0
 20
0.0
 30
0.0
  9
$UCSXDIR
 10
1.0
 20
0.0
 30
0.0
  9
$UCSYDIR
 10
0.0
 20
1.0
 30
0.0
  9
$UCSORTHOREF
  2

  9
$UCSORTHOVIEW
 70
               0
  9
$UCSORGTOP
 10
0.0
 20
0.0
 30
0.0
  9
$UCSORGBOTTOM
 10
0.0
 20
0.0
 30
0.0
  9
$UCSORGLEFT
 10
0.0
 20
0.0
 30
0.0
  9
$UCSORGRIGHT
 10
0.0
 20
0.0
 30
0.0
  9
$UCSORGFRONT
 10
0.0
 20
0.0
 30
0.0
  9
$UCSORGBACK
 10
0.0
 20
0.0
 30
0.0
  9
$PUCSBASE
  2

  9
$PUCSNAME
  2

  9
$PUCSORG
 10
0.0
 20
0.0
 30
0.0
  9
$PUCSXDIR
 10
1.0
 20
0.0
 30
0.0
  9
$PUCSYDIR
 10
0.0
 20
1.0
 30
0.0
  9
$PUCSORTHOREF
  2

  9
$PUCSORTHOVIEW
 70
               0
  9
$PUCSORGTOP
 10
0.0
 20
0.0
 30
0.0
  9
$PUCSORGBOTTOM
 10
0.0
 20
0.0
 30
0.0
  9
$PUCSORGLEFT
 10
0.0
 20
0.0
 30
0.0
  9
$PUCSORGRIGHT
 10
0.0
 20
0.0
 30
0.0
  9
$PUCSORGFRONT
 10
0.0
 20
0.0
 30
0.0
  9
$PUCSORGBACK
 10
0.0
 20
0.0
 30
0.0
  9
$USERI1
 70
               0
  9
$USERI2
 70
               0
  9
$USERI3
 70
               0
  9
$USERI4
 70
               0
  9
$USERI5
 70
               0
  9
$USERR1
 40
0.0
  9
$USERR2
 40
0.0
  9
$USERR3
 40
0.0
  9
$USERR4
 40
0.0
  9
$USERR5
 40
0.0
  9
$WORLDVIEW
 70
               1
  9
$SHADEDGE
 70
               3
  9
$SHADEDIF
 70
              70
  9
$TILEMODE
 70
               1
  9
$MAXACTVP
 70
              64
  9
$PINSBASE
 10
0.0
 20
0.0
 30
0.0
  9
$PLIMCHECK
 70
               0
  9
$PEXTMIN
 10
1.0000000000000000E+20
 20
1.0000000000000000E+20
 30
1.0000000000000000E+20
  9
$PEXTMAX
 10
-1.0000000000000000E+20
 20
-1.0000000000000000E+20
 30
-1.0000000000000000E+20
  9
$PLIMMIN
 10
0.0
 20
0.0
  9
$PLIMMAX
 10
12.0
 20
9.0
  9
$UNITMODE
 70
               0
  9
$VISRETAIN
 70
               0
  9
$PLINEGEN
 70
               1
  9
$PSLTSCALE
 70
               0
  9
$TREEDEPTH
 70
            3020
  9
$CMLSTYLE
  2
Standard
  9
$CMLJUST
 70
               0
  9
$CMLSCALE
 40
1.0
  9
$PROXYGRAPHICS
 70
               0
  9
$MEASUREMENT
 70
               1
  9
$CELWEIGHT
370
               0
  9
$ENDCAPS
280
               0
  9
$JOINSTYLE
280
               0
  9
$LWDISPLAY
290
               1
  9
$INSUNITS
 70
               4
  9
$HYPERLINKBASE
  1

  9
$STYLESHEET
  1

  9
$XEDIT
290
               1
  9
$CEPSNTYPE
380
               0
  9
$PSTYLEMODE
290
               1
  9
$FINGERPRINTGUID
  2

  9
$VERSIONGUID
  2

  9
$EXTNAMES
290
               1
  9
$PSVPSCALE
 40
0.0
  0
ENDSEC
  0
SECTION
  2
CLASSES
  0
CLASS
  1
LWPOLYLINE
  2
AcDbPolyline
  3
AutoCAD 2000
 90
        0
280
               0
281
               1
  0
CLASS
  1
IMAGE
  2
AcDbRasterImage
  3
ISM
 90
      127
280
               0
281
               1
  0
CLASS
  1
OLE2FRAME
  2
AcDbOle2Frame
  3
AutoCAD 2000
 90
        0
280
               0
281
               1
  0
CLASS
  1
HATCH
  2
AcDbHatch
  3
AutoCAD 2000
 90
        0
280
               0
281
               1
  0
CLASS
  1
DICTIONARYVAR
  2
AcDbDictionaryVar
  3
AutoCAD 2000
 90
        0
280
               0
281
               0
  0
CLASS
  1
RASTERVARIABLES
  2
AcDbRasterVariables
  3
ISM
 90
        0
280
               0
281
               0
  0
CLASS
  1
IMAGEDEF
  2
AcDbRasterImageDef
  3
ISM
 90
        0
280
               0
281
               0
  0
CLASS
  1
IMAGEDEF_REACTOR
  2
AcDbRasterImageDefReactor
  3
ISM
 90
        1
280
               0
281
               0
  0
CLASS
  1
IDBUFFER
  2
AcDbIdBuffer
  3
AutoCAD 2000
 90
        0
280
               0
281
               0
  0
CLASS
  1
SPATIAL_FILTER
  2
AcDbSpatialFilter
  3
AutoCAD 2000
 90
        0
280
               0
281
               0
  0
CLASS
  1
XRECORD
  2
AcDbXrecord
  3
AutoCAD 2000
 90
        0
280
               0
281
               0
  0
CLASS
  1
SORTENTSTABLE
  2
AcDbSortentsTable
  3
AutoCAD 2000
 90
        0
280
               0
281
               0
  0
CLASS
  1
LAYER_INDEX
  2
AcDbLayerIndex
  3
AutoCAD 2000
 90
        0
280
               0
281
               0
  0
CLASS
  1
SPATIAL_INDEX
  2
AcDbSpatialIndex
  3
AutoCAD 2000
 90
        0
280
               0
281
               0
  0
CLASS
  1
OBJECT_PTR
  2
CAseDLPNTableRecord
  3
"ASE-LPNTableRecord"
 90
        1
280
               0
281
               0
  0
CLASS
  1
LAYOUT
  2
AcDbLayout
  3
AutoCAD 2000
 90
        0
280
               0
281
               0
  0
CLASS
  1
PLOTSETTINGS
  2
AcDbPlotSettings
  3
AutoCAD 2000
 90
        0
280
               0
281
               0
  0
CLASS
  1
ACDBDICTIONARYWDFLT
  2
AcDbDictionaryWithDefault
  3
AutoCAD 2000
 90
        0
280
               0
281
               0
  0
CLASS
  1
ACDBPLACEHOLDER
  2
AcDbPlaceHolder
  3
AutoCAD 2000
 90
        0
280
               0
281
               0
  0
ENDSEC
  0
SECTION
  2
TABLES
  0
TABLE
  2
VPORT
  5
7
100
AcDbSymbolTable
 70
               1
  0
VPORT
  5
15
100
AcDbSymbolTableRecord
100
AcDbViewportTableRecord
  2
*ACTIVE
 70
               0
 10
0.0
 20
0.0
 11
1.0
 21
1.0
 12
0.0
 22
0.0
 13
0.0
 23
0.0
 14
1.0
 24
1.0
 15
0.0
 25
0.0
 16
0.0
 26
0.0
 36
1.0
 17
0.0
 27
0.0
 37
0.0
 40
2970.0
 41
0.688564
 42
50.0
 43
0.0
 44
0.0
 50
0.0
 51
0.0
 71
               0
 72
            2000
 73
               1
 74
               1
 75
               0
 76
               0
 77
               0
 78
               0
281
               0
 65
               0
110
0.0
120
0.0
130
0.0
111
1.0
121
0.0
131
0.0
112
0.0
122
1.0
132
0.0
345
0
346
0
 79
               0
146
0.0
  0
ENDTAB
  0
TABLE
  2
LTYPE
  5
4
100
AcDbSymbolTable
 70
              15
  0
LTYPE
  5
11
100
AcDbSymbolTableRecord
100
AcDbLinetypeTableRecord
  2
ByBlock
 70
              64
  3

 72
              65
 73
               0
 40
0.0
  0
LTYPE
  5
12
100
AcDbSymbolTableRecord
100
AcDbLinetypeTableRecord
  2
ByLayer
 70
              64
  3

 72
              65
 73
               0
 40
0.0
  0
LTYPE
  5
13
100
AcDbSymbolTableRecord
100
AcDbLinetypeTableRecord
  2
Continuous
 70
              64
  3
Solid line
 72
              65
 73
               0
 40
0.0
  0
LTYPE
  5
37
100
AcDbSymbolTableRecord
100
AcDbLinetypeTableRecord
  2
STYLE_01
 70
               0
  3

 72
              65
 73
               2
 40
0.375
 49
0.25
 74
               0
 49
-0.125
 74
               0
  0
LTYPE
  5
38
100
AcDbSymbolTableRecord
100
AcDbLinetypeTableRecord
  2
STYLE_02
 70
               0
  3

 72
              65
 73
               4
 40
0.3937007874015748
 49
0.1968503937007874
 74
               0
 49
-0.0984251968503937
 74
               0
 49
0.0005
 74
               0
 49
-0.0979251968503937
 74
               0
  0
LTYPE
  5
39
100
AcDbSymbolTableRecord
100
AcDbLinetypeTableRecord
  2
STYLE_03
 70
               0
  3

 72
              65
 73
               2
 40
1.25
 49
1.0416400000000001
 74
               0
 49
-0.2083599999999999
 74
               0
  0
LTYPE
  5
3A
100
AcDbSymbolTableRecord
100
AcDbLinetypeTableRecord
  2
STYLE_04
 70
               0
  3

 72
              65
 73
               2
 40
1.5277099999999999
 49
1.3194249999999998
 74
               0
 49
-0.208285
 74
               0
  0
LTYPE
  5
3B
100
AcDbSymbolTableRecord
100
AcDbLinetypeTableRecord
  2
STYLE_05
 70
               0
  3

 72
              65
 73
               2
 40
0.20828
 49
0.069425
 74
               0
 49
-0.138855
 74
               0
  0
LTYPE
  5
3C
100
AcDbSymbolTableRecord
100
AcDbLinetypeTableRecord
  2
STYLE_06
 70
               0
  3

 72
              65
 73
               4
 40
1.0416400000000001
 49
0.625
 74
               0
 49
-0.20828
 74
               0
 49
0.06943
 74
               0
 49
-0.13893
 74
               0
  0
LTYPE
  5
3D
100
AcDbSymbolTableRecord
100
AcDbLinetypeTableRecord
  2
STYLE_07
 70
               0
  3

 72
              65
 73
               6
 40
1.875
 49
0.625
 74
               0
 49
-0.20828
 74
               0
 49
0.6250000000000001
 74
               0
 49
-0.2083599999999999
 74
               0
 49
0.06943
 74
               0
 49
-0.1389299999999999
 74
               0
  0
LTYPE
  5
3E
100
AcDbSymbolTableRecord
100
AcDbLinetypeTableRecord
  2
STYLE_08
 70
               0
  3

 72
              65
 73
               6
 40
1.25
 49
0.625
 74
               0
 49
-0.20828
 74
               0
 49
0.06943
 74
               0
 49
-0.13893
 74
               0
 49
0.0694299999999999
 74
               0
 49
-0.13893
 74
               0
  0
LTYPE
  5
3F
100
AcDbSymbolTableRecord
100
AcDbLinetypeTableRecord
  2
STYLE_09
 70
               0
  3

 72
              65
 73
               4
 40
5.0
 49
3.75
 74
               0
 49
-0.2777849999999998
 74
               0
 49
0.6944300000000003
 74
               0
 49
-0.2777849999999998
 74
               0
  0
LTYPE
  5
40
100
AcDbSymbolTableRecord
100
AcDbLinetypeTableRecord
  2
STYLE_10
 70
               0
  3

 72
              65
 73
               6
 40
5.9375
 49
3.75
 74
               0
 49
-0.2777849999999998
 74
               0
 49
0.6944300000000003
 74
               0
 49
-0.2777849999999998
 74
               0
 49
0.625
 74
               0
 49
-0.3125
 74
               0
  0
LTYPE
  5
41
100
AcDbSymbolTableRecord
100
AcDbLinetypeTableRecord
  2
STYLE_11
 70
               0
  3

 72
              65
 73
               2
 40
0.0694444881889764
 49
0.0347222440944882
 74
               0
 49
-0.0347222440944882
 74
               0
  0
LTYPE
  5
42
100
AcDbSymbolTableRecord
100
AcDbLinetypeTableRecord
  2
STYLE_12
 70
               0
  3

 72
              65
 73
               2
 40
0.3937007874015748
 49
0.1968503937007874
 74
               0
 49
-0.1968503937007874
 74
               0
  0
ENDTAB
  0
TABLE
  2
LAYER
  5
2
100
AcDbSymbolTable
 70
               5
  0
LAYER
  5
14
100
AcDbSymbolTableRecord
100
AcDbLayerTableRecord
  2
0
 70
               0
 62
               7
  6
Continuous
290
               1
370
              -3
390
1D
  0
LAYER
  5
43
100
AcDbSymbolTableRecord
100
AcDbLayerTableRecord
  2
Defpoints
 70
               0
 62
               7
  6
Continuous
290
               0
370
              -3
390
1D
  0
LAYER
  5
44
100
AcDbSymbolTableRecord
100
AcDbLayerTableRecord
  2
template
 70
               0
 62
               7
  6
Continuous
290
               1
370
              -3
390
1D
  0
LAYER
  5
45
100
AcDbSymbolTableRecord
100
AcDbLayerTableRecord
  2
notes
 70
               0
 62
               7
  6
Continuous
290
               1
370
              -3
390
1D
  0
LAYER
  5
46
100
AcDbSymbolTableRecord
100
AcDbLayerTableRecord
  2
ADF70-1208
 70
               0
 62
               7
  6
Continuous
290
               1
370
              -3
390
1D
  0
ENDTAB
  0
TABLE
  2
STYLE
  5
3
100
AcDbSymbolTable
 70
               2
  0
STYLE
  5
17
100
AcDbSymbolTableRecord
100
AcDbTextStyleTableRecord
  2
Standard
 70
               0
 40
0.0
 41
1.0
 50
0.0
 71
               0
 42
0.0
  3
txt
  4
BIGFONT.SHX
  0
STYLE
  5
36
100
AcDbSymbolTableRecord
100
AcDbTextStyleTableRecord
  2
ＭＳ ゴシック
 70
               0
 40
0.0
 41
1.0
 50
0.0
 71
               0
 42
0.0
  3

  4
ＭＳ ゴシック
1001
ACAD
1000
ＭＳ ゴシック
1071
        0
  0
ENDTAB
  0
TABLE
  2
VIEW
  5
5
100
AcDbSymbolTable
 70
               0
  0
ENDTAB
  0
TABLE
  2
UCS
  5
6
100
AcDbSymbolTable
 70
               0
  0
ENDTAB
  0
TABLE
  2
APPID
  5
8
100
AcDbSymbolTable
 70
               1
  0
APPID
  5
16
100
AcDbSymbolTableRecord
100
AcDbRegAppTableRecord
  2
ACAD
 70
               0
  0
ENDTAB
  0
TABLE
  2
DIMSTYLE
  5
9
100
AcDbSymbolTable
 70
               3
100
AcDbDimStyleTable
 71
               0
  0
DIMSTYLE
105
18
100
AcDbSymbolTableRecord
100
AcDbDimStyleTableRecord
  2
Standard
 70
               0
  3

  4

 40
1.0
 41
0.18
 42
0.0625
 43
0.38
 44
0.18
 45
0.0
 46
0.0
 47
0.0
 48
0.0
 71
               0
 72
               0
 73
               1
 74
               1
 75
               0
 76
               0
 77
               0
 78
               0
 79
               0
140
0.18
141
0.09
142
0.0
143
25.399999999999999
144
1.0
145
0.0
146
1.0
147
0.09
148
0.0
170
               0
171
               2
172
               0
173
               0
174
               0
175
               0
176
               0
177
               0
178
               0
179
               0
271
               4
272
               4
273
               2
274
               2
275
               0
276
               0
277
               2
278
              46
279
               0
280
               0
281
               0
282
               0
283
               1
284
               0
285
               0
286
               0
288
               0
289
               3
340
17
341
0
342
0
343
0
344
0
371
              -2
372
              -2
  0
DIMSTYLE
105
4F
100
AcDbSymbolTableRecord
100
AcDbDimStyleTableRecord
  2
tform線あり
 70
               0
  3
<>
  4
[]
 40
1.0
 41
9.9993896484374982
 42
24.999999999999996
 43
0.9999999999999999
 44
0.0
 45
0.0
 46
0.0
 47
0.0
 48
0.0
 71
               0
 72
               0
 73
               0
 74
               0
 75
               0
 76
               0
 77
               1
 78
              11
 79
               0
140
24.432617187500004
141
0.0
142
0.0
143
1.0
144
1.0
145
0.0
146
1.0
147
0.4999999999999999
148
0.0
170
               0
171
               1
172
               0
173
               0
174
               1
175
               0
176
               0
177
               0
178
               0
179
               2
271
               1
272
               1
273
               2
274
               2
275
               0
276
               2
277
               2
278
              46
279
               0
280
               0
281
               0
282
               0
283
               1
284
              11
285
              11
286
              11
288
               0
289
               0
340
36
341
47
342
47
343
0
344
0
371
              -2
372
              -2
  0
DIMSTYLE
105
54
100
AcDbSymbolTableRecord
100
AcDbDimStyleTableRecord
  2
JIS
 70
               0
  3
<>
  4
[]
 40
1.0
 41
31.75
 42
0.0
 43
6.9999999999999396
 44
19.999999999996199
 45
0.0
 46
0.0
 47
0.0
 48
0.0
 71
               0
 72
               0
 73
               0
 74
               0
 75
               0
 76
               0
 77
               1
 78
              11
 79
               0
140
24.432617187500004
141
0.0
142
0.0
143
1.0
144
1.0
145
0.0
146
1.0
147
1.00000000000108
148
0.0
170
               0
171
               1
172
               0
173
               0
174
               1
175
               0
176
               0
177
               0
178
               0
179
               2
271
               1
272
               1
273
               2
274
               2
275
               0
276
               2
277
               2
278
              46
279
               0
280
               0
281
               0
282
               0
283
               1
284
              11
285
              11
286
              11
288
               0
289
               0
340
36
341
50
342
50
343
0
344
0
371
              -2
372
              -2
  0
ENDTAB
  0
TABLE
  2
BLOCK_RECORD
  5
1
100
AcDbSymbolTable
 70
              21
  0
BLOCK_RECORD
  5
A
100
AcDbSymbolTableRecord
100
AcDbBlockTableRecord
  2
*MODEL_SPACE
340
20
  0
BLOCK_RECORD
  5
B
100
AcDbSymbolTableRecord
100
AcDbBlockTableRecord
  2
*PAPER_SPACE
340
21
  0
BLOCK_RECORD
  5
47
100
AcDbSymbolTableRecord
100
AcDbBlockTableRecord
  2
_DOT
340
0
  0
BLOCK_RECORD
  5
50
100
AcDbSymbolTableRecord
100
AcDbBlockTableRecord
  2
VW_FILLEDARROW
340
0
  0
BLOCK_RECORD
  5
23
100
AcDbSymbolTableRecord
100
AcDbBlockTableRecord
  2
グループ
340
0
102
{BLKREFS
331
152
102
}
  0
BLOCK_RECORD
  5
24
100
AcDbSymbolTableRecord
100
AcDbBlockTableRecord
  2
*D3
340
0
  0
BLOCK_RECORD
  5
25
100
AcDbSymbolTableRecord
100
AcDbBlockTableRecord
  2
*D4
340
0
  0
BLOCK_RECORD
  5
26
100
AcDbSymbolTableRecord
100
AcDbBlockTableRecord
  2
*D5
340
0
  0
BLOCK_RECORD
  5
27
100
AcDbSymbolTableRecord
100
AcDbBlockTableRecord
  2
*D6
340
0
  0
BLOCK_RECORD
  5
28
100
AcDbSymbolTableRecord
100
AcDbBlockTableRecord
  2
*D7
340
0
  0
BLOCK_RECORD
  5
29
100
AcDbSymbolTableRecord
100
AcDbBlockTableRecord
  2
*D8
340
0
  0
BLOCK_RECORD
  5
2A
100
AcDbSymbolTableRecord
100
AcDbBlockTableRecord
  2
*D9
340
0
  0
BLOCK_RECORD
  5
2B
100
AcDbSymbolTableRecord
100
AcDbBlockTableRecord
  2
*D10
340
0
  0
BLOCK_RECORD
  5
2C
100
AcDbSymbolTableRecord
100
AcDbBlockTableRecord
  2
*D11
340
0
  0
BLOCK_RECORD
  5
2D
100
AcDbSymbolTableRecord
100
AcDbBlockTableRecord
  2
*D12
340
0
  0
BLOCK_RECORD
  5
2E
100
AcDbSymbolTableRecord
100
AcDbBlockTableRecord
  2
*D13
340
0
  0
BLOCK_RECORD
  5
2F
100
AcDbSymbolTableRecord
100
AcDbBlockTableRecord
  2
*D14
340
0
  0
BLOCK_RECORD
  5
30
100
AcDbSymbolTableRecord
100
AcDbBlockTableRecord
  2
*D15
340
0
  0
BLOCK_RECORD
  5
31
100
AcDbSymbolTableRecord
100
AcDbBlockTableRecord
  2
*D16
340
0
  0
BLOCK_RECORD
  5
32
100
AcDbSymbolTableRecord
100
AcDbBlockTableRecord
  2
*D17
340
0
  0
BLOCK_RECORD
  5
33
100
AcDbSymbolTableRecord
100
AcDbBlockTableRecord
  2
*D18
340
0
  0
BLOCK_RECORD
  5
34
100
AcDbSymbolTableRecord
100
AcDbBlockTableRecord
  2
*D19
340
0
  0
BLOCK_RECORD
  5
35
100
AcDbSymbolTableRecord
100
AcDbBlockTableRecord
  2
*D20
340
0
  0
ENDTAB
  0
ENDSEC
  0
SECTION
  2
BLOCKS
  0
BLOCK
  5
D
100
AcDbEntity
  8
0
390
0
100
AcDbBlockBegin
  2
*MODEL_SPACE
 70
               0
 10
0.0
 20
0.0
 30
0.0
  3
*MODEL_SPACE
  1

  0
ENDBLK
  5
E
100
AcDbEntity
  8
0
390
0
100
AcDbBlockEnd
  0
BLOCK
  5
F
100
AcDbEntity
 67
               1
  8
0
390
0
100
AcDbBlockBegin
  2
*PAPER_SPACE
 70
               0
 10
0.0
 20
0.0
 30
0.0
  3
*PAPER_SPACE
  1

  0
ENDBLK
  5
10
100
AcDbEntity
 67
               1
  8
0
390
0
100
AcDbBlockEnd
  0
BLOCK
  5
48
100
AcDbEntity
  8
0
390
0
100
AcDbBlockBegin
  2
_DOT
 70
               0
 10
0.0
 20
0.0
 30
0.0
  3
_DOT
  1

  0
POLYLINE
  5
49
100
AcDbEntity
  8
0
370
              -2
390
0
  6
ByBlock
 62
               0
100
AcDb2dPolyline
 66
               1
 10
0.0
 20
0.0
 30
0.0
 70
               1
 40
0.5
 41
0.5
  0
VERTEX
  5
4A
100
AcDbEntity
  8
0
370
              -2
390
0
  6
ByBlock
 62
               0
100
AcDbVertex
100
AcDb2dVertex
 10
-0.25
 20
0.0
 30
0.0
 42
1.0
  0
VERTEX
  5
4B
100
AcDbEntity
  8
0
370
              -2
390
0
  6
ByBlock
 62
               0
100
AcDbVertex
100
AcDb2dVertex
 10
0.25
 20
0.0
 30
0.0
 42
1.0
  0
SEQEND
  5
4C
100
AcDbEntity
  8
0
390
0
  0
LINE
  5
4D
100
AcDbEntity
  8
0
370
              -2
390
0
  6
ByBlock
 62
               0
100
AcDbLine
 10
-0.5
 20
0.0
 30
0.0
 11
-1.0
 21
0.0
 31
0.0
  0
ENDBLK
  5
4E
100
AcDbEntity
  8
0
390
0
100
AcDbBlockEnd
  0
BLOCK
  5
51
100
AcDbEntity
  8
0
370
              -2
390
0
  6
ByBlock
 62
               0
100
AcDbBlockBegin
  2
VW_FILLEDARROW
 70
               0
 10
0.0
 20
0.0
 30
0.0
  3
VW_FILLEDARROW
  1

  0
SOLID
  5
52
100
AcDbEntity
  8
0
370
              -2
390
0
 62
               0
100
AcDbTrace
 10
0.0
 20
0.0
 30
0.0
 11
-0.9921874999999999
 21
-0.2658558393652545
 31
0.0
 12
-0.9921874999999999
 22
0.2658558393652548
 32
0.0
 13
-0.9921874999999999
 23
0.2658558393652548
 33
0.0
  0
ENDBLK
  5
53
100
AcDbEntity
  8
0
390
0
100
AcDbBlockEnd
  0
BLOCK
  5
55
100
AcDbEntity
  8
template
390
0
100
AcDbBlockBegin
  2
グループ
 70
               0
 10
0.0
 20
0.0
 30
0.0
  3
グループ
  1

  0
LWPOLYLINE
  5
56
100
AcDbEntity
  8
0
370
              15
390
0
  6
Continuous
 62
               7
100
AcDbPolyline
 90
        8
 70
             129
 10
-953.07175903892903
 20
-735.02246719241157
 10
-953.07175903892903
 20
-741.01985588598745
 10
-962.57295595693233
 20
-741.01985588598745
 10
-962.57295595693233
 20
-765.47081914949626
 10
-970.92833321871512
 20
-765.47081914949626
 10
-970.92833321871512
 20
-741.01985588598745
 10
-980.26129016502455
 20
-741.01985588598745
 10
-980.26129016502455
 20
-735.02246719241157
  0
LWPOLYLINE
  5
57
100
AcDbEntity
  8
0
370
              15
390
0
  6
Continuous
 62
               7
100
AcDbPolyline
 90
      101
 70
             128
 10
-940.34346720837209
 20
-735.75071568534804
 10
-940.32811717958816
 20
-735.74635492866321
 42
-0.0222221607813732
 10
-940.03811260291604
 20
-735.67773046341836
 10
-940.02231883892409
 20
-735.67472704032173
 42
-0.0146883565588258
 10
-939.75961613369827
 20
-735.632723853372
 42
-0.0127458844184225
 10
-939.49497716654253
 20
-735.6051868852993
 10
-939.43252208823242
 20
-735.60029346271131
 42
-0.0198099018566925
 10
-939.04167297876097
 20
-735.58520830531461
 10
-938.98986150931182
 20
-735.58526208097976
 42
-0.0147617382762508
 10
-938.49523804833495
 20
-735.60038210622486
 10
-938.42254659346406
 20
-735.60475471311224
 42
-0.0162624549003738
 10
-938.03239296399806
 20
-735.64098758838463
 10
-937.91086057273253
 20
-735.65627414738196
 42
-0.0080020874662147
 10
-937.76528154164725
 20
-735.67695699464957
 10
-937.7269620710548
 20
-735.68302827246021
 42
-0.0053821929672696
 10
-937.65847796573746
 20
-735.69463579628223
 10
-938.38488366493607
 20
-737.87556425199614
 42
0.0108667757393986
 10
-938.45220073506528
 20
-737.86237713677656
 10
-938.48966875825636
 20
-737.85587939418178
 42
0.0170663203305875
 10
-938.63288554517101
 20
-737.83604979689005
 10
-938.70076087785492
 20
-737.82900262630255
 42
0.022016237527582
 10
-938.98114028571047
 20
-737.81232026553243
 10
-939.05899585276097
 20
-737.81112089826593
 42
0.0282606915784373
 10
-939.39463217634022
 20
-737.82492417523497
 10
-939.43854545011357
 20
-737.82922416523877
 42
0.0169677213688483
 10
-939.68446994507144
 20
-737.86176121479059
 42
0.0190576269867449
 10
-939.92737790765318
 20
-737.91190808689737
 10
-939.93363709576238
 20
-737.9134510610063
 42
0.0213685642845979
 10
-940.18402158024094
 20
-737.98665134611133
 10
-940.18951147515634
 20
-737.98851434217011
 42
0.023759529759496
 10
-940.44300636005528
 20
-738.08819886406582
 10
-940.4481084340847
 20
-738.09049063954387
 42
0.026185746881582
 10
-940.70027921031487
 20
-738.22002697691846
 10
-940.71070539940149
 20
-738.22609245138665
 42
0.0272553062020013
 10
-940.94713517464015
 20
-738.38146465733109
 10
-940.98189818814922
 20
-738.40712580542299
 42
0.0325996893172506
 10
-941.13205353180115
 20
-738.53387367839468
 10
-941.15576296092513
 20
-738.5566917069084
 42
0.0138050960637741
 10
-941.24764611713431
 20
-738.65014136845923
 42
0.0125280103802233
 10
-941.3344886499666
 20
-738.74830469505775
 10
-941.35816909487619
 20
-738.77646319324663
 42
0.0205218024736523
 10
-941.48326917039003
 20
-738.9382565074759
 10
-941.505735510877
 20
-738.96991623730264
 42
0.0163110129583455
 10
-941.6614458901289
 20
-739.20524667237351
 10
-941.66416978617929
 20
-739.20967043435803
 42
0.0131897341897314
 10
-941.81097030708372
 20
-739.46280252671988
 10
-941.81267040245166
 20
-739.46592076585819
 42
0.0107895576062348
 10
-941.95044710466152
 20
-739.73213597549147
 10
-941.95117999418744
 20
-739.73363020813986
 42
0.0091371507217424
 10
-942.07965994283643
 20
-740.00815540589804
 10
-942.10940557424624
 20
-740.07486191305827
 42
0.0135418326349893
 10
-942.28111951331698
 20
-740.48979969832465
 10
-942.31472432174928
 20
-740.57766584060084
 42
0.0092834542410744
 10
-942.48595338167297
 20
-741.05156433891364
 10
-942.51157050938821
 20
-741.12680540869985
 42
0.0054261043581108
 10
-942.61920865768366
 20
-741.4545693817721
 10
-942.636734643914
 20
-741.50995754416977
 42
0.0008225090824692
 10
-942.70540469569107
 20
-741.72822630215137
 10
-943.69009382762454
 20
-744.75311759540796
 10
-940.45746998755067
 20
-744.75311759540796
 10
-940.96166241740411
 20
-746.65759589376034
 10
-944.21771869938743
 20
-746.65759589376034
 10
-950.04686773174126
 20
-765.47081895976521
 10
-951.87196534205157
 20
-765.47081895976521
 10
-946.03728730655064
 20
-746.65759589376034
 10
-948.44240367559098
 20
-746.65759589376034
 10
-947.93821124573753
 20
-744.75311759540796
 10
-945.50966243478751
 20
-744.75311759540796
 10
-944.64950751659887
 20
-742.11670459470906
 42
-0.0005863560639375
 10
-944.61277283839615
 20
-741.99987817441979
 10
-944.53668500473498
 20
-741.75888587503186
 42
-0.0087522378928961
 10
-944.33721686128013
 20
-741.16360978789123
 10
-944.24495258586353
 20
-740.90346961936916
 42
-0.0077400953830195
 10
-943.98701892673353
 20
-740.21046494182417
 10
-943.97125395515047
 20
-740.1700340584274
 42
-0.008236994632906
 10
-943.7241694845427
 20
-739.56595499224238
 42
-0.0085725238364731
 10
-943.45692338854019
 20
-738.9705289529561
 10
-943.35529378753154
 20
-738.75410785096847
 42
-0.0168109410596168
 10
-943.06834935880238
 20
-738.19290032486583
 10
-942.94250596836787
 20
-737.96593629191239
 42
-0.0007817726871252
 10
-942.88822161828671
 20
-737.86839204683736
 10
-942.88809331227139
 20
-737.86816233810453
 42
-0.0036626142160477
 10
-942.83320544824824
 20
-737.77156445813239
 42
-0.0080221150678286
 10
-942.77608119284332
 20
-737.67628522338248
 10
-942.74538124148035
 20
-737.62689427425732
 42
-0.0202139325571522
 10
-942.61772550167416
 20
-737.43891267357651
 10
-942.563658036486
 20
-737.36583380933507
 42
-0.024932379179927
 10
-942.30449524276628
 20
-737.04978856718014
 10
-942.28035542863984
 20
-737.02317429426819
 42
-0.0242132121539573
 10
-941.94067468709829
 20
-736.68329080806473
 10
-941.89276311434742
 20
-736.63978167187827
 42
-0.0251017527858585
 10
-941.60878141370654
 20
-736.40678892611334
 10
-941.60733593689235
 20
-736.40571966853406
 42
-0.0130868069036761
 10
-941.30907528693547
 20
-736.1969391999919
 10
-941.30751346779311
 20
-736.19590575971711
 42
-0.0290329526389439
 10
-940.99640232639945
 20
-736.01508025808755
 10
-940.96655676441071
 20
-735.9999778752466
 42
-0.0160250190047281
 10
-940.70065235064862
 20
-735.87596176503473
 42
-0.0267600374782057
 10
-940.4253762731804
 20
-735.77521344448621
 10
-940.39864035365906
 20
-735.76702088566049
 42
-0.0049981587669928
 10
-940.34346720837209
 20
-735.75071568534804
 42
-0.0049981587669928
  0
LWPOLYLINE
  5
58
100
AcDbEntity
  8
0
370
              15
390
0
  6
Continuous
 62
               7
100
AcDbPolyline
 90
      118
 70
             128
 10
-920.52909964392518
 20
-744.82710092323532
 10
-918.65397771942571
 20
-744.82710092323532
 10
-919.4920166250256
 20
-747.50866744963537
 42
-0.0010587229232264
 10
-919.46056080944538
 20
-747.47176291627022
 10
-919.40236671882167
 20
-747.4037806601043
 42
-0.007187474040983
 10
-919.25199150072785
 20
-747.23313996807985
 10
-919.1102687274614
 20
-747.07690382676208
 42
-0.0148118053512733
 10
-918.66013943474866
 20
-746.60928998074905
 10
-918.57291709984918
 20
-746.5238926598978
 42
-0.0086273358693876
 10
-918.23736829883842
 20
-746.20651702587907
 10
-918.19353458261492
 20
-746.16646738154816
 42
-0.0103138323114353
 10
-917.93551088037907
 20
-745.94030424420771
 10
-917.88973647405226
 20
-745.90182219694782
 42
-0.0060206748568273
 10
-917.71688840993977
 20
-745.7600275461931
 10
-917.71485727905144
 20
-745.75840184055994
 42
-0.0067069027293686
 10
-917.54256446439126
 20
-745.62425120676687
 10
-917.54001569846071
 20
-745.62232103688814
 42
-0.0076184352047621
 10
-917.36911043259397
 20
-745.49694616164777
 42
-0.0089652861670983
 10
-917.19414946985773
 20
-745.37731290131399
 10
-917.15779774971611
 20
-745.3534016878333
 42
-0.0156916245939762
 10
-916.96183825255434
 20
-745.23313920135786
 42
-0.0023299011066209
 10
-916.76157620859806
 20
-745.1199612618301
 10
-916.74619207619469
 20
-745.11136126675228
 42
-0.0107669341485394
 10
-916.51195525109313
 20
-744.98696113340259
 10
-916.48969045001854
 20
-744.97574438345282
 42
-0.0078058045895294
 10
-916.20610033206492
 20
-744.83838292781388
 10
-916.19619324435666
 20
-744.8337737999459
 42
-0.0181829330471349
 10
-915.88588383974081
 20
-744.70291005885019
 10
-915.8318283971754
 20
-744.68239493890724
 42
-0.0208411536031489
 10
-915.482743429724
 20
-744.56630447641362
 10
-915.46838732959668
 20
-744.56218603146021
 42
-0.0222799817138721
 10
-915.13966753567934
 20
-744.48354446531982
 10
-915.13077857244116
 20
-744.48183245473456
 42
-0.0215509523883174
 10
-914.81430760416242
 20
-744.43491676620044
 10
-914.77182564311238
 20
-744.43047923940946
 42
-0.0182545924870975
 10
-914.53771686380833
 20
-744.41463541401868
 10
-914.49831584746539
 20
-744.41341086893965
 42
-0.0072962856536369
 10
-914.34239296777127
 20
-744.41084154041732
 10
-914.31329329719915
 20
-744.41078670501361
 42
-0.0059227516314738
 10
-914.21554379805434
 20
-744.41176041680399
 10
-914.18630158057624
 20
-744.41239818340739
 42
-0.001183311190244
 10
-914.14705029685001
 20
-744.41334718771736
 10
-914.94243689245718
 20
-746.95208113281637
 42
0.0143932051579186
 10
-914.96883827481031
 20
-746.94188216277018
 10
-914.97611024722505
 20
-746.93931094391371
 42
0.0234388603518194
 10
-915.01794111315883
 20
-746.92669170819806
 10
-915.02662277606987
 20
-746.92451074619339
 42
0.0199162742983243
 10
-915.08691161015031
 20
-746.91189401085819
 10
-915.10772554795608
 20
-746.90839681142984
 42
0.0293643550671679
 10
-915.21080040671586
 20
-746.89724676577669
 10
-915.23548558743551
 20
-746.89603514875807
 42
0.0214606686869936
 10
-915.3886265033891
 20
-746.89509658834072
 10
-915.39799841420597
 20
-746.8954414998849
 42
0.0167564054181078
 10
-915.56951860531547
 20
-746.907518542253
 10
-915.57797839807336
 20
-746.9083998826801
 42
0.0137677553241421
 10
-915.76533171133678
 20
-746.93314919122327
 10
-915.77268345084599
 20
-746.93432711119158
 42
0.0118497261481797
 10
-915.9731812149455
 20
-746.97134446138023
 10
-915.97933122219456
 20
-746.9726313241008
 42
0.010642114388977
 10
-916.19021210948267
 20
-747.02146369967636
 10
-916.19512091786862
 20
-747.0227110423607
 42
0.0099746379703141
 10
-916.41357938702993
 20
-747.0828855706751
 10
-916.47512742720141
 20
-747.1011674493061
 42
0.0191613675860726
 10
-916.81111188971784
 20
-747.21514482959344
 10
-916.89917166246312
 20
-747.24883173991748
 42
0.0205274080145107
 10
-917.28447843436311
 20
-747.41466014774369
 10
-917.34212771634361
 20
-747.44232811231529
 42
0.0181256912193216
 10
-917.60040465701206
 20
-747.57801193129387
 10
-917.65336004032633
 20
-747.60832954450882
 42
0.014070924241113
 10
-917.79831497495434
 20
-747.696824217943
 10
-917.8245638435717
 20
-747.71388103665765
 42
0.0086667884398502
 10
-917.91349000511536
 20
-747.77388370454128
 42
0.0036408192025706
 10
-918.00092324315267
 20
-747.83606456233645
 10
-918.03615011761735
 20
-747.86150550824641
 42
0.0052260781278894
 10
-918.19237881501363
 20
-747.97683789488451
 10
-918.20858567126811
 20
-747.98906600549878
 42
0.0050024435893419
 10
-918.39458901432135
 20
-748.13234857375664
 10
-918.40990717084208
 20
-748.14439459620678
 42
0.0136138710281387
 10
-918.62034843916842
 20
-748.3193611011211
 10
-918.65401631496093
 20
-748.34894007383434
 42
0.0172815186916028
 10
-918.9184198566229
 20
-748.59793674645721
 10
-918.92098220246612
 20
-748.60052256360484
 42
0.0189403857989738
 10
-919.17156400104261
 20
-748.8733278284061
 10
-919.20419549458245
 20
-748.91167175990779
 42
0.0185044199506357
 10
-919.39615193356121
 20
-749.1549203410292
 42
0.0088565243900205
 10
-919.57461204018807
 20
-749.40843676117709
 10
-919.58379001983815
 20
-749.42197814093925
 42
0.0157195347230781
 10
-919.76701062617383
 20
-749.71150035025767
 10
-919.81309356810016
 20
-749.78965254727063
 42
0.0095451879779866
 10
-919.97817911824075
 20
-750.08224718963231
 10
-919.98932703717082
 20
-750.10291786176504
 42
0.0100351706256454
 10
-920.12137078632963
 20
-750.35997342225505
 42
0.0086935915423193
 10
-920.24370193812319
 20
-750.62180656765838
 10
-920.24702267953819
 20
-750.62924889063129
 42
0.007258017486513
 10
-920.36736913148184
 20
-750.90984088221114
 10
-920.37063076478944
 20
-750.91776090823225
 42
0.0060005122615698
 10
-920.48983143313353
 20
-751.21737057884116
 10
-920.49304241147377
 20
-751.22573210674216
 42
0.0049017786981772
 10
-920.6119425703348
 20
-751.54466108735642
 10
-920.61510837672165
 20
-751.55341402457691
 42
0.0039415167602987
 10
-920.7345446547763
 20
-751.89195608698424
 10
-920.73767575743045
 20
-751.90105928786625
 42
0.0031035838764047
 10
-920.85848054311896
 20
-752.25949914962587
 10
-920.86159058765395
 20
-752.26891977101457
 42
0.0025070747153483
 10
-920.98449193896863
 20
-752.64756698795645
 10
-921.02178583539467
 20
-752.76445865321148
 42
0.0029081910285002
 10
-921.21380413320765
 20
-753.37862231150996
 10
-921.25460730172256
 20
-753.51184555377904
 42
0.0009266453734287
 10
-921.52302467604591
 20
-754.39407001373138
 10
-921.54391214871009
 20
-754.46318189304509
 42
-0.0005809993664039
 10
-921.82124882926905
 20
-755.3769899995774
 10
-921.88753062754449
 20
-755.59447493174514
 42
-0.0012018708168667
 10
-922.03451493697116
 20
-756.07263759625778
 10
-922.08683478850185
 20
-756.24139673701097
 42
-0.0002691059608971
 10
-922.13040426970531
 20
-756.38166435746552
 10
-924.96336016799455
 20
-765.47081895976521
 10
-926.78134905997308
 20
-765.47081895976521
 10
-920.52909964392518
 20
-744.82710092323532
  0
SPLINE
  5
59
100
AcDbEntity
  8
0
370
              15
390
0
  6
Continuous
 62
               7
100
AcDbSpline
210
0.0
220
0.0
230
1.0
 70
              13
 71
               2
 72
             782
 73
             779
 74
               0
 42
0.000001
 43
0.000001
 40
0.0
 40
0.0
 40
0.0
 40
1.0
 40
1.0
 40
2.0
 40
2.0
 40
3.0
 40
3.0
 40
4.0
 40
4.0
 40
5.0
 40
5.0
 40
6.0
 40
6.0
 40
7.0
 40
7.0
 40
8.0
 40
8.0
 40
9.0
 40
9.0
 40
10.0
 40
10.0
 40
11.0
 40
11.0
 40
12.0
 40
12.0
 40
13.0
 40
13.0
 40
14.0
 40
14.0
 40
15.0
 40
15.0
 40
16.0
 40
16.0
 40
17.0
 40
17.0
 40
18.0
 40
18.0
 40
19.0
 40
19.0
 40
20.0
 40
20.0
 40
21.0
 40
21.0
 40
22.0
 40
22.0
 40
23.0
 40
23.0
 40
24.0
 40
24.0
 40
25.0
 40
25.0
 40
26.0
 40
26.0
 40
27.0
 40
27.0
 40
28.0
 40
28.0
 40
29.0
 40
29.0
 40
30.0
 40
30.0
 40
31.0
 40
31.0
 40
32.0
 40
32.0
 40
33.0
 40
33.0
 40
34.0
 40
34.0
 40
35.0
 40
35.0
 40
36.0
 40
36.0
 40
37.0
 40
37.0
 40
38.0
 40
38.0
 40
39.0
 40
39.0
 40
40.0
 40
40.0
 40
41.0
 40
41.0
 40
42.0
 40
42.0
 40
43.0
 40
43.0
 40
44.0
 40
44.0
 40
45.0
 40
45.0
 40
46.0
 40
46.0
 40
47.0
 40
47.0
 40
48.0
 40
48.0
 40
49.0
 40
49.0
 40
50.0
 40
50.0
 40
51.0
 40
51.0
 40
52.0
 40
52.0
 40
53.0
 40
53.0
 40
54.0
 40
54.0
 40
55.0
 40
55.0
 40
56.0
 40
56.0
 40
57.0
 40
57.0
 40
58.0
 40
58.0
 40
59.0
 40
59.0
 40
60.0
 40
60.0
 40
61.0
 40
61.0
 40
62.0
 40
62.0
 40
63.0
 40
63.0
 40
64.0
 40
64.0
 40
65.0
 40
65.0
 40
66.0
 40
66.0
 40
67.0
 40
67.0
 40
68.0
 40
68.0
 40
69.0
 40
69.0
 40
70.0
 40
70.0
 40
71.0
 40
71.0
 40
72.0
 40
72.0
 40
73.0
 40
73.0
 40
74.0
 40
74.0
 40
75.0
 40
75.0
 40
76.0
 40
76.0
 40
77.0
 40
77.0
 40
78.0
 40
78.0
 40
79.0
 40
79.0
 40
80.0
 40
80.0
 40
81.0
 40
81.0
 40
82.0
 40
82.0
 40
83.0
 40
83.0
 40
84.0
 40
84.0
 40
85.0
 40
85.0
 40
86.0
 40
86.0
 40
87.0
 40
87.0
 40
88.0
 40
88.0
 40
89.0
 40
89.0
 40
90.0
 40
90.0
 40
91.0
 40
91.0
 40
92.0
 40
92.0
 40
93.0
 40
93.0
 40
94.0
 40
94.0
 40
95.0
 40
95.0
 40
96.0
 40
96.0
 40
97.0
 40
97.0
 40
98.0
 40
98.0
 40
99.0
 40
99.0
 40
100.0
 40
100.0
 40
101.0
 40
101.0
 40
102.0
 40
102.0
 40
103.0
 40
103.0
 40
104.0
 40
104.0
 40
105.0
 40
105.0
 40
106.0
 40
106.0
 40
107.0
 40
107.0
 40
108.0
 40
108.0
 40
109.0
 40
109.0
 40
110.0
 40
110.0
 40
111.0
 40
111.0
 40
112.0
 40
112.0
 40
113.0
 40
113.0
 40
114.0
 40
114.0
 40
115.0
 40
115.0
 40
116.0
 40
116.0
 40
117.0
 40
117.0
 40
118.0
 40
118.0
 40
119.0
 40
119.0
 40
120.0
 40
120.0
 40
121.0
 40
121.0
 40
122.0
 40
122.0
 40
123.0
 40
123.0
 40
124.0
 40
124.0
 40
125.0
 40
125.0
 40
126.0
 40
126.0
 40
127.0
 40
127.0
 40
128.0
 40
128.0
 40
129.0
 40
129.0
 40
130.0
 40
130.0
 40
131.0
 40
131.0
 40
132.0
 40
132.0
 40
133.0
 40
133.0
 40
134.0
 40
134.0
 40
135.0
 40
135.0
 40
136.0
 40
136.0
 40
137.0
 40
137.0
 40
138.0
 40
138.0
 40
139.0
 40
139.0
 40
140.0
 40
140.0
 40
141.0
 40
141.0
 40
142.0
 40
142.0
 40
143.0
 40
143.0
 40
144.0
 40
144.0
 40
145.0
 40
145.0
 40
146.0
 40
146.0
 40
147.0
 40
147.0
 40
148.0
 40
148.0
 40
149.0
 40
149.0
 40
150.0
 40
150.0
 40
151.0
 40
151.0
 40
152.0
 40
152.0
 40
153.0
 40
153.0
 40
154.0
 40
154.0
 40
155.0
 40
155.0
 40
156.0
 40
156.0
 40
157.0
 40
157.0
 40
158.0
 40
158.0
 40
159.0
 40
159.0
 40
160.0
 40
160.0
 40
161.0
 40
161.0
 40
162.0
 40
162.0
 40
163.0
 40
163.0
 40
164.0
 40
164.0
 40
165.0
 40
165.0
 40
166.0
 40
166.0
 40
167.0
 40
167.0
 40
168.0
 40
168.0
 40
169.0
 40
169.0
 40
170.0
 40
170.0
 40
171.0
 40
171.0
 40
172.0
 40
172.0
 40
173.0
 40
173.0
 40
174.0
 40
174.0
 40
175.0
 40
175.0
 40
176.0
 40
176.0
 40
177.0
 40
177.0
 40
178.0
 40
178.0
 40
179.0
 40
179.0
 40
180.0
 40
180.0
 40
181.0
 40
181.0
 40
182.0
 40
182.0
 40
183.0
 40
183.0
 40
184.0
 40
184.0
 40
185.0
 40
185.0
 40
186.0
 40
186.0
 40
187.0
 40
187.0
 40
188.0
 40
188.0
 40
189.0
 40
189.0
 40
190.0
 40
190.0
 40
191.0
 40
191.0
 40
192.0
 40
192.0
 40
193.0
 40
193.0
 40
194.0
 40
194.0
 40
195.0
 40
195.0
 40
196.0
 40
196.0
 40
197.0
 40
197.0
 40
198.0
 40
198.0
 40
199.0
 40
199.0
 40
200.0
 40
200.0
 40
201.0
 40
201.0
 40
202.0
 40
202.0
 40
203.0
 40
203.0
 40
204.0
 40
204.0
 40
205.0
 40
205.0
 40
206.0
 40
206.0
 40
207.0
 40
207.0
 40
208.0
 40
208.0
 40
209.0
 40
209.0
 40
210.0
 40
210.0
 40
211.0
 40
211.0
 40
212.0
 40
212.0
 40
213.0
 40
213.0
 40
214.0
 40
214.0
 40
215.0
 40
215.0
 40
216.0
 40
216.0
 40
217.0
 40
217.0
 40
218.0
 40
218.0
 40
219.0
 40
219.0
 40
220.0
 40
220.0
 40
221.0
 40
221.0
 40
222.0
 40
222.0
 40
223.0
 40
223.0
 40
224.0
 40
224.0
 40
225.0
 40
225.0
 40
226.0
 40
226.0
 40
227.0
 40
227.0
 40
228.0
 40
228.0
 40
229.0
 40
229.0
 40
230.0
 40
230.0
 40
231.0
 40
231.0
 40
232.0
 40
232.0
 40
233.0
 40
233.0
 40
234.0
 40
234.0
 40
235.0
 40
235.0
 40
236.0
 40
236.0
 40
237.0
 40
237.0
 40
238.0
 40
238.0
 40
239.0
 40
239.0
 40
240.0
 40
240.0
 40
241.0
 40
241.0
 40
242.0
 40
242.0
 40
243.0
 40
243.0
 40
244.0
 40
244.0
 40
245.0
 40
245.0
 40
246.0
 40
246.0
 40
247.0
 40
247.0
 40
248.0
 40
248.0
 40
249.0
 40
249.0
 40
250.0
 40
250.0
 40
251.0
 40
251.0
 40
252.0
 40
252.0
 40
253.0
 40
253.0
 40
254.0
 40
254.0
 40
255.0
 40
255.0
 40
256.0
 40
256.0
 40
257.0
 40
257.0
 40
258.0
 40
258.0
 40
259.0
 40
259.0
 40
260.0
 40
260.0
 40
261.0
 40
261.0
 40
262.0
 40
262.0
 40
263.0
 40
263.0
 40
264.0
 40
264.0
 40
265.0
 40
265.0
 40
266.0
 40
266.0
 40
267.0
 40
267.0
 40
268.0
 40
268.0
 40
269.0
 40
269.0
 40
270.0
 40
270.0
 40
271.0
 40
271.0
 40
272.0
 40
272.0
 40
273.0
 40
273.0
 40
274.0
 40
274.0
 40
275.0
 40
275.0
 40
276.0
 40
276.0
 40
277.0
 40
277.0
 40
278.0
 40
278.0
 40
279.0
 40
279.0
 40
280.0
 40
280.0
 40
281.0
 40
281.0
 40
282.0
 40
282.0
 40
283.0
 40
283.0
 40
284.0
 40
284.0
 40
285.0
 40
285.0
 40
286.0
 40
286.0
 40
287.0
 40
287.0
 40
288.0
 40
288.0
 40
289.0
 40
289.0
 40
290.0
 40
290.0
 40
291.0
 40
291.0
 40
292.0
 40
292.0
 40
293.0
 40
293.0
 40
294.0
 40
294.0
 40
295.0
 40
295.0
 40
296.0
 40
296.0
 40
297.0
 40
297.0
 40
298.0
 40
298.0
 40
299.0
 40
299.0
 40
300.0
 40
300.0
 40
301.0
 40
301.0
 40
302.0
 40
302.0
 40
303.0
 40
303.0
 40
304.0
 40
304.0
 40
305.0
 40
305.0
 40
306.0
 40
306.0
 40
307.0
 40
307.0
 40
308.0
 40
308.0
 40
309.0
 40
309.0
 40
310.0
 40
310.0
 40
311.0
 40
311.0
 40
312.0
 40
312.0
 40
313.0
 40
313.0
 40
314.0
 40
314.0
 40
315.0
 40
315.0
 40
316.0
 40
316.0
 40
317.0
 40
317.0
 40
318.0
 40
318.0
 40
319.0
 40
319.0
 40
320.0
 40
320.0
 40
321.0
 40
321.0
 40
322.0
 40
322.0
 40
323.0
 40
323.0
 40
324.0
 40
324.0
 40
325.0
 40
325.0
 40
326.0
 40
326.0
 40
327.0
 40
327.0
 40
328.0
 40
328.0
 40
329.0
 40
329.0
 40
330.0
 40
330.0
 40
331.0
 40
331.0
 40
332.0
 40
332.0
 40
333.0
 40
333.0
 40
334.0
 40
334.0
 40
335.0
 40
335.0
 40
336.0
 40
336.0
 40
337.0
 40
337.0
 40
338.0
 40
338.0
 40
339.0
 40
339.0
 40
340.0
 40
340.0
 40
341.0
 40
341.0
 40
342.0
 40
342.0
 40
343.0
 40
343.0
 40
344.0
 40
344.0
 40
345.0
 40
345.0
 40
346.0
 40
346.0
 40
347.0
 40
347.0
 40
348.0
 40
348.0
 40
349.0
 40
349.0
 40
350.0
 40
350.0
 40
351.0
 40
351.0
 40
352.0
 40
352.0
 40
353.0
 40
353.0
 40
354.0
 40
354.0
 40
355.0
 40
355.0
 40
356.0
 40
356.0
 40
357.0
 40
357.0
 40
358.0
 40
358.0
 40
359.0
 40
359.0
 40
360.0
 40
360.0
 40
361.0
 40
361.0
 40
362.0
 40
362.0
 40
363.0
 40
363.0
 40
364.0
 40
364.0
 40
365.0
 40
365.0
 40
366.0
 40
366.0
 40
367.0
 40
367.0
 40
368.0
 40
368.0
 40
369.0
 40
369.0
 40
370.0
 40
370.0
 40
371.0
 40
371.0
 40
372.0
 40
372.0
 40
373.0
 40
373.0
 40
374.0
 40
374.0
 40
375.0
 40
375.0
 40
376.0
 40
376.0
 40
377.0
 40
377.0
 40
378.0
 40
378.0
 40
379.0
 40
379.0
 40
380.0
 40
380.0
 40
381.0
 40
381.0
 40
382.0
 40
382.0
 40
383.0
 40
383.0
 40
384.0
 40
384.0
 40
385.0
 40
385.0
 40
386.0
 40
386.0
 40
387.0
 40
387.0
 40
388.0
 40
388.0
 40
389.0
 40
389.0
 40
389.0
 10
-910.20039519319255
 20
-744.81617455987293
 30
0.0
 41
1.0
 10
-909.38197108447207
 20
-744.81617455987293
 30
0.0
 41
1.0
 10
-908.56354697575159
 20
-744.81617455987293
 30
0.0
 41
1.0
 10
-908.9773007112683
 20
-746.15880082412264
 30
0.0
 41
1.0
 10
-909.39105444678512
 20
-747.50142708837234
 30
0.0
 41
1.0
 10
-909.37271495161815
 20
-747.47272631546218
 30
0.0
 41
0.9999957264395923
 10
-909.35420795478706
 20
-747.44413326531117
 30
0.0
 41
1.0
 10
-909.32377863064949
 20
-747.39712038693483
 30
0.0
 41
1.0
 10
-909.2933493065118
 20
-747.35010750855849
 30
0.0
 41
1.0
 10
-909.21398366140568
 20
-747.22748870165492
 30
0.0
 41
0.999539406908176
 10
-909.12732526985315
 20
-747.10991063991253
 30
0.0
 41
1.0
 10
-909.09156840759363
 20
-747.06139574731935
 30
0.0
 41
1.0
 10
-909.05581154533411
 20
-747.01288085472618
 30
0.0
 41
1.0
 10
-908.92208487751611
 20
-746.83144057959964
 30
0.0
 41
0.9994460617143136
 10
-908.77658439622815
 20
-746.65929818195002
 30
0.0
 41
1.0
 10
-908.7721962152533
 20
-746.65410650156764
 30
0.0
 41
1.0
 10
-908.76780803427846
 20
-746.64891482118526
 30
0.0
 41
1.0
 10
-908.63108391494029
 20
-746.48715578430051
 30
0.0
 41
0.9994359394934312
 10
-908.48380968458878
 20
-746.33493958313579
 30
0.0
 41
1.0
 10
-908.48142633063503
 20
-746.33247625276226
 30
0.0
 41
1.0
 10
-908.47904297668128
 20
-746.33001292238862
 30
0.0
 41
1.0
 10
-908.33653545423749
 20
-746.18272338197119
 30
0.0
 41
0.9995293688567987
 10
-908.1852637732552
 20
-746.04445016980696
 30
0.0
 41
1.0
 10
-908.16597001399259
 20
-746.02681428415644
 30
0.0
 41
1.0
 10
-908.1466762547301
 20
-746.00917839850604
 30
0.0
 41
1.0
 10
-908.03399209227314
 20
-745.90617695764297
 30
0.0
 41
0.9997087614803183
 10
-907.916469203318
 20
-745.80873267684501
 30
0.0
 41
1.0
 10
-907.8973031301432
 20
-745.79284109833759
 30
0.0
 41
1.0
 10
-907.87813705696828
 20
-745.77694951983017
 30
0.0
 41
1.0
 10
-907.79894631436355
 20
-745.71128839604762
 30
0.0
 41
0.9999595338692785
 10
-907.7185870435078
 20
-745.64706266539213
 30
0.0
 41
1.0
 10
-907.63822777265557
 20
-745.58283693473936
 30
0.0
 41
0.9999749417502624
 10
-907.55696723831318
 20
-745.51975538079387
 30
0.0
 41
1.0
 10
-907.53598109214397
 20
-745.50346409348697
 30
0.0
 41
1.0
 10
-907.51499494597476
 20
-745.48717280618007
 30
0.0
 41
1.0
 10
-907.43042706067683
 20
-745.42152379634217
 30
0.0
 41
0.999979203711557
 10
-907.34501946090677
 20
-745.35697101469816
 30
0.0
 41
1.0
 10
-907.32419463499139
 20
-745.34123119243748
 30
0.0
 41
1.0
 10
-907.303369809076
 20
-745.32549137017679
 30
0.0
 41
1.0
 10
-907.25961186113636
 20
-745.29241823305392
 30
0.0
 41
0.9999993374159378
 10
-907.21593017499413
 20
-745.25924443763051
 30
0.0
 41
1.0
 10
-907.17224848884996
 20
-745.22607064220574
 30
0.0
 41
0.9999160953818003
 10
-907.12772207792909
 20
-745.19403957700661
 30
0.0
 41
1.0
 10
-907.09490019051077
 20
-745.17042842142246
 30
0.0
 41
1.0
 10
-907.06207830309233
 20
-745.14681726583842
 30
0.0
 41
1.0
 10
-906.95190811733403
 20
-745.06756388947065
 30
0.0
 41
0.9980964527231699
 10
-906.83281912383393
 20
-745.00247641661485
 30
0.0
 41
1.0
 10
-906.79578651690554
 20
-744.98223643702158
 30
0.0
 41
1.0
 10
-906.75875390997714
 20
-744.96199645742831
 30
0.0
 41
1.0
 10
-906.57942689670404
 20
-744.86398620672708
 30
0.0
 41
0.9984572810572834
 10
-906.390338330345
 20
-744.78646394538066
 30
0.0
 41
1.0
 10
-906.38669206094892
 20
-744.78496905304269
 30
0.0
 41
1.0
 10
-906.38304579155283
 20
-744.7834741607046
 30
0.0
 41
1.0
 10
-906.20124976398586
 20
-744.70894168403413
 30
0.0
 41
0.9987838528033979
 10
-906.01299710542685
 20
-744.6526760438685
 30
0.0
 41
1.0
 10
-906.00875915622794
 20
-744.65140939017829
 30
0.0
 41
1.0
 10
-906.00452120702903
 20
-744.65014273648796
 30
0.0
 41
1.0
 10
-905.82474444686738
 20
-744.59641040370263
 30
0.0
 41
0.9990652816207492
 10
-905.64099851515175
 20
-744.5584067241607
 30
0.0
 41
1.0
 10
-905.63581011411998
 20
-744.55733362105411
 30
0.0
 41
1.0
 10
-905.6306217130882
 20
-744.55626051794752
 30
0.0
 41
1.0
 10
-905.45725258343555
 20
-744.52040304461866
 30
0.0
 41
0.9992909934270755
 10
-905.28167681697755
 20
-744.49769261215215
 30
0.0
 41
1.0
 10
-905.10610105051899
 20
-744.47498217968564
 30
0.0
 41
0.9994553539448365
 10
-904.9294096174259
 20
-744.46390287547933
 30
0.0
 41
1.0
 10
-904.89397520963007
 20
-744.46168098743146
 30
0.0
 41
1.0
 10
-904.85854080183424
 20
-744.45945909938371
 30
0.0
 41
1.0
 10
-904.69231503526521
 20
-744.44903603697207
 30
0.0
 41
0.9990928098292655
 10
-904.52580524336281
 20
-744.4527956782066
 30
0.0
 41
1.0
 10
-904.48724340809235
 20
-744.45366636973949
 30
0.0
 41
1.0
 10
-904.4486815728219
 20
-744.4545370612725
 30
0.0
 41
1.0
 10
-904.35929545146155
 20
-744.45655531944101
 30
0.0
 41
0.9998382089204962
 10
-904.270039768674
 20
-744.46178744596921
 30
0.0
 41
1.0
 10
-904.26960986245274
 20
-744.46181264687152
 30
0.0
 41
1.0
 10
-904.26917995623148
 20
-744.46183784777384
 30
0.0
 41
1.0
 10
-904.18078408588633
 20
-744.46701957249741
 30
0.0
 41
0.9997558016758934
 10
-904.09270350868701
 20
-744.47610208786375
 30
0.0
 41
1.0
 10
-904.09222737025675
 20
-744.47615118534645
 30
0.0
 41
1.0
 10
-904.09175123182661
 20
-744.47620028282904
 30
0.0
 41
1.0
 10
-904.00462293148576
 20
-744.48518460323032
 30
0.0
 41
0.9996565144181898
 10
-903.91808507814403
 20
-744.49872190991925
 30
0.0
 41
1.0
 10
-903.91761915276766
 20
-744.49879479565038
 30
0.0
 41
1.0
 10
-903.9171532273914
 20
-744.49886768138151
 30
0.0
 41
1.0
 10
-903.8315472248031
 20
-744.51225921660807
 30
0.0
 41
0.9995321806867126
 10
-903.74692014447407
 20
-744.53085970503753
 30
0.0
 41
1.0
 10
-903.74653094990094
 20
-744.53094524750372
 30
0.0
 41
1.0
 10
-903.74614175532793
 20
-744.5310307899698
 30
0.0
 41
1.0
 10
-903.66229306414493
 20
-744.5494601934671
 30
0.0
 41
0.9993819199219802
 10
-903.57994652994989
 20
-744.57373557672747
 30
0.0
 41
1.0
 10
-903.57970809645326
 20
-744.57380586583645
 30
0.0
 41
1.0
 10
-903.57946966295651
 20
-744.57387615494542
 30
0.0
 41
1.0
 10
-903.49759999575508
 20
-744.59801095998762
 30
0.0
 41
0.999208856850545
 10
-903.41790747676544
 20
-744.62857619578256
 30
0.0
 41
1.0
 10
-903.33822648588648
 20
-744.65913579651567
 30
0.0
 41
0.999022610177315
 10
-903.26155581597925
 20
-744.69661322813033
 30
0.0
 41
1.0
 10
-903.18489667418146
 20
-744.73408502468351
 30
0.0
 41
0.9988424273972377
 10
-903.11219304696976
 20
-744.77874979993612
 30
0.0
 41
1.0
 10
-903.11192533859003
 20
-744.77891426400856
 30
0.0
 41
1.0
 10
-903.11165763021017
 20
-744.77907872808112
 30
0.0
 41
1.0
 10
-903.038418586239
 20
-744.82407243147873
 30
0.0
 41
0.9986928844491229
 10
-902.97015571952875
 20
-744.8763081657587
 30
0.0
 41
1.0
 10
-902.96957442730638
 20
-744.87675297898636
 30
0.0
 41
1.0
 10
-902.96899313508402
 20
-744.87719779221391
 30
0.0
 41
1.0
 10
-902.89956768392813
 20
-744.93032315294977
 30
0.0
 41
0.9986007262278087
 10
-902.83614151416111
 20
-744.99048392264376
 30
0.0
 41
1.0
 10
-902.83524709870426
 20
-744.99133229047834
 30
0.0
 41
1.0
 10
-902.83435268324752
 20
-744.99218065831303
 30
0.0
 41
1.0
 10
-902.76913768256645
 20
-745.05403816367652
 30
0.0
 41
0.9985581491380879
 10
-902.71093007086495
 20
-745.12253065394816
 30
0.0
 41
1.0
 10
-902.70167161726908
 20
-745.13342501164993
 30
0.0
 41
1.0
 10
-902.69241316367311
 20
-745.14431936935182
 30
0.0
 41
1.0
 10
-902.61568864477965
 20
-745.23460057502712
 30
0.0
 41
0.9970460233520179
 10
-902.55369674362009
 20
-745.33556765920912
 30
0.0
 41
1.0
 10
-902.53922737853986
 20
-745.35913411829154
 30
0.0
 41
1.0
 10
-902.52475801345963
 20
-745.38270057737395
 30
0.0
 41
1.0
 10
-902.48502131344833
 20
-745.44742030140424
 30
0.0
 41
0.9988468816636861
 10
-902.45167494269754
 20
-745.51565275383041
 30
0.0
 41
1.0
 10
-902.44463892020622
 20
-745.53004967496759
 30
0.0
 41
1.0
 10
-902.4376028977149
 20
-745.54444659610465
 30
0.0
 41
1.0
 10
-902.41832857194629
 20
-745.58388520625738
 30
0.0
 41
0.9998431189997801
 10
-902.40046324445098
 20
-745.62398176069883
 30
0.0
 41
1.0
 10
-902.38259791695373
 20
-745.66407831514471
 30
0.0
 41
0.9999989989928169
 10
-902.36461919352553
 20
-745.70412415274245
 30
0.0
 41
1.0
 10
-902.35844688193561
 20
-745.7178723695456
 30
0.0
 41
1.0
 10
-902.35227457034557
 20
-745.73162058634864
 30
0.0
 41
1.0
 10
-902.321951223734
 20
-745.7991628575603
 30
0.0
 41
0.9998790356321363
 10
-902.29374334359477
 20
-745.8676156095006
 30
0.0
 41
1.0
 10
-902.28690816231142
 20
-745.88420271092582
 30
0.0
 41
1.0
 10
-902.28007298102796
 20
-745.90078981235104
 30
0.0
 41
1.0
 10
-902.25651531864798
 20
-745.95795776723571
 30
0.0
 41
0.9998227574561505
 10
-902.2351265702589
 20
-746.01597207551265
 30
0.0
 41
1.0
 10
-902.2137378218697
 20
-746.07398638378982
 30
0.0
 41
0.9996797971040921
 10
-902.19531153691071
 20
-746.1330085029075
 30
0.0
 41
1.0
 10
-902.19140773418508
 20
-746.14551296107675
 30
0.0
 41
1.0
 10
-902.18750393145933
 20
-746.15801741924611
 30
0.0
 41
1.0
 10
-902.16127004104897
 20
-746.24204845470229
 30
0.0
 41
0.997927493873455
 10
-902.14604551756963
 20
-746.32875281336305
 30
0.0
 41
1.0
 10
-902.14382183030841
 20
-746.34141681418464
 30
0.0
 41
1.0
 10
-902.14159814304719
 20
-746.35408081500623
 30
0.0
 41
1.0
 10
-902.13066820334905
 20
-746.41632732229573
 30
0.0
 41
0.999498598213687
 10
-902.12370003817227
 20
-746.47914082343698
 30
0.0
 41
1.0
 10
-902.11673187299527
 20
-746.54195432457891
 30
0.0
 41
0.9996372611201166
 10
-902.11315600722753
 20
-746.60505190326182
 30
0.0
 41
1.0
 10
-902.11298742973827
 20
-746.60802652034363
 30
0.0
 41
1.0
 10
-902.11281885224889
 20
-746.61100113742555
 30
0.0
 41
1.0
 10
-902.10890583150251
 20
-746.6800479502707
 30
0.0
 41
0.9997730630736162
 10
-902.10793751801452
 20
-746.74919877430375
 30
0.0
 41
1.0
 10
-902.1078804115964
 20
-746.75327695344663
 30
0.0
 41
1.0
 10
-902.10782330517827
 20
-746.75735513258951
 30
0.0
 41
1.0
 10
-902.10674077885392
 20
-746.83466231490445
 30
0.0
 41
0.9998772614069538
 10
-902.10808086558563
 20
-746.91196546146591
 30
0.0
 41
1.0
 10
-902.10817012878442
 20
-746.91711462530384
 30
0.0
 41
1.0
 10
-902.10825939198321
 20
-746.92226378914165
 30
0.0
 41
1.0
 10
-902.10977800511205
 20
-747.00986526336783
 30
0.0
 41
0.9999415567321558
 10
-902.11319031535777
 20
-747.09741342503457
 30
0.0
 41
1.0
 10
-902.1134316360334
 20
-747.10360488478011
 30
0.0
 41
1.0
 10
-902.11367295670902
 20
-747.10979634452565
 30
0.0
 41
1.0
 10
-902.11756790830611
 20
-747.20972742568654
 30
0.0
 41
0.9999716810430898
 10
-902.12296649142513
 20
-747.30958856392499
 30
0.0
 41
1.0
 10
-902.12617929021371
 20
-747.36901781357778
 30
0.0
 41
1.0
 10
-902.12939208900229
 20
-747.42844706323058
 30
0.0
 41
1.0
 10
-902.13746599815465
 20
-747.57779546450502
 30
0.0
 41
0.9999819129907152
 10
-902.14733578977098
 20
-747.72703594221116
 30
0.0
 41
1.0
 10
-902.15720558138753
 20
-747.87627641992253
 30
0.0
 41
1.0
 10
-902.15964490195142
 20
-747.91346946577187
 30
0.0
 41
1.0
 10
-902.13694666811398
 20
-747.8747284684315
 30
0.0
 41
0.9999982128229269
 10
-902.11410210934378
 20
-747.83607357444816
 30
0.0
 41
1.0
 10
-902.08719254946959
 20
-747.790540360411
 30
0.0
 41
1.0
 10
-902.06028298959529
 20
-747.74500714637384
 30
0.0
 41
1.0
 10
-901.9836193110707
 20
-747.61528582430617
 30
0.0
 41
0.9998609190056987
 10
-901.90267199820892
 20
-747.48819344237688
 30
0.0
 41
1.0
 10
-901.87302367672783
 20
-747.44164370942053
 30
0.0
 41
1.0
 10
-901.84337535524662
 20
-747.3950939764643
 30
0.0
 41
1.0
 10
-901.76110313500794
 20
-747.26592140646653
 30
0.0
 41
0.9999067609730656
 10
-901.67533412554303
 20
-747.13904371702404
 30
0.0
 41
1.0
 10
-901.67292942234144
 20
-747.1354864509683
 30
0.0
 41
1.0
 10
-901.67052471913996
 20
-747.13192918491245
 30
0.0
 41
1.0
 10
-901.58956511607892
 20
-747.01216602758257
 30
0.0
 41
0.9998784952148841
 10
-901.50491150639766
 20
-746.89498481087401
 30
0.0
 41
1.0
 10
-901.42025789671425
 20
-746.77780359416261
 30
0.0
 41
0.9998532968284368
 10
-901.33164027588987
 20
-746.66359068569
 30
0.0
 41
1.0
 10
-901.31167848690075
 20
-746.63786336467228
 30
0.0
 41
1.0
 10
-901.29171669791151
 20
-746.61213604365457
 30
0.0
 41
1.0
 10
-901.17323264815263
 20
-746.45943043268608
 30
0.0
 41
0.9991551975795574
 10
-901.04260819852902
 20
-746.31697087060252
 30
0.0
 41
1.0
 10
-901.03909858254906
 20
-746.31314326897802
 30
0.0
 41
1.0
 10
-901.03558896656921
 20
-746.30931566735353
 30
0.0
 41
1.0
 10
-900.91198374890553
 20
-746.17451130851896
 30
0.0
 41
0.9997418144182018
 10
-900.782381609205
 20
-746.04546189790653
 30
0.0
 41
1.0
 10
-900.65277946950448
 20
-745.91641248729422
 30
0.0
 41
0.9989238204633445
 10
-900.51177692125384
 20
-745.7999275252555
 30
0.0
 41
1.0
 10
-900.46652924311411
 20
-745.76254753364674
 30
0.0
 41
1.0
 10
-900.42128156497449
 20
-745.72516754203787
 30
0.0
 41
1.0
 10
-900.28104150775289
 20
-745.60931248874681
 30
0.0
 41
0.9990825084096775
 10
-900.13140157514886
 20
-745.50588349091379
 30
0.0
 41
1.0
 10
-900.12135621109235
 20
-745.49894027783455
 30
0.0
 41
1.0
 10
-900.11131084703584
 20
-745.49199706475531
 30
0.0
 41
1.0
 10
-899.98176164254539
 20
-745.40245449308111
 30
0.0
 41
0.9998164899825193
 10
-899.84887743916863
 20
-745.31794025156444
 30
0.0
 41
1.0
 10
-899.8370318786433
 20
-745.31040648503915
 30
0.0
 41
1.0
 10
-899.82518631811786
 20
-745.30287271851387
 30
0.0
 41
1.0
 10
-899.71599323579278
 20
-745.23342601004833
 30
0.0
 41
0.9997473449131636
 10
-899.60378927854299
 20
-745.16895705223237
 30
0.0
 41
1.0
 10
-899.49158532129218
 20
-745.10448809441596
 30
0.0
 41
0.9999327861142578
 10
-899.37791671052537
 20
-745.04263810273267
 30
0.0
 41
1.0
 10
-899.37736470796699
 20
-745.04233774405475
 30
0.0
 41
1.0
 10
-899.37681270540861
 20
-745.04203738537694
 30
0.0
 41
1.0
 10
-899.26204008952402
 20
-744.97958667633736
 30
0.0
 41
0.9996956420482862
 10
-899.14432676368449
 20
-744.92287320936293
 30
0.0
 41
1.0
 10
-899.11388635879007
 20
-744.90820723263209
 30
0.0
 41
1.0
 10
-899.08344595389553
 20
-744.89354125590125
 30
0.0
 41
1.0
 10
-898.98046884715291
 20
-744.84392759745845
 30
0.0
 41
0.9998070570176344
 10
-898.87562245821334
 20
-744.79839701055801
 30
0.0
 41
1.0
 10
-898.77077606927321
 20
-744.75286642365734
 30
0.0
 41
0.9997827436148324
 10
-898.66412313266414
 20
-744.71174525234574
 30
0.0
 41
1.0
 10
-898.64490028303192
 20
-744.70433367871306
 30
0.0
 41
1.0
 10
-898.62567743339969
 20
-744.69692210508038
 30
0.0
 41
1.0
 10
-898.48057879752639
 20
-744.64097778650353
 30
0.0
 41
0.9988031841976822
 10
-898.33070843492123
 20
-744.59947772233568
 30
0.0
 41
1.0
 10
-898.30579118655862
 20
-744.5925779765289
 30
0.0
 41
1.0
 10
-898.28087393819601
 20
-744.58567823072224
 30
0.0
 41
1.0
 10
-898.11360391254891
 20
-744.53936008831545
 30
0.0
 41
0.9984748040549821
 10
-897.94224700389975
 20
-744.51176585605049
 30
0.0
 41
1.0
 10
-897.93750786765088
 20
-744.51100269553706
 30
0.0
 41
1.0
 10
-897.93276873140201
 20
-744.51023953502363
 30
0.0
 41
1.0
 10
-897.77089009525071
 20
-744.48417162378564
 30
0.0
 41
0.9984436495480055
 10
-897.60711535152609
 20
-744.47629366996694
 30
0.0
 41
1.0
 10
-897.58541814339503
 20
-744.47524998276731
 30
0.0
 41
1.0
 10
-897.56372093526397
 20
-744.47420629556768
 30
0.0
 41
1.0
 10
-897.44334060780147
 20
-744.46841571614823
 30
0.0
 41
0.9987954789335209
 10
-897.32297236289151
 20
-744.47445224389048
 30
0.0
 41
1.0
 10
-897.30300757039754
 20
-744.47545348822905
 30
0.0
 41
1.0
 10
-897.28304277790369
 20
-744.47645473256762
 30
0.0
 41
1.0
 10
-897.20260411798222
 20
-744.48048877163274
 30
0.0
 41
0.9997941595878047
 10
-897.12239533988725
 20
-744.48778283755382
 30
0.0
 41
1.0
 10
-897.04218656179182
 20
-744.49507690347502
 30
0.0
 41
0.9998589466234951
 10
-896.96226801493606
 20
-744.50506075792521
 30
0.0
 41
1.0
 10
-896.9298618131287
 20
-744.50910911484425
 30
0.0
 41
1.0
 10
-896.89745561132133
 20
-744.51315747176341
 30
0.0
 41
1.0
 10
-896.75272466084994
 20
-744.5312380400519
 30
0.0
 41
0.9993495063249316
 10
-896.60967341708431
 20
-744.55970374979358
 30
0.0
 41
1.0
 10
-896.57673971993268
 20
-744.56625721300838
 30
0.0
 41
1.0
 10
-896.54380602278093
 20
-744.57281067622307
 30
0.0
 41
1.0
 10
-896.43451219957592
 20
-744.59455901035847
 30
0.0
 41
0.9996788715561078
 10
-896.32646062761921
 20
-744.62181680972162
 30
0.0
 41
1.0
 10
-896.32439762508204
 20
-744.62233723629402
 30
0.0
 41
1.0
 10
-896.32233462254487
 20
-744.62285766286652
 30
0.0
 41
1.0
 10
-896.21840905566444
 20
-744.64907460908421
 30
0.0
 41
0.9995480654492338
 10
-896.11624682043339
 20
-744.68148956570906
 30
0.0
 41
1.0
 10
-896.1145571783029
 20
-744.68202567062349
 30
0.0
 41
1.0
 10
-896.1128675361723
 20
-744.68256177553781
 30
0.0
 41
1.0
 10
-896.01408458520257
 20
-744.71390452233402
 30
0.0
 41
0.9993867959456493
 10
-895.91773742676139
 20
-744.75208389162322
 30
0.0
 41
1.0
 10
-895.91649447767736
 20
-744.75257643351915
 30
0.0
 41
1.0
 10
-895.91525152859333
 20
-744.75306897541509
 30
0.0
 41
1.0
 10
-895.82139026831987
 20
-744.79026326091241
 30
0.0
 41
0.9992050256521577
 10
-895.73079059328552
 20
-744.83481716015172
 30
0.0
 41
1.0
 10
-895.7300559105729
 20
-744.83517845261258
 30
0.0
 41
1.0
 10
-895.7293212278604
 20
-744.83553974507345
 30
0.0
 41
1.0
 10
-895.64019091825242
 20
-744.87937105939034
 30
0.0
 41
0.9990222350741793
 10
-895.55528085685842
 20
-744.9309043270888
 30
0.0
 41
1.0
 10
-895.55509697157652
 20
-744.93101592999312
 30
0.0
 41
1.0
 10
-895.55491308629462
 20
-744.93112753289745
 30
0.0
 41
1.0
 10
-895.47037079546544
 20
-744.98243759478669
 30
0.0
 41
0.9988642743804894
 10
-895.39109626084587
 20
-745.04156178231233
 30
0.0
 41
1.0
 10
-895.31182172622664
 20
-745.10068596983774
 30
0.0
 41
0.9987681233310881
 10
-895.23879794195011
 20
-745.1673766612389
 30
0.0
 41
1.0
 10
-895.23846901398451
 20
-745.16767706245287
 30
0.0
 41
1.0
 10
-895.23814008601903
 20
-745.16797746366672
 30
0.0
 41
1.0
 10
-895.16445844581142
 20
-745.2352689574958
 30
0.0
 41
0.9987496570898786
 10
-895.0978646404842
 20
-745.30958177158243
 30
0.0
 41
1.0
 10
-895.09709247072374
 20
-745.31044344494035
 30
0.0
 41
1.0
 10
-895.09632030096327
 20
-745.31130511829838
 30
0.0
 41
1.0
 10
-895.02818215611489
 20
-745.38734127910118
 30
0.0
 41
0.9988147669826947
 10
-894.96775990188962
 20
-745.46964228594402
 30
0.0
 41
1.0
 10
-894.96664057581211
 20
-745.47116691729616
 30
0.0
 41
1.0
 10
-894.96552124973471
 20
-745.4726915486483
 30
0.0
 41
1.0
 10
-894.90286034335418
 20
-745.55804181819599
 30
0.0
 41
0.9989452636216087
 10
-894.84829343039257
 20
-745.6487805073541
 30
0.0
 41
1.0
 10
-894.84694470430713
 20
-745.65102328837997
 30
0.0
 41
1.0
 10
-894.84559597822158
 20
-745.65326606940596
 30
0.0
 41
1.0
 10
-894.7883316130891
 20
-745.7484903206157
 30
0.0
 41
0.9991046436070584
 10
-894.73932239976773
 20
-745.84821475364049
 30
0.0
 41
1.0
 10
-894.73785853817753
 20
-745.85119343371355
 30
0.0
 41
1.0
 10
-894.73639467658722
 20
-745.8541721137866
 30
0.0
 41
1.0
 10
-894.68445774008512
 20
-745.95985390695807
 30
0.0
 41
0.9992763831101212
 10
-894.6407046115296
 20
-746.0691779689148
 30
0.0
 41
1.0
 10
-894.63922534186668
 20
-746.07287415644748
 30
0.0
 41
1.0
 10
-894.63774607220375
 20
-746.07657034398017
 30
0.0
 41
1.0
 10
-894.59103440432239
 20
-746.19328678100237
 30
0.0
 41
0.9994163472883266
 10
-894.55240137313297
 20
-746.31292036946536
 30
0.0
 41
1.0
 10
-894.55116322088634
 20
-746.31675451324782
 30
0.0
 41
1.0
 10
-894.5499250686396
 20
-746.32058865703016
 30
0.0
 41
1.0
 10
-894.51004150762185
 20
-746.44409471850997
 30
0.0
 41
0.9997268055890187
 10
-894.47597345170948
 20
-746.56932975046197
 30
0.0
 41
1.0
 10
-894.4750432714402
 20
-746.57274911657009
 30
0.0
 41
1.0
 10
-894.47411309117081
 20
-746.5761684826781
 30
0.0
 41
1.0
 10
-894.44190539579779
 20
-746.69456478241125
 30
0.0
 41
0.9996701319000236
 10
-894.41581977902706
 20
-746.81445873567611
 30
0.0
 41
1.0
 10
-894.38973416225622
 20
-746.93435268894166
 30
0.0
 41
0.9995785451109495
 10
-894.37065058491612
 20
-747.05555844997559
 30
0.0
 41
1.0
 10
-894.36643080274268
 20
-747.08235960473871
 30
0.0
 41
1.0
 10
-894.36221102056925
 20
-747.10916075950172
 30
0.0
 41
1.0
 10
-894.33563604463075
 20
-747.27794673320477
 30
0.0
 41
0.9979925101216611
 10
-894.33061045870443
 20
-747.4487380612959
 30
0.0
 41
1.0
 10
-894.32978564627979
 20
-747.47676878477705
 30
0.0
 41
1.0
 10
-894.32896083385515
 20
-747.5047995082582
 30
0.0
 41
1.0
 10
-894.32558487277811
 20
-747.61952938938714
 30
0.0
 41
0.9995314902263569
 10
-894.32923506491659
 20
-747.73425087313956
 30
0.0
 41
1.0
 10
-894.33288525705507
 20
-747.84897235689095
 30
0.0
 41
0.9996245486944779
 10
-894.34281435218588
 20
-747.96332162801525
 30
0.0
 41
1.0
 10
-894.34297740018019
 20
-747.96519938415054
 30
0.0
 41
1.0
 10
-894.34314044817438
 20
-747.96707714028594
 30
0.0
 41
1.0
 10
-894.35339563929381
 20
-748.08518192368047
 30
0.0
 41
0.9997286095000746
 10
-894.36914096286512
 20
-748.20268083257417
 30
0.0
 41
1.0
 10
-894.36953445551558
 20
-748.20561725727657
 30
0.0
 41
1.0
 10
-894.36992794816592
 20
-748.20855368197886
 30
0.0
 41
1.0
 10
-894.38646025703872
 20
-748.33192544028122
 30
0.0
 41
0.999826553396899
 10
-894.40757571577205
 20
-748.4545959150737
 30
0.0
 41
1.0
 10
-894.40825225790854
 20
-748.45852629357728
 30
0.0
 41
1.0
 10
-894.40892880004503
 20
-748.46245667208075
 30
0.0
 41
1.0
 10
-894.43139734305225
 20
-748.59298790388584
 30
0.0
 41
0.9999022530850069
 10
-894.45750680766218
 20
-748.72283987252399
 30
0.0
 41
1.0
 10
-894.45848544882733
 20
-748.72770701491061
 30
0.0
 41
1.0
 10
-894.45946408999259
 20
-748.73257415729722
 30
0.0
 41
1.0
 10
-894.48753083693305
 20
-748.87216041070906
 30
0.0
 41
0.9999524761937212
 10
-894.51831380576721
 20
-749.01117290387106
 30
0.0
 41
1.0
 10
-894.51958991294305
 20
-749.01693566317545
 30
0.0
 41
1.0
 10
-894.520866020119
 20
-749.02269842247972
 30
0.0
 41
1.0
 10
-894.5542012033045
 20
-749.17323643424857
 30
0.0
 41
0.9999813588730865
 10
-894.58937220410087
 20
-749.32335614690635
 30
0.0
 41
1.0
 10
-894.59092612955715
 20
-749.32998873732799
 30
0.0
 41
1.0
 10
-894.59248005501354
 20
-749.33662132774953
 30
0.0
 41
1.0
 10
-894.63075890672167
 20
-749.50000622124708
 30
0.0
 41
0.9999955237612375
 10
-894.67001478470115
 20
-749.66315912484924
 30
0.0
 41
1.0
 10
-894.68229642033646
 20
-749.71420331537604
 30
0.0
 41
1.0
 10
-894.69457805597176
 20
-749.76524750590283
 30
0.0
 41
1.0
 10
-894.75839720521049
 20
-750.03048879051198
 30
0.0
 41
0.9999993604567359
 10
-894.82281615238423
 20
-750.29558504121997
 30
0.0
 41
1.0
 10
-894.82753498793363
 20
-750.31500394927002
 30
0.0
 41
1.0
 10
-894.83225382348303
 20
-750.33442285732019
 30
0.0
 41
1.0
 10
-894.90611044174682
 20
-750.6383569240918
 30
0.0
 41
0.9999659914725672
 10
-894.98497003763521
 20
-750.94103147066335
 30
0.0
 41
1.0
 10
-894.98992272656255
 20
-750.96004060783332
 30
0.0
 41
1.0
 10
-894.99487541549001
 20
-750.97904974500329
 30
0.0
 41
1.0
 10
-895.08364038923594
 20
-751.31974256592468
 30
0.0
 41
0.9999441976024506
 10
-895.17958342220084
 20
-751.65848399122842
 30
0.0
 41
1.0
 10
-895.19628394062534
 20
-751.71744770375267
 30
0.0
 41
1.0
 10
-895.21298445904995
 20
-751.7764114162768
 30
0.0
 41
1.0
 10
-895.34232852886453
 20
-752.23308026663085
 30
0.0
 41
0.9999625120734511
 10
-895.47956129618763
 20
-752.68744080062584
 30
0.0
 41
1.0
 10
-895.51535123927079
 20
-752.80593682725339
 30
0.0
 41
1.0
 10
-895.55114118235383
 20
-752.92443285388083
 30
0.0
 41
1.0
 10
-895.62566138639431
 20
-753.17115993198149
 30
0.0
 41
0.9999793386318646
 10
-895.70334740953263
 20
-753.41690857121944
 30
0.0
 41
1.0
 10
-895.78103343267014
 20
-753.66265721045556
 30
0.0
 41
1.0
 10
-895.79181299154084
 20
-753.69667511483021
 30
0.0
 41
1.0
 10
-897.64218604480993
 20
-759.58374703729771
 30
0.0
 41
1.0
 10
-899.49255909807914
 20
-765.47081895976521
 30
0.0
 41
1.0
 10
-900.4538157881027
 20
-765.47081895976521
 30
0.0
 41
1.0
 10
-901.41507247812626
 20
-765.47081895976521
 30
0.0
 41
1.0
 10
-899.79612769944788
 20
-760.32279045797577
 30
0.0
 41
1.0
 10
-898.17718292076938
 20
-755.17476195618633
 30
0.0
 41
1.0
 10
-898.13201709758937
 20
-755.03073073389828
 30
0.0
 41
1.0
 10
-898.08685127440947
 20
-754.88669951161035
 30
0.0
 41
1.0
 10
-897.9165468570518
 20
-754.34360848246388
 30
0.0
 41
0.9999911657929204
 10
-897.75081404537787
 20
-753.7991049511204
 30
0.0
 41
1.0
 10
-897.7211181018788
 20
-753.7015410110746
 30
0.0
 41
1.0
 10
-897.69142215837985
 20
-753.60397707102891
 30
0.0
 41
1.0
 10
-897.58508123369927
 20
-753.25460141976237
 30
0.0
 41
0.9999952428119016
 10
-897.48089764437259
 20
-752.90457639540716
 30
0.0
 41
1.0
 10
-897.47583817404052
 20
-752.88757812113317
 30
0.0
 41
1.0
 10
-897.47077870370833
 20
-752.87057984685907
 30
0.0
 41
1.0
 10
-897.37671405504591
 20
-752.55455137105162
 30
0.0
 41
0.9999931687527721
 10
-897.28498821717403
 20
-752.23783615778711
 30
0.0
 41
1.0
 10
-897.28005295271737
 20
-752.22079544852568
 30
0.0
 41
1.0
 10
-897.27511768826059
 20
-752.20375473926435
 30
0.0
 41
1.0
 10
-897.19326237930295
 20
-751.92112094452523
 30
0.0
 41
0.9999893840775385
 10
-897.11401515284354
 20
-751.63774481527003
 30
0.0
 41
1.0
 10
-897.0347679263831
 20
-751.35436868601084
 30
0.0
 41
0.9999833980080971
 10
-896.95879168564068
 20
-751.07009810297905
 30
0.0
 41
1.0
 10
-896.94978774892127
 20
-751.03640922451154
 30
0.0
 41
1.0
 10
-896.94078381220186
 20
-751.00272034604393
 30
0.0
 41
1.0
 10
-896.87181926333449
 20
-750.74468451374344
 30
0.0
 41
0.9999233658069552
 10
-896.8092642921132
 20
-750.48502035501701
 30
0.0
 41
1.0
 10
-896.74670932089293
 20
-750.22535619629457
 30
0.0
 41
1.0
 10
-896.70722590203536
 20
-750.06154953186842
 30
0.0
 41
1.0
 10
-896.70224729805591
 20
-750.04089456998918
 30
0.0
 41
1.0
 10
-896.69726869407657
 20
-750.02023960811005
 30
0.0
 41
1.0
 10
-896.66774248317506
 20
-749.89774286743113
 30
0.0
 41
0.9999868670839921
 10
-896.63947339918161
 20
-749.77494992179686
 30
0.0
 41
1.0
 10
-896.63557591202516
 20
-749.75802033438549
 30
0.0
 41
1.0
 10
-896.63167842486871
 20
-749.74109074697401
 30
0.0
 41
1.0
 10
-896.61120431518736
 20
-749.65215697615986
 30
0.0
 41
0.9999778173354095
 10
-896.59191671707003
 20
-749.56295835892092
 30
0.0
 41
1.0
 10
-896.57262911895248
 20
-749.47375974168074
 30
0.0
 41
0.9999602692860787
 10
-896.55493476031882
 20
-749.38423145323918
 30
0.0
 41
1.0
 10
-896.55173092824361
 20
-749.36802099836598
 30
0.0
 41
1.0
 10
-896.54852709616853
 20
-749.35181054349277
 30
0.0
 41
1.0
 10
-896.52442507338253
 20
-749.22986134529538
 30
0.0
 41
0.9995617985320099
 10
-896.50758172616395
 20
-749.10669959759002
 30
0.0
 41
1.0
 10
-896.50511723625777
 20
-749.08867878022488
 30
0.0
 41
1.0
 10
-896.5026527463516
 20
-749.07065796285963
 30
0.0
 41
1.0
 10
-896.48236948530325
 20
-748.92234291315799
 30
0.0
 41
0.9991121410639849
 10
-896.47464413171474
 20
-748.77284681435037
 30
0.0
 41
1.0
 10
-896.4737253416904
 20
-748.75506697777837
 30
0.0
 41
1.0
 10
-896.47280655166605
 20
-748.73728714120648
 30
0.0
 41
1.0
 10
-896.46691877812668
 20
-748.62335071554833
 30
0.0
 41
0.9989792494906172
 10
-896.47133787024381
 20
-748.50934787964582
 30
0.0
 41
1.0
 10
-896.47198584211242
 20
-748.49263163372052
 30
0.0
 41
1.0
 10
-896.47263381398091
 20
-748.47591538779523
 30
0.0
 41
1.0
 10
-896.47575696236106
 20
-748.39534504374933
 30
0.0
 41
0.9997820295393936
 10
-896.48224095973683
 20
-748.31497532200342
 30
0.0
 41
1.0
 10
-896.48872495711271
 20
-748.23460560025705
 30
0.0
 41
0.9998335105971959
 10
-896.49813715262485
 20
-748.15452598380443
 30
0.0
 41
1.0
 10
-896.49973207730091
 20
-748.14095625332379
 30
0.0
 41
1.0
 10
-896.50132700197696
 20
-748.12738652284327
 30
0.0
 41
1.0
 10
-896.51392904684099
 20
-748.02016744543016
 30
0.0
 41
0.9996876457879403
 10
-896.53187295963869
 20
-747.9137120177171
 30
0.0
 41
1.0
 10
-896.53410462278464
 20
-747.90047228247136
 30
0.0
 41
1.0
 10
-896.53633628593059
 20
-747.88723254722549
 30
0.0
 41
1.0
 10
-896.55013210735149
 20
-747.80538640326802
 30
0.0
 41
0.9995547496494971
 10
-896.56878542924392
 20
-747.72450890607797
 30
0.0
 41
1.0
 10
-896.56915938611519
 20
-747.72288749537302
 30
0.0
 41
1.0
 10
-896.56953334298635
 20
-747.72126608466806
 30
0.0
 41
1.0
 10
-896.58743875113635
 20
-747.64363140888747
 30
0.0
 41
0.9994899427175034
 10
-896.61026365981593
 20
-747.56729812605238
 30
0.0
 41
1.0
 10
-896.6107221865567
 20
-747.5657646762636
 30
0.0
 41
1.0
 10
-896.61118071329747
 20
-747.56423122647482
 30
0.0
 41
1.0
 10
-896.63308856849517
 20
-747.49096484321808
 30
0.0
 41
0.9993784877590799
 10
-896.6601042036018
 20
-747.41942413805896
 30
0.0
 41
1.0
 10
-896.66063589457849
 20
-747.41801615533882
 30
0.0
 41
1.0
 10
-896.66116758555529
 20
-747.41660817261868
 30
0.0
 41
1.0
 10
-896.68711983870844
 20
-747.34788343289983
 30
0.0
 41
0.9992430832254425
 10
-896.71833637386771
 20
-747.28138428083162
 30
0.0
 41
1.0
 10
-896.71891848992504
 20
-747.28014422571266
 30
0.0
 41
1.0
 10
-896.71950060598249
 20
-747.27890417059371
 30
0.0
 41
1.0
 10
-896.7495529090279
 20
-747.21488512876181
 30
0.0
 41
0.9990789632798439
 10
-896.7849835358038
 20
-747.15367851701376
 30
0.0
 41
1.0
 10
-896.78557924198503
 20
-747.15264943115585
 30
0.0
 41
1.0
 10
-896.78617494816626
 20
-747.15162034529794
 30
0.0
 41
1.0
 10
-896.82041416257994
 20
-747.09247190526503
 30
0.0
 41
0.998887480112144
 10
-896.86007343861252
 20
-747.03681219284624
 30
0.0
 41
1.0
 10
-896.86062896467752
 20
-747.03603254117058
 30
0.0
 41
1.0
 10
-896.8611844907424
 20
-747.03525288949493
 30
0.0
 41
1.0
 10
-896.89973271464544
 20
-746.98115248042734
 30
0.0
 41
0.9986762060692548
 10
-896.94363518592081
 20
-746.93129876598925
 30
0.0
 41
1.0
 10
-896.94407914625185
 20
-746.93079462417381
 30
0.0
 41
1.0
 10
-896.94452310658301
 20
-746.93029048235849
 30
0.0
 41
1.0
 10
-896.98753765719584
 20
-746.88144505155128
 30
0.0
 41
0.9984621642488532
 10
-897.0356952139748
 20
-746.83766175107894
 30
0.0
 41
1.0
 10
-897.03594184849169
 20
-746.83743751891518
 30
0.0
 41
1.0
 10
-897.03618848300857
 20
-746.83721328675142
 30
0.0
 41
1.0
 10
-897.08385277075274
 20
-746.79387845060762
 30
0.0
 41
0.9982724693850832
 10
-897.13627140259405
 20
-746.75643410009013
 30
0.0
 41
1.0
 10
-897.18869003443535
 20
-746.71898974957253
 30
0.0
 41
0.998139918015869
 10
-897.24527609782876
 20
-746.68820323012903
 30
0.0
 41
1.0
 10
-897.24532175990726
 20
-746.68817838697191
 30
0.0
 41
1.0
 10
-897.24536742198575
 20
-746.68815354381468
 30
0.0
 41
1.0
 10
-897.30204480953694
 20
-746.65731733805637
 30
0.0
 41
0.998092708683621
 10
-897.36209016060434
 20
-746.63370052920357
 30
0.0
 41
1.0
 10
-897.36253033031505
 20
-746.63352740332903
 30
0.0
 41
1.0
 10
-897.36297050002577
 20
-746.63335427745437
 30
0.0
 41
1.0
 10
-897.42389619051585
 20
-746.60939121685169
 30
0.0
 41
0.9981411356561605
 10
-897.48728471191555
 20
-746.59301857534615
 30
0.0
 41
1.0
 10
-897.48816682861661
 20
-746.59279073314076
 30
0.0
 41
1.0
 10
-897.48904894531779
 20
-746.59256289093537
 30
0.0
 41
1.0
 10
-897.55420170011973
 20
-746.57573456501893
 30
0.0
 41
0.9983031812935346
 10
-897.62086912911434
 20
-746.56659520384267
 30
0.0
 41
1.0
 10
-897.629740154518
 20
-746.56537908517134
 30
0.0
 41
1.0
 10
-897.63861117992155
 20
-746.56416296650013
 30
0.0
 41
1.0
 10
-897.6929608224259
 20
-746.55671223650904
 30
0.0
 41
0.9983887708263737
 10
-897.74780467171956
 20
-746.55546756287561
 30
0.0
 41
1.0
 10
-897.75586807693924
 20
-746.55528456500065
 30
0.0
 41
1.0
 10
-897.76393148215891
 20
-746.5551015671258
 30
0.0
 41
1.0
 10
-897.80264852101459
 20
-746.55422288924228
 30
0.0
 41
0.9998869563077556
 10
-897.84137447421506
 20
-746.55450875860197
 30
0.0
 41
1.0
 10
-897.88010042741428
 20
-746.55479462796166
 30
0.0
 41
0.9999972320049787
 10
-897.91882460662316
 20
-746.55526272749069
 30
0.0
 41
1.0
 10
-897.93817762320577
 20
-746.55549666758009
 30
0.0
 41
1.0
 10
-897.9575306397885
 20
-746.55573060766949
 30
0.0
 41
1.0
 10
-898.03496085216079
 20
-746.55666658737732
 30
0.0
 41
0.9997304945088055
 10
-898.11226415839997
 20
-746.56119568116355
 30
0.0
 41
1.0
 10
-898.1213138001026
 20
-746.56172588715344
 30
0.0
 41
1.0
 10
-898.13036344180534
 20
-746.56225609314322
 30
0.0
 41
1.0
 10
-898.22576603145114
 20
-746.56784559890912
 30
0.0
 41
0.999788830641581
 10
-898.320858367293
 20
-746.57735056339811
 30
0.0
 41
1.0
 10
-898.32957942886628
 20
-746.57822227803035
 30
0.0
 41
1.0
 10
-898.33830049043956
 20
-746.57909399266248
 30
0.0
 41
1.0
 10
-898.45083494942787
 20
-746.59034238641584
 30
0.0
 41
0.99841702381909
 10
-898.56139409677917
 20
-746.61415846835155
 30
0.0
 41
1.0
 10
-898.59777522776517
 20
-746.62199550415767
 30
0.0
 41
1.0
 10
-898.63415635875106
 20
-746.62983253996367
 30
0.0
 41
1.0
 10
-898.74934742717312
 20
-746.65464640647338
 30
0.0
 41
0.9976592854198957
 10
-898.86007559357836
 20
-746.69494508362061
 30
0.0
 41
1.0
 10
-898.9708037599836
 20
-746.73524376076784
 30
0.0
 41
0.9993255074352306
 10
-899.07827555877429
 20
-746.78356065926027
 30
0.0
 41
1.0
 10
-899.08290073769751
 20
-746.78564003545989
 30
0.0
 41
1.0
 10
-899.08752591662073
 20
-746.78771941165962
 30
0.0
 41
1.0
 10
-899.20424807325776
 20
-746.8401950625514
 30
0.0
 41
0.9976475078275237
 10
-899.31269541756797
 20
-746.90814305220954
 30
0.0
 41
1.0
 10
-899.3310378117028
 20
-746.91963553102414
 30
0.0
 41
1.0
 10
-899.34938020583752
 20
-746.93112800983863
 30
0.0
 41
1.0
 10
-899.43358239738916
 20
-746.98388513060672
 30
0.0
 41
0.9995131336406558
 10
-899.51433011234769
 20
-747.0417913425606
 30
0.0
 41
1.0
 10
-899.59507782730611
 20
-747.09969755451459
 30
0.0
 41
0.9995810107606195
 10
-899.67233947503621
 20
-747.16217923698161
 30
0.0
 41
1.0
 10
-899.67530950624518
 20
-747.16458110844519
 30
0.0
 41
1.0
 10
-899.67827953745405
 20
-747.16698297990877
 30
0.0
 41
1.0
 10
-899.76148124760255
 20
-747.2342684053034
 30
0.0
 41
0.9996617837955297
 10
-899.8410719347379
 20
-747.30578886086334
 30
0.0
 41
1.0
 10
-899.85320268561497
 20
-747.31668959385411
 30
0.0
 41
1.0
 10
-899.86533343649205
 20
-747.32759032684487
 30
0.0
 41
1.0
 10
-899.93360896388981
 20
-747.38894294231829
 30
0.0
 41
0.9997267750052297
 10
-899.99894247217344
 20
-747.45341947884356
 30
0.0
 41
1.0
 10
-900.06427598045684
 20
-747.51789601536848
 30
0.0
 41
0.9999667288962589
 10
-900.12854892360372
 20
-747.58342982226316
 30
0.0
 41
1.0
 10
-900.19737637137882
 20
-747.65360748102148
 30
0.0
 41
1.0
 10
-900.26620381915404
 20
-747.72378513977981
 30
0.0
 41
1.0
 10
-900.46813165785102
 20
-747.92967426419091
 30
0.0
 41
0.9988205335175234
 10
-900.64913727483076
 20
-748.1541784962518
 30
0.0
 41
1.0
 10
-900.67977723973524
 20
-748.1921817466814
 30
0.0
 41
1.0
 10
-900.71041720463973
 20
-748.23018499711111
 30
0.0
 41
1.0
 10
-900.95270275142866
 20
-748.53069573003154
 30
0.0
 41
0.9997077826754761
 10
-901.18018070253356
 20
-748.84256552424745
 30
0.0
 41
1.0
 10
-901.1819041176642
 20
-748.84492830762724
 30
0.0
 41
1.0
 10
-901.18362753279484
 20
-748.84729109100704
 30
0.0
 41
1.0
 10
-901.41455231416035
 20
-749.16388645198163
 30
0.0
 41
0.9989147567079021
 10
-901.61501581704374
 20
-749.50059591316608
 30
0.0
 41
1.0
 10
-901.6397569623507
 20
-749.54215249371839
 30
0.0
 41
1.0
 10
-901.66449810765755
 20
-749.5837090742707
 30
0.0
 41
1.0
 10
-901.81970940629571
 20
-749.84441045872484
 30
0.0
 41
0.9997476598182233
 10
-901.96305439380535
 20
-750.11182020730735
 30
0.0
 41
1.0
 10
-902.10639938131555
 20
-750.37922995589088
 30
0.0
 41
0.9996258967109333
 10
-902.23490763324776
 20
-750.65407789251606
 30
0.0
 41
1.0
 10
-902.24810754269629
 20
-750.68230929260926
 30
0.0
 41
1.0
 10
-902.26130745214482
 20
-750.71054069270258
 30
0.0
 41
1.0
 10
-902.40151617314507
 20
-751.01041309065647
 30
0.0
 41
0.9998735413945324
 10
-902.53211751986646
 20
-751.31459269012623
 30
0.0
 41
1.0
 10
-902.53556034792564
 20
-751.32261127558786
 30
0.0
 41
1.0
 10
-902.53900317598482
 20
-751.33062986104937
 30
0.0
 41
1.0
 10
-902.66271886658512
 20
-751.61877228958997
 30
0.0
 41
0.9999377418856653
 10
-902.77997366876161
 20
-751.90960375726888
 30
0.0
 41
1.0
 10
-902.89722847093628
 20
-752.20043522494393
 30
0.0
 41
0.9999508299505839
 10
-903.00869241431212
 20
-752.49353490176134
 30
0.0
 41
1.0
 10
-903.0117731829755
 20
-752.50163592772765
 30
0.0
 41
1.0
 10
-903.014853951639
 20
-752.50973695369396
 30
0.0
 41
1.0
 10
-903.13247943234342
 20
-752.81903868244808
 30
0.0
 41
0.9999609228441331
 10
-903.24461803522024
 20
-753.13037169847212
 30
0.0
 41
1.0
 10
-903.24757404556749
 20
-753.13857853887475
 30
0.0
 41
1.0
 10
-903.25053005591462
 20
-753.1467853792775
 30
0.0
 41
1.0
 10
-903.36858067948583
 20
-753.4745320761067
 30
0.0
 41
0.9999674607405009
 10
-903.48132820555327
 20
-753.80414069609878
 30
0.0
 41
1.0
 10
-903.53272659611821
 20
-753.95439989179795
 30
0.0
 41
1.0
 10
-903.58412498668315
 20
-754.10465908749711
 30
0.0
 41
1.0
 10
-903.70013559344011
 20
-754.44380706999732
 30
0.0
 41
0.9999287532308021
 10
-903.8080169974096
 20
-754.78562780896971
 30
0.0
 41
1.0
 10
-903.85449425352567
 20
-754.93289035326734
 30
0.0
 41
1.0
 10
-903.90097150964175
 20
-755.08015289756509
 30
0.0
 41
1.0
 10
-903.91589840136419
 20
-755.12744854789412
 30
0.0
 41
0.9999998223274201
 10
-903.93076891011083
 20
-755.17476195618633
 30
0.0
 41
1.0
 10
-905.55142504690627
 20
-760.32279045797577
 30
0.0
 41
1.0
 10
-907.17208118370172
 20
-765.47081895976521
 30
0.0
 41
1.0
 10
-908.07738962759265
 20
-765.47081895976521
 30
0.0
 41
1.0
 10
-908.98269807148358
 20
-765.47081895976521
 30
0.0
 41
1.0
 10
-907.13061366009754
 20
-759.58374703729771
 30
0.0
 41
1.0
 10
-905.27852924871149
 20
-753.69667511483021
 30
0.0
 41
1.0
 10
-905.26840749040878
 20
-753.66463190138052
 30
0.0
 41
1.0
 10
-905.19579982155904
 20
-753.43433235955467
 30
0.0
 41
1.0
 10
-905.12319215271009
 20
-753.20403281773122
 30
0.0
 41
0.9999825681968134
 10
-905.05330911349893
 20
-752.97289192266771
 30
0.0
 41
1.0
 10
-905.00501805133865
 20
-752.81316733917333
 30
0.0
 41
1.0
 10
-904.95672698917838
 20
-752.65344275567907
 30
0.0
 41
1.0
 10
-904.85957463586146
 20
-752.33210753390404
 30
0.0
 41
0.9999672528967927
 10
-904.76763583023694
 20
-752.00924198831387
 30
0.0
 41
1.0
 10
-904.76484694656813
 20
-751.99944814292724
 30
0.0
 41
1.0
 10
-904.76205806289931
 20
-751.9896542975406
 30
0.0
 41
1.0
 10
-904.6756970246139
 20
-751.68637644272849
 30
0.0
 41
0.9999899749167596
 10
-904.5920554150789
 20
-751.38233735427514
 30
0.0
 41
1.0
 10
-904.58194949606047
 20
-751.34560211659345
 30
0.0
 41
1.0
 10
-904.57184357704205
 20
-751.30886687891177
 30
0.0
 41
1.0
 10
-904.50841380554391
 20
-751.07829826582156
 30
0.0
 41
0.9999214200504217
 10
-904.45078437716643
 20
-750.8462119236134
 30
0.0
 41
1.0
 10
-904.43801852498518
 20
-750.7948010382147
 30
0.0
 41
1.0
 10
-904.42525267280405
 20
-750.74339015281589
 30
0.0
 41
1.0
 10
-904.39315494878861
 20
-750.61412558140319
 30
0.0
 41
0.9999828681666531
 10
-904.36257269679334
 20
-750.48449410693661
 30
0.0
 41
1.0
 10
-904.33199044479761
 20
-750.35486263246798
 30
0.0
 41
0.999938984447598
 10
-904.30427945600809
 20
-750.22458717656605
 30
0.0
 41
1.0
 10
-904.29714171228818
 20
-750.19103107273008
 30
0.0
 41
1.0
 10
-904.29000396856827
 20
-750.15747496889423
 30
0.0
 41
1.0
 10
-904.24801749233859
 20
-749.96008730531889
 30
0.0
 41
0.9998933699440664
 10
-904.21181322793609
 20
-749.76155769755928
 30
0.0
 41
1.0
 10
-904.21044040271988
 20
-749.75402967686341
 30
0.0
 41
1.0
 10
-904.20906757750367
 20
-749.74650165616754
 30
0.0
 41
1.0
 10
-904.17011766266842
 20
-749.53291600701425
 30
0.0
 41
0.9996850305193979
 10
-904.14193398640953
 20
-749.31764500157567
 30
0.0
 41
1.0
 10
-904.13993895304031
 20
-749.30240664745429
 30
0.0
 41
1.0
 10
-904.1379439196711
 20
-749.2871682933328
 30
0.0
 41
1.0
 10
-904.11053605721213
 20
-749.07782306617901
 30
0.0
 41
0.9994697936706809
 10
-904.0968114979928
 20
-748.86713787084989
 30
0.0
 41
1.0
 10
-904.09633442874292
 20
-748.8598143986369
 30
0.0
 41
1.0
 10
-904.09585735949315
 20
-748.85249092642391
 30
0.0
 41
1.0
 10
-904.08308693877302
 20
-748.65645267551736
 30
0.0
 41
0.9991804893136845
 10
-904.086215255046
 20
-748.4600238255457
 30
0.0
 41
1.0
 10
-904.08629913386812
 20
-748.45475702413387
 30
0.0
 41
1.0
 10
-904.08638301269025
 20
-748.44949022272192
 30
0.0
 41
1.0
 10
-904.08934357131875
 20
-748.26359497557303
 30
0.0
 41
0.9988448329321674
 10
-904.1101351169425
 20
-748.07884238573888
 30
0.0
 41
1.0
 10
-904.11172919064529
 20
-748.06467752996946
 30
0.0
 41
1.0
 10
-904.11332326434808
 20
-748.05051267420015
 30
0.0
 41
1.0
 10
-904.13092666256603
 20
-747.89408979590735
 30
0.0
 41
0.9985503209459197
 10
-904.16524293486577
 20
-747.74046561181626
 30
0.0
 41
1.0
 10
-904.1728289269372
 20
-747.70650528441558
 30
0.0
 41
1.0
 10
-904.18041491900851
 20
-747.67254495701491
 30
0.0
 41
1.0
 10
-904.19955920716552
 20
-747.58684142772654
 30
0.0
 41
0.9991036781370056
 10
-904.22588406881664
 20
-747.50306434040203
 30
0.0
 41
1.0
 10
-904.2298662942726
 20
-747.49039117789175
 30
0.0
 41
1.0
 10
-904.23384851972844
 20
-747.47771801538147
 30
0.0
 41
1.0
 10
-904.25220893046776
 20
-747.41928725307696
 30
0.0
 41
0.9998874504369116
 10
-904.27231413814616
 20
-747.36143365085377
 30
0.0
 41
1.0
 10
-904.29241934582399
 20
-747.30358004863228
 30
0.0
 41
0.9994041637544655
 10
-904.31646795875747
 20
-747.24725134474397
 30
0.0
 41
1.0
 10
-904.32066474298233
 20
-747.23742128026015
 30
0.0
 41
1.0
 10
-904.32486152720719
 20
-747.22759121577621
 30
0.0
 41
1.0
 10
-904.35274035820169
 20
-747.16229104980926
 30
0.0
 41
0.9991846840701886
 10
-904.38579671489458
 20
-747.0994530185294
 30
0.0
 41
1.0
 10
-904.38693332128878
 20
-747.09729240207639
 30
0.0
 41
1.0
 10
-904.38806992768286
 20
-747.09513178562327
 30
0.0
 41
1.0
 10
-904.41885307158691
 20
-747.03661498725069
 30
0.0
 41
0.9989253167923865
 10
-904.45492249564268
 20
-746.98120005885892
 30
0.0
 41
1.0
 10
-904.45597662031651
 20
-746.97958056409709
 30
0.0
 41
1.0
 10
-904.45703074499045
 20
-746.97796106933527
 30
0.0
 41
1.0
 10
-904.49099191969719
 20
-746.92578513046931
 30
0.0
 41
0.9986467172836738
 10
-904.53018907233491
 20
-746.87741909683916
 30
0.0
 41
1.0
 10
-904.53106320103643
 20
-746.87634049455994
 30
0.0
 41
1.0
 10
-904.53193732973796
 20
-746.87526189228072
 30
0.0
 41
1.0
 10
-904.56938622497319
 20
-746.82905306320856
 30
0.0
 41
0.9984001104267282
 10
-904.61181295548954
 20
-746.78736795584075
 30
0.0
 41
1.0
 10
-904.61240009359858
 20
-746.7867910809598
 30
0.0
 41
1.0
 10
-904.61298723170751
 20
-746.78621420607897
 30
0.0
 41
1.0
 10
-904.65423968600635
 20
-746.74568284847226
 30
0.0
 41
0.9982442159082919
 10
-904.69999578734223
 20
-746.71031428721176
 30
0.0
 41
1.0
 10
-904.70021058280406
 20
-746.71014825456859
 30
0.0
 41
1.0
 10
-904.70042537826589
 20
-746.70998222192532
 30
0.0
 41
1.0
 10
-904.74575188867789
 20
-746.6749457259516
 30
0.0
 41
0.9982450060836227
 10
-904.79490286774967
 20
-746.645513942918
 30
0.0
 41
1.0
 10
-904.84405384682179
 20
-746.61608215988429
 30
0.0
 41
0.9983922639634685
 10
-904.89622015298698
 20
-746.59240252523
 30
0.0
 41
1.0
 10
-904.89644703031104
 20
-746.59229953974875
 30
0.0
 41
1.0
 10
-904.8966739076352
 20
-746.5921965542675
 30
0.0
 41
1.0
 10
-904.94929396845043
 20
-746.56831094864992
 30
0.0
 41
0.9986517147149414
 10
-905.00410694132017
 20
-746.55000982952777
 30
0.0
 41
1.0
 10
-905.00478486274642
 20
-746.54978348309692
 30
0.0
 41
1.0
 10
-905.00546278417255
 20
-746.54955713666595
 30
0.0
 41
1.0
 10
-905.06163159989717
 20
-746.53080332468096
 30
0.0
 41
0.9989435598956161
 10
-905.11928498704992
 20
-746.51728562244625
 30
0.0
 41
1.0
 10
-905.12036510663052
 20
-746.51703237219351
 30
0.0
 41
1.0
 10
-905.12144522621111
 20
-746.51677912194077
 30
0.0
 41
1.0
 10
-905.18125885252573
 20
-746.50275491920024
 30
0.0
 41
0.9992249241240212
 10
-905.24199036142272
 20
-746.49347957648513
 30
0.0
 41
1.0
 10
-905.24340404971394
 20
-746.49326366807725
 30
0.0
 41
1.0
 10
-905.24481773800528
 20
-746.49304775966937
 30
0.0
 41
1.0
 10
-905.30837662348551
 20
-746.48334060013838
 30
0.0
 41
0.9994396597833578
 10
-905.37244256002327
 20
-746.47790767779259
 30
0.0
 41
1.0
 10
-905.39158322750029
 20
-746.47628451007404
 30
0.0
 41
1.0
 10
-905.41072389497731
 20
-746.47466134235549
 30
0.0
 41
1.0
 10
-905.51307116646888
 20
-746.4659820845726
 30
0.0
 41
0.9987693403121455
 10
-905.61577479005507
 20
-746.46748514802516
 30
0.0
 41
1.0
 10
-905.62602912428326
 20
-746.46763521979938
 30
0.0
 41
1.0
 10
-905.63628345851146
 20
-746.46778529157359
 30
0.0
 41
1.0
 10
-905.74583922469026
 20
-746.46938863586092
 30
0.0
 41
0.9989753644966175
 10
-905.85480122470676
 20
-746.4808916427861
 30
0.0
 41
1.0
 10
-905.96376322472315
 20
-746.49239464971129
 30
0.0
 41
0.9983190067306091
 10
-906.0706620356882
 20
-746.51642964149801
 30
0.0
 41
1.0
 10
-906.07956298729493
 20
-746.51843092006072
 30
0.0
 41
1.0
 10
-906.08846393890167
 20
-746.52043219862344
 30
0.0
 41
1.0
 10
-906.2131646530803
 20
-746.54846974753559
 30
0.0
 41
0.9985539388302747
 10
-906.33413440675793
 20
-746.58973342358115
 30
0.0
 41
1.0
 10
-906.33647983771834
 20
-746.59053346739699
 30
0.0
 41
1.0
 10
-906.33882526867865
 20
-746.59133351121284
 30
0.0
 41
1.0
 10
-906.46448588427722
 20
-746.63419727489008
 30
0.0
 41
0.9988468746493546
 10
-906.58545622657743
 20
-746.68891535995249
 30
0.0
 41
1.0
 10
-906.58863904856617
 20
-746.69035503451244
 30
0.0
 41
1.0
 10
-906.5918218705549
 20
-746.69179470907238
 30
0.0
 41
1.0
 10
-906.71915785683291
 20
-746.74939214325479
 30
0.0
 41
0.9991322885918997
 10
-906.84125844089021
 20
-746.81738747543693
 30
0.0
 41
1.0
 10
-906.85886045193411
 20
-746.82718967742676
 30
0.0
 41
1.0
 10
-906.87646246297788
 20
-746.83699187941647
 30
0.0
 41
1.0
 10
-906.97863914403445
 20
-746.89389199519678
 30
0.0
 41
0.9993860037849465
 10
-907.07658014810784
 20
-746.95780801078536
 30
0.0
 41
1.0
 10
-907.08219846095881
 20
-746.96147450547937
 30
0.0
 41
1.0
 10
-907.08781677380989
 20
-746.9651410001735
 30
0.0
 41
1.0
 10
-907.17452115218009
 20
-747.02172402637314
 30
0.0
 41
0.9998821494952954
 10
-907.2594475279941
 20
-747.08094225645061
 30
0.0
 41
1.0
 10
-907.34437390380663
 20
-747.14016048652729
 30
0.0
 41
0.99979764827442
 10
-907.42684953421031
 20
-747.20274689456892
 30
0.0
 41
1.0
 10
-907.44148579901525
 20
-747.21385358434884
 30
0.0
 41
1.0
 10
-907.45612206382032
 20
-747.22496027412876
 30
0.0
 41
1.0
 10
-907.56787022383321
 20
-747.30976006172978
 30
0.0
 41
0.9998091630800232
 10
-907.67622050185992
 20
-747.39886041243028
 30
0.0
 41
1.0
 10
-907.689226254338
 20
-747.40955551287698
 30
0.0
 41
1.0
 10
-907.70223200681608
 20
-747.42025061332367
 30
0.0
 41
1.0
 10
-907.83659378979837
 20
-747.53074116491723
 30
0.0
 41
0.9995035112317009
 10
-907.96372966756189
 20
-747.64947498193214
 30
0.0
 41
1.0
 10
-907.97337697794956
 20
-747.65848472809046
 30
0.0
 41
1.0
 10
-907.98302428833733
 20
-747.66749447424877
 30
0.0
 41
1.0
 10
-908.10644735110179
 20
-747.78276084600384
 30
0.0
 41
0.9994630424299047
 10
-908.22205575688554
 20
-747.90586358923883
 30
0.0
 41
1.0
 10
-908.22573859565705
 20
-747.90978516875202
 30
0.0
 41
1.0
 10
-908.22942143442867
 20
-747.9137067482651
 30
0.0
 41
1.0
 10
-908.3376641626694
 20
-748.02896633247383
 30
0.0
 41
0.9995160693750513
 10
-908.43853019220148
 20
-748.1507337503466
 30
0.0
 41
1.0
 10
-908.44046391228187
 20
-748.15306817455439
 30
0.0
 41
1.0
 10
-908.44239763236226
 20
-748.15540259876207
 30
0.0
 41
1.0
 10
-908.53939622173368
 20
-748.27250116821949
 30
0.0
 41
0.9996561470514384
 10
-908.6301224403993
 20
-748.39452393066836
 30
0.0
 41
1.0
 10
-908.63628010629907
 20
-748.40280571970766
 30
0.0
 41
1.0
 10
-908.64243777219883
 20
-748.41108750874707
 30
0.0
 41
1.0
 10
-908.72084865906345
 20
-748.51654669311529
 30
0.0
 41
0.999834905517376
 10
-908.79537594099747
 20
-748.62478527678093
 30
0.0
 41
1.0
 10
-908.86990322293036
 20
-748.73302386044543
 30
0.0
 41
0.9999728109559642
 10
-908.94282611883955
 20
-748.84234978599909
 30
0.0
 41
1.0
 10
-908.94414133425141
 20
-748.84432155550189
 30
0.0
 41
1.0
 10
-908.94545654966328
 20
-748.84629332500458
 30
0.0
 41
1.0
 10
-909.02100987640574
 20
-748.95956278957806
 30
0.0
 41
0.9999972147381004
 10
-909.09602768678474
 20
-749.07318763242154
 30
0.0
 41
1.0
 10
-909.10099922940026
 20
-749.0807177208834
 30
0.0
 41
1.0
 10
-909.10597077201567
 20
-749.08824780934526
 30
0.0
 41
1.0
 10
-909.19093166763514
 20
-749.21693282912679
 30
0.0
 41
0.9999371979006425
 10
-909.27298701703899
 20
-749.34748974290369
 30
0.0
 41
1.0
 10
-909.27649590140084
 20
-749.3530726709688
 30
0.0
 41
1.0
 10
-909.28000478576269
 20
-749.35865559903391
 30
0.0
 41
1.0
 10
-909.36907790389159
 20
-749.50037836894307
 30
0.0
 41
0.9998272025611323
 10
-909.45282129477437
 20
-749.64531424568656
 30
0.0
 41
1.0
 10
-909.46803646679791
 20
-749.6716473601424
 30
0.0
 41
1.0
 10
-909.48325163882146
 20
-749.69798047459824
 30
0.0
 41
1.0
 10
-909.59742537375189
 20
-749.89558258025454
 30
0.0
 41
0.9995217214838347
 10
-909.69916506330765
 20
-750.09986490811707
 30
0.0
 41
1.0
 10
-909.7068086259427
 20
-750.11521235781993
 30
0.0
 41
1.0
 10
-909.71445218857775
 20
-750.1305598075229
 30
0.0
 41
1.0
 10
-909.80135748116697
 20
-750.30505626560353
 30
0.0
 41
0.9998269762609023
 10
-909.88171194743904
 20
-750.48266455232692
 30
0.0
 41
1.0
 10
-909.96206641371248
 20
-750.66027283905328
 30
0.0
 41
0.9998944747388017
 10
-910.03722720827852
 20
-750.84014056468607
 30
0.0
 41
1.0
 10
-910.04218087786694
 20
-750.85199521959703
 30
0.0
 41
1.0
 10
-910.04713454745547
 20
-750.86384987450811
 30
0.0
 41
1.0
 10
-910.12778160800963
 20
-751.05684681452976
 30
0.0
 41
0.9999506734407445
 10
-910.20457913691484
 20
-751.25140761938985
 30
0.0
 41
1.0
 10
-910.21917910217849
 20
-751.28839554117735
 30
0.0
 41
1.0
 10
-910.23377906744213
 20
-751.32538346296485
 30
0.0
 41
1.0
 10
-910.28137666581347
 20
-751.44596842423334
 30
0.0
 41
0.9999912393938333
 10
-910.32796310984099
 20
-751.56694762694178
 30
0.0
 41
1.0
 10
-910.37454955386875
 20
-751.68792682965159
 30
0.0
 41
0.99999271139429
 10
-910.4202108482674
 20
-751.80925823716541
 30
0.0
 41
1.0
 10
-910.43417927966016
 20
-751.84637521915147
 30
0.0
 41
1.0
 10
-910.44814771105302
 20
-751.88349220113741
 30
0.0
 41
1.0
 10
-910.52174586824344
 20
-752.07905757263916
 30
0.0
 41
0.9999487550953767
 10
-910.59136949321532
 20
-752.27607293782228
 30
0.0
 41
1.0
 10
-910.61496310315533
 20
-752.34283624812372
 30
0.0
 41
1.0
 10
-910.63855671309523
 20
-752.40959955842516
 30
0.0
 41
1.0
 10
-910.73324234746156
 20
-752.67753339323826
 30
0.0
 41
0.9999808436944431
 10
-910.82460393610017
 20
-752.94661882449464
 30
0.0
 41
1.0
 10
-910.91596552474039
 20
-753.21570425575533
 30
0.0
 41
0.9999873932918656
 10
-911.00462023345756
 20
-753.48569361076625
 30
0.0
 41
1.0
 10
-911.02471259032791
 20
-753.54688294352229
 30
0.0
 41
1.0
 10
-911.04480494719837
 20
-753.60807227627834
 30
0.0
 41
1.0
 10
-911.17364436965249
 20
-754.00044029678907
 30
0.0
 41
0.9999794883041351
 10
-911.2974471546097
 20
-754.39442650306364
 30
0.0
 41
1.0
 10
-911.30859941403742
 20
-754.42991711326977
 30
0.0
 41
1.0
 10
-911.31975167346525
 20
-754.46540772347578
 30
0.0
 41
1.0
 10
-911.46230983736996
 20
-754.91908047558582
 30
0.0
 41
0.9999982761698107
 10
-911.60318227740095
 20
-755.37327949775863
 30
0.0
 41
1.0
 10
-913.19132260997355
 20
-760.42204922876192
 30
0.0
 41
1.0
 10
-914.77946294254616
 20
-765.47081895976521
 30
0.0
 41
1.0
 10
-915.72821355402255
 20
-765.47081895976521
 30
0.0
 41
1.0
 10
-916.67696416549893
 20
-765.47081895976521
 30
0.0
 41
1.0
 10
-913.4386796793458
 20
-755.14349675981907
 30
0.0
 41
1.0
 10
-910.20039519319255
 20
-744.81617455987293
 30
0.0
 41
1.0
  0
LWPOLYLINE
  5
5A
100
AcDbEntity
  8
0
370
              15
390
0
  6
Continuous
 62
               7
100
AcDbPolyline
 90
      232
 70
             128
 10
-935.90394096701959
 20
-745.90051739138812
 42
0.0004370800693387
 10
-935.95681814111424
 20
-745.96918403067366
 10
-935.99610237221907
 20
-746.02029114354093
 42
0.0030481992177242
 10
-936.1264410893499
 20
-746.19201283590075
 10
-936.16495276108867
 20
-746.24339961967326
 42
0.0042058245758737
 10
-936.368937811764
 20
-746.52040536475454
 10
-936.4213429342592
 20
-746.59283821152769
 42
0.0120948898742205
 10
-936.71738685102025
 20
-747.02358781607631
 10
-936.81357935014228
 20
-747.17106855130123
 42
0.0141601263948097
 10
-937.11722339706455
 20
-747.66673788803701
 10
-937.15676066449396
 20
-747.73558185547483
 42
0.0071131081303174
 10
-937.36203298772898
 20
-748.10508465430689
 42
0.0068458791003285
 10
-937.55691251457301
 20
-748.4801762177849
 10
-937.56372437702976
 20
-748.49373793150664
 42
0.0064120880291323
 10
-937.76186662707596
 20
-748.90116240642965
 10
-937.76940131259107
 20
-748.91717426314676
 42
0.0058857236448778
 10
-937.97215670446371
 20
-749.36155037418382
 10
-937.98033163075672
 20
-749.38004052781571
 42
0.005318974189587
 10
-938.1890359434268
 20
-749.86600400173973
 10
-938.19778374910561
 20
-749.88698587992974
 42
0.0047503650419208
 10
-938.41375747526104
 20
-750.41918531315105
 10
-938.4230257236045
 20
-750.4426616892473
 42
0.0042071762172413
 10
-938.64757310733592
 20
-751.02575528332682
 10
-938.65732250968085
 20
-751.05172145818676
 42
0.0036680086483993
 10
-938.89177715299593
 20
-751.69035684272626
 10
-938.90198493284072
 20
-751.71880537706249
 42
0.0032573142628339
 10
-939.14761721880757
 20
-752.41765803681653
 10
-939.21626773965022
 20
-752.61712112087525
 42
0.0026133366649616
 10
-939.56471293840605
 20
-753.64698440454072
 10
-939.62796972589206
 20
-753.83721523988959
 42
0.0020592950739834
 10
-939.84183279487388
 20
-754.48931889254686
 10
-939.8448845860338
 20
-754.4987553809467
 42
0.0025609928534253
 10
-940.04670508752281
 20
-755.13390060332245
 10
-940.04929645464881
 20
-755.14220294426059
 42
0.0031362356240871
 10
-940.23878724032647
 20
-755.76296580044254
 10
-940.24091828325402
 20
-755.77010710665388
 42
0.0037229918028166
 10
-940.41771867018019
 20
-756.3790924086278
 10
-940.41939725938767
 20
-756.38503929880596
 42
0.004307762370804
 10
-940.58313806145168
 20
-756.98485803057122
 42
0.0047654161824054
 10
-940.73596678396336
 20
-757.58754411945608
 10
-940.77043139280681
 20
-757.72910589662331
 42
0.0112969368445897
 10
-940.96629575095074
 20
-758.62079805724954
 10
-940.99430214004701
 20
-758.76362610334536
 42
0.0130056762571077
 10
-941.19513938369369
 20
-759.95056717499028
 10
-941.21567913384115
 20
-760.09464528847013
 42
0.0138721532145171
 10
-941.31938213837861
 20
-761.001474774293
 10
-941.33867762628688
 20
-761.22497249622313
 42
0.007125469701019
 10
-941.37202427220905
 20
-761.6881595050653
 10
-941.37698524637199
 20
-761.77416349961993
 42
0.0028881799201948
 10
-941.39212353966218
 20
-762.06590520946804
 42
0.0060297297134594
 10
-941.40205573943763
 20
-762.35785414557881
 10
-941.40311802110489
 20
-762.40624651751659
 42
0.0229523164155143
 10
-941.39538699331911
 20
-762.72900136379951
 10
-941.39116121979885
 20
-762.78940489781473
 42
0.0123673300667691
 10
-941.37208257328041
 20
-762.9905256229905
 42
0.0128577674472822
 10
-941.34288718287485
 20
-763.19042347291281
 10
-941.33576130948711
 20
-763.23175228751427
 42
0.0285717853767686
 10
-941.2712673077915
 20
-763.50986843882708
 10
-941.25759878412498
 20
-763.55652320830472
 42
0.0316283099158347
 10
-941.1417882042108
 20
-763.87553771013063
 10
-941.13873951245546
 20
-763.8825240824558
 42
0.0338984824235653
 10
-940.98930780148805
 20
-764.17009004664533
 10
-940.98699907211858
 20
-764.17388107592069
 42
0.0350228718353148
 10
-940.80463878144462
 20
-764.43093306059814
 10
-940.80375352966928
 20
-764.43201213836267
 42
0.0347476747528622
 10
-940.5893288424295
 20
-764.65919718558223
 42
0.0331337701912543
 10
-940.34608551668282
 20
-764.85532584765986
 10
-940.34498541816697
 20
-764.85609855083214
 42
0.030523331908283
 10
-940.07644072259325
 20
-765.02122672092366
 10
-940.07321067809244
 20
-765.02295073278617
 42
0.0273744481152234
 10
-939.78065696651902
 20
-765.15908887667626
 10
-939.77555243138056
 20
-765.16113246114628
 42
0.0240964406197725
 10
-939.46007535573267
 20
-765.27011618742824
 10
-939.45349202652483
 20
-765.27204092710269
 42
0.0209636179813386
 10
-939.11609187387103
 20
-765.355509075035
 10
-939.10845941342359
 20
-765.35706098803621
 42
0.018138870469238
 10
-938.75013702142382
 20
-765.41647708125038
 10
-938.74185617304693
 20
-765.41754326506725
 42
0.0156086547587648
 10
-938.36366880885578
 20
-765.45427945164408
 10
-938.32047355652946
 20
-765.45711795412296
 42
0.0137148329023304
 10
-937.99280041123222
 20
-765.46963820937424
 10
-937.94686422129564
 20
-765.47013264248938
 42
0.005105782388483
 10
-937.710718634714
 20
-765.47026289689859
 42
0.0052256693310835
 10
-937.47462135093303
 20
-765.46551407243442
 10
-937.40439456718593
 20
-765.46336710642026
 42
0.0161507179050035
 10
-937.02865748908141
 20
-765.43971673609337
 10
-937.00864452871156
 20
-765.43780654080615
 42
0.0101216737833357
 10
-936.59461730722262
 20
-765.3898136104408
 10
-936.56056401779415
 20
-765.385165913631
 42
0.0245291776398657
 10
-936.08377436224225
 20
-765.29609083555454
 10
-935.99895104671714
 20
-765.27589491520848
 42
0.0143509212558688
 10
-935.64231994277941
 20
-765.18009028143013
 42
0.0156557857039364
 10
-935.29210387805142
 20
-765.06307906561108
 10
-935.28460266355751
 20
-765.06030890385716
 42
0.0170137333629619
 10
-934.92800666787434
 20
-764.91465128898528
 10
-934.92090274546865
 20
-764.91146345342236
 42
0.0183105364408568
 10
-934.56155307730478
 20
-764.73412841159939
 10
-934.55460631266362
 20
-764.73037797672589
 42
0.0194899958151279
 10
-934.19612557167977
 20
-764.51839899483514
 10
-934.18911169234298
 20
-764.51387365254016
 42
0.0204869852951642
 10
-933.83509739024817
 20
-764.26435363745361
 10
-933.82783178166198
 20
-764.25877357210595
 42
0.0212516938555648
 10
-933.48184185055459
 20
-763.96886957521201
 10
-933.43532515647769
 20
-763.92640226511708
 42
0.0215248918252159
 10
-933.17529898759062
 20
-763.66763798612317
 10
-933.13026925320946
 20
-763.61879386477278
 42
0.0114578554956957
 10
-932.97547709953278
 20
-763.44297093131502
 10
-932.96428256354909
 20
-763.42965216777304
 42
0.0061531305134595
 10
-932.83780791755169
 20
-763.27536263446393
 42
0.0006325587121836
 10
-932.71342943340574
 20
-763.11935925879538
 10
-932.69038929834846
 20
-763.09038573812882
 42
0.0041897761555498
 10
-932.52193389437468
 20
-762.87486636206575
 10
-932.46347177448354
 20
-762.79876501508181
 42
0.009299388003738
 10
-932.18685984725789
 20
-762.42448625119516
 10
-932.10446535406072
 20
-762.308549247629
 42
0.0159321727086396
 10
-931.75785887141853
 20
-761.7863750268732
 10
-931.71350273602945
 20
-761.71469546262313
 42
0.0085547317022348
 10
-931.47899097070376
 20
-761.32082051339853
 42
0.0084601156890141
 10
-931.25801479326174
 20
-760.91919366436662
 10
-931.24989931943128
 20
-760.90383398209337
 42
0.0081429654285103
 10
-931.02665004899404
 20
-760.46411246955313
 10
-931.01778988480976
 20
-760.44593362753324
 42
0.0076574581328541
 10
-930.7913823742432
 20
-759.96275075228073
 10
-930.78190273351936
 20
-759.9416862739771
 42
0.0070682724201955
 10
-930.55145782571208
 20
-759.40964896919468
 10
-930.54146754173087
 20
-759.38565978018426
 42
0.0064559514446985
 10
-930.30613433355018
 20
-758.79934751366761
 10
-930.29572497538425
 20
-758.77241258822312
 42
0.0058311413906422
 10
-930.05467823862227
 20
-758.12638049384168
 10
-930.04392316123392
 20
-758.09649615267892
 42
0.0052312425819734
 10
-929.79634188318994
 20
-757.385293738835
 10
-929.7852980468133
 20
-757.35246702677466
 42
0.004668054479592
 10
-929.53036961908435
 20
-756.5706407110373
 10
-929.48837746903519
 20
-756.43765747372765
 42
0.0041666856444407
 10
-929.2850914566402
 20
-755.77468869872223
 10
-929.24742901596562
 20
-755.64810759103227
 42
0.0015170975156955
 10
-929.12624243756341
 20
-755.23623923957484
 42
-0.0004887993114614
 10
-929.00590266445511
 20
-754.82412082758356
 10
-928.92942540694526
 20
-754.56316344159177
 42
0.0002583378928925
 10
-928.65621083680196
 20
-753.62910673814201
 10
-928.57443798728389
 20
-753.3490074787594
 42
0.0006636169673616
 10
-928.38057022729299
 20
-752.68165455524263
 10
-928.37547357295216
 20
-752.66402297238426
 42
0.0010589131322279
 10
-928.19402487202933
 20
-752.03129162931373
 10
-928.1890428015455
 20
-752.01377872228215
 42
0.001565552446104
 10
-928.02077259436601
 20
-751.41516204309278
 10
-928.01594239395411
 20
-751.39776988416793
 42
0.0021640440477607
 10
-927.86165242196512
 20
-750.8327428661388
 10
-927.85701820253178
 20
-750.81547813613236
 42
0.002876387185275
 10
-927.71750248448211
 20
-750.28351018529793
 10
-927.71311662031246
 20
-750.26638620713413
 42
0.0037310511945435
 10
-927.58915992847801
 20
-749.76693861311958
 10
-927.58508470819061
 20
-749.74997834188059
 42
0.0047652197770007
 10
-927.47746080768059
 20
-749.282500573569
 10
-927.47377020835677
 20
-749.26574101841663
 42
0.0060276699302955
 10
-927.3832401092036
 20
-748.82966522327479
 10
-927.38002141891297
 20
-748.81316400895821
 42
0.0075824337758903
 10
-927.30733210949893
 20
-748.40789684453944
 10
-927.3046867321176
 20
-748.39174189708251
 42
0.00951306246098
 10
-927.25057149648751
 20
-748.01665254401712
 10
-927.24358527260506
 20
-747.96071898590151
 42
0.0121054653228394
 10
-927.21699394202699
 20
-747.69582315742673
 10
-927.21612745226685
 20
-747.68441971448976
 42
0.0069050827387334
 10
-927.20103863422969
 20
-747.4414784876534
 10
-927.19990333456042
 20
-747.41795223059341
 42
0.0169063976711779
 10
-927.19707605558096
 20
-747.22175950330791
 10
-927.19824670711216
 20
-747.16142374195988
 42
0.0052007732899225
 10
-927.20050015570519
 20
-747.08583035180664
 42
0.0054038123296391
 10
-927.22046366754489
 20
-746.96581205579139
 10
-927.22554952341443
 20
-746.93715356921552
 42
0.0112050460465247
 10
-927.26093388547406
 20
-746.76082713087169
 10
-927.2787588475137
 20
-746.68128554415568
 42
0.0240764468013274
 10
-927.3696562136613
 20
-746.35104850865002
 10
-927.38821497647359
 20
-746.29442834365977
 42
0.025681233183644
 10
-927.53157789666284
 20
-745.92270413740334
 10
-927.53698732248495
 20
-745.91057280241205
 42
0.0268360501218249
 10
-927.70641456333408
 20
-745.57957966839263
 10
-927.71195097096791
 20
-745.57005999808234
 42
0.0274670231726276
 10
-927.90415194738239
 20
-745.27777262316306
 10
-927.90953324734608
 20
-745.27049347562024
 42
0.0275035967101548
 10
-928.12110612690685
 20
-745.01497758531764
 10
-928.12617562787318
 20
-745.00949849768733
 42
0.026955767352359
 10
-928.35357917131296
 20
-744.78885621172492
 10
-928.35832222909335
 20
-744.78472625726602
 42
0.0259124802204829
 10
-928.59787706052634
 20
-744.59703573011177
 10
-928.6024079057056
 20
-744.59385022778338
 42
0.0245162153000642
 10
-928.85032425880308
 20
-744.43711721867101
 10
-928.85485080512831
 20
-744.43455702146957
 42
0.0229282588839679
 10
-929.10727036195465
 20
-744.30668882897123
 10
-929.11205085579127
 20
-744.30453652920926
 42
0.0212984135695562
 10
-929.36508880825318
 20
-744.20333761196696
 10
-929.37039309321938
 20
-744.20147404920817
 42
0.0197555462342081
 10
-929.62017143094567
 20
-744.12465863124214
 42
0.0183511896789358
 10
-929.87510015641055
 20
-744.06707572427638
 10
-929.96146535313062
 20
-744.05087293389181
 42
0.0338057877145797
 10
-930.2469727023921
 20
-744.01706452875135
 10
-930.33797810743465
 20
-744.01248487348983
 42
0.009199052449329
 10
-930.44382521606803
 20
-744.00910901756788
 42
0.0028333980779417
 10
-930.54973913206595
 20
-744.0082809100511
 10
-930.55065458511035
 20
-744.00827894022711
 42
-0.0023619827804393
 10
-930.65840060022958
 20
-744.00753809914841
 10
-930.69480577039212
 20
-744.00711579268557
 42
0.0008824598478457
 10
-930.87536176023798
 20
-744.00534001444737
 10
-930.91922319264791
 20
-744.00498605292171
 42
0.0038132665770348
 10
-931.1875060885319
 20
-744.00486711685517
 10
-931.20403974332021
 20
-744.00498588299865
 42
0.0060665569334962
 10
-931.50532023490803
 20
-744.0108061824194
 10
-931.51957056693686
 20
-744.01125449038705
 42
0.0080356953338225
 10
-931.8490292832804
 20
-744.02692221245422
 10
-931.86109929836334
 20
-744.02769079539439
 42
0.0098996399106198
 10
-932.21386238301216
 20
-744.05717602459242
 10
-932.22390809238891
 20
-744.05821632079073
 42
0.0117740981368712
 10
-932.59506495073879
 20
-744.10550856832083
 10
-932.60328764722021
 20
-744.10675368489137
 42
0.0137435215134898
 10
-932.98787646670462
 20
-744.17585065845287
 10
-932.99453350582871
 20
-744.1772365546866
 42
0.0158359869385129
 10
-933.38753059963062
 20
-744.27212864316721
 10
-933.39294378649834
 20
-744.27361858403788
 42
0.0180554124027165
 10
-933.78925883111071
 20
-744.39825660027657
 10
-933.79381561919411
 20
-744.39987263654291
 42
0.0203657431283836
 10
-934.18829313700701
 20
-744.55813297805923
 10
-934.19243667601279
 20
-744.55999459950056
 42
0.0226819684655562
 10
-934.5798727322167
 20
-744.75563717817181
 10
-934.58407252323457
 20
-744.75800277009137
 42
0.0248634984605303
 10
-934.95925446441549
 20
-744.99462941603838
 10
-935.00744939319827
 20
-745.02848645786321
 42
0.0267044190884216
 10
-935.28174209011627
 20
-745.24392683373242
 42
0.013930300220094
 10
-935.53790925605745
 20
-745.48116567464683
 10
-935.54276264177599
 20
-745.48591833750447
 42
0.0283460963442924
 10
-935.78683523600364
 20
-745.75364899794999
 10
-935.82650374115974
 20
-745.80245057542265
 42
0.0070695364822888
 10
-935.90394096701959
 20
-745.90051739138812
 42
0.0070695364822888
  0
LWPOLYLINE
  5
5B
100
AcDbEntity
  8
0
370
              15
390
0
  6
Continuous
 62
               7
100
AcDbPolyline
 90
      226
 70
             128
 10
-939.43276140426599
 20
-761.62210619757207
 42
-0.0026277636648938
 10
-939.43283928806602
 20
-761.55533427186515
 10
-939.432621929834
 20
-761.50217905438592
 42
-0.0088680296727734
 10
-939.42884531354093
 20
-761.32916327198188
 10
-939.42649895442855
 20
-761.26988324652928
 42
-0.007738170561615
 10
-939.41045284366555
 20
-760.97862275073408
 10
-939.40958493249229
 20
-760.96633451704599
 42
-0.0068872530534132
 10
-939.38295285274501
 20
-760.6511127649859
 10
-939.38174862855806
 20
-760.63887178595826
 42
-0.0062130021484706
 10
-939.34415491172945
 20
-760.30000209471268
 10
-939.34265100819516
 20
-760.28782822280323
 42
-0.0056726929669767
 10
-939.29372914869418
 20
-759.92563300069924
 10
-939.29195570304842
 20
-759.91353920044446
 42
-0.0052341884491056
 10
-939.23134511678609
 20
-759.52834594491208
 10
-939.22932712801185
 20
-759.51634101493414
 42
-0.0049768450168424
 10
-939.15658844658594
 20
-759.10849644750419
 10
-939.13233943186367
 20
-758.97994846449558
 42
-0.0089029805625414
 10
-938.99525858006973
 20
-758.31817301707667
 10
-938.96251320475039
 20
-758.17314158654972
 42
-0.0080318257099782
 10
-938.73296459041092
 20
-757.22743195470071
 10
-938.72097966396143
 20
-757.18130131950591
 42
-0.007426572131874
 10
-938.43696812511064
 20
-756.15123674112272
 10
-938.41708858199388
 20
-756.08310268053299
 42
-0.0069711922703091
 10
-938.08978400348815
 20
-755.01683494020801
 10
-938.02983205638657
 20
-754.83081358184961
 42
-0.0052070422894611
 10
-937.80040683112338
 20
-754.14354150480608
 10
-937.78312563894485
 20
-754.09351422417069
 42
-0.0009167004448015
 10
-937.58003375166163
 20
-753.50905837603489
 42
-0.0025162726944648
 10
-937.37293612139933
 20
-752.92601711187297
 10
-937.33571150958483
 20
-752.82286756594237
 42
-0.0028212681457558
 10
-937.08753559063052
 20
-752.14713693379588
 10
-937.07770482786646
 20
-752.12082948908323
 42
-0.0031964916820351
 10
-936.84141257021759
 20
-751.5006247269921
 10
-936.83177811622727
 20
-751.47581473687114
 42
-0.0036281836453342
 10
-936.60667215511739
 20
-750.90837405595573
 10
-936.59723374495775
 20
-750.88507662444761
 42
-0.0041269166832564
 10
-936.38261604830075
 20
-750.36763572847462
 10
-936.3499830918804
 20
-750.29075728211455
 42
-0.0047472213056871
 10
-936.19293828632635
 20
-749.93033581423015
 10
-936.18604420512338
 20
-749.91491521691
 42
-0.0025651659997857
 10
-936.03768617126798
 20
-749.58758716114971
 42
-0.0057144634994186
 10
-935.88393647749615
 20
-749.26277748778614
 10
-935.85590577209643
 20
-749.20526910539502
 42
-0.0065388068374062
 10
-935.67243874435565
 20
-748.84103660872802
 10
-935.66398028857725
 20
-748.82477702935887
 42
-0.0074510843025542
 10
-935.4877980426993
 20
-748.49808874823577
 10
-935.47961837216792
 20
-748.48344797096627
 42
-0.0084648979859945
 10
-935.30998451906817
 20
-748.1915389600058
 10
-935.30212839257808
 20
-748.17853196835165
 42
-0.0095638542804818
 10
-935.13829294498589
 20
-747.9186430963764
 10
-935.13081800131545
 20
-747.90727373492291
 42
-0.0107191626806325
 10
-934.97201642092659
 20
-747.67666250037689
 10
-934.96499968719547
 20
-747.66692640801227
 42
-0.0118458573904209
 10
-934.81045158868301
 20
-747.46285421270159
 42
-0.01291845181887
 10
-934.64599896507775
 20
-747.266693696527
 10
-934.61585419271591
 20
-747.23256761762889
 42
-0.0217742579633567
 10
-934.43924187038306
 20
-747.04936084738154
 10
-934.42849632592504
 20
-747.03914401418092
 42
-0.0097266568651933
 10
-934.26243870706685
 20
-746.88729643974125
 42
-0.0187720905721298
 10
-934.08809113117752
 20
-746.74522758635226
 10
-934.05738514050358
 20
-746.72206850395628
 42
-0.017942820752077
 10
-933.82496442050706
 20
-746.55951632684423
 10
-933.8213120935909
 20
-746.55715239195627
 42
-0.0170047877698186
 10
-933.58554845606091
 20
-746.41569187780499
 10
-933.58176546731534
 20
-746.41359357276929
 42
-0.0160190788365961
 10
-933.34485691967905
 20
-746.29194227078062
 42
-0.01511028614922
 10
-933.10082513722966
 20
-746.18525949472496
 10
-933.0484386350206
 20
-746.16421936183133
 42
-0.0271945441886734
 10
-932.68977607596219
 20
-746.0423545511253
 10
-932.62071127547426
 20
-746.02300500985905
 42
-0.0237596594022507
 10
-932.20491442845173
 20
-745.92755429787746
 10
-932.13685157472355
 20
-745.91529960975106
 42
-0.0213715440554843
 10
-931.850976643276
 20
-745.87635257824081
 10
-931.79082947705649
 20
-745.87076286353977
 42
-0.0101465655817828
 10
-931.6233369450639
 20
-745.85861932027581
 10
-931.61399655886282
 20
-745.85813240527841
 42
-0.0100375910878292
 10
-931.46484245830311
 20
-745.85335658735335
 10
-931.45458318862325
 20
-745.85323414833886
 42
-0.0103625633378775
 10
-931.32587519396793
 20
-745.85436558186552
 10
-931.30360954270088
 20
-745.8550229403304
 42
-0.0115689250232878
 10
-931.21955880517305
 20
-745.85945244657557
 42
-0.0072438037430897
 10
-931.13572052572795
 20
-745.86704164632556
 10
-931.11892001626109
 20
-745.8688081890491
 42
-0.0217917313131299
 10
-931.00235025294637
 20
-745.88622808177035
 10
-930.93675016238001
 20
-745.89897469018467
 42
-0.0332943556754549
 10
-930.73235799735244
 20
-745.95301498149172
 10
-930.70218542880411
 20
-745.9631830586095
 42
-0.018482408480075
 10
-930.56368037233688
 20
-746.01563407399669
 42
-0.0198002050693898
 10
-930.42960603183917
 20
-746.07851813419518
 10
-930.42771939446061
 20
-746.07949592107593
 42
-0.0212242342980942
 10
-930.29558045206056
 20
-746.15525865986785
 10
-930.29376515651529
 20
-746.15640446207738
 42
-0.0226090605798944
 10
-930.16526125529526
 20
-746.24588410564058
 10
-930.16341681355607
 20
-746.24729635862934
 42
-0.0238457052239878
 10
-930.04023473226539
 20
-746.35129225448964
 10
-930.03828200370413
 20
-746.35310713225783
 42
-0.0248160564154915
 10
-929.92208049640294
 20
-746.47238173346727
 10
-929.91997686300147
 20
-746.474767067171
 42
-0.0254109591456709
 10
-929.81237164513675
 20
-746.61005545313355
 10
-929.81012362322144
 20
-746.61319700153592
 42
-0.025552848828899
 10
-929.71267694442463
 20
-746.76522405576952
 10
-929.71034584450808
 20
-746.76930566737781
 42
-0.0252146793220625
 10
-929.62456481849938
 20
-746.93880791337381
 10
-929.6222625793414
 20
-746.94398999528767
 42
-0.0244265635947513
 10
-929.54960788557946
 20
-747.13173656733545
 10
-929.54036148411012
 20
-747.1596019856762
 42
-0.0231319612895008
 10
-929.49443870511948
 20
-747.32290303247373
 42
-0.0112130424357856
 10
-929.45980268258131
 20
-747.48910663266145
 10
-929.45860015746871
 20
-747.49560321954971
 42
-0.021052788123803
 10
-929.43291368209827
 20
-747.67665886498742
 10
-929.42940308727611
 20
-747.7120644135382
 42
-0.0190029892422469
 10
-929.41396161373143
 20
-747.96560025981023
 10
-929.41315163728746
 20
-748.00107587417949
 42
-0.0137974553662706
 10
-929.41470049012287
 20
-748.3261072809089
 10
-929.41554594507841
 20
-748.35222602550027
 42
-0.008133663421718
 10
-929.4304052803011
 20
-748.65757349310502
 42
-0.0073526923571148
 10
-929.45471381367588
 20
-748.96232173739202
 10
-929.45597523745846
 20
-748.97565841205619
 42
-0.0066886138692503
 10
-929.49171082350506
 20
-749.30624445555418
 10
-929.49336791297492
 20
-749.31986607454485
 42
-0.0061359187354623
 10
-929.54121851502657
 20
-749.67663005465022
 10
-929.54325601609867
 20
-749.69052485747409
 42
-0.0056698610065726
 10
-929.60390634686473
 20
-750.07380342630699
 10
-929.60631178018866
 20
-750.08796254554284
 42
-0.0052721077273759
 10
-929.68044398098777
 20
-750.49808988521772
 10
-929.68320712983007
 20
-750.51250652060673
 42
-0.0049289272178403
 10
-929.77150124793002
 20
-750.94981503172858
 10
-929.7746137426127
 20
-750.96448388454496
 42
-0.0047415956712947
 10
-929.87785173414238
 20
-751.42928064194427
 10
-929.91261994450474
 20
-751.5790877373388
 42
-0.0084404470903157
 10
-930.10263638807578
 20
-752.33931176186695
 10
-930.10876307606225
 20
-752.36217588602335
 42
-0.0039635940257625
 10
-930.33021676035071
 20
-753.16316475028634
 10
-930.34359355552579
 20
-753.21009636686256
 42
-0.0072475040837261
 10
-930.61104044338776
 20
-754.09931608324928
 10
-930.6812527702167
 20
-754.32105643322654
 42
-0.005134545882741
 10
-930.96801214227514
 20
-755.19538162103595
 10
-930.98953840903721
 20
-755.25880788814982
 42
-0.0019150016602468
 10
-931.24507181590934
 20
-756.00235700839198
 10
-931.25153942030374
 20
-756.02094447330796
 42
-0.0021524362752526
 10
-931.50001747136935
 20
-756.72527029502146
 10
-931.50922789206402
 20
-756.75102387331788
 42
-0.0024331286820556
 10
-931.74548315110178
 20
-757.4016231814411
 10
-931.75453110364583
 20
-757.42616648777789
 42
-0.0027449721788627
 10
-931.97914567448777
 20
-758.02529636671989
 10
-931.98803568187748
 20
-758.04861895656563
 42
-0.0031083229768445
 10
-932.20157816848996
 20
-758.59854299415179
 10
-932.21031430016842
 20
-758.62063271001682
 42
-0.0035311343281913
 10
-932.41335548575739
 20
-759.12361583573966
 10
-932.42194082490482
 20
-759.1444585592493
 42
-0.0040245640948894
 10
-932.61505262869946
 20
-759.6027678818424
 10
-932.62348874230963
 20
-759.62234724993095
 42
-0.004601513585012
 10
-932.80724503546628
 20
-760.03825227955667
 10
-932.81553121329239
 20
-760.056549419004
 42
-0.005276863827113
 10
-932.99050873225019
 20
-760.43232230327908
 10
-932.99864094287727
 20
-760.44931564182264
 42
-0.0060672675643232
 10
-933.1654205556431
 20
-760.78723126493651
 10
-933.17339003612494
 20
-760.80289652393446
 42
-0.006990464886931
 10
-933.33255843012603
 20
-761.10523233059746
 10
-933.3403498297364
 20
-761.11954287982394
 42
-0.0080637022765898
 10
-933.49250169008269
 20
-761.38857818297788
 10
-933.50009072271303
 20
-761.40150604857695
 42
-0.0093006455668722
 10
-933.64583139924548
 20
-761.63952044708174
 10
-933.65318206598681
 20
-761.65103841625125
 42
-0.0107060778054733
 10
-933.79313060942764
 20
-761.86030873363393
 10
-933.80019237770534
 20
-761.87039427619709
 42
-0.0122723111414526
 10
-933.93498609590529
 20
-762.05318760568878
 10
-933.93531231945917
 20
-762.05360799349819
 42
-0.0141836319626091
 10
-934.07889392243351
 20
-762.22817775132796
 10
-934.08584167808453
 20
-762.23615275159159
 42
-0.0175957477209389
 10
-934.22574784612016
 20
-762.38577363999752
 42
-0.0080466359674783
 10
-934.3732116111504
 20
-762.52809616814875
 10
-934.41924615566779
 20
-762.57111660623991
 42
-0.0269600260394374
 10
-934.672526401651
 20
-762.78343986474931
 10
-934.7390935379467
 20
-762.83339127937222
 42
-0.0178362839754246
 10
-934.97903802760356
 20
-763.00040920562537
 10
-934.98628299860343
 20
-763.00507771782998
 42
-0.0174650732649715
 10
-935.22261919604534
 20
-763.14593868278939
 42
-0.0169240130164871
 10
-935.46808544190287
 20
-763.27023094256685
 10
-935.51407159746077
 20
-763.29159289813401
 42
-0.0318883036840568
 10
-935.86442245308046
 20
-763.42793120764406
 10
-935.93278798824736
 20
-763.44963182812012
 42
-0.028443590990006
 10
-936.30883811453657
 20
-763.54584926359428
 10
-936.34399627503512
 20
-763.55274285942278
 42
-0.0243909341012868
 10
-936.65743973595409
 20
-763.59846389045288
 10
-936.70772046272418
 20
-763.60330943735448
 42
-0.0196639292930527
 10
-936.92331604025253
 20
-763.61555772286806
 10
-936.97514011141197
 20
-763.61646098360472
 42
-0.0100501510687434
 10
-937.08756339308025
 20
-763.61616058525169
 10
-937.11922325442924
 20
-763.61543951336625
 42
-0.0019752031123021
 10
-937.16831559110562
 20
-763.61412735315673
 10
-937.17107589432953
 20
-763.61404266133036
 42
0.0065378751994556
 10
-937.21465246908247
 20
-763.61327577011548
 42
-0.0167974694644939
 10
-937.25818329201491
 20
-763.61161587158938
 10
-937.26226263127637
 20
-763.61132286069449
 42
-0.0081283276282214
 10
-937.31382242901259
 20
-763.60677586705685
 10
-937.32556200289355
 20
-763.60554794947825
 42
-0.0126703440181658
 10
-937.40028029868586
 20
-763.59581315840694
 10
-937.42306816636369
 20
-763.5922549024915
 42
-0.0117852088438449
 10
-937.54260715219357
 20
-763.57069190733489
 10
-937.59798760395915
 20
-763.5593483670998
 42
-0.0251774592293327
 10
-937.82483164296821
 20
-763.50085035766642
 10
-937.86955083281714
 20
-763.48688353833188
 42
-0.0146525199887244
 10
-938.05594382035656
 20
-763.42261701113341
 42
-0.0166929435854867
 10
-938.23792147648692
 20
-763.34680987807712
 10
-938.24257810775634
 20
-763.34468497746479
 42
-0.0191684358438446
 10
-938.42776173900177
 20
-763.25144889367698
 10
-938.43109432476263
 20
-763.24960764612149
 42
-0.0221181781809847
 10
-938.61440462866597
 20
-763.13747414774991
 10
-938.61675443267325
 20
-763.13588984975968
 42
-0.0254984685384844
 10
-938.79304458305808
 20
-763.00347869979043
 10
-938.8155267307601
 20
-762.98472639085412
 42
-0.0292492648807088
 10
-938.94029566960353
 20
-762.86763359121073
 42
-0.0159048957495739
 10
-939.05413566705442
 20
-762.73961359961083
 10
-939.055454457633
 20
-762.73803198659164
 42
-0.0343813379565871
 10
-939.15809171925844
 20
-762.59616066082333
 10
-939.18958325061874
 20
-762.54565726873022
 42
-0.0369117275706102
 10
-939.27547575251731
 20
-762.38218002777967
 42
-0.0191751379904754
 10
-939.34266913807551
 20
-762.20977542177025
 10
-939.34443246183378
 20
-762.20468207709882
 42
-0.037817804222853
 10
-939.39422718061803
 20
-762.01574130101778
 10
-939.40022247634806
 20
-761.98318068282242
 42
-0.0184846046471619
 10
-939.42093967564279
 20
-761.84142786227562
 42
-0.0179866351312598
 10
-939.43127268071646
 20
-761.69853704919205
 10
-939.43132912316219
 20
-761.69697936258194
 42
-0.0085497186116779
 10
-939.43276140426599
 20
-761.62210619757207
 42
-0.0085497186116779
  0
ENDBLK
  5
5C
100
AcDbEntity
  8
template
390
0
100
AcDbBlockEnd
  0
BLOCK
  5
5D
100
AcDbEntity
  8
notes
390
0
100
AcDbBlockBegin
  2
*D3
 70
               1
 10
0.0
 20
0.0
 30
0.0
  3
*D3
  1

  0
LINE
  5
5E
100
AcDbEntity
  8
0
370
              -2
390
0
  6
Continuous
 62
               0
100
AcDbLine
 10
-751.89194429033751
 20
891.15557089575918
 30
0.0
 11
-751.89194429033751
 21
970.15557089575964
 31
0.0
  0
LINE
  5
5F
100
AcDbEntity
  8
0
370
              -2
390
0
  6
Continuous
 62
               0
100
AcDbLine
 10
48.108055709661585
 20
891.15557089575918
 30
0.0
 11
48.108055709661585
 21
970.15557089575964
 31
0.0
  0
LINE
  5
60
100
AcDbEntity
  8
0
370
              -2
390
0
  6
Continuous
 62
               0
100
AcDbLine
 10
-751.89194429033751
 20
970.15557089575964
 30
0.0
 11
48.108055709661585
 21
970.15557089575964
 31
0.0
  0
CIRCLE
  5
61
102
{ACAD_REACTORS
330
62
102
}
100
AcDbEntity
  8
0
370
              -2
390
0
  6
Continuous
 62
               0
100
AcDbCircle
 10
-751.89194429033751
 20
970.15557089575964
 30
0.0
 40
4.99969482421875
  0
HATCH
  5
62
100
AcDbEntity
  8
0
370
              -2
390
0
  6
Continuous
 62
               0
100
AcDbHatch
 10
0.0
 20
0.0
 30
0.0
210
0.0
220
0.0
230
1.0
  2
SOLID
 70
               1
 71
               1
 91
        1
 92
        1
 93
        1
 72
               2
 10
-751.89194429033751
 20
970.15557089575964
 40
4.99969482421875
 50
0.0
 51
360.0
 73
               0
 97
        1
330
61
 75
               0
 76
               1
 98
        1
 10
0.0
 20
0.0
  0
CIRCLE
  5
63
102
{ACAD_REACTORS
330
64
102
}
100
AcDbEntity
  8
0
370
              -2
390
0
  6
Continuous
 62
               0
100
AcDbCircle
 10
48.108055709661585
 20
970.15557089575964
 30
0.0
 40
4.99969482421875
  0
HATCH
  5
64
100
AcDbEntity
  8
0
370
              -2
390
0
  6
Continuous
 62
               0
100
AcDbHatch
 10
0.0
 20
0.0
 30
0.0
210
0.0
220
0.0
230
1.0
  2
SOLID
 70
               1
 71
               1
 91
        1
 92
        1
 93
        1
 72
               2
 10
48.108055709661585
 20
970.15557089575964
 40
4.99969482421875
 50
0.0
 51
360.0
 73
               0
 97
        1
330
63
 75
               0
 76
               1
 98
        1
 10
0.0
 20
0.0
  0
MTEXT
  5
65
100
AcDbEntity
  8
0
390
0
 62
               0
100
AcDbMText
 10
-375.70444597251344
 20
1004.0331880832596
 30
0.0
 40
24.432617187500004
 41
0.0
 71
               1
 72
               1
  1
800
  7
ＭＳ ゴシック
 73
               1
 44
0.7828267384257843
  0
POINT
  5
66
100
AcDbEntity
  8
Defpoints
370
               0
390
0
 62
               0
100
AcDbPoint
 10
48.108055709661585
 20
866.15557089575918
 30
0.0
  0
POINT
  5
67
100
AcDbEntity
  8
Defpoints
370
               0
390
0
 62
               0
100
AcDbPoint
 10
-751.89194429033751
 20
866.15557089575918
 30
0.0
  0
POINT
  5
68
100
AcDbEntity
  8
Defpoints
370
               0
390
0
 62
               0
100
AcDbPoint
 10
-751.89194429033751
 20
970.15557089575964
 30
0.0
  0
ENDBLK
  5
69
100
AcDbEntity
  8
notes
390
0
100
AcDbBlockEnd
  0
BLOCK
  5
6A
100
AcDbEntity
  8
notes
390
0
100
AcDbBlockBegin
  2
*D4
 70
               1
 10
0.0
 20
0.0
 30
0.0
  3
*D4
  1

  0
LINE
  5
6B
100
AcDbEntity
  8
0
370
              -2
390
0
  6
Continuous
 62
               0
100
AcDbLine
 10
69.108055709661585
 20
870.15557089575918
 30
0.0
 11
220.0
 21
870.15557089575918
 31
0.0
  0
LINE
  5
6C
100
AcDbEntity
  8
0
370
              -2
390
0
  6
Continuous
 62
               0
100
AcDbLine
 10
-229.40234797535186
 20
390.15557089575964
 30
0.0
 11
220.0
 21
390.15557089575964
 31
0.0
  0
LINE
  5
6D
100
AcDbEntity
  8
0
370
              -2
390
0
  6
Continuous
 62
               0
100
AcDbLine
 10
220.0
 20
870.15557089575918
 30
0.0
 11
220.0
 21
390.15557089575964
 31
0.0
  0
CIRCLE
  5
6E
102
{ACAD_REACTORS
330
6F
102
}
100
AcDbEntity
  8
0
370
              -2
390
0
  6
Continuous
 62
               0
100
AcDbCircle
 10
220.0
 20
870.15557089575918
 30
0.0
 40
4.99969482421875
  0
HATCH
  5
6F
100
AcDbEntity
  8
0
370
              -2
390
0
  6
Continuous
 62
               0
100
AcDbHatch
 10
0.0
 20
0.0
 30
0.0
210
0.0
220
0.0
230
1.0
  2
SOLID
 70
               1
 71
               1
 91
        1
 92
        1
 93
        1
 72
               2
 10
220.0
 20
870.15557089575918
 40
4.99969482421875
 50
0.0
 51
360.0
 73
               0
 97
        1
330
6E
 75
               0
 76
               1
 98
        1
 10
0.0
 20
0.0
  0
CIRCLE
  5
70
102
{ACAD_REACTORS
330
71
102
}
100
AcDbEntity
  8
0
370
              -2
390
0
  6
Continuous
 62
               0
100
AcDbCircle
 10
220.0
 20
390.15557089575964
 30
0.0
 40
4.99969482421875
  0
HATCH
  5
71
100
AcDbEntity
  8
0
370
              -2
390
0
  6
Continuous
 62
               0
100
AcDbHatch
 10
0.0
 20
0.0
 30
0.0
210
0.0
220
0.0
230
1.0
  2
SOLID
 70
               1
 71
               1
 91
        1
 92
        1
 93
        1
 72
               2
 10
220.0
 20
390.15557089575964
 40
4.99969482421875
 50
0.0
 51
360.0
 73
               0
 97
        1
330
70
 75
               0
 76
               1
 98
        1
 10
0.0
 20
0.0
  0
MTEXT
  5
72
100
AcDbEntity
  8
0
390
0
 62
               0
100
AcDbMText
 10
186.12238281250006
 20
606.34306921358393
 30
0.0
 40
24.432617187500004
 41
0.0
 71
               1
 72
               1
  1
480
  7
ＭＳ ゴシック
 11
0.0
 21
1.0
 31
0.0
 73
               1
 44
0.7828267384257843
  0
POINT
  5
73
100
AcDbEntity
  8
Defpoints
370
               0
390
0
 62
               0
100
AcDbPoint
 10
-254.40234797535186
 20
390.15557089575964
 30
0.0
  0
POINT
  5
74
100
AcDbEntity
  8
Defpoints
370
               0
390
0
 62
               0
100
AcDbPoint
 10
44.108055709661585
 20
870.15557089575918
 30
0.0
  0
POINT
  5
75
100
AcDbEntity
  8
Defpoints
370
               0
390
0
 62
               0
100
AcDbPoint
 10
220.0
 20
870.15557089575918
 30
0.0
  0
ENDBLK
  5
76
100
AcDbEntity
  8
notes
390
0
100
AcDbBlockEnd
  0
BLOCK
  5
77
100
AcDbEntity
  8
notes
390
0
100
AcDbBlockBegin
  2
*D5
 70
               1
 10
0.0
 20
0.0
 30
0.0
  3
*D5
  1

  0
LINE
  5
78
100
AcDbEntity
  8
0
370
              -2
390
0
  6
Continuous
 62
               0
100
AcDbLine
 10
69.108055709662494
 20
870.15557089575918
 30
0.0
 11
148.10348434661773
 21
870.15557089575918
 31
0.0
  0
LINE
  5
79
100
AcDbEntity
  8
0
370
              -2
390
0
  6
Continuous
 62
               0
100
AcDbLine
 10
69.108055709662494
 20
540.15557089576055
 30
0.0
 11
148.10348434661773
 21
540.15557089576055
 31
0.0
  0
LINE
  5
7A
100
AcDbEntity
  8
0
370
              -2
390
0
  6
Continuous
 62
               0
100
AcDbLine
 10
148.10348434661773
 20
870.15557089575918
 30
0.0
 11
148.10348434661773
 21
540.15557089576055
 31
0.0
  0
CIRCLE
  5
7B
102
{ACAD_REACTORS
330
7C
102
}
100
AcDbEntity
  8
0
370
              -2
390
0
  6
Continuous
 62
               0
100
AcDbCircle
 10
148.10348434661773
 20
870.15557089575918
 30
0.0
 40
4.99969482421875
  0
HATCH
  5
7C
100
AcDbEntity
  8
0
370
              -2
390
0
  6
Continuous
 62
               0
100
AcDbHatch
 10
0.0
 20
0.0
 30
0.0
210
0.0
220
0.0
230
1.0
  2
SOLID
 70
               1
 71
               1
 91
        1
 92
        1
 93
        1
 72
               2
 10
148.10348434661773
 20
870.15557089575918
 40
4.99969482421875
 50
0.0
 51
360.0
 73
               0
 97
        1
330
7B
 75
               0
 76
               1
 98
        1
 10
0.0
 20
0.0
  0
CIRCLE
  5
7D
102
{ACAD_REACTORS
330
7E
102
}
100
AcDbEntity
  8
0
370
              -2
390
0
  6
Continuous
 62
               0
100
AcDbCircle
 10
148.10348434661773
 20
540.15557089576055
 30
0.0
 40
4.99969482421875
  0
HATCH
  5
7E
100
AcDbEntity
  8
0
370
              -2
390
0
  6
Continuous
 62
               0
100
AcDbHatch
 10
0.0
 20
0.0
 30
0.0
210
0.0
220
0.0
230
1.0
  2
SOLID
 70
               1
 71
               1
 91
        1
 92
        1
 93
        1
 72
               2
 10
148.10348434661773
 20
540.15557089576055
 40
4.99969482421875
 50
0.0
 51
360.0
 73
               0
 97
        1
330
7D
 75
               0
 76
               1
 98
        1
 10
0.0
 20
0.0
  0
MTEXT
  5
7F
100
AcDbEntity
  8
0
390
0
 62
               0
100
AcDbMText
 10
114.2258671591178
 20
684.18749831782475
 30
0.0
 40
24.432617187500004
 41
0.0
 71
               1
 72
               1
  1
330
  7
ＭＳ ゴシック
 11
0.0
 21
1.0
 31
0.0
 73
               1
 44
0.7828267384257843
  0
POINT
  5
80
100
AcDbEntity
  8
Defpoints
370
               0
390
0
 62
               0
100
AcDbPoint
 10
44.108055709662494
 20
540.15557089576055
 30
0.0
  0
POINT
  5
81
100
AcDbEntity
  8
Defpoints
370
               0
390
0
 62
               0
100
AcDbPoint
 10
44.108055709662494
 20
870.15557089575918
 30
0.0
  0
POINT
  5
82
100
AcDbEntity
  8
Defpoints
370
               0
390
0
 62
               0
100
AcDbPoint
 10
148.10348434661773
 20
870.15557089575918
 30
0.0
  0
ENDBLK
  5
83
100
AcDbEntity
  8
notes
390
0
100
AcDbBlockEnd
  0
BLOCK
  5
84
100
AcDbEntity
  8
notes
390
0
100
AcDbBlockBegin
  2
*D6
 70
               1
 10
0.0
 20
0.0
 30
0.0
  3
*D6
  1

  0
LINE
  5
85
100
AcDbEntity
  8
0
370
              -2
390
0
  6
Continuous
 62
               0
100
AcDbLine
 10
-586.88154060532588
 20
459.11413622641089
 30
0.0
 11
-586.88154060532588
 21
290.15557089575964
 31
0.0
  0
LINE
  5
86
100
AcDbEntity
  8
0
370
              -2
390
0
  6
Continuous
 62
               0
100
AcDbLine
 10
-116.90234797535095
 20
459.11413622641044
 30
0.0
 11
-116.90234797535095
 21
290.15557089575964
 31
0.0
  0
LINE
  5
87
100
AcDbEntity
  8
0
370
              -2
390
0
  6
Continuous
 62
               0
100
AcDbLine
 10
-586.88154060532588
 20
290.15557089575964
 30
0.0
 11
-116.90234797535095
 21
290.15557089575964
 31
0.0
  0
CIRCLE
  5
88
102
{ACAD_REACTORS
330
89
102
}
100
AcDbEntity
  8
0
370
              -2
390
0
  6
Continuous
 62
               0
100
AcDbCircle
 10
-586.88154060532588
 20
290.15557089575964
 30
0.0
 40
4.99969482421875
  0
HATCH
  5
89
100
AcDbEntity
  8
0
370
              -2
390
0
  6
Continuous
 62
               0
100
AcDbHatch
 10
0.0
 20
0.0
 30
0.0
210
0.0
220
0.0
230
1.0
  2
SOLID
 70
               1
 71
               1
 91
        1
 92
        1
 93
        1
 72
               2
 10
-586.88154060532588
 20
290.15557089575964
 40
4.99969482421875
 50
0.0
 51
360.0
 73
               0
 97
        1
330
88
 75
               0
 76
               1
 98
        1
 10
0.0
 20
0.0
  0
CIRCLE
  5
8A
102
{ACAD_REACTORS
330
8B
102
}
100
AcDbEntity
  8
0
370
              -2
390
0
  6
Continuous
 62
               0
100
AcDbCircle
 10
-116.90234797535095
 20
290.15557089575964
 30
0.0
 40
4.99969482421875
  0
HATCH
  5
8B
100
AcDbEntity
  8
0
370
              -2
390
0
  6
Continuous
 62
               0
100
AcDbHatch
 10
0.0
 20
0.0
 30
0.0
210
0.0
220
0.0
230
1.0
  2
SOLID
 70
               1
 71
               1
 91
        1
 92
        1
 93
        1
 72
               2
 10
-116.90234797535095
 20
290.15557089575964
 40
4.99969482421875
 50
0.0
 51
360.0
 73
               0
 97
        1
330
8A
 75
               0
 76
               1
 98
        1
 10
0.0
 20
0.0
  0
MTEXT
  5
8C
100
AcDbEntity
  8
0
390
0
 62
               0
100
AcDbMText
 10
-375.70444597251389
 20
324.03318808325969
 30
0.0
 40
24.432617187500004
 41
0.0
 71
               1
 72
               1
  1
470
  7
ＭＳ ゴシック
 73
               1
 44
0.7828267384257843
  0
POINT
  5
8D
100
AcDbEntity
  8
Defpoints
370
               0
390
0
 62
               0
100
AcDbPoint
 10
-116.90234797535095
 20
484.11413622641044
 30
0.0
  0
POINT
  5
8E
100
AcDbEntity
  8
Defpoints
370
               0
390
0
 62
               0
100
AcDbPoint
 10
-586.88154060532588
 20
484.11413622641089
 30
0.0
  0
POINT
  5
8F
100
AcDbEntity
  8
Defpoints
370
               0
390
0
 62
               0
100
AcDbPoint
 10
-586.88154060532588
 20
290.15557089575964
 30
0.0
  0
ENDBLK
  5
90
100
AcDbEntity
  8
notes
390
0
100
AcDbBlockEnd
  0
BLOCK
  5
91
100
AcDbEntity
  8
notes
390
0
100
AcDbBlockBegin
  2
*D7
 70
               1
 10
0.0
 20
0.0
 30
0.0
  3
*D7
  1

  0
LINE
  5
92
100
AcDbEntity
  8
0
370
              -2
390
0
  6
Continuous
 62
               0
100
AcDbLine
 10
-776.89194429033751
 20
745.15557089575964
 30
0.0
 11
-851.89194429033796
 21
745.15557089575964
 31
0.0
  0
LINE
  5
93
100
AcDbEntity
  8
0
370
              -2
390
0
  6
Continuous
 62
               0
100
AcDbLine
 10
-542.92297527467417
 20
415.15557089575964
 30
0.0
 11
-851.89194429033796
 21
415.15557089575964
 31
0.0
  0
LINE
  5
94
100
AcDbEntity
  8
0
370
              -2
390
0
  6
Continuous
 62
               0
100
AcDbLine
 10
-851.89194429033796
 20
745.15557089575964
 30
0.0
 11
-851.89194429033796
 21
415.15557089575964
 31
0.0
  0
CIRCLE
  5
95
102
{ACAD_REACTORS
330
96
102
}
100
AcDbEntity
  8
0
370
              -2
390
0
  6
Continuous
 62
               0
100
AcDbCircle
 10
-851.89194429033796
 20
745.15557089575964
 30
0.0
 40
4.99969482421875
  0
HATCH
  5
96
100
AcDbEntity
  8
0
370
              -2
390
0
  6
Continuous
 62
               0
100
AcDbHatch
 10
0.0
 20
0.0
 30
0.0
210
0.0
220
0.0
230
1.0
  2
SOLID
 70
               1
 71
               1
 91
        1
 92
        1
 93
        1
 72
               2
 10
-851.89194429033796
 20
745.15557089575964
 40
4.99969482421875
 50
0.0
 51
360.0
 73
               0
 97
        1
330
95
 75
               0
 76
               1
 98
        1
 10
0.0
 20
0.0
  0
CIRCLE
  5
97
102
{ACAD_REACTORS
330
98
102
}
100
AcDbEntity
  8
0
370
              -2
390
0
  6
Continuous
 62
               0
100
AcDbCircle
 10
-851.89194429033796
 20
415.15557089575964
 30
0.0
 40
4.99969482421875
  0
HATCH
  5
98
100
AcDbEntity
  8
0
370
              -2
390
0
  6
Continuous
 62
               0
100
AcDbHatch
 10
0.0
 20
0.0
 30
0.0
210
0.0
220
0.0
230
1.0
  2
SOLID
 70
               1
 71
               1
 91
        1
 92
        1
 93
        1
 72
               2
 10
-851.89194429033796
 20
415.15557089575964
 40
4.99969482421875
 50
0.0
 51
360.0
 73
               0
 97
        1
330
97
 75
               0
 76
               1
 98
        1
 10
0.0
 20
0.0
  0
MTEXT
  5
99
100
AcDbEntity
  8
0
390
0
 62
               0
100
AcDbMText
 10
-885.76956147783812
 20
556.34306921358416
 30
0.0
 40
24.432617187500004
 41
0.0
 71
               1
 72
               1
  1
330
  7
ＭＳ ゴシック
 11
0.0
 21
1.0
 31
0.0
 73
               1
 44
0.7828267384257843
  0
POINT
  5
9A
100
AcDbEntity
  8
Defpoints
370
               0
390
0
 62
               0
100
AcDbPoint
 10
-517.92297527467417
 20
415.15557089575964
 30
0.0
  0
POINT
  5
9B
100
AcDbEntity
  8
Defpoints
370
               0
390
0
 62
               0
100
AcDbPoint
 10
-751.89194429033751
 20
745.15557089575964
 30
0.0
  0
POINT
  5
9C
100
AcDbEntity
  8
Defpoints
370
               0
390
0
 62
               0
100
AcDbPoint
 10
-851.89194429033796
 20
745.15557089575964
 30
0.0
  0
ENDBLK
  5
9D
100
AcDbEntity
  8
notes
390
0
100
AcDbBlockEnd
  0
BLOCK
  5
9E
100
AcDbEntity
  8
notes
390
0
100
AcDbBlockBegin
  2
*D8
 70
               1
 10
0.0
 20
0.0
 30
0.0
  3
*D8
  1

  0
LINE
  5
9F
100
AcDbEntity
  8
0
370
              -2
390
0
  6
Continuous
 62
               0
100
AcDbLine
 10
-491.85577269961914
 20
-340.80528547568474
 30
0.0
 11
-491.85577269961914
 21
-245.80528547568474
 31
0.0
  0
LINE
  5
A0
100
AcDbEntity
  8
0
370
              -2
390
0
  6
Continuous
 62
               0
100
AcDbLine
 10
-211.85577269961914
 20
-340.76662698779182
 30
0.0
 11
-211.85577269961914
 21
-245.80528547568474
 31
0.0
  0
LINE
  5
A1
100
AcDbEntity
  8
0
370
              -2
390
0
  6
Continuous
 62
               0
100
AcDbLine
 10
-491.85577269961914
 20
-245.80528547568474
 30
0.0
 11
-211.85577269961914
 21
-245.80528547568474
 31
0.0
  0
CIRCLE
  5
A2
102
{ACAD_REACTORS
330
A3
102
}
100
AcDbEntity
  8
0
370
              -2
390
0
  6
Continuous
 62
               0
100
AcDbCircle
 10
-491.85577269961914
 20
-245.80528547568474
 30
0.0
 40
4.99969482421875
  0
HATCH
  5
A3
100
AcDbEntity
  8
0
370
              -2
390
0
  6
Continuous
 62
               0
100
AcDbHatch
 10
0.0
 20
0.0
 30
0.0
210
0.0
220
0.0
230
1.0
  2
SOLID
 70
               1
 71
               1
 91
        1
 92
        1
 93
        1
 72
               2
 10
-491.85577269961914
 20
-245.80528547568474
 40
4.99969482421875
 50
0.0
 51
360.0
 73
               0
 97
        1
330
A2
 75
               0
 76
               1
 98
        1
 10
0.0
 20
0.0
  0
CIRCLE
  5
A4
102
{ACAD_REACTORS
330
A5
102
}
100
AcDbEntity
  8
0
370
              -2
390
0
  6
Continuous
 62
               0
100
AcDbCircle
 10
-211.85577269961914
 20
-245.80528547568474
 30
0.0
 40
4.99969482421875
  0
HATCH
  5
A5
100
AcDbEntity
  8
0
370
              -2
390
0
  6
Continuous
 62
               0
100
AcDbHatch
 10
0.0
 20
0.0
 30
0.0
210
0.0
220
0.0
230
1.0
  2
SOLID
 70
               1
 71
               1
 91
        1
 92
        1
 93
        1
 72
               2
 10
-211.85577269961914
 20
-245.80528547568474
 40
4.99969482421875
 50
0.0
 51
360.0
 73
               0
 97
        1
330
A4
 75
               0
 76
               1
 98
        1
 10
0.0
 20
0.0
  0
MTEXT
  5
A6
100
AcDbEntity
  8
0
390
0
 62
               0
100
AcDbMText
 10
-375.66827438179462
 20
-211.92766828818475
 30
0.0
 40
24.432617187500004
 41
0.0
 71
               1
 72
               1
  1
280
  7
ＭＳ ゴシック
 73
               1
 44
0.7828267384257843
  0
POINT
  5
A7
100
AcDbEntity
  8
Defpoints
370
               0
390
0
 62
               0
100
AcDbPoint
 10
-211.85577269961914
 20
-365.76662698779182
 30
0.0
  0
POINT
  5
A8
100
AcDbEntity
  8
Defpoints
370
               0
390
0
 62
               0
100
AcDbPoint
 10
-491.85577269961914
 20
-365.80528547568474
 30
0.0
  0
POINT
  5
A9
100
AcDbEntity
  8
Defpoints
370
               0
390
0
 62
               0
100
AcDbPoint
 10
-491.85577269961914
 20
-245.80528547568474
 30
0.0
  0
ENDBLK
  5
AA
100
AcDbEntity
  8
notes
390
0
100
AcDbBlockEnd
  0
BLOCK
  5
AB
100
AcDbEntity
  8
notes
390
0
100
AcDbBlockBegin
  2
*D9
 70
               1
 10
0.0
 20
0.0
 30
0.0
  3
*D9
  1

  0
LINE
  5
AC
100
AcDbEntity
  8
0
370
              -2
390
0
  6
Continuous
 62
               0
100
AcDbLine
 10
440.53359733311277
 20
-535.76662698779
 30
0.0
 11
230.14388206908029
 21
-535.76662698779
 31
0.0
  0
LINE
  5
AD
100
AcDbEntity
  8
0
370
              -2
390
0
  6
Continuous
 62
               0
100
AcDbLine
 10
354.40221339553659
 20
-345.76662698779228
 30
0.0
 11
230.14388206908029
 21
-345.76662698779228
 31
0.0
  0
LINE
  5
AE
100
AcDbEntity
  8
0
370
              -2
390
0
  6
Continuous
 62
               0
100
AcDbLine
 10
230.14388206908029
 20
-535.76662698779
 30
0.0
 11
230.14388206908029
 21
-345.76662698779228
 31
0.0
  0
CIRCLE
  5
AF
102
{ACAD_REACTORS
330
B0
102
}
100
AcDbEntity
  8
0
370
              -2
390
0
  6
Continuous
 62
               0
100
AcDbCircle
 10
230.14388206908029
 20
-535.76662698779
 30
0.0
 40
4.99969482421875
  0
HATCH
  5
B0
100
AcDbEntity
  8
0
370
              -2
390
0
  6
Continuous
 62
               0
100
AcDbHatch
 10
0.0
 20
0.0
 30
0.0
210
0.0
220
0.0
230
1.0
  2
SOLID
 70
               1
 71
               1
 91
        1
 92
        1
 93
        1
 72
               2
 10
230.14388206908029
 20
-535.76662698779
 40
4.99969482421875
 50
0.0
 51
360.0
 73
               0
 97
        1
330
AF
 75
               0
 76
               1
 98
        1
 10
0.0
 20
0.0
  0
CIRCLE
  5
B1
102
{ACAD_REACTORS
330
B2
102
}
100
AcDbEntity
  8
0
370
              -2
390
0
  6
Continuous
 62
               0
100
AcDbCircle
 10
230.14388206908029
 20
-345.76662698779228
 30
0.0
 40
4.99969482421875
  0
HATCH
  5
B2
100
AcDbEntity
  8
0
370
              -2
390
0
  6
Continuous
 62
               0
100
AcDbHatch
 10
0.0
 20
0.0
 30
0.0
210
0.0
220
0.0
230
1.0
  2
SOLID
 70
               1
 71
               1
 91
        1
 92
        1
 93
        1
 72
               2
 10
230.14388206908029
 20
-345.76662698779228
 40
4.99969482421875
 50
0.0
 51
360.0
 73
               0
 97
        1
330
B1
 75
               0
 76
               1
 98
        1
 10
0.0
 20
0.0
  0
MTEXT
  5
B3
100
AcDbEntity
  8
0
390
0
 62
               0
100
AcDbMText
 10
196.26626488158035
 20
-464.57912866996668
 30
0.0
 40
24.432617187500004
 41
0.0
 71
               1
 72
               1
  1
190
  7
ＭＳ ゴシック
 11
0.0
 21
1.0
 31
0.0
 73
               1
 44
0.7828267384257843
  0
POINT
  5
B4
100
AcDbEntity
  8
Defpoints
370
               0
390
0
 62
               0
100
AcDbPoint
 10
379.40221339553659
 20
-345.76662698779228
 30
0.0
  0
POINT
  5
B5
100
AcDbEntity
  8
Defpoints
370
               0
390
0
 62
               0
100
AcDbPoint
 10
465.53359733311277
 20
-535.76662698779
 30
0.0
  0
POINT
  5
B6
100
AcDbEntity
  8
Defpoints
370
               0
390
0
 62
               0
100
AcDbPoint
 10
230.14388206908029
 20
-535.76662698779
 30
0.0
  0
ENDBLK
  5
B7
100
AcDbEntity
  8
notes
390
0
100
AcDbBlockEnd
  0
BLOCK
  5
B8
100
AcDbEntity
  8
notes
390
0
100
AcDbBlockBegin
  2
*D10
 70
               1
 10
0.0
 20
0.0
 30
0.0
  3
*D10
  1

  0
LINE
  5
B9
100
AcDbEntity
  8
0
370
              -2
390
0
  6
Continuous
 62
               0
100
AcDbLine
 10
-776.89651565338181
 20
-345.76662698779228
 30
0.0
 11
-851.89194429033796
 21
-345.76662698779228
 31
0.0
  0
LINE
  5
BA
100
AcDbEntity
  8
0
370
              -2
390
0
  6
Continuous
 62
               0
100
AcDbLine
 10
-536.85577269961823
 20
-385.80528547568429
 30
0.0
 11
-851.89194429033796
 21
-385.80528547568429
 31
0.0
  0
LINE
  5
BB
100
AcDbEntity
  8
0
370
              -2
390
0
  6
Continuous
 62
               0
100
AcDbLine
 10
-851.89194429033796
 20
-345.76662698779228
 30
0.0
 11
-851.89194429033796
 21
-385.80528547568429
 31
0.0
  0
CIRCLE
  5
BC
102
{ACAD_REACTORS
330
BD
102
}
100
AcDbEntity
  8
0
370
              -2
390
0
  6
Continuous
 62
               0
100
AcDbCircle
 10
-851.89194429033796
 20
-345.76662698779228
 30
0.0
 40
4.99969482421875
  0
HATCH
  5
BD
100
AcDbEntity
  8
0
370
              -2
390
0
  6
Continuous
 62
               0
100
AcDbHatch
 10
0.0
 20
0.0
 30
0.0
210
0.0
220
0.0
230
1.0
  2
SOLID
 70
               1
 71
               1
 91
        1
 92
        1
 93
        1
 72
               2
 10
-851.89194429033796
 20
-345.76662698779228
 40
4.99969482421875
 50
0.0
 51
360.0
 73
               0
 97
        1
330
BC
 75
               0
 76
               1
 98
        1
 10
0.0
 20
0.0
  0
CIRCLE
  5
BE
102
{ACAD_REACTORS
330
BF
102
}
100
AcDbEntity
  8
0
370
              -2
390
0
  6
Continuous
 62
               0
100
AcDbCircle
 10
-851.89194429033796
 20
-385.80528547568429
 30
0.0
 40
4.99969482421875
  0
HATCH
  5
BF
100
AcDbEntity
  8
0
370
              -2
390
0
  6
Continuous
 62
               0
100
AcDbHatch
 10
0.0
 20
0.0
 30
0.0
210
0.0
220
0.0
230
1.0
  2
SOLID
 70
               1
 71
               1
 91
        1
 92
        1
 93
        1
 72
               2
 10
-851.89194429033796
 20
-385.80528547568429
 40
4.99969482421875
 50
0.0
 51
360.0
 73
               0
 97
        1
330
BE
 75
               0
 76
               1
 98
        1
 10
0.0
 20
0.0
  0
MTEXT
  5
C0
100
AcDbEntity
  8
0
390
0
 62
               0
100
AcDbMText
 10
-885.76956147783812
 20
-381.66095623173828
 30
0.0
 40
24.432617187500004
 41
0.0
 71
               1
 72
               1
  1
40
  7
ＭＳ ゴシック
 11
0.0
 21
1.0
 31
0.0
 73
               1
 44
0.7828267384257843
  0
POINT
  5
C1
100
AcDbEntity
  8
Defpoints
370
               0
390
0
 62
               0
100
AcDbPoint
 10
-511.85577269961823
 20
-385.80528547568429
 30
0.0
  0
POINT
  5
C2
100
AcDbEntity
  8
Defpoints
370
               0
390
0
 62
               0
100
AcDbPoint
 10
-751.89651565338181
 20
-345.76662698779228
 30
0.0
  0
POINT
  5
C3
100
AcDbEntity
  8
Defpoints
370
               0
390
0
 62
               0
100
AcDbPoint
 10
-851.89194429033796
 20
-345.76662698779228
 30
0.0
  0
ENDBLK
  5
C4
100
AcDbEntity
  8
notes
390
0
100
AcDbBlockEnd
  0
BLOCK
  5
C5
100
AcDbEntity
  8
notes
390
0
100
AcDbBlockBegin
  2
*D11
 70
               1
 10
0.0
 20
0.0
 30
0.0
  3
*D11
  1

  0
LINE
  5
C6
100
AcDbEntity
  8
0
370
              -2
390
0
  6
Continuous
 62
               0
100
AcDbLine
 10
73.103484346618188
 20
-345.76662698779228
 30
0.0
 11
148.10348434661819
 21
-345.76662698779228
 31
0.0
  0
LINE
  5
C7
100
AcDbEntity
  8
0
370
              -2
390
0
  6
Continuous
 62
               0
100
AcDbLine
 10
73.103484346618188
 20
-395.76662698779137
 30
0.0
 11
148.10348434661819
 21
-395.76662698779137
 31
0.0
  0
LINE
  5
C8
100
AcDbEntity
  8
0
370
              -2
390
0
  6
Continuous
 62
               0
100
AcDbLine
 10
148.10348434661819
 20
-345.76662698779228
 30
0.0
 11
148.10348434661819
 21
-395.76662698779137
 31
0.0
  0
CIRCLE
  5
C9
102
{ACAD_REACTORS
330
CA
102
}
100
AcDbEntity
  8
0
370
              -2
390
0
  6
Continuous
 62
               0
100
AcDbCircle
 10
148.10348434661819
 20
-345.76662698779228
 30
0.0
 40
4.99969482421875
  0
HATCH
  5
CA
100
AcDbEntity
  8
0
370
              -2
390
0
  6
Continuous
 62
               0
100
AcDbHatch
 10
0.0
 20
0.0
 30
0.0
210
0.0
220
0.0
230
1.0
  2
SOLID
 70
               1
 71
               1
 91
        1
 92
        1
 93
        1
 72
               2
 10
148.10348434661819
 20
-345.76662698779228
 40
4.99969482421875
 50
0.0
 51
360.0
 73
               0
 97
        1
330
C9
 75
               0
 76
               1
 98
        1
 10
0.0
 20
0.0
  0
CIRCLE
  5
CB
102
{ACAD_REACTORS
330
CC
102
}
100
AcDbEntity
  8
0
370
              -2
390
0
  6
Continuous
 62
               0
100
AcDbCircle
 10
148.10348434661819
 20
-395.76662698779137
 30
0.0
 40
4.99969482421875
  0
HATCH
  5
CC
100
AcDbEntity
  8
0
370
              -2
390
0
  6
Continuous
 62
               0
100
AcDbHatch
 10
0.0
 20
0.0
 30
0.0
210
0.0
220
0.0
230
1.0
  2
SOLID
 70
               1
 71
               1
 91
        1
 92
        1
 93
        1
 72
               2
 10
148.10348434661819
 20
-395.76662698779137
 40
4.99969482421875
 50
0.0
 51
360.0
 73
               0
 97
        1
330
CB
 75
               0
 76
               1
 98
        1
 10
0.0
 20
0.0
  0
MTEXT
  5
CD
100
AcDbEntity
  8
0
390
0
 62
               0
100
AcDbMText
 10
114.22586715911825
 20
-386.64162698779182
 30
0.0
 40
24.432617187500004
 41
0.0
 71
               1
 72
               1
  1
50
  7
ＭＳ ゴシック
 11
0.0
 21
1.0
 31
0.0
 73
               1
 44
0.7828267384257843
  0
POINT
  5
CE
100
AcDbEntity
  8
Defpoints
370
               0
390
0
 62
               0
100
AcDbPoint
 10
48.103484346618188
 20
-395.76662698779137
 30
0.0
  0
POINT
  5
CF
100
AcDbEntity
  8
Defpoints
370
               0
390
0
 62
               0
100
AcDbPoint
 10
48.103484346618188
 20
-345.76662698779228
 30
0.0
  0
POINT
  5
D0
100
AcDbEntity
  8
Defpoints
370
               0
390
0
 62
               0
100
AcDbPoint
 10
148.10348434661819
 20
-345.76662698779228
 30
0.0
  0
ENDBLK
  5
D1
100
AcDbEntity
  8
notes
390
0
100
AcDbBlockEnd
  0
BLOCK
  5
D2
100
AcDbEntity
  8
notes
390
0
100
AcDbBlockBegin
  2
*D12
 70
               1
 10
0.0
 20
0.0
 30
0.0
  3
*D12
  1

  0
LINE
  5
D3
100
AcDbEntity
  8
0
370
              -2
390
0
  6
Continuous
 62
               0
100
AcDbLine
 10
860.14285380569402
 20
-556.76662698779
 30
0.0
 11
860.14285380569402
 21
-635.76662698779
 31
0.0
  0
LINE
  5
D4
100
AcDbEntity
  8
0
370
              -2
390
0
  6
Continuous
 62
               0
100
AcDbLine
 10
570.14285380569731
 20
-555.76662698779
 30
0.0
 11
570.14285380569731
 21
-635.76662698779
 31
0.0
  0
LINE
  5
D5
100
AcDbEntity
  8
0
370
              -2
390
0
  6
Continuous
 62
               0
100
AcDbLine
 10
860.14285380569402
 20
-635.76662698779
 30
0.0
 11
570.14285380569731
 21
-635.76662698779
 31
0.0
  0
CIRCLE
  5
D6
102
{ACAD_REACTORS
330
D7
102
}
100
AcDbEntity
  8
0
370
              -2
390
0
  6
Continuous
 62
               0
100
AcDbCircle
 10
860.14285380569402
 20
-635.76662698779
 30
0.0
 40
4.99969482421875
  0
HATCH
  5
D7
100
AcDbEntity
  8
0
370
              -2
390
0
  6
Continuous
 62
               0
100
AcDbHatch
 10
0.0
 20
0.0
 30
0.0
210
0.0
220
0.0
230
1.0
  2
SOLID
 70
               1
 71
               1
 91
        1
 92
        1
 93
        1
 72
               2
 10
860.14285380569402
 20
-635.76662698779
 40
4.99969482421875
 50
0.0
 51
360.0
 73
               0
 97
        1
330
D6
 75
               0
 76
               1
 98
        1
 10
0.0
 20
0.0
  0
CIRCLE
  5
D8
102
{ACAD_REACTORS
330
D9
102
}
100
AcDbEntity
  8
0
370
              -2
390
0
  6
Continuous
 62
               0
100
AcDbCircle
 10
570.14285380569731
 20
-635.76662698779
 30
0.0
 40
4.99969482421875
  0
HATCH
  5
D9
100
AcDbEntity
  8
0
370
              -2
390
0
  6
Continuous
 62
               0
100
AcDbHatch
 10
0.0
 20
0.0
 30
0.0
210
0.0
220
0.0
230
1.0
  2
SOLID
 70
               1
 71
               1
 91
        1
 92
        1
 93
        1
 72
               2
 10
570.14285380569731
 20
-635.76662698779
 40
4.99969482421875
 50
0.0
 51
360.0
 73
               0
 97
        1
330
D8
 75
               0
 76
               1
 98
        1
 10
0.0
 20
0.0
  0
MTEXT
  5
DA
100
AcDbEntity
  8
0
390
0
 62
               0
100
AcDbMText
 10
691.33035212352024
 20
-601.88900980028995
 30
0.0
 40
24.432617187500004
 41
0.0
 71
               1
 72
               1
  1
290
  7
ＭＳ ゴシック
 73
               1
 44
0.7828267384257843
  0
POINT
  5
DB
100
AcDbEntity
  8
Defpoints
370
               0
390
0
 62
               0
100
AcDbPoint
 10
570.14285380569731
 20
-530.76662698779
 30
0.0
  0
POINT
  5
DC
100
AcDbEntity
  8
Defpoints
370
               0
390
0
 62
               0
100
AcDbPoint
 10
860.14285380569402
 20
-531.76662698779
 30
0.0
  0
POINT
  5
DD
100
AcDbEntity
  8
Defpoints
370
               0
390
0
 62
               0
100
AcDbPoint
 10
860.14285380569402
 20
-635.76662698779
 30
0.0
  0
ENDBLK
  5
DE
100
AcDbEntity
  8
notes
390
0
100
AcDbBlockEnd
  0
BLOCK
  5
DF
100
AcDbEntity
  8
notes
390
0
100
AcDbBlockBegin
  2
*D13
 70
               1
 10
0.0
 20
0.0
 30
0.0
  3
*D13
  1

  0
LINE
  5
E0
100
AcDbEntity
  8
0
370
              -2
390
0
  6
Continuous
 62
               0
100
AcDbLine
 10
860.14285380569402
 20
-325.76662698779228
 30
0.0
 11
860.14285380569402
 21
-245.76662698779228
 31
0.0
  0
LINE
  5
E1
100
AcDbEntity
  8
0
370
              -2
390
0
  6
Continuous
 62
               0
100
AcDbLine
 10
795.1428538056964
 20
-320.76662698779228
 30
0.0
 11
795.1428538056964
 21
-245.76662698779228
 31
0.0
  0
LINE
  5
E2
100
AcDbEntity
  8
0
370
              -2
390
0
  6
Continuous
 62
               0
100
AcDbLine
 10
860.14285380569402
 20
-245.76662698779228
 30
0.0
 11
795.1428538056964
 21
-245.76662698779228
 31
0.0
  0
CIRCLE
  5
E3
102
{ACAD_REACTORS
330
E4
102
}
100
AcDbEntity
  8
0
370
              -2
390
0
  6
Continuous
 62
               0
100
AcDbCircle
 10
860.14285380569402
 20
-245.76662698779228
 30
0.0
 40
4.99969482421875
  0
HATCH
  5
E4
100
AcDbEntity
  8
0
370
              -2
390
0
  6
Continuous
 62
               0
100
AcDbHatch
 10
0.0
 20
0.0
 30
0.0
210
0.0
220
0.0
230
1.0
  2
SOLID
 70
               1
 71
               1
 91
        1
 92
        1
 93
        1
 72
               2
 10
860.14285380569402
 20
-245.76662698779228
 40
4.99969482421875
 50
0.0
 51
360.0
 73
               0
 97
        1
330
E3
 75
               0
 76
               1
 98
        1
 10
0.0
 20
0.0
  0
CIRCLE
  5
E5
102
{ACAD_REACTORS
330
E6
102
}
100
AcDbEntity
  8
0
370
              -2
390
0
  6
Continuous
 62
               0
100
AcDbCircle
 10
795.1428538056964
 20
-245.76662698779228
 30
0.0
 40
4.99969482421875
  0
HATCH
  5
E6
100
AcDbEntity
  8
0
370
              -2
390
0
  6
Continuous
 62
               0
100
AcDbHatch
 10
0.0
 20
0.0
 30
0.0
210
0.0
220
0.0
230
1.0
  2
SOLID
 70
               1
 71
               1
 91
        1
 92
        1
 93
        1
 72
               2
 10
795.1428538056964
 20
-245.76662698779228
 40
4.99969482421875
 50
0.0
 51
360.0
 73
               0
 97
        1
330
E5
 75
               0
 76
               1
 98
        1
 10
0.0
 20
0.0
  0
MTEXT
  5
E7
100
AcDbEntity
  8
0
390
0
 62
               0
100
AcDbMText
 10
811.76785380569527
 20
-211.88900980029229
 30
0.0
 40
24.432617187500004
 41
0.0
 71
               1
 72
               1
  1
65
  7
ＭＳ ゴシック
 73
               1
 44
0.7828267384257843
  0
POINT
  5
E8
100
AcDbEntity
  8
Defpoints
370
               0
390
0
 62
               0
100
AcDbPoint
 10
795.1428538056964
 20
-345.76662698779228
 30
0.0
  0
POINT
  5
E9
100
AcDbEntity
  8
Defpoints
370
               0
390
0
 62
               0
100
AcDbPoint
 10
860.14285380569402
 20
-350.76662698779228
 30
0.0
  0
POINT
  5
EA
100
AcDbEntity
  8
Defpoints
370
               0
390
0
 62
               0
100
AcDbPoint
 10
860.14285380569402
 20
-245.76662698779228
 30
0.0
  0
ENDBLK
  5
EB
100
AcDbEntity
  8
notes
390
0
100
AcDbBlockEnd
  0
BLOCK
  5
EC
100
AcDbEntity
  8
notes
390
0
100
AcDbBlockBegin
  2
*D14
 70
               1
 10
0.0
 20
0.0
 30
0.0
  3
*D14
  1

  0
LINE
  5
ED
100
AcDbEntity
  8
0
370
              -2
390
0
  6
Continuous
 62
               0
100
AcDbLine
 10
569.90430076618009
 20
-345.76662698779228
 30
0.0
 11
567.05577720405131
 21
-345.76662698779228
 31
0.0
  0
LINE
  5
EE
100
AcDbEntity
  8
0
370
              -2
390
0
  6
Continuous
 62
               0
100
AcDbLine
 10
569.90430076618009
 20
-480.76662698779228
 30
0.0
 11
567.05577720405131
 21
-480.76662698779228
 31
0.0
  0
LINE
  5
EF
100
AcDbEntity
  8
0
370
              -2
390
0
  6
Continuous
 62
               0
100
AcDbLine
 10
567.05577720405131
 20
-345.76662698779228
 30
0.0
 11
567.05577720405131
 21
-195.13028547568422
 31
0.0
  0
LINE
  5
F0
100
AcDbEntity
  8
0
370
              -2
390
0
  6
Continuous
 62
               0
100
AcDbLine
 10
567.05577720405131
 20
-345.76662698779228
 30
0.0
 11
567.05577720405131
 21
-480.76662698779228
 31
0.0
  0
CIRCLE
  5
F1
102
{ACAD_REACTORS
330
F2
102
}
100
AcDbEntity
  8
0
370
              -2
390
0
  6
Continuous
 62
               0
100
AcDbCircle
 10
567.05577720405131
 20
-345.76662698779228
 30
0.0
 40
4.99969482421875
  0
HATCH
  5
F2
100
AcDbEntity
  8
0
370
              -2
390
0
  6
Continuous
 62
               0
100
AcDbHatch
 10
0.0
 20
0.0
 30
0.0
210
0.0
220
0.0
230
1.0
  2
SOLID
 70
               1
 71
               1
 91
        1
 92
        1
 93
        1
 72
               2
 10
567.05577720405131
 20
-345.76662698779228
 40
4.99969482421875
 50
0.0
 51
360.0
 73
               0
 97
        1
330
F1
 75
               0
 76
               1
 98
        1
 10
0.0
 20
0.0
  0
CIRCLE
  5
F3
102
{ACAD_REACTORS
330
F4
102
}
100
AcDbEntity
  8
0
370
              -2
390
0
  6
Continuous
 62
               0
100
AcDbCircle
 10
567.05577720405131
 20
-480.76662698779228
 30
0.0
 40
4.99969482421875
  0
HATCH
  5
F4
100
AcDbEntity
  8
0
370
              -2
390
0
  6
Continuous
 62
               0
100
AcDbHatch
 10
0.0
 20
0.0
 30
0.0
210
0.0
220
0.0
230
1.0
  2
SOLID
 70
               1
 71
               1
 91
        1
 92
        1
 93
        1
 72
               2
 10
567.05577720405131
 20
-480.76662698779228
 40
4.99969482421875
 50
0.0
 51
360.0
 73
               0
 97
        1
330
F3
 75
               0
 76
               1
 98
        1
 10
0.0
 20
0.0
  0
MTEXT
  5
F5
100
AcDbEntity
  8
0
390
0
 62
               0
100
AcDbMText
 10
533.17816001655137
 20
-338.00528547568422
 30
0.0
 40
24.432617187500004
 41
0.0
 71
               1
 72
               1
  1
135(深さ)
  7
ＭＳ ゴシック
 11
0.0
 21
1.0
 31
0.0
 73
               1
 44
0.7828267384257843
  0
POINT
  5
F6
100
AcDbEntity
  8
Defpoints
370
               0
390
0
 62
               0
100
AcDbPoint
 10
594.90430076618009
 20
-480.76662698779228
 30
0.0
  0
POINT
  5
F7
100
AcDbEntity
  8
Defpoints
370
               0
390
0
 62
               0
100
AcDbPoint
 10
594.90430076618009
 20
-345.76662698779228
 30
0.0
  0
POINT
  5
F8
100
AcDbEntity
  8
Defpoints
370
               0
390
0
 62
               0
100
AcDbPoint
 10
567.05577720405131
 20
-345.76662698779228
 30
0.0
  0
ENDBLK
  5
F9
100
AcDbEntity
  8
notes
390
0
100
AcDbBlockEnd
  0
BLOCK
  5
FA
100
AcDbEntity
  8
notes
390
0
100
AcDbBlockBegin
  2
*D15
 70
               1
 10
0.0
 20
0.0
 30
0.0
  3
*D15
  1

  0
LINE
  5
FB
100
AcDbEntity
  8
0
370
              -2
390
0
  6
Continuous
 62
               0
100
AcDbLine
 10
73.103484346618188
 20
-395.76662698779137
 30
0.0
 11
148.10348434661773
 21
-395.76662698779137
 31
0.0
  0
LINE
  5
FC
100
AcDbEntity
  8
0
370
              -2
390
0
  6
Continuous
 62
               0
100
AcDbLine
 10
-162.11504325485066
 20
-535.76662698779
 30
0.0
 11
148.10348434661773
 21
-535.76662698779
 31
0.0
  0
LINE
  5
FD
100
AcDbEntity
  8
0
370
              -2
390
0
  6
Continuous
 62
               0
100
AcDbLine
 10
148.10348434661773
 20
-395.76662698779137
 30
0.0
 11
148.10348434661773
 21
-535.76662698779
 31
0.0
  0
CIRCLE
  5
FE
102
{ACAD_REACTORS
330
FF
102
}
100
AcDbEntity
  8
0
370
              -2
390
0
  6
Continuous
 62
               0
100
AcDbCircle
 10
148.10348434661773
 20
-395.76662698779137
 30
0.0
 40
4.99969482421875
  0
HATCH
  5
FF
100
AcDbEntity
  8
0
370
              -2
390
0
  6
Continuous
 62
               0
100
AcDbHatch
 10
0.0
 20
0.0
 30
0.0
210
0.0
220
0.0
230
1.0
  2
SOLID
 70
               1
 71
               1
 91
        1
 92
        1
 93
        1
 72
               2
 10
148.10348434661773
 20
-395.76662698779137
 40
4.99969482421875
 50
0.0
 51
360.0
 73
               0
 97
        1
330
FE
 75
               0
 76
               1
 98
        1
 10
0.0
 20
0.0
  0
CIRCLE
  5
100
102
{ACAD_REACTORS
330
101
102
}
100
AcDbEntity
  8
0
370
              -2
390
0
  6
Continuous
 62
               0
100
AcDbCircle
 10
148.10348434661773
 20
-535.76662698779
 30
0.0
 40
4.99969482421875
  0
HATCH
  5
101
100
AcDbEntity
  8
0
370
              -2
390
0
  6
Continuous
 62
               0
100
AcDbHatch
 10
0.0
 20
0.0
 30
0.0
210
0.0
220
0.0
230
1.0
  2
SOLID
 70
               1
 71
               1
 91
        1
 92
        1
 93
        1
 72
               2
 10
148.10348434661773
 20
-535.76662698779
 40
4.99969482421875
 50
0.0
 51
360.0
 73
               0
 97
        1
330
100
 75
               0
 76
               1
 98
        1
 10
0.0
 20
0.0
  0
MTEXT
  5
102
100
AcDbEntity
  8
0
390
0
 62
               0
100
AcDbMText
 10
114.2258671591178
 20
-489.57912866996622
 30
0.0
 40
24.432617187500004
 41
0.0
 71
               1
 72
               1
  1
140
  7
ＭＳ ゴシック
 11
0.0
 21
1.0
 31
0.0
 73
               1
 44
0.7828267384257843
  0
POINT
  5
103
100
AcDbEntity
  8
Defpoints
370
               0
390
0
 62
               0
100
AcDbPoint
 10
-187.11504325485066
 20
-535.76662698779
 30
0.0
  0
POINT
  5
104
100
AcDbEntity
  8
Defpoints
370
               0
390
0
 62
               0
100
AcDbPoint
 10
48.103484346618188
 20
-395.76662698779137
 30
0.0
  0
POINT
  5
105
100
AcDbEntity
  8
Defpoints
370
               0
390
0
 62
               0
100
AcDbPoint
 10
148.10348434661773
 20
-395.76662698779137
 30
0.0
  0
ENDBLK
  5
106
100
AcDbEntity
  8
notes
390
0
100
AcDbBlockEnd
  0
BLOCK
  5
107
100
AcDbEntity
  8
notes
390
0
100
AcDbBlockBegin
  2
*D16
 70
               1
 10
0.0
 20
0.0
 30
0.0
  3
*D16
  1

  0
LINE
  5
108
100
AcDbEntity
  8
0
370
              -2
390
0
  6
Continuous
 62
               0
100
AcDbLine
 10
-519.43845748730746
 20
-560.76662698779
 30
0.0
 11
-519.43845748730746
 21
-635.76662698779
 31
0.0
  0
LINE
  5
109
100
AcDbEntity
  8
0
370
              -2
390
0
  6
Continuous
 62
               0
100
AcDbLine
 10
-184.43845748730746
 20
-560.76662698779
 30
0.0
 11
-184.43845748730746
 21
-635.76662698779
 31
0.0
  0
LINE
  5
10A
100
AcDbEntity
  8
0
370
              -2
390
0
  6
Continuous
 62
               0
100
AcDbLine
 10
-519.43845748730746
 20
-635.76662698779
 30
0.0
 11
-184.43845748730746
 21
-635.76662698779
 31
0.0
  0
CIRCLE
  5
10B
102
{ACAD_REACTORS
330
10C
102
}
100
AcDbEntity
  8
0
370
              -2
390
0
  6
Continuous
 62
               0
100
AcDbCircle
 10
-519.43845748730746
 20
-635.76662698779
 30
0.0
 40
4.99969482421875
  0
HATCH
  5
10C
100
AcDbEntity
  8
0
370
              -2
390
0
  6
Continuous
 62
               0
100
AcDbHatch
 10
0.0
 20
0.0
 30
0.0
210
0.0
220
0.0
230
1.0
  2
SOLID
 70
               1
 71
               1
 91
        1
 92
        1
 93
        1
 72
               2
 10
-519.43845748730746
 20
-635.76662698779
 40
4.99969482421875
 50
0.0
 51
360.0
 73
               0
 97
        1
330
10B
 75
               0
 76
               1
 98
        1
 10
0.0
 20
0.0
  0
CIRCLE
  5
10D
102
{ACAD_REACTORS
330
10E
102
}
100
AcDbEntity
  8
0
370
              -2
390
0
  6
Continuous
 62
               0
100
AcDbCircle
 10
-184.43845748730746
 20
-635.76662698779
 30
0.0
 40
4.99969482421875
  0
HATCH
  5
10E
100
AcDbEntity
  8
0
370
              -2
390
0
  6
Continuous
 62
               0
100
AcDbHatch
 10
0.0
 20
0.0
 30
0.0
210
0.0
220
0.0
230
1.0
  2
SOLID
 70
               1
 71
               1
 91
        1
 92
        1
 93
        1
 72
               2
 10
-184.43845748730746
 20
-635.76662698779
 40
4.99969482421875
 50
0.0
 51
360.0
 73
               0
 97
        1
330
10D
 75
               0
 76
               1
 98
        1
 10
0.0
 20
0.0
  0
MTEXT
  5
10F
100
AcDbEntity
  8
0
390
0
 62
               0
100
AcDbMText
 10
-375.75095916948294
 20
-601.88900980028995
 30
0.0
 40
24.432617187500004
 41
0.0
 71
               1
 72
               1
  1
335
  7
ＭＳ ゴシック
 73
               1
 44
0.7828267384257843
  0
POINT
  5
110
100
AcDbEntity
  8
Defpoints
370
               0
390
0
 62
               0
100
AcDbPoint
 10
-184.43845748730746
 20
-535.76662698779
 30
0.0
  0
POINT
  5
111
100
AcDbEntity
  8
Defpoints
370
               0
390
0
 62
               0
100
AcDbPoint
 10
-519.43845748730746
 20
-535.76662698779
 30
0.0
  0
POINT
  5
112
100
AcDbEntity
  8
Defpoints
370
               0
390
0
 62
               0
100
AcDbPoint
 10
-519.43845748730746
 20
-635.76662698779
 30
0.0
  0
ENDBLK
  5
113
100
AcDbEntity
  8
notes
390
0
100
AcDbBlockEnd
  0
BLOCK
  5
114
100
AcDbEntity
  8
notes
390
0
100
AcDbBlockBegin
  2
*D17
 70
               1
 10
0.0
 20
0.0
 30
0.0
  3
*D17
  1

  0
LINE
  5
115
100
AcDbEntity
  8
0
370
              -2
390
0
  6
Continuous
 62
               0
100
AcDbLine
 10
860.14285380569447
 20
-556.76662698779012
 30
0.0
 11
860.14285380569447
 21
-685.76662698779
 31
0.0
  0
LINE
  5
116
100
AcDbEntity
  8
0
370
              -2
390
0
  6
Continuous
 62
               0
100
AcDbLine
 10
470.14285380569459
 20
-560.40917993076482
 30
0.0
 11
470.14285380569459
 21
-685.76662698779
 31
0.0
  0
LINE
  5
117
100
AcDbEntity
  8
0
370
              -2
390
0
  6
Continuous
 62
               0
100
AcDbLine
 10
860.14285380569447
 20
-685.76662698779
 30
0.0
 11
470.14285380569459
 21
-685.76662698779
 31
0.0
  0
CIRCLE
  5
118
102
{ACAD_REACTORS
330
119
102
}
100
AcDbEntity
  8
0
370
              -2
390
0
  6
Continuous
 62
               0
100
AcDbCircle
 10
860.14285380569447
 20
-685.76662698779
 30
0.0
 40
4.99969482421875
  0
HATCH
  5
119
100
AcDbEntity
  8
0
370
              -2
390
0
  6
Continuous
 62
               0
100
AcDbHatch
 10
0.0
 20
0.0
 30
0.0
210
0.0
220
0.0
230
1.0
  2
SOLID
 70
               1
 71
               1
 91
        1
 92
        1
 93
        1
 72
               2
 10
860.14285380569447
 20
-685.76662698779
 40
4.99969482421875
 50
0.0
 51
360.0
 73
               0
 97
        1
330
118
 75
               0
 76
               1
 98
        1
 10
0.0
 20
0.0
  0
CIRCLE
  5
11A
102
{ACAD_REACTORS
330
11B
102
}
100
AcDbEntity
  8
0
370
              -2
390
0
  6
Continuous
 62
               0
100
AcDbCircle
 10
470.14285380569459
 20
-685.76662698779
 30
0.0
 40
4.99969482421875
  0
HATCH
  5
11B
100
AcDbEntity
  8
0
370
              -2
390
0
  6
Continuous
 62
               0
100
AcDbHatch
 10
0.0
 20
0.0
 30
0.0
210
0.0
220
0.0
230
1.0
  2
SOLID
 70
               1
 71
               1
 91
        1
 92
        1
 93
        1
 72
               2
 10
470.14285380569459
 20
-685.76662698779
 40
4.99969482421875
 50
0.0
 51
360.0
 73
               0
 97
        1
330
11A
 75
               0
 76
               1
 98
        1
 10
0.0
 20
0.0
  0
MTEXT
  5
11C
100
AcDbEntity
  8
0
390
0
 62
               0
100
AcDbMText
 10
641.33035212351911
 20
-651.88900980028995
 30
0.0
 40
24.432617187500004
 41
0.0
 71
               1
 72
               1
  1
390
  7
ＭＳ ゴシック
 73
               1
 44
0.7828267384257843
  0
POINT
  5
11D
100
AcDbEntity
  8
Defpoints
370
               0
390
0
 62
               0
100
AcDbPoint
 10
470.14285380569459
 20
-535.40917993076482
 30
0.0
  0
POINT
  5
11E
100
AcDbEntity
  8
Defpoints
370
               0
390
0
 62
               0
100
AcDbPoint
 10
860.14285380569447
 20
-531.76662698779012
 30
0.0
  0
POINT
  5
11F
100
AcDbEntity
  8
Defpoints
370
               0
390
0
 62
               0
100
AcDbPoint
 10
860.14285380569447
 20
-685.76662698779
 30
0.0
  0
ENDBLK
  5
120
100
AcDbEntity
  8
notes
390
0
100
AcDbBlockEnd
  0
BLOCK
  5
121
100
AcDbEntity
  8
notes
390
0
100
AcDbBlockBegin
  2
*D18
 70
               1
 10
0.0
 20
0.0
 30
0.0
  3
*D18
  1

  0
LINE
  5
122
100
AcDbEntity
  8
0
370
              -2
390
0
  6
Continuous
 62
               0
100
AcDbLine
 10
-116.90234797535095
 20
434.11413622641044
 30
0.0
 11
-116.90234797535095
 21
290.0
 31
0.0
  0
LINE
  5
123
100
AcDbEntity
  8
0
370
              -2
390
0
  6
Continuous
 62
               0
100
AcDbLine
 10
48.108055709661585
 20
519.15557089576055
 30
0.0
 11
48.108055709661585
 21
290.0
 31
0.0
  0
LINE
  5
124
100
AcDbEntity
  8
0
370
              -2
390
0
  6
Continuous
 62
               0
100
AcDbLine
 10
-116.90234797535095
 20
290.0
 30
0.0
 11
48.108055709661585
 21
290.0
 31
0.0
  0
CIRCLE
  5
125
102
{ACAD_REACTORS
330
126
102
}
100
AcDbEntity
  8
0
370
              -2
390
0
  6
Continuous
 62
               0
100
AcDbCircle
 10
-116.90234797535095
 20
290.0
 30
0.0
 40
4.99969482421875
  0
HATCH
  5
126
100
AcDbEntity
  8
0
370
              -2
390
0
  6
Continuous
 62
               0
100
AcDbHatch
 10
0.0
 20
0.0
 30
0.0
210
0.0
220
0.0
230
1.0
  2
SOLID
 70
               1
 71
               1
 91
        1
 92
        1
 93
        1
 72
               2
 10
-116.90234797535095
 20
290.0
 40
4.99969482421875
 50
0.0
 51
360.0
 73
               0
 97
        1
330
125
 75
               0
 76
               1
 98
        1
 10
0.0
 20
0.0
  0
CIRCLE
  5
127
102
{ACAD_REACTORS
330
128
102
}
100
AcDbEntity
  8
0
370
              -2
390
0
  6
Continuous
 62
               0
100
AcDbCircle
 10
48.108055709661585
 20
290.0
 30
0.0
 40
4.99969482421875
  0
HATCH
  5
128
100
AcDbEntity
  8
0
370
              -2
390
0
  6
Continuous
 62
               0
100
AcDbHatch
 10
0.0
 20
0.0
 30
0.0
210
0.0
220
0.0
230
1.0
  2
SOLID
 70
               1
 71
               1
 91
        1
 92
        1
 93
        1
 72
               2
 10
48.108055709661585
 20
290.0
 40
4.99969482421875
 50
0.0
 51
360.0
 73
               0
 97
        1
330
127
 75
               0
 76
               1
 98
        1
 10
0.0
 20
0.0
  0
MTEXT
  5
129
100
AcDbEntity
  8
0
390
0
 62
               0
100
AcDbMText
 10
-58.209647815020162
 20
323.87761718750005
 30
0.0
 40
24.432617187500004
 41
0.0
 71
               1
 72
               1
  1
165
  7
ＭＳ ゴシック
 73
               1
 44
0.7828267384257843
  0
POINT
  5
12A
100
AcDbEntity
  8
Defpoints
370
               0
390
0
 62
               0
100
AcDbPoint
 10
48.108055709661585
 20
544.15557089576055
 30
0.0
  0
POINT
  5
12B
100
AcDbEntity
  8
Defpoints
370
               0
390
0
 62
               0
100
AcDbPoint
 10
-116.90234797535095
 20
459.11413622641044
 30
0.0
  0
POINT
  5
12C
100
AcDbEntity
  8
Defpoints
370
               0
390
0
 62
               0
100
AcDbPoint
 10
-116.90234797535095
 20
290.0
 30
0.0
  0
ENDBLK
  5
12D
100
AcDbEntity
  8
notes
390
0
100
AcDbBlockEnd
  0
BLOCK
  5
12E
100
AcDbEntity
  8
notes
390
0
100
AcDbBlockBegin
  2
*D19
 70
               1
 10
0.0
 20
0.0
 30
0.0
  3
*D19
  1

  0
LINE
  5
12F
100
AcDbEntity
  8
0
370
              -2
390
0
  6
Continuous
 62
               0
100
AcDbLine
 10
-776.89194429033751
 20
745.15557089575964
 30
0.0
 11
-851.89194429033796
 21
745.15557089575964
 31
0.0
  0
LINE
  5
130
100
AcDbEntity
  8
0
370
              -2
390
0
  6
Continuous
 62
               0
100
AcDbLine
 10
-772.89194429033751
 20
870.15557089575918
 30
0.0
 11
-851.89194429033796
 21
870.15557089575918
 31
0.0
  0
LINE
  5
131
100
AcDbEntity
  8
0
370
              -2
390
0
  6
Continuous
 62
               0
100
AcDbLine
 10
-851.89194429033796
 20
745.15557089575964
 30
0.0
 11
-851.89194429033796
 21
870.15557089575918
 31
0.0
  0
CIRCLE
  5
132
102
{ACAD_REACTORS
330
133
102
}
100
AcDbEntity
  8
0
370
              -2
390
0
  6
Continuous
 62
               0
100
AcDbCircle
 10
-851.89194429033796
 20
745.15557089575964
 30
0.0
 40
4.99969482421875
  0
HATCH
  5
133
100
AcDbEntity
  8
0
370
              -2
390
0
  6
Continuous
 62
               0
100
AcDbHatch
 10
0.0
 20
0.0
 30
0.0
210
0.0
220
0.0
230
1.0
  2
SOLID
 70
               1
 71
               1
 91
        1
 92
        1
 93
        1
 72
               2
 10
-851.89194429033796
 20
745.15557089575964
 40
4.99969482421875
 50
0.0
 51
360.0
 73
               0
 97
        1
330
132
 75
               0
 76
               1
 98
        1
 10
0.0
 20
0.0
  0
CIRCLE
  5
134
102
{ACAD_REACTORS
330
135
102
}
100
AcDbEntity
  8
0
370
              -2
390
0
  6
Continuous
 62
               0
100
AcDbCircle
 10
-851.89194429033796
 20
870.15557089575918
 30
0.0
 40
4.99969482421875
  0
HATCH
  5
135
100
AcDbEntity
  8
0
370
              -2
390
0
  6
Continuous
 62
               0
100
AcDbHatch
 10
0.0
 20
0.0
 30
0.0
210
0.0
220
0.0
230
1.0
  2
SOLID
 70
               1
 71
               1
 91
        1
 92
        1
 93
        1
 72
               2
 10
-851.89194429033796
 20
870.15557089575918
 40
4.99969482421875
 50
0.0
 51
360.0
 73
               0
 97
        1
330
134
 75
               0
 76
               1
 98
        1
 10
0.0
 20
0.0
  0
MTEXT
  5
136
100
AcDbEntity
  8
0
390
0
 62
               0
100
AcDbMText
 10
-885.76956147783812
 20
783.84306921358393
 30
0.0
 40
24.432617187500004
 41
0.0
 71
               1
 72
               1
  1
125
  7
ＭＳ ゴシック
 11
0.0
 21
1.0
 31
0.0
 73
               1
 44
0.7828267384257843
  0
POINT
  5
137
100
AcDbEntity
  8
Defpoints
370
               0
390
0
 62
               0
100
AcDbPoint
 10
-747.89194429033751
 20
870.15557089575918
 30
0.0
  0
POINT
  5
138
100
AcDbEntity
  8
Defpoints
370
               0
390
0
 62
               0
100
AcDbPoint
 10
-751.89194429033751
 20
745.15557089575964
 30
0.0
  0
POINT
  5
139
100
AcDbEntity
  8
Defpoints
370
               0
390
0
 62
               0
100
AcDbPoint
 10
-851.89194429033796
 20
745.15557089575964
 30
0.0
  0
ENDBLK
  5
13A
100
AcDbEntity
  8
notes
390
0
100
AcDbBlockEnd
  0
BLOCK
  5
13B
100
AcDbEntity
  8
notes
390
0
100
AcDbBlockBegin
  2
*D20
 70
               1
 10
0.0
 20
0.0
 30
0.0
  3
*D20
  1

  0
LINE
  5
13C
100
AcDbEntity
  8
0
370
              -2
390
0
  6
Continuous
 62
               0
100
AcDbLine
 10
534.67134899650409
 20
-525.79999999999995
 30
0.0
 11
513.0
 21
-525.79999999999995
 31
0.0
  0
LINE
  5
13D
100
AcDbEntity
  8
0
370
              -2
390
0
  6
Continuous
 62
               0
100
AcDbLine
 10
534.67134899650409
 20
-535.76662698779
 30
0.0
 11
513.0
 21
-535.76662698779
 31
0.0
  0
LINE
  5
13E
100
AcDbEntity
  8
0
370
              -2
390
0
  6
Continuous
 62
               0
100
AcDbLine
 10
513.0
 20
-535.76662698779
 30
0.0
 11
513.0
 21
-574.75
 31
0.0
  0
LINE
  5
13F
100
AcDbEntity
  8
0
370
              -2
390
0
  6
Continuous
 62
               0
100
AcDbLine
 10
513.0
 20
-525.79999999999995
 30
0.0
 11
513.0
 21
-535.76662698779
 31
0.0
  0
CIRCLE
  5
140
102
{ACAD_REACTORS
330
141
102
}
100
AcDbEntity
  8
0
370
              -2
390
0
  6
Continuous
 62
               0
100
AcDbCircle
 10
513.0
 20
-525.79999999999995
 30
0.0
 40
4.99969482421875
  0
HATCH
  5
141
100
AcDbEntity
  8
0
370
              -2
390
0
  6
Continuous
 62
               0
100
AcDbHatch
 10
0.0
 20
0.0
 30
0.0
210
0.0
220
0.0
230
1.0
  2
SOLID
 70
               1
 71
               1
 91
        1
 92
        1
 93
        1
 72
               2
 10
513.0
 20
-525.79999999999995
 40
4.99969482421875
 50
0.0
 51
360.0
 73
               0
 97
        1
330
140
 75
               0
 76
               1
 98
        1
 10
0.0
 20
0.0
  0
CIRCLE
  5
142
102
{ACAD_REACTORS
330
143
102
}
100
AcDbEntity
  8
0
370
              -2
390
0
  6
Continuous
 62
               0
100
AcDbCircle
 10
513.0
 20
-535.76662698779
 30
0.0
 40
4.99969482421875
  0
HATCH
  5
143
100
AcDbEntity
  8
0
370
              -2
390
0
  6
Continuous
 62
               0
100
AcDbHatch
 10
0.0
 20
0.0
 30
0.0
210
0.0
220
0.0
230
1.0
  2
SOLID
 70
               1
 71
               1
 91
        1
 92
        1
 93
        1
 72
               2
 10
513.0
 20
-535.76662698779
 40
4.99969482421875
 50
0.0
 51
360.0
 73
               0
 97
        1
330
142
 75
               0
 76
               1
 98
        1
 10
0.0
 20
0.0
  0
MTEXT
  5
144
100
AcDbEntity
  8
0
390
0
 62
               0
100
AcDbMText
 10
479.12238281250006
 20
-574.75
 30
0.0
 40
24.432617187500004
 41
0.0
 71
               1
 72
               1
  1
10
  7
ＭＳ ゴシック
 11
0.0
 21
1.0
 31
0.0
 73
               1
 44
0.7828267384257843
  0
POINT
  5
145
100
AcDbEntity
  8
Defpoints
370
               0
390
0
 62
               0
100
AcDbPoint
 10
559.67134899650409
 20
-535.76662698779
 30
0.0
  0
POINT
  5
146
100
AcDbEntity
  8
Defpoints
370
               0
390
0
 62
               0
100
AcDbPoint
 10
559.67134899650409
 20
-525.79999999999995
 30
0.0
  0
POINT
  5
147
100
AcDbEntity
  8
Defpoints
370
               0
390
0
 62
               0
100
AcDbPoint
 10
513.0
 20
-525.79999999999995
 30
0.0
  0
ENDBLK
  5
148
100
AcDbEntity
  8
notes
390
0
100
AcDbBlockEnd
  0
ENDSEC
  0
SECTION
  2
ENTITIES
  0
MTEXT
  5
149
100
AcDbEntity
  8
template
390
0
 62
               7
100
AcDbMText
 10
-967.99999999975898
 20
-1147.4176292337006
 30
0.0
 40
16.288411458333332
 41
0.0
 71
               1
 72
               1
  1
品名
  7
ＭＳ ゴシック
 73
               1
 44
0.7828267384257843
  0
MTEXT
  5
14A
100
AcDbEntity
  8
template
390
0
 62
               7
100
AcDbMText
 10
-967.99999999975898
 20
-1232.4176292337006
 30
0.0
 40
16.288411458333332
 41
0.0
 71
               1
 72
               1
  1
仕様
  7
ＭＳ ゴシック
 73
               1
 44
0.7828267384257843
  0
MTEXT
  5
14B
100
AcDbEntity
  8
template
390
0
 62
               7
100
AcDbMText
 10
-914.99999999975898
 20
-1176.0000901712006
 30
0.0
 40
24.432617187500004
 41
0.0
 71
               1
 72
               1
  1
洗面器 -CATALANO,Sfera-
  7
ＭＳ ゴシック
 73
               1
 44
0.7828267384257843
  0
LINE
  5
14C
100
AcDbEntity
  8
template
370
               5
390
0
  6
Continuous
 62
               7
100
AcDbLine
 10
974.99999999975876
 20
-1224.0027073587005
 30
0.0
 11
-975.00000000024102
 21
-1224.0027073587005
 31
0.0
  0
LWPOLYLINE
  5
14D
100
AcDbEntity
  8
template
370
               5
390
0
  6
Continuous
 62
               7
100
AcDbPolyline
 90
        5
 70
             128
 10
975.00000000024124
 20
1405.9972926412995
 10
-974.99999999975898
 20
1405.9972926412995
 10
-974.99999999975898
 20
-1394.0027073587005
 10
975.00000000024124
 20
-1394.0027073587005
 10
975.00000000024124
 20
1405.9972926412995
  0
LINE
  5
14E
100
AcDbEntity
  8
template
370
               5
390
0
  6
Continuous
 62
               7
100
AcDbLine
 10
974.99999999975876
 20
-1139.0027073587005
 30
0.0
 11
-975.00000000024102
 21
-1139.0027073587005
 31
0.0
  0
LINE
  5
14F
100
AcDbEntity
  8
template
370
               5
390
0
  6
Continuous
 62
               7
100
AcDbLine
 10
975.00000000024124
 20
-1309.0027073587005
 30
0.0
 11
222.00000000024124
 21
-1309.0027073587005
 31
0.0
  0
MTEXT
  5
150
100
AcDbEntity
  8
template
390
0
 62
               7
100
AcDbMText
 10
-974.99999999955617
 20
-1405.8565294155574
 30
0.0
 40
21.717881944444446
 41
0.0
 71
               1
 72
               1
  1
120326SH
  7
ＭＳ ゴシック
 73
               1
 44
0.7828267384257843
  0
MTEXT
  5
151
100
AcDbEntity
  8
template
390
0
 62
               7
100
AcDbMText
 10
251.87140625250095
 20
-1338.9131018320081
 30
0.0
 40
24.432617187500004
 41
0.0
 71
               1
 72
               1
  1
大洋金物株式会社 ティーフォルム事業部
  7
ＭＳ ゴシック
 73
               1
 44
0.7828267384257843
  0
INSERT
  5
152
100
AcDbEntity
  8
template
390
0
 62
               7
100
AcDbBlockReference
  2
グループ
 10
1840.5002668420038
 20
-599.46725383127432
 30
0.0
  0
MTEXT
  5
153
100
AcDbEntity
  8
template
390
0
 62
               7
100
AcDbMText
 10
784.00000000049999
 20
-1261.0000901712006
 30
0.0
 40
24.432617187500004
 41
0.0
 71
               1
 72
               1
  1
1:10
  7
ＭＳ ゴシック
 73
               1
 44
0.7828267384257843
  0
MTEXT
  5
154
100
AcDbEntity
  8
template
390
0
 62
               7
100
AcDbMText
 10
731.00000000049999
 20
-1232.4176292337006
 30
0.0
 40
16.288411458333332
 41
0.0
 71
               1
 72
               1
  1
縮尺
  7
ＭＳ ゴシック
 73
               1
 44
0.7828267384257843
  0
LINE
  5
155
100
AcDbEntity
  8
template
370
               5
390
0
  6
Continuous
 62
               7
100
AcDbLine
 10
724.00000000049999
 20
-1309.0027073587005
 30
0.0
 11
724.00000000049999
 21
-1224.0027073587005
 31
0.0
  0
MTEXT
  5
156
100
AcDbEntity
  8
template
390
0
 62
               7
100
AcDbMText
 10
480.00000000049999
 20
-1232.4176292337006
 30
0.0
 40
16.288411458333332
 41
0.0
 71
               1
 72
               1
  1
容量
  7
ＭＳ ゴシック
 73
               1
 44
0.7828267384257843
  0
MTEXT
  5
157
100
AcDbEntity
  8
template
390
0
 62
               7
100
AcDbMText
 10
533.00000000049999
 20
-1261.0000901712006
 30
0.0
 40
24.432617187500004
 41
0.0
 71
               1
 72
               1
  1
5.8L
  7
ＭＳ ゴシック
 73
               1
 44
0.7828267384257843
  0
LINE
  5
158
100
AcDbEntity
  8
template
370
               5
390
0
  6
Continuous
 62
               7
100
AcDbLine
 10
473.00000000049999
 20
-1309.0027073587005
 30
0.0
 11
473.00000000049999
 21
-1224.0027073587005
 31
0.0
  0
MTEXT
  5
159
100
AcDbEntity
  8
template
390
0
 62
               7
100
AcDbMText
 10
229.00000000049999
 20
-1147.4176292337006
 30
0.0
 40
16.288411458333332
 41
0.0
 71
               1
 72
               1
  1
品番
  7
ＭＳ ゴシック
 73
               1
 44
0.7828267384257843
  0
MTEXT
  5
15A
100
AcDbEntity
  8
template
390
0
 62
               7
100
AcDbMText
 10
229.00000000049999
 20
-1232.4176292337006
 30
0.0
 40
16.288411458333332
 41
0.0
 71
               1
 72
               1
  1
重量
  7
ＭＳ ゴシック
 73
               1
 44
0.7828267384257843
  0
MTEXT
  5
15B
100
AcDbEntity
  8
template
390
0
 62
               7
100
AcDbMText
 10
282.00000000049999
 20
-1176.0000901712006
 30
0.0
 40
24.432617187500004
 41
0.0
 71
               1
 72
               1
  1
ADF70-1208
  7
ＭＳ ゴシック
 73
               1
 44
0.7828267384257843
  0
MTEXT
  5
15C
100
AcDbEntity
  8
template
390
0
 62
               7
100
AcDbMText
 10
282.00000000049999
 20
-1261.0000901712006
 30
0.0
 40
24.432617187500004
 41
0.0
 71
               1
 72
               1
  1
22kg
  7
ＭＳ ゴシック
 73
               1
 44
0.7828267384257843
  0
LINE
  5
15D
100
AcDbEntity
  8
template
370
               5
390
0
  6
Continuous
 62
               7
100
AcDbLine
 10
222.00000000049999
 20
-1394.0027073587005
 30
0.0
 11
222.00000000049999
 21
-1139.0027073587005
 31
0.0
  0
MTEXT
  5
15E
100
AcDbEntity
  8
template
390
0
 62
               7
100
AcDbMText
 10
-914.99999999975989
 20
-1261.0000901712006
 30
0.0
 40
24.432617187500004
 41
0.0
 71
               1
 72
               1
  1
壁掛け/オーバーフロー付き/壁取付ボルト付属/\P陶器/ホワイト
  7
ＭＳ ゴシック
 73
               1
 44
1.3047112307096407
  0
DIMENSION
  5
15F
100
AcDbEntity
  8
notes
370
               5
390
0
  6
Continuous
 62
               7
100
AcDbDimension
  2
*D3
 10
-751.89194429033751
 20
970.15557089575964
 30
0.0
 11
-351.89194429033796
 21
970.15557089575964
 31
0.0
 71
               5
 72
               1
 41
1.0
 42
0.0
  3
tform線あり
100
AcDbAlignedDimension
 13
48.108055709661585
 23
866.15557089575918
 33
0.0
 14
-751.89194429033751
 24
866.15557089575918
 34
0.0
100
AcDbRotatedDimension
1001
ACAD
1000
DSTYLE
1002
{
1070
             279
1070
               2
1070
             340
1005
36
1070
             147
1040
5.0
1002
}
  0
DIMENSION
  5
160
100
AcDbEntity
  8
notes
370
               5
390
0
  6
Continuous
 62
               7
100
AcDbDimension
  2
*D4
 10
220.0
 20
870.15557089575918
 30
0.0
 11
225.0
 21
630.15557089575941
 31
0.0
 70
             128
 71
               5
 72
               1
 41
1.0
 42
0.0
  3
tform線あり
100
AcDbAlignedDimension
 13
-254.40234797535186
 23
390.15557089575964
 33
0.0
 14
44.108055709661585
 24
870.15557089575918
 34
0.0
 50
90.0
100
AcDbRotatedDimension
1001
ACAD
1000
DSTYLE
1002
{
1070
             279
1070
               2
1070
             340
1005
36
1070
             147
1040
5.0
1002
}
  0
DIMENSION
  5
161
100
AcDbEntity
  8
notes
370
               5
390
0
  6
Continuous
 62
               7
100
AcDbDimension
  2
*D5
 10
148.10348434661773
 20
870.15557089575918
 30
0.0
 11
153.10348434661773
 21
708.00000000000023
 31
0.0
 70
             128
 71
               5
 72
               1
 41
1.0
 42
0.0
  3
tform線あり
100
AcDbAlignedDimension
 13
44.108055709662494
 23
540.15557089576055
 33
0.0
 14
44.108055709662494
 24
870.15557089575918
 34
0.0
 50
90.0
100
AcDbRotatedDimension
1001
ACAD
1000
DSTYLE
1002
{
1070
             279
1070
               2
1070
             340
1005
36
1070
             147
1040
5.0
1002
}
  0
DIMENSION
  5
162
100
AcDbEntity
  8
notes
370
               5
390
0
  6
Continuous
 62
               7
100
AcDbDimension
  2
*D6
 10
-586.88154060532588
 20
290.15557089575964
 30
0.0
 11
-351.89194429033842
 21
290.15557089575964
 31
0.0
 71
               5
 72
               1
 41
1.0
 42
0.0
  3
tform線あり
100
AcDbAlignedDimension
 13
-116.90234797535095
 23
484.11413622641044
 33
0.0
 14
-586.88154060532588
 24
484.11413622641089
 34
0.0
100
AcDbRotatedDimension
1001
ACAD
1000
DSTYLE
1002
{
1070
             279
1070
               2
1070
             340
1005
36
1070
             147
1040
5.0
1002
}
  0
DIMENSION
  5
163
100
AcDbEntity
  8
notes
370
               5
390
0
  6
Continuous
 62
               7
100
AcDbDimension
  2
*D7
 10
-851.89194429033796
 20
745.15557089575964
 30
0.0
 11
-851.89194429033796
 21
580.15557089575964
 31
0.0
 71
               5
 72
               1
 41
1.0
 42
0.0
  3
tform線あり
100
AcDbAlignedDimension
 13
-517.92297527467417
 23
415.15557089575964
 33
0.0
 14
-751.89194429033751
 24
745.15557089575964
 34
0.0
 50
90.0
100
AcDbRotatedDimension
1001
ACAD
1000
DSTYLE
1002
{
1070
             279
1070
               2
1070
             340
1005
36
1070
             147
1040
5.0
1002
}
  0
DIMENSION
  5
164
100
AcDbEntity
  8
notes
370
               5
390
0
  6
Continuous
 62
               7
100
AcDbDimension
  2
*D8
 10
-491.85577269961914
 20
-245.80528547568474
 30
0.0
 11
-351.85577269961914
 21
-245.80528547568474
 31
0.0
 71
               5
 72
               1
 41
1.0
 42
0.0
  3
tform線あり
100
AcDbAlignedDimension
 13
-211.85577269961914
 23
-365.76662698779182
 33
0.0
 14
-491.85577269961914
 24
-365.80528547568474
 34
0.0
100
AcDbRotatedDimension
1001
ACAD
1000
DSTYLE
1002
{
1070
             279
1070
               2
1070
             340
1005
36
1070
             147
1040
5.0
1002
}
  0
DIMENSION
  5
165
100
AcDbEntity
  8
notes
370
               5
390
0
  6
Continuous
 62
               7
100
AcDbDimension
  2
*D9
 10
230.14388206908029
 20
-535.76662698779
 30
0.0
 11
230.14388206908029
 21
-440.76662698779114
 31
0.0
 71
               5
 72
               1
 41
1.0
 42
0.0
  3
tform線あり
100
AcDbAlignedDimension
 13
379.40221339553659
 23
-345.76662698779228
 33
0.0
 14
465.53359733311277
 24
-535.76662698779
 34
0.0
 50
90.0
100
AcDbRotatedDimension
1001
ACAD
1000
DSTYLE
1002
{
1070
             279
1070
               2
1070
             340
1005
36
1070
             147
1040
5.0
1002
}
  0
DIMENSION
  5
166
100
AcDbEntity
  8
notes
370
               5
390
0
  6
Continuous
 62
               7
100
AcDbDimension
  2
*D10
 10
-851.89194429033796
 20
-345.76662698779228
 30
0.0
 11
-851.89194429033796
 21
-365.78595623173828
 31
0.0
 71
               5
 72
               1
 41
1.0
 42
0.0
  3
tform線あり
100
AcDbAlignedDimension
 13
-511.85577269961823
 23
-385.80528547568429
 33
0.0
 14
-751.89651565338181
 24
-345.76662698779228
 34
0.0
 50
90.0
100
AcDbRotatedDimension
1001
ACAD
1000
DSTYLE
1002
{
1070
             279
1070
               2
1070
             340
1005
36
1070
             147
1040
5.0
1002
}
  0
DIMENSION
  5
167
100
AcDbEntity
  8
notes
370
               5
390
0
  6
Continuous
 62
               7
100
AcDbDimension
  2
*D11
 10
148.10348434661819
 20
-345.76662698779228
 30
0.0
 11
148.10348434661819
 21
-370.76662698779182
 31
0.0
 71
               5
 72
               1
 41
1.0
 42
0.0
  3
tform線あり
100
AcDbAlignedDimension
 13
48.103484346618188
 23
-395.76662698779137
 33
0.0
 14
48.103484346618188
 24
-345.76662698779228
 34
0.0
 50
90.0
100
AcDbRotatedDimension
1001
ACAD
1000
DSTYLE
1002
{
1070
             279
1070
               2
1070
             340
1005
36
1070
             147
1040
5.0
1002
}
  0
DIMENSION
  5
168
100
AcDbEntity
  8
notes
370
               5
390
0
  6
Continuous
 62
               7
100
AcDbDimension
  2
*D12
 10
860.14285380569402
 20
-635.76662698779
 30
0.0
 11
715.14285380569572
 21
-635.76662698779
 31
0.0
 71
               5
 72
               1
 41
1.0
 42
0.0
  3
tform線あり
100
AcDbAlignedDimension
 13
570.14285380569731
 23
-530.76662698779
 33
0.0
 14
860.14285380569402
 24
-531.76662698779
 34
0.0
100
AcDbRotatedDimension
1001
ACAD
1000
DSTYLE
1002
{
1070
             279
1070
               2
1070
             340
1005
36
1070
             147
1040
5.0
1002
}
  0
DIMENSION
  5
169
100
AcDbEntity
  8
notes
370
               5
390
0
  6
Continuous
 62
               7
100
AcDbDimension
  2
*D13
 10
860.14285380569402
 20
-245.76662698779228
 30
0.0
 11
827.64285380569527
 21
-245.76662698779228
 31
0.0
 71
               5
 72
               1
 41
1.0
 42
0.0
  3
tform線あり
100
AcDbAlignedDimension
 13
795.1428538056964
 23
-345.76662698779228
 33
0.0
 14
860.14285380569402
 24
-350.76662698779228
 34
0.0
100
AcDbRotatedDimension
1001
ACAD
1000
DSTYLE
1002
{
1070
             279
1070
               2
1070
             340
1005
36
1070
             147
1040
5.0
1002
}
  0
DIMENSION
  5
16A
100
AcDbEntity
  8
notes
370
               5
390
0
  6
Continuous
 62
               7
100
AcDbDimension
  2
*D14
 10
567.05577720405131
 20
-345.76662698779228
 30
0.0
 11
562.05577720405131
 21
-338.00528547568422
 31
0.0
 70
             128
 71
               5
 72
               1
 41
1.0
 42
0.0
  3
tform線あり
100
AcDbAlignedDimension
 13
594.90430076618009
 23
-480.76662698779228
 33
0.0
 14
594.90430076618009
 24
-345.76662698779228
 34
0.0
 50
90.0
100
AcDbRotatedDimension
1001
ACAD
1000
DSTYLE
1002
{
1070
             279
1070
               2
1070
             340
1005
36
1070
               3
1000
<>(深さ)
1070
             174
1070
               0
1070
             147
1040
5.0
1002
}
  0
CIRCLE
  5
16B
100
AcDbEntity
  8
notes
370
               5
390
0
  6
STYLE_12
 62
               7
100
AcDbCircle
 10
-734.30515411509305
 20
173.95139322233103
 30
0.0
 40
17.500000000000625
  0
DIMENSION
  5
16C
100
AcDbEntity
  8
notes
370
               5
390
0
  6
Continuous
 62
               7
100
AcDbDimension
  2
*D15
 10
148.10348434661773
 20
-395.76662698779137
 30
0.0
 11
148.10348434661773
 21
-465.76662698779069
 31
0.0
 71
               5
 72
               1
 41
1.0
 42
0.0
  3
tform線あり
100
AcDbAlignedDimension
 13
-187.11504325485066
 23
-535.76662698779
 33
0.0
 14
48.103484346618188
 24
-395.76662698779137
 34
0.0
 50
90.0
100
AcDbRotatedDimension
1001
ACAD
1000
DSTYLE
1002
{
1070
             279
1070
               2
1070
             340
1005
36
1070
             147
1040
5.0
1002
}
  0
MTEXT
  5
16D
100
AcDbEntity
  8
notes
390
0
 62
               7
100
AcDbMText
 10
-711.46673341868836
 20
187.97541561672176
 30
0.0
 40
24.432617187500004
 41
836.66157930359611
 71
               1
 72
               1
  1
＝φ30もしくはφ35の水栓取付用穴あけ加工を承ります。\P   必要な場合、ご注文の際にご指示ください。
  7
ＭＳ ゴシック
 73
               1
 44
1.0437689845677123
  0
MTEXT
  5
16E
100
AcDbEntity
  8
notes
390
0
 62
               7
100
AcDbMText
 10
-175.42357685477464
 20
-256.46216501067119
 30
0.0
 40
24.432617187500004
 41
0.0
 71
               1
 72
               1
  1
壁取付ボルト穴(2ヶ所)
  7
ＭＳ ゴシック
 73
               1
 44
0.7828267384257843
  0
LINE
  5
16F
100
AcDbEntity
  8
notes
370
               5
390
0
  6
Continuous
 62
               7
100
AcDbLine
 10
-211.85577269961959
 20
-385.80528547568429
 30
0.0
 11
-155.387864802065
 21
-288.0
 31
0.0
  0
DIMENSION
  5
170
100
AcDbEntity
  8
notes
370
               5
390
0
  6
Continuous
 62
               7
100
AcDbDimension
  2
*D16
 10
-519.43845748730746
 20
-635.76662698779
 30
0.0
 11
-351.93845748730746
 21
-635.76662698779
 31
0.0
 71
               5
 72
               1
 41
1.0
 42
0.0
  3
tform線あり
100
AcDbAlignedDimension
 13
-184.43845748730746
 23
-535.76662698779
 33
0.0
 14
-519.43845748730746
 24
-535.76662698779
 34
0.0
100
AcDbRotatedDimension
1001
ACAD
1000
DSTYLE
1002
{
1070
             279
1070
               2
1070
             340
1005
36
1070
             147
1040
5.0
1002
}
  0
DIMENSION
  5
171
100
AcDbEntity
  8
notes
370
               5
390
0
  6
Continuous
 62
               7
100
AcDbDimension
  2
*D17
 10
860.14285380569447
 20
-685.76662698779
 30
0.0
 11
665.14285380569459
 21
-685.76662698779
 31
0.0
 71
               5
 72
               1
 41
1.0
 42
0.0
  3
tform線あり
100
AcDbAlignedDimension
 13
470.14285380569459
 23
-535.40917993076482
 33
0.0
 14
860.14285380569447
 24
-531.76662698779012
 34
0.0
100
AcDbRotatedDimension
1001
ACAD
1000
DSTYLE
1002
{
1070
             279
1070
               2
1070
             340
1005
36
1070
             147
1040
5.0
1002
}
  0
DIMENSION
  5
172
100
AcDbEntity
  8
notes
370
               5
390
0
  6
Continuous
 62
               7
100
AcDbDimension
  2
*D18
 10
-116.90234797535095
 20
290.0
 30
0.0
 11
-34.397146132844682
 21
290.0
 31
0.0
 71
               5
 72
               1
 41
1.0
 42
0.0
  3
tform線あり
100
AcDbAlignedDimension
 13
48.108055709661585
 23
544.15557089576055
 33
0.0
 14
-116.90234797535095
 24
459.11413622641044
 34
0.0
100
AcDbRotatedDimension
1001
ACAD
1000
DSTYLE
1002
{
1070
             279
1070
               2
1070
             340
1005
36
1070
             147
1040
5.0
1002
}
  0
DIMENSION
  5
173
100
AcDbEntity
  8
notes
370
               5
390
0
  6
Continuous
 62
               7
100
AcDbDimension
  2
*D19
 10
-851.89194429033796
 20
745.15557089575964
 30
0.0
 11
-851.89194429033796
 21
807.65557089575941
 31
0.0
 71
               5
 72
               1
 41
1.0
 42
0.0
  3
tform線あり
100
AcDbAlignedDimension
 13
-747.89194429033751
 23
870.15557089575918
 33
0.0
 14
-751.89194429033751
 24
745.15557089575964
 34
0.0
 50
90.0
100
AcDbRotatedDimension
1001
ACAD
1000
DSTYLE
1002
{
1070
             279
1070
               2
1070
             340
1005
36
1070
             147
1040
5.0
1002
}
  0
DIMENSION
  5
174
100
AcDbEntity
  8
notes
370
               5
390
0
  6
Continuous
 62
               7
100
AcDbDimension
  2
*D20
 10
513.0
 20
-525.79999999999995
 30
0.0
 11
508.0
 21
-543.0
 31
0.0
 70
             128
 71
               5
 72
               1
 41
1.0
 42
0.0
  3
tform線あり
100
AcDbAlignedDimension
 13
559.67134899650409
 23
-535.76662698779
 33
0.0
 14
559.67134899650409
 24
-525.79999999999995
 34
0.0
 50
90.0
100
AcDbRotatedDimension
1001
ACAD
1000
DSTYLE
1002
{
1070
             279
1070
               2
1070
             340
1005
36
1070
             174
1070
               0
1070
             147
1040
5.0
1002
}
  0
CIRCLE
  5
175
100
AcDbEntity
  8
ADF70-1208
370
              15
390
0
  6
Continuous
 62
               7
100
AcDbCircle
 10
-351.89194429033932
 20
580.15557089575964
 30
0.0
 40
22.5
  0
CIRCLE
  5
176
100
AcDbEntity
  8
ADF70-1208
370
              15
390
0
  6
Continuous
 62
               7
100
AcDbCircle
 10
-351.89194429033932
 20
580.15557089575964
 30
0.0
 40
39.0
  0
LINE
  5
177
100
AcDbEntity
  8
ADF70-1208
370
              15
390
0
  6
Continuous
 62
               7
100
AcDbLine
 10
-351.89194429033932
 20
870.15557089575964
 30
0.0
 11
44.108055709661585
 21
870.15557089575918
 31
0.0
  0
LINE
  5
178
100
AcDbEntity
  8
ADF70-1208
370
              15
390
0
  6
Continuous
 62
               7
100
AcDbLine
 10
44.108055709661585
 20
540.15557089576055
 30
0.0
 11
-87.699452848542478
 21
540.15557089576009
 31
0.0
  0
SPLINE
  5
179
100
AcDbEntity
  8
ADF70-1208
370
              15
390
0
  6
Continuous
 62
               7
100
AcDbSpline
210
0.0
220
0.0
230
1.0
 70
               9
 71
               2
 72
              30
 73
              27
 74
               0
 42
0.000001
 43
0.000001
 40
0.0
 40
0.0
 40
0.0
 40
1.0
 40
1.0
 40
2.0
 40
3.0
 40
4.0
 40
5.0
 40
6.0
 40
7.0
 40
8.0
 40
9.0
 40
10.0
 40
11.0
 40
12.0
 40
13.0
 40
14.0
 40
15.0
 40
16.0
 40
17.0
 40
18.0
 40
19.0
 40
20.0
 40
21.0
 40
22.0
 40
22.0
 40
23.0
 40
23.0
 40
23.0
 10
-364.39194429033932
 20
728.15557089576009
 30
0.0
 10
-364.39194429033932
 20
728.03502177657992
 30
0.0
 10
-364.39194429033932
 20
727.91447265739976
 30
0.0
 10
-364.07354245558372
 20
726.63398196426692
 30
0.0
 10
-361.78349740952444
 20
725.18271975833545
 30
0.0
 10
-359.6765942321249
 20
724.37819158181742
 30
0.0
 10
-357.17053424317191
 20
723.79357032674648
 30
0.0
 10
-353.17536376003909
 20
723.30089571077974
 30
0.0
 10
-349.29612293613309
 20
723.45761040761295
 30
0.0
 10
-346.61335433750583
 20
723.79357173950507
 30
0.0
 10
-344.10729434855193
 20
724.37818334072495
 30
0.0
 10
-340.92190781142153
 20
725.61337620043264
 30
0.0
 10
-339.58975789528495
 20
727.16427830895623
 30
0.0
 10
-339.16463015184991
 20
728.64014938093601
 30
0.0
 10
-340.46951391569883
 20
730.17135949404769
 30
0.0
 10
-342.0003911711533
 20
731.12837399938667
 30
0.0
 10
-344.10729434855193
 20
731.93295845079524
 30
0.0
 10
-346.61335433750583
 20
732.51757005201557
 30
0.0
 10
-349.29612293613218
 20
732.85353138390724
 30
0.0
 10
-353.16087255263619
 20
733.01587853551268
 30
0.0
 10
-357.17053424317191
 20
732.51757146477371
 30
0.0
 10
-359.67659423212581
 20
731.93295020970231
 30
0.0
 10
-361.78349740952444
 20
731.12842203318519
 30
0.0
 10
-364.0688393277419
 20
729.66572348624209
 30
0.0
 10
-364.39194429033932
 20
728.39666913412043
 30
0.0
 10
-364.39194429033932
 20
728.27612001494026
 30
0.0
 10
-364.39194429033932
 20
728.15557089576009
 30
0.0
  0
CIRCLE
  5
17A
100
AcDbEntity
  8
ADF70-1208
370
              15
390
0
  6
Continuous
 62
               7
100
AcDbCircle
 10
-351.89194429033932
 20
580.15557089575964
 30
0.0
 40
22.5
  0
LINE
  5
17B
100
AcDbEntity
  8
ADF70-1208
370
              15
390
0
  6
Continuous
 62
               7
100
AcDbLine
 10
-351.89194429033932
 20
870.15557089575964
 30
0.0
 11
-747.89194429033751
 21
870.15557089575918
 31
0.0
  0
LINE
  5
17C
100
AcDbEntity
  8
ADF70-1208
370
              15
390
0
  6
Continuous
 62
               7
100
AcDbLine
 10
-747.89194429033751
 20
540.15557089576009
 30
0.0
 11
-616.08443573213344
 21
540.15557089576009
 31
0.0
  0
ARC
  5
17D
100
AcDbEntity
  8
ADF70-1208
370
              15
390
0
  6
Continuous
 62
               7
100
AcDbCircle
 10
-279.40234797535049
 20
580.15557089575964
 30
0.0
 40
165.0
100
AcDbArc
 50
269.99999999999972
 51
89.999999999999716
  0
ARC
  5
17E
100
AcDbEntity
  8
ADF70-1208
370
              15
390
0
  6
Continuous
 62
               7
100
AcDbCircle
 10
-424.38154060532725
 20
580.15557089575964
 30
0.0
 40
165.0
100
AcDbArc
 50
90.0
 51
270.0
  0
LINE
  5
17F
100
AcDbEntity
  8
ADF70-1208
370
              15
390
0
  6
Continuous
 62
               7
100
AcDbLine
 10
-424.38154060532725
 20
745.15557089575964
 30
0.0
 11
-279.4023479753514
 21
745.15557089575964
 31
0.0
  0
LINE
  5
180
100
AcDbEntity
  8
ADF70-1208
370
              15
390
0
  6
Continuous
 62
               7
100
AcDbLine
 10
-424.38154060532725
 20
415.15557089575964
 30
0.0
 11
-279.4023479753514
 21
415.15557089575964
 31
0.0
  0
ARC
  5
181
100
AcDbEntity
  8
ADF70-1208
370
              15
390
0
  6
Continuous
 62
               7
100
AcDbCircle
 10
-424.3815406053277
 20
577.65557089575964
 30
0.0
 40
187.49999999999824
100
AcDbArc
 50
193.91642623355628
 51
270.0
  0
ARC
  5
182
100
AcDbEntity
  8
ADF70-1208
370
              15
390
0
  6
Continuous
 62
               7
100
AcDbCircle
 10
-279.40234797535095
 20
577.65557089575964
 30
0.0
 40
187.5
100
AcDbArc
 50
269.99999999999972
 51
346.08357376644392
  0
ARC
  5
183
100
AcDbEntity
  8
ADF70-1208
370
              15
390
0
  6
Continuous
 62
               7
100
AcDbCircle
 10
-616.08443573213344
 20
530.15557089576009
 30
0.0
 40
9.999999999999666
100
AcDbArc
 50
13.916426233557431
 51
90.0
  0
ARC
  5
184
100
AcDbEntity
  8
ADF70-1208
370
              15
390
0
  6
Continuous
 62
               7
100
AcDbCircle
 10
-87.699452848542478
 20
530.15557089576055
 30
0.0
 40
10.0
100
AcDbArc
 50
90.0
 51
166.08357376644511
  0
LINE
  5
185
100
AcDbEntity
  8
ADF70-1208
370
              15
390
0
  6
Continuous
 62
               7
100
AcDbLine
 10
-424.3815406053277
 20
390.15557089575964
 30
0.0
 11
-279.40234797535186
 21
390.15557089575964
 31
0.0
  0
LINE
  5
186
100
AcDbEntity
  8
ADF70-1208
370
              15
390
0
  6
Continuous
 62
               7
100
AcDbLine
 10
48.108055709661585
 20
544.15557089576055
 30
0.0
 11
48.108055709661585
 21
866.15557089575918
 31
0.0
  0
ARC
  5
187
100
AcDbEntity
  8
ADF70-1208
370
              15
390
0
  6
Continuous
 62
               7
100
AcDbCircle
 10
44.108055709662494
 20
544.15557089576055
 30
0.0
 40
4.0
100
AcDbArc
 50
270.0
 51
0.0
  0
ARC
  5
188
100
AcDbEntity
  8
ADF70-1208
370
              15
390
0
  6
Continuous
 62
               7
100
AcDbCircle
 10
44.108055709662494
 20
866.15557089575918
 30
0.0
 40
4.0
100
AcDbArc
 50
0.0
 51
90.0
  0
LINE
  5
189
100
AcDbEntity
  8
ADF70-1208
370
              15
390
0
  6
Continuous
 62
               7
100
AcDbLine
 10
-751.89194429033751
 20
544.15557089576009
 30
0.0
 11
-751.89194429033751
 21
866.15557089575918
 31
0.0
  0
ARC
  5
18A
100
AcDbEntity
  8
ADF70-1208
370
              15
390
0
  6
Continuous
 62
               7
100
AcDbCircle
 10
-747.89194429033751
 20
544.15557089576009
 30
0.0
 40
4.0
100
AcDbArc
 50
180.0
 51
270.0
  0
ARC
  5
18B
100
AcDbEntity
  8
ADF70-1208
370
              15
390
0
  6
Continuous
 62
               7
100
AcDbCircle
 10
-747.89194429033751
 20
866.15557089575918
 30
0.0
 40
4.0
100
AcDbArc
 50
90.0
 51
180.0
  0
LINE
  5
18C
100
AcDbEntity
  8
ADF70-1208
370
              15
390
0
  6
STYLE_12
 62
               7
100
AcDbLine
 10
591.06154251269254
 20
-525.79999999999995
 30
0.0
 11
548.331929323758
 21
-525.79999999999995
 31
0.0
  0
LINE
  5
18D
100
AcDbEntity
  8
ADF70-1208
370
              15
390
0
  6
STYLE_12
 62
               7
100
AcDbLine
 10
607.64285380569731
 20
-480.76662698779091
 30
0.0
 11
530.49651995513364
 21
-480.76662698779091
 31
0.0
  0
LINE
  5
18E
100
AcDbEntity
  8
ADF70-1208
370
              15
390
0
  6
STYLE_12
 62
               7
100
AcDbLine
 10
591.018359682236
 20
-492.76662698779091
 30
0.0
 11
548.331929323758
 21
-492.76662698779091
 31
0.0
  0
LINE
  5
18F
100
AcDbEntity
  8
ADF70-1208
370
              15
390
0
  6
Continuous
 62
               7
100
AcDbLine
 10
839.5224409962758
 20
-535.76662698779
 30
0.0
 11
856.14285380569447
 21
-535.76662698779
 31
0.0
  0
ARC
  5
190
100
AcDbEntity
  8
ADF70-1208
370
              15
390
0
  6
Continuous
 62
               7
100
AcDbCircle
 10
856.14285380569447
 20
-531.76662698779012
 30
0.0
 40
4.0
100
AcDbArc
 50
270.0
 51
0.0
  0
LINE
  5
191
100
AcDbEntity
  8
ADF70-1208
370
              15
390
0
  6
Continuous
 62
               7
100
AcDbLine
 10
839.5224409962758
 20
-535.76662698779
 30
0.0
 11
468.72267285117346
 21
-535.76662698779
 31
0.0
  0
LINE
  5
192
100
AcDbEntity
  8
ADF70-1208
370
              15
390
0
  6
Continuous
 62
               7
100
AcDbLine
 10
733.77665594634368
 20
-345.76662698779228
 30
0.0
 11
400.47927607352335
 21
-345.76662698779228
 31
0.0
  0
LINE
  5
193
100
AcDbEntity
  8
ADF70-1208
370
              15
390
0
  6
STYLE_12
 62
               7
100
AcDbLine
 10
548.331929323758
 20
-492.76662698779091
 30
0.0
 11
548.36154251269227
 21
-525.79999999999995
 31
0.0
  0
LINE
  5
194
100
AcDbEntity
  8
ADF70-1208
370
              15
390
0
  6
STYLE_12
 62
               7
100
AcDbLine
 10
532.20250868563585
 20
-481.70645283593603
 30
0.0
 11
548.331929323758
 21
-492.76662698779091
 31
0.0
  0
ARC
  5
195
100
AcDbEntity
  8
ADF70-1208
370
              15
390
0
  6
STYLE_12
 62
               7
100
AcDbCircle
 10
526.54722513011643
 20
-489.95374135439761
 30
0.0
 40
10.000000000003823
100
AcDbArc
 50
55.561010691182638
 51
78.799397958573309
  0
ARC
  5
196
100
AcDbEntity
  8
ADF70-1208
370
              15
390
0
  6
STYLE_12
 62
               7
100
AcDbCircle
 10
544.05313610537678
 20
-345.55181950922884
 30
0.0
 40
135.48923595081419
100
AcDbArc
 50
182.01269809174852
 51
263.40395148310984
  0
ARC
  5
197
100
AcDbEntity
  8
ADF70-1208
370
              15
390
0
  6
STYLE_12
 62
               7
100
AcDbCircle
 10
403.66835159158404
 20
-350.76662698779216
 30
0.0
 40
5.0000000000000595
100
AcDbArc
 50
5.2360077006187984
 51
90.0
  0
LINE
  5
198
100
AcDbEntity
  8
ADF70-1208
370
              15
390
0
  6
Continuous
 62
               7
100
AcDbLine
 10
385.14284072786654
 20
-345.76662698779228
 30
0.0
 11
403.66835159158404
 21
-345.76662698779228
 31
0.0
  0
ARC
  5
199
100
AcDbEntity
  8
ADF70-1208
370
              15
390
0
  6
Continuous
 62
               7
100
AcDbCircle
 10
385.14284072786654
 20
-350.76662698779205
 30
0.0
 40
4.9999999999997726
100
AcDbArc
 50
90.0
 51
181.16938278025691
  0
ARC
  5
19A
100
AcDbEntity
  8
ADF70-1208
370
              15
390
0
  6
Continuous
 62
               7
100
AcDbCircle
 10
630.09181500839577
 20
-345.76662709623508
 30
0.0
 40
249.99999999999747
100
AcDbArc
 50
181.16938278024801
 51
229.20788921770446
  0
ARC
  5
19B
100
AcDbEntity
  8
ADF70-1208
370
              15
390
0
  6
Continuous
 62
               7
100
AcDbCircle
 10
468.72267285117505
 20
-532.76662698778955
 30
0.0
 40
3.0000000000004619
100
AcDbArc
 50
229.20788921767732
 51
269.99999999996953
  0
POLYLINE
  5
19C
100
AcDbEntity
  8
ADF70-1208
370
              15
390
0
  6
Continuous
 62
               7
100
AcDb2dPolyline
 66
               1
 10
0.0
 20
0.0
 30
0.0
 75
               5
  0
VERTEX
  5
19D
100
AcDbEntity
  8
ADF70-1208
370
              15
390
0
  6
Continuous
 62
               7
100
AcDbVertex
100
AcDb2dVertex
 10
860.14285380569447
 20
-350.74996032112449
 30
0.0
  0
VERTEX
  5
19E
100
AcDbEntity
  8
ADF70-1208
370
              15
390
0
  6
Continuous
 62
               7
100
AcDbVertex
100
AcDb2dVertex
 10
860.14285380569447
 20
-350.77533515900797
 30
0.0
  0
VERTEX
  5
19F
100
AcDbEntity
  8
ADF70-1208
370
              15
390
0
  6
Continuous
 62
               7
100
AcDbVertex
100
AcDb2dVertex
 10
860.14285380569584
 20
-531.74125214990875
 30
0.0
  0
VERTEX
  5
1A0
100
AcDbEntity
  8
ADF70-1208
370
              15
390
0
  6
Continuous
 62
               7
100
AcDbVertex
100
AcDb2dVertex
 10
860.14285380569584
 20
-531.76662698779012
 30
0.0
  0
SEQEND
  5
1A1
100
AcDbEntity
  8
ADF70-1208
370
              15
390
0
  6
Continuous
 62
               7
  0
ARC
  5
1A2
100
AcDbEntity
  8
ADF70-1208
370
              15
390
0
  6
Continuous
 62
               7
100
AcDbCircle
 10
855.15952047236192
 20
-350.74996032112449
 30
0.0
 40
4.9833333333320979
100
AcDbArc
 50
0.0
 51
89.999999999990848
  0
POLYLINE
  5
1A3
100
AcDbEntity
  8
ADF70-1208
370
              15
390
0
  6
Continuous
 62
               7
100
AcDb2dPolyline
 66
               1
 10
0.0
 20
0.0
 30
0.0
 75
               5
  0
VERTEX
  5
1A4
100
AcDbEntity
  8
ADF70-1208
370
              15
390
0
  6
Continuous
 62
               7
100
AcDbVertex
100
AcDb2dVertex
 10
734.19787660587576
 20
-345.76662698779228
 30
0.0
  0
VERTEX
  5
1A5
100
AcDbEntity
  8
ADF70-1208
370
              15
390
0
  6
Continuous
 62
               7
100
AcDbVertex
100
AcDb2dVertex
 10
735.22421961209852
 20
-345.76662698779228
 30
0.0
  0
VERTEX
  5
1A6
100
AcDbEntity
  8
ADF70-1208
370
              15
390
0
  6
Continuous
 62
               7
100
AcDbVertex
100
AcDb2dVertex
 10
855.15952047236271
 20
-345.76662698779228
 30
0.0
  0
SEQEND
  5
1A7
100
AcDbEntity
  8
ADF70-1208
370
              15
390
0
  6
Continuous
 62
               7
  0
ARC
  5
1A8
100
AcDbEntity
  8
ADF70-1208
370
              15
390
0
  6
STYLE_12
 62
               7
100
AcDbCircle
 10
734.19787660587576
 20
-349.75270656873488
 30
0.0
 40
3.9860795809426008
100
AcDbArc
 50
90.0
 51
177.47617487587092
  0
POLYLINE
  5
1A9
100
AcDbEntity
  8
ADF70-1208
370
              15
390
0
  6
STYLE_12
 62
               7
100
AcDb2dPolyline
 66
               1
 10
0.0
 20
0.0
 30
0.0
 75
               5
  0
VERTEX
  5
1AA
100
AcDbEntity
  8
ADF70-1208
370
              15
390
0
  6
STYLE_12
 62
               7
100
AcDbVertex
100
AcDb2dVertex
 10
730.21381770597623
 20
-349.61905709636005
 30
0.0
  0
VERTEX
  5
1AB
100
AcDbEntity
  8
ADF70-1208
370
              15
390
0
  6
STYLE_12
 62
               7
100
AcDbVertex
100
AcDb2dVertex
 10
730.21510288951436
 20
-349.58989978262844
 30
0.0
  0
VERTEX
  5
1AC
100
AcDbEntity
  8
ADF70-1208
370
              15
390
0
  6
STYLE_12
 62
               7
100
AcDbVertex
100
AcDb2dVertex
 10
730.21566353370326
 20
-349.57718029313651
 30
0.0
  0
SEQEND
  5
1AD
100
AcDbEntity
  8
ADF70-1208
370
              15
390
0
  6
STYLE_12
 62
               7
  0
ARC
  5
1AE
100
AcDbEntity
  8
ADF70-1208
370
              15
390
0
  6
STYLE_12
 62
               7
100
AcDbCircle
 10
592.14371706694055
 20
-343.5332625651854
 30
0.0
 40
138.20415907471488
100
AcDbArc
 50
338.23115251053429
 51
357.47617487587786
  0
LINE
  5
1AF
100
AcDbEntity
  8
ADF70-1208
370
              15
390
0
  6
STYLE_12
 62
               7
100
AcDbLine
 10
591.06154251269254
 20
-525.79999999999995
 30
0.0
 11
591.018359682236
 21
-492.76662698779091
 31
0.0
  0
LINE
  5
1B0
100
AcDbEntity
  8
ADF70-1208
370
              15
390
0
  6
STYLE_12
 62
               7
100
AcDbLine
 10
608.40747640562245
 20
-480.76662698779091
 30
0.0
 11
591.018359682236
 21
-492.76662698779091
 31
0.0
  0
ARC
  5
1B1
100
AcDbEntity
  8
ADF70-1208
370
              15
390
0
  6
STYLE_12
 62
               7
100
AcDbCircle
 10
592.50189855280632
 20
-344.5755611003442
 30
0.0
 40
137.1167161012502
100
AcDbArc
 50
276.66132318442078
 51
338.58012469668199
  0
CIRCLE
  5
1B2
100
AcDbEntity
  8
ADF70-1208
370
              15
390
0
  6
STYLE_12
 62
               7
100
AcDbCircle
 10
-351.89194429033842
 20
805.16726219304405
 30
0.0
 40
17.500000000000558
  0
LINE
  5
1B3
100
AcDbEntity
  8
ADF70-1208
370
              15
390
0
  6
STYLE_12
 62
               7
100
AcDbLine
 10
-351.89651565338272
 20
-525.76662698779
 30
0.0
 11
-329.39651565338272
 21
-525.76662698779
 31
0.0
  0
LINE
  5
1B4
100
AcDbEntity
  8
ADF70-1208
370
              15
390
0
  6
STYLE_12
 62
               7
100
AcDbLine
 10
-351.89651565338272
 20
-480.76662698779091
 30
0.0
 11
-311.89651565338272
 21
-480.76662698779091
 31
0.0
  0
LINE
  5
1B5
100
AcDbEntity
  8
ADF70-1208
370
              15
390
0
  6
STYLE_12
 62
               7
100
AcDbLine
 10
-351.89651565338272
 20
-492.76662698779091
 30
0.0
 11
-329.39651565338272
 21
-492.76662698779091
 31
0.0
  0
LINE
  5
1B6
100
AcDbEntity
  8
ADF70-1208
370
              15
390
0
  6
Continuous
 62
               7
100
AcDbLine
 10
-202.69564297246552
 20
-535.76662698779
 30
0.0
 11
-202.69564296109411
 21
-535.76662696293533
 31
0.0
  0
LINE
  5
1B7
100
AcDbEntity
  8
ADF70-1208
370
              15
390
0
  6
STYLE_05
 62
               7
100
AcDbLine
 10
-205.19564297246552
 20
-533.26662698779
 30
0.0
 11
-205.19564296111866
 21
-533.26662696291032
 31
0.0
  0
ARC
  5
1B8
100
AcDbEntity
  8
ADF70-1208
370
              15
390
0
  6
STYLE_12
 62
               7
100
AcDbCircle
 10
-256.55713257136313
 20
-345.55181950922861
 30
0.0
 40
135.4892359508147
100
AcDbArc
 50
276.59604851689136
 51
357.98730190825148
  0
ARC
  5
1B9
100
AcDbEntity
  8
ADF70-1208
370
              15
390
0
  6
STYLE_05
 62
               7
100
AcDbCircle
 10
-116.17234805756698
 20
-350.76662698779228
 30
0.0
 40
5.0
100
AcDbArc
 50
90.0
 51
174.76399229938025
  0
LWPOLYLINE
  5
1BA
100
AcDbEntity
  8
ADF70-1208
370
              15
390
0
  6
Continuous
 62
               7
100
AcDbPolyline
 90
        6
 70
             128
 10
-116.17234805756698
 20
-345.76662698779228
 10
-97.646837193849478
 20
-345.76662698779228
 42
-0.4202041027564685
 10
-92.647878535063228
 20
-350.86866780190621
 42
-0.2237595280618428
 10
-182.25555947461316
 20
-531.42318920720345
 10
-186.85577269961914
 20
-535.06662698779019
 10
-187.11504325485066
 20
-535.76662698779
  0
ARC
  5
1BB
100
AcDbEntity
  8
ADF70-1208
370
              15
390
0
  6
STYLE_12
 62
               7
100
AcDbCircle
 10
-295.04915852205386
 20
1638.8340118075821
 30
0.0
 40
2119.6675922002637
100
AcDbArc
 50
269.54460188633681
 51
271.46130802238571
  0
LINE
  5
1BC
100
AcDbEntity
  8
ADF70-1208
370
              15
390
0
  6
STYLE_12
 62
               7
100
AcDbLine
 10
-351.89651565338272
 20
-525.76662698779
 30
0.0
 11
-374.39651565338272
 21
-525.76662698779
 31
0.0
  0
LINE
  5
1BD
100
AcDbEntity
  8
ADF70-1208
370
              15
390
0
  6
STYLE_12
 62
               7
100
AcDbLine
 10
-351.89651565338272
 20
-480.76662698779091
 30
0.0
 11
-391.89651565338272
 21
-480.76662698779091
 31
0.0
  0
LINE
  5
1BE
100
AcDbEntity
  8
ADF70-1208
370
              15
390
0
  6
STYLE_12
 62
               7
100
AcDbLine
 10
-351.89651565338272
 20
-492.76662698779091
 30
0.0
 11
-374.39651565338272
 21
-492.76662698779091
 31
0.0
  0
LINE
  5
1BF
100
AcDbEntity
  8
ADF70-1208
370
              15
390
0
  6
Continuous
 62
               7
100
AcDbLine
 10
-501.0973883342981
 20
-535.76662698779
 30
0.0
 11
-501.09738834566951
 21
-535.76662696293533
 31
0.0
  0
LINE
  5
1C0
100
AcDbEntity
  8
ADF70-1208
370
              15
390
0
  6
STYLE_05
 62
               7
100
AcDbLine
 10
-498.59738833429901
 20
-533.26662698779
 30
0.0
 11
-498.59738834564496
 21
-533.26662696291032
 31
0.0
  0
ARC
  5
1C1
100
AcDbEntity
  8
ADF70-1208
370
              15
390
0
  6
STYLE_12
 62
               7
100
AcDbCircle
 10
-447.23589873540232
 20
-345.55181950922855
 30
0.0
 40
135.48923595081484
100
AcDbArc
 50
182.0126980917484
 51
263.40395148310915
  0
ARC
  5
1C2
100
AcDbEntity
  8
ADF70-1208
370
              15
390
0
  6
STYLE_05
 62
               7
100
AcDbCircle
 10
-587.62068324919574
 20
-350.76662698779222
 30
0.0
 40
5.0000000000000675
100
AcDbArc
 50
5.2360077006197718
 51
89.999999999999986
  0
LWPOLYLINE
  5
1C3
100
AcDbEntity
  8
ADF70-1208
370
              15
390
0
  6
Continuous
 62
               7
100
AcDbPolyline
 90
        6
 70
             128
 10
-516.67798805191296
 20
-535.76662698779
 10
-516.93725860714449
 20
-535.06662698779019
 10
-521.53747183215046
 20
-531.42318920720345
 42
-0.2237595280618439
 10
-611.14515277169949
 20
-350.86866780190621
 42
-0.4202041027565379
 10
-606.14619411291324
 20
-345.76662698779228
 10
-587.62068324919574
 20
-345.76662698779228
  0
ARC
  5
1C4
100
AcDbEntity
  8
ADF70-1208
370
              15
390
0
  6
STYLE_12
 62
               7
100
AcDbCircle
 10
-408.74387278471158
 20
1638.8340118075821
 30
0.0
 40
2119.6675922002637
100
AcDbArc
 50
268.53869197761435
 51
270.45539811366314
  0
LINE
  5
1C5
100
AcDbEntity
  8
ADF70-1208
370
              15
390
0
  6
Continuous
 62
               7
100
AcDbLine
 10
-516.67798805191296
 20
-535.76662698779
 30
0.0
 11
-187.11504325485066
 21
-535.76662698779
 31
0.0
  0
LINE
  5
1C6
100
AcDbEntity
  8
ADF70-1208
370
              15
390
0
  6
STYLE_12
 62
               7
100
AcDbLine
 10
-491.85577269961914
 20
-405.80528547568383
 30
0.0
 11
-491.85577269961914
 21
-365.80528547568474
 31
0.0
  0
LINE
  5
1C7
100
AcDbEntity
  8
ADF70-1208
370
              15
390
0
  6
STYLE_12
 62
               7
100
AcDbLine
 10
-471.85577269961914
 20
-385.80528547568429
 30
0.0
 11
-511.85577269961823
 21
-385.80528547568429
 31
0.0
  0
CIRCLE
  5
1C8
100
AcDbEntity
  8
ADF70-1208
370
              15
390
0
  6
STYLE_12
 62
               7
100
AcDbCircle
 10
-491.85577269961914
 20
-385.80528547568423
 30
0.0
 40
10.0
  0
LINE
  5
1C9
100
AcDbEntity
  8
ADF70-1208
370
              15
390
0
  6
STYLE_12
 62
               7
100
AcDbLine
 10
-211.85577269961914
 20
-405.80528547568383
 30
0.0
 11
-211.85577269961914
 21
-365.80528547568474
 31
0.0
  0
LINE
  5
1CA
100
AcDbEntity
  8
ADF70-1208
370
              15
390
0
  6
STYLE_12
 62
               7
100
AcDbLine
 10
-191.85577269962005
 20
-385.80528547568429
 30
0.0
 11
-231.85577269961914
 21
-385.80528547568429
 31
0.0
  0
CIRCLE
  5
1CB
100
AcDbEntity
  8
ADF70-1208
370
              15
390
0
  6
STYLE_12
 62
               7
100
AcDbCircle
 10
-211.85577269961914
 20
-385.80528547568429
 30
0.0
 40
10.0
  0
LINE
  5
1CC
100
AcDbEntity
  8
ADF70-1208
370
              15
390
0
  6
Continuous
 62
               7
100
AcDbLine
 10
48.103484346618188
 20
-395.76662698779137
 30
0.0
 11
48.103484346618188
 21
-345.76662698779228
 31
0.0
  0
LINE
  5
1CD
100
AcDbEntity
  8
ADF70-1208
370
              15
390
0
  6
Continuous
 62
               7
100
AcDbLine
 10
-751.89651565338181
 20
-345.76662698779228
 30
0.0
 11
-751.89651565338181
 21
-395.76662698779137
 31
0.0
  0
LINE
  5
1CE
100
AcDbEntity
  8
ADF70-1208
370
              15
390
0
  6
Continuous
 62
               7
100
AcDbLine
 10
48.103484346618188
 20
-345.76662698779228
 30
0.0
 11
-751.89651565338181
 21
-345.76662698779228
 31
0.0
  0
LINE
  5
1CF
100
AcDbEntity
  8
ADF70-1208
370
              15
390
0
  6
Continuous
 62
               7
100
AcDbLine
 10
-751.89651565338181
 20
-395.76662698779137
 30
0.0
 11
-605.90764891086428
 21
-395.76662698779137
 31
0.0
  0
LINE
  5
1D0
100
AcDbEntity
  8
ADF70-1208
370
              15
390
0
  6
Continuous
 62
               7
100
AcDbLine
 10
48.103484346618188
 20
-395.76662698779137
 30
0.0
 11
-97.885382395899342
 21
-395.76662698779137
 31
0.0
  0
LINE
  5
1D1
100
AcDbEntity
  8
ADF70-1208
370
              15
390
0
  6
STYLE_12
 62
               7
100
AcDbLine
 10
-329.55577269961987
 20
-492.76662698779091
 30
0.0
 11
-329.55577269961987
 21
-525.76662698779091
 31
0.0
  0
LINE
  5
1D2
100
AcDbEntity
  8
ADF70-1208
370
              15
390
0
  6
STYLE_12
 62
               7
100
AcDbLine
 10
-329.55577269961987
 20
-492.76662698779091
 30
0.0
 11
-311.89651565338272
 21
-480.76662698779091
 31
0.0
  0
LINE
  5
1D3
100
AcDbEntity
  8
ADF70-1208
370
              15
390
0
  6
STYLE_12
 62
               7
100
AcDbLine
 10
-374.23725860714558
 20
-492.76662698779091
 30
0.0
 11
-391.89651565338272
 21
-480.76662698779091
 31
0.0
  0
LINE
  5
1D4
100
AcDbEntity
  8
ADF70-1208
370
              15
390
0
  6
STYLE_12
 62
               7
100
AcDbLine
 10
-374.23725860714558
 20
-492.76662698779091
 30
0.0
 11
-374.23725860714558
 21
-525.76662698779091
 31
0.0
  0
LINE
  5
1D5
100
AcDbEntity
  8
ADF70-1208
370
              15
390
0
  6
Continuous
 62
               7
100
AcDbLine
 10
530.14285380569436
 20
-395.76662698779137
 30
0.0
 11
860.14285380569447
 21
-395.76662698779137
 31
0.0
  0
LINE
  5
1D6
100
AcDbEntity
  8
ADF70-1208
370
              15
390
0
  6
Continuous
 62
               7
100
AcDbLine
 10
530.14285380569436
 20
-395.76662698779137
 30
0.0
 11
530.14285380569436
 21
-345.76662698779228
 31
0.0
  0
LINE
  5
1D7
100
AcDbEntity
  8
ADF70-1208
370
              15
390
0
  6
Continuous
 62
               7
100
AcDbLine
 10
812.6428538056964
 20
-345.76662698779228
 30
0.0
 11
812.6428538056964
 21
-360.76662698779228
 31
0.0
  0
LINE
  5
1D8
100
AcDbEntity
  8
ADF70-1208
370
              15
390
0
  6
Continuous
 62
               7
100
AcDbLine
 10
777.6428538056964
 20
-345.76662698779228
 30
0.0
 11
777.6428538056964
 21
-360.76662698779228
 31
0.0
  0
ENDSEC
  0
SECTION
  2
OBJECTS
  0
DICTIONARY
  5
19
100
AcDbDictionary
280
               0
281
               1
  3
ACAD_GROUP
350
1A
  3
ACAD_MLINESTYLE
350
1B
  3
ACAD_LAYOUT
350
1E
  3
ACAD_PLOTSETTINGS
350
22
  3
ACAD_PLOTSTYLENAME
350
1F
  0
DICTIONARY
  5
1A
102
{ACAD_REACTORS
330
19
102
}
100
AcDbDictionary
280
               0
281
               1
  0
DICTIONARY
  5
1B
102
{ACAD_REACTORS
330
19
102
}
100
AcDbDictionary
280
               0
281
               1
  3
Standard
350
1C
  0
MLINESTYLE
  5
1C
102
{ACAD_REACTORS
330
1B
102
}
100
AcDbMlineStyle
  2
Standard
 70
               0
  3

 62
               0
 51
90.0
 52
90.0
 71
               2
 49
0.5
 62
             256
  6
ByLayer
 49
-0.5
 62
             256
  6
ByLayer
  0
ACDBDICTIONARYWDFLT
  5
1F
102
{ACAD_REACTORS
330
19
102
}
100
AcDbDictionary
281
               1
  3
Normal
350
1D
100
AcDbDictionaryWithDefault
340
1D
  0
ACDBPLACEHOLDER
  5
1D
102
{ACAD_REACTORS
330
1F
102
}
  0
LAYOUT
  5
20
102
{ACAD_REACTORS
330
1E
102
}
100
AcDbPlotSettings
  1

  2

  4

  6

 40
0.0
 41
0.0
 42
0.0
 43
0.0
 44
0.0
 45
0.0
 46
0.0
 47
0.0
 48
0.0
 49
0.0
140
0.0
141
0.0
142
1.0
143
1.0
 70
            1024
 72
               0
 73
               0
 74
               0
  7

 75
               0
147
1.0
148
0.0
149
0.0
100
AcDbLayout
  1
Model
 70
               0
 71
               0
 10
0.0
 20
0.0
 11
0.0
 21
0.0
 12
0.0
 22
0.0
 32
0.0
 14
0.0
 24
0.0
 34
0.0
 15
0.0
 25
0.0
 35
0.0
146
0.0
 13
0.0
 23
0.0
 33
0.0
 16
0.0
 26
0.0
 36
0.0
 17
0.0
 27
0.0
 37
0.0
 76
               0
330
A
331
0
345
0
346
0
  0
LAYOUT
  5
21
102
{ACAD_REACTORS
330
1E
102
}
100
AcDbPlotSettings
  1

  2

  4

  6

 40
0.0
 41
0.0
 42
0.0
 43
0.0
 44
0.0
 45
0.0
 46
0.0
 47
0.0
 48
0.0
 49
0.0
140
0.0
141
0.0
142
1.0
143
1.0
 70
               0
 72
               0
 73
               0
 74
               0
  7

 75
               0
147
1.0
148
0.0
149
0.0
100
AcDbLayout
  1
Layout1
 70
               0
 71
               0
 10
0.0
 20
0.0
 11
0.0
 21
0.0
 12
0.0
 22
0.0
 32
0.0
 14
0.0
 24
0.0
 34
0.0
 15
0.0
 25
0.0
 35
0.0
146
0.0
 13
0.0
 23
0.0
 33
0.0
 16
0.0
 26
0.0
 36
0.0
 17
0.0
 27
0.0
 37
0.0
 76
               0
330
B
331
0
345
0
346
0
  0
DICTIONARY
  5
1E
102
{ACAD_REACTORS
330
19
102
}
100
AcDbDictionary
280
               0
281
               1
  3
Layout1
350
21
  3
Model
350
20
  0
DICTIONARY
  5
22
102
{ACAD_REACTORS
330
19
102
}
100
AcDbDictionary
280
               0
281
               1
  0
ENDSEC
  0
EOF
