  0
SECTION
  2
HEADER
  9
$ACADVER
  1
AC1015
  9
$ACADMAINTVER
 70
               6
  9
$DWGCODEPAGE
  3
ANSI_932
  9
$INSBASE
 10
0.0
 20
0.0
 30
0.0
  9
$EXTMIN
 10
-1050.0000000002406
 20
-1472.2358850851629
 30
-14.834305555555556
  9
$EXTMAX
 10
1049.9999999997594
 20
1497.7641149148371
 30
14.834305555555556
  9
$LIMMIN
 10
0.0
 20
0.0
  9
$LIMMAX
 10
0.0
 20
0.0
  9
$ORTHOMODE
 70
               0
  9
$REGENMODE
 70
               1
  9
$FILLMODE
 70
               1
  9
$QTEXTMODE
 70
               0
  9
$MIRRTEXT
 70
               1
  9
$LTSCALE
 40
50.799999999999997
  9
$ATTMODE
 70
               1
  9
$TEXTSIZE
 40
0.2
  9
$TRACEWID
 40
1.0
  9
$TEXTSTYLE
  7
Standard
  9
$CLAYER
  8
ADF70-1209
  9
$CELTYPE
  6
Continuous
  9
$CECOLOR
 62
             256
  9
$CELTSCALE
 40
1.0
  9
$DISPSILH
 70
               0
  9
$DIMSCALE
 40
1.0
  9
$DIMASZ
 40
31.75
  9
$DIMEXO
 40
0.0
  9
$DIMDLI
 40
6.9999999999999396
  9
$DIMRND
 40
0.0
  9
$DIMDLE
 40
0.0
  9
$DIMEXE
 40
19.999999999996199
  9
$DIMTP
 40
0.0
  9
$DIMTM
 40
0.0
  9
$DIMTXT
 40
24.432617187500004
  9
$DIMCEN
 40
0.0
  9
$DIMTSZ
 40
0.0
  9
$DIMTOL
 70
               0
  9
$DIMLIM
 70
               0
  9
$DIMTIH
 70
               0
  9
$DIMTOH
 70
               0
  9
$DIMSE1
 70
               0
  9
$DIMSE2
 70
               0
  9
$DIMTAD
 70
               1
  9
$DIMZIN
 70
              11
  9
$DIMBLK
  1
VW_FILLEDARROW
  9
$DIMASO
 70
               1
  9
$DIMSHO
 70
               1
  9
$DIMPOST
  1
<>
  9
$DIMAPOST
  1
[]
  9
$DIMALT
 70
               0
  9
$DIMALTD
 70
               1
  9
$DIMALTF
 40
1.0
  9
$DIMLFAC
 40
1.0
  9
$DIMTOFL
 70
               0
  9
$DIMTVP
 40
0.0
  9
$DIMTIX
 70
               1
  9
$DIMSOXD
 70
               0
  9
$DIMSAH
 70
               0
  9
$DIMBLK1
  1

  9
$DIMBLK2
  1

  9
$DIMSTYLE
  2
JIS
  9
$DIMCLRD
 70
               0
  9
$DIMCLRE
 70
               0
  9
$DIMCLRT
 70
               0
  9
$DIMTFAC
 40
1.0
  9
$DIMGAP
 40
1.00000000000108
  9
$DIMJUST
 70
               0
  9
$DIMSD1
 70
               0
  9
$DIMSD2
 70
               0
  9
$DIMTOLJ
 70
               1
  9
$DIMTZIN
 70
              11
  9
$DIMALTZ
 70
              11
  9
$DIMALTTZ
 70
              11
  9
$DIMUPT
 70
               0
  9
$DIMDEC
 70
               1
  9
$DIMTDEC
 70
               1
  9
$DIMALTU
 70
               2
  9
$DIMALTTD
 70
               2
  9
$DIMTXSTY
  7
ＭＳ ゴシック
  9
$DIMAUNIT
 70
               0
  9
$DIMADEC
 70
               2
  9
$DIMALTRND
 40
0.0
  9
$DIMAZIN
 70
               0
  9
$DIMDSEP
 70
              46
  9
$DIMATFIT
 70
               0
  9
$DIMFRAC
 70
               2
  9
$DIMLDRBLK
  1

  9
$DIMLUNIT
 70
               2
  9
$DIMLWD
 70
              -2
  9
$DIMLWE
 70
              -2
  9
$DIMTMOVE
 70
               0
  9
$LUNITS
 70
               2
  9
$LUPREC
 70
               4
  9
$SKETCHINC
 40
0.1
  9
$FILLETRAD
 40
0.0
  9
$AUNITS
 70
               0
  9
$AUPREC
 70
               0
  9
$MENU
  1
acad
  9
$ELEVATION
 40
0.0
  9
$PELEVATION
 40
0.0
  9
$THICKNESS
 40
0.0
  9
$LIMCHECK
 70
               0
  9
$CHAMFERA
 40
0.0
  9
$CHAMFERB
 40
0.0
  9
$CHAMFERC
 40
0.0
  9
$CHAMFERD
 40
0.0
  9
$SKPOLY
 70
               0
  9
$TDCREATE
 40
2456041.709247685
  9
$TDUCREATE
 40
0.000000000
  9
$TDUPDATE
 40
2456041.709247685
  9
$TDUUPDATE
 40
0.000000000
  9
$TDINDWG
 40
0.0000000000
  9
$TDUSRTIMER
 40
0.0000000000
  9
$USRTIMER
 70
               1
  9
$ANGBASE
 50
0.0
  9
$ANGDIR
 70
               0
  9
$PDMODE
 70
               1
  9
$PDSIZE
 40
-2.0
  9
$PLINEWID
 40
0.0
  9
$SPLFRAME
 70
               0
  9
$SPLINETYPE
 70
               6
  9
$SPLINESEGS
 70
               8
  9
$HANDSEED
  5
1A5
  9
$SURFTAB1
 70
               6
  9
$SURFTAB2
 70
               6
  9
$SURFTYPE
 70
               6
  9
$SURFU
 70
               6
  9
$SURFV
 70
               6
  9
$UCSBASE
  2

  9
$UCSNAME
  2

  9
$UCSORG
 10
0.0
 20
0.0
 30
0.0
  9
$UCSXDIR
 10
1.0
 20
0.0
 30
0.0
  9
$UCSYDIR
 10
0.0
 20
1.0
 30
0.0
  9
$UCSORTHOREF
  2

  9
$UCSORTHOVIEW
 70
               0
  9
$UCSORGTOP
 10
0.0
 20
0.0
 30
0.0
  9
$UCSORGBOTTOM
 10
0.0
 20
0.0
 30
0.0
  9
$UCSORGLEFT
 10
0.0
 20
0.0
 30
0.0
  9
$UCSORGRIGHT
 10
0.0
 20
0.0
 30
0.0
  9
$UCSORGFRONT
 10
0.0
 20
0.0
 30
0.0
  9
$UCSORGBACK
 10
0.0
 20
0.0
 30
0.0
  9
$PUCSBASE
  2

  9
$PUCSNAME
  2

  9
$PUCSORG
 10
0.0
 20
0.0
 30
0.0
  9
$PUCSXDIR
 10
1.0
 20
0.0
 30
0.0
  9
$PUCSYDIR
 10
0.0
 20
1.0
 30
0.0
  9
$PUCSORTHOREF
  2

  9
$PUCSORTHOVIEW
 70
               0
  9
$PUCSORGTOP
 10
0.0
 20
0.0
 30
0.0
  9
$PUCSORGBOTTOM
 10
0.0
 20
0.0
 30
0.0
  9
$PUCSORGLEFT
 10
0.0
 20
0.0
 30
0.0
  9
$PUCSORGRIGHT
 10
0.0
 20
0.0
 30
0.0
  9
$PUCSORGFRONT
 10
0.0
 20
0.0
 30
0.0
  9
$PUCSORGBACK
 10
0.0
 20
0.0
 30
0.0
  9
$USERI1
 70
               0
  9
$USERI2
 70
               0
  9
$USERI3
 70
               0
  9
$USERI4
 70
               0
  9
$USERI5
 70
               0
  9
$USERR1
 40
0.0
  9
$USERR2
 40
0.0
  9
$USERR3
 40
0.0
  9
$USERR4
 40
0.0
  9
$USERR5
 40
0.0
  9
$WORLDVIEW
 70
               1
  9
$SHADEDGE
 70
               3
  9
$SHADEDIF
 70
              70
  9
$TILEMODE
 70
               1
  9
$MAXACTVP
 70
              64
  9
$PINSBASE
 10
0.0
 20
0.0
 30
0.0
  9
$PLIMCHECK
 70
               0
  9
$PEXTMIN
 10
1.0000000000000000E+20
 20
1.0000000000000000E+20
 30
1.0000000000000000E+20
  9
$PEXTMAX
 10
-1.0000000000000000E+20
 20
-1.0000000000000000E+20
 30
-1.0000000000000000E+20
  9
$PLIMMIN
 10
0.0
 20
0.0
  9
$PLIMMAX
 10
12.0
 20
9.0
  9
$UNITMODE
 70
               0
  9
$VISRETAIN
 70
               0
  9
$PLINEGEN
 70
               1
  9
$PSLTSCALE
 70
               0
  9
$TREEDEPTH
 70
            3020
  9
$CMLSTYLE
  2
Standard
  9
$CMLJUST
 70
               0
  9
$CMLSCALE
 40
1.0
  9
$PROXYGRAPHICS
 70
               0
  9
$MEASUREMENT
 70
               1
  9
$CELWEIGHT
370
               0
  9
$ENDCAPS
280
               0
  9
$JOINSTYLE
280
               0
  9
$LWDISPLAY
290
               1
  9
$INSUNITS
 70
               4
  9
$HYPERLINKBASE
  1

  9
$STYLESHEET
  1

  9
$XEDIT
290
               1
  9
$CEPSNTYPE
380
               0
  9
$PSTYLEMODE
290
               1
  9
$FINGERPRINTGUID
  2

  9
$VERSIONGUID
  2

  9
$EXTNAMES
290
               1
  9
$PSVPSCALE
 40
0.0
  0
ENDSEC
  0
SECTION
  2
CLASSES
  0
CLASS
  1
LWPOLYLINE
  2
AcDbPolyline
  3
AutoCAD 2000
 90
        0
280
               0
281
               1
  0
CLASS
  1
IMAGE
  2
AcDbRasterImage
  3
ISM
 90
      127
280
               0
281
               1
  0
CLASS
  1
OLE2FRAME
  2
AcDbOle2Frame
  3
AutoCAD 2000
 90
        0
280
               0
281
               1
  0
CLASS
  1
HATCH
  2
AcDbHatch
  3
AutoCAD 2000
 90
        0
280
               0
281
               1
  0
CLASS
  1
DICTIONARYVAR
  2
AcDbDictionaryVar
  3
AutoCAD 2000
 90
        0
280
               0
281
               0
  0
CLASS
  1
RASTERVARIABLES
  2
AcDbRasterVariables
  3
ISM
 90
        0
280
               0
281
               0
  0
CLASS
  1
IMAGEDEF
  2
AcDbRasterImageDef
  3
ISM
 90
        0
280
               0
281
               0
  0
CLASS
  1
IMAGEDEF_REACTOR
  2
AcDbRasterImageDefReactor
  3
ISM
 90
        1
280
               0
281
               0
  0
CLASS
  1
IDBUFFER
  2
AcDbIdBuffer
  3
AutoCAD 2000
 90
        0
280
               0
281
               0
  0
CLASS
  1
SPATIAL_FILTER
  2
AcDbSpatialFilter
  3
AutoCAD 2000
 90
        0
280
               0
281
               0
  0
CLASS
  1
XRECORD
  2
AcDbXrecord
  3
AutoCAD 2000
 90
        0
280
               0
281
               0
  0
CLASS
  1
SORTENTSTABLE
  2
AcDbSortentsTable
  3
AutoCAD 2000
 90
        0
280
               0
281
               0
  0
CLASS
  1
LAYER_INDEX
  2
AcDbLayerIndex
  3
AutoCAD 2000
 90
        0
280
               0
281
               0
  0
CLASS
  1
SPATIAL_INDEX
  2
AcDbSpatialIndex
  3
AutoCAD 2000
 90
        0
280
               0
281
               0
  0
CLASS
  1
OBJECT_PTR
  2
CAseDLPNTableRecord
  3
"ASE-LPNTableRecord"
 90
        1
280
               0
281
               0
  0
CLASS
  1
LAYOUT
  2
AcDbLayout
  3
AutoCAD 2000
 90
        0
280
               0
281
               0
  0
CLASS
  1
PLOTSETTINGS
  2
AcDbPlotSettings
  3
AutoCAD 2000
 90
        0
280
               0
281
               0
  0
CLASS
  1
ACDBDICTIONARYWDFLT
  2
AcDbDictionaryWithDefault
  3
AutoCAD 2000
 90
        0
280
               0
281
               0
  0
CLASS
  1
ACDBPLACEHOLDER
  2
AcDbPlaceHolder
  3
AutoCAD 2000
 90
        0
280
               0
281
               0
  0
ENDSEC
  0
SECTION
  2
TABLES
  0
TABLE
  2
VPORT
  5
7
100
AcDbSymbolTable
 70
               1
  0
VPORT
  5
15
100
AcDbSymbolTableRecord
100
AcDbViewportTableRecord
  2
*ACTIVE
 70
               0
 10
0.0
 20
0.0
 11
1.0
 21
1.0
 12
-0.0000000002405613
 22
12.764114914837137
 13
0.0
 23
0.0
 14
1.0
 24
1.0
 15
0.0
 25
0.0
 16
0.0
 26
0.0
 36
1.0
 17
0.0
 27
0.0
 37
0.0
 40
2970.0
 41
0.688564
 42
50.0
 43
0.0
 44
0.0
 50
0.0
 51
0.0
 71
               0
 72
            2000
 73
               1
 74
               1
 75
               0
 76
               0
 77
               0
 78
               0
281
               0
 65
               0
110
0.0
120
0.0
130
0.0
111
1.0
121
0.0
131
0.0
112
0.0
122
1.0
132
0.0
345
0
346
0
 79
               0
146
0.0
  0
ENDTAB
  0
TABLE
  2
LTYPE
  5
4
100
AcDbSymbolTable
 70
              15
  0
LTYPE
  5
11
100
AcDbSymbolTableRecord
100
AcDbLinetypeTableRecord
  2
ByBlock
 70
              64
  3

 72
              65
 73
               0
 40
0.0
  0
LTYPE
  5
12
100
AcDbSymbolTableRecord
100
AcDbLinetypeTableRecord
  2
ByLayer
 70
              64
  3

 72
              65
 73
               0
 40
0.0
  0
LTYPE
  5
13
100
AcDbSymbolTableRecord
100
AcDbLinetypeTableRecord
  2
Continuous
 70
              64
  3
Solid line
 72
              65
 73
               0
 40
0.0
  0
LTYPE
  5
34
100
AcDbSymbolTableRecord
100
AcDbLinetypeTableRecord
  2
STYLE_01
 70
               0
  3

 72
              65
 73
               2
 40
0.1875
 49
0.125
 74
               0
 49
-0.0625
 74
               0
  0
LTYPE
  5
35
100
AcDbSymbolTableRecord
100
AcDbLinetypeTableRecord
  2
STYLE_02
 70
               0
  3

 72
              65
 73
               4
 40
0.3937007874015748
 49
0.1968503937007874
 74
               0
 49
-0.0984251968503937
 74
               0
 49
0.0005
 74
               0
 49
-0.0979251968503937
 74
               0
  0
LTYPE
  5
36
100
AcDbSymbolTableRecord
100
AcDbLinetypeTableRecord
  2
STYLE_03
 70
               0
  3

 72
              65
 73
               2
 40
1.25
 49
1.0416400000000001
 74
               0
 49
-0.2083599999999999
 74
               0
  0
LTYPE
  5
37
100
AcDbSymbolTableRecord
100
AcDbLinetypeTableRecord
  2
STYLE_04
 70
               0
  3

 72
              65
 73
               2
 40
1.5277099999999999
 49
1.3194249999999998
 74
               0
 49
-0.208285
 74
               0
  0
LTYPE
  5
38
100
AcDbSymbolTableRecord
100
AcDbLinetypeTableRecord
  2
STYLE_05
 70
               0
  3

 72
              65
 73
               2
 40
0.20828
 49
0.069425
 74
               0
 49
-0.138855
 74
               0
  0
LTYPE
  5
39
100
AcDbSymbolTableRecord
100
AcDbLinetypeTableRecord
  2
STYLE_06
 70
               0
  3

 72
              65
 73
               4
 40
1.0416400000000001
 49
0.625
 74
               0
 49
-0.20828
 74
               0
 49
0.06943
 74
               0
 49
-0.13893
 74
               0
  0
LTYPE
  5
3A
100
AcDbSymbolTableRecord
100
AcDbLinetypeTableRecord
  2
STYLE_07
 70
               0
  3

 72
              65
 73
               6
 40
1.875
 49
0.625
 74
               0
 49
-0.20828
 74
               0
 49
0.6250000000000001
 74
               0
 49
-0.2083599999999999
 74
               0
 49
0.06943
 74
               0
 49
-0.1389299999999999
 74
               0
  0
LTYPE
  5
3B
100
AcDbSymbolTableRecord
100
AcDbLinetypeTableRecord
  2
STYLE_08
 70
               0
  3

 72
              65
 73
               6
 40
1.25
 49
0.625
 74
               0
 49
-0.20828
 74
               0
 49
0.06943
 74
               0
 49
-0.13893
 74
               0
 49
0.0694299999999999
 74
               0
 49
-0.13893
 74
               0
  0
LTYPE
  5
3C
100
AcDbSymbolTableRecord
100
AcDbLinetypeTableRecord
  2
STYLE_09
 70
               0
  3

 72
              65
 73
               4
 40
5.0
 49
3.75
 74
               0
 49
-0.2777849999999998
 74
               0
 49
0.6944300000000003
 74
               0
 49
-0.2777849999999998
 74
               0
  0
LTYPE
  5
3D
100
AcDbSymbolTableRecord
100
AcDbLinetypeTableRecord
  2
STYLE_10
 70
               0
  3

 72
              65
 73
               6
 40
5.9375
 49
3.75
 74
               0
 49
-0.2777849999999998
 74
               0
 49
0.6944300000000003
 74
               0
 49
-0.2777849999999998
 74
               0
 49
0.625
 74
               0
 49
-0.3125
 74
               0
  0
LTYPE
  5
3E
100
AcDbSymbolTableRecord
100
AcDbLinetypeTableRecord
  2
STYLE_11
 70
               0
  3

 72
              65
 73
               2
 40
0.0694444881889764
 49
0.0347222440944882
 74
               0
 49
-0.0347222440944882
 74
               0
  0
LTYPE
  5
3F
100
AcDbSymbolTableRecord
100
AcDbLinetypeTableRecord
  2
STYLE_12
 70
               0
  3

 72
              65
 73
               2
 40
0.3937007874015748
 49
0.1968503937007874
 74
               0
 49
-0.1968503937007874
 74
               0
  0
ENDTAB
  0
TABLE
  2
LAYER
  5
2
100
AcDbSymbolTable
 70
               5
  0
LAYER
  5
14
100
AcDbSymbolTableRecord
100
AcDbLayerTableRecord
  2
0
 70
               0
 62
               7
  6
Continuous
290
               1
370
              -3
390
1D
  0
LAYER
  5
40
100
AcDbSymbolTableRecord
100
AcDbLayerTableRecord
  2
Defpoints
 70
               0
 62
               7
  6
Continuous
290
               0
370
              -3
390
1D
  0
LAYER
  5
41
100
AcDbSymbolTableRecord
100
AcDbLayerTableRecord
  2
template
 70
               0
 62
               7
  6
Continuous
290
               1
370
              -3
390
1D
  0
LAYER
  5
42
100
AcDbSymbolTableRecord
100
AcDbLayerTableRecord
  2
notes
 70
               0
 62
               7
  6
Continuous
290
               1
370
              -3
390
1D
  0
LAYER
  5
43
100
AcDbSymbolTableRecord
100
AcDbLayerTableRecord
  2
ADF70-1209
 70
               0
 62
               7
  6
Continuous
290
               1
370
              -3
390
1D
  0
ENDTAB
  0
TABLE
  2
STYLE
  5
3
100
AcDbSymbolTable
 70
               2
  0
STYLE
  5
17
100
AcDbSymbolTableRecord
100
AcDbTextStyleTableRecord
  2
Standard
 70
               0
 40
0.0
 41
1.0
 50
0.0
 71
               0
 42
0.0
  3
txt
  4
BIGFONT.SHX
  0
STYLE
  5
33
100
AcDbSymbolTableRecord
100
AcDbTextStyleTableRecord
  2
ＭＳ ゴシック
 70
               0
 40
0.0
 41
1.0
 50
0.0
 71
               0
 42
0.0
  3

  4
ＭＳ ゴシック
1001
ACAD
1000
ＭＳ ゴシック
1071
        0
  0
ENDTAB
  0
TABLE
  2
VIEW
  5
5
100
AcDbSymbolTable
 70
               0
  0
ENDTAB
  0
TABLE
  2
UCS
  5
6
100
AcDbSymbolTable
 70
               0
  0
ENDTAB
  0
TABLE
  2
APPID
  5
8
100
AcDbSymbolTable
 70
               1
  0
APPID
  5
16
100
AcDbSymbolTableRecord
100
AcDbRegAppTableRecord
  2
ACAD
 70
               0
  0
ENDTAB
  0
TABLE
  2
DIMSTYLE
  5
9
100
AcDbSymbolTable
 70
               3
100
AcDbDimStyleTable
 71
               0
  0
DIMSTYLE
105
18
100
AcDbSymbolTableRecord
100
AcDbDimStyleTableRecord
  2
Standard
 70
               0
  3

  4

 40
1.0
 41
0.18
 42
0.0625
 43
0.38
 44
0.18
 45
0.0
 46
0.0
 47
0.0
 48
0.0
 71
               0
 72
               0
 73
               1
 74
               1
 75
               0
 76
               0
 77
               0
 78
               0
 79
               0
140
0.18
141
0.09
142
0.0
143
25.399999999999999
144
1.0
145
0.0
146
1.0
147
0.09
148
0.0
170
               0
171
               2
172
               0
173
               0
174
               0
175
               0
176
               0
177
               0
178
               0
179
               0
271
               4
272
               4
273
               2
274
               2
275
               0
276
               0
277
               2
278
              46
279
               0
280
               0
281
               0
282
               0
283
               1
284
               0
285
               0
286
               0
288
               0
289
               3
340
17
341
0
342
0
343
0
344
0
371
              -2
372
              -2
  0
DIMSTYLE
105
4C
100
AcDbSymbolTableRecord
100
AcDbDimStyleTableRecord
  2
tform線あり
 70
               0
  3
<>
  4
[]
 40
1.0
 41
9.9993896484374982
 42
24.999999999999996
 43
0.9999999999999999
 44
0.0
 45
0.0
 46
0.0
 47
0.0
 48
0.0
 71
               0
 72
               0
 73
               0
 74
               0
 75
               0
 76
               0
 77
               1
 78
              11
 79
               0
140
24.432617187500004
141
0.0
142
0.0
143
1.0
144
1.0
145
0.0
146
1.0
147
0.4999999999999999
148
0.0
170
               0
171
               1
172
               0
173
               0
174
               1
175
               0
176
               0
177
               0
178
               0
179
               2
271
               1
272
               1
273
               2
274
               2
275
               0
276
               2
277
               2
278
              46
279
               0
280
               0
281
               0
282
               0
283
               1
284
              11
285
              11
286
              11
288
               0
289
               0
340
33
341
44
342
44
343
0
344
0
371
              -2
372
              -2
  0
DIMSTYLE
105
51
100
AcDbSymbolTableRecord
100
AcDbDimStyleTableRecord
  2
JIS
 70
               0
  3
<>
  4
[]
 40
1.0
 41
31.75
 42
0.0
 43
6.9999999999999396
 44
19.999999999996199
 45
0.0
 46
0.0
 47
0.0
 48
0.0
 71
               0
 72
               0
 73
               0
 74
               0
 75
               0
 76
               0
 77
               1
 78
              11
 79
               0
140
24.432617187500004
141
0.0
142
0.0
143
1.0
144
1.0
145
0.0
146
1.0
147
1.00000000000108
148
0.0
170
               0
171
               1
172
               0
173
               0
174
               1
175
               0
176
               0
177
               0
178
               0
179
               2
271
               1
272
               1
273
               2
274
               2
275
               0
276
               2
277
               2
278
              46
279
               0
280
               0
281
               0
282
               0
283
               1
284
              11
285
              11
286
              11
288
               0
289
               0
340
33
341
4D
342
4D
343
0
344
0
371
              -2
372
              -2
  0
ENDTAB
  0
TABLE
  2
BLOCK_RECORD
  5
1
100
AcDbSymbolTable
 70
              18
  0
BLOCK_RECORD
  5
A
100
AcDbSymbolTableRecord
100
AcDbBlockTableRecord
  2
*MODEL_SPACE
340
20
  0
BLOCK_RECORD
  5
B
100
AcDbSymbolTableRecord
100
AcDbBlockTableRecord
  2
*PAPER_SPACE
340
21
  0
BLOCK_RECORD
  5
44
100
AcDbSymbolTableRecord
100
AcDbBlockTableRecord
  2
_DOT
340
0
  0
BLOCK_RECORD
  5
4D
100
AcDbSymbolTableRecord
100
AcDbBlockTableRecord
  2
VW_FILLEDARROW
340
0
  0
BLOCK_RECORD
  5
23
100
AcDbSymbolTableRecord
100
AcDbBlockTableRecord
  2
グループ
340
0
102
{BLKREFS
331
128
102
}
  0
BLOCK_RECORD
  5
24
100
AcDbSymbolTableRecord
100
AcDbBlockTableRecord
  2
*D3
340
0
  0
BLOCK_RECORD
  5
25
100
AcDbSymbolTableRecord
100
AcDbBlockTableRecord
  2
*D4
340
0
  0
BLOCK_RECORD
  5
26
100
AcDbSymbolTableRecord
100
AcDbBlockTableRecord
  2
*D5
340
0
  0
BLOCK_RECORD
  5
27
100
AcDbSymbolTableRecord
100
AcDbBlockTableRecord
  2
*D6
340
0
  0
BLOCK_RECORD
  5
28
100
AcDbSymbolTableRecord
100
AcDbBlockTableRecord
  2
*D7
340
0
  0
BLOCK_RECORD
  5
29
100
AcDbSymbolTableRecord
100
AcDbBlockTableRecord
  2
*D8
340
0
  0
BLOCK_RECORD
  5
2A
100
AcDbSymbolTableRecord
100
AcDbBlockTableRecord
  2
*D9
340
0
  0
BLOCK_RECORD
  5
2B
100
AcDbSymbolTableRecord
100
AcDbBlockTableRecord
  2
*D10
340
0
  0
BLOCK_RECORD
  5
2C
100
AcDbSymbolTableRecord
100
AcDbBlockTableRecord
  2
*D11
340
0
  0
BLOCK_RECORD
  5
2D
100
AcDbSymbolTableRecord
100
AcDbBlockTableRecord
  2
*D12
340
0
  0
BLOCK_RECORD
  5
2E
100
AcDbSymbolTableRecord
100
AcDbBlockTableRecord
  2
*D13
340
0
  0
BLOCK_RECORD
  5
2F
100
AcDbSymbolTableRecord
100
AcDbBlockTableRecord
  2
*D14
340
0
  0
BLOCK_RECORD
  5
30
100
AcDbSymbolTableRecord
100
AcDbBlockTableRecord
  2
*D15
340
0
  0
BLOCK_RECORD
  5
31
100
AcDbSymbolTableRecord
100
AcDbBlockTableRecord
  2
*D16
340
0
  0
BLOCK_RECORD
  5
32
100
AcDbSymbolTableRecord
100
AcDbBlockTableRecord
  2
*D17
340
0
  0
ENDTAB
  0
ENDSEC
  0
SECTION
  2
BLOCKS
  0
BLOCK
  5
D
100
AcDbEntity
  8
0
390
0
100
AcDbBlockBegin
  2
*MODEL_SPACE
 70
               0
 10
0.0
 20
0.0
 30
0.0
  3
*MODEL_SPACE
  1

  0
ENDBLK
  5
E
100
AcDbEntity
  8
0
390
0
100
AcDbBlockEnd
  0
BLOCK
  5
F
100
AcDbEntity
 67
               1
  8
0
390
0
100
AcDbBlockBegin
  2
*PAPER_SPACE
 70
               0
 10
0.0
 20
0.0
 30
0.0
  3
*PAPER_SPACE
  1

  0
ENDBLK
  5
10
100
AcDbEntity
 67
               1
  8
0
390
0
100
AcDbBlockEnd
  0
BLOCK
  5
45
100
AcDbEntity
  8
0
390
0
100
AcDbBlockBegin
  2
_DOT
 70
               0
 10
0.0
 20
0.0
 30
0.0
  3
_DOT
  1

  0
POLYLINE
  5
46
100
AcDbEntity
  8
0
370
              -2
390
0
  6
ByBlock
 62
               0
100
AcDb2dPolyline
 66
               1
 10
0.0
 20
0.0
 30
0.0
 70
               1
 40
0.5
 41
0.5
  0
VERTEX
  5
47
100
AcDbEntity
  8
0
370
              -2
390
0
  6
ByBlock
 62
               0
100
AcDbVertex
100
AcDb2dVertex
 10
-0.25
 20
0.0
 30
0.0
 42
1.0
  0
VERTEX
  5
48
100
AcDbEntity
  8
0
370
              -2
390
0
  6
ByBlock
 62
               0
100
AcDbVertex
100
AcDb2dVertex
 10
0.25
 20
0.0
 30
0.0
 42
1.0
  0
SEQEND
  5
49
100
AcDbEntity
  8
0
390
0
  0
LINE
  5
4A
100
AcDbEntity
  8
0
370
              -2
390
0
  6
ByBlock
 62
               0
100
AcDbLine
 10
-0.5
 20
0.0
 30
0.0
 11
-1.0
 21
0.0
 31
0.0
  0
ENDBLK
  5
4B
100
AcDbEntity
  8
0
390
0
100
AcDbBlockEnd
  0
BLOCK
  5
4E
100
AcDbEntity
  8
0
370
              -2
390
0
  6
ByBlock
 62
               0
100
AcDbBlockBegin
  2
VW_FILLEDARROW
 70
               0
 10
0.0
 20
0.0
 30
0.0
  3
VW_FILLEDARROW
  1

  0
SOLID
  5
4F
100
AcDbEntity
  8
0
370
              -2
390
0
 62
               0
100
AcDbTrace
 10
0.0
 20
0.0
 30
0.0
 11
-0.9921874999999999
 21
-0.2658558393652545
 31
0.0
 12
-0.9921874999999999
 22
0.2658558393652548
 32
0.0
 13
-0.9921874999999999
 23
0.2658558393652548
 33
0.0
  0
ENDBLK
  5
50
100
AcDbEntity
  8
0
390
0
100
AcDbBlockEnd
  0
BLOCK
  5
52
100
AcDbEntity
  8
template
390
0
100
AcDbBlockBegin
  2
グループ
 70
               0
 10
0.0
 20
0.0
 30
0.0
  3
グループ
  1

  0
LWPOLYLINE
  5
53
100
AcDbEntity
  8
0
370
              15
390
0
  6
Continuous
 62
               7
100
AcDbPolyline
 90
        8
 70
             129
 10
-2766.1116203707511
 20
888.04397893089072
 10
-2766.1116203707511
 20
882.04659023731483
 10
-2775.6128172887543
 20
882.04659023731483
 10
-2775.6128172887543
 20
857.59562697380602
 10
-2783.9681945505372
 20
857.59562697380602
 10
-2783.9681945505372
 20
882.04659023731483
 10
-2793.3011514968466
 20
882.04659023731483
 10
-2793.3011514968466
 20
888.04397893089072
  0
LWPOLYLINE
  5
54
100
AcDbEntity
  8
0
370
              15
390
0
  6
Continuous
 62
               7
100
AcDbPolyline
 90
      101
 70
             128
 10
-2753.3833285401943
 20
887.31573043795424
 10
-2753.3679785114145
 20
887.32009119463783
 42
-0.0222221607817515
 10
-2753.0779739347381
 20
887.38871565988393
 10
-2753.0621801707439
 20
887.39171908298101
 42
-0.0146883565597856
 10
-2752.7994774655203
 20
887.43372226993029
 42
-0.0127458844178401
 10
-2752.5348384983645
 20
887.46125923800298
 10
-2752.4723834200545
 20
887.46615266059098
 42
-0.0198099018566915
 10
-2752.0815343105828
 20
887.48123781798768
 10
-2752.0297228411337
 20
887.48118404232252
 42
-0.0147617382763698
 10
-2751.535099380159
 20
887.46606401707754
 10
-2751.4624079252853
 20
887.46169141018993
 42
-0.016262454900076
 10
-2751.0722542958201
 20
887.42545853491765
 10
-2750.9507219045572
 20
887.41017197592055
 42
-0.0080020874652615
 10
-2750.8051428734698
 20
887.38948912865271
 10
-2750.7668234028797
 20
887.38341785084242
 42
-0.0053821929670323
 10
-2750.6983392975594
 20
887.37181032702006
 10
-2751.4247449967579
 20
885.19088187130615
 42
0.0108667757374935
 10
-2751.4920620668922
 20
885.20406898652664
 10
-2751.5295300900789
 20
885.2105667291205
 42
0.0170663203311427
 10
-2751.672746876995
 20
885.23039632641235
 10
-2751.740622209677
 20
885.23744349699973
 42
0.0220162375265807
 10
-2752.0210016175301
 20
885.25412585776985
 10
-2752.0988571845842
 20
885.25532522503636
 42
0.0282606915792741
 10
-2752.4344935081626
 20
885.24152194806732
 10
-2752.4784067819405
 20
885.23722195806306
 42
0.016967721369234
 10
-2752.7243312768933
 20
885.20468490851169
 42
0.0190576269868295
 10
-2752.9672392394741
 20
885.15453803640526
 10
-2752.9734984275847
 20
885.15299506229599
 42
0.0213685642841792
 10
-2753.2238829120606
 20
885.07979477719175
 10
-2753.2293728069785
 20
885.07793178113218
 42
0.0237595297595694
 10
-2753.4828676918742
 20
884.97824725923806
 10
-2753.4879697659071
 20
884.97595548375841
 42
0.0261857468814385
 10
-2753.7401405421333
 20
884.84641914638576
 10
-2753.7505667312253
 20
884.8403536719145
 42
0.0272553062019328
 10
-2753.9869965064618
 20
884.68498146597119
 10
-2754.021759519967
 20
884.65932031788236
 42
0.0325996893159454
 10
-2754.171914863623
 20
884.5325724449076
 10
-2754.1956242927449
 20
884.50975441639616
 42
0.0138050960641508
 10
-2754.2875074489566
 20
884.41630475484305
 42
0.0125280103790029
 10
-2754.3743499817829
 20
884.31814142825147
 10
-2754.3980304266984
 20
884.28998293005566
 42
0.0205218024731314
 10
-2754.5231305022144
 20
884.12818961582332
 10
-2754.5455968426991
 20
884.09652988599964
 42
0.0163110129578383
 10
-2754.7013072219456
 20
883.86119945093731
 10
-2754.7040311180012
 20
883.85677568894425
 42
0.0131897341889744
 10
-2754.8508316389043
 20
883.60364359658524
 10
-2754.8525317342737
 20
883.6005253574441
 42
0.0107895576065701
 10
-2754.990308436486
 20
883.33431014780626
 10
-2754.9910413260095
 20
883.33281591516243
 42
0.009137150722161
 10
-2755.1195212746584
 20
883.05829071740379
 10
-2755.1492669060681
 20
882.99158421024401
 42
0.0135418326353975
 10
-2755.3209808451429
 20
882.57664642496741
 10
-2755.3545856535779
 20
882.48878028268416
 42
0.0092834542415081
 10
-2755.525814713495
 20
882.01488178438865
 10
-2755.5514318412079
 20
881.93964071460971
 42
0.0054261043573473
 10
-2755.659069989506
 20
881.61187674153018
 10
-2755.6765959757154
 20
881.55648857919869
 42
0.0008225090833212
 10
-2755.745266027513
 20
881.33821982115091
 10
-2756.7299551594465
 20
878.31332852789433
 10
-2753.4973313193727
 20
878.31332852789433
 10
-2754.0015237492262
 20
876.40885022954194
 10
-2757.2575800312097
 20
876.40885022954194
 10
-2763.0867290635633
 20
857.59562716353707
 10
-2764.9118266738737
 20
857.59562716353707
 10
-2759.0771486383728
 20
876.40885022954194
 10
-2761.4822650074129
 20
876.40885022954194
 10
-2760.9780725775595
 20
878.31332852789433
 10
-2758.5495237666096
 20
878.31332852789433
 10
-2757.6893688484211
 20
880.94974152859322
 42
-0.00058635606105
 10
-2757.6526341701342
 20
881.06656794914807
 10
-2757.5765463365569
 20
881.30756024827042
 42
-0.0087522378929294
 10
-2757.3770781931057
 20
881.90283633540184
 10
-2757.2848139176813
 20
882.16297650394574
 42
-0.0077400953831199
 10
-2757.0268802585556
 20
882.85598118147811
 10
-2757.0111152869772
 20
882.89641206486249
 42
-0.0082369946329271
 10
-2756.7640308163645
 20
883.5004911310599
 42
-0.0085725238362885
 10
-2756.4967847203552
 20
884.09591717036085
 10
-2756.3951551193582
 20
884.31233827232415
 42
-0.0168109410602565
 10
-2756.1082106906247
 20
884.87354579843645
 10
-2755.982367300327
 20
885.10050983114297
 42
-0.0007817726885897
 10
-2755.928082950109
 20
885.19805407646493
 10
-2755.9279546440948
 20
885.19828378519594
 42
-0.0036626142158905
 10
-2755.8730667800705
 20
885.2948816651699
 42
-0.0080221150678632
 10
-2755.8159425246613
 20
885.39016089992663
 10
-2755.7852425733026
 20
885.43955184904496
 42
-0.0202139325564336
 10
-2755.657586833493
 20
885.62753344973055
 10
-2755.6035193683083
 20
885.70061231396721
 42
-0.0249323791798162
 10
-2755.3443565745902
 20
886.01665755612044
 10
-2755.3202167604622
 20
886.0432718290341
 42
-0.0242132121531349
 10
-2754.9805360189157
 20
886.38315531524188
 10
-2754.9326244461672
 20
886.42666445142595
 42
-0.0251017527858274
 10
-2754.6486427455284
 20
886.65965719718895
 10
-2754.6471972687154
 20
886.66072645476731
 42
-0.0130868069032814
 10
-2754.3489366187578
 20
886.86950692331038
 10
-2754.3473747996127
 20
886.87054036358688
 42
-0.0290329526388055
 10
-2754.0362636582213
 20
887.05136586521473
 10
-2754.0064180962381
 20
887.06646824805284
 42
-0.0160250190054615
 10
-2753.7405136824709
 20
887.19048435826755
 42
-0.0267600374774107
 10
-2753.4652376049999
 20
887.29123267881687
 10
-2753.4385016854812
 20
887.2994252376418
 42
-0.0049981587651351
 10
-2753.3833285401943
 20
887.31573043795424
 42
-0.0049981587651351
  0
LWPOLYLINE
  5
55
100
AcDbEntity
  8
0
370
              15
390
0
  6
Continuous
 62
               7
100
AcDbPolyline
 90
      118
 70
             128
 10
-2733.5689609757474
 20
878.23934520006696
 10
-2731.6938390512478
 20
878.23934520006696
 10
-2732.5318779568479
 20
875.55777867366692
 42
-0.0010587229263855
 10
-2732.5004221413546
 20
875.59468320693009
 10
-2732.4422280506437
 20
875.66266546319798
 42
-0.007187474039412
 10
-2732.2918528325345
 20
875.83330615523971
 10
-2732.1501300592836
 20
875.98954229654021
 42
-0.0148118053517507
 10
-2731.7000007665747
 20
876.45715614254959
 10
-2731.6127784316573
 20
876.54255346341836
 42
-0.0086273358685879
 10
-2731.2772296306603
 20
876.85992909742322
 10
-2731.2333959144421
 20
876.89997874174912
 42
-0.0103138323114386
 10
-2730.9753722122014
 20
877.12614187909458
 10
-2730.9295978058558
 20
877.16462392637038
 42
-0.0060206748562349
 10
-2730.7567497417622
 20
877.30641857710918
 10
-2730.7547186108914
 20
877.30804428272847
 42
-0.0067069027284932
 10
-2730.5824257962136
 20
877.44219491653541
 10
-2730.5798770302654
 20
877.44412508642733
 42
-0.0076184352045844
 10
-2730.408971764416
 20
877.56949996165451
 42
-0.0089652861657124
 10
-2730.2340108016747
 20
877.68913322199171
 10
-2730.1976590815357
 20
877.71304443547058
 42
-0.0156916245941639
 10
-2730.0016995843762
 20
877.83330692194443
 42
-0.0023299011066745
 10
-2729.8014375404164
 20
877.94648486147412
 10
-2729.7860534080164
 20
877.95508485655
 42
-0.0107669341478901
 10
-2729.5518165829121
 20
878.07948498990129
 10
-2729.5295517818404
 20
878.09070173984946
 42
-0.0078058045908223
 10
-2729.2459616639067
 20
878.22806319547908
 10
-2729.2360545761785
 20
878.23267232335638
 42
-0.0181829330473512
 10
-2728.9257451715557
 20
878.36353606445482
 10
-2728.8716897289987
 20
878.38405118439459
 42
-0.0208411536026156
 10
-2728.5226047615461
 20
878.50014164688866
 10
-2728.5082486614224
 20
878.50426009184105
 42
-0.0222799817145518
 10
-2728.1795288675012
 20
878.58290165798246
 10
-2728.1706399042614
 20
878.58461366856807
 42
-0.0215509523885374
 10
-2727.8541689359845
 20
878.63152935710184
 10
-2727.8116869749374
 20
878.63596688389248
 42
-0.0182545924882878
 10
-2727.5775781956299
 20
878.65181070928361
 10
-2727.5381771792818
 20
878.65303525436286
 42
-0.0072962856513045
 10
-2727.3822542995931
 20
878.65560458288496
 10
-2727.3531546290169
 20
878.65565941828868
 42
-0.0059227516329619
 10
-2727.2554051298766
 20
878.6546857064983
 10
-2727.2261629123855
 20
878.65404793989455
 42
-0.0011833111878105
 10
-2727.1869116286721
 20
878.65309893558492
 10
-2727.9822982242795
 20
876.11436499048591
 42
0.0143932051700814
 10
-2728.0086996066311
 20
876.12456396053176
 10
-2728.0159715790469
 20
876.12713517938857
 42
0.0234388603451455
 10
-2728.0578024449787
 20
876.13975441510365
 10
-2728.0664841078919
 20
876.14193537710889
 42
0.0199162743026563
 10
-2728.1267729419719
 20
876.15455211244409
 10
-2728.1475868797779
 20
876.15804931187245
 42
0.029364355066623
 10
-2728.2506617385388
 20
876.16919935752571
 10
-2728.2753469192576
 20
876.17041097454421
 42
0.0214606686876577
 10
-2728.4284878352078
 20
876.17134953496168
 10
-2728.4378597460282
 20
876.17100462341739
 42
0.0167564054182148
 10
-2728.6093799371415
 20
876.15892758104883
 10
-2728.6178397298954
 20
876.15804624062218
 42
0.0137677553253198
 10
-2728.8051930431593
 20
876.13329693207891
 10
-2728.8125447826678
 20
876.13211901211071
 42
0.0118497261474327
 10
-2729.0130425467778
 20
876.0951016619199
 10
-2729.0191925540166
 20
876.09381479920148
 42
0.0106421143868544
 10
-2729.2300734412938
 20
876.04498242362877
 10
-2729.2349822496908
 20
876.04373508094159
 42
0.0099746379685513
 10
-2729.4534407188394
 20
875.98356055263093
 10
-2729.5149887590233
 20
875.96527867399618
 42
0.0191613675869593
 10
-2729.8509732215389
 20
875.8513012937093
 10
-2729.9390329942808
 20
875.81761438338663
 42
0.0205274080141186
 10
-2730.3243397661854
 20
875.6517859755586
 10
-2730.3819890481609
 20
875.62411801098915
 42
0.0181256912191008
 10
-2730.6402659888345
 20
875.48843419200841
 10
-2730.6932213721502
 20
875.45811657879244
 42
0.0140709242419189
 10
-2730.8381763067764
 20
875.36962190535928
 10
-2730.864425175404
 20
875.35256508663792
 42
0.0086667884395747
 10
-2730.9533513369379
 20
875.29256241876101
 42
0.0036408192031042
 10
-2731.0407845749351
 20
875.23038156099449
 10
-2731.0760114494396
 20
875.20494061505588
 42
0.0052260781282798
 10
-2731.2322401468259
 20
875.08960822842528
 10
-2731.2484470030904
 20
875.0773801178035
 42
0.0050024435895139
 10
-2731.4344503461639
 20
874.93409754952995
 10
-2731.4497685026645
 20
874.9220515270955
 42
0.0136138710279453
 10
-2731.6602097709997
 20
874.74708502217334
 10
-2731.6938776467832
 20
874.71750604946794
 42
0.0172815186921387
 10
-2731.9582811884438
 20
874.46850937684587
 10
-2731.960843534288
 20
874.46592355969744
 42
0.0189403857995425
 10
-2732.2114253328646
 20
874.19311829489584
 10
-2732.2440568263987
 20
874.15477436340109
 42
0.0185044199497968
 10
-2732.4360132653833
 20
873.91152578227309
 42
0.008856524390845
 10
-2732.6144733720298
 20
873.65800936209678
 10
-2732.6236513516606
 20
873.64446798236304
 42
0.0157195347230224
 10
-2732.8068719579996
 20
873.35494577303848
 10
-2732.8529548999259
 20
873.27679357602551
 42
0.0095451879786738
 10
-2733.0180404500629
 20
872.98419893366997
 10
-2733.0291883689883
 20
872.96352826154623
 42
0.0100351706242122
 10
-2733.1612321181519
 20
872.70647270104723
 42
0.0086935915414123
 10
-2733.2835632699462
 20
872.44463955564174
 10
-2733.2868840113601
 20
872.437197232671
 42
0.0072580174863657
 10
-2733.4072304633028
 20
872.15660524109433
 10
-2733.4104920966115
 20
872.14868521507003
 42
0.0060005122615779
 10
-2733.529692764947
 20
871.84907554448307
 10
-2733.5329037432957
 20
871.84071401656013
 42
0.0049017786994783
 10
-2733.6518039021676
 20
871.52178503591642
 10
-2733.6549697085438
 20
871.51303209872538
 42
0.003941516760922
 10
-2733.7744059866036
 20
871.17449003630168
 10
-2733.7775370892523
 20
871.16538683543604
 42
0.0031035838765165
 10
-2733.8983418749594
 20
870.80694697362082
 10
-2733.9014519194761
 20
870.79752635228772
 42
0.0025070747153594
 10
-2734.0243532707987
 20
870.41887913532048
 10
-2734.0616471672165
 20
870.30198747009081
 42
0.0029081910280874
 10
-2734.2536654650171
 20
869.68782381183507
 10
-2734.294468633545
 20
869.55460056952325
 42
0.0009266453735635
 10
-2734.5628860079055
 20
868.67237610944721
 10
-2734.5837734803554
 20
868.60326423084223
 42
-0.0005809993667383
 10
-2734.8611101610913
 20
867.68945612372488
 10
-2734.9273919593757
 20
867.47197119152736
 42
-0.0012018708172478
 10
-2735.0743762687935
 20
866.99380852704451
 10
-2735.1266961206079
 20
866.82504938537636
 42
-0.0002691059600978
 10
-2735.1702656015273
 20
866.68478176583676
 10
-2738.0032214998164
 20
857.59562716353707
 10
-2739.8212103917949
 20
857.59562716353707
 10
-2733.5689609757474
 20
878.23934520006696
  0
SPLINE
  5
56
100
AcDbEntity
  8
0
370
              15
390
0
  6
Continuous
 62
               7
100
AcDbSpline
210
0.0
220
0.0
230
1.0
 70
              13
 71
               2
 72
             782
 73
             779
 74
               0
 42
0.000001
 43
0.000001
 40
0.0
 40
0.0
 40
0.0
 40
1.0
 40
1.0
 40
2.0
 40
2.0
 40
3.0
 40
3.0
 40
4.0
 40
4.0
 40
5.0
 40
5.0
 40
6.0
 40
6.0
 40
7.0
 40
7.0
 40
8.0
 40
8.0
 40
9.0
 40
9.0
 40
10.0
 40
10.0
 40
11.0
 40
11.0
 40
12.0
 40
12.0
 40
13.0
 40
13.0
 40
14.0
 40
14.0
 40
15.0
 40
15.0
 40
16.0
 40
16.0
 40
17.0
 40
17.0
 40
18.0
 40
18.0
 40
19.0
 40
19.0
 40
20.0
 40
20.0
 40
21.0
 40
21.0
 40
22.0
 40
22.0
 40
23.0
 40
23.0
 40
24.0
 40
24.0
 40
25.0
 40
25.0
 40
26.0
 40
26.0
 40
27.0
 40
27.0
 40
28.0
 40
28.0
 40
29.0
 40
29.0
 40
30.0
 40
30.0
 40
31.0
 40
31.0
 40
32.0
 40
32.0
 40
33.0
 40
33.0
 40
34.0
 40
34.0
 40
35.0
 40
35.0
 40
36.0
 40
36.0
 40
37.0
 40
37.0
 40
38.0
 40
38.0
 40
39.0
 40
39.0
 40
40.0
 40
40.0
 40
41.0
 40
41.0
 40
42.0
 40
42.0
 40
43.0
 40
43.0
 40
44.0
 40
44.0
 40
45.0
 40
45.0
 40
46.0
 40
46.0
 40
47.0
 40
47.0
 40
48.0
 40
48.0
 40
49.0
 40
49.0
 40
50.0
 40
50.0
 40
51.0
 40
51.0
 40
52.0
 40
52.0
 40
53.0
 40
53.0
 40
54.0
 40
54.0
 40
55.0
 40
55.0
 40
56.0
 40
56.0
 40
57.0
 40
57.0
 40
58.0
 40
58.0
 40
59.0
 40
59.0
 40
60.0
 40
60.0
 40
61.0
 40
61.0
 40
62.0
 40
62.0
 40
63.0
 40
63.0
 40
64.0
 40
64.0
 40
65.0
 40
65.0
 40
66.0
 40
66.0
 40
67.0
 40
67.0
 40
68.0
 40
68.0
 40
69.0
 40
69.0
 40
70.0
 40
70.0
 40
71.0
 40
71.0
 40
72.0
 40
72.0
 40
73.0
 40
73.0
 40
74.0
 40
74.0
 40
75.0
 40
75.0
 40
76.0
 40
76.0
 40
77.0
 40
77.0
 40
78.0
 40
78.0
 40
79.0
 40
79.0
 40
80.0
 40
80.0
 40
81.0
 40
81.0
 40
82.0
 40
82.0
 40
83.0
 40
83.0
 40
84.0
 40
84.0
 40
85.0
 40
85.0
 40
86.0
 40
86.0
 40
87.0
 40
87.0
 40
88.0
 40
88.0
 40
89.0
 40
89.0
 40
90.0
 40
90.0
 40
91.0
 40
91.0
 40
92.0
 40
92.0
 40
93.0
 40
93.0
 40
94.0
 40
94.0
 40
95.0
 40
95.0
 40
96.0
 40
96.0
 40
97.0
 40
97.0
 40
98.0
 40
98.0
 40
99.0
 40
99.0
 40
100.0
 40
100.0
 40
101.0
 40
101.0
 40
102.0
 40
102.0
 40
103.0
 40
103.0
 40
104.0
 40
104.0
 40
105.0
 40
105.0
 40
106.0
 40
106.0
 40
107.0
 40
107.0
 40
108.0
 40
108.0
 40
109.0
 40
109.0
 40
110.0
 40
110.0
 40
111.0
 40
111.0
 40
112.0
 40
112.0
 40
113.0
 40
113.0
 40
114.0
 40
114.0
 40
115.0
 40
115.0
 40
116.0
 40
116.0
 40
117.0
 40
117.0
 40
118.0
 40
118.0
 40
119.0
 40
119.0
 40
120.0
 40
120.0
 40
121.0
 40
121.0
 40
122.0
 40
122.0
 40
123.0
 40
123.0
 40
124.0
 40
124.0
 40
125.0
 40
125.0
 40
126.0
 40
126.0
 40
127.0
 40
127.0
 40
128.0
 40
128.0
 40
129.0
 40
129.0
 40
130.0
 40
130.0
 40
131.0
 40
131.0
 40
132.0
 40
132.0
 40
133.0
 40
133.0
 40
134.0
 40
134.0
 40
135.0
 40
135.0
 40
136.0
 40
136.0
 40
137.0
 40
137.0
 40
138.0
 40
138.0
 40
139.0
 40
139.0
 40
140.0
 40
140.0
 40
141.0
 40
141.0
 40
142.0
 40
142.0
 40
143.0
 40
143.0
 40
144.0
 40
144.0
 40
145.0
 40
145.0
 40
146.0
 40
146.0
 40
147.0
 40
147.0
 40
148.0
 40
148.0
 40
149.0
 40
149.0
 40
150.0
 40
150.0
 40
151.0
 40
151.0
 40
152.0
 40
152.0
 40
153.0
 40
153.0
 40
154.0
 40
154.0
 40
155.0
 40
155.0
 40
156.0
 40
156.0
 40
157.0
 40
157.0
 40
158.0
 40
158.0
 40
159.0
 40
159.0
 40
160.0
 40
160.0
 40
161.0
 40
161.0
 40
162.0
 40
162.0
 40
163.0
 40
163.0
 40
164.0
 40
164.0
 40
165.0
 40
165.0
 40
166.0
 40
166.0
 40
167.0
 40
167.0
 40
168.0
 40
168.0
 40
169.0
 40
169.0
 40
170.0
 40
170.0
 40
171.0
 40
171.0
 40
172.0
 40
172.0
 40
173.0
 40
173.0
 40
174.0
 40
174.0
 40
175.0
 40
175.0
 40
176.0
 40
176.0
 40
177.0
 40
177.0
 40
178.0
 40
178.0
 40
179.0
 40
179.0
 40
180.0
 40
180.0
 40
181.0
 40
181.0
 40
182.0
 40
182.0
 40
183.0
 40
183.0
 40
184.0
 40
184.0
 40
185.0
 40
185.0
 40
186.0
 40
186.0
 40
187.0
 40
187.0
 40
188.0
 40
188.0
 40
189.0
 40
189.0
 40
190.0
 40
190.0
 40
191.0
 40
191.0
 40
192.0
 40
192.0
 40
193.0
 40
193.0
 40
194.0
 40
194.0
 40
195.0
 40
195.0
 40
196.0
 40
196.0
 40
197.0
 40
197.0
 40
198.0
 40
198.0
 40
199.0
 40
199.0
 40
200.0
 40
200.0
 40
201.0
 40
201.0
 40
202.0
 40
202.0
 40
203.0
 40
203.0
 40
204.0
 40
204.0
 40
205.0
 40
205.0
 40
206.0
 40
206.0
 40
207.0
 40
207.0
 40
208.0
 40
208.0
 40
209.0
 40
209.0
 40
210.0
 40
210.0
 40
211.0
 40
211.0
 40
212.0
 40
212.0
 40
213.0
 40
213.0
 40
214.0
 40
214.0
 40
215.0
 40
215.0
 40
216.0
 40
216.0
 40
217.0
 40
217.0
 40
218.0
 40
218.0
 40
219.0
 40
219.0
 40
220.0
 40
220.0
 40
221.0
 40
221.0
 40
222.0
 40
222.0
 40
223.0
 40
223.0
 40
224.0
 40
224.0
 40
225.0
 40
225.0
 40
226.0
 40
226.0
 40
227.0
 40
227.0
 40
228.0
 40
228.0
 40
229.0
 40
229.0
 40
230.0
 40
230.0
 40
231.0
 40
231.0
 40
232.0
 40
232.0
 40
233.0
 40
233.0
 40
234.0
 40
234.0
 40
235.0
 40
235.0
 40
236.0
 40
236.0
 40
237.0
 40
237.0
 40
238.0
 40
238.0
 40
239.0
 40
239.0
 40
240.0
 40
240.0
 40
241.0
 40
241.0
 40
242.0
 40
242.0
 40
243.0
 40
243.0
 40
244.0
 40
244.0
 40
245.0
 40
245.0
 40
246.0
 40
246.0
 40
247.0
 40
247.0
 40
248.0
 40
248.0
 40
249.0
 40
249.0
 40
250.0
 40
250.0
 40
251.0
 40
251.0
 40
252.0
 40
252.0
 40
253.0
 40
253.0
 40
254.0
 40
254.0
 40
255.0
 40
255.0
 40
256.0
 40
256.0
 40
257.0
 40
257.0
 40
258.0
 40
258.0
 40
259.0
 40
259.0
 40
260.0
 40
260.0
 40
261.0
 40
261.0
 40
262.0
 40
262.0
 40
263.0
 40
263.0
 40
264.0
 40
264.0
 40
265.0
 40
265.0
 40
266.0
 40
266.0
 40
267.0
 40
267.0
 40
268.0
 40
268.0
 40
269.0
 40
269.0
 40
270.0
 40
270.0
 40
271.0
 40
271.0
 40
272.0
 40
272.0
 40
273.0
 40
273.0
 40
274.0
 40
274.0
 40
275.0
 40
275.0
 40
276.0
 40
276.0
 40
277.0
 40
277.0
 40
278.0
 40
278.0
 40
279.0
 40
279.0
 40
280.0
 40
280.0
 40
281.0
 40
281.0
 40
282.0
 40
282.0
 40
283.0
 40
283.0
 40
284.0
 40
284.0
 40
285.0
 40
285.0
 40
286.0
 40
286.0
 40
287.0
 40
287.0
 40
288.0
 40
288.0
 40
289.0
 40
289.0
 40
290.0
 40
290.0
 40
291.0
 40
291.0
 40
292.0
 40
292.0
 40
293.0
 40
293.0
 40
294.0
 40
294.0
 40
295.0
 40
295.0
 40
296.0
 40
296.0
 40
297.0
 40
297.0
 40
298.0
 40
298.0
 40
299.0
 40
299.0
 40
300.0
 40
300.0
 40
301.0
 40
301.0
 40
302.0
 40
302.0
 40
303.0
 40
303.0
 40
304.0
 40
304.0
 40
305.0
 40
305.0
 40
306.0
 40
306.0
 40
307.0
 40
307.0
 40
308.0
 40
308.0
 40
309.0
 40
309.0
 40
310.0
 40
310.0
 40
311.0
 40
311.0
 40
312.0
 40
312.0
 40
313.0
 40
313.0
 40
314.0
 40
314.0
 40
315.0
 40
315.0
 40
316.0
 40
316.0
 40
317.0
 40
317.0
 40
318.0
 40
318.0
 40
319.0
 40
319.0
 40
320.0
 40
320.0
 40
321.0
 40
321.0
 40
322.0
 40
322.0
 40
323.0
 40
323.0
 40
324.0
 40
324.0
 40
325.0
 40
325.0
 40
326.0
 40
326.0
 40
327.0
 40
327.0
 40
328.0
 40
328.0
 40
329.0
 40
329.0
 40
330.0
 40
330.0
 40
331.0
 40
331.0
 40
332.0
 40
332.0
 40
333.0
 40
333.0
 40
334.0
 40
334.0
 40
335.0
 40
335.0
 40
336.0
 40
336.0
 40
337.0
 40
337.0
 40
338.0
 40
338.0
 40
339.0
 40
339.0
 40
340.0
 40
340.0
 40
341.0
 40
341.0
 40
342.0
 40
342.0
 40
343.0
 40
343.0
 40
344.0
 40
344.0
 40
345.0
 40
345.0
 40
346.0
 40
346.0
 40
347.0
 40
347.0
 40
348.0
 40
348.0
 40
349.0
 40
349.0
 40
350.0
 40
350.0
 40
351.0
 40
351.0
 40
352.0
 40
352.0
 40
353.0
 40
353.0
 40
354.0
 40
354.0
 40
355.0
 40
355.0
 40
356.0
 40
356.0
 40
357.0
 40
357.0
 40
358.0
 40
358.0
 40
359.0
 40
359.0
 40
360.0
 40
360.0
 40
361.0
 40
361.0
 40
362.0
 40
362.0
 40
363.0
 40
363.0
 40
364.0
 40
364.0
 40
365.0
 40
365.0
 40
366.0
 40
366.0
 40
367.0
 40
367.0
 40
368.0
 40
368.0
 40
369.0
 40
369.0
 40
370.0
 40
370.0
 40
371.0
 40
371.0
 40
372.0
 40
372.0
 40
373.0
 40
373.0
 40
374.0
 40
374.0
 40
375.0
 40
375.0
 40
376.0
 40
376.0
 40
377.0
 40
377.0
 40
378.0
 40
378.0
 40
379.0
 40
379.0
 40
380.0
 40
380.0
 40
381.0
 40
381.0
 40
382.0
 40
382.0
 40
383.0
 40
383.0
 40
384.0
 40
384.0
 40
385.0
 40
385.0
 40
386.0
 40
386.0
 40
387.0
 40
387.0
 40
388.0
 40
388.0
 40
389.0
 40
389.0
 40
389.0
 10
-2723.2402565250145
 20
878.25027156342935
 30
0.0
 41
1.0
 10
-2722.4218324162939
 20
878.25027156342935
 30
0.0
 41
1.0
 10
-2721.6034083075738
 20
878.25027156342935
 30
0.0
 41
1.0
 10
-2722.0171620430906
 20
876.90764529917965
 30
0.0
 41
1.0
 10
-2722.4309157786074
 20
875.56501903492995
 30
0.0
 41
1.0
 10
-2722.4125762834246
 20
875.59371980786432
 30
0.0
 41
0.9999957264393858
 10
-2722.3940692865895
 20
875.6223128580217
 30
0.0
 41
1.0
 10
-2722.363639962462
 20
875.66932573638269
 30
0.0
 41
1.0
 10
-2722.3332106383341
 20
875.71633861474379
 30
0.0
 41
1.0
 10
-2722.2538449932326
 20
875.83895742164054
 30
0.0
 41
0.999539406908098
 10
-2722.1671866016864
 20
875.9565354833743
 30
0.0
 41
1.0
 10
-2722.1314297394247
 20
876.00505037597077
 30
0.0
 41
1.0
 10
-2722.0956728771625
 20
876.05356526856724
 30
0.0
 41
1.0
 10
-2721.9619462093401
 20
876.23500554369991
 30
0.0
 41
0.9994460617143084
 10
-2721.81644572805
 20
876.40714794135226
 30
0.0
 41
1.0
 10
-2721.8120575470743
 20
876.41233962173555
 30
0.0
 41
1.0
 10
-2721.8076693660987
 20
876.41753130211885
 30
0.0
 41
1.0
 10
-2721.6709452467608
 20
876.57929033900336
 30
0.0
 41
0.9994359394934552
 10
-2721.5236710164108
 20
876.73150654016649
 30
0.0
 41
1.0
 10
-2721.5212876624537
 20
876.73396987054377
 30
0.0
 41
1.0
 10
-2721.5189043084961
 20
876.73643320092106
 30
0.0
 41
1.0
 10
-2721.3763967860546
 20
876.88372274133565
 30
0.0
 41
0.9995293688567879
 10
-2721.2251251050775
 20
877.02199595349532
 30
0.0
 41
1.0
 10
-2721.2058313458156
 20
877.03963183914504
 30
0.0
 41
1.0
 10
-2721.1865375865536
 20
877.05726772479477
 30
0.0
 41
1.0
 10
-2721.0738534240973
 20
877.16026916565761
 30
0.0
 41
0.9997087614804114
 10
-2720.9563305351403
 20
877.25771344645727
 30
0.0
 41
1.0
 10
-2720.9371644619587
 20
877.27360502497027
 30
0.0
 41
1.0
 10
-2720.9179983887771
 20
877.28949660348314
 30
0.0
 41
1.0
 10
-2720.8388076461715
 20
877.35515772726626
 30
0.0
 41
0.9999595338693262
 10
-2720.7584483753299
 20
877.41938345791016
 30
0.0
 41
1.0
 10
-2720.6780891044664
 20
877.48360918857168
 30
0.0
 41
0.9999749417504145
 10
-2720.5968285701329
 20
877.54669074251058
 30
0.0
 41
1.0
 10
-2720.5758424239693
 20
877.56298202981304
 30
0.0
 41
1.0
 10
-2720.5548562778054
 20
877.57927331711551
 30
0.0
 41
1.0
 10
-2720.4702883925033
 20
877.64492232695693
 30
0.0
 41
0.9999792037121387
 10
-2720.3848807927288
 20
877.70947510860412
 30
0.0
 41
1.0
 10
-2720.3640559668083
 20
877.72521493086879
 30
0.0
 41
1.0
 10
-2720.3432311408874
 20
877.74095475313356
 30
0.0
 41
1.0
 10
-2720.2994731930175
 20
877.77402789020334
 30
0.0
 41
0.9999993373734061
 10
-2720.2557915068164
 20
877.80720168567177
 30
0.0
 41
1.0
 10
-2720.2121098206699
 20
877.84037548109825
 30
0.0
 41
0.9999160953817918
 10
-2720.1675834097523
 20
877.87240654629488
 30
0.0
 41
1.0
 10
-2720.1347615223331
 20
877.89601770187937
 30
0.0
 41
1.0
 10
-2720.1019396349143
 20
877.91962885746386
 30
0.0
 41
1.0
 10
-2719.9917694491564
 20
877.9988822338313
 30
0.0
 41
0.9980964527232419
 10
-2719.8726804556536
 20
878.06396970668868
 30
0.0
 41
1.0
 10
-2719.8356478487276
 20
878.0842096862807
 30
0.0
 41
1.0
 10
-2719.7986152418011
 20
878.10444966587272
 30
0.0
 41
1.0
 10
-2719.6192882285272
 20
878.20245991657464
 30
0.0
 41
0.9984572810572868
 10
-2719.4301996621671
 20
878.27998217792162
 30
0.0
 41
1.0
 10
-2719.4265533927728
 20
878.28147707025892
 30
0.0
 41
1.0
 10
-2719.422907123379
 20
878.28297196259609
 30
0.0
 41
1.0
 10
-2719.2411110958083
 20
878.35750443926804
 30
0.0
 41
0.9987838528033959
 10
-2719.0528584372491
 20
878.41377007943379
 30
0.0
 41
1.0
 10
-2719.0486204880499
 20
878.41503673312411
 30
0.0
 41
1.0
 10
-2719.0443825388511
 20
878.41630338681443
 30
0.0
 41
1.0
 10
-2718.8646057786896
 20
878.47003571959942
 30
0.0
 41
0.9990652816208115
 10
-2718.6808598469743
 20
878.50803939914158
 30
0.0
 41
1.0
 10
-2718.6756714459434
 20
878.50911250224794
 30
0.0
 41
1.0
 10
-2718.670483044913
 20
878.51018560535431
 30
0.0
 41
1.0
 10
-2718.497113915259
 20
878.54604307868328
 30
0.0
 41
0.9992909934270856
 10
-2718.3215381487998
 20
878.56875351115013
 30
0.0
 41
1.0
 10
-2718.1459623823393
 20
878.59146394361653
 30
0.0
 41
0.9994553539449194
 10
-2717.9692709492447
 20
878.60254324782318
 30
0.0
 41
1.0
 10
-2717.9338365414505
 20
878.60476513587082
 30
0.0
 41
1.0
 10
-2717.8984021336569
 20
878.60698702391846
 30
0.0
 41
1.0
 10
-2717.732176367087
 20
878.6174100863301
 30
0.0
 41
0.9990928098293336
 10
-2717.5656665751849
 20
878.61365044509569
 30
0.0
 41
1.0
 10
-2717.5271047399137
 20
878.61277975356279
 30
0.0
 41
1.0
 10
-2717.4885429046431
 20
878.61190906202978
 30
0.0
 41
1.0
 10
-2717.3991567832804
 20
878.60989080386094
 30
0.0
 41
0.9998382089206416
 10
-2717.3099011004961
 20
878.60465867733308
 30
0.0
 41
1.0
 10
-2717.3094711942758
 20
878.60463347643076
 30
0.0
 41
1.0
 10
-2717.3090412880561
 20
878.60460827552856
 30
0.0
 41
1.0
 10
-2717.2206454177081
 20
878.59942655080488
 30
0.0
 41
0.9997558016758172
 10
-2717.1325648405091
 20
878.59034403543853
 30
0.0
 41
1.0
 10
-2717.1320887020793
 20
878.59029493795583
 30
0.0
 41
1.0
 10
-2717.131612563649
 20
878.59024584047324
 30
0.0
 41
1.0
 10
-2717.0444842633096
 20
878.58126152007242
 30
0.0
 41
0.9996565144180983
 10
-2716.9579464099661
 20
878.56772421338303
 30
0.0
 41
1.0
 10
-2716.9574804845879
 20
878.56765132765167
 30
0.0
 41
1.0
 10
-2716.9570145592102
 20
878.5675784419202
 30
0.0
 41
1.0
 10
-2716.8714085566271
 20
878.55418690669444
 30
0.0
 41
0.9995321806867438
 10
-2716.7867814762958
 20
878.53558641826476
 30
0.0
 41
1.0
 10
-2716.7863922817241
 20
878.53550087579902
 30
0.0
 41
1.0
 10
-2716.7860030871525
 20
878.53541533333316
 30
0.0
 41
1.0
 10
-2716.7021543959681
 20
878.51698592983564
 30
0.0
 41
0.9993819199219513
 10
-2716.6198078617717
 20
878.49271054657481
 30
0.0
 41
1.0
 10
-2716.6195694282742
 20
878.4926402574655
 30
0.0
 41
1.0
 10
-2716.6193309947762
 20
878.49256996835618
 30
0.0
 41
1.0
 10
-2716.5374613275753
 20
878.46843516331398
 30
0.0
 41
0.9992088568505712
 10
-2716.4577688085874
 20
878.43786992751973
 30
0.0
 41
1.0
 10
-2716.3780878177063
 20
878.40731032678536
 30
0.0
 41
0.9990226101774451
 10
-2716.3014171478012
 20
878.36983289517195
 30
0.0
 41
1.0
 10
-2716.2247580060048
 20
878.33236109861969
 30
0.0
 41
0.9988424273972141
 10
-2716.1520543787915
 20
878.28769632336605
 30
0.0
 41
1.0
 10
-2716.1517866704116
 20
878.28753185929361
 30
0.0
 41
1.0
 10
-2716.1515189620322
 20
878.28736739522117
 30
0.0
 41
1.0
 10
-2716.0782799180606
 20
878.24237369182288
 30
0.0
 41
0.9986928844492665
 10
-2716.010017051352
 20
878.19013795754438
 30
0.0
 41
1.0
 10
-2716.0094357591288
 20
878.18969314431638
 30
0.0
 41
1.0
 10
-2716.0088544669061
 20
878.18924833108838
 30
0.0
 41
1.0
 10
-2715.9394290157543
 20
878.13612297035627
 30
0.0
 41
0.9986007262275156
 10
-2715.8760028459883
 20
878.07596220066318
 30
0.0
 41
1.0
 10
-2715.8751084305291
 20
878.07511383282622
 30
0.0
 41
1.0
 10
-2715.8742140150698
 20
878.07426546498925
 30
0.0
 41
1.0
 10
-2715.8089990143903
 20
878.01240795962769
 30
0.0
 41
0.9985581491379191
 10
-2715.7507914026892
 20
877.94391546935617
 30
0.0
 41
1.0
 10
-2715.7415329490923
 20
877.93302111165326
 30
0.0
 41
1.0
 10
-2715.7322744954954
 20
877.92212675395047
 30
0.0
 41
1.0
 10
-2715.6555499766018
 20
877.83184554827562
 30
0.0
 41
0.9970460233519801
 10
-2715.5935580754431
 20
877.7308784640951
 30
0.0
 41
1.0
 10
-2715.5790887103612
 20
877.7073120050095
 30
0.0
 41
1.0
 10
-2715.564619345279
 20
877.68374554592378
 30
0.0
 41
1.0
 10
-2715.5248826452689
 20
877.61902582189589
 30
0.0
 41
0.9988468816636131
 10
-2715.4915362745196
 20
877.55079336947188
 30
0.0
 41
1.0
 10
-2715.4845002520278
 20
877.53639644833356
 30
0.0
 41
1.0
 10
-2715.4774642295361
 20
877.52199952719536
 30
0.0
 41
1.0
 10
-2715.4581899037676
 20
877.48256091704252
 30
0.0
 41
0.999843118999704
 10
-2715.4403245762733
 20
877.44246436260346
 30
0.0
 41
1.0
 10
-2715.4224592487099
 20
877.40236780800819
 30
0.0
 41
0.9999989989718972
 10
-2715.4044805252406
 20
877.36232197032155
 30
0.0
 41
1.0
 10
-2715.3983082137042
 20
877.34857375363754
 30
0.0
 41
1.0
 10
-2715.3921359021679
 20
877.33482553695364
 30
0.0
 41
1.0
 10
-2715.3618125555599
 20
877.26728326575176
 30
0.0
 41
0.9998790356320259
 10
-2715.3336046754248
 20
877.19883051382101
 30
0.0
 41
1.0
 10
-2715.3267694941378
 20
877.18224341238658
 30
0.0
 41
1.0
 10
-2715.3199343128504
 20
877.16565631095216
 30
0.0
 41
1.0
 10
-2715.2963766504695
 20
877.10848835606498
 30
0.0
 41
0.999822757456062
 10
-2715.2749879020812
 20
877.05047404778963
 30
0.0
 41
1.0
 10
-2715.2535991536911
 20
876.99245973951145
 30
0.0
 41
0.9996797971040961
 10
-2715.2351728687327
 20
876.93343762039547
 30
0.0
 41
1.0
 10
-2715.2312690660069
 20
876.92093316222577
 30
0.0
 41
1.0
 10
-2715.2273652632812
 20
876.90842870405618
 30
0.0
 41
1.0
 10
-2715.2011313728708
 20
876.82439766859989
 30
0.0
 41
0.997927493873344
 10
-2715.1859068493918
 20
876.73769330993923
 30
0.0
 41
1.0
 10
-2715.1836831621304
 20
876.72502930911537
 30
0.0
 41
1.0
 10
-2715.1814594748685
 20
876.71236530829151
 30
0.0
 41
1.0
 10
-2715.1705295351708
 20
876.65011880100394
 30
0.0
 41
0.9994985982137637
 10
-2715.1635613699946
 20
876.58730529986531
 30
0.0
 41
1.0
 10
-2715.1565932048175
 20
876.52449179872235
 30
0.0
 41
0.9996372611201517
 10
-2715.1530173390493
 20
876.46139422003773
 30
0.0
 41
1.0
 10
-2715.1528487615601
 20
876.45841960295729
 30
0.0
 41
1.0
 10
-2715.152680184071
 20
876.45544498587674
 30
0.0
 41
1.0
 10
-2715.1487671633245
 20
876.38639817303897
 30
0.0
 41
0.9997730630735456
 10
-2715.1477988498368
 20
876.317247349014
 30
0.0
 41
1.0
 10
-2715.1477417434189
 20
876.31316916986339
 30
0.0
 41
1.0
 10
-2715.1476846370006
 20
876.30909099071278
 30
0.0
 41
1.0
 10
-2715.1466021106762
 20
876.23178380838363
 30
0.0
 41
0.9998772614070093
 10
-2715.1479421974082
 20
876.15448066180818
 30
0.0
 41
1.0
 10
-2715.1480314606069
 20
876.14933149798435
 30
0.0
 41
1.0
 10
-2715.1481207238053
 20
876.14418233416063
 30
0.0
 41
1.0
 10
-2715.1496393369357
 20
876.0565808598916
 30
0.0
 41
0.9999415567326592
 10
-2715.153051647183
 20
875.96903269818142
 30
0.0
 41
1.0
 10
-2715.1532929678569
 20
875.96284123847909
 30
0.0
 41
1.0
 10
-2715.1535342885309
 20
875.95664977877664
 30
0.0
 41
1.0
 10
-2715.1574292401287
 20
875.85671869760631
 30
0.0
 41
0.9999716810429968
 10
-2715.1628278232483
 20
875.75685755936001
 30
0.0
 41
1.0
 10
-2715.1660406220362
 20
875.69742830971995
 30
0.0
 41
1.0
 10
-2715.1692534208241
 20
875.63799906007989
 30
0.0
 41
1.0
 10
-2715.1773273299764
 20
875.48865065880011
 30
0.0
 41
0.9999819129904093
 10
-2715.1871971215933
 20
875.33941018109113
 30
0.0
 41
1.0
 10
-2715.1970669132097
 20
875.19016970337975
 30
0.0
 41
1.0
 10
-2715.1995062337737
 20
875.15297665753042
 30
0.0
 41
1.0
 10
-2715.1768079999233
 20
875.19171765489227
 30
0.0
 41
0.9999982128140162
 10
-2715.1539634411092
 20
875.23037254894984
 30
0.0
 41
1.0
 10
-2715.1270538812632
 20
875.27590576293915
 30
0.0
 41
1.0
 10
-2715.1001443214172
 20
875.32143897692845
 30
0.0
 41
1.0
 10
-2715.0234806428907
 20
875.45116029899896
 30
0.0
 41
0.9998609190057891
 10
-2714.9425333300273
 20
875.57825268093052
 30
0.0
 41
1.0
 10
-2714.9128850085372
 20
875.62480241390153
 30
0.0
 41
1.0
 10
-2714.8832366870465
 20
875.67135214687266
 30
0.0
 41
1.0
 10
-2714.8009644668182
 20
875.80052471685303
 30
0.0
 41
0.9999067609732014
 10
-2714.7151954573651
 20
875.92740240627825
 30
0.0
 41
1.0
 10
-2714.712790754158
 20
875.9309596723424
 30
0.0
 41
1.0
 10
-2714.710386050951
 20
875.93451693840643
 30
0.0
 41
1.0
 10
-2714.6294264478938
 20
876.05428009572938
 30
0.0
 41
0.999878495215189
 10
-2714.5447728382196
 20
876.17146131242828
 30
0.0
 41
1.0
 10
-2714.4601192285395
 20
876.28864252913536
 30
0.0
 41
0.9998532968281433
 10
-2714.3715016077185
 20
876.40285543760376
 30
0.0
 41
1.0
 10
-2714.3515398187265
 20
876.42858275862523
 30
0.0
 41
1.0
 10
-2714.3315780297339
 20
876.45431007964669
 30
0.0
 41
1.0
 10
-2714.2130939799754
 20
876.60701569061519
 30
0.0
 41
0.9991551975795242
 10
-2714.0824695303509
 20
876.74947525269977
 30
0.0
 41
1.0
 10
-2714.0789599143754
 20
876.7533028543196
 30
0.0
 41
1.0
 10
-2714.0754502983996
 20
876.75713045593932
 30
0.0
 41
1.0
 10
-2713.9518450807332
 20
876.89193481477787
 30
0.0
 41
0.9997418144180474
 10
-2713.8222429410271
 20
877.02098422539575
 30
0.0
 41
1.0
 10
-2713.6926408013278
 20
877.15003363600692
 30
0.0
 41
0.9989238204633492
 10
-2713.5516382530768
 20
877.26651859804622
 30
0.0
 41
1.0
 10
-2713.5063905749371
 20
877.30389858965498
 30
0.0
 41
1.0
 10
-2713.4611428967974
 20
877.34127858126374
 30
0.0
 41
1.0
 10
-2713.3209028395754
 20
877.45713363455513
 30
0.0
 41
0.9990825084096078
 10
-2713.1712629069707
 20
877.5605626323885
 30
0.0
 41
1.0
 10
-2713.161217542915
 20
877.56750584546717
 30
0.0
 41
1.0
 10
-2713.1511721788593
 20
877.57444905854595
 30
0.0
 41
1.0
 10
-2713.021622974366
 20
877.66399163022197
 30
0.0
 41
0.9998164899827869
 10
-2712.888738770991
 20
877.74850587173785
 30
0.0
 41
1.0
 10
-2712.8768932104567
 20
877.7560396382687
 30
0.0
 41
1.0
 10
-2712.8650476499229
 20
877.76357340479956
 30
0.0
 41
1.0
 10
-2712.7558545676038
 20
877.83302011326032
 30
0.0
 41
0.9997473449132129
 10
-2712.6436506103651
 20
877.89748907106991
 30
0.0
 41
1.0
 10
-2712.5314466531304
 20
877.96195802887746
 30
0.0
 41
0.9999327861142721
 10
-2712.4177780423806
 20
878.02380802055154
 30
0.0
 41
1.0
 10
-2712.4172260398054
 20
878.02410837923844
 30
0.0
 41
1.0
 10
-2712.4166740372307
 20
878.02440873792534
 30
0.0
 41
1.0
 10
-2712.3019014213442
 20
878.08685944696595
 30
0.0
 41
0.9996956420484068
 10
-2712.1841880954985
 20
878.1435729139431
 30
0.0
 41
1.0
 10
-2712.1537476906124
 20
878.15823889066985
 30
0.0
 41
1.0
 10
-2712.1233072857267
 20
878.1729048673966
 30
0.0
 41
1.0
 10
-2712.0203301789838
 20
878.22251852583975
 30
0.0
 41
0.9998070570176111
 10
-2711.9154837900351
 20
878.26804911274428
 30
0.0
 41
1.0
 10
-2711.8106374010922
 20
878.31357969964586
 30
0.0
 41
0.9997827436148096
 10
-2711.703984464486
 20
878.35470087095655
 30
0.0
 41
1.0
 10
-2711.6847616148539
 20
878.36211244458923
 30
0.0
 41
1.0
 10
-2711.6655387652218
 20
878.36952401822191
 30
0.0
 41
1.0
 10
-2711.5204401293508
 20
878.42546833679819
 30
0.0
 41
0.9988031841976082
 10
-2711.3705697667465
 20
878.46696840096581
 30
0.0
 41
1.0
 10
-2711.3456525183806
 20
878.47386814677338
 30
0.0
 41
1.0
 10
-2711.3207352700147
 20
878.48076789258096
 30
0.0
 41
1.0
 10
-2711.1534652443684
 20
878.52708603498706
 30
0.0
 41
0.998474804055105
 10
-2710.9821083357219
 20
878.5546802672518
 30
0.0
 41
1.0
 10
-2710.9773691994742
 20
878.55544342776511
 30
0.0
 41
1.0
 10
-2710.9726300632269
 20
878.55620658827831
 30
0.0
 41
1.0
 10
-2710.8107514270732
 20
878.58227449951642
 30
0.0
 41
0.998443649548084
 10
-2710.6469766833479
 20
878.59015245333535
 30
0.0
 41
1.0
 10
-2710.6252794752168
 20
878.59119614053498
 30
0.0
 41
1.0
 10
-2710.6035822670856
 20
878.59223982773472
 30
0.0
 41
1.0
 10
-2710.4832019396222
 20
878.59803040715406
 30
0.0
 41
0.9987954789335537
 10
-2710.3628336947136
 20
878.5919938794118
 30
0.0
 41
1.0
 10
-2710.3428689022167
 20
878.59099263507301
 30
0.0
 41
1.0
 10
-2710.3229041097197
 20
878.58999139073433
 30
0.0
 41
1.0
 10
-2710.2424654498045
 20
878.58595735166955
 30
0.0
 41
0.9997941595877982
 10
-2710.1622566717097
 20
878.57866328574846
 30
0.0
 41
1.0
 10
-2710.0820478936093
 20
878.57136921982681
 30
0.0
 41
0.9998589466237873
 10
-2710.0021293467566
 20
878.56138536537685
 30
0.0
 41
1.0
 10
-2709.96972314495
 20
878.55733700845781
 30
0.0
 41
1.0
 10
-2709.9373169431437
 20
878.55328865153888
 30
0.0
 41
1.0
 10
-2709.7925859926695
 20
878.53520808324993
 30
0.0
 41
0.9993495063249257
 10
-2709.649534748904
 20
878.50674237350825
 30
0.0
 41
1.0
 10
-2709.6166010517522
 20
878.50018891029345
 30
0.0
 41
1.0
 10
-2709.5836673546005
 20
878.49363544707876
 30
0.0
 41
1.0
 10
-2709.4743735313969
 20
878.4718871129437
 30
0.0
 41
0.9996788715560634
 10
-2709.3663219594414
 20
878.44462931358066
 30
0.0
 41
1.0
 10
-2709.3642589569031
 20
878.44410888700793
 30
0.0
 41
1.0
 10
-2709.3621959543648
 20
878.44358846043519
 30
0.0
 41
1.0
 10
-2709.2582703874832
 20
878.41737151421717
 30
0.0
 41
0.9995480654492434
 10
-2709.1561081522555
 20
878.38495655759323
 30
0.0
 41
1.0
 10
-2709.1544185101266
 20
878.38442045267925
 30
0.0
 41
1.0
 10
-2709.1527288679972
 20
878.38388434776539
 30
0.0
 41
1.0
 10
-2709.0539459170263
 20
878.35254160096872
 30
0.0
 41
0.999386795945731
 10
-2708.9575987585831
 20
878.31436223167907
 30
0.0
 41
1.0
 10
-2708.9563558094987
 20
878.31386968978302
 30
0.0
 41
1.0
 10
-2708.9551128604144
 20
878.31337714788697
 30
0.0
 41
1.0
 10
-2708.861251600144
 20
878.27618286239112
 30
0.0
 41
0.9992050256520514
 10
-2708.7706519251078
 20
878.23162896315057
 30
0.0
 41
1.0
 10
-2708.7699172423941
 20
878.23126767068914
 30
0.0
 41
1.0
 10
-2708.7691825596803
 20
878.2309063782277
 30
0.0
 41
1.0
 10
-2708.6800522500744
 20
878.18707506391172
 30
0.0
 41
0.9990222350742105
 10
-2708.5951421886807
 20
878.13554179621349
 30
0.0
 41
1.0
 10
-2708.5949583033976
 20
878.13543019330837
 30
0.0
 41
1.0
 10
-2708.5947744181144
 20
878.13531859040336
 30
0.0
 41
1.0
 10
-2708.5102321272848
 20
878.08400852851366
 30
0.0
 41
0.9988642743805073
 10
-2708.4309575926682
 20
878.02488434098996
 30
0.0
 41
1.0
 10
-2708.3516830580488
 20
877.96576015346477
 30
0.0
 41
0.998768123330999
 10
-2708.2786592737734
 20
877.8990694620644
 30
0.0
 41
1.0
 10
-2708.2783303458073
 20
877.89876906084999
 30
0.0
 41
1.0
 10
-2708.2780014178411
 20
877.89846865963557
 30
0.0
 41
1.0
 10
-2708.2043197776316
 20
877.83117716580443
 30
0.0
 41
0.998749657089923
 10
-2708.1377259723017
 20
877.75686435171474
 30
0.0
 41
1.0
 10
-2708.1369538025438
 20
877.75600267835932
 30
0.0
 41
1.0
 10
-2708.1361816327853
 20
877.75514100500391
 30
0.0
 41
1.0
 10
-2708.0680434879387
 20
877.67910484420327
 30
0.0
 41
0.9988147669827051
 10
-2708.007621233714
 20
877.59680383736179
 30
0.0
 41
1.0
 10
-2708.0065019076355
 20
877.59527920600794
 30
0.0
 41
1.0
 10
-2708.0053825815567
 20
877.59375457465399
 30
0.0
 41
1.0
 10
-2707.9427216751765
 20
877.50840430510641
 30
0.0
 41
0.9989452636216537
 10
-2707.8881547622141
 20
877.41766561594716
 30
0.0
 41
1.0
 10
-2707.8868060361287
 20
877.41542283492174
 30
0.0
 41
1.0
 10
-2707.8854573100434
 20
877.41318005389633
 30
0.0
 41
1.0
 10
-2707.8281929449099
 20
877.31795580268442
 30
0.0
 41
0.9991046436070475
 10
-2707.7791837315885
 20
877.21823136965872
 30
0.0
 41
1.0
 10
-2707.7777198699987
 20
877.21525268958726
 30
0.0
 41
1.0
 10
-2707.7762560084093
 20
877.21227400951568
 30
0.0
 41
1.0
 10
-2707.7243190719073
 20
877.10659221634421
 30
0.0
 41
0.9992763831100664
 10
-2707.6805659433521
 20
876.99726815438737
 30
0.0
 41
1.0
 10
-2707.6790866736892
 20
876.99357196685469
 30
0.0
 41
1.0
 10
-2707.6776074040263
 20
876.98987577932212
 30
0.0
 41
1.0
 10
-2707.6308957361434
 20
876.87315934229662
 30
0.0
 41
0.9994163472883486
 10
-2707.5922627049526
 20
876.75352575382965
 30
0.0
 41
1.0
 10
-2707.5910245527066
 20
876.7496916100481
 30
0.0
 41
1.0
 10
-2707.5897864004601
 20
876.74585746626667
 30
0.0
 41
1.0
 10
-2707.5499028394429
 20
876.6223514047897
 30
0.0
 41
0.9997268055891532
 10
-2707.5158347835313
 20
876.49711637284031
 30
0.0
 41
1.0
 10
-2707.5149046032629
 20
876.49369700673537
 30
0.0
 41
1.0
 10
-2707.5139744229941
 20
876.49027764063044
 30
0.0
 41
1.0
 10
-2707.4817667276202
 20
876.37188134089354
 30
0.0
 41
0.9996701319000984
 10
-2707.4556811108487
 20
876.25198738762617
 30
0.0
 41
1.0
 10
-2707.4295954940781
 20
876.13209343436074
 30
0.0
 41
0.9995785451109885
 10
-2707.4105119167375
 20
876.0108876733259
 30
0.0
 41
1.0
 10
-2707.4062921345644
 20
875.9840865185646
 30
0.0
 41
1.0
 10
-2707.4020723523913
 20
875.95728536380329
 30
0.0
 41
1.0
 10
-2707.3754973764526
 20
875.78849939009899
 30
0.0
 41
0.9979925101216144
 10
-2707.3704717905266
 20
875.61770806200639
 30
0.0
 41
1.0
 10
-2707.3696469781021
 20
875.5896773385366
 30
0.0
 41
1.0
 10
-2707.3688221656776
 20
875.56164661506682
 30
0.0
 41
1.0
 10
-2707.3654462045997
 20
875.44691673392651
 30
0.0
 41
0.9995314902262932
 10
-2707.3690963967383
 20
875.33219525016273
 30
0.0
 41
1.0
 10
-2707.3727465888769
 20
875.2174737664136
 30
0.0
 41
0.9996245486944109
 10
-2707.3826756840076
 20
875.10312449529169
 30
0.0
 41
1.0
 10
-2707.3828387320018
 20
875.10124673915402
 30
0.0
 41
1.0
 10
-2707.3830017799964
 20
875.09936898301635
 30
0.0
 41
1.0
 10
-2707.3932569711169
 20
874.98126419961375
 30
0.0
 41
0.9997286095001707
 10
-2707.4090022946893
 20
874.86376529071276
 30
0.0
 41
1.0
 10
-2707.4093957873388
 20
874.8608288660181
 30
0.0
 41
1.0
 10
-2707.4097892799882
 20
874.85789244132343
 30
0.0
 41
1.0
 10
-2707.4263215888618
 20
874.73452068301538
 30
0.0
 41
0.9998265533969404
 10
-2707.4474370475959
 20
874.6118502082187
 30
0.0
 41
1.0
 10
-2707.4481135897313
 20
874.60791982972012
 30
0.0
 41
1.0
 10
-2707.4487901318671
 20
874.60398945122154
 30
0.0
 41
1.0
 10
-2707.471258674876
 20
874.47345821940667
 30
0.0
 41
0.9999022530854378
 10
-2707.4973681394886
 20
874.34360625075567
 30
0.0
 41
1.0
 10
-2707.4983467806514
 20
874.33873910838042
 30
0.0
 41
1.0
 10
-2707.4993254218143
 20
874.33387196600506
 30
0.0
 41
1.0
 10
-2707.5273921687544
 20
874.19428571259527
 30
0.0
 41
0.9999524761937938
 10
-2707.5581751375885
 20
874.05527321943293
 30
0.0
 41
1.0
 10
-2707.5594512447647
 20
874.04951046012775
 30
0.0
 41
1.0
 10
-2707.5607273519408
 20
874.04374770082256
 30
0.0
 41
1.0
 10
-2707.5940625351232
 20
873.89320968906986
 30
0.0
 41
0.9999813588733409
 10
-2707.6292335359171
 20
873.74308997642049
 30
0.0
 41
1.0
 10
-2707.6307874613767
 20
873.73645738598657
 30
0.0
 41
1.0
 10
-2707.6323413868358
 20
873.72982479555276
 30
0.0
 41
1.0
 10
-2707.6706202385494
 20
873.56643990203088
 30
0.0
 41
0.999995523769829
 10
-2707.7098761165375
 20
873.40328699839404
 30
0.0
 41
1.0
 10
-2707.7221577521659
 20
873.3522428078968
 30
0.0
 41
1.0
 10
-2707.7344393877938
 20
873.30119861739945
 30
0.0
 41
1.0
 10
-2707.7982585370087
 20
873.03595733288853
 30
0.0
 41
0.9999993604550935
 10
-2707.8626774841382
 20
872.77086108236335
 30
0.0
 41
1.0
 10
-2707.8673963197216
 20
872.75144217417278
 30
0.0
 41
1.0
 10
-2707.8721151553054
 20
872.73202326598209
 30
0.0
 41
1.0
 10
-2707.9459717735635
 20
872.42808919923118
 30
0.0
 41
0.9999659914732689
 10
-2708.0248313694465
 20
872.12541465268066
 30
0.0
 41
1.0
 10
-2708.0297840583794
 20
872.10640551548977
 30
0.0
 41
1.0
 10
-2708.0347367473123
 20
872.08739637829899
 30
0.0
 41
1.0
 10
-2708.1235017210574
 20
871.74670355738044
 30
0.0
 41
0.9999441976023256
 10
-2708.2194447540223
 20
871.40796213207648
 30
0.0
 41
1.0
 10
-2708.2361452724472
 20
871.34899841955098
 30
0.0
 41
1.0
 10
-2708.252845790872
 20
871.29003470702548
 30
0.0
 41
1.0
 10
-2708.3821898606866
 20
870.83336585667098
 30
0.0
 41
0.9999625120733537
 10
-2708.5194226280096
 20
870.37900532267633
 30
0.0
 41
1.0
 10
-2708.5552125710883
 20
870.26050929606299
 30
0.0
 41
1.0
 10
-2708.5910025141675
 20
870.14201326944954
 30
0.0
 41
1.0
 10
-2708.6655227182118
 20
869.89528619133557
 30
0.0
 41
0.9999793386317193
 10
-2708.7432087413545
 20
869.64953755208285
 30
0.0
 41
1.0
 10
-2708.8208947644921
 20
869.40378891284672
 30
0.0
 41
1.0
 10
-2708.8316743233627
 20
869.36977100847207
 30
0.0
 41
1.0
 10
-2710.682047376632
 20
863.48269908600457
 30
0.0
 41
1.0
 10
-2712.5324204299013
 20
857.59562716353707
 30
0.0
 41
1.0
 10
-2713.4936771199245
 20
857.59562716353707
 30
0.0
 41
1.0
 10
-2714.4549338099482
 20
857.59562716353707
 30
0.0
 41
1.0
 10
-2712.8359890312695
 20
862.74365566532651
 30
0.0
 41
1.0
 10
-2711.2170442525912
 20
867.89168416711595
 30
0.0
 41
1.0
 10
-2711.1718784294044
 20
868.03571538942583
 30
0.0
 41
1.0
 10
-2711.1267126062176
 20
868.1797466117356
 30
0.0
 41
1.0
 10
-2710.956408188868
 20
868.72283764085728
 30
0.0
 41
0.9999911657872362
 10
-2710.7906753771999
 20
869.26734117218189
 30
0.0
 41
1.0
 10
-2710.7609794336968
 20
869.36490511224167
 30
0.0
 41
1.0
 10
-2710.7312834901936
 20
869.46246905230146
 30
0.0
 41
1.0
 10
-2710.6249425655187
 20
869.81184470354833
 30
0.0
 41
0.9999952428114343
 10
-2710.5207589761949
 20
870.16186972789512
 30
0.0
 41
1.0
 10
-2710.5156995058701
 20
870.17886800214478
 30
0.0
 41
1.0
 10
-2710.5106400355453
 20
870.19586627639433
 30
0.0
 41
1.0
 10
-2710.4165753868733
 20
870.51189475223191
 30
0.0
 41
0.9999931687504993
 10
-2710.3248495489961
 20
870.82860996551517
 30
0.0
 41
1.0
 10
-2710.319914284541
 20
870.84565067477115
 30
0.0
 41
1.0
 10
-2710.314979020086
 20
870.86269138402702
 30
0.0
 41
1.0
 10
-2710.2331237111257
 20
871.14532517877478
 30
0.0
 41
0.9999893840810578
 10
-2710.1538764846655
 20
871.42870130803226
 30
0.0
 41
1.0
 10
-2710.0746292582148
 20
871.71207743725699
 30
0.0
 41
0.9999833980069299
 10
-2709.9986530174792
 20
871.99634802026128
 30
0.0
 41
1.0
 10
-2709.98964908075
 20
872.03003689876527
 30
0.0
 41
1.0
 10
-2709.9806451440209
 20
872.06372577726927
 30
0.0
 41
1.0
 10
-2709.9116805951553
 20
872.32176160956328
 30
0.0
 41
0.9999233658067537
 10
-2709.8491256239349
 20
872.58142576828527
 30
0.0
 41
1.0
 10
-2709.786570652715
 20
872.84108992700772
 30
0.0
 41
1.0
 10
-2709.7470872338572
 20
873.00489659143386
 30
0.0
 41
1.0
 10
-2709.7421086298846
 20
873.02555155328525
 30
0.0
 41
1.0
 10
-2709.7371300259119
 20
873.04620651513665
 30
0.0
 41
1.0
 10
-2709.7076038150039
 20
873.16870325584375
 30
0.0
 41
0.9999868670845871
 10
-2709.6793347310036
 20
873.29149620150542
 30
0.0
 41
1.0
 10
-2709.67543724384
 20
873.30842578894726
 30
0.0
 41
1.0
 10
-2709.6715397566768
 20
873.3253553763891
 30
0.0
 41
1.0
 10
-2709.6510656470023
 20
873.41428914717289
 30
0.0
 41
0.9999778173353409
 10
-2709.6317780488916
 20
873.50348776438136
 30
0.0
 41
1.0
 10
-2709.6124904507747
 20
873.59268638162041
 30
0.0
 41
0.9999602692865253
 10
-2709.5947960921412
 20
873.68221467006038
 30
0.0
 41
1.0
 10
-2709.5915922600661
 20
873.69842512493494
 30
0.0
 41
1.0
 10
-2709.5883884279906
 20
873.71463557980951
 30
0.0
 41
1.0
 10
-2709.5642864052052
 20
873.83658477800543
 30
0.0
 41
0.9995617985321229
 10
-2709.5474430579861
 20
873.95974652571044
 30
0.0
 41
1.0
 10
-2709.5449785680794
 20
873.97776734307877
 30
0.0
 41
1.0
 10
-2709.5425140781726
 20
873.9957881604472
 30
0.0
 41
1.0
 10
-2709.5222308171251
 20
874.14410321014645
 30
0.0
 41
0.9991121410640034
 10
-2709.5145054635368
 20
874.29359930895191
 30
0.0
 41
1.0
 10
-2709.5135866735127
 20
874.31137914552437
 30
0.0
 41
1.0
 10
-2709.5126678834881
 20
874.32915898209671
 30
0.0
 41
1.0
 10
-2709.5067801099485
 20
874.4430954077543
 30
0.0
 41
0.9989792494906296
 10
-2709.5111992020657
 20
874.55709824365647
 30
0.0
 41
1.0
 10
-2709.5118471739343
 20
874.57381448958404
 30
0.0
 41
1.0
 10
-2709.5124951458029
 20
874.59053073551161
 30
0.0
 41
1.0
 10
-2709.5156182941832
 20
874.67110107955546
 30
0.0
 41
0.9997820295392891
 10
-2709.5221022915589
 20
874.75147080129886
 30
0.0
 41
1.0
 10
-2709.5285862889341
 20
874.83184052303898
 30
0.0
 41
0.9998335105973636
 10
-2709.5379984844453
 20
874.91192013948421
 30
0.0
 41
1.0
 10
-2709.5395934091221
 20
874.92548986997167
 30
0.0
 41
1.0
 10
-2709.5411883337993
 20
874.93905960045902
 30
0.0
 41
1.0
 10
-2709.5537903786631
 20
875.04627867786985
 30
0.0
 41
0.9996876457879164
 10
-2709.57173429146
 20
875.15273410558063
 30
0.0
 41
1.0
 10
-2709.5739659546075
 20
875.16597384083457
 30
0.0
 41
1.0
 10
-2709.576197617755
 20
875.17921357608861
 30
0.0
 41
1.0
 10
-2709.5899934391741
 20
875.26105972003938
 30
0.0
 41
0.9995547496493513
 10
-2709.6086467610658
 20
875.34193721722431
 30
0.0
 41
1.0
 10
-2709.6090207179373
 20
875.34355862793018
 30
0.0
 41
1.0
 10
-2709.6093946748088
 20
875.34518003863604
 30
0.0
 41
1.0
 10
-2709.6273000829588
 20
875.42281471441515
 30
0.0
 41
0.9994899427175333
 10
-2709.6501249916382
 20
875.49914799724991
 30
0.0
 41
1.0
 10
-2709.6505835183789
 20
875.50068144703869
 30
0.0
 41
1.0
 10
-2709.65104204512
 20
875.50221489682747
 30
0.0
 41
1.0
 10
-2709.6729499003172
 20
875.57548128008455
 30
0.0
 41
0.999378487758972
 10
-2709.6999655354239
 20
875.64702198524333
 30
0.0
 41
1.0
 10
-2709.7004972263985
 20
875.64842996795755
 30
0.0
 41
1.0
 10
-2709.7010289173727
 20
875.64983795067178
 30
0.0
 41
1.0
 10
-2709.7269811705282
 20
875.71856269039642
 30
0.0
 41
0.9992430832256943
 10
-2709.7581977056898
 20
875.78506184247067
 30
0.0
 41
1.0
 10
-2709.758779821746
 20
875.78630189758701
 30
0.0
 41
1.0
 10
-2709.7593619378022
 20
875.78754195270346
 30
0.0
 41
1.0
 10
-2709.7894142408491
 20
875.85156099453866
 30
0.0
 41
0.9990789632798272
 10
-2709.8248448676259
 20
875.91276760628853
 30
0.0
 41
1.0
 10
-2709.8254405738071
 20
875.91379669214598
 30
0.0
 41
1.0
 10
-2709.8260362799879
 20
875.91482577800343
 30
0.0
 41
1.0
 10
-2709.8602754944022
 20
875.97397421803737
 30
0.0
 41
0.9988874801121286
 10
-2709.8999347704348
 20
876.02963393045604
 30
0.0
 41
1.0
 10
-2709.9004902965016
 20
876.03041358213409
 30
0.0
 41
1.0
 10
-2709.901045822568
 20
876.03119323381225
 30
0.0
 41
1.0
 10
-2709.9395940464688
 20
876.08529364287676
 30
0.0
 41
0.9986762060692327
 10
-2709.9834965177424
 20
876.13514735731303
 30
0.0
 41
1.0
 10
-2709.9839404780741
 20
876.13565149912915
 30
0.0
 41
1.0
 10
-2709.9843844384059
 20
876.13615564094528
 30
0.0
 41
1.0
 10
-2710.0273989890175
 20
876.18500107175089
 30
0.0
 41
0.9984621642489595
 10
-2710.0755565457966
 20
876.22878437222334
 30
0.0
 41
1.0
 10
-2710.0758031803134
 20
876.2290086043871
 30
0.0
 41
1.0
 10
-2710.0760498148302
 20
876.22923283655086
 30
0.0
 41
1.0
 10
-2710.1237141025745
 20
876.27256767269444
 30
0.0
 41
0.9982724693852292
 10
-2710.1761327344161
 20
876.31001202321215
 30
0.0
 41
1.0
 10
-2710.2285513662587
 20
876.34745637373078
 30
0.0
 41
0.9981399180157841
 10
-2710.2851374296533
 20
876.37824289317462
 30
0.0
 41
1.0
 10
-2710.2851830917307
 20
876.37826773633105
 30
0.0
 41
1.0
 10
-2710.2852287538076
 20
876.37829257948761
 30
0.0
 41
1.0
 10
-2710.341906141357
 20
876.40912878524523
 30
0.0
 41
0.9980927086834665
 10
-2710.4019514924244
 20
876.43274559409781
 30
0.0
 41
1.0
 10
-2710.4023916621363
 20
876.4329187199728
 30
0.0
 41
1.0
 10
-2710.4028318318478
 20
876.43309184584791
 30
0.0
 41
1.0
 10
-2710.4637575223387
 20
876.45705490645094
 30
0.0
 41
0.9981411356560795
 10
-2710.5271460437366
 20
876.47342754795591
 30
0.0
 41
1.0
 10
-2710.5280281604382
 20
876.47365539016141
 30
0.0
 41
1.0
 10
-2710.5289102771394
 20
876.47388323236692
 30
0.0
 41
1.0
 10
-2710.5940630319396
 20
876.49071155828267
 30
0.0
 41
0.9983031812937913
 10
-2710.6607304609361
 20
876.4998509194595
 30
0.0
 41
1.0
 10
-2710.6696014863401
 20
876.50106703813083
 30
0.0
 41
1.0
 10
-2710.6784725117441
 20
876.50228315680215
 30
0.0
 41
1.0
 10
-2710.7328221542475
 20
876.50973388679347
 30
0.0
 41
0.998388770826141
 10
-2710.7876660035417
 20
876.51097856042668
 30
0.0
 41
1.0
 10
-2710.795729408761
 20
876.51116155830164
 30
0.0
 41
1.0
 10
-2710.8037928139802
 20
876.51134455617648
 30
0.0
 41
1.0
 10
-2710.8425098528364
 20
876.51222323406
 30
0.0
 41
0.9998869563080871
 10
-2710.8812358060372
 20
876.51193736470032
 30
0.0
 41
1.0
 10
-2710.9199617592385
 20
876.51165149534063
 30
0.0
 41
0.9999972320166826
 10
-2710.9586859384472
 20
876.51118339581171
 30
0.0
 41
1.0
 10
-2710.9780389550288
 20
876.51094945572231
 30
0.0
 41
1.0
 10
-2710.9973919716103
 20
876.5107155156328
 30
0.0
 41
1.0
 10
-2711.0748221839799
 20
876.50977953592508
 30
0.0
 41
0.9997304945086734
 10
-2711.1521254902163
 20
876.50525044213907
 30
0.0
 41
1.0
 10
-2711.1611751319219
 20
876.50472023614907
 30
0.0
 41
1.0
 10
-2711.1702247736275
 20
876.50419003015907
 30
0.0
 41
1.0
 10
-2711.2656273632783
 20
876.49860052439294
 30
0.0
 41
0.9997888306414705
 10
-2711.3607196991188
 20
876.48909555990372
 30
0.0
 41
1.0
 10
-2711.3694407606899
 20
876.4882238452717
 30
0.0
 41
1.0
 10
-2711.3781618222615
 20
876.48735213063981
 30
0.0
 41
1.0
 10
-2711.4906962812488
 20
876.47610373688667
 30
0.0
 41
0.9984170238190535
 10
-2711.6012554286017
 20
876.45228765495062
 30
0.0
 41
1.0
 10
-2711.6376365595879
 20
876.4444506191445
 30
0.0
 41
1.0
 10
-2711.6740176905746
 20
876.43661358333839
 30
0.0
 41
1.0
 10
-2711.7892087589953
 20
876.41179971682868
 30
0.0
 41
0.997659285420052
 10
-2711.8999369254007
 20
876.37150103968168
 30
0.0
 41
1.0
 10
-2712.0106650918065
 20
876.3312023625341
 30
0.0
 41
0.9993255074352687
 10
-2712.1181368905995
 20
876.28288546404042
 30
0.0
 41
1.0
 10
-2712.1227620695208
 20
876.28080608784148
 30
0.0
 41
1.0
 10
-2712.1273872484426
 20
876.27872671164266
 30
0.0
 41
1.0
 10
-2712.2441094050764
 20
876.22625106075259
 30
0.0
 41
0.9976475078275064
 10
-2712.3525567493853
 20
876.15830307109559
 30
0.0
 41
1.0
 10
-2712.3708991435205
 20
876.14681059228076
 30
0.0
 41
1.0
 10
-2712.3892415376558
 20
876.13531811346593
 30
0.0
 41
1.0
 10
-2712.4734437292122
 20
876.08256099269488
 30
0.0
 41
0.9995131336406583
 10
-2712.5541914441696
 20
876.02465478074168
 30
0.0
 41
1.0
 10
-2712.6349391591298
 20
875.96674856878644
 30
0.0
 41
0.9995810107606101
 10
-2712.7122008068568
 20
875.90426688632169
 30
0.0
 41
1.0
 10
-2712.7151708380661
 20
875.90186501485755
 30
0.0
 41
1.0
 10
-2712.7181408692759
 20
875.89946314339352
 30
0.0
 41
1.0
 10
-2712.8013425794256
 20
875.83217771799787
 30
0.0
 41
0.9996617837954297
 10
-2712.8809332665596
 20
875.76065726243928
 30
0.0
 41
1.0
 10
-2712.8930640174294
 20
875.74975652945477
 30
0.0
 41
1.0
 10
-2712.9051947682997
 20
875.73885579647026
 30
0.0
 41
1.0
 10
-2712.9734702957062
 20
875.67750318098899
 30
0.0
 41
0.9997267750053931
 10
-2713.0388038039955
 20
875.61302664445873
 30
0.0
 41
1.0
 10
-2713.1041373122766
 20
875.54855010793574
 30
0.0
 41
0.9999667288963032
 10
-2713.1684102554286
 20
875.48301630103629
 30
0.0
 41
1.0
 10
-2713.2372377032025
 20
875.41283864227944
 30
0.0
 41
1.0
 10
-2713.3060651509759
 20
875.34266098352248
 30
0.0
 41
1.0
 10
-2713.5079929896729
 20
875.13677185911172
 30
0.0
 41
0.9988205335175264
 10
-2713.6889986066521
 20
874.91226762705139
 30
0.0
 41
1.0
 10
-2713.719638571557
 20
874.87426437662134
 30
0.0
 41
1.0
 10
-2713.7502785364618
 20
874.83626112619118
 30
0.0
 41
1.0
 10
-2713.9925640832535
 20
874.53575039326711
 30
0.0
 41
0.9997077826754957
 10
-2714.2200420343593
 20
874.22388059904995
 30
0.0
 41
1.0
 10
-2714.221765449488
 20
874.22151781567254
 30
0.0
 41
1.0
 10
-2714.2234888646171
 20
874.21915503229525
 30
0.0
 41
1.0
 10
-2714.4544136459835
 20
873.90255967131918
 30
0.0
 41
0.9989147567078879
 10
-2714.6548771488679
 20
873.56585021013245
 30
0.0
 41
1.0
 10
-2714.6796182941744
 20
873.52429362958117
 30
0.0
 41
1.0
 10
-2714.7043594394804
 20
873.48273704902988
 30
0.0
 41
1.0
 10
-2714.8595707381187
 20
873.2220356645754
 30
0.0
 41
0.9997476598182385
 10
-2715.0029157256272
 20
872.95462591599494
 30
0.0
 41
1.0
 10
-2715.1462607131366
 20
872.687216167413
 30
0.0
 41
0.9996258967110454
 10
-2715.2747689650673
 20
872.41236823079078
 30
0.0
 41
1.0
 10
-2715.2879688745224
 20
872.3841368306837
 30
0.0
 41
1.0
 10
-2715.3011687839776
 20
872.35590543057651
 30
0.0
 41
1.0
 10
-2715.441377504972
 20
872.05603303263581
 30
0.0
 41
0.9998735413944548
 10
-2715.5719788516885
 20
871.75185343317605
 30
0.0
 41
1.0
 10
-2715.5754216797513
 20
871.74383484770635
 30
0.0
 41
1.0
 10
-2715.5788645078137
 20
871.73581626223665
 30
0.0
 41
1.0
 10
-2715.7025801984091
 20
871.447673833708
 30
0.0
 41
0.9999377418857949
 10
-2715.8198350005837
 20
871.1568423660334
 30
0.0
 41
1.0
 10
-2715.9370898027564
 20
870.86601089836381
 30
0.0
 41
0.9999508299505314
 10
-2716.0485537461286
 20
870.57291122155652
 30
0.0
 41
1.0
 10
-2716.0516345147953
 20
870.56481019558237
 30
0.0
 41
1.0
 10
-2716.0547152834615
 20
870.55670916960833
 30
0.0
 41
1.0
 10
-2716.1723407641562
 20
870.24740744087944
 30
0.0
 41
0.9999609228432325
 10
-2716.284479367027
 20
869.93607442487212
 30
0.0
 41
1.0
 10
-2716.2874353773818
 20
869.92786758444845
 30
0.0
 41
1.0
 10
-2716.2903913877367
 20
869.91966074402478
 30
0.0
 41
1.0
 10
-2716.4084420113027
 20
869.5919140472098
 30
0.0
 41
0.9999674607412238
 10
-2716.5211895373673
 20
869.26230542722737
 30
0.0
 41
1.0
 10
-2716.5725879279435
 20
869.11204623149615
 30
0.0
 41
1.0
 10
-2716.6239863185192
 20
868.96178703576493
 30
0.0
 41
1.0
 10
-2716.7399969252688
 20
868.62263905328621
 30
0.0
 41
0.9999287532307277
 10
-2716.8478783292317
 20
868.28081831433258
 30
0.0
 41
1.0
 10
-2716.8943555852757
 20
868.133555770263
 30
0.0
 41
1.0
 10
-2716.9408328413201
 20
867.98629322619354
 30
0.0
 41
1.0
 10
-2716.9557597330936
 20
867.93899757570148
 30
0.0
 41
0.999999822370216
 10
-2716.9706302419327
 20
867.89168416711595
 30
0.0
 41
1.0
 10
-2718.591286378728
 20
862.74365566532651
 30
0.0
 41
1.0
 10
-2720.2119425155238
 20
857.59562716353707
 30
0.0
 41
1.0
 10
-2721.1172509594144
 20
857.59562716353707
 30
0.0
 41
1.0
 10
-2722.0225594033054
 20
857.59562716353707
 30
0.0
 41
1.0
 10
-2720.1704749919195
 20
863.48269908600457
 30
0.0
 41
1.0
 10
-2718.3183905805336
 20
869.36977100847207
 30
0.0
 41
1.0
 10
-2718.3082688222307
 20
869.40181422192177
 30
0.0
 41
1.0
 10
-2718.235661153381
 20
869.63211376374761
 30
0.0
 41
1.0
 10
-2718.1630534845171
 20
869.86241330561757
 30
0.0
 41
0.9999825681977573
 10
-2718.0931704452946
 20
870.09355420072109
 30
0.0
 41
1.0
 10
-2718.0448793831379
 20
870.25327878420433
 30
0.0
 41
1.0
 10
-2717.9965883209811
 20
870.41300336768757
 30
0.0
 41
1.0
 10
-2717.8994359676735
 20
870.73433858943099
 30
0.0
 41
0.9999672528962672
 10
-2717.807497162059
 20
871.05720413498841
 30
0.0
 41
1.0
 10
-2717.8047082783928
 20
871.06699798036595
 30
0.0
 41
1.0
 10
-2717.8019193947266
 20
871.0767918257435
 30
0.0
 41
1.0
 10
-2717.7155583564409
 20
871.38006968055731
 30
0.0
 41
0.9999899749138727
 10
-2717.631916746901
 20
871.68410876902715
 30
0.0
 41
1.0
 10
-2717.6218108278799
 20
871.72084400671793
 30
0.0
 41
1.0
 10
-2717.6117049088593
 20
871.75757924440859
 30
0.0
 41
1.0
 10
-2717.5482751373629
 20
871.98814785749073
 30
0.0
 41
0.9999214200501823
 10
-2717.4906457089883
 20
872.22023419968889
 30
0.0
 41
1.0
 10
-2717.4778798568032
 20
872.27164508510225
 30
0.0
 41
1.0
 10
-2717.4651140046185
 20
872.32305597051561
 30
0.0
 41
1.0
 10
-2717.4330162806064
 20
872.4523205419157
 30
0.0
 41
0.9999828681676901
 10
-2717.4024340286155
 20
872.58195201636568
 30
0.0
 41
1.0
 10
-2717.3718517766183
 20
872.7115834908418
 30
0.0
 41
0.9999389844475143
 10
-2717.3441407878272
 20
872.84185894675079
 30
0.0
 41
1.0
 10
-2717.3370030441088
 20
872.87541505057948
 30
0.0
 41
1.0
 10
-2717.3298653003903
 20
872.90897115440805
 30
0.0
 41
1.0
 10
-2717.2878788241605
 20
873.10635881798362
 30
0.0
 41
0.9998933699440082
 10
-2717.2516745597586
 20
873.30488842574039
 30
0.0
 41
1.0
 10
-2717.2503017345421
 20
873.31241644643751
 30
0.0
 41
1.0
 10
-2717.2489289093255
 20
873.31994446713475
 30
0.0
 41
1.0
 10
-2717.2099789944891
 20
873.53353011629406
 30
0.0
 41
0.9996850305193223
 10
-2717.1817953182299
 20
873.74880112173855
 30
0.0
 41
1.0
 10
-2717.1798002848627
 20
873.76403947584458
 30
0.0
 41
1.0
 10
-2717.1778052514956
 20
873.7792778299505
 30
0.0
 41
1.0
 10
-2717.1503973890353
 20
873.98862305711384
 30
0.0
 41
0.9994697936706933
 10
-2717.1366728298149
 20
874.1993082524524
 30
0.0
 41
1.0
 10
-2717.136195760565
 20
874.20663172466584
 30
0.0
 41
1.0
 10
-2717.1357186913151
 20
874.21395519687917
 30
0.0
 41
1.0
 10
-2717.1229482705953
 20
874.40999344778527
 30
0.0
 41
0.9991804893136572
 10
-2717.1260765868683
 20
874.60642229775658
 30
0.0
 41
1.0
 10
-2717.1261604656902
 20
874.61168909917069
 30
0.0
 41
1.0
 10
-2717.1262443445125
 20
874.61695590058491
 30
0.0
 41
1.0
 10
-2717.1292049031408
 20
874.80285114773153
 30
0.0
 41
0.9988448329321132
 10
-2717.1499964487648
 20
874.9876037375634
 30
0.0
 41
1.0
 10
-2717.1515905224683
 20
875.00176859333874
 30
0.0
 41
1.0
 10
-2717.1531845961717
 20
875.01593344911396
 30
0.0
 41
1.0
 10
-2717.1707879943888
 20
875.17235632740062
 30
0.0
 41
0.9985503209457244
 10
-2717.2051042666881
 20
875.32598051148602
 30
0.0
 41
1.0
 10
-2717.2126902587588
 20
875.35994083888443
 30
0.0
 41
1.0
 10
-2717.2202762508296
 20
875.39390116628283
 30
0.0
 41
1.0
 10
-2717.2394205389869
 20
875.47960469557358
 30
0.0
 41
0.9991036781370483
 10
-2717.2657454006385
 20
875.56338178290025
 30
0.0
 41
1.0
 10
-2717.2697276260933
 20
875.57605494540769
 30
0.0
 41
1.0
 10
-2717.2737098515486
 20
875.58872810791513
 30
0.0
 41
1.0
 10
-2717.2920702622887
 20
875.6471588702226
 30
0.0
 41
0.9998874504368152
 10
-2717.3121754699682
 20
875.70501247244852
 30
0.0
 41
1.0
 10
-2717.3322806776473
 20
875.76286607467364
 30
0.0
 41
0.9994041637543267
 10
-2717.3563292905833
 20
875.81919477856638
 30
0.0
 41
1.0
 10
-2717.3605260748068
 20
875.82902484304691
 30
0.0
 41
1.0
 10
-2717.3647228590303
 20
875.83885490752732
 30
0.0
 41
1.0
 10
-2717.3926016900245
 20
875.90415507349485
 30
0.0
 41
0.9991846840700911
 10
-2717.4256580467168
 20
875.96699310477288
 30
0.0
 41
1.0
 10
-2717.4267946531127
 20
875.96915372122919
 30
0.0
 41
1.0
 10
-2717.4279312595086
 20
875.9713143376855
 30
0.0
 41
1.0
 10
-2717.4587144034103
 20
876.02983113605387
 30
0.0
 41
0.9989253167922968
 10
-2717.4947838274647
 20
876.08524606444337
 30
0.0
 41
1.0
 10
-2717.4958379521395
 20
876.08686555920622
 30
0.0
 41
1.0
 10
-2717.4968920768138
 20
876.08848505396907
 30
0.0
 41
1.0
 10
-2717.5308532515191
 20
876.14066099283275
 30
0.0
 41
0.9986467172837685
 10
-2717.570050404157
 20
876.18902702646312
 30
0.0
 41
1.0
 10
-2717.570924532858
 20
876.19010562874223
 30
0.0
 41
1.0
 10
-2717.5717986615596
 20
876.19118423102123
 30
0.0
 41
1.0
 10
-2717.6092475567953
 20
876.23739306009406
 30
0.0
 41
0.9984001104266125
 10
-2717.6516742873118
 20
876.27907816746153
 30
0.0
 41
1.0
 10
-2717.6522614254209
 20
876.27965504234214
 30
0.0
 41
1.0
 10
-2717.6528485635295
 20
876.28023191722275
 30
0.0
 41
1.0
 10
-2717.6941010178275
 20
876.32076327482901
 30
0.0
 41
0.9982442159083578
 10
-2717.7398571191643
 20
876.35613183609053
 30
0.0
 41
1.0
 10
-2717.7400719146267
 20
876.35629786873437
 30
0.0
 41
1.0
 10
-2717.7402867100891
 20
876.35646390137811
 30
0.0
 41
1.0
 10
-2717.7856132205006
 20
876.39150039735148
 30
0.0
 41
0.9982450060834989
 10
-2717.8347641995715
 20
876.42093218038428
 30
0.0
 41
1.0
 10
-2717.8839151786419
 20
876.45036396341686
 30
0.0
 41
0.9983922639636634
 10
-2717.9360814848073
 20
876.4740435980716
 30
0.0
 41
1.0
 10
-2717.936308362132
 20
876.47414658355319
 30
0.0
 41
1.0
 10
-2717.936535239457
 20
876.47424956903478
 30
0.0
 41
1.0
 10
-2717.9891553002694
 20
876.49813517465077
 30
0.0
 41
0.9986517147151571
 10
-2718.043968273138
 20
876.51643629377293
 30
0.0
 41
1.0
 10
-2718.0446461945667
 20
876.51666264020469
 30
0.0
 41
1.0
 10
-2718.0453241159948
 20
876.51688898663633
 30
0.0
 41
1.0
 10
-2718.1014929317184
 20
876.53564279862076
 30
0.0
 41
0.9989435598958135
 10
-2718.1591463188684
 20
876.54916050085512
 30
0.0
 41
1.0
 10
-2718.160226438451
 20
876.54941375110832
 30
0.0
 41
1.0
 10
-2718.1613065580332
 20
876.54966700136151
 30
0.0
 41
1.0
 10
-2718.2211201843465
 20
876.5636912041017
 30
0.0
 41
0.9992249241240306
 10
-2718.2818516932452
 20
876.57296654681716
 30
0.0
 41
1.0
 10
-2718.2832653815367
 20
876.57318245522504
 30
0.0
 41
1.0
 10
-2718.2846790698277
 20
876.57339836363292
 30
0.0
 41
1.0
 10
-2718.3482379553061
 20
876.58310552316379
 30
0.0
 41
0.9994396597833296
 10
-2718.4123038918447
 20
876.58853844550958
 30
0.0
 41
1.0
 10
-2718.4314445593218
 20
876.59016161322825
 30
0.0
 41
1.0
 10
-2718.4505852267994
 20
876.5917847809468
 30
0.0
 41
1.0
 10
-2718.552932498289
 20
876.60046403872968
 30
0.0
 41
0.9987693403121325
 10
-2718.6556361218768
 20
876.59896097527712
 30
0.0
 41
1.0
 10
-2718.6658904561059
 20
876.59881090350291
 30
0.0
 41
1.0
 10
-2718.676144790335
 20
876.59866083172869
 30
0.0
 41
1.0
 10
-2718.7857005565147
 20
876.59705748744113
 30
0.0
 41
0.9989753644966528
 10
-2718.8946625565286
 20
876.58555448051618
 30
0.0
 41
1.0
 10
-2719.0036245565457
 20
876.574051473591
 30
0.0
 41
0.9983190067304848
 10
-2719.1105233675112
 20
876.55001648180394
 30
0.0
 41
1.0
 10
-2719.1194243191176
 20
876.54801520324145
 30
0.0
 41
1.0
 10
-2719.1283252707235
 20
876.54601392467885
 30
0.0
 41
1.0
 10
-2719.2530259849009
 20
876.51797637576726
 30
0.0
 41
0.9985539388302395
 10
-2719.3739957385801
 20
876.47671269972113
 30
0.0
 41
1.0
 10
-2719.3763411695404
 20
876.47591265590529
 30
0.0
 41
1.0
 10
-2719.3786866005007
 20
876.47511261208945
 30
0.0
 41
1.0
 10
-2719.504347216101
 20
876.4322488484114
 30
0.0
 41
0.9988468746493314
 10
-2719.6253175584029
 20
876.37753076334809
 30
0.0
 41
1.0
 10
-2719.6285003803896
 20
876.37609108878905
 30
0.0
 41
1.0
 10
-2719.6316832023767
 20
876.3746514142299
 30
0.0
 41
1.0
 10
-2719.7590191886497
 20
876.31705398004988
 30
0.0
 41
0.9991322885919683
 10
-2719.8811197727068
 20
876.2490586478682
 30
0.0
 41
1.0
 10
-2719.898721783753
 20
876.23925644587723
 30
0.0
 41
1.0
 10
-2719.9163237947987
 20
876.22945424388627
 30
0.0
 41
1.0
 10
-2720.0185004758559
 20
876.1725541281055
 30
0.0
 41
0.9993860037849692
 10
-2720.1164414799296
 20
876.10863811251693
 30
0.0
 41
1.0
 10
-2720.1220597927877
 20
876.10497161781814
 30
0.0
 41
1.0
 10
-2720.1276781056463
 20
876.10130512311923
 30
0.0
 41
1.0
 10
-2720.2143824840041
 20
876.04472209692779
 30
0.0
 41
0.9998821494953871
 10
-2720.2993088598159
 20
875.98550386685167
 30
0.0
 41
1.0
 10
-2720.3842352356323
 20
875.92628563677249
 30
0.0
 41
0.9997976482744646
 10
-2720.4667108660396
 20
875.86369922872757
 30
0.0
 41
1.0
 10
-2720.4813471308407
 20
875.8525925389506
 30
0.0
 41
1.0
 10
-2720.4959833956423
 20
875.84148584917352
 30
0.0
 41
1.0
 10
-2720.607731555659
 20
875.75668606156989
 30
0.0
 41
0.9998091630800725
 10
-2720.7160818336924
 20
875.66758571086359
 30
0.0
 41
1.0
 10
-2720.7290875861654
 20
875.6568906104211
 30
0.0
 41
1.0
 10
-2720.7420933386384
 20
875.64619550997861
 30
0.0
 41
1.0
 10
-2720.8764551216204
 20
875.53570495838494
 30
0.0
 41
0.9995035112317652
 10
-2721.0035909993803
 20
875.41697114137366
 30
0.0
 41
1.0
 10
-2721.0132383097734
 20
875.40796139521058
 30
0.0
 41
1.0
 10
-2721.0228856201661
 20
875.39895164904738
 30
0.0
 41
1.0
 10
-2721.1463086829272
 20
875.28368527729526
 30
0.0
 41
0.9994630424298441
 10
-2721.2619170887074
 20
875.16058253406345
 30
0.0
 41
1.0
 10
-2721.2655999274784
 20
875.15666095455072
 30
0.0
 41
1.0
 10
-2721.2692827662495
 20
875.1527393750381
 30
0.0
 41
1.0
 10
-2721.3775254944908
 20
875.03747979082891
 30
0.0
 41
0.9995160693749733
 10
-2721.4783915240232
 20
874.91571237295568
 30
0.0
 41
1.0
 10
-2721.4803252441079
 20
874.91337794874289
 30
0.0
 41
1.0
 10
-2721.4822589641922
 20
874.91104352453021
 30
0.0
 41
1.0
 10
-2721.5792575535579
 20
874.79394495507972
 30
0.0
 41
0.9996561470514522
 10
-2721.6699837722217
 20
874.67192219263393
 30
0.0
 41
1.0
 10
-2721.6761414381231
 20
874.66364040359247
 30
0.0
 41
1.0
 10
-2721.6822991040244
 20
874.65535861455101
 30
0.0
 41
1.0
 10
-2721.7607099908882
 20
874.5498994301837
 30
0.0
 41
0.9998349055173216
 10
-2721.8352372728195
 20
874.44166084652136
 30
0.0
 41
1.0
 10
-2721.9097645547545
 20
874.33342226285367
 30
0.0
 41
0.9999728109566429
 10
-2721.9826874506712
 20
874.22409633728921
 30
0.0
 41
1.0
 10
-2721.9840026660786
 20
874.22212456779346
 30
0.0
 41
1.0
 10
-2721.9853178814856
 20
874.2201527982977
 30
0.0
 41
1.0
 10
-2722.060871208244
 20
874.1068833336999
 30
0.0
 41
0.9999972147392283
 10
-2722.1358890186571
 20
873.99325849080526
 30
0.0
 41
1.0
 10
-2722.1408605612478
 20
873.98572840238114
 30
0.0
 41
1.0
 10
-2722.1458321038381
 20
873.97819831395702
 30
0.0
 41
1.0
 10
-2722.2307929994527
 20
873.84951329418266
 30
0.0
 41
0.9999371979006714
 10
-2722.3128483488485
 20
873.71895638041838
 30
0.0
 41
1.0
 10
-2722.3163572332169
 20
873.71337345234338
 30
0.0
 41
1.0
 10
-2722.3198661175848
 20
873.70779052426838
 30
0.0
 41
1.0
 10
-2722.408939235715
 20
873.56606775435671
 30
0.0
 41
0.9998272025609983
 10
-2722.492682626596
 20
873.42113187761606
 30
0.0
 41
1.0
 10
-2722.5078977986195
 20
873.39479876316
 30
0.0
 41
1.0
 10
-2722.5231129706435
 20
873.36846564870405
 30
0.0
 41
1.0
 10
-2722.6372867055761
 20
873.17086354304411
 30
0.0
 41
0.9995217214838146
 10
-2722.7390263951324
 20
872.96658121517999
 30
0.0
 41
1.0
 10
-2722.7466699577676
 20
872.95123376547645
 30
0.0
 41
1.0
 10
-2722.7543135204028
 20
872.93588631577302
 30
0.0
 41
1.0
 10
-2722.8412188129901
 20
872.76138985769683
 30
0.0
 41
0.9998269762606914
 10
-2722.9215732792609
 20
872.58378157097536
 30
0.0
 41
1.0
 10
-2723.0019277455312
 20
872.40617328425583
 30
0.0
 41
0.9998944747387026
 10
-2723.0770885400934
 20
872.2263055586335
 30
0.0
 41
1.0
 10
-2723.0820422096908
 20
872.21445090370116
 30
0.0
 41
1.0
 10
-2723.0869958792882
 20
872.20259624876871
 30
0.0
 41
1.0
 10
-2723.1676429398362
 20
872.00959930876184
 30
0.0
 41
0.9999506734411592
 10
-2723.2444404687371
 20
871.81503850391243
 30
0.0
 41
1.0
 10
-2723.2590404340071
 20
871.77805058210811
 30
0.0
 41
1.0
 10
-2723.2736403992776
 20
871.74106266030378
 30
0.0
 41
1.0
 10
-2723.3212379976403
 20
871.62047769905644
 30
0.0
 41
0.9999912393904494
 10
-2723.3678244416633
 20
871.4994984963605
 30
0.0
 41
1.0
 10
-2723.4144108856844
 20
871.37851929366775
 30
0.0
 41
0.9999927113983217
 10
-2723.4600721800844
 20
871.25718788615063
 30
0.0
 41
1.0
 10
-2723.4740406114797
 20
871.22007090415775
 30
0.0
 41
1.0
 10
-2723.4880090428751
 20
871.18295392216487
 30
0.0
 41
1.0
 10
-2723.561607200068
 20
870.98738855065676
 30
0.0
 41
0.9999487550951094
 10
-2723.6312308250417
 20
870.79037318546716
 30
0.0
 41
1.0
 10
-2723.6548244349874
 20
870.7236098751498
 30
0.0
 41
1.0
 10
-2723.6784180449331
 20
870.65684656483245
 30
0.0
 41
1.0
 10
-2723.773103679292
 20
870.3889127300414
 30
0.0
 41
0.9999808436936585
 10
-2723.8644652679222
 20
870.11982729880765
 30
0.0
 41
1.0
 10
-2723.9558268565715
 20
869.85074186752058
 30
0.0
 41
0.9999873932927736
 10
-2724.0444815652941
 20
869.58075251249159
 30
0.0
 41
1.0
 10
-2724.0645739221573
 20
869.51956317975782
 30
0.0
 41
1.0
 10
-2724.0846662790204
 20
869.45837384702395
 30
0.0
 41
1.0
 10
-2724.2135057014793
 20
869.06600582649844
 30
0.0
 41
0.9999794883027143
 10
-2724.3373084864425
 20
868.67201962020511
 30
0.0
 41
1.0
 10
-2724.3484607458868
 20
868.63652900994578
 30
0.0
 41
1.0
 10
-2724.3596130053315
 20
868.60103839968644
 30
0.0
 41
1.0
 10
-2724.5021711692116
 20
868.14736564765406
 30
0.0
 41
0.999998276173611
 10
-2724.6430436092232
 20
867.69316662554365
 30
0.0
 41
1.0
 10
-2726.2311839417957
 20
862.64439689454036
 30
0.0
 41
1.0
 10
-2727.8193242743682
 20
857.59562716353707
 30
0.0
 41
1.0
 10
-2728.7680748858447
 20
857.59562716353707
 30
0.0
 41
1.0
 10
-2729.7168254973212
 20
857.59562716353707
 30
0.0
 41
1.0
 10
-2726.4785410111681
 20
867.92294936348321
 30
0.0
 41
1.0
 10
-2723.2402565250145
 20
878.25027156342935
 30
0.0
 41
1.0
  0
LWPOLYLINE
  5
57
100
AcDbEntity
  8
0
370
              15
390
0
  6
Continuous
 62
               7
100
AcDbPolyline
 90
      232
 70
             128
 10
-2748.9438022988415
 20
877.16592873191416
 42
0.0004370800691006
 10
-2748.9966794727925
 20
877.09726209281541
 10
-2749.035963704041
 20
877.04615497976135
 42
0.0030481992172825
 10
-2749.1663024211957
 20
876.87443328737004
 10
-2749.204814092911
 20
876.82304650362903
 42
0.0042058245756163
 10
-2749.4087991435631
 20
876.54604075857924
 10
-2749.461204266081
 20
876.47360791177459
 42
0.0120948898741826
 10
-2749.7572481828424
 20
876.04285830722608
 10
-2749.8534406819622
 20
875.89537757200446
 42
0.0141601263950647
 10
-2750.1570847288867
 20
875.39970823526528
 10
-2750.1966219963206
 20
875.33086426782006
 42
0.0071131081301281
 10
-2750.401894319551
 20
874.96136146899539
 42
0.0068458791011558
 10
-2750.596773846406
 20
874.58626990549544
 10
-2750.6035857088518
 20
874.57270819179564
 42
0.0064120880290771
 10
-2750.8017279588898
 20
874.16528371688969
 10
-2750.8092626444131
 20
874.14927186015552
 42
0.0058857236449132
 10
-2751.0120180362728
 20
873.704895749147
 10
-2751.0201929625787
 20
873.68640559548658
 42
0.0053189741892778
 10
-2751.2288972752444
 20
873.20044212157256
 10
-2751.2376450809275
 20
873.17946024337255
 42
0.0047503650421166
 10
-2751.4536188070838
 20
872.64726081014851
 10
-2751.4628870554261
 20
872.62378443405498
 42
0.0042071762171588
 10
-2751.6874344391417
 20
872.04069084001844
 10
-2751.6971838415029
 20
872.01472466511552
 42
0.0036680086483161
 10
-2751.9316384848034
 20
871.37608928061672
 10
-2751.9418462646627
 20
871.34764074623979
 42
0.0032573142631599
 10
-2752.1874785506498
 20
870.64878808642823
 10
-2752.2561290714902
 20
870.44932500237462
 42
0.0026133366648766
 10
-2752.6045742702281
 20
869.41946171876157
 10
-2752.6678310577454
 20
869.22923088331891
 42
0.0020592950743271
 10
-2752.8816941266959
 20
868.57712723075542
 10
-2752.8847459178651
 20
868.56769074232727
 42
0.0025609928535039
 10
-2753.0865664193448
 20
867.93254551997984
 10
-2753.0891577864768
 20
867.92424317902294
 42
0.0031362356239455
 10
-2753.2786485721485
 20
867.30348032285974
 10
-2753.2807796150546
 20
867.29633901671991
 42
0.0037229918027364
 10
-2753.4575800020025
 20
866.68735371467449
 10
-2753.4592585912042
 20
866.68140682451713
 42
0.0043077623707621
 10
-2753.6229993932739
 20
866.08158809273107
 42
0.004765416182152
 10
-2753.7758281157871
 20
865.47890200383995
 10
-2753.8102927246291
 20
865.33734022667898
 42
0.0112969368447574
 10
-2754.0061570827752
 20
864.44564806604001
 10
-2754.0341634718689
 20
864.30282001995693
 42
0.0130056762571638
 10
-2754.2350007155155
 20
863.115878948312
 10
-2754.2555404656609
 20
862.9718008348475
 42
0.0138721532141867
 10
-2754.3592434702005
 20
862.06497134900928
 10
-2754.3785389581089
 20
861.84147362707643
 42
0.0071254697005826
 10
-2754.4118856040313
 20
861.37828661823698
 10
-2754.4168465781977
 20
861.29228262362506
 42
0.0028881799210141
 10
-2754.431984871484
 20
861.00054091383424
 42
0.0060297297139796
 10
-2754.4419170712604
 20
860.708591977688
 10
-2754.4429793529271
 20
860.66019960578296
 42
0.0229523164152946
 10
-2754.4352483251414
 20
860.33744475950277
 10
-2754.4310225516201
 20
860.27704122547743
 42
0.0123673300667208
 10
-2754.4119439051028
 20
860.07592050031178
 42
0.0128577674482197
 10
-2754.3827485146944
 20
859.87602265037413
 10
-2754.3756226413093
 20
859.83469383578802
 42
0.0285717853760108
 10
-2754.3111286396138
 20
859.55657768447509
 10
-2754.2974601159467
 20
859.50992291499676
 42
0.0316283099164435
 10
-2754.1816495360326
 20
859.19090841317166
 10
-2754.1786008442764
 20
859.18392204084421
 42
0.0338984824238694
 10
-2754.0291691333105
 20
858.89635607665696
 10
-2754.0268604039416
 20
858.89256504738262
 42
0.0350228718346317
 10
-2753.8445001132668
 20
858.63551306270415
 10
-2753.8436148614937
 20
858.63443398494269
 42
0.0347476747535144
 10
-2753.6291901742516
 20
858.40724893772006
 42
0.0331337701908561
 10
-2753.3859468485048
 20
858.2111202756422
 10
-2753.3848467499893
 20
858.21034757247014
 42
0.0305233319086906
 10
-2753.1163020544182
 20
858.04521940238021
 10
-2753.1130720099145
 20
858.04349539051611
 42
0.0273744481155705
 10
-2752.820518298342
 20
857.90735724662647
 10
-2752.8154137632027
 20
857.905313662156
 42
0.0240964406195664
 10
-2752.4999366875568
 20
857.7963299358745
 10
-2752.4933533583471
 20
857.79440519619959
 42
0.0209636179808203
 10
-2752.1559532056917
 20
857.71093704826706
 10
-2752.1483207452457
 20
857.70938513526607
 42
0.0181388704695479
 10
-2751.789998353247
 20
857.64996904205213
 10
-2751.781717504869
 20
857.64890285823503
 42
0.0156086547590705
 10
-2751.4035301406789
 20
857.61216667165831
 10
-2751.3603348883521
 20
857.60932816917932
 42
0.0137148329018777
 10
-2751.0326617430542
 20
857.59680791392805
 10
-2750.9867255531117
 20
857.5963134808128
 42
0.0051057823882601
 10
-2750.750579966536
 20
857.5961832264037
 42
0.0052256693318458
 10
-2750.514482682745
 20
857.60093205086821
 10
-2750.4442558990077
 20
857.60307901688202
 42
0.0161507179045648
 10
-2750.0685188209072
 20
857.62672938720857
 10
-2750.0485058605336
 20
857.62863958249613
 42
0.0101216737832363
 10
-2749.6344786390378
 20
857.6766325128624
 10
-2749.6004253496162
 20
857.68128020967129
 42
0.0245291776401895
 10
-2749.123635694069
 20
857.77035528774672
 10
-2749.0388123785478
 20
857.79055120809176
 42
0.0143509212557106
 10
-2748.6821812746016
 20
857.88635584187216
 42
0.0156557857034368
 10
-2748.3319652098726
 20
858.00336705769155
 10
-2748.3244639953796
 20
858.00613721944512
 42
0.0170137333638679
 10
-2747.96786799969
 20
858.15179483431984
 10
-2747.9607640772906
 20
858.15498266987993
 42
0.0183105364399689
 10
-2747.6014144091373
 20
858.3323177116971
 10
-2747.5944676444856
 20
858.33606814657639
 42
0.0194899958151892
 10
-2747.2359869035058
 20
858.54804712846442
 10
-2747.2289730241646
 20
858.55257247076213
 42
0.0204869852947412
 10
-2746.8749587220682
 20
858.80209248585027
 10
-2746.8676931134842
 20
858.80767255119633
 42
0.021251693855782
 10
-2746.5217031823727
 20
859.09757654809357
 10
-2746.4751864882987
 20
859.14004385818566
 42
0.0215248918244088
 10
-2746.2151603194125
 20
859.39880813717912
 10
-2746.1701305850324
 20
859.44765225852859
 42
0.0114578554954243
 10
-2746.0153384313548
 20
859.62347519198727
 10
-2746.0041438953722
 20
859.63679395552788
 42
0.0061531305133197
 10
-2745.8776692493739
 20
859.79108348883835
 42
0.0006325587121177
 10
-2745.7532907651562
 20
859.94708686459694
 10
-2745.7302506301703
 20
859.97606038517347
 42
0.0041897761557502
 10
-2745.561795226196
 20
860.19157976123802
 10
-2745.5033331063059
 20
860.26768110822047
 42
0.0092993880033573
 10
-2745.2267211790909
 20
860.64195987209166
 10
-2745.144326685876
 20
860.75789687568295
 42
0.0159321727090948
 10
-2744.7977202032407
 20
861.28007109642908
 10
-2744.7533640678475
 20
861.35175066068552
 42
0.0085547317019314
 10
-2744.5188523025254
 20
861.74562560990375
 42
0.0084601156887745
 10
-2744.2978761250806
 20
862.14725245894124
 10
-2744.2897606512533
 20
862.16261214120891
 42
0.0081429654285853
 10
-2744.066511380805
 20
862.60233365377178
 10
-2744.0576512166317
 20
862.62051249576905
 42
0.0076574581322025
 10
-2743.8312437060677
 20
863.10369537101519
 10
-2743.8217640653411
 20
863.12475984932519
 42
0.0070682724202407
 10
-2743.5913191575282
 20
863.65679715412125
 10
-2743.5813288735526
 20
863.68078634311803
 42
0.0064559514442652
 10
-2743.3459956653714
 20
864.26709860963649
 10
-2743.3355863072065
 20
864.29403353507917
 42
0.0058311413910588
 10
-2743.0945395704289
 20
864.94006562950381
 10
-2743.0837844930561
 20
864.96994997062336
 42
0.0052312425820583
 10
-2742.8362032150126
 20
865.68115238446637
 10
-2742.8251593786354
 20
865.71397909652762
 42
0.0046680544796113
 10
-2742.5702309508997
 20
866.4958054122859
 10
-2742.528238800855
 20
866.62878864958179
 42
0.0041666856444774
 10
-2742.3249527884623
 20
867.29175742458006
 10
-2742.2872903478114
 20
867.41833853219009
 42
0.0015170975158189
 10
-2742.1661037693857
 20
867.83020688372744
 42
-0.0004887993119015
 10
-2742.0457639963756
 20
868.24232529538233
 10
-2741.9692867387676
 20
868.50328268171052
 42
0.0002583378930268
 10
-2741.6960721686478
 20
869.43733938507933
 10
-2741.6142993190929
 20
869.71743864458745
 42
0.0006636169669433
 10
-2741.4204315591151
 20
870.38479156805965
 10
-2741.4153349048306
 20
870.40242315072271
 42
0.0010589131322017
 10
-2741.2338862038514
 20
871.03515449398856
 10
-2741.2289041333656
 20
871.05266740102763
 42
0.0015655524462015
 10
-2741.0606339261885
 20
871.65128408020951
 10
-2741.055803725747
 20
871.66867623924088
 42
0.0021640440483315
 10
-2740.9015137537872
 20
872.23370325716348
 10
-2740.8968795343608
 20
872.25096798714424
 42
0.0028763871850482
 10
-2740.757363816304
 20
872.78293593800436
 10
-2740.752977952141
 20
872.80005991614166
 42
0.0037310511940804
 10
-2740.6290212602999
 20
873.29950751018271
 10
-2740.6249460400218
 20
873.31646778138338
 42
0.0047652197763804
 10
-2740.5173221395025
 20
873.78394554973329
 10
-2740.5136315401746
 20
873.80070510490361
 42
0.0060276699297452
 10
-2740.4231014410257
 20
874.2367809000275
 10
-2740.4198827507357
 20
874.25328211433964
 42
0.0075824337757805
 10
-2740.347193441321
 20
874.65854927876285
 10
-2740.3445480639411
 20
874.67470422621147
 42
0.0095130624602868
 10
-2740.2904328283093
 20
875.04979357928516
 10
-2740.2834466044264
 20
875.10572713740339
 42
0.0121054653228279
 10
-2740.2568552738494
 20
875.37062296587555
 10
-2740.2559887840871
 20
875.38202640884265
 42
0.0069050827401535
 10
-2740.240899966052
 20
875.62496763564889
 10
-2740.2397646663849
 20
875.64849389265885
 42
0.0169063976661678
 10
-2740.236937387403
 20
875.84468661999438
 10
-2740.238108038935
 20
875.90502238137242
 42
0.0052007732949463
 10
-2740.2403614875275
 20
875.98061577149565
 42
0.0054038123315551
 10
-2740.2603249993681
 20
876.10063406751362
 10
-2740.265410855237
 20
876.12929255408676
 42
0.0112050460466115
 10
-2740.300795217292
 20
876.3056189924115
 10
-2740.318620179336
 20
876.3851605791466
 42
0.0240764468010091
 10
-2740.4095175454818
 20
876.71539761464783
 10
-2740.4280763082957
 20
876.77201777964251
 42
0.025681233183579
 10
-2740.5714392284845
 20
877.14374198589894
 10
-2740.5768486543066
 20
877.15587332089058
 42
0.0268360501212676
 10
-2740.746275895156
 20
877.48686645490966
 10
-2740.7518123027953
 20
877.49638612522892
 42
0.0274670231738036
 10
-2740.9440132792042
 20
877.78867350013923
 10
-2740.9493945791651
 20
877.79595264767806
 42
0.0275035967099147
 10
-2741.1609674587289
 20
878.05146853798465
 10
-2741.166036959693
 20
878.05694762561245
 42
0.0269557673525798
 10
-2741.393440503135
 20
878.27758991157737
 10
-2741.3981835609152
 20
878.28171986603581
 42
0.0259124802207863
 10
-2741.6377383923482
 20
878.46941039319051
 10
-2741.6422692375331
 20
878.472595895523
 42
0.0245162152997595
 10
-2741.8901855906252
 20
878.62932890463128
 10
-2741.8947121369501
 20
878.63188910183248
 42
0.0229282588838345
 10
-2742.1471316937768
 20
878.75975729433105
 10
-2742.1519121876163
 20
878.76190959409428
 42
0.02129841357018
 10
-2742.404950140075
 20
878.86310851133533
 10
-2742.4102544250445
 20
878.86497207409536
 42
0.0197555462348864
 10
-2742.6600327627675
 20
878.94178749206014
 42
0.0183511896792073
 10
-2742.9149614882308
 20
878.99937039902545
 10
-2743.0013266849528
 20
879.01557318941036
 42
0.0338057877141096
 10
-2743.2868340342143
 20
879.04938159455094
 10
-2743.3778394392616
 20
879.05396124981257
 42
0.0091990524493932
 10
-2743.4836865478901
 20
879.0573371057344
 42
0.0028333980790511
 10
-2743.5896004638889
 20
879.05816521325119
 10
-2743.5905159169324
 20
879.05816718307517
 42
-0.0023619827793083
 10
-2743.6982619320597
 20
879.05890802415399
 10
-2743.7346671022142
 20
879.05933033061672
 42
0.0008824598478064
 10
-2743.9152230920122
 20
879.06110610885457
 10
-2743.9590845244702
 20
879.06146007038058
 42
0.0038132665768347
 10
-2744.2273674203502
 20
879.06157900644723
 10
-2744.2439010751423
 20
879.06146024030363
 42
0.0060665569330134
 10
-2744.5451815667338
 20
879.05563994088277
 10
-2744.5594318987587
 20
879.05519163291524
 42
0.0080356953332723
 10
-2744.8888906151078
 20
879.03952391084772
 10
-2744.9009606301852
 20
879.03875532790789
 42
0.0098996399103365
 10
-2745.2537237148381
 20
879.00927009870952
 10
-2745.2637694242112
 20
879.00822980251155
 42
0.0117740981359631
 10
-2745.6349262825588
 20
878.9609375549818
 10
-2745.6431489790421
 20
878.95969243841091
 42
0.0137435215138051
 10
-2746.0277377985331
 20
878.89059546484805
 10
-2746.0343948376508
 20
878.88920956861568
 42
0.0158359869384366
 10
-2746.4273919314546
 20
878.79431748013451
 10
-2746.4328051183202
 20
878.79282753926441
 42
0.0180554124026372
 10
-2746.8291201629336
 20
878.66818952302538
 10
-2746.8336769510161
 20
878.66657348675938
 42
0.0203657431289177
 10
-2747.2281544688349
 20
878.50831314524032
 10
-2747.2322980078347
 20
878.50645152380173
 42
0.022681968465471
 10
-2747.6197340640356
 20
878.31080894513252
 10
-2747.6239338550567
 20
878.30844335321092
 42
0.0248634984611794
 10
-2747.9991157962395
 20
878.07181670726243
 10
-2748.0473107250154
 20
878.03795966544249
 42
0.026704419088464
 10
-2748.3216034219386
 20
877.82251928956987
 42
0.0139303002200482
 10
-2748.5777705878786
 20
877.58528044865648
 10
-2748.5826239735979
 20
877.58052778579781
 42
0.0283460963441011
 10
-2748.8266965678235
 20
877.31279712535479
 10
-2748.8663650729818
 20
877.26399554787963
 42
0.0070695364826324
 10
-2748.9438022988415
 20
877.16592873191416
 42
0.0070695364826324
  0
LWPOLYLINE
  5
58
100
AcDbEntity
  8
0
370
              15
390
0
  6
Continuous
 62
               7
100
AcDbPolyline
 90
      226
 70
             128
 10
-2752.4726227360879
 20
861.44433992573022
 42
-0.0026277636634705
 10
-2752.4727006198877
 20
861.5111118514817
 10
-2752.4724832616557
 20
861.56426706891637
 42
-0.0088680296733111
 10
-2752.4687066453616
 20
861.73728285134314
 10
-2752.4663602862502
 20
861.79656287677301
 42
-0.0077381705620078
 10
-2752.4503141754876
 20
862.08782337256548
 10
-2752.4494462643142
 20
862.10011160625629
 42
-0.0068872530530131
 10
-2752.4228141845629
 20
862.4153333583572
 10
-2752.42160996038
 20
862.42757433734403
 42
-0.0062130021479657
 10
-2752.3840162435499
 20
862.76644402860143
 10
-2752.382512340017
 20
862.77861790049906
 42
-0.0056726929675321
 10
-2752.3335904805158
 20
863.14081312260396
 10
-2752.3318170348703
 20
863.15290692285782
 42
-0.0052341884496585
 10
-2752.2712064486091
 20
863.53810017838555
 10
-2752.2691884598339
 20
863.55010510836814
 42
-0.0049768450172955
 10
-2752.1964497784088
 20
863.95794967579172
 10
-2752.1722007636854
 20
864.08649765880671
 42
-0.0089029805626116
 10
-2752.0351199118923
 20
864.74827310622288
 10
-2752.0023745365725
 20
864.89330453675257
 42
-0.0080318257101692
 10
-2751.772825922234
 20
865.83901416859794
 10
-2751.7608409957838
 20
865.88514480379638
 42
-0.0074265721316581
 10
-2751.4768294569312
 20
866.91520938218491
 10
-2751.4569499138238
 20
866.98334344274292
 42
-0.0069711922702584
 10
-2751.1296453353102
 20
868.04961118309427
 10
-2751.0696933882045
 20
868.23563254146495
 42
-0.0052070422895823
 10
-2750.8402681629454
 20
868.9229046184962
 10
-2750.822986970742
 20
868.97293189920401
 42
-0.0009167004446955
 10
-2750.6198950834837
 20
869.5573877472674
 42
-0.0025162726946827
 10
-2750.4127974532307
 20
870.14042901140294
 10
-2750.3755728413926
 20
870.24357855739868
 42
-0.0028212681456377
 10
-2750.1273969224526
 20
870.91930918950641
 10
-2750.1175661597031
 20
870.94561663417971
 42
-0.0031964916824193
 10
-2749.8812739020395
 20
871.56582139631018
 10
-2749.8716394480398
 20
871.59063138645581
 42
-0.003628183644879
 10
-2749.6465334869395
 20
872.15807206734655
 10
-2749.6370950767887
 20
872.18136949883296
 42
-0.0041269166836448
 10
-2749.4224773801229
 20
872.69881039482766
 10
-2749.3898444237116
 20
872.77568884116715
 42
-0.0047472213052413
 10
-2749.2327996181484
 20
873.13611030907214
 10
-2749.2259055369273
 20
873.15153090643366
 42
-0.0025651659994665
 10
-2749.07754750309
 20
873.47885896215257
 42
-0.0057144634998497
 10
-2748.923797809337
 20
873.80366863547829
 10
-2748.8957671039079
 20
873.86117701792955
 42
-0.0065388068369445
 10
-2748.7123000761776
 20
874.22540951457427
 10
-2748.7038416204014
 20
874.24166909393989
 42
-0.0074510843031391
 10
-2748.5276593745211
 20
874.56835737506651
 10
-2748.5194797039862
 20
874.58299815234182
 42
-0.0084648979860109
 10
-2748.3498458508902
 20
874.87490716329648
 10
-2748.341989724403
 20
874.88791415494597
 42
-0.0095638542810711
 10
-2748.1781542768076
 20
875.14780302692589
 10
-2748.1706793331359
 20
875.15917238838153
 42
-0.0107191626801403
 10
-2748.0118777527487
 20
875.38978362292539
 10
-2748.0048610190292
 20
875.39951971527364
 42
-0.0118458573928714
 10
-2747.8503129205051
 20
875.6035919106007
 42
-0.0129184518177799
 10
-2747.6858602968946
 20
875.79975242678154
 10
-2747.6557155245359
 20
875.83387850567567
 42
-0.0217742579643625
 10
-2747.4791032022049
 20
876.01708527592075
 10
-2747.4683576577263
 20
876.02730210914103
 42
-0.0097266568642891
 10
-2747.3023000388889
 20
876.17914968356104
 42
-0.0187720905723697
 10
-2747.1279524630063
 20
876.32121853694503
 10
-2747.0972464723272
 20
876.34437761934498
 42
-0.0179428207517336
 10
-2746.8648257523291
 20
876.50692979645805
 10
-2746.8611734254118
 20
876.5092937313467
 42
-0.0170047877707468
 10
-2746.6254097878827
 20
876.6507542454973
 10
-2746.6216267991358
 20
876.65285255053391
 42
-0.0160190788359422
 10
-2746.384718251501
 20
876.77450385252166
 42
-0.0151102861501199
 10
-2746.1406864690543
 20
876.88118662857642
 10
-2746.0882999668429
 20
876.90222676147096
 42
-0.0271945441891207
 10
-2745.729637407785
 20
877.02409157217676
 10
-2745.660572607298
 20
877.04344111344278
 42
-0.0237596594022577
 10
-2745.244775760274
 20
877.13889182542482
 10
-2745.1767129065429
 20
877.15114651355168
 42
-0.0213715440562926
 10
-2744.8908379750983
 20
877.19009354506147
 10
-2744.8306908088775
 20
877.19568325976263
 42
-0.0101465655824773
 10
-2744.6631982768859
 20
877.20782680302648
 10
-2744.6538578906898
 20
877.20831371802365
 42
-0.0100375910880277
 10
-2744.5047037901249
 20
877.21308953594894
 10
-2744.494444520446
 20
877.21321197496343
 42
-0.0103625633382855
 10
-2744.3657365257895
 20
877.21208054143676
 10
-2744.3434708745249
 20
877.21142318297188
 42
-0.0115689250217377
 10
-2744.2594201369948
 20
877.20699367672671
 42
-0.0072438037454285
 10
-2744.1755818575562
 20
877.19940447697741
 10
-2744.1587813480828
 20
877.19763793425318
 42
-0.0217917313128862
 10
-2744.0422115847687
 20
877.18021804153193
 10
-2743.9766114942004
 20
877.16747143311727
 42
-0.0332943556752485
 10
-2743.7722193291747
 20
877.11343114181057
 10
-2743.7420467606266
 20
877.10326306469278
 42
-0.018482408481281
 10
-2743.6035417041594
 20
877.05081204930559
 42
-0.0198002050693533
 10
-2743.46946736366
 20
876.9879279891062
 10
-2743.4675807262829
 20
876.98695020222635
 42
-0.0212242342969397
 10
-2743.3354417838805
 20
876.91118746343318
 10
-2743.3336264883374
 20
876.91004166122491
 42
-0.0226090605782381
 10
-2743.2051225871141
 20
876.82056201765931
 10
-2743.2032781453781
 20
876.81914976467294
 42
-0.0238457052225809
 10
-2743.0800960640854
 20
876.71515386881094
 10
-2743.078143335526
 20
876.71333899104445
 42
-0.0248160564152585
 10
-2742.9619418282241
 20
876.5940643898341
 10
-2742.9598381948235
 20
876.59167905613128
 42
-0.025410959145888
 10
-2742.8522329769567
 20
876.45639067016555
 10
-2742.8499849550435
 20
876.45324912176636
 42
-0.0255528488271179
 10
-2742.7525382762446
 20
876.30122206752958
 10
-2742.7502071763302
 20
876.29714045592448
 42
-0.0252146793198694
 10
-2742.6644261503184
 20
876.12763820992132
 10
-2742.6621239111637
 20
876.12245612801462
 42
-0.0244265635958512
 10
-2742.5894692174052
 20
875.93470955597707
 10
-2742.5802228159314
 20
875.90684413762347
 42
-0.0231319612883871
 10
-2742.5343000369417
 20
875.74354309082855
 42
-0.0112130424368456
 10
-2742.499664014405
 20
875.57733949064902
 10
-2742.498461489291
 20
875.57084290375258
 42
-0.0210527881259868
 10
-2742.4727750139209
 20
875.3897872583193
 10
-2742.4692644190982
 20
875.35438170976408
 42
-0.0190029892430079
 10
-2742.4538229455534
 20
875.10084586349285
 10
-2742.4530129691093
 20
875.06537024912279
 42
-0.0137974553666496
 10
-2742.4545618219445
 20
874.74033884240157
 10
-2742.4554072768992
 20
874.71422009783203
 42
-0.0081336634224391
 10
-2742.4702666121229
 20
874.40887263019727
 42
-0.0073526923568402
 10
-2742.4945751454998
 20
874.10412438588946
 10
-2742.4958365692805
 20
874.09078771124609
 42
-0.0066886138689494
 10
-2742.531572155327
 20
873.76020166775072
 10
-2742.533229244797
 20
873.74658004875744
 42
-0.006135918735727
 10
-2742.5810798468447
 20
873.38981606867651
 10
-2742.5831173479205
 20
873.3759212658282
 42
-0.0056698610066362
 10
-2742.6437676786904
 20
872.99264269697437
 10
-2742.6461731120107
 20
872.97848357775945
 42
-0.0052721077274364
 10
-2742.7203053128151
 20
872.56835623806012
 10
-2742.7230684616525
 20
872.55393960269555
 42
-0.0049289272175067
 10
-2742.8113625797619
 20
872.11663109152744
 10
-2742.814475074435
 20
872.10196223875732
 42
-0.0047415956710283
 10
-2742.9177130659655
 20
871.63716548135176
 10
-2742.9524812763266
 20
871.48735838596349
 42
-0.0084404470902105
 10
-2743.1424977198963
 20
870.72713436144068
 10
-2743.1486244078842
 20
870.70427023727893
 42
-0.0039635940257239
 10
-2743.3700780921649
 20
869.90328137304414
 10
-2743.3834548873479
 20
869.85634975643973
 42
-0.0072475040834819
 10
-2743.6509017752164
 20
868.96713004003061
 10
-2743.7211141020202
 20
868.74538969013372
 42
-0.0051345458830329
 10
-2744.0078734740973
 20
867.87106450226634
 10
-2744.0293997408685
 20
867.80763823512484
 42
-0.0019150016603519
 10
-2744.2849331477314
 20
867.0640891149103
 10
-2744.2914007521135
 20
867.04550165002934
 42
-0.0021524362751269
 10
-2744.5398788031916
 20
866.34117582828083
 10
-2744.5490892238608
 20
866.31542225005558
 42
-0.0024331286823123
 10
-2744.7853444829238
 20
865.66482294186119
 10
-2744.7943924354877
 20
865.6402796354713
 42
-0.0027449721790902
 10
-2745.0190070063099
 20
865.0411497565824
 10
-2745.0278970136865
 20
865.01782716677076
 42
-0.0031083229769762
 10
-2745.241439500312
 20
864.4679031291505
 10
-2745.2501756319957
 20
864.44581341327194
 42
-0.0035311343279594
 10
-2745.4532168175792
 20
863.94283028756263
 10
-2745.4618021567339
 20
863.92198756403479
 42
-0.0040245640938997
 10
-2745.6549139605213
 20
863.46367824145989
 10
-2745.6633500741204
 20
863.44409887339748
 42
-0.0046015135855247
 10
-2745.8471063672882
 20
863.02819384374561
 10
-2745.8553925451238
 20
863.00989670427714
 42
-0.005276863827213
 10
-2746.0303700640725
 20
862.63412382002321
 10
-2746.0385022746927
 20
862.61713048149386
 42
-0.0060672675645519
 10
-2746.2052818874654
 20
862.27921485836578
 10
-2746.2132513679444
 20
862.26354959937339
 42
-0.0069904648873996
 10
-2746.3724197619481
 20
861.96121379270483
 10
-2746.3802111615605
 20
861.94690324347482
 42
-0.0080637022762524
 10
-2746.5323630219045
 20
861.6778679403244
 10
-2746.5399520545311
 20
861.66494007473125
 42
-0.0093006455664244
 10
-2746.6856927310673
 20
861.42692567622055
 10
-2746.693043397825
 20
861.41540770702568
 42
-0.0107060778048962
 10
-2746.8329919412499
 20
861.20613738966836
 10
-2746.840053709534
 20
861.19605184709633
 42
-0.0122723111419357
 10
-2746.9748474277276
 20
861.01325851761351
 10
-2746.975173651284
 20
861.0128381298008
 42
-0.0141836319622556
 10
-2747.1187552542551
 20
860.83826837197432
 10
-2747.1257030099046
 20
860.83029337171263
 42
-0.0175957477196387
 10
-2747.2656091779418
 20
860.68067248330476
 42
-0.0080466359688402
 10
-2747.4130729429562
 20
860.53834995516877
 10
-2747.4591074874897
 20
860.49532951706237
 42
-0.0269600260396088
 10
-2747.7123877334748
 20
860.28300625855161
 10
-2747.7789548697633
 20
860.23305484393427
 42
-0.017836283976264
 10
-2748.0188993594256
 20
860.06603691767691
 10
-2748.0261443304307
 20
860.06136840546901
 42
-0.0174650732643725
 10
-2748.2624805278674
 20
859.92050744051289
 42
-0.0169240130174505
 10
-2748.507946773721
 20
859.79621518073736
 10
-2748.5539329292828
 20
859.77485322516827
 42
-0.0318883036835761
 10
-2748.9042837849024
 20
859.63851491565822
 10
-2748.9726493200678
 20
859.61681429518262
 42
-0.028443590989565
 10
-2749.3486994463583
 20
859.52059685970801
 10
-2749.3838576068547
 20
859.51370326387996
 42
-0.024390934100838
 10
-2749.6973010677762
 20
859.46798223284941
 10
-2749.7475817945497
 20
859.46313668594757
 42
-0.0196639292923936
 10
-2749.9631773720748
 20
859.45088840043422
 10
-2750.0150014432375
 20
859.44998513969756
 42
-0.010050151071214
 10
-2750.1274247249021
 20
859.45028553805059
 10
-2750.1590845862484
 20
859.45100660993592
 42
-0.0019752031096602
 10
-2750.208176922928
 20
859.45231877014555
 10
-2750.2109372261493
 20
859.45240346197181
 42
0.0065378752034544
 10
-2750.2545138009045
 20
859.45317035318681
 42
-0.0167974694606246
 10
-2750.2980446238366
 20
859.45483025171291
 10
-2750.3021239630984
 20
859.4551232626078
 42
-0.0081283276289557
 10
-2750.3536837608322
 20
859.4596702562452
 10
-2750.3654233347156
 20
859.46089817382403
 42
-0.0126703440188059
 10
-2750.4401416305082
 20
859.47063296489534
 10
-2750.462929498186
 20
859.47419122081078
 42
-0.0117852088428729
 10
-2750.5824684840186
 20
859.49575421596796
 10
-2750.6378489357812
 20
859.50709775620248
 42
-0.0251774592311231
 10
-2750.8646929747888
 20
859.56559576563541
 10
-2750.9094121646458
 20
859.57956258497245
 42
-0.014652519989078
 10
-2751.0958051521784
 20
859.64382911216887
 42
-0.0166929435857073
 10
-2751.2777828083031
 20
859.71963624522243
 10
-2751.2824394395784
 20
859.72176114583749
 42
-0.0191684358429368
 10
-2751.4676230708301
 20
859.8149972296286
 10
-2751.4709556565849
 20
859.8168384771808
 42
-0.0221181781803973
 10
-2751.654265960487
 20
859.92897197555158
 10
-2751.6566157644957
 20
859.93055627354261
 42
-0.0254984685379325
 10
-2751.8329059148832
 20
860.06296742351424
 10
-2751.8553880625827
 20
860.08171973244816
 42
-0.0292492648799504
 10
-2751.9801570014256
 20
860.19881253209155
 42
-0.0159048957491747
 10
-2752.0939969988781
 20
860.32683252369395
 10
-2752.0953157894546
 20
860.32841413671065
 42
-0.0343813379554633
 10
-2752.197953051083
 20
860.47028546248305
 10
-2752.2294445824386
 20
860.52078885456876
 42
-0.0369117275709884
 10
-2752.3153370843393
 20
860.68426609552262
 42
-0.0191751379900058
 10
-2752.3825304698967
 20
860.85667070152931
 10
-2752.3842937936561
 20
860.86176404620346
 42
-0.0378178042231752
 10
-2752.4340885124398
 20
861.05070482228359
 10
-2752.4400838081706
 20
861.08326544048452
 42
-0.0184846046487869
 10
-2752.4608010074649
 20
861.22501826102666
 42
-0.0179866351325391
 10
-2752.4711340125382
 20
861.36790907410386
 10
-2752.471190454984
 20
861.36946676072034
 42
-0.0085497186139177
 10
-2752.4726227360879
 20
861.44433992573022
 42
-0.0085497186139177
  0
ENDBLK
  5
59
100
AcDbEntity
  8
template
390
0
100
AcDbBlockEnd
  0
BLOCK
  5
5A
100
AcDbEntity
  8
notes
390
0
100
AcDbBlockBegin
  2
*D3
 70
               1
 10
0.0
 20
0.0
 30
0.0
  3
*D3
  1

  0
LINE
  5
5B
100
AcDbEntity
  8
0
370
              -2
390
0
  6
Continuous
 62
               0
100
AcDbLine
 10
-491.85577269986015
 20
-328.0411705608476
 30
0.0
 11
-491.85577269986015
 21
-253.0411705608476
 31
0.0
  0
LINE
  5
5C
100
AcDbEntity
  8
0
370
              -2
390
0
  6
Continuous
 62
               0
100
AcDbLine
 10
-211.8557726998597
 20
-328.00251207295469
 30
0.0
 11
-211.8557726998597
 21
-253.0411705608476
 31
0.0
  0
LINE
  5
5D
100
AcDbEntity
  8
0
370
              -2
390
0
  6
Continuous
 62
               0
100
AcDbLine
 10
-491.85577269986015
 20
-253.0411705608476
 30
0.0
 11
-211.8557726998597
 21
-253.0411705608476
 31
0.0
  0
CIRCLE
  5
5E
102
{ACAD_REACTORS
330
5F
102
}
100
AcDbEntity
  8
0
370
              -2
390
0
  6
Continuous
 62
               0
100
AcDbCircle
 10
-491.85577269986015
 20
-253.0411705608476
 30
0.0
 40
4.99969482421875
  0
HATCH
  5
5F
100
AcDbEntity
  8
0
370
              -2
390
0
  6
Continuous
 62
               0
100
AcDbHatch
 10
0.0
 20
0.0
 30
0.0
210
0.0
220
0.0
230
1.0
  2
SOLID
 70
               1
 71
               1
 91
        1
 92
        1
 93
        1
 72
               2
 10
-491.85577269986015
 20
-253.0411705608476
 40
4.99969482421875
 50
0.0
 51
360.0
 73
               0
 97
        1
330
5E
 75
               0
 76
               1
 98
        1
 10
0.0
 20
0.0
  0
CIRCLE
  5
60
102
{ACAD_REACTORS
330
61
102
}
100
AcDbEntity
  8
0
370
              -2
390
0
  6
Continuous
 62
               0
100
AcDbCircle
 10
-211.8557726998597
 20
-253.0411705608476
 30
0.0
 40
4.99969482421875
  0
HATCH
  5
61
100
AcDbEntity
  8
0
370
              -2
390
0
  6
Continuous
 62
               0
100
AcDbHatch
 10
0.0
 20
0.0
 30
0.0
210
0.0
220
0.0
230
1.0
  2
SOLID
 70
               1
 71
               1
 91
        1
 92
        1
 93
        1
 72
               2
 10
-211.8557726998597
 20
-253.0411705608476
 40
4.99969482421875
 50
0.0
 51
360.0
 73
               0
 97
        1
330
60
 75
               0
 76
               1
 98
        1
 10
0.0
 20
0.0
  0
MTEXT
  5
62
100
AcDbEntity
  8
0
390
0
 62
               0
100
AcDbMText
 10
-375.66827438203563
 20
-219.16355337334767
 30
0.0
 40
24.432617187500004
 41
0.0
 71
               1
 72
               1
  1
280
  7
ＭＳ ゴシック
 73
               1
 44
0.7828267384257843
  0
POINT
  5
63
100
AcDbEntity
  8
Defpoints
370
               0
390
0
 62
               0
100
AcDbPoint
 10
-211.8557726998597
 20
-353.00251207295469
 30
0.0
  0
POINT
  5
64
100
AcDbEntity
  8
Defpoints
370
               0
390
0
 62
               0
100
AcDbPoint
 10
-491.85577269986015
 20
-353.0411705608476
 30
0.0
  0
POINT
  5
65
100
AcDbEntity
  8
Defpoints
370
               0
390
0
 62
               0
100
AcDbPoint
 10
-491.85577269986015
 20
-253.0411705608476
 30
0.0
  0
ENDBLK
  5
66
100
AcDbEntity
  8
notes
390
0
100
AcDbBlockEnd
  0
BLOCK
  5
67
100
AcDbEntity
  8
notes
390
0
100
AcDbBlockBegin
  2
*D4
 70
               1
 10
0.0
 20
0.0
 30
0.0
  3
*D4
  1

  0
LINE
  5
68
100
AcDbEntity
  8
0
370
              -2
390
0
  6
Continuous
 62
               0
100
AcDbLine
 10
-701.89194429057852
 20
-333.00251207295514
 30
0.0
 11
-776.89194429057852
 21
-333.00251207295514
 31
0.0
  0
LINE
  5
69
100
AcDbEntity
  8
0
370
              -2
390
0
  6
Continuous
 62
               0
100
AcDbLine
 10
-536.85577269985833
 20
-373.04117056084715
 30
0.0
 11
-776.89194429057852
 21
-373.04117056084715
 31
0.0
  0
LINE
  5
6A
100
AcDbEntity
  8
0
370
              -2
390
0
  6
Continuous
 62
               0
100
AcDbLine
 10
-776.89194429057852
 20
-333.00251207295514
 30
0.0
 11
-776.89194429057852
 21
-373.04117056084715
 31
0.0
  0
CIRCLE
  5
6B
102
{ACAD_REACTORS
330
6C
102
}
100
AcDbEntity
  8
0
370
              -2
390
0
  6
Continuous
 62
               0
100
AcDbCircle
 10
-776.89194429057852
 20
-333.00251207295514
 30
0.0
 40
4.99969482421875
  0
HATCH
  5
6C
100
AcDbEntity
  8
0
370
              -2
390
0
  6
Continuous
 62
               0
100
AcDbHatch
 10
0.0
 20
0.0
 30
0.0
210
0.0
220
0.0
230
1.0
  2
SOLID
 70
               1
 71
               1
 91
        1
 92
        1
 93
        1
 72
               2
 10
-776.89194429057852
 20
-333.00251207295514
 40
4.99969482421875
 50
0.0
 51
360.0
 73
               0
 97
        1
330
6B
 75
               0
 76
               1
 98
        1
 10
0.0
 20
0.0
  0
CIRCLE
  5
6D
102
{ACAD_REACTORS
330
6E
102
}
100
AcDbEntity
  8
0
370
              -2
390
0
  6
Continuous
 62
               0
100
AcDbCircle
 10
-776.89194429057852
 20
-373.04117056084715
 30
0.0
 40
4.99969482421875
  0
HATCH
  5
6E
100
AcDbEntity
  8
0
370
              -2
390
0
  6
Continuous
 62
               0
100
AcDbHatch
 10
0.0
 20
0.0
 30
0.0
210
0.0
220
0.0
230
1.0
  2
SOLID
 70
               1
 71
               1
 91
        1
 92
        1
 93
        1
 72
               2
 10
-776.89194429057852
 20
-373.04117056084715
 40
4.99969482421875
 50
0.0
 51
360.0
 73
               0
 97
        1
330
6D
 75
               0
 76
               1
 98
        1
 10
0.0
 20
0.0
  0
MTEXT
  5
6F
100
AcDbEntity
  8
0
390
0
 62
               0
100
AcDbMText
 10
-810.76956147807823
 20
-368.89684131690115
 30
0.0
 40
24.432617187500004
 41
0.0
 71
               1
 72
               1
  1
40
  7
ＭＳ ゴシック
 11
0.0
 21
1.0
 31
0.0
 73
               1
 44
0.7828267384257843
  0
POINT
  5
70
100
AcDbEntity
  8
Defpoints
370
               0
390
0
 62
               0
100
AcDbPoint
 10
-511.85577269985833
 20
-373.04117056084715
 30
0.0
  0
POINT
  5
71
100
AcDbEntity
  8
Defpoints
370
               0
390
0
 62
               0
100
AcDbPoint
 10
-676.89194429057852
 20
-333.00251207295514
 30
0.0
  0
POINT
  5
72
100
AcDbEntity
  8
Defpoints
370
               0
390
0
 62
               0
100
AcDbPoint
 10
-776.89194429057852
 20
-333.00251207295514
 30
0.0
  0
ENDBLK
  5
73
100
AcDbEntity
  8
notes
390
0
100
AcDbBlockEnd
  0
BLOCK
  5
74
100
AcDbEntity
  8
notes
390
0
100
AcDbBlockBegin
  2
*D5
 70
               1
 10
0.0
 20
0.0
 30
0.0
  3
*D5
  1

  0
LINE
  5
75
100
AcDbEntity
  8
0
370
              -2
390
0
  6
Continuous
 62
               0
100
AcDbLine
 10
-1.8919442905785218
 20
-333.00251207295514
 30
0.0
 11
73.108055709421478
 21
-333.00251207295514
 31
0.0
  0
LINE
  5
76
100
AcDbEntity
  8
0
370
              -2
390
0
  6
Continuous
 62
               0
100
AcDbLine
 10
-1.8919442905785218
 20
-383.00251207295423
 30
0.0
 11
73.108055709421478
 21
-383.00251207295423
 31
0.0
  0
LINE
  5
77
100
AcDbEntity
  8
0
370
              -2
390
0
  6
Continuous
 62
               0
100
AcDbLine
 10
73.108055709421478
 20
-333.00251207295514
 30
0.0
 11
73.108055709421478
 21
-383.00251207295423
 31
0.0
  0
CIRCLE
  5
78
102
{ACAD_REACTORS
330
79
102
}
100
AcDbEntity
  8
0
370
              -2
390
0
  6
Continuous
 62
               0
100
AcDbCircle
 10
73.108055709421478
 20
-333.00251207295514
 30
0.0
 40
4.99969482421875
  0
HATCH
  5
79
100
AcDbEntity
  8
0
370
              -2
390
0
  6
Continuous
 62
               0
100
AcDbHatch
 10
0.0
 20
0.0
 30
0.0
210
0.0
220
0.0
230
1.0
  2
SOLID
 70
               1
 71
               1
 91
        1
 92
        1
 93
        1
 72
               2
 10
73.108055709421478
 20
-333.00251207295514
 40
4.99969482421875
 50
0.0
 51
360.0
 73
               0
 97
        1
330
78
 75
               0
 76
               1
 98
        1
 10
0.0
 20
0.0
  0
CIRCLE
  5
7A
102
{ACAD_REACTORS
330
7B
102
}
100
AcDbEntity
  8
0
370
              -2
390
0
  6
Continuous
 62
               0
100
AcDbCircle
 10
73.108055709421478
 20
-383.00251207295423
 30
0.0
 40
4.99969482421875
  0
HATCH
  5
7B
100
AcDbEntity
  8
0
370
              -2
390
0
  6
Continuous
 62
               0
100
AcDbHatch
 10
0.0
 20
0.0
 30
0.0
210
0.0
220
0.0
230
1.0
  2
SOLID
 70
               1
 71
               1
 91
        1
 92
        1
 93
        1
 72
               2
 10
73.108055709421478
 20
-383.00251207295423
 40
4.99969482421875
 50
0.0
 51
360.0
 73
               0
 97
        1
330
7A
 75
               0
 76
               1
 98
        1
 10
0.0
 20
0.0
  0
MTEXT
  5
7C
100
AcDbEntity
  8
0
390
0
 62
               0
100
AcDbMText
 10
39.230438521921315
 20
-373.87751207295469
 30
0.0
 40
24.432617187500004
 41
0.0
 71
               1
 72
               1
  1
50
  7
ＭＳ ゴシック
 11
0.0
 21
1.0
 31
0.0
 73
               1
 44
0.7828267384257843
  0
POINT
  5
7D
100
AcDbEntity
  8
Defpoints
370
               0
390
0
 62
               0
100
AcDbPoint
 10
-26.891944290578522
 20
-383.00251207295423
 30
0.0
  0
POINT
  5
7E
100
AcDbEntity
  8
Defpoints
370
               0
390
0
 62
               0
100
AcDbPoint
 10
-26.891944290578522
 20
-333.00251207295514
 30
0.0
  0
POINT
  5
7F
100
AcDbEntity
  8
Defpoints
370
               0
390
0
 62
               0
100
AcDbPoint
 10
73.108055709421478
 20
-333.00251207295514
 30
0.0
  0
ENDBLK
  5
80
100
AcDbEntity
  8
notes
390
0
100
AcDbBlockEnd
  0
BLOCK
  5
81
100
AcDbEntity
  8
notes
390
0
100
AcDbBlockBegin
  2
*D6
 70
               1
 10
0.0
 20
0.0
 30
0.0
  3
*D6
  1

  0
LINE
  5
82
100
AcDbEntity
  8
0
370
              -2
390
0
  6
Continuous
 62
               0
100
AcDbLine
 10
-1.8919442905785218
 20
-383.00251207295423
 30
0.0
 11
73.108055709421478
 21
-383.00251207295423
 31
0.0
  0
LINE
  5
83
100
AcDbEntity
  8
0
370
              -2
390
0
  6
Continuous
 62
               0
100
AcDbLine
 10
-197.11504325509168
 20
-523.00251207295287
 30
0.0
 11
73.108055709421478
 21
-523.00251207295287
 31
0.0
  0
LINE
  5
84
100
AcDbEntity
  8
0
370
              -2
390
0
  6
Continuous
 62
               0
100
AcDbLine
 10
73.108055709421478
 20
-383.00251207295423
 30
0.0
 11
73.108055709421478
 21
-523.00251207295287
 31
0.0
  0
CIRCLE
  5
85
102
{ACAD_REACTORS
330
86
102
}
100
AcDbEntity
  8
0
370
              -2
390
0
  6
Continuous
 62
               0
100
AcDbCircle
 10
73.108055709421478
 20
-383.00251207295423
 30
0.0
 40
4.99969482421875
  0
HATCH
  5
86
100
AcDbEntity
  8
0
370
              -2
390
0
  6
Continuous
 62
               0
100
AcDbHatch
 10
0.0
 20
0.0
 30
0.0
210
0.0
220
0.0
230
1.0
  2
SOLID
 70
               1
 71
               1
 91
        1
 92
        1
 93
        1
 72
               2
 10
73.108055709421478
 20
-383.00251207295423
 40
4.99969482421875
 50
0.0
 51
360.0
 73
               0
 97
        1
330
85
 75
               0
 76
               1
 98
        1
 10
0.0
 20
0.0
  0
CIRCLE
  5
87
102
{ACAD_REACTORS
330
88
102
}
100
AcDbEntity
  8
0
370
              -2
390
0
  6
Continuous
 62
               0
100
AcDbCircle
 10
73.108055709421478
 20
-523.00251207295287
 30
0.0
 40
4.99969482421875
  0
HATCH
  5
88
100
AcDbEntity
  8
0
370
              -2
390
0
  6
Continuous
 62
               0
100
AcDbHatch
 10
0.0
 20
0.0
 30
0.0
210
0.0
220
0.0
230
1.0
  2
SOLID
 70
               1
 71
               1
 91
        1
 92
        1
 93
        1
 72
               2
 10
73.108055709421478
 20
-523.00251207295287
 40
4.99969482421875
 50
0.0
 51
360.0
 73
               0
 97
        1
330
87
 75
               0
 76
               1
 98
        1
 10
0.0
 20
0.0
  0
MTEXT
  5
89
100
AcDbEntity
  8
0
390
0
 62
               0
100
AcDbMText
 10
39.230438521921315
 20
-476.81501375512903
 30
0.0
 40
24.432617187500004
 41
0.0
 71
               1
 72
               1
  1
140
  7
ＭＳ ゴシック
 11
0.0
 21
1.0
 31
0.0
 73
               1
 44
0.7828267384257843
  0
POINT
  5
8A
100
AcDbEntity
  8
Defpoints
370
               0
390
0
 62
               0
100
AcDbPoint
 10
-222.11504325509168
 20
-523.00251207295287
 30
0.0
  0
POINT
  5
8B
100
AcDbEntity
  8
Defpoints
370
               0
390
0
 62
               0
100
AcDbPoint
 10
-26.891944290578522
 20
-383.00251207295423
 30
0.0
  0
POINT
  5
8C
100
AcDbEntity
  8
Defpoints
370
               0
390
0
 62
               0
100
AcDbPoint
 10
73.108055709421478
 20
-383.00251207295423
 30
0.0
  0
ENDBLK
  5
8D
100
AcDbEntity
  8
notes
390
0
100
AcDbBlockEnd
  0
BLOCK
  5
8E
100
AcDbEntity
  8
notes
390
0
100
AcDbBlockBegin
  2
*D7
 70
               1
 10
0.0
 20
0.0
 30
0.0
  3
*D7
  1

  0
LINE
  5
8F
100
AcDbEntity
  8
0
370
              -2
390
0
  6
Continuous
 62
               0
100
AcDbLine
 10
-551.89194429057943
 20
471.8782511412478
 30
0.0
 11
-551.89194429057943
 21
302.91968581059746
 31
0.0
  0
LINE
  5
90
100
AcDbEntity
  8
0
370
              -2
390
0
  6
Continuous
 62
               0
100
AcDbLine
 10
-151.89194429057943
 20
471.8782511412478
 30
0.0
 11
-151.89194429057943
 21
302.91968581059746
 31
0.0
  0
LINE
  5
91
100
AcDbEntity
  8
0
370
              -2
390
0
  6
Continuous
 62
               0
100
AcDbLine
 10
-551.89194429057943
 20
302.91968581059746
 30
0.0
 11
-151.89194429057943
 21
302.91968581059746
 31
0.0
  0
CIRCLE
  5
92
102
{ACAD_REACTORS
330
93
102
}
100
AcDbEntity
  8
0
370
              -2
390
0
  6
Continuous
 62
               0
100
AcDbCircle
 10
-551.89194429057943
 20
302.91968581059746
 30
0.0
 40
4.99969482421875
  0
HATCH
  5
93
100
AcDbEntity
  8
0
370
              -2
390
0
  6
Continuous
 62
               0
100
AcDbHatch
 10
0.0
 20
0.0
 30
0.0
210
0.0
220
0.0
230
1.0
  2
SOLID
 70
               1
 71
               1
 91
        1
 92
        1
 93
        1
 72
               2
 10
-551.89194429057943
 20
302.91968581059746
 40
4.99969482421875
 50
0.0
 51
360.0
 73
               0
 97
        1
330
92
 75
               0
 76
               1
 98
        1
 10
0.0
 20
0.0
  0
CIRCLE
  5
94
102
{ACAD_REACTORS
330
95
102
}
100
AcDbEntity
  8
0
370
              -2
390
0
  6
Continuous
 62
               0
100
AcDbCircle
 10
-151.89194429057943
 20
302.91968581059746
 30
0.0
 40
4.99969482421875
  0
HATCH
  5
95
100
AcDbEntity
  8
0
370
              -2
390
0
  6
Continuous
 62
               0
100
AcDbHatch
 10
0.0
 20
0.0
 30
0.0
210
0.0
220
0.0
230
1.0
  2
SOLID
 70
               1
 71
               1
 91
        1
 92
        1
 93
        1
 72
               2
 10
-151.89194429057943
 20
302.91968581059746
 40
4.99969482421875
 50
0.0
 51
360.0
 73
               0
 97
        1
330
94
 75
               0
 76
               1
 98
        1
 10
0.0
 20
0.0
  0
MTEXT
  5
96
100
AcDbEntity
  8
0
390
0
 62
               0
100
AcDbMText
 10
-375.70444597275491
 20
336.79730299809762
 30
0.0
 40
24.432617187500004
 41
0.0
 71
               1
 72
               1
  1
400
  7
ＭＳ ゴシック
 73
               1
 44
0.7828267384257843
  0
POINT
  5
97
100
AcDbEntity
  8
Defpoints
370
               0
390
0
 62
               0
100
AcDbPoint
 10
-151.89194429057943
 20
496.8782511412478
 30
0.0
  0
POINT
  5
98
100
AcDbEntity
  8
Defpoints
370
               0
390
0
 62
               0
100
AcDbPoint
 10
-551.89194429057943
 20
496.8782511412478
 30
0.0
  0
POINT
  5
99
100
AcDbEntity
  8
Defpoints
370
               0
390
0
 62
               0
100
AcDbPoint
 10
-551.89194429057943
 20
302.91968581059746
 30
0.0
  0
ENDBLK
  5
9A
100
AcDbEntity
  8
notes
390
0
100
AcDbBlockEnd
  0
BLOCK
  5
9B
100
AcDbEntity
  8
notes
390
0
100
AcDbBlockBegin
  2
*D8
 70
               1
 10
0.0
 20
0.0
 30
0.0
  3
*D8
  1

  0
LINE
  5
9C
100
AcDbEntity
  8
0
370
              -2
390
0
  6
Continuous
 62
               0
100
AcDbLine
 10
-676.89194429057852
 20
903.91968581059655
 30
0.0
 11
-676.89194429057852
 21
978.91968581059655
 31
0.0
  0
LINE
  5
9D
100
AcDbEntity
  8
0
370
              -2
390
0
  6
Continuous
 62
               0
100
AcDbLine
 10
-26.891944290578522
 20
903.91968581059655
 30
0.0
 11
-26.891944290578522
 21
978.91968581059655
 31
0.0
  0
LINE
  5
9E
100
AcDbEntity
  8
0
370
              -2
390
0
  6
Continuous
 62
               0
100
AcDbLine
 10
-676.89194429057852
 20
978.91968581059655
 30
0.0
 11
-26.891944290578522
 21
978.91968581059655
 31
0.0
  0
CIRCLE
  5
9F
102
{ACAD_REACTORS
330
A0
102
}
100
AcDbEntity
  8
0
370
              -2
390
0
  6
Continuous
 62
               0
100
AcDbCircle
 10
-676.89194429057852
 20
978.91968581059655
 30
0.0
 40
4.99969482421875
  0
HATCH
  5
A0
100
AcDbEntity
  8
0
370
              -2
390
0
  6
Continuous
 62
               0
100
AcDbHatch
 10
0.0
 20
0.0
 30
0.0
210
0.0
220
0.0
230
1.0
  2
SOLID
 70
               1
 71
               1
 91
        1
 92
        1
 93
        1
 72
               2
 10
-676.89194429057852
 20
978.91968581059655
 40
4.99969482421875
 50
0.0
 51
360.0
 73
               0
 97
        1
330
9F
 75
               0
 76
               1
 98
        1
 10
0.0
 20
0.0
  0
CIRCLE
  5
A1
102
{ACAD_REACTORS
330
A2
102
}
100
AcDbEntity
  8
0
370
              -2
390
0
  6
Continuous
 62
               0
100
AcDbCircle
 10
-26.891944290578522
 20
978.91968581059655
 30
0.0
 40
4.99969482421875
  0
HATCH
  5
A2
100
AcDbEntity
  8
0
370
              -2
390
0
  6
Continuous
 62
               0
100
AcDbHatch
 10
0.0
 20
0.0
 30
0.0
210
0.0
220
0.0
230
1.0
  2
SOLID
 70
               1
 71
               1
 91
        1
 92
        1
 93
        1
 72
               2
 10
-26.891944290578522
 20
978.91968581059655
 40
4.99969482421875
 50
0.0
 51
360.0
 73
               0
 97
        1
330
A1
 75
               0
 76
               1
 98
        1
 10
0.0
 20
0.0
  0
MTEXT
  5
A3
100
AcDbEntity
  8
0
390
0
 62
               0
100
AcDbMText
 10
-375.704445972754
 20
1012.7973029980967
 30
0.0
 40
24.432617187500004
 41
0.0
 71
               1
 72
               1
  1
650
  7
ＭＳ ゴシック
 73
               1
 44
0.7828267384257843
  0
POINT
  5
A4
100
AcDbEntity
  8
Defpoints
370
               0
390
0
 62
               0
100
AcDbPoint
 10
-26.891944290578522
 20
878.91968581059655
 30
0.0
  0
POINT
  5
A5
100
AcDbEntity
  8
Defpoints
370
               0
390
0
 62
               0
100
AcDbPoint
 10
-676.89194429057852
 20
878.91968581059655
 30
0.0
  0
POINT
  5
A6
100
AcDbEntity
  8
Defpoints
370
               0
390
0
 62
               0
100
AcDbPoint
 10
-676.89194429057852
 20
978.91968581059655
 30
0.0
  0
ENDBLK
  5
A7
100
AcDbEntity
  8
notes
390
0
100
AcDbBlockEnd
  0
BLOCK
  5
A8
100
AcDbEntity
  8
notes
390
0
100
AcDbBlockBegin
  2
*D9
 70
               1
 10
0.0
 20
0.0
 30
0.0
  3
*D9
  1

  0
LINE
  5
A9
100
AcDbEntity
  8
0
370
              -2
390
0
  6
Continuous
 62
               0
100
AcDbLine
 10
-5.8919442905785218
 20
882.91968581059655
 30
0.0
 11
123.10805570942148
 21
882.91968581059655
 31
0.0
  0
LINE
  5
AA
100
AcDbEntity
  8
0
370
              -2
390
0
  6
Continuous
 62
               0
100
AcDbLine
 10
-289.39194429057943
 20
402.91968581059655
 30
0.0
 11
123.10805570942148
 21
402.91968581059655
 31
0.0
  0
LINE
  5
AB
100
AcDbEntity
  8
0
370
              -2
390
0
  6
Continuous
 62
               0
100
AcDbLine
 10
123.10805570942148
 20
882.91968581059655
 30
0.0
 11
123.10805570942148
 21
402.91968581059655
 31
0.0
  0
CIRCLE
  5
AC
102
{ACAD_REACTORS
330
AD
102
}
100
AcDbEntity
  8
0
370
              -2
390
0
  6
Continuous
 62
               0
100
AcDbCircle
 10
123.10805570942148
 20
882.91968581059655
 30
0.0
 40
4.99969482421875
  0
HATCH
  5
AD
100
AcDbEntity
  8
0
370
              -2
390
0
  6
Continuous
 62
               0
100
AcDbHatch
 10
0.0
 20
0.0
 30
0.0
210
0.0
220
0.0
230
1.0
  2
SOLID
 70
               1
 71
               1
 91
        1
 92
        1
 93
        1
 72
               2
 10
123.10805570942148
 20
882.91968581059655
 40
4.99969482421875
 50
0.0
 51
360.0
 73
               0
 97
        1
330
AC
 75
               0
 76
               1
 98
        1
 10
0.0
 20
0.0
  0
CIRCLE
  5
AE
102
{ACAD_REACTORS
330
AF
102
}
100
AcDbEntity
  8
0
370
              -2
390
0
  6
Continuous
 62
               0
100
AcDbCircle
 10
123.10805570942148
 20
402.91968581059655
 30
0.0
 40
4.99969482421875
  0
HATCH
  5
AF
100
AcDbEntity
  8
0
370
              -2
390
0
  6
Continuous
 62
               0
100
AcDbHatch
 10
0.0
 20
0.0
 30
0.0
210
0.0
220
0.0
230
1.0
  2
SOLID
 70
               1
 71
               1
 91
        1
 92
        1
 93
        1
 72
               2
 10
123.10805570942148
 20
402.91968581059655
 40
4.99969482421875
 50
0.0
 51
360.0
 73
               0
 97
        1
330
AE
 75
               0
 76
               1
 98
        1
 10
0.0
 20
0.0
  0
MTEXT
  5
B0
100
AcDbEntity
  8
0
390
0
 62
               0
100
AcDbMText
 10
89.230438521921315
 20
619.10718412842107
 30
0.0
 40
24.432617187500004
 41
0.0
 71
               1
 72
               1
  1
480
  7
ＭＳ ゴシック
 11
0.0
 21
1.0
 31
0.0
 73
               1
 44
0.7828267384257843
  0
POINT
  5
B1
100
AcDbEntity
  8
Defpoints
370
               0
390
0
 62
               0
100
AcDbPoint
 10
-314.39194429057943
 20
402.91968581059655
 30
0.0
  0
POINT
  5
B2
100
AcDbEntity
  8
Defpoints
370
               0
390
0
 62
               0
100
AcDbPoint
 10
-30.891944290578522
 20
882.91968581059655
 30
0.0
  0
POINT
  5
B3
100
AcDbEntity
  8
Defpoints
370
               0
390
0
 62
               0
100
AcDbPoint
 10
123.10805570942148
 20
882.91968581059655
 30
0.0
  0
ENDBLK
  5
B4
100
AcDbEntity
  8
notes
390
0
100
AcDbBlockEnd
  0
BLOCK
  5
B5
100
AcDbEntity
  8
notes
390
0
100
AcDbBlockBegin
  2
*D10
 70
               1
 10
0.0
 20
0.0
 30
0.0
  3
*D10
  1

  0
LINE
  5
B6
100
AcDbEntity
  8
0
370
              -2
390
0
  6
Continuous
 62
               0
100
AcDbLine
 10
-5.8919442905785218
 20
882.91968581059655
 30
0.0
 11
66.0
 21
882.91968581059655
 31
0.0
  0
LINE
  5
B7
100
AcDbEntity
  8
0
370
              -2
390
0
  6
Continuous
 62
               0
100
AcDbLine
 10
-5.8919442905785218
 20
552.91968581059655
 30
0.0
 11
66.0
 21
552.91968581059655
 31
0.0
  0
LINE
  5
B8
100
AcDbEntity
  8
0
370
              -2
390
0
  6
Continuous
 62
               0
100
AcDbLine
 10
66.0
 20
882.91968581059655
 30
0.0
 11
66.0
 21
552.91968581059655
 31
0.0
  0
CIRCLE
  5
B9
102
{ACAD_REACTORS
330
BA
102
}
100
AcDbEntity
  8
0
370
              -2
390
0
  6
Continuous
 62
               0
100
AcDbCircle
 10
66.0
 20
882.91968581059655
 30
0.0
 40
4.99969482421875
  0
HATCH
  5
BA
100
AcDbEntity
  8
0
370
              -2
390
0
  6
Continuous
 62
               0
100
AcDbHatch
 10
0.0
 20
0.0
 30
0.0
210
0.0
220
0.0
230
1.0
  2
SOLID
 70
               1
 71
               1
 91
        1
 92
        1
 93
        1
 72
               2
 10
66.0
 20
882.91968581059655
 40
4.99969482421875
 50
0.0
 51
360.0
 73
               0
 97
        1
330
B9
 75
               0
 76
               1
 98
        1
 10
0.0
 20
0.0
  0
CIRCLE
  5
BB
102
{ACAD_REACTORS
330
BC
102
}
100
AcDbEntity
  8
0
370
              -2
390
0
  6
Continuous
 62
               0
100
AcDbCircle
 10
66.0
 20
552.91968581059655
 30
0.0
 40
4.99969482421875
  0
HATCH
  5
BC
100
AcDbEntity
  8
0
370
              -2
390
0
  6
Continuous
 62
               0
100
AcDbHatch
 10
0.0
 20
0.0
 30
0.0
210
0.0
220
0.0
230
1.0
  2
SOLID
 70
               1
 71
               1
 91
        1
 92
        1
 93
        1
 72
               2
 10
66.0
 20
552.91968581059655
 40
4.99969482421875
 50
0.0
 51
360.0
 73
               0
 97
        1
330
BB
 75
               0
 76
               1
 98
        1
 10
0.0
 20
0.0
  0
MTEXT
  5
BD
100
AcDbEntity
  8
0
390
0
 62
               0
100
AcDbMText
 10
32.122382812499836
 20
694.10718412842107
 30
0.0
 40
24.432617187500004
 41
0.0
 71
               1
 72
               1
  1
330
  7
ＭＳ ゴシック
 11
0.0
 21
1.0
 31
0.0
 73
               1
 44
0.7828267384257843
  0
POINT
  5
BE
100
AcDbEntity
  8
Defpoints
370
               0
390
0
 62
               0
100
AcDbPoint
 10
-30.891944290578522
 20
552.91968581059655
 30
0.0
  0
POINT
  5
BF
100
AcDbEntity
  8
Defpoints
370
               0
390
0
 62
               0
100
AcDbPoint
 10
-30.891944290578522
 20
882.91968581059655
 30
0.0
  0
POINT
  5
C0
100
AcDbEntity
  8
Defpoints
370
               0
390
0
 62
               0
100
AcDbPoint
 10
66.0
 20
882.91968581059655
 30
0.0
  0
ENDBLK
  5
C1
100
AcDbEntity
  8
notes
390
0
100
AcDbBlockEnd
  0
BLOCK
  5
C2
100
AcDbEntity
  8
notes
390
0
100
AcDbBlockBegin
  2
*D11
 70
               1
 10
0.0
 20
0.0
 30
0.0
  3
*D11
  1

  0
LINE
  5
C3
100
AcDbEntity
  8
0
370
              -2
390
0
  6
Continuous
 62
               0
100
AcDbLine
 10
-701.89194429057852
 20
757.919685810597
 30
0.0
 11
-752.99999999999955
 21
757.919685810597
 31
0.0
  0
LINE
  5
C4
100
AcDbEntity
  8
0
370
              -2
390
0
  6
Continuous
 62
               0
100
AcDbLine
 10
-507.93337895993091
 20
427.919685810597
 30
0.0
 11
-752.99999999999955
 21
427.919685810597
 31
0.0
  0
LINE
  5
C5
100
AcDbEntity
  8
0
370
              -2
390
0
  6
Continuous
 62
               0
100
AcDbLine
 10
-752.99999999999955
 20
757.919685810597
 30
0.0
 11
-752.99999999999955
 21
427.919685810597
 31
0.0
  0
CIRCLE
  5
C6
102
{ACAD_REACTORS
330
C7
102
}
100
AcDbEntity
  8
0
370
              -2
390
0
  6
Continuous
 62
               0
100
AcDbCircle
 10
-752.99999999999955
 20
757.919685810597
 30
0.0
 40
4.99969482421875
  0
HATCH
  5
C7
100
AcDbEntity
  8
0
370
              -2
390
0
  6
Continuous
 62
               0
100
AcDbHatch
 10
0.0
 20
0.0
 30
0.0
210
0.0
220
0.0
230
1.0
  2
SOLID
 70
               1
 71
               1
 91
        1
 92
        1
 93
        1
 72
               2
 10
-752.99999999999955
 20
757.919685810597
 40
4.99969482421875
 50
0.0
 51
360.0
 73
               0
 97
        1
330
C6
 75
               0
 76
               1
 98
        1
 10
0.0
 20
0.0
  0
CIRCLE
  5
C8
102
{ACAD_REACTORS
330
C9
102
}
100
AcDbEntity
  8
0
370
              -2
390
0
  6
Continuous
 62
               0
100
AcDbCircle
 10
-752.99999999999955
 20
427.919685810597
 30
0.0
 40
4.99969482421875
  0
HATCH
  5
C9
100
AcDbEntity
  8
0
370
              -2
390
0
  6
Continuous
 62
               0
100
AcDbHatch
 10
0.0
 20
0.0
 30
0.0
210
0.0
220
0.0
230
1.0
  2
SOLID
 70
               1
 71
               1
 91
        1
 92
        1
 93
        1
 72
               2
 10
-752.99999999999955
 20
427.919685810597
 40
4.99969482421875
 50
0.0
 51
360.0
 73
               0
 97
        1
330
C8
 75
               0
 76
               1
 98
        1
 10
0.0
 20
0.0
  0
MTEXT
  5
CA
100
AcDbEntity
  8
0
390
0
 62
               0
100
AcDbMText
 10
-786.87761718749925
 20
569.10718412842152
 30
0.0
 40
24.432617187500004
 41
0.0
 71
               1
 72
               1
  1
330
  7
ＭＳ ゴシック
 11
0.0
 21
1.0
 31
0.0
 73
               1
 44
0.7828267384257843
  0
POINT
  5
CB
100
AcDbEntity
  8
Defpoints
370
               0
390
0
 62
               0
100
AcDbPoint
 10
-482.93337895993091
 20
427.919685810597
 30
0.0
  0
POINT
  5
CC
100
AcDbEntity
  8
Defpoints
370
               0
390
0
 62
               0
100
AcDbPoint
 10
-676.89194429057852
 20
757.919685810597
 30
0.0
  0
POINT
  5
CD
100
AcDbEntity
  8
Defpoints
370
               0
390
0
 62
               0
100
AcDbPoint
 10
-752.99999999999955
 20
757.919685810597
 30
0.0
  0
ENDBLK
  5
CE
100
AcDbEntity
  8
notes
390
0
100
AcDbBlockEnd
  0
BLOCK
  5
CF
100
AcDbEntity
  8
notes
390
0
100
AcDbBlockBegin
  2
*D12
 70
               1
 10
0.0
 20
0.0
 30
0.0
  3
*D12
  1

  0
LINE
  5
D0
100
AcDbEntity
  8
0
370
              -2
390
0
  6
Continuous
 62
               0
100
AcDbLine
 10
-697.89194429057852
 20
882.91968581059655
 30
0.0
 11
-752.99999999999955
 21
882.91968581059655
 31
0.0
  0
LINE
  5
D1
100
AcDbEntity
  8
0
370
              -2
390
0
  6
Continuous
 62
               0
100
AcDbLine
 10
-701.89194429057852
 20
757.919685810597
 30
0.0
 11
-752.99999999999955
 21
757.919685810597
 31
0.0
  0
LINE
  5
D2
100
AcDbEntity
  8
0
370
              -2
390
0
  6
Continuous
 62
               0
100
AcDbLine
 10
-752.99999999999955
 20
882.91968581059655
 30
0.0
 11
-752.99999999999955
 21
757.919685810597
 31
0.0
  0
CIRCLE
  5
D3
102
{ACAD_REACTORS
330
D4
102
}
100
AcDbEntity
  8
0
370
              -2
390
0
  6
Continuous
 62
               0
100
AcDbCircle
 10
-752.99999999999955
 20
882.91968581059655
 30
0.0
 40
4.99969482421875
  0
HATCH
  5
D4
100
AcDbEntity
  8
0
370
              -2
390
0
  6
Continuous
 62
               0
100
AcDbHatch
 10
0.0
 20
0.0
 30
0.0
210
0.0
220
0.0
230
1.0
  2
SOLID
 70
               1
 71
               1
 91
        1
 92
        1
 93
        1
 72
               2
 10
-752.99999999999955
 20
882.91968581059655
 40
4.99969482421875
 50
0.0
 51
360.0
 73
               0
 97
        1
330
D3
 75
               0
 76
               1
 98
        1
 10
0.0
 20
0.0
  0
CIRCLE
  5
D5
102
{ACAD_REACTORS
330
D6
102
}
100
AcDbEntity
  8
0
370
              -2
390
0
  6
Continuous
 62
               0
100
AcDbCircle
 10
-752.99999999999955
 20
757.919685810597
 30
0.0
 40
4.99969482421875
  0
HATCH
  5
D6
100
AcDbEntity
  8
0
370
              -2
390
0
  6
Continuous
 62
               0
100
AcDbHatch
 10
0.0
 20
0.0
 30
0.0
210
0.0
220
0.0
230
1.0
  2
SOLID
 70
               1
 71
               1
 91
        1
 92
        1
 93
        1
 72
               2
 10
-752.99999999999955
 20
757.919685810597
 40
4.99969482421875
 50
0.0
 51
360.0
 73
               0
 97
        1
330
D5
 75
               0
 76
               1
 98
        1
 10
0.0
 20
0.0
  0
MTEXT
  5
D7
100
AcDbEntity
  8
0
390
0
 62
               0
100
AcDbMText
 10
-786.87761718749925
 20
796.60718412842152
 30
0.0
 40
24.432617187500004
 41
0.0
 71
               1
 72
               1
  1
125
  7
ＭＳ ゴシック
 11
0.0
 21
1.0
 31
0.0
 73
               1
 44
0.7828267384257843
  0
POINT
  5
D8
100
AcDbEntity
  8
Defpoints
370
               0
390
0
 62
               0
100
AcDbPoint
 10
-676.89194429057852
 20
757.919685810597
 30
0.0
  0
POINT
  5
D9
100
AcDbEntity
  8
Defpoints
370
               0
390
0
 62
               0
100
AcDbPoint
 10
-672.89194429057852
 20
882.91968581059655
 30
0.0
  0
POINT
  5
DA
100
AcDbEntity
  8
Defpoints
370
               0
390
0
 62
               0
100
AcDbPoint
 10
-752.99999999999955
 20
882.91968581059655
 30
0.0
  0
ENDBLK
  5
DB
100
AcDbEntity
  8
notes
390
0
100
AcDbBlockEnd
  0
BLOCK
  5
DC
100
AcDbEntity
  8
notes
390
0
100
AcDbBlockBegin
  2
*D13
 70
               1
 10
0.0
 20
0.0
 30
0.0
  3
*D13
  1

  0
LINE
  5
DD
100
AcDbEntity
  8
0
370
              -2
390
0
  6
Continuous
 62
               0
100
AcDbLine
 10
440.53359733287152
 20
-523.00251207295287
 30
0.0
 11
230.14388206883905
 21
-523.00251207295287
 31
0.0
  0
LINE
  5
DE
100
AcDbEntity
  8
0
370
              -2
390
0
  6
Continuous
 62
               0
100
AcDbLine
 10
354.40221339529535
 20
-333.00251207295514
 30
0.0
 11
230.14388206883905
 21
-333.00251207295514
 31
0.0
  0
LINE
  5
DF
100
AcDbEntity
  8
0
370
              -2
390
0
  6
Continuous
 62
               0
100
AcDbLine
 10
230.14388206883905
 20
-523.00251207295287
 30
0.0
 11
230.14388206883905
 21
-333.00251207295514
 31
0.0
  0
CIRCLE
  5
E0
102
{ACAD_REACTORS
330
E1
102
}
100
AcDbEntity
  8
0
370
              -2
390
0
  6
Continuous
 62
               0
100
AcDbCircle
 10
230.14388206883905
 20
-523.00251207295287
 30
0.0
 40
4.99969482421875
  0
HATCH
  5
E1
100
AcDbEntity
  8
0
370
              -2
390
0
  6
Continuous
 62
               0
100
AcDbHatch
 10
0.0
 20
0.0
 30
0.0
210
0.0
220
0.0
230
1.0
  2
SOLID
 70
               1
 71
               1
 91
        1
 92
        1
 93
        1
 72
               2
 10
230.14388206883905
 20
-523.00251207295287
 40
4.99969482421875
 50
0.0
 51
360.0
 73
               0
 97
        1
330
E0
 75
               0
 76
               1
 98
        1
 10
0.0
 20
0.0
  0
CIRCLE
  5
E2
102
{ACAD_REACTORS
330
E3
102
}
100
AcDbEntity
  8
0
370
              -2
390
0
  6
Continuous
 62
               0
100
AcDbCircle
 10
230.14388206883905
 20
-333.00251207295514
 30
0.0
 40
4.99969482421875
  0
HATCH
  5
E3
100
AcDbEntity
  8
0
370
              -2
390
0
  6
Continuous
 62
               0
100
AcDbHatch
 10
0.0
 20
0.0
 30
0.0
210
0.0
220
0.0
230
1.0
  2
SOLID
 70
               1
 71
               1
 91
        1
 92
        1
 93
        1
 72
               2
 10
230.14388206883905
 20
-333.00251207295514
 40
4.99969482421875
 50
0.0
 51
360.0
 73
               0
 97
        1
330
E2
 75
               0
 76
               1
 98
        1
 10
0.0
 20
0.0
  0
MTEXT
  5
E4
100
AcDbEntity
  8
0
390
0
 62
               0
100
AcDbMText
 10
196.26626488133888
 20
-451.81501375512948
 30
0.0
 40
24.432617187500004
 41
0.0
 71
               1
 72
               1
  1
190
  7
ＭＳ ゴシック
 11
0.0
 21
1.0
 31
0.0
 73
               1
 44
0.7828267384257843
  0
POINT
  5
E5
100
AcDbEntity
  8
Defpoints
370
               0
390
0
 62
               0
100
AcDbPoint
 10
379.40221339529535
 20
-333.00251207295514
 30
0.0
  0
POINT
  5
E6
100
AcDbEntity
  8
Defpoints
370
               0
390
0
 62
               0
100
AcDbPoint
 10
465.53359733287152
 20
-523.00251207295287
 30
0.0
  0
POINT
  5
E7
100
AcDbEntity
  8
Defpoints
370
               0
390
0
 62
               0
100
AcDbPoint
 10
230.14388206883905
 20
-523.00251207295287
 30
0.0
  0
ENDBLK
  5
E8
100
AcDbEntity
  8
notes
390
0
100
AcDbBlockEnd
  0
BLOCK
  5
E9
100
AcDbEntity
  8
notes
390
0
100
AcDbBlockBegin
  2
*D14
 70
               1
 10
0.0
 20
0.0
 30
0.0
  3
*D14
  1

  0
LINE
  5
EA
100
AcDbEntity
  8
0
370
              -2
390
0
  6
Continuous
 62
               0
100
AcDbLine
 10
860.14285380545198
 20
-544.00251207295287
 30
0.0
 11
860.14285380545198
 21
-623.00251207295287
 31
0.0
  0
LINE
  5
EB
100
AcDbEntity
  8
0
370
              -2
390
0
  6
Continuous
 62
               0
100
AcDbLine
 10
570.14285380545562
 20
-543.00251207295287
 30
0.0
 11
570.14285380545562
 21
-623.00251207295287
 31
0.0
  0
LINE
  5
EC
100
AcDbEntity
  8
0
370
              -2
390
0
  6
Continuous
 62
               0
100
AcDbLine
 10
860.14285380545198
 20
-623.00251207295287
 30
0.0
 11
570.14285380545562
 21
-623.00251207295287
 31
0.0
  0
CIRCLE
  5
ED
102
{ACAD_REACTORS
330
EE
102
}
100
AcDbEntity
  8
0
370
              -2
390
0
  6
Continuous
 62
               0
100
AcDbCircle
 10
860.14285380545198
 20
-623.00251207295287
 30
0.0
 40
4.99969482421875
  0
HATCH
  5
EE
100
AcDbEntity
  8
0
370
              -2
390
0
  6
Continuous
 62
               0
100
AcDbHatch
 10
0.0
 20
0.0
 30
0.0
210
0.0
220
0.0
230
1.0
  2
SOLID
 70
               1
 71
               1
 91
        1
 92
        1
 93
        1
 72
               2
 10
860.14285380545198
 20
-623.00251207295287
 40
4.99969482421875
 50
0.0
 51
360.0
 73
               0
 97
        1
330
ED
 75
               0
 76
               1
 98
        1
 10
0.0
 20
0.0
  0
CIRCLE
  5
EF
102
{ACAD_REACTORS
330
F0
102
}
100
AcDbEntity
  8
0
370
              -2
390
0
  6
Continuous
 62
               0
100
AcDbCircle
 10
570.14285380545562
 20
-623.00251207295287
 30
0.0
 40
4.99969482421875
  0
HATCH
  5
F0
100
AcDbEntity
  8
0
370
              -2
390
0
  6
Continuous
 62
               0
100
AcDbHatch
 10
0.0
 20
0.0
 30
0.0
210
0.0
220
0.0
230
1.0
  2
SOLID
 70
               1
 71
               1
 91
        1
 92
        1
 93
        1
 72
               2
 10
570.14285380545562
 20
-623.00251207295287
 40
4.99969482421875
 50
0.0
 51
360.0
 73
               0
 97
        1
330
EF
 75
               0
 76
               1
 98
        1
 10
0.0
 20
0.0
  0
MTEXT
  5
F1
100
AcDbEntity
  8
0
390
0
 62
               0
100
AcDbMText
 10
691.33035212327832
 20
-589.12489488545293
 30
0.0
 40
24.432617187500004
 41
0.0
 71
               1
 72
               1
  1
290
  7
ＭＳ ゴシック
 73
               1
 44
0.7828267384257843
  0
POINT
  5
F2
100
AcDbEntity
  8
Defpoints
370
               0
390
0
 62
               0
100
AcDbPoint
 10
570.14285380545562
 20
-518.00251207295287
 30
0.0
  0
POINT
  5
F3
100
AcDbEntity
  8
Defpoints
370
               0
390
0
 62
               0
100
AcDbPoint
 10
860.14285380545198
 20
-519.00251207295287
 30
0.0
  0
POINT
  5
F4
100
AcDbEntity
  8
Defpoints
370
               0
390
0
 62
               0
100
AcDbPoint
 10
860.14285380545198
 20
-623.00251207295287
 30
0.0
  0
ENDBLK
  5
F5
100
AcDbEntity
  8
notes
390
0
100
AcDbBlockEnd
  0
BLOCK
  5
F6
100
AcDbEntity
  8
notes
390
0
100
AcDbBlockBegin
  2
*D15
 70
               1
 10
0.0
 20
0.0
 30
0.0
  3
*D15
  1

  0
LINE
  5
F7
100
AcDbEntity
  8
0
370
              -2
390
0
  6
Continuous
 62
               0
100
AcDbLine
 10
860.14285380545198
 20
-313.00251207295514
 30
0.0
 11
860.14285380545198
 21
-233.00251207295514
 31
0.0
  0
LINE
  5
F8
100
AcDbEntity
  8
0
370
              -2
390
0
  6
Continuous
 62
               0
100
AcDbLine
 10
795.14285380545471
 20
-308.00251207295514
 30
0.0
 11
795.14285380545471
 21
-233.00251207295514
 31
0.0
  0
LINE
  5
F9
100
AcDbEntity
  8
0
370
              -2
390
0
  6
Continuous
 62
               0
100
AcDbLine
 10
860.14285380545198
 20
-233.00251207295514
 30
0.0
 11
795.14285380545471
 21
-233.00251207295514
 31
0.0
  0
CIRCLE
  5
FA
102
{ACAD_REACTORS
330
FB
102
}
100
AcDbEntity
  8
0
370
              -2
390
0
  6
Continuous
 62
               0
100
AcDbCircle
 10
860.14285380545198
 20
-233.00251207295514
 30
0.0
 40
4.99969482421875
  0
HATCH
  5
FB
100
AcDbEntity
  8
0
370
              -2
390
0
  6
Continuous
 62
               0
100
AcDbHatch
 10
0.0
 20
0.0
 30
0.0
210
0.0
220
0.0
230
1.0
  2
SOLID
 70
               1
 71
               1
 91
        1
 92
        1
 93
        1
 72
               2
 10
860.14285380545198
 20
-233.00251207295514
 40
4.99969482421875
 50
0.0
 51
360.0
 73
               0
 97
        1
330
FA
 75
               0
 76
               1
 98
        1
 10
0.0
 20
0.0
  0
CIRCLE
  5
FC
102
{ACAD_REACTORS
330
FD
102
}
100
AcDbEntity
  8
0
370
              -2
390
0
  6
Continuous
 62
               0
100
AcDbCircle
 10
795.14285380545471
 20
-233.00251207295514
 30
0.0
 40
4.99969482421875
  0
HATCH
  5
FD
100
AcDbEntity
  8
0
370
              -2
390
0
  6
Continuous
 62
               0
100
AcDbHatch
 10
0.0
 20
0.0
 30
0.0
210
0.0
220
0.0
230
1.0
  2
SOLID
 70
               1
 71
               1
 91
        1
 92
        1
 93
        1
 72
               2
 10
795.14285380545471
 20
-233.00251207295514
 40
4.99969482421875
 50
0.0
 51
360.0
 73
               0
 97
        1
330
FC
 75
               0
 76
               1
 98
        1
 10
0.0
 20
0.0
  0
MTEXT
  5
FE
100
AcDbEntity
  8
0
390
0
 62
               0
100
AcDbMText
 10
811.76785380545334
 20
-199.12489488545521
 30
0.0
 40
24.432617187500004
 41
0.0
 71
               1
 72
               1
  1
65
  7
ＭＳ ゴシック
 73
               1
 44
0.7828267384257843
  0
POINT
  5
FF
100
AcDbEntity
  8
Defpoints
370
               0
390
0
 62
               0
100
AcDbPoint
 10
795.14285380545471
 20
-333.00251207295514
 30
0.0
  0
POINT
  5
100
100
AcDbEntity
  8
Defpoints
370
               0
390
0
 62
               0
100
AcDbPoint
 10
860.14285380545198
 20
-338.00251207295514
 30
0.0
  0
POINT
  5
101
100
AcDbEntity
  8
Defpoints
370
               0
390
0
 62
               0
100
AcDbPoint
 10
860.14285380545198
 20
-233.00251207295514
 30
0.0
  0
ENDBLK
  5
102
100
AcDbEntity
  8
notes
390
0
100
AcDbBlockEnd
  0
BLOCK
  5
103
100
AcDbEntity
  8
notes
390
0
100
AcDbBlockBegin
  2
*D16
 70
               1
 10
0.0
 20
0.0
 30
0.0
  3
*D16
  1

  0
LINE
  5
104
100
AcDbEntity
  8
0
370
              -2
390
0
  6
Continuous
 62
               0
100
AcDbLine
 10
582.15939103969095
 20
-333.00251207295514
 30
0.0
 11
579.31086747756217
 21
-333.00251207295514
 31
0.0
  0
LINE
  5
105
100
AcDbEntity
  8
0
370
              -2
390
0
  6
Continuous
 62
               0
100
AcDbLine
 10
582.15939103969095
 20
-468.00251207295514
 30
0.0
 11
579.31086747756217
 21
-468.00251207295514
 31
0.0
  0
LINE
  5
106
100
AcDbEntity
  8
0
370
              -2
390
0
  6
Continuous
 62
               0
100
AcDbLine
 10
579.31086747756217
 20
-333.00251207295514
 30
0.0
 11
579.31086747756217
 21
-182.36617056084697
 31
0.0
  0
LINE
  5
107
100
AcDbEntity
  8
0
370
              -2
390
0
  6
Continuous
 62
               0
100
AcDbLine
 10
579.31086747756217
 20
-333.00251207295514
 30
0.0
 11
579.31086747756217
 21
-468.00251207295514
 31
0.0
  0
CIRCLE
  5
108
102
{ACAD_REACTORS
330
109
102
}
100
AcDbEntity
  8
0
370
              -2
390
0
  6
Continuous
 62
               0
100
AcDbCircle
 10
579.31086747756217
 20
-333.00251207295514
 30
0.0
 40
4.99969482421875
  0
HATCH
  5
109
100
AcDbEntity
  8
0
370
              -2
390
0
  6
Continuous
 62
               0
100
AcDbHatch
 10
0.0
 20
0.0
 30
0.0
210
0.0
220
0.0
230
1.0
  2
SOLID
 70
               1
 71
               1
 91
        1
 92
        1
 93
        1
 72
               2
 10
579.31086747756217
 20
-333.00251207295514
 40
4.99969482421875
 50
0.0
 51
360.0
 73
               0
 97
        1
330
108
 75
               0
 76
               1
 98
        1
 10
0.0
 20
0.0
  0
CIRCLE
  5
10A
102
{ACAD_REACTORS
330
10B
102
}
100
AcDbEntity
  8
0
370
              -2
390
0
  6
Continuous
 62
               0
100
AcDbCircle
 10
579.31086747756217
 20
-468.00251207295514
 30
0.0
 40
4.99969482421875
  0
HATCH
  5
10B
100
AcDbEntity
  8
0
370
              -2
390
0
  6
Continuous
 62
               0
100
AcDbHatch
 10
0.0
 20
0.0
 30
0.0
210
0.0
220
0.0
230
1.0
  2
SOLID
 70
               1
 71
               1
 91
        1
 92
        1
 93
        1
 72
               2
 10
579.31086747756217
 20
-468.00251207295514
 40
4.99969482421875
 50
0.0
 51
360.0
 73
               0
 97
        1
330
10A
 75
               0
 76
               1
 98
        1
 10
0.0
 20
0.0
  0
MTEXT
  5
10C
100
AcDbEntity
  8
0
390
0
 62
               0
100
AcDbMText
 10
545.43325029006201
 20
-325.24117056084697
 30
0.0
 40
24.432617187500004
 41
0.0
 71
               1
 72
               1
  1
135(深さ)
  7
ＭＳ ゴシック
 11
0.0
 21
1.0
 31
0.0
 73
               1
 44
0.7828267384257843
  0
POINT
  5
10D
100
AcDbEntity
  8
Defpoints
370
               0
390
0
 62
               0
100
AcDbPoint
 10
607.15939103969095
 20
-468.00251207295514
 30
0.0
  0
POINT
  5
10E
100
AcDbEntity
  8
Defpoints
370
               0
390
0
 62
               0
100
AcDbPoint
 10
607.15939103969095
 20
-333.00251207295514
 30
0.0
  0
POINT
  5
10F
100
AcDbEntity
  8
Defpoints
370
               0
390
0
 62
               0
100
AcDbPoint
 10
579.31086747756217
 20
-333.00251207295514
 30
0.0
  0
ENDBLK
  5
110
100
AcDbEntity
  8
notes
390
0
100
AcDbBlockEnd
  0
BLOCK
  5
111
100
AcDbEntity
  8
notes
390
0
100
AcDbBlockBegin
  2
*D17
 70
               1
 10
0.0
 20
0.0
 30
0.0
  3
*D17
  1

  0
LINE
  5
112
100
AcDbEntity
  8
0
370
              -2
390
0
  6
Continuous
 62
               0
100
AcDbLine
 10
535.73968312003535
 20
-513.03588508516282
 30
0.0
 11
510.0
 21
-513.03588508516282
 31
0.0
  0
LINE
  5
113
100
AcDbEntity
  8
0
370
              -2
390
0
  6
Continuous
 62
               0
100
AcDbLine
 10
536.40775379651859
 20
-523.00251207295287
 30
0.0
 11
510.0
 21
-523.00251207295287
 31
0.0
  0
LINE
  5
114
100
AcDbEntity
  8
0
370
              -2
390
0
  6
Continuous
 62
               0
100
AcDbLine
 10
510.0
 20
-523.00251207295287
 30
0.0
 11
510.0
 21
-581.00865802338717
 31
0.0
  0
LINE
  5
115
100
AcDbEntity
  8
0
370
              -2
390
0
  6
Continuous
 62
               0
100
AcDbLine
 10
510.0
 20
-513.03588508516282
 30
0.0
 11
510.0
 21
-523.00251207295287
 31
0.0
  0
CIRCLE
  5
116
102
{ACAD_REACTORS
330
117
102
}
100
AcDbEntity
  8
0
370
              -2
390
0
  6
Continuous
 62
               0
100
AcDbCircle
 10
510.0
 20
-513.03588508516282
 30
0.0
 40
4.99969482421875
  0
HATCH
  5
117
100
AcDbEntity
  8
0
370
              -2
390
0
  6
Continuous
 62
               0
100
AcDbHatch
 10
0.0
 20
0.0
 30
0.0
210
0.0
220
0.0
230
1.0
  2
SOLID
 70
               1
 71
               1
 91
        1
 92
        1
 93
        1
 72
               2
 10
510.0
 20
-513.03588508516282
 40
4.99969482421875
 50
0.0
 51
360.0
 73
               0
 97
        1
330
116
 75
               0
 76
               1
 98
        1
 10
0.0
 20
0.0
  0
CIRCLE
  5
118
102
{ACAD_REACTORS
330
119
102
}
100
AcDbEntity
  8
0
370
              -2
390
0
  6
Continuous
 62
               0
100
AcDbCircle
 10
510.0
 20
-523.00251207295287
 30
0.0
 40
4.99969482421875
  0
HATCH
  5
119
100
AcDbEntity
  8
0
370
              -2
390
0
  6
Continuous
 62
               0
100
AcDbHatch
 10
0.0
 20
0.0
 30
0.0
210
0.0
220
0.0
230
1.0
  2
SOLID
 70
               1
 71
               1
 91
        1
 92
        1
 93
        1
 72
               2
 10
510.0
 20
-523.00251207295287
 40
4.99969482421875
 50
0.0
 51
360.0
 73
               0
 97
        1
330
118
 75
               0
 76
               1
 98
        1
 10
0.0
 20
0.0
  0
MTEXT
  5
11A
100
AcDbEntity
  8
0
390
0
 62
               0
100
AcDbMText
 10
476.12238281249984
 20
-581.00865802338717
 30
0.0
 40
24.432617187500004
 41
0.0
 71
               1
 72
               1
  1
10
  7
ＭＳ ゴシック
 11
0.0
 21
1.0
 31
0.0
 73
               1
 44
0.7828267384257843
  0
POINT
  5
11B
100
AcDbEntity
  8
Defpoints
370
               0
390
0
 62
               0
100
AcDbPoint
 10
561.40775379651859
 20
-523.00251207295287
 30
0.0
  0
POINT
  5
11C
100
AcDbEntity
  8
Defpoints
370
               0
390
0
 62
               0
100
AcDbPoint
 10
560.73968312003535
 20
-513.03588508516282
 30
0.0
  0
POINT
  5
11D
100
AcDbEntity
  8
Defpoints
370
               0
390
0
 62
               0
100
AcDbPoint
 10
510.0
 20
-513.03588508516282
 30
0.0
  0
ENDBLK
  5
11E
100
AcDbEntity
  8
notes
390
0
100
AcDbBlockEnd
  0
ENDSEC
  0
SECTION
  2
ENTITIES
  0
MTEXT
  5
11F
100
AcDbEntity
  8
template
390
0
 62
               7
100
AcDbMText
 10
-967.99999999999955
 20
-1134.6535143188632
 30
0.0
 40
16.288411458333332
 41
0.0
 71
               1
 72
               1
  1
品名
  7
ＭＳ ゴシック
 73
               1
 44
0.7828267384257843
  0
MTEXT
  5
120
100
AcDbEntity
  8
template
390
0
 62
               7
100
AcDbMText
 10
-967.99999999999955
 20
-1219.6535143188635
 30
0.0
 40
16.288411458333332
 41
0.0
 71
               1
 72
               1
  1
仕様
  7
ＭＳ ゴシック
 73
               1
 44
0.7828267384257843
  0
MTEXT
  5
121
100
AcDbEntity
  8
template
390
0
 62
               7
100
AcDbMText
 10
-914.99999999999955
 20
-1163.2359752563634
 30
0.0
 40
24.432617187500004
 41
0.0
 71
               1
 72
               1
  1
洗面器 -CATALANO,Sfera-
  7
ＭＳ ゴシック
 73
               1
 44
0.7828267384257843
  0
LINE
  5
122
100
AcDbEntity
  8
template
370
               5
390
0
  6
Continuous
 62
               7
100
AcDbLine
 10
974.99999999951842
 20
-1211.2385924438634
 30
0.0
 11
-975.00000000048158
 21
-1211.2385924438634
 31
0.0
  0
LWPOLYLINE
  5
123
100
AcDbEntity
  8
template
370
               5
390
0
  6
Continuous
 62
               7
100
AcDbPolyline
 90
        5
 70
             128
 10
975.00000000000045
 20
1418.7614075561369
 10
-974.99999999999955
 20
1418.7614075561369
 10
-974.99999999999955
 20
-1381.2385924438634
 10
975.00000000000045
 20
-1381.2385924438634
 10
975.00000000000045
 20
1418.7614075561369
  0
LINE
  5
124
100
AcDbEntity
  8
template
370
               5
390
0
  6
Continuous
 62
               7
100
AcDbLine
 10
974.99999999951842
 20
-1126.2385924438634
 30
0.0
 11
-975.00000000048158
 21
-1126.2385924438634
 31
0.0
  0
LINE
  5
125
100
AcDbEntity
  8
template
370
               5
390
0
  6
Continuous
 62
               7
100
AcDbLine
 10
975.00000000000045
 20
-1296.2385924438634
 30
0.0
 11
222.00000000000045
 21
-1296.2385924438634
 31
0.0
  0
MTEXT
  5
126
100
AcDbEntity
  8
template
390
0
 62
               7
100
AcDbMText
 10
-974.99999999979673
 20
-1393.0924145007202
 30
0.0
 40
21.717881944444446
 41
0.0
 71
               1
 72
               1
  1
110629SO
  7
ＭＳ ゴシック
 73
               1
 44
0.7828267384257843
  0
MTEXT
  5
127
100
AcDbEntity
  8
template
390
0
 62
               7
100
AcDbMText
 10
251.87140625226039
 20
-1326.148986917171
 30
0.0
 40
24.432617187500004
 41
0.0
 71
               1
 72
               1
  1
大洋金物株式会社 ティーフォルム事業部
  7
ＭＳ ゴシック
 73
               1
 44
0.7828267384257843
  0
INSERT
  5
128
100
AcDbEntity
  8
template
390
0
 62
               7
100
AcDbBlockReference
  2
グループ
 10
3653.5401281735853
 20
-2209.7695850397395
 30
0.0
  0
MTEXT
  5
129
100
AcDbEntity
  8
template
390
0
 62
               7
100
AcDbMText
 10
784.00000000025966
 20
-1248.2359752563634
 30
0.0
 40
24.432617187500004
 41
0.0
 71
               1
 72
               1
  1
1:10
  7
ＭＳ ゴシック
 73
               1
 44
0.7828267384257843
  0
MTEXT
  5
12A
100
AcDbEntity
  8
template
390
0
 62
               7
100
AcDbMText
 10
731.00000000025966
 20
-1219.6535143188635
 30
0.0
 40
16.288411458333332
 41
0.0
 71
               1
 72
               1
  1
縮尺
  7
ＭＳ ゴシック
 73
               1
 44
0.7828267384257843
  0
LINE
  5
12B
100
AcDbEntity
  8
template
370
               5
390
0
  6
Continuous
 62
               7
100
AcDbLine
 10
724.00000000025966
 20
-1296.2385924438634
 30
0.0
 11
724.00000000025966
 21
-1211.2385924438634
 31
0.0
  0
MTEXT
  5
12C
100
AcDbEntity
  8
template
390
0
 62
               7
100
AcDbMText
 10
480.00000000025966
 20
-1219.6535143188635
 30
0.0
 40
16.288411458333332
 41
0.0
 71
               1
 72
               1
  1
容量
  7
ＭＳ ゴシック
 73
               1
 44
0.7828267384257843
  0
MTEXT
  5
12D
100
AcDbEntity
  8
template
390
0
 62
               7
100
AcDbMText
 10
533.00000000025966
 20
-1248.2359752563634
 30
0.0
 40
24.432617187500004
 41
0.0
 71
               1
 72
               1
  1
4L
  7
ＭＳ ゴシック
 73
               1
 44
0.7828267384257843
  0
LINE
  5
12E
100
AcDbEntity
  8
template
370
               5
390
0
  6
Continuous
 62
               7
100
AcDbLine
 10
473.00000000025966
 20
-1296.2385924438634
 30
0.0
 11
473.00000000025966
 21
-1211.2385924438634
 31
0.0
  0
MTEXT
  5
12F
100
AcDbEntity
  8
template
390
0
 62
               7
100
AcDbMText
 10
229.00000000025966
 20
-1134.6535143188632
 30
0.0
 40
16.288411458333332
 41
0.0
 71
               1
 72
               1
  1
品番
  7
ＭＳ ゴシック
 73
               1
 44
0.7828267384257843
  0
MTEXT
  5
130
100
AcDbEntity
  8
template
390
0
 62
               7
100
AcDbMText
 10
229.00000000025966
 20
-1219.6535143188635
 30
0.0
 40
16.288411458333332
 41
0.0
 71
               1
 72
               1
  1
重量
  7
ＭＳ ゴシック
 73
               1
 44
0.7828267384257843
  0
MTEXT
  5
131
100
AcDbEntity
  8
template
390
0
 62
               7
100
AcDbMText
 10
282.00000000025966
 20
-1163.2359752563634
 30
0.0
 40
24.432617187500004
 41
0.0
 71
               1
 72
               1
  1
ADF70-1209
  7
ＭＳ ゴシック
 73
               1
 44
0.7828267384257843
  0
MTEXT
  5
132
100
AcDbEntity
  8
template
390
0
 62
               7
100
AcDbMText
 10
282.00000000025966
 20
-1248.2359752563634
 30
0.0
 40
24.432617187500004
 41
0.0
 71
               1
 72
               1
  1
19kg
  7
ＭＳ ゴシック
 73
               1
 44
0.7828267384257843
  0
LINE
  5
133
100
AcDbEntity
  8
template
370
               5
390
0
  6
Continuous
 62
               7
100
AcDbLine
 10
222.00000000025966
 20
-1381.2385924438634
 30
0.0
 11
222.00000000025966
 21
-1126.2385924438634
 31
0.0
  0
MTEXT
  5
134
100
AcDbEntity
  8
template
390
0
 62
               7
100
AcDbMText
 10
-915.00000000000045
 20
-1248.2359752563634
 30
0.0
 40
24.432617187500004
 41
0.0
 71
               1
 72
               1
  1
壁掛け/オーバーフロー付き/壁取付ボルト付属/\P陶器/ホワイト
  7
ＭＳ ゴシック
 73
               1
 44
1.3047112307096407
  0
DIMENSION
  5
135
100
AcDbEntity
  8
notes
370
               5
390
0
  6
Continuous
 62
               7
100
AcDbDimension
  2
*D3
 10
-491.85577269986015
 20
-253.0411705608476
 30
0.0
 11
-351.85577269986015
 21
-253.0411705608476
 31
0.0
 71
               5
 72
               1
 41
1.0
 42
0.0
  3
tform線あり
100
AcDbAlignedDimension
 13
-211.8557726998597
 23
-353.00251207295469
 33
0.0
 14
-491.85577269986015
 24
-353.0411705608476
 34
0.0
100
AcDbRotatedDimension
1001
ACAD
1000
DSTYLE
1002
{
1070
             279
1070
               2
1070
             340
1005
33
1070
             147
1040
5.0
1002
}
  0
DIMENSION
  5
136
100
AcDbEntity
  8
notes
370
               5
390
0
  6
Continuous
 62
               7
100
AcDbDimension
  2
*D4
 10
-776.89194429057852
 20
-333.00251207295514
 30
0.0
 11
-776.89194429057852
 21
-353.02184131690115
 31
0.0
 71
               5
 72
               1
 41
1.0
 42
0.0
  3
tform線あり
100
AcDbAlignedDimension
 13
-511.85577269985833
 23
-373.04117056084715
 33
0.0
 14
-676.89194429057852
 24
-333.00251207295514
 34
0.0
 50
90.0
100
AcDbRotatedDimension
1001
ACAD
1000
DSTYLE
1002
{
1070
             279
1070
               2
1070
             340
1005
33
1070
             147
1040
5.0
1002
}
  0
DIMENSION
  5
137
100
AcDbEntity
  8
notes
370
               5
390
0
  6
Continuous
 62
               7
100
AcDbDimension
  2
*D5
 10
73.108055709421478
 20
-333.00251207295514
 30
0.0
 11
73.108055709421478
 21
-358.00251207295469
 31
0.0
 71
               5
 72
               1
 41
1.0
 42
0.0
  3
tform線あり
100
AcDbAlignedDimension
 13
-26.891944290578522
 23
-383.00251207295423
 33
0.0
 14
-26.891944290578522
 24
-333.00251207295514
 34
0.0
 50
90.0
100
AcDbRotatedDimension
1001
ACAD
1000
DSTYLE
1002
{
1070
             279
1070
               2
1070
             340
1005
33
1070
             147
1040
5.0
1002
}
  0
CIRCLE
  5
138
100
AcDbEntity
  8
notes
370
               5
390
0
  6
STYLE_12
 62
               7
100
AcDbCircle
 10
-734.30515411533406
 20
186.7155081371684
 30
0.0
 40
17.500000000001524
  0
DIMENSION
  5
139
100
AcDbEntity
  8
notes
370
               5
390
0
  6
Continuous
 62
               7
100
AcDbDimension
  2
*D6
 10
73.108055709421478
 20
-383.00251207295423
 30
0.0
 11
73.108055709421478
 21
-453.00251207295355
 31
0.0
 71
               5
 72
               1
 41
1.0
 42
0.0
  3
tform線あり
100
AcDbAlignedDimension
 13
-222.11504325509168
 23
-523.00251207295287
 33
0.0
 14
-26.891944290578522
 24
-383.00251207295423
 34
0.0
 50
90.0
100
AcDbRotatedDimension
1001
ACAD
1000
DSTYLE
1002
{
1070
             279
1070
               2
1070
             340
1005
33
1070
             147
1040
5.0
1002
}
  0
MTEXT
  5
13A
100
AcDbEntity
  8
notes
390
0
 62
               7
100
AcDbMText
 10
-711.46673341892847
 20
200.73953053155901
 30
0.0
 40
24.432617187500004
 41
836.66157930359611
 71
               1
 72
               1
  1
＝φ30もしくはφ35の水栓取付用穴あけ加工を承ります。\P   必要な場合、ご注文の際にご指示ください。
  7
ＭＳ ゴシック
 73
               1
 44
1.0437689845677123
  0
MTEXT
  5
13B
100
AcDbEntity
  8
notes
390
0
 62
               7
100
AcDbMText
 10
-175.4235768550152
 20
-243.69805009583411
 30
0.0
 40
24.432617187500004
 41
0.0
 71
               1
 72
               1
  1
壁取付ボルト穴(2ヶ所)
  7
ＭＳ ゴシック
 73
               1
 44
0.7828267384257843
  0
LINE
  5
13C
100
AcDbEntity
  8
notes
370
               5
390
0
  6
Continuous
 62
               7
100
AcDbLine
 10
-211.85577269986015
 20
-373.04117056084715
 30
0.0
 11
-155.38786480230556
 21
-275.23588508516286
 31
0.0
  0
DIMENSION
  5
13D
100
AcDbEntity
  8
notes
370
               5
390
0
  6
Continuous
 62
               7
100
AcDbDimension
  2
*D7
 10
-551.89194429057943
 20
302.91968581059746
 30
0.0
 11
-351.89194429057943
 21
302.91968581059746
 31
0.0
 71
               5
 72
               1
 41
1.0
 42
0.0
  3
tform線あり
100
AcDbAlignedDimension
 13
-151.89194429057943
 23
496.8782511412478
 33
0.0
 14
-551.89194429057943
 24
496.8782511412478
 34
0.0
100
AcDbRotatedDimension
1001
ACAD
1000
DSTYLE
1002
{
1070
             279
1070
               2
1070
             340
1005
33
1070
             147
1040
5.0
1002
}
  0
DIMENSION
  5
13E
100
AcDbEntity
  8
notes
370
               5
390
0
  6
Continuous
 62
               7
100
AcDbDimension
  2
*D8
 10
-676.89194429057852
 20
978.91968581059655
 30
0.0
 11
-351.89194429057852
 21
978.91968581059655
 31
0.0
 71
               5
 72
               1
 41
1.0
 42
0.0
  3
tform線あり
100
AcDbAlignedDimension
 13
-26.891944290578522
 23
878.91968581059655
 33
0.0
 14
-676.89194429057852
 24
878.91968581059655
 34
0.0
100
AcDbRotatedDimension
1001
ACAD
1000
DSTYLE
1002
{
1070
             279
1070
               2
1070
             340
1005
33
1070
             147
1040
5.0
1002
}
  0
DIMENSION
  5
13F
100
AcDbEntity
  8
notes
370
               5
390
0
  6
Continuous
 62
               7
100
AcDbDimension
  2
*D9
 10
123.10805570942148
 20
882.91968581059655
 30
0.0
 11
123.10805570942148
 21
642.91968581059655
 31
0.0
 71
               5
 72
               1
 41
1.0
 42
0.0
  3
tform線あり
100
AcDbAlignedDimension
 13
-314.39194429057943
 23
402.91968581059655
 33
0.0
 14
-30.891944290578522
 24
882.91968581059655
 34
0.0
 50
90.0
100
AcDbRotatedDimension
1001
ACAD
1000
DSTYLE
1002
{
1070
             279
1070
               2
1070
             340
1005
33
1070
             147
1040
5.0
1002
}
  0
DIMENSION
  5
140
100
AcDbEntity
  8
notes
370
               5
390
0
  6
Continuous
 62
               7
100
AcDbDimension
  2
*D10
 10
66.0
 20
882.91968581059655
 30
0.0
 11
71.0
 21
717.91968581059655
 31
0.0
 70
             128
 71
               5
 72
               1
 41
1.0
 42
0.0
  3
tform線あり
100
AcDbAlignedDimension
 13
-30.891944290578522
 23
552.91968581059655
 33
0.0
 14
-30.891944290578522
 24
882.91968581059655
 34
0.0
 50
90.0
100
AcDbRotatedDimension
1001
ACAD
1000
DSTYLE
1002
{
1070
             279
1070
               2
1070
             340
1005
33
1070
             147
1040
5.0
1002
}
  0
DIMENSION
  5
141
100
AcDbEntity
  8
notes
370
               5
390
0
  6
Continuous
 62
               7
100
AcDbDimension
  2
*D11
 10
-752.99999999999955
 20
757.919685810597
 30
0.0
 11
-752.99999999999955
 21
592.919685810597
 31
0.0
 71
               5
 72
               1
 41
1.0
 42
0.0
  3
tform線あり
100
AcDbAlignedDimension
 13
-482.93337895993091
 23
427.919685810597
 33
0.0
 14
-676.89194429057852
 24
757.919685810597
 34
0.0
 50
90.0
100
AcDbRotatedDimension
1001
ACAD
1000
DSTYLE
1002
{
1070
             279
1070
               2
1070
             340
1005
33
1070
             147
1040
5.0
1002
}
  0
DIMENSION
  5
142
100
AcDbEntity
  8
notes
370
               5
390
0
  6
Continuous
 62
               7
100
AcDbDimension
  2
*D12
 10
-752.99999999999955
 20
882.91968581059655
 30
0.0
 11
-752.99999999999955
 21
820.419685810597
 31
0.0
 71
               5
 72
               1
 41
1.0
 42
0.0
  3
tform線あり
100
AcDbAlignedDimension
 13
-676.89194429057852
 23
757.919685810597
 33
0.0
 14
-672.89194429057852
 24
882.91968581059655
 34
0.0
 50
90.0
100
AcDbRotatedDimension
1001
ACAD
1000
DSTYLE
1002
{
1070
             279
1070
               2
1070
             340
1005
33
1070
             147
1040
5.0
1002
}
  0
DIMENSION
  5
143
100
AcDbEntity
  8
notes
370
               5
390
0
  6
Continuous
 62
               7
100
AcDbDimension
  2
*D13
 10
230.14388206883905
 20
-523.00251207295287
 30
0.0
 11
230.14388206883905
 21
-428.002512072954
 31
0.0
 71
               5
 72
               1
 41
1.0
 42
0.0
  3
tform線あり
100
AcDbAlignedDimension
 13
379.40221339529535
 23
-333.00251207295514
 33
0.0
 14
465.53359733287152
 24
-523.00251207295287
 34
0.0
 50
90.0
100
AcDbRotatedDimension
1001
ACAD
1000
DSTYLE
1002
{
1070
             279
1070
               2
1070
             340
1005
33
1070
             147
1040
5.0
1002
}
  0
DIMENSION
  5
144
100
AcDbEntity
  8
notes
370
               5
390
0
  6
Continuous
 62
               7
100
AcDbDimension
  2
*D14
 10
860.14285380545198
 20
-623.00251207295287
 30
0.0
 11
715.1428538054538
 21
-623.00251207295287
 31
0.0
 71
               5
 72
               1
 41
1.0
 42
0.0
  3
tform線あり
100
AcDbAlignedDimension
 13
570.14285380545562
 23
-518.00251207295287
 33
0.0
 14
860.14285380545198
 24
-519.00251207295287
 34
0.0
100
AcDbRotatedDimension
1001
ACAD
1000
DSTYLE
1002
{
1070
             279
1070
               2
1070
             340
1005
33
1070
             147
1040
5.0
1002
}
  0
DIMENSION
  5
145
100
AcDbEntity
  8
notes
370
               5
390
0
  6
Continuous
 62
               7
100
AcDbDimension
  2
*D15
 10
860.14285380545198
 20
-233.00251207295514
 30
0.0
 11
827.64285380545334
 21
-233.00251207295514
 31
0.0
 71
               5
 72
               1
 41
1.0
 42
0.0
  3
tform線あり
100
AcDbAlignedDimension
 13
795.14285380545471
 23
-333.00251207295514
 33
0.0
 14
860.14285380545198
 24
-338.00251207295514
 34
0.0
100
AcDbRotatedDimension
1001
ACAD
1000
DSTYLE
1002
{
1070
             279
1070
               2
1070
             340
1005
33
1070
             147
1040
5.0
1002
}
  0
DIMENSION
  5
146
100
AcDbEntity
  8
notes
370
               5
390
0
  6
Continuous
 62
               7
100
AcDbDimension
  2
*D16
 10
579.31086747756217
 20
-333.00251207295514
 30
0.0
 11
574.31086747756217
 21
-325.24117056084697
 31
0.0
 70
             128
 71
               5
 72
               1
 41
1.0
 42
0.0
  3
tform線あり
100
AcDbAlignedDimension
 13
607.15939103969095
 23
-468.00251207295514
 33
0.0
 14
607.15939103969095
 24
-333.00251207295514
 34
0.0
 50
90.0
100
AcDbRotatedDimension
1001
ACAD
1000
DSTYLE
1002
{
1070
             279
1070
               2
1070
             340
1005
33
1070
               3
1000
<>(深さ)
1070
             174
1070
               0
1070
             147
1040
5.0
1002
}
  0
DIMENSION
  5
147
100
AcDbEntity
  8
notes
370
               5
390
0
  6
Continuous
 62
               7
100
AcDbDimension
  2
*D17
 10
510.0
 20
-513.03588508516282
 30
0.0
 11
505.0
 21
-549.25865802338717
 31
0.0
 70
             128
 71
               5
 72
               1
 41
1.0
 42
0.0
  3
tform線あり
100
AcDbAlignedDimension
 13
561.40775379651859
 23
-523.00251207295287
 33
0.0
 14
560.73968312003535
 24
-513.03588508516282
 34
0.0
 50
90.0
100
AcDbRotatedDimension
1001
ACAD
1000
DSTYLE
1002
{
1070
             279
1070
               2
1070
             340
1005
33
1070
             174
1070
               0
1070
             147
1040
5.0
1002
}
  0
CIRCLE
  5
148
100
AcDbEntity
  8
ADF70-1209
370
              15
390
0
  6
Continuous
 62
               7
100
AcDbCircle
 10
-351.89194429057852
 20
592.919685810597
 30
0.0
 40
39.0
  0
LINE
  5
149
100
AcDbEntity
  8
ADF70-1209
370
              15
390
0
  6
Continuous
 62
               7
100
AcDbLine
 10
-351.89194429057852
 20
882.919685810597
 30
0.0
 11
-30.891944290578522
 21
882.91968581059655
 31
0.0
  0
LINE
  5
14A
100
AcDbEntity
  8
ADF70-1209
370
              15
390
0
  6
Continuous
 62
               7
100
AcDbLine
 10
-30.891944290578522
 20
552.91968581059746
 30
0.0
 11
-122.68904916377278
 21
552.91968581059609
 31
0.0
  0
SPLINE
  5
14B
100
AcDbEntity
  8
ADF70-1209
370
              15
390
0
  6
Continuous
 62
               7
100
AcDbSpline
210
0.0
220
0.0
230
1.0
 70
               9
 71
               2
 72
              28
 73
              25
 74
               0
 42
0.000001
 43
0.000001
 40
0.0
 40
0.0
 40
0.0
 40
1.0
 40
2.0
 40
3.0
 40
4.0
 40
5.0
 40
5.0
 40
6.0
 40
7.0
 40
8.0
 40
9.0
 40
10.0
 40
10.0
 40
11.0
 40
12.0
 40
13.0
 40
14.0
 40
15.0
 40
15.0
 40
16.0
 40
17.0
 40
18.0
 40
19.0
 40
20.0
 40
20.0
 40
20.0
 10
-364.39194429057852
 20
740.919685810597
 30
0.0
 10
-364.32670579783144
 20
740.01801730968191
 30
0.0
 10
-363.17751754591382
 20
738.79480939840005
 30
0.0
 10
-361.63193862915568
 20
737.87672641340214
 30
0.0
 10
-359.56213479659118
 20
737.10994234733971
 30
0.0
 10
-355.18444955402947
 20
736.12841946993012
 30
0.0
 10
-351.89194429057852
 20
736.14618423085176
 30
0.0
 10
-348.59575888152585
 20
736.12320013767339
 30
0.0
 10
-344.22175378456586
 20
737.10994234734062
 30
0.0
 10
-342.15194995200045
 20
737.87672641340123
 30
0.0
 10
-340.60637103524323
 20
738.7948093984005
 30
0.0
 10
-339.4571827833247
 20
740.01801730968191
 30
0.0
 10
-339.39194429057852
 20
740.919685810597
 30
0.0
 10
-339.45718278332561
 20
741.82135431151073
 30
0.0
 10
-340.60637103524232
 20
743.04456222279396
 30
0.0
 10
-342.15194995200227
 20
743.96264520779187
 30
0.0
 10
-344.22175378456404
 20
744.72942927385475
 30
0.0
 10
-348.59943902712848
 20
745.71095215126388
 30
0.0
 10
-351.89194429057852
 20
745.69318739034225
 30
0.0
 10
-355.18812969963028
 20
745.7161714835197
 30
0.0
 10
-359.562134796593
 20
744.72942927385475
 30
0.0
 10
-361.63193862915659
 20
743.96264520779278
 30
0.0
 10
-363.17751754591472
 20
743.04456222279441
 30
0.0
 10
-364.32670579783235
 20
741.82135431151164
 30
0.0
 10
-364.39194429057852
 20
740.919685810597
 30
0.0
  0
CIRCLE
  5
14C
100
AcDbEntity
  8
ADF70-1209
370
              15
390
0
  6
Continuous
 62
               7
100
AcDbCircle
 10
-351.89194429057852
 20
592.919685810597
 30
0.0
 40
22.5
  0
LINE
  5
14D
100
AcDbEntity
  8
ADF70-1209
370
              15
390
0
  6
Continuous
 62
               7
100
AcDbLine
 10
-351.89194429057852
 20
882.919685810597
 30
0.0
 11
-672.89194429057852
 21
882.91968581059655
 31
0.0
  0
LINE
  5
14E
100
AcDbEntity
  8
ADF70-1209
370
              15
390
0
  6
Continuous
 62
               7
100
AcDbLine
 10
-672.89194429057852
 20
552.91968581059655
 30
0.0
 11
-581.09483941738699
 21
552.91968581059655
 31
0.0
  0
LINE
  5
14F
100
AcDbEntity
  8
ADF70-1209
370
              15
390
0
  6
Continuous
 62
               7
100
AcDbLine
 10
-26.891944290578522
 20
556.91968581059746
 30
0.0
 11
-26.891944290578522
 21
878.91968581059655
 31
0.0
  0
ARC
  5
150
100
AcDbEntity
  8
ADF70-1209
370
              15
390
0
  6
Continuous
 62
               7
100
AcDbCircle
 10
-30.891944290578522
 20
556.91968581059746
 30
0.0
 40
4.0
100
AcDbArc
 50
270.0
 51
0.0
  0
ARC
  5
151
100
AcDbEntity
  8
ADF70-1209
370
              15
390
0
  6
Continuous
 62
               7
100
AcDbCircle
 10
-30.891944290578522
 20
878.91968581059655
 30
0.0
 40
4.0
100
AcDbArc
 50
0.0
 51
90.0
  0
LINE
  5
152
100
AcDbEntity
  8
ADF70-1209
370
              15
390
0
  6
Continuous
 62
               7
100
AcDbLine
 10
-676.89194429057852
 20
556.91968581059655
 30
0.0
 11
-676.89194429057852
 21
878.91968581059655
 31
0.0
  0
ARC
  5
153
100
AcDbEntity
  8
ADF70-1209
370
              15
390
0
  6
Continuous
 62
               7
100
AcDbCircle
 10
-672.89194429057852
 20
556.91968581059655
 30
0.0
 40
4.0
100
AcDbArc
 50
180.0
 51
270.0
  0
ARC
  5
154
100
AcDbEntity
  8
ADF70-1209
370
              15
390
0
  6
Continuous
 62
               7
100
AcDbCircle
 10
-672.89194429057852
 20
878.91968581059655
 30
0.0
 40
4.0
100
AcDbArc
 50
90.0
 51
180.0
  0
ARC
  5
155
100
AcDbEntity
  8
ADF70-1209
370
              15
390
0
  6
Continuous
 62
               7
100
AcDbCircle
 10
-389.39194429057852
 20
590.41968581059655
 30
0.0
 40
187.50000000000088
100
AcDbArc
 50
193.91642623355384
 51
270.0
  0
ARC
  5
156
100
AcDbEntity
  8
ADF70-1209
370
              15
390
0
  6
Continuous
 62
               7
100
AcDbCircle
 10
-581.09483941738699
 20
542.91968581059655
 30
0.0
 40
9.9999999999995577
100
AcDbArc
 50
13.916426233554905
 51
90.0
  0
LINE
  5
157
100
AcDbEntity
  8
ADF70-1209
370
              15
390
0
  6
Continuous
 62
               7
100
AcDbLine
 10
-389.39194429057943
 20
402.91968581059655
 30
0.0
 11
-314.39194429057943
 21
402.91968581059655
 31
0.0
  0
ARC
  5
158
100
AcDbEntity
  8
ADF70-1209
370
              15
390
0
  6
Continuous
 62
               7
100
AcDbCircle
 10
-314.39194429057943
 20
590.41968581059655
 30
0.0
 40
187.5
100
AcDbArc
 50
270.0
 51
346.08357376644312
  0
ARC
  5
159
100
AcDbEntity
  8
ADF70-1209
370
              15
390
0
  6
Continuous
 62
               7
100
AcDbCircle
 10
-122.68904916377187
 20
542.91968581059564
 30
0.0
 40
10.0
100
AcDbArc
 50
90.0
 51
166.08357376644511
  0
LINE
  5
15A
100
AcDbEntity
  8
ADF70-1209
370
              15
390
0
  6
STYLE_12
 62
               7
100
AcDbLine
 10
-391.89651565362328
 20
-468.00251207295378
 30
0.0
 11
-427.79936312391828
 21
-467.3800952959873
 31
0.0
  0
LINE
  5
15B
100
AcDbEntity
  8
ADF70-1209
370
              15
390
0
  6
STYLE_12
 62
               7
100
AcDbLine
 10
-311.89651565362328
 20
-468.00251207295378
 30
0.0
 11
-275.99366818332828
 21
-467.3800952959873
 31
0.0
  0
LINE
  5
15C
100
AcDbEntity
  8
ADF70-1209
370
              15
390
0
  6
STYLE_12
 62
               7
100
AcDbLine
 10
-351.89651565362328
 20
-513.00251207295287
 30
0.0
 11
-329.39651565362328
 21
-513.00251207295287
 31
0.0
  0
LINE
  5
15D
100
AcDbEntity
  8
ADF70-1209
370
              15
390
0
  6
STYLE_12
 62
               7
100
AcDbLine
 10
-351.89651565362328
 20
-468.00251207295378
 30
0.0
 11
-311.89651565362328
 21
-468.00251207295378
 31
0.0
  0
LINE
  5
15E
100
AcDbEntity
  8
ADF70-1209
370
              15
390
0
  6
STYLE_12
 62
               7
100
AcDbLine
 10
-351.89651565362328
 20
-480.00251207295378
 30
0.0
 11
-329.39651565362328
 21
-480.00251207295378
 31
0.0
  0
LINE
  5
15F
100
AcDbEntity
  8
ADF70-1209
370
              15
390
0
  6
Continuous
 62
               7
100
AcDbLine
 10
-237.69564297270608
 20
-523.00251207295287
 30
0.0
 11
-237.69564296133467
 21
-523.0025120480982
 31
0.0
  0
LINE
  5
160
100
AcDbEntity
  8
ADF70-1209
370
              15
390
0
  6
STYLE_05
 62
               7
100
AcDbLine
 10
-240.19564297270608
 20
-520.50251207295287
 30
0.0
 11
-240.19564296135923
 21
-520.50251204807319
 31
0.0
  0
ARC
  5
161
100
AcDbEntity
  8
ADF70-1209
370
              15
390
0
  6
STYLE_12
 62
               7
100
AcDbCircle
 10
-291.55713257160369
 20
-332.78770459439147
 30
0.0
 40
135.4892359508147
100
AcDbArc
 50
276.59604851689136
 51
357.98730190825148
  0
ARC
  5
162
100
AcDbEntity
  8
ADF70-1209
370
              15
390
0
  6
STYLE_05
 62
               7
100
AcDbCircle
 10
-151.17234805780754
 20
-338.00251207295514
 30
0.0
 40
5.0
100
AcDbArc
 50
90.0
 51
174.76399229938025
  0
LWPOLYLINE
  5
163
100
AcDbEntity
  8
ADF70-1209
370
              15
390
0
  6
Continuous
 62
               7
100
AcDbPolyline
 90
        6
 70
             128
 10
-151.17234805780754
 20
-333.00251207295514
 10
-132.64683719409004
 20
-333.00251207295514
 42
-0.4202041027564565
 10
-127.64787853530379
 20
-338.10455288706908
 42
-0.2237595280618424
 10
-217.25555947485373
 20
-518.65907429236631
 10
-221.8557726998597
 20
-522.30251207295305
 10
-222.11504325509122
 20
-523.00251207295287
  0
LINE
  5
164
100
AcDbEntity
  8
ADF70-1209
370
              15
390
0
  6
STYLE_12
 62
               7
100
AcDbLine
 10
-351.89651565362328
 20
-513.00251207295287
 30
0.0
 11
-374.39651565362328
 21
-513.00251207295287
 31
0.0
  0
LINE
  5
165
100
AcDbEntity
  8
ADF70-1209
370
              15
390
0
  6
STYLE_12
 62
               7
100
AcDbLine
 10
-351.89651565362328
 20
-468.00251207295378
 30
0.0
 11
-391.89651565362328
 21
-468.00251207295378
 31
0.0
  0
LINE
  5
166
100
AcDbEntity
  8
ADF70-1209
370
              15
390
0
  6
STYLE_12
 62
               7
100
AcDbLine
 10
-351.89651565362328
 20
-480.00251207295378
 30
0.0
 11
-374.39651565362328
 21
-480.00251207295378
 31
0.0
  0
LINE
  5
167
100
AcDbEntity
  8
ADF70-1209
370
              15
390
0
  6
Continuous
 62
               7
100
AcDbLine
 10
-466.09738833453912
 20
-523.00251207295287
 30
0.0
 11
-466.09738834590962
 21
-523.0025120480982
 31
0.0
  0
LINE
  5
168
100
AcDbEntity
  8
ADF70-1209
370
              15
390
0
  6
STYLE_05
 62
               7
100
AcDbLine
 10
-463.59738833453912
 20
-520.50251207295287
 30
0.0
 11
-463.59738834588597
 21
-520.50251204807319
 31
0.0
  0
ARC
  5
169
100
AcDbEntity
  8
ADF70-1209
370
              15
390
0
  6
STYLE_12
 62
               7
100
AcDbCircle
 10
-412.23589873564333
 20
-332.78770459439147
 30
0.0
 40
135.48923595081484
100
AcDbArc
 50
182.0126980917484
 51
263.40395148310915
  0
ARC
  5
16A
100
AcDbEntity
  8
ADF70-1209
370
              15
390
0
  6
STYLE_05
 62
               7
100
AcDbCircle
 10
-552.62068324943675
 20
-338.00251207295514
 30
0.0
 40
5.0000000000000675
100
AcDbArc
 50
5.2360077006197718
 51
89.999999999999986
  0
LWPOLYLINE
  5
16B
100
AcDbEntity
  8
ADF70-1209
370
              15
390
0
  6
Continuous
 62
               7
100
AcDbPolyline
 90
        6
 70
             128
 10
-481.67798805215307
 20
-523.00251207295287
 10
-481.9372586073855
 20
-522.30251207295305
 10
-486.53747183239057
 20
-518.65907429236631
 42
-0.2237595280618482
 10
-576.14515277193959
 20
-338.10455288706908
 42
-0.4202041027565924
 10
-571.14619411315425
 20
-333.00251207295514
 10
-552.62068324943675
 20
-333.00251207295514
  0
LINE
  5
16C
100
AcDbEntity
  8
ADF70-1209
370
              15
390
0
  6
Continuous
 62
               7
100
AcDbLine
 10
-481.67798805215307
 20
-523.00251207295287
 30
0.0
 11
-222.11504325509168
 21
-523.00251207295287
 31
0.0
  0
LINE
  5
16D
100
AcDbEntity
  8
ADF70-1209
370
              15
390
0
  6
STYLE_12
 62
               7
100
AcDbLine
 10
-491.85577269986015
 20
-393.04117056084669
 30
0.0
 11
-491.85577269986015
 21
-353.0411705608476
 31
0.0
  0
LINE
  5
16E
100
AcDbEntity
  8
ADF70-1209
370
              15
390
0
  6
STYLE_12
 62
               7
100
AcDbLine
 10
-471.85577269986015
 20
-373.04117056084715
 30
0.0
 11
-511.85577269985833
 21
-373.04117056084715
 31
0.0
  0
CIRCLE
  5
16F
100
AcDbEntity
  8
ADF70-1209
370
              15
390
0
  6
STYLE_12
 62
               7
100
AcDbCircle
 10
-491.85577269986015
 20
-373.04117056084715
 30
0.0
 40
10.0
  0
LINE
  5
170
100
AcDbEntity
  8
ADF70-1209
370
              15
390
0
  6
STYLE_12
 62
               7
100
AcDbLine
 10
-211.8557726998597
 20
-393.04117056084669
 30
0.0
 11
-211.8557726998597
 21
-353.0411705608476
 31
0.0
  0
LINE
  5
171
100
AcDbEntity
  8
ADF70-1209
370
              15
390
0
  6
STYLE_12
 62
               7
100
AcDbLine
 10
-191.85577269986061
 20
-373.04117056084715
 30
0.0
 11
-231.8557726998597
 21
-373.04117056084715
 31
0.0
  0
CIRCLE
  5
172
100
AcDbEntity
  8
ADF70-1209
370
              15
390
0
  6
STYLE_12
 62
               7
100
AcDbCircle
 10
-211.8557726998597
 20
-373.04117056084715
 30
0.0
 40
10.0
  0
LINE
  5
173
100
AcDbEntity
  8
ADF70-1209
370
              15
390
0
  6
Continuous
 62
               7
100
AcDbLine
 10
-26.891944290578522
 20
-383.00251207295423
 30
0.0
 11
-26.891944290578522
 21
-333.00251207295514
 31
0.0
  0
LINE
  5
174
100
AcDbEntity
  8
ADF70-1209
370
              15
390
0
  6
Continuous
 62
               7
100
AcDbLine
 10
-676.89194429057852
 20
-333.00251207295514
 30
0.0
 11
-676.89194429057852
 21
-383.00251207295423
 31
0.0
  0
LINE
  5
175
100
AcDbEntity
  8
ADF70-1209
370
              15
390
0
  6
Continuous
 62
               7
100
AcDbLine
 10
-26.891944290578522
 20
-333.00251207295514
 30
0.0
 11
-676.89194429057852
 21
-333.00251207295514
 31
0.0
  0
LINE
  5
176
100
AcDbEntity
  8
ADF70-1209
370
              15
390
0
  6
Continuous
 62
               7
100
AcDbLine
 10
-676.89194429057852
 20
-383.00251207295423
 30
0.0
 11
-570.90764891110439
 21
-383.00251207295423
 31
0.0
  0
LINE
  5
177
100
AcDbEntity
  8
ADF70-1209
370
              15
390
0
  6
Continuous
 62
               7
100
AcDbLine
 10
-26.891944290578522
 20
-383.00251207295423
 30
0.0
 11
-132.8853823961399
 21
-383.00251207295423
 31
0.0
  0
LINE
  5
178
100
AcDbEntity
  8
ADF70-1209
370
              15
390
0
  6
STYLE_12
 62
               7
100
AcDbLine
 10
-329.55577269986043
 20
-480.00251207295378
 30
0.0
 11
-329.55577269986043
 21
-513.00251207295378
 31
0.0
  0
LINE
  5
179
100
AcDbEntity
  8
ADF70-1209
370
              15
390
0
  6
STYLE_12
 62
               7
100
AcDbLine
 10
-329.55577269986043
 20
-480.00251207295378
 30
0.0
 11
-311.89651565362328
 21
-468.00251207295378
 31
0.0
  0
LINE
  5
17A
100
AcDbEntity
  8
ADF70-1209
370
              15
390
0
  6
STYLE_12
 62
               7
100
AcDbLine
 10
-374.23725860738614
 20
-480.00251207295378
 30
0.0
 11
-391.89651565362328
 21
-468.00251207295378
 31
0.0
  0
LINE
  5
17B
100
AcDbEntity
  8
ADF70-1209
370
              15
390
0
  6
STYLE_12
 62
               7
100
AcDbLine
 10
-374.23725860738614
 20
-480.00251207295378
 30
0.0
 11
-374.23725860738614
 21
-513.00251207295378
 31
0.0
  0
LINE
  5
17C
100
AcDbEntity
  8
ADF70-1209
370
              15
390
0
  6
Continuous
 62
               7
100
AcDbLine
 10
812.64285380545471
 20
-333.00251207295514
 30
0.0
 11
812.64285380545471
 21
-348.00251207295514
 31
0.0
  0
LINE
  5
17D
100
AcDbEntity
  8
ADF70-1209
370
              15
390
0
  6
Continuous
 62
               7
100
AcDbLine
 10
777.64285380545471
 20
-333.00251207295514
 30
0.0
 11
777.64285380545471
 21
-348.00251207295514
 31
0.0
  0
LINE
  5
17E
100
AcDbEntity
  8
ADF70-1209
370
              15
390
0
  6
STYLE_12
 62
               7
100
AcDbLine
 10
591.06154251245107
 20
-513.03588508516282
 30
0.0
 11
548.33192932351676
 21
-513.03588508516282
 31
0.0
  0
LINE
  5
17F
100
AcDbEntity
  8
ADF70-1209
370
              15
390
0
  6
STYLE_12
 62
               7
100
AcDbLine
 10
607.64285380545562
 20
-468.00251207295378
 30
0.0
 11
530.49651995489194
 21
-468.00251207295378
 31
0.0
  0
LINE
  5
180
100
AcDbEntity
  8
ADF70-1209
370
              15
390
0
  6
STYLE_12
 62
               7
100
AcDbLine
 10
591.01835968199475
 20
-480.00251207295378
 30
0.0
 11
548.33192932351676
 21
-480.00251207295378
 31
0.0
  0
LINE
  5
181
100
AcDbEntity
  8
ADF70-1209
370
              15
390
0
  6
Continuous
 62
               7
100
AcDbLine
 10
839.52244099603422
 20
-523.00251207295287
 30
0.0
 11
856.14285380545289
 21
-523.00251207295287
 31
0.0
  0
ARC
  5
182
100
AcDbEntity
  8
ADF70-1209
370
              15
390
0
  6
Continuous
 62
               7
100
AcDbCircle
 10
856.14285380545289
 20
-519.00251207295287
 30
0.0
 40
4.0
100
AcDbArc
 50
270.0
 51
0.0
  0
LINE
  5
183
100
AcDbEntity
  8
ADF70-1209
370
              15
390
0
  6
Continuous
 62
               7
100
AcDbLine
 10
839.52244099603422
 20
-523.00251207295287
 30
0.0
 11
468.72267285093176
 21
-523.00251207295287
 31
0.0
  0
LINE
  5
184
100
AcDbEntity
  8
ADF70-1209
370
              15
390
0
  6
STYLE_12
 62
               7
100
AcDbLine
 10
548.33192932351676
 20
-480.00251207295378
 30
0.0
 11
548.36154251245034
 21
-513.03588508516282
 31
0.0
  0
LINE
  5
185
100
AcDbEntity
  8
ADF70-1209
370
              15
390
0
  6
STYLE_12
 62
               7
100
AcDbLine
 10
532.20250868539415
 20
-468.9423379210989
 30
0.0
 11
548.33192932351676
 21
-480.00251207295378
 31
0.0
  0
ARC
  5
186
100
AcDbEntity
  8
ADF70-1209
370
              15
390
0
  6
STYLE_12
 62
               7
100
AcDbCircle
 10
526.54722512987473
 20
-477.18962643956047
 30
0.0
 40
10.000000000003823
100
AcDbArc
 50
55.561010691182638
 51
78.799397958570751
  0
ARC
  5
187
100
AcDbEntity
  8
ADF70-1209
370
              15
390
0
  6
STYLE_12
 62
               7
100
AcDbCircle
 10
544.05313610513485
 20
-332.7877045943917
 30
0.0
 40
135.48923595081396
100
AcDbArc
 50
182.01269809174852
 51
263.40395148311018
  0
ARC
  5
188
100
AcDbEntity
  8
ADF70-1209
370
              15
390
0
  6
STYLE_12
 62
               7
100
AcDbCircle
 10
403.66835159134234
 20
-338.00251207295514
 30
0.0
 40
5.0000000000000675
100
AcDbArc
 50
5.2360077006197718
 51
89.999999999999986
  0
LINE
  5
189
100
AcDbEntity
  8
ADF70-1209
370
              15
390
0
  6
Continuous
 62
               7
100
AcDbLine
 10
385.14284072762484
 20
-333.00251207295514
 30
0.0
 11
855.15952047212113
 21
-333.00251207295514
 31
0.0
  0
ARC
  5
18A
100
AcDbEntity
  8
ADF70-1209
370
              15
390
0
  6
Continuous
 62
               7
100
AcDbCircle
 10
385.14284072762484
 20
-338.00251207295491
 30
0.0
 40
4.9999999999997726
100
AcDbArc
 50
90.0
 51
181.16938278025691
  0
ARC
  5
18B
100
AcDbEntity
  8
ADF70-1209
370
              15
390
0
  6
Continuous
 62
               7
100
AcDbCircle
 10
630.09181500815384
 20
-333.00251218139806
 30
0.0
 40
249.99999999999747
100
AcDbArc
 50
181.16938278024799
 51
229.20788921770458
  0
ARC
  5
18C
100
AcDbEntity
  8
ADF70-1209
370
              15
390
0
  6
Continuous
 62
               7
100
AcDbCircle
 10
468.72267285093358
 20
-520.00251207295241
 30
0.0
 40
3.0000000000006106
100
AcDbArc
 50
229.20788921767402
 51
269.99999999996527
  0
POLYLINE
  5
18D
100
AcDbEntity
  8
ADF70-1209
370
              15
390
0
  6
Continuous
 62
               7
100
AcDb2dPolyline
 66
               1
 10
0.0
 20
0.0
 30
0.0
 75
               5
  0
VERTEX
  5
18E
100
AcDbEntity
  8
ADF70-1209
370
              15
390
0
  6
Continuous
 62
               7
100
AcDbVertex
100
AcDb2dVertex
 10
860.14285380545289
 20
-337.98584540628735
 30
0.0
  0
VERTEX
  5
18F
100
AcDbEntity
  8
ADF70-1209
370
              15
390
0
  6
Continuous
 62
               7
100
AcDbVertex
100
AcDb2dVertex
 10
860.14285380545289
 20
-338.01122024417077
 30
0.0
  0
VERTEX
  5
190
100
AcDbEntity
  8
ADF70-1209
370
              15
390
0
  6
Continuous
 62
               7
100
AcDbVertex
100
AcDb2dVertex
 10
860.1428538054538
 20
-518.9771372350715
 30
0.0
  0
VERTEX
  5
191
100
AcDbEntity
  8
ADF70-1209
370
              15
390
0
  6
Continuous
 62
               7
100
AcDbVertex
100
AcDb2dVertex
 10
860.1428538054538
 20
-519.00251207295287
 30
0.0
  0
SEQEND
  5
192
100
AcDbEntity
  8
ADF70-1209
370
              15
390
0
  6
Continuous
 62
               7
  0
ARC
  5
193
100
AcDbEntity
  8
ADF70-1209
370
              15
390
0
  6
Continuous
 62
               7
100
AcDbCircle
 10
855.15952047212022
 20
-337.98584540628735
 30
0.0
 40
4.9833333333317569
100
AcDbArc
 50
0.0
 51
89.999999999989541
  0
ARC
  5
194
100
AcDbEntity
  8
ADF70-1209
370
              15
390
0
  6
STYLE_12
 62
               7
100
AcDbCircle
 10
734.19787660563406
 20
-336.98859165389786
 30
0.0
 40
3.9860795809427145
100
AcDbArc
 50
90.0
 51
177.47617487586956
  0
POLYLINE
  5
195
100
AcDbEntity
  8
ADF70-1209
370
              15
390
0
  6
STYLE_12
 62
               7
100
AcDb2dPolyline
 66
               1
 10
0.0
 20
0.0
 30
0.0
 75
               5
  0
VERTEX
  5
196
100
AcDbEntity
  8
ADF70-1209
370
              15
390
0
  6
STYLE_12
 62
               7
100
AcDbVertex
100
AcDb2dVertex
 10
730.21381770573453
 20
-336.85494218152303
 30
0.0
  0
VERTEX
  5
197
100
AcDbEntity
  8
ADF70-1209
370
              15
390
0
  6
STYLE_12
 62
               7
100
AcDbVertex
100
AcDb2dVertex
 10
730.21510288927266
 20
-336.8257848677913
 30
0.0
  0
VERTEX
  5
198
100
AcDbEntity
  8
ADF70-1209
370
              15
390
0
  6
STYLE_12
 62
               7
100
AcDbVertex
100
AcDb2dVertex
 10
730.21566353346179
 20
-336.81306537829937
 30
0.0
  0
SEQEND
  5
199
100
AcDbEntity
  8
ADF70-1209
370
              15
390
0
  6
STYLE_12
 62
               7
  0
ARC
  5
19A
100
AcDbEntity
  8
ADF70-1209
370
              15
390
0
  6
STYLE_12
 62
               7
100
AcDbCircle
 10
592.14371706669908
 20
-330.76914765034826
 30
0.0
 40
138.20415907471471
100
AcDbArc
 50
338.23115251053412
 51
357.47617487587775
  0
LINE
  5
19B
100
AcDbEntity
  8
ADF70-1209
370
              15
390
0
  6
STYLE_12
 62
               7
100
AcDbLine
 10
591.06154251245107
 20
-513.03588508516282
 30
0.0
 11
591.01835968199475
 21
-480.00251207295378
 31
0.0
  0
LINE
  5
19C
100
AcDbEntity
  8
ADF70-1209
370
              15
390
0
  6
STYLE_12
 62
               7
100
AcDbLine
 10
608.40747640538075
 20
-468.00251207295378
 30
0.0
 11
591.01835968199475
 21
-480.00251207295378
 31
0.0
  0
ARC
  5
19D
100
AcDbEntity
  8
ADF70-1209
370
              15
390
0
  6
STYLE_12
 62
               7
100
AcDbCircle
 10
592.5018985525644
 20
-331.81144618550707
 30
0.0
 40
137.11671610125023
100
AcDbArc
 50
276.66132318442089
 51
338.58012469668205
  0
LINE
  5
19E
100
AcDbEntity
  8
ADF70-1209
370
              15
390
0
  6
Continuous
 62
               7
100
AcDbLine
 10
530.14285380545198
 20
-383.00251207294946
 30
0.0
 11
860.14285380545289
 21
-383.00251207294946
 31
0.0
  0
LINE
  5
19F
100
AcDbEntity
  8
ADF70-1209
370
              15
390
0
  6
Continuous
 62
               7
100
AcDbLine
 10
530.14285380545198
 20
-333.00251207295514
 30
0.0
 11
530.14285380545198
 21
-383.00251207295423
 31
0.0
  0
ARC
  5
1A0
100
AcDbEntity
  8
ADF70-1209
370
               5
390
0
  6
Continuous
 62
               7
100
AcDbCircle
 10
-316.89194429057852
 20
592.919685810597
 30
0.0
 40
165.0
100
AcDbArc
 50
270.0
 51
90.0
  0
ARC
  5
1A1
100
AcDbEntity
  8
ADF70-1209
370
               5
390
0
  6
Continuous
 62
               7
100
AcDbCircle
 10
-386.89194429057852
 20
592.919685810597
 30
0.0
 40
165.0
100
AcDbArc
 50
90.0
 51
270.0
  0
LINE
  5
1A2
100
AcDbEntity
  8
ADF70-1209
370
               5
390
0
  6
Continuous
 62
               7
100
AcDbLine
 10
-386.89194429057852
 20
757.919685810597
 30
0.0
 11
-316.89194429057852
 21
757.919685810597
 31
0.0
  0
LINE
  5
1A3
100
AcDbEntity
  8
ADF70-1209
370
               5
390
0
  6
Continuous
 62
               7
100
AcDbLine
 10
-316.89194429057852
 20
427.919685810597
 30
0.0
 11
-386.89194429057852
 21
427.919685810597
 31
0.0
  0
CIRCLE
  5
1A4
100
AcDbEntity
  8
ADF70-1209
370
               5
390
0
  6
STYLE_12
 62
               7
100
AcDbCircle
 10
-351.89194429057852
 20
817.919685810597
 30
0.0
 40
17.5
  0
ENDSEC
  0
SECTION
  2
OBJECTS
  0
DICTIONARY
  5
19
100
AcDbDictionary
280
               0
281
               1
  3
ACAD_GROUP
350
1A
  3
ACAD_MLINESTYLE
350
1B
  3
ACAD_LAYOUT
350
1E
  3
ACAD_PLOTSETTINGS
350
22
  3
ACAD_PLOTSTYLENAME
350
1F
  0
DICTIONARY
  5
1A
102
{ACAD_REACTORS
330
19
102
}
100
AcDbDictionary
280
               0
281
               1
  0
DICTIONARY
  5
1B
102
{ACAD_REACTORS
330
19
102
}
100
AcDbDictionary
280
               0
281
               1
  3
Standard
350
1C
  0
MLINESTYLE
  5
1C
102
{ACAD_REACTORS
330
1B
102
}
100
AcDbMlineStyle
  2
Standard
 70
               0
  3

 62
               0
 51
90.0
 52
90.0
 71
               2
 49
0.5
 62
             256
  6
ByLayer
 49
-0.5
 62
             256
  6
ByLayer
  0
ACDBDICTIONARYWDFLT
  5
1F
102
{ACAD_REACTORS
330
19
102
}
100
AcDbDictionary
281
               1
  3
Normal
350
1D
100
AcDbDictionaryWithDefault
340
1D
  0
ACDBPLACEHOLDER
  5
1D
102
{ACAD_REACTORS
330
1F
102
}
  0
LAYOUT
  5
20
102
{ACAD_REACTORS
330
1E
102
}
100
AcDbPlotSettings
  1

  2

  4

  6

 40
0.0
 41
0.0
 42
0.0
 43
0.0
 44
0.0
 45
0.0
 46
0.0
 47
0.0
 48
0.0
 49
0.0
140
0.0
141
0.0
142
1.0
143
1.0
 70
            1024
 72
               0
 73
               0
 74
               0
  7

 75
               0
147
1.0
148
0.0
149
0.0
100
AcDbLayout
  1
Model
 70
               0
 71
               0
 10
0.0
 20
0.0
 11
0.0
 21
0.0
 12
0.0
 22
0.0
 32
0.0
 14
0.0
 24
0.0
 34
0.0
 15
0.0
 25
0.0
 35
0.0
146
0.0
 13
0.0
 23
0.0
 33
0.0
 16
0.0
 26
0.0
 36
0.0
 17
0.0
 27
0.0
 37
0.0
 76
               0
330
A
331
0
345
0
346
0
  0
LAYOUT
  5
21
102
{ACAD_REACTORS
330
1E
102
}
100
AcDbPlotSettings
  1

  2

  4

  6

 40
0.0
 41
0.0
 42
0.0
 43
0.0
 44
0.0
 45
0.0
 46
0.0
 47
0.0
 48
0.0
 49
0.0
140
0.0
141
0.0
142
1.0
143
1.0
 70
               0
 72
               0
 73
               0
 74
               0
  7

 75
               0
147
1.0
148
0.0
149
0.0
100
AcDbLayout
  1
Layout1
 70
               0
 71
               0
 10
0.0
 20
0.0
 11
0.0
 21
0.0
 12
0.0
 22
0.0
 32
0.0
 14
0.0
 24
0.0
 34
0.0
 15
0.0
 25
0.0
 35
0.0
146
0.0
 13
0.0
 23
0.0
 33
0.0
 16
0.0
 26
0.0
 36
0.0
 17
0.0
 27
0.0
 37
0.0
 76
               0
330
B
331
0
345
0
346
0
  0
DICTIONARY
  5
1E
102
{ACAD_REACTORS
330
19
102
}
100
AcDbDictionary
280
               0
281
               1
  3
Layout1
350
21
  3
Model
350
20
  0
DICTIONARY
  5
22
102
{ACAD_REACTORS
330
19
102
}
100
AcDbDictionary
280
               0
281
               1
  0
ENDSEC
  0
EOF
