  0
SECTION
  2
HEADER
  9
$ACADVER
  1
AC1015
  9
$ACADMAINTVER
 70
               6
  9
$DWGCODEPAGE
  3
ANSI_932
  9
$INSBASE
 10
0.0
 20
0.0
 30
0.0
  9
$EXTMIN
 10
1680.6313094067518
 20
2184.3566916066957
 30
-14.834305555555554
  9
$EXTMAX
 10
3630.6313094072343
 20
5021.8795067191077
 30
14.834305555555554
  9
$LIMMIN
 10
0.0
 20
0.0
  9
$LIMMAX
 10
0.0
 20
0.0
  9
$ORTHOMODE
 70
               0
  9
$REGENMODE
 70
               1
  9
$FILLMODE
 70
               1
  9
$QTEXTMODE
 70
               0
  9
$MIRRTEXT
 70
               1
  9
$LTSCALE
 40
50.799999999999997
  9
$ATTMODE
 70
               1
  9
$TEXTSIZE
 40
0.2
  9
$TRACEWID
 40
1.0
  9
$TEXTSTYLE
  7
Standard
  9
$CLAYER
  8
ADF70-1210
  9
$CELTYPE
  6
Continuous
  9
$CECOLOR
 62
             256
  9
$CELTSCALE
 40
1.0
  9
$DISPSILH
 70
               0
  9
$DIMSCALE
 40
1.0
  9
$DIMASZ
 40
31.75
  9
$DIMEXO
 40
0.0
  9
$DIMDLI
 40
6.9999999999999396
  9
$DIMRND
 40
0.0
  9
$DIMDLE
 40
0.0
  9
$DIMEXE
 40
19.999999999996199
  9
$DIMTP
 40
0.0
  9
$DIMTM
 40
0.0
  9
$DIMTXT
 40
24.432617187500004
  9
$DIMCEN
 40
0.0
  9
$DIMTSZ
 40
0.0
  9
$DIMTOL
 70
               0
  9
$DIMLIM
 70
               0
  9
$DIMTIH
 70
               0
  9
$DIMTOH
 70
               0
  9
$DIMSE1
 70
               0
  9
$DIMSE2
 70
               0
  9
$DIMTAD
 70
               1
  9
$DIMZIN
 70
              11
  9
$DIMBLK
  1
VW_FILLEDARROW
  9
$DIMASO
 70
               1
  9
$DIMSHO
 70
               1
  9
$DIMPOST
  1
<>
  9
$DIMAPOST
  1
[]
  9
$DIMALT
 70
               0
  9
$DIMALTD
 70
               1
  9
$DIMALTF
 40
1.0
  9
$DIMLFAC
 40
1.0
  9
$DIMTOFL
 70
               0
  9
$DIMTVP
 40
0.0
  9
$DIMTIX
 70
               1
  9
$DIMSOXD
 70
               0
  9
$DIMSAH
 70
               0
  9
$DIMBLK1
  1

  9
$DIMBLK2
  1

  9
$DIMSTYLE
  2
JIS
  9
$DIMCLRD
 70
               0
  9
$DIMCLRE
 70
               0
  9
$DIMCLRT
 70
               0
  9
$DIMTFAC
 40
1.0
  9
$DIMGAP
 40
1.00000000000108
  9
$DIMJUST
 70
               0
  9
$DIMSD1
 70
               0
  9
$DIMSD2
 70
               0
  9
$DIMTOLJ
 70
               1
  9
$DIMTZIN
 70
              11
  9
$DIMALTZ
 70
              11
  9
$DIMALTTZ
 70
              11
  9
$DIMUPT
 70
               0
  9
$DIMDEC
 70
               1
  9
$DIMTDEC
 70
               1
  9
$DIMALTU
 70
               2
  9
$DIMALTTD
 70
               2
  9
$DIMTXSTY
  7
ＭＳ ゴシック
  9
$DIMAUNIT
 70
               0
  9
$DIMADEC
 70
               2
  9
$DIMALTRND
 40
0.0
  9
$DIMAZIN
 70
               0
  9
$DIMDSEP
 70
              46
  9
$DIMATFIT
 70
               0
  9
$DIMFRAC
 70
               2
  9
$DIMLDRBLK
  1

  9
$DIMLUNIT
 70
               2
  9
$DIMLWD
 70
              -2
  9
$DIMLWE
 70
              -2
  9
$DIMTMOVE
 70
               0
  9
$LUNITS
 70
               2
  9
$LUPREC
 70
               4
  9
$SKETCHINC
 40
0.1
  9
$FILLETRAD
 40
0.0
  9
$AUNITS
 70
               0
  9
$AUPREC
 70
               0
  9
$MENU
  1
acad
  9
$ELEVATION
 40
0.0
  9
$PELEVATION
 40
0.0
  9
$THICKNESS
 40
0.0
  9
$LIMCHECK
 70
               0
  9
$CHAMFERA
 40
0.0
  9
$CHAMFERB
 40
0.0
  9
$CHAMFERC
 40
0.0
  9
$CHAMFERD
 40
0.0
  9
$SKPOLY
 70
               0
  9
$TDCREATE
 40
2456041.712129630
  9
$TDUCREATE
 40
0.000000000
  9
$TDUPDATE
 40
2456041.712129630
  9
$TDUUPDATE
 40
0.000000000
  9
$TDINDWG
 40
0.0000000000
  9
$TDUSRTIMER
 40
0.0000000000
  9
$USRTIMER
 70
               1
  9
$ANGBASE
 50
0.0
  9
$ANGDIR
 70
               0
  9
$PDMODE
 70
               1
  9
$PDSIZE
 40
-2.0
  9
$PLINEWID
 40
0.0
  9
$SPLFRAME
 70
               0
  9
$SPLINETYPE
 70
               6
  9
$SPLINESEGS
 70
               8
  9
$HANDSEED
  5
219
  9
$SURFTAB1
 70
               6
  9
$SURFTAB2
 70
               6
  9
$SURFTYPE
 70
               6
  9
$SURFU
 70
               6
  9
$SURFV
 70
               6
  9
$UCSBASE
  2

  9
$UCSNAME
  2

  9
$UCSORG
 10
0.0
 20
0.0
 30
0.0
  9
$UCSXDIR
 10
1.0
 20
0.0
 30
0.0
  9
$UCSYDIR
 10
0.0
 20
1.0
 30
0.0
  9
$UCSORTHOREF
  2

  9
$UCSORTHOVIEW
 70
               0
  9
$UCSORGTOP
 10
0.0
 20
0.0
 30
0.0
  9
$UCSORGBOTTOM
 10
0.0
 20
0.0
 30
0.0
  9
$UCSORGLEFT
 10
0.0
 20
0.0
 30
0.0
  9
$UCSORGRIGHT
 10
0.0
 20
0.0
 30
0.0
  9
$UCSORGFRONT
 10
0.0
 20
0.0
 30
0.0
  9
$UCSORGBACK
 10
0.0
 20
0.0
 30
0.0
  9
$PUCSBASE
  2

  9
$PUCSNAME
  2

  9
$PUCSORG
 10
0.0
 20
0.0
 30
0.0
  9
$PUCSXDIR
 10
1.0
 20
0.0
 30
0.0
  9
$PUCSYDIR
 10
0.0
 20
1.0
 30
0.0
  9
$PUCSORTHOREF
  2

  9
$PUCSORTHOVIEW
 70
               0
  9
$PUCSORGTOP
 10
0.0
 20
0.0
 30
0.0
  9
$PUCSORGBOTTOM
 10
0.0
 20
0.0
 30
0.0
  9
$PUCSORGLEFT
 10
0.0
 20
0.0
 30
0.0
  9
$PUCSORGRIGHT
 10
0.0
 20
0.0
 30
0.0
  9
$PUCSORGFRONT
 10
0.0
 20
0.0
 30
0.0
  9
$PUCSORGBACK
 10
0.0
 20
0.0
 30
0.0
  9
$USERI1
 70
               0
  9
$USERI2
 70
               0
  9
$USERI3
 70
               0
  9
$USERI4
 70
               0
  9
$USERI5
 70
               0
  9
$USERR1
 40
0.0
  9
$USERR2
 40
0.0
  9
$USERR3
 40
0.0
  9
$USERR4
 40
0.0
  9
$USERR5
 40
0.0
  9
$WORLDVIEW
 70
               1
  9
$SHADEDGE
 70
               3
  9
$SHADEDIF
 70
              70
  9
$TILEMODE
 70
               1
  9
$MAXACTVP
 70
              64
  9
$PINSBASE
 10
0.0
 20
0.0
 30
0.0
  9
$PLIMCHECK
 70
               0
  9
$PEXTMIN
 10
1.0000000000000000E+20
 20
1.0000000000000000E+20
 30
1.0000000000000000E+20
  9
$PEXTMAX
 10
-1.0000000000000000E+20
 20
-1.0000000000000000E+20
 30
-1.0000000000000000E+20
  9
$PLIMMIN
 10
0.0
 20
0.0
  9
$PLIMMAX
 10
12.0
 20
9.0
  9
$UNITMODE
 70
               0
  9
$VISRETAIN
 70
               0
  9
$PLINEGEN
 70
               1
  9
$PSLTSCALE
 70
               0
  9
$TREEDEPTH
 70
            3020
  9
$CMLSTYLE
  2
Standard
  9
$CMLJUST
 70
               0
  9
$CMLSCALE
 40
1.0
  9
$PROXYGRAPHICS
 70
               0
  9
$MEASUREMENT
 70
               1
  9
$CELWEIGHT
370
               0
  9
$ENDCAPS
280
               0
  9
$JOINSTYLE
280
               0
  9
$LWDISPLAY
290
               1
  9
$INSUNITS
 70
               4
  9
$HYPERLINKBASE
  1

  9
$STYLESHEET
  1

  9
$XEDIT
290
               1
  9
$CEPSNTYPE
380
               0
  9
$PSTYLEMODE
290
               1
  9
$FINGERPRINTGUID
  2

  9
$VERSIONGUID
  2

  9
$EXTNAMES
290
               1
  9
$PSVPSCALE
 40
0.0
  0
ENDSEC
  0
SECTION
  2
CLASSES
  0
CLASS
  1
LWPOLYLINE
  2
AcDbPolyline
  3
AutoCAD 2000
 90
        0
280
               0
281
               1
  0
CLASS
  1
IMAGE
  2
AcDbRasterImage
  3
ISM
 90
      127
280
               0
281
               1
  0
CLASS
  1
OLE2FRAME
  2
AcDbOle2Frame
  3
AutoCAD 2000
 90
        0
280
               0
281
               1
  0
CLASS
  1
HATCH
  2
AcDbHatch
  3
AutoCAD 2000
 90
        0
280
               0
281
               1
  0
CLASS
  1
DICTIONARYVAR
  2
AcDbDictionaryVar
  3
AutoCAD 2000
 90
        0
280
               0
281
               0
  0
CLASS
  1
RASTERVARIABLES
  2
AcDbRasterVariables
  3
ISM
 90
        0
280
               0
281
               0
  0
CLASS
  1
IMAGEDEF
  2
AcDbRasterImageDef
  3
ISM
 90
        0
280
               0
281
               0
  0
CLASS
  1
IMAGEDEF_REACTOR
  2
AcDbRasterImageDefReactor
  3
ISM
 90
        1
280
               0
281
               0
  0
CLASS
  1
IDBUFFER
  2
AcDbIdBuffer
  3
AutoCAD 2000
 90
        0
280
               0
281
               0
  0
CLASS
  1
SPATIAL_FILTER
  2
AcDbSpatialFilter
  3
AutoCAD 2000
 90
        0
280
               0
281
               0
  0
CLASS
  1
XRECORD
  2
AcDbXrecord
  3
AutoCAD 2000
 90
        0
280
               0
281
               0
  0
CLASS
  1
SORTENTSTABLE
  2
AcDbSortentsTable
  3
AutoCAD 2000
 90
        0
280
               0
281
               0
  0
CLASS
  1
LAYER_INDEX
  2
AcDbLayerIndex
  3
AutoCAD 2000
 90
        0
280
               0
281
               0
  0
CLASS
  1
SPATIAL_INDEX
  2
AcDbSpatialIndex
  3
AutoCAD 2000
 90
        0
280
               0
281
               0
  0
CLASS
  1
OBJECT_PTR
  2
CAseDLPNTableRecord
  3
"ASE-LPNTableRecord"
 90
        1
280
               0
281
               0
  0
CLASS
  1
LAYOUT
  2
AcDbLayout
  3
AutoCAD 2000
 90
        0
280
               0
281
               0
  0
CLASS
  1
PLOTSETTINGS
  2
AcDbPlotSettings
  3
AutoCAD 2000
 90
        0
280
               0
281
               0
  0
CLASS
  1
ACDBDICTIONARYWDFLT
  2
AcDbDictionaryWithDefault
  3
AutoCAD 2000
 90
        0
280
               0
281
               0
  0
CLASS
  1
ACDBPLACEHOLDER
  2
AcDbPlaceHolder
  3
AutoCAD 2000
 90
        0
280
               0
281
               0
  0
ENDSEC
  0
SECTION
  2
TABLES
  0
TABLE
  2
VPORT
  5
7
100
AcDbSymbolTable
 70
               1
  0
VPORT
  5
15
100
AcDbSymbolTableRecord
100
AcDbViewportTableRecord
  2
*ACTIVE
 70
               0
 10
0.0
 20
0.0
 11
1.0
 21
1.0
 12
2655.6313094069928
 22
3603.1180991629017
 13
0.0
 23
0.0
 14
1.0
 24
1.0
 15
0.0
 25
0.0
 16
0.0
 26
0.0
 36
1.0
 17
0.0
 27
0.0
 37
0.0
 40
2837.522815112412
 41
0.688564
 42
50.0
 43
0.0
 44
0.0
 50
0.0
 51
0.0
 71
               0
 72
            2000
 73
               1
 74
               1
 75
               0
 76
               0
 77
               0
 78
               0
281
               0
 65
               0
110
0.0
120
0.0
130
0.0
111
1.0
121
0.0
131
0.0
112
0.0
122
1.0
132
0.0
345
0
346
0
 79
               0
146
0.0
  0
ENDTAB
  0
TABLE
  2
LTYPE
  5
4
100
AcDbSymbolTable
 70
              15
  0
LTYPE
  5
11
100
AcDbSymbolTableRecord
100
AcDbLinetypeTableRecord
  2
ByBlock
 70
              64
  3

 72
              65
 73
               0
 40
0.0
  0
LTYPE
  5
12
100
AcDbSymbolTableRecord
100
AcDbLinetypeTableRecord
  2
ByLayer
 70
              64
  3

 72
              65
 73
               0
 40
0.0
  0
LTYPE
  5
13
100
AcDbSymbolTableRecord
100
AcDbLinetypeTableRecord
  2
Continuous
 70
              64
  3
Solid line
 72
              65
 73
               0
 40
0.0
  0
LTYPE
  5
3B
100
AcDbSymbolTableRecord
100
AcDbLinetypeTableRecord
  2
STYLE_01
 70
               0
  3

 72
              65
 73
               2
 40
0.375
 49
0.25
 74
               0
 49
-0.125
 74
               0
  0
LTYPE
  5
3C
100
AcDbSymbolTableRecord
100
AcDbLinetypeTableRecord
  2
STYLE_02
 70
               0
  3

 72
              65
 73
               4
 40
0.984251968503937
 49
0.4921259842519685
 74
               0
 49
-0.2460629921259843
 74
               0
 49
0.0004999999999999
 74
               0
 49
-0.2455629921259843
 74
               0
  0
LTYPE
  5
3D
100
AcDbSymbolTableRecord
100
AcDbLinetypeTableRecord
  2
STYLE_03
 70
               0
  3

 72
              65
 73
               2
 40
1.25
 49
1.0416400000000001
 74
               0
 49
-0.2083599999999999
 74
               0
  0
LTYPE
  5
3E
100
AcDbSymbolTableRecord
100
AcDbLinetypeTableRecord
  2
STYLE_04
 70
               0
  3

 72
              65
 73
               2
 40
1.5277099999999999
 49
1.3194249999999998
 74
               0
 49
-0.208285
 74
               0
  0
LTYPE
  5
3F
100
AcDbSymbolTableRecord
100
AcDbLinetypeTableRecord
  2
STYLE_05
 70
               0
  3

 72
              65
 73
               2
 40
0.20828
 49
0.069425
 74
               0
 49
-0.138855
 74
               0
  0
LTYPE
  5
40
100
AcDbSymbolTableRecord
100
AcDbLinetypeTableRecord
  2
STYLE_06
 70
               0
  3

 72
              65
 73
               4
 40
1.0416400000000001
 49
0.625
 74
               0
 49
-0.20828
 74
               0
 49
0.06943
 74
               0
 49
-0.13893
 74
               0
  0
LTYPE
  5
41
100
AcDbSymbolTableRecord
100
AcDbLinetypeTableRecord
  2
STYLE_07
 70
               0
  3

 72
              65
 73
               6
 40
1.875
 49
0.625
 74
               0
 49
-0.20828
 74
               0
 49
0.6250000000000001
 74
               0
 49
-0.2083599999999999
 74
               0
 49
0.06943
 74
               0
 49
-0.1389299999999999
 74
               0
  0
LTYPE
  5
42
100
AcDbSymbolTableRecord
100
AcDbLinetypeTableRecord
  2
STYLE_08
 70
               0
  3

 72
              65
 73
               6
 40
1.25
 49
0.625
 74
               0
 49
-0.20828
 74
               0
 49
0.06943
 74
               0
 49
-0.13893
 74
               0
 49
0.0694299999999999
 74
               0
 49
-0.13893
 74
               0
  0
LTYPE
  5
43
100
AcDbSymbolTableRecord
100
AcDbLinetypeTableRecord
  2
STYLE_09
 70
               0
  3

 72
              65
 73
               4
 40
5.0
 49
3.75
 74
               0
 49
-0.2777849999999998
 74
               0
 49
0.6944300000000003
 74
               0
 49
-0.2777849999999998
 74
               0
  0
LTYPE
  5
44
100
AcDbSymbolTableRecord
100
AcDbLinetypeTableRecord
  2
STYLE_10
 70
               0
  3

 72
              65
 73
               6
 40
5.9375
 49
3.75
 74
               0
 49
-0.2777849999999998
 74
               0
 49
0.6944300000000003
 74
               0
 49
-0.2777849999999998
 74
               0
 49
0.625
 74
               0
 49
-0.3125
 74
               0
  0
LTYPE
  5
45
100
AcDbSymbolTableRecord
100
AcDbLinetypeTableRecord
  2
STYLE_11
 70
               0
  3

 72
              65
 73
               2
 40
0.0694444881889764
 49
0.0347222440944882
 74
               0
 49
-0.0347222440944882
 74
               0
  0
LTYPE
  5
46
100
AcDbSymbolTableRecord
100
AcDbLinetypeTableRecord
  2
STYLE_12
 70
               0
  3

 72
              65
 73
               2
 40
0.3937007874015748
 49
0.1968503937007874
 74
               0
 49
-0.1968503937007874
 74
               0
  0
ENDTAB
  0
TABLE
  2
LAYER
  5
2
100
AcDbSymbolTable
 70
               5
  0
LAYER
  5
14
100
AcDbSymbolTableRecord
100
AcDbLayerTableRecord
  2
0
 70
               0
 62
               7
  6
Continuous
290
               1
370
              -3
390
1D
  0
LAYER
  5
47
100
AcDbSymbolTableRecord
100
AcDbLayerTableRecord
  2
Defpoints
 70
               0
 62
               7
  6
Continuous
290
               0
370
              -3
390
1D
  0
LAYER
  5
48
100
AcDbSymbolTableRecord
100
AcDbLayerTableRecord
  2
template
 70
               0
 62
               7
  6
Continuous
290
               1
370
              -3
390
1D
  0
LAYER
  5
49
100
AcDbSymbolTableRecord
100
AcDbLayerTableRecord
  2
info
 70
               0
 62
               7
  6
Continuous
290
               1
370
              -3
390
1D
  0
LAYER
  5
4A
100
AcDbSymbolTableRecord
100
AcDbLayerTableRecord
  2
ADF70-1210
 70
               0
 62
               7
  6
Continuous
290
               1
370
              -3
390
1D
  0
ENDTAB
  0
TABLE
  2
STYLE
  5
3
100
AcDbSymbolTable
 70
               2
  0
STYLE
  5
17
100
AcDbSymbolTableRecord
100
AcDbTextStyleTableRecord
  2
Standard
 70
               0
 40
0.0
 41
1.0
 50
0.0
 71
               0
 42
0.0
  3
txt
  4
BIGFONT.SHX
  0
STYLE
  5
3A
100
AcDbSymbolTableRecord
100
AcDbTextStyleTableRecord
  2
ＭＳ ゴシック
 70
               0
 40
0.0
 41
1.0
 50
0.0
 71
               0
 42
0.0
  3

  4
ＭＳ ゴシック
1001
ACAD
1000
ＭＳ ゴシック
1071
        0
  0
ENDTAB
  0
TABLE
  2
VIEW
  5
5
100
AcDbSymbolTable
 70
               0
  0
ENDTAB
  0
TABLE
  2
UCS
  5
6
100
AcDbSymbolTable
 70
               0
  0
ENDTAB
  0
TABLE
  2
APPID
  5
8
100
AcDbSymbolTable
 70
               1
  0
APPID
  5
16
100
AcDbSymbolTableRecord
100
AcDbRegAppTableRecord
  2
ACAD
 70
               0
  0
ENDTAB
  0
TABLE
  2
DIMSTYLE
  5
9
100
AcDbSymbolTable
 70
               3
100
AcDbDimStyleTable
 71
               0
  0
DIMSTYLE
105
18
100
AcDbSymbolTableRecord
100
AcDbDimStyleTableRecord
  2
Standard
 70
               0
  3

  4

 40
1.0
 41
0.18
 42
0.0625
 43
0.38
 44
0.18
 45
0.0
 46
0.0
 47
0.0
 48
0.0
 71
               0
 72
               0
 73
               1
 74
               1
 75
               0
 76
               0
 77
               0
 78
               0
 79
               0
140
0.18
141
0.09
142
0.0
143
25.399999999999999
144
1.0
145
0.0
146
1.0
147
0.09
148
0.0
170
               0
171
               2
172
               0
173
               0
174
               0
175
               0
176
               0
177
               0
178
               0
179
               0
271
               4
272
               4
273
               2
274
               2
275
               0
276
               0
277
               2
278
              46
279
               0
280
               0
281
               0
282
               0
283
               1
284
               0
285
               0
286
               0
288
               0
289
               3
340
17
341
0
342
0
343
0
344
0
371
              -2
372
              -2
  0
DIMSTYLE
105
53
100
AcDbSymbolTableRecord
100
AcDbDimStyleTableRecord
  2
tform線あり
 70
               0
  3
<>
  4
[]
 40
1.0
 41
9.9993896484374982
 42
24.999999999999996
 43
0.9999999999999999
 44
0.0
 45
0.0
 46
0.0
 47
0.0
 48
0.0
 71
               0
 72
               0
 73
               0
 74
               0
 75
               0
 76
               0
 77
               1
 78
              11
 79
               0
140
24.432617187500004
141
0.0
142
0.0
143
1.0
144
1.0
145
0.0
146
1.0
147
0.4999999999999999
148
0.0
170
               0
171
               1
172
               0
173
               0
174
               1
175
               0
176
               0
177
               0
178
               0
179
               2
271
               1
272
               1
273
               2
274
               2
275
               0
276
               2
277
               2
278
              46
279
               0
280
               0
281
               0
282
               0
283
               1
284
              11
285
              11
286
              11
288
               0
289
               0
340
3A
341
4B
342
4B
343
0
344
0
371
              -2
372
              -2
  0
DIMSTYLE
105
58
100
AcDbSymbolTableRecord
100
AcDbDimStyleTableRecord
  2
JIS
 70
               0
  3
<>
  4
[]
 40
1.0
 41
31.75
 42
0.0
 43
6.9999999999999396
 44
19.999999999996199
 45
0.0
 46
0.0
 47
0.0
 48
0.0
 71
               0
 72
               0
 73
               0
 74
               0
 75
               0
 76
               0
 77
               1
 78
              11
 79
               0
140
24.432617187500004
141
0.0
142
0.0
143
1.0
144
1.0
145
0.0
146
1.0
147
1.00000000000108
148
0.0
170
               0
171
               1
172
               0
173
               0
174
               1
175
               0
176
               0
177
               0
178
               0
179
               2
271
               1
272
               1
273
               2
274
               2
275
               0
276
               2
277
               2
278
              46
279
               0
280
               0
281
               0
282
               0
283
               1
284
              11
285
              11
286
              11
288
               0
289
               0
340
3A
341
54
342
54
343
0
344
0
371
              -2
372
              -2
  0
ENDTAB
  0
TABLE
  2
BLOCK_RECORD
  5
1
100
AcDbSymbolTable
 70
              25
  0
BLOCK_RECORD
  5
A
100
AcDbSymbolTableRecord
100
AcDbBlockTableRecord
  2
*MODEL_SPACE
340
20
  0
BLOCK_RECORD
  5
B
100
AcDbSymbolTableRecord
100
AcDbBlockTableRecord
  2
*PAPER_SPACE
340
21
  0
BLOCK_RECORD
  5
4B
100
AcDbSymbolTableRecord
100
AcDbBlockTableRecord
  2
_DOT
340
0
  0
BLOCK_RECORD
  5
54
100
AcDbSymbolTableRecord
100
AcDbBlockTableRecord
  2
VW_FILLEDARROW
340
0
  0
BLOCK_RECORD
  5
23
100
AcDbSymbolTableRecord
100
AcDbBlockTableRecord
  2
グループ
340
0
102
{BLKREFS
331
189
102
}
  0
BLOCK_RECORD
  5
24
100
AcDbSymbolTableRecord
100
AcDbBlockTableRecord
  2
*D3
340
0
  0
BLOCK_RECORD
  5
25
100
AcDbSymbolTableRecord
100
AcDbBlockTableRecord
  2
*D4
340
0
  0
BLOCK_RECORD
  5
26
100
AcDbSymbolTableRecord
100
AcDbBlockTableRecord
  2
*D5
340
0
  0
BLOCK_RECORD
  5
27
100
AcDbSymbolTableRecord
100
AcDbBlockTableRecord
  2
*D6
340
0
  0
BLOCK_RECORD
  5
28
100
AcDbSymbolTableRecord
100
AcDbBlockTableRecord
  2
*D7
340
0
  0
BLOCK_RECORD
  5
29
100
AcDbSymbolTableRecord
100
AcDbBlockTableRecord
  2
*D8
340
0
  0
BLOCK_RECORD
  5
2A
100
AcDbSymbolTableRecord
100
AcDbBlockTableRecord
  2
*D9
340
0
  0
BLOCK_RECORD
  5
2B
100
AcDbSymbolTableRecord
100
AcDbBlockTableRecord
  2
*D10
340
0
  0
BLOCK_RECORD
  5
2C
100
AcDbSymbolTableRecord
100
AcDbBlockTableRecord
  2
*D11
340
0
  0
BLOCK_RECORD
  5
2D
100
AcDbSymbolTableRecord
100
AcDbBlockTableRecord
  2
*D12
340
0
  0
BLOCK_RECORD
  5
2E
100
AcDbSymbolTableRecord
100
AcDbBlockTableRecord
  2
*D13
340
0
  0
BLOCK_RECORD
  5
2F
100
AcDbSymbolTableRecord
100
AcDbBlockTableRecord
  2
*D14
340
0
  0
BLOCK_RECORD
  5
30
100
AcDbSymbolTableRecord
100
AcDbBlockTableRecord
  2
*D15
340
0
  0
BLOCK_RECORD
  5
31
100
AcDbSymbolTableRecord
100
AcDbBlockTableRecord
  2
*D16
340
0
  0
BLOCK_RECORD
  5
32
100
AcDbSymbolTableRecord
100
AcDbBlockTableRecord
  2
*D17
340
0
  0
BLOCK_RECORD
  5
33
100
AcDbSymbolTableRecord
100
AcDbBlockTableRecord
  2
*D18
340
0
  0
BLOCK_RECORD
  5
34
100
AcDbSymbolTableRecord
100
AcDbBlockTableRecord
  2
*D19
340
0
  0
BLOCK_RECORD
  5
35
100
AcDbSymbolTableRecord
100
AcDbBlockTableRecord
  2
*D20
340
0
  0
BLOCK_RECORD
  5
36
100
AcDbSymbolTableRecord
100
AcDbBlockTableRecord
  2
*D21
340
0
  0
BLOCK_RECORD
  5
37
100
AcDbSymbolTableRecord
100
AcDbBlockTableRecord
  2
*D22
340
0
  0
BLOCK_RECORD
  5
38
100
AcDbSymbolTableRecord
100
AcDbBlockTableRecord
  2
*D23
340
0
  0
BLOCK_RECORD
  5
39
100
AcDbSymbolTableRecord
100
AcDbBlockTableRecord
  2
*D24
340
0
  0
ENDTAB
  0
ENDSEC
  0
SECTION
  2
BLOCKS
  0
BLOCK
  5
D
100
AcDbEntity
  8
0
390
0
100
AcDbBlockBegin
  2
*MODEL_SPACE
 70
               0
 10
0.0
 20
0.0
 30
0.0
  3
*MODEL_SPACE
  1

  0
ENDBLK
  5
E
100
AcDbEntity
  8
0
390
0
100
AcDbBlockEnd
  0
BLOCK
  5
F
100
AcDbEntity
 67
               1
  8
0
390
0
100
AcDbBlockBegin
  2
*PAPER_SPACE
 70
               0
 10
0.0
 20
0.0
 30
0.0
  3
*PAPER_SPACE
  1

  0
ENDBLK
  5
10
100
AcDbEntity
 67
               1
  8
0
390
0
100
AcDbBlockEnd
  0
BLOCK
  5
4C
100
AcDbEntity
  8
0
390
0
100
AcDbBlockBegin
  2
_DOT
 70
               0
 10
0.0
 20
0.0
 30
0.0
  3
_DOT
  1

  0
POLYLINE
  5
4D
100
AcDbEntity
  8
0
370
              -2
390
0
  6
ByBlock
 62
               0
100
AcDb2dPolyline
 66
               1
 10
0.0
 20
0.0
 30
0.0
 70
               1
 40
0.5
 41
0.5
  0
VERTEX
  5
4E
100
AcDbEntity
  8
0
370
              -2
390
0
  6
ByBlock
 62
               0
100
AcDbVertex
100
AcDb2dVertex
 10
-0.25
 20
0.0
 30
0.0
 42
1.0
  0
VERTEX
  5
4F
100
AcDbEntity
  8
0
370
              -2
390
0
  6
ByBlock
 62
               0
100
AcDbVertex
100
AcDb2dVertex
 10
0.25
 20
0.0
 30
0.0
 42
1.0
  0
SEQEND
  5
50
100
AcDbEntity
  8
0
390
0
  0
LINE
  5
51
100
AcDbEntity
  8
0
370
              -2
390
0
  6
ByBlock
 62
               0
100
AcDbLine
 10
-0.5
 20
0.0
 30
0.0
 11
-1.0
 21
0.0
 31
0.0
  0
ENDBLK
  5
52
100
AcDbEntity
  8
0
390
0
100
AcDbBlockEnd
  0
BLOCK
  5
55
100
AcDbEntity
  8
0
370
              -2
390
0
  6
ByBlock
 62
               0
100
AcDbBlockBegin
  2
VW_FILLEDARROW
 70
               0
 10
0.0
 20
0.0
 30
0.0
  3
VW_FILLEDARROW
  1

  0
SOLID
  5
56
100
AcDbEntity
  8
0
370
              -2
390
0
 62
               0
100
AcDbTrace
 10
0.0
 20
0.0
 30
0.0
 11
-0.9921874999999999
 21
-0.2658558393652545
 31
0.0
 12
-0.9921874999999999
 22
0.2658558393652548
 32
0.0
 13
-0.9921874999999999
 23
0.2658558393652548
 33
0.0
  0
ENDBLK
  5
57
100
AcDbEntity
  8
0
390
0
100
AcDbBlockEnd
  0
BLOCK
  5
59
100
AcDbEntity
  8
template
390
0
100
AcDbBlockBegin
  2
グループ
 70
               0
 10
0.0
 20
0.0
 30
0.0
  3
グループ
  1

  0
LWPOLYLINE
  5
5A
100
AcDbEntity
  8
0
370
              15
390
0
  6
Continuous
 62
               7
100
AcDbPolyline
 90
        8
 70
             129
 10
882.57811268338185
 20
-1331.9644755842828
 10
882.57811268338185
 20
-1337.9618642778587
 10
873.07691576537843
 20
-1337.9618642778587
 10
873.07691576537843
 20
-1362.4128275413673
 10
864.72153850359575
 20
-1362.4128275413673
 10
864.72153850359575
 20
-1337.9618642778587
 10
855.38858155728633
 20
-1337.9618642778587
 10
855.38858155728633
 20
-1331.9644755842828
  0
LWPOLYLINE
  5
5B
100
AcDbEntity
  8
0
370
              15
390
0
  6
Continuous
 62
               7
100
AcDbPolyline
 90
      101
 70
             128
 10
895.3064045139389
 20
-1332.6927240772193
 10
895.32175454272488
 20
-1332.6883633205339
 42
-0.022222160781218
 10
895.61175911939495
 20
-1332.6197388552896
 10
895.62755288338872
 20
-1332.6167354321926
 42
-0.0146883565586636
 10
895.89025558861272
 20
-1332.5747322452432
 42
-0.01274588441877
 10
896.15489455576096
 20
-1332.5471952771711
 10
896.21734963407846
 20
-1332.5423018545825
 42
-0.0198099018566013
 10
896.6081987435515
 20
-1332.5272166971858
 10
896.66001021299917
 20
-1332.5272704728509
 42
-0.0147617382763524
 10
897.15463367397217
 20
-1332.5423904980955
 10
897.22732512885568
 20
-1332.5467631049837
 42
-0.0162624548998885
 10
897.61747875831281
 20
-1332.5829959802556
 10
897.73901114955925
 20
-1332.5982825392505
 42
-0.0080020874670101
 10
897.88459018066362
 20
-1332.6189653865206
 10
897.92290965126119
 20
-1332.6250366643321
 42
-0.0053821929680019
 10
897.9913937565733
 20
-1332.6366441881532
 10
897.26498805737481
 20
-1334.8175726438672
 42
0.0108667757405587
 10
897.19767098724151
 20
-1334.8043855286469
 10
897.16020296405452
 20
-1334.7978877860528
 42
0.0170663203309828
 10
897.01698617713646
 20
-1334.7780581887607
 10
896.94911084445596
 20
-1334.7710110181736
 42
0.0220162375276809
 10
896.66873143659905
 20
-1334.7543286574034
 10
896.5908758695515
 20
-1334.7531292901369
 42
0.028260691578406
 10
896.25523954597065
 20
-1334.7669325671061
 10
896.21132627219799
 20
-1334.7712325571099
 42
0.016967721368524
 10
895.96540177723932
 20
-1334.8037696066617
 42
0.0190576269870946
 10
895.72249381465724
 20
-1334.8539164787685
 10
895.7162346265485
 20
-1334.8554594528773
 42
0.0213685642850039
 10
895.46585014206926
 20
-1334.9286597379828
 10
895.46036024715465
 20
-1334.9305227340412
 42
0.0237595297592293
 10
895.20686536225458
 20
-1335.0302072559375
 10
895.20176328822629
 20
-1335.032499031415
 42
0.026185746881705
 10
894.94959251199782
 20
-1335.1620353687886
 10
894.9391663229095
 20
-1335.1681008432579
 42
0.0272553062019081
 10
894.70273654767072
 20
-1335.3234730492022
 10
894.66797353416143
 20
-1335.3491341972942
 42
0.0325996893178132
 10
894.51781819050973
 20
-1335.4758820702657
 10
894.4941087613812
 20
-1335.4987000987837
 42
0.013805096064593
 10
894.40222560517657
 20
-1335.5921497603304
 42
0.012528010378912
 10
894.31538307235007
 20
-1335.6903130869221
 10
894.29170262743469
 20
-1335.7184715851179
 42
0.0205218024741447
 10
894.16660255191982
 20
-1335.8802648993485
 10
894.14413621143387
 20
-1335.9119246291739
 42
0.0163110129583178
 10
893.98842583218254
 20
-1336.1472550642438
 10
893.98570193613159
 20
-1336.1516788262293
 42
0.0131897341893124
 10
893.83890141522704
 20
-1336.404810918591
 10
893.83720131985922
 20
-1336.4079291577293
 42
0.0107895576065334
 10
893.69942461764856
 20
-1336.6741443673643
 10
893.69869172812344
 20
-1336.6756386000109
 42
0.0091371507215585
 10
893.57021177947524
 20
-1336.9501637977676
 10
893.54046614806475
 20
-1337.0168703049294
 42
0.0135418326355001
 10
893.36875220899105
 20
-1337.4318080902033
 10
893.33514740055944
 20
-1337.5196742324777
 42
0.0092834542409623
 10
893.16391834063779
 20
-1337.9935727307848
 10
893.13830121291937
 20
-1338.0688138005803
 42
0.0054261043583039
 10
893.03066306462722
 20
-1338.3965777736432
 10
893.0131370784452
 20
-1338.4519659358875
 42
0.0008225090805626
 10
892.94446702661969
 20
-1338.6702346940224
 10
891.95977789468623
 20
-1341.695125987279
 10
895.19240173476021
 20
-1341.695125987279
 10
894.68820930490676
 20
-1343.5996042856314
 10
891.43215302292344
 20
-1343.5996042856314
 10
885.60300399056962
 20
-1362.4128273516362
 10
883.77790638025942
 20
-1362.4128273516362
 10
889.61258441576035
 20
-1343.5996042856314
 10
887.20746804671978
 20
-1343.5996042856314
 10
887.71166047657323
 20
-1341.695125987279
 10
890.14020928752336
 20
-1341.695125987279
 10
891.00036420571212
 20
-1339.0587129865803
 42
-0.0005863560661386
 10
891.03709888391109
 20
-1338.9418865663029
 10
891.1131867175759
 20
-1338.7008942669031
 42
-0.0087522378925892
 10
891.31265486103325
 20
-1338.1056181797553
 10
891.40491913644405
 20
-1337.8454780112497
 42
-0.0077400953830222
 10
891.66285279557735
 20
-1337.1524733336953
 10
891.6786177671537
 20
-1337.1120424503158
 42
-0.0082369946332287
 10
891.92570223776818
 20
-1336.5079633841135
 42
-0.0085725238363784
 10
892.19294833377228
 20
-1335.9125373448239
 10
892.29457793477718
 20
-1335.6961162428443
 42
-0.0168109410598011
 10
892.5815223635085
 20
-1335.1349087167371
 10
892.70736575395051
 20
-1334.9079446837704
 42
-0.0007817726866281
 10
892.76165010402417
 20
-1334.8104004387085
 10
892.76177841005278
 20
-1334.8101707299518
 42
-0.0036626142157067
 10
892.81666627406264
 20
-1334.7135728500034
 42
-0.0080221150675215
 10
892.87379052946517
 20
-1334.6182936152572
 10
892.90449048083053
 20
-1334.5689026661285
 42
-0.0202139325577271
 10
893.03214622063706
 20
-1334.3809210654474
 10
893.08621368582487
 20
-1334.3078422012063
 42
-0.0249323791800375
 10
893.34537647954187
 20
-1333.9917969590542
 10
893.36951629367104
 20
-1333.9651826861393
 42
-0.0242132121540969
 10
893.70919703521406
 20
-1333.6252991999345
 10
893.75710860796494
 20
-1333.581790063748
 42
-0.0251017527857238
 10
894.04109030860445
 20
-1333.3487973179845
 10
894.04253578541363
 20
-1333.3477280604088
 42
-0.0130868069042354
 10
894.34079643537552
 20
-1333.1389475918629
 10
894.34235825451913
 20
-1333.1379141515872
 42
-0.0290329526392386
 10
894.65346939591154
 20
-1332.9570886499587
 10
894.68331495789994
 20
-1332.941986267118
 42
-0.0160250190044953
 10
894.94921937166225
 20
-1332.8179701569059
 42
-0.0267600374785534
 10
895.22449544912911
 20
-1332.7172218363578
 10
895.25123136865193
 20
-1332.7090292775315
 42
-0.00499815876892
 10
895.3064045139389
 20
-1332.6927240772193
 42
-0.00499815876892
  0
LWPOLYLINE
  5
5C
100
AcDbEntity
  8
0
370
              15
390
0
  6
Continuous
 62
               7
100
AcDbPolyline
 90
      118
 70
             128
 10
915.12077207838581
 20
-1341.7691093151066
 10
916.99589400288517
 20
-1341.7691093151066
 10
916.15785509728528
 20
-1344.4506758415064
 42
-0.0010587229233837
 10
916.18931091283196
 20
-1344.4137713081805
 10
916.2475050034891
 20
-1344.3457890519755
 42
-0.0071874740405051
 10
916.39788022158052
 20
-1344.1751483599537
 10
916.53960299484947
 20
-1344.0189122186332
 42
-0.0148118053516733
 10
916.98973228755722
 20
-1343.5512983726251
 10
917.07695462247011
 20
-1343.4659010517607
 42
-0.0086273358691986
 10
917.41250342347234
 20
-1343.1485254177503
 10
917.45633713970335
 20
-1343.1084757734125
 42
-0.0103138323111438
 10
917.71436084193181
 20
-1342.882312636079
 10
917.76013524825089
 20
-1342.8438305888255
 42
-0.0060206748565415
 10
917.93298331237122
 20
-1342.7020359380642
 10
917.93501444325136
 20
-1342.7004102324377
 42
-0.0067069027300164
 10
918.10730725791962
 20
-1342.566259598638
 10
918.10985602384801
 20
-1342.5643294287609
 42
-0.0076184352043239
 10
918.28076128971691
 20
-1342.4389545535189
 42
-0.0089652861675396
 10
918.4557222524553
 20
-1342.3193212931837
 10
918.49207397259386
 20
-1342.2954100797049
 42
-0.0156916245933477
 10
918.68803346975642
 20
-1342.175147593229
 42
-0.0023299011067221
 10
918.88829551373408
 20
-1342.0619696536892
 10
918.90367964611607
 20
-1342.0533696586233
 42
-0.0107669341486839
 10
919.137916471219
 20
-1341.928969525273
 10
919.16018127229233
 20
-1341.9177527753238
 42
-0.0078058045896726
 10
919.44377139024721
 20
-1341.7803913196844
 10
919.45367847795421
 20
-1341.7757821918169
 42
-0.0181829330473107
 10
919.7639878825695
 20
-1341.6449184507214
 10
919.81804332513082
 20
-1341.6244033307798
 42
-0.0208411536034301
 10
920.16712829258688
 20
-1341.5083128682847
 10
920.18148439271602
 20
-1341.5041944233308
 42
-0.0222799817133435
 10
920.51020418663165
 20
-1341.425552857191
 10
920.51909314986892
 20
-1341.4238408466058
 42
-0.021550952388689
 10
920.83556411814834
 20
-1341.3769251580716
 10
920.87804607919838
 20
-1341.3724876312806
 42
-0.0182545924868421
 10
921.11215485850255
 20
-1341.3566438058899
 10
921.1515558748489
 20
-1341.3554192608108
 42
-0.0072962856534324
 10
921.3074787545396
 20
-1341.3528499322886
 10
921.33657842511445
 20
-1341.3527950968848
 42
-0.005922751630779
 10
921.43432792425654
 20
-1341.3537688086751
 10
921.46357014172145
 20
-1341.3544065752781
 42
-0.0011833111898277
 10
921.50282142546087
 20
-1341.3553555795884
 10
920.7074348298537
 20
-1343.8940895246874
 42
0.0143932051506986
 10
920.68103344750409
 20
-1343.8838905546427
 10
920.67376147508583
 20
-1343.8813193357848
 42
0.0234388603535734
 10
920.6319306091541
 20
-1343.8687001000696
 10
920.62324894624101
 20
-1343.8665191380644
 42
0.0199162743002743
 10
920.56296011215534
 20
-1343.8539024027284
 10
920.5421461743548
 20
-1343.8504052033009
 42
0.0293643550671698
 10
920.43907131559638
 20
-1343.8392551576478
 10
920.41438613487537
 20
-1343.8380435406291
 42
0.021460668686946
 10
920.26124521892655
 20
-1343.8371049802117
 10
920.2518733081049
 20
-1343.837449891756
 42
0.016756405417537
 10
920.08035311699132
 20
-1343.8495269341245
 10
920.07189332423741
 20
-1343.8504082745512
 42
0.0137677553245411
 10
919.88454001097102
 20
-1343.8751575830947
 10
919.87718827146489
 20
-1343.8763355030626
 42
0.0118497261482834
 10
919.67669050736117
 20
-1343.913352853252
 10
919.67054050011632
 20
-1343.9146397159718
 42
0.0106421143888452
 10
919.45965961283457
 20
-1343.9634720915458
 10
919.45475080444214
 20
-1343.9647194342317
 42
0.0099746379705096
 10
919.23629233527743
 20
-1344.0248939625471
 10
919.17474429510946
 20
-1344.0431758411771
 42
0.0191613675863791
 10
918.83875983259327
 20
-1344.1571532214646
 10
918.75070005984844
 20
-1344.1908401317883
 42
0.0205274080141182
 10
918.36539328794788
 20
-1344.3566685396149
 10
918.30774400596397
 20
-1344.3843365041882
 42
0.0181256912197356
 10
918.04946706529881
 20
-1344.520020323165
 10
917.9965116819908
 20
-1344.5503379363763
 42
0.0140709242401836
 10
917.85155674735654
 20
-1344.638832609814
 10
917.82530787874066
 20
-1344.6558894285279
 42
0.008666788440028
 10
917.73638171719551
 20
-1344.7158920964123
 42
0.0036408192030185
 10
917.64894847915139
 20
-1344.7780729542123
 10
917.61372160469352
 20
-1344.8035139001174
 42
0.0052260781279027
 10
917.45749290730168
 20
-1344.9188462867523
 10
917.44128605104288
 20
-1344.9310743973699
 42
0.0050024435887024
 10
917.25528270799077
 20
-1345.0743569656267
 10
917.2399645514688
 20
-1345.0864029880779
 42
0.0136138710284447
 10
917.02952328314564
 20
-1345.2613694929894
 10
916.99585540734995
 20
-1345.2909484657055
 42
0.0172815186914275
 10
916.73145186568513
 20
-1345.5399451383312
 10
916.72888951984487
 20
-1345.542530955476
 42
0.0189403857990589
 10
916.47830772126781
 20
-1345.8153362202777
 10
916.44567622772774
 20
-1345.8536801517796
 42
0.0185044199509507
 10
916.25371978874966
 20
-1346.0969287329003
 42
0.0088565243899664
 10
916.07525968211974
 20
-1346.3504451530528
 10
916.06608170247273
 20
-1346.3639865328105
 42
0.0157195347232027
 10
915.88286109613853
 20
-1346.6535087421262
 10
915.83677815420913
 20
-1346.7316609391446
 42
0.0095451879782084
 10
915.67169260407013
 20
-1347.0242555815034
 10
915.66054468513823
 20
-1347.0449262536397
 42
0.0100351706254621
 10
915.52850093598113
 20
-1347.3019818141263
 42
0.0086935915418506
 10
915.40616978418734
 20
-1347.56381495953
 10
915.40284904277257
 20
-1347.5712572825025
 42
0.0072580174867587
 10
915.28250259082756
 20
-1347.8518492740857
 10
915.27924095752132
 20
-1347.8597693001034
 42
0.0060005122618415
 10
915.16004028917837
 20
-1348.1593789707097
 10
915.15682931083711
 20
-1348.1677404986133
 42
0.0049017786981149
 10
915.0379291519763
 20
-1348.4866694792267
 10
915.03476334558923
 20
-1348.495422416448
 42
0.0039415167600452
 10
914.91532706753537
 20
-1348.833964478853
 10
914.91219596488031
 20
-1348.8430676797373
 42
0.0031035838761186
 10
914.79139117919567
 20
-1349.2015075414854
 10
914.78828113465681
 20
-1349.2109281628857
 42
0.0025070747153345
 10
914.66537978333884
 20
-1349.5895753798379
 10
914.6280858869161
 20
-1349.7064670450827
 42
0.0029081910281017
 10
914.436067589103
 20
-1350.3206307033813
 10
914.39526442058832
 20
-1350.4538539456503
 42
0.0009266453730843
 10
914.12684704631113
 20
-1351.3360784054498
 10
914.10595957360044
 20
-1351.4051902849174
 42
-0.0005809993664516
 10
913.82862289304182
 20
-1352.3189983914485
 10
913.76234109477775
 20
-1352.5364833235792
 42
-0.0012018708165261
 10
913.6153567853396
 20
-1353.0146459881289
 10
913.5630369339334
 20
-1353.1834051284809
 42
-0.000269105961748
 10
913.51946745260545
 20
-1353.3236727493368
 10
910.68651155431633
 20
-1362.4128273516362
 10
908.8685226623378
 20
-1362.4128273516362
 10
915.12077207838581
 20
-1341.7691093151066
  0
SPLINE
  5
5D
100
AcDbEntity
  8
0
370
              15
390
0
  6
Continuous
 62
               7
100
AcDbSpline
210
0.0
220
0.0
230
1.0
 70
              13
 71
               2
 72
             782
 73
             779
 74
               0
 42
0.000001
 43
0.000001
 40
0.0
 40
0.0
 40
0.0
 40
1.0
 40
1.0
 40
2.0
 40
2.0
 40
3.0
 40
3.0
 40
4.0
 40
4.0
 40
5.0
 40
5.0
 40
6.0
 40
6.0
 40
7.0
 40
7.0
 40
8.0
 40
8.0
 40
9.0
 40
9.0
 40
10.0
 40
10.0
 40
11.0
 40
11.0
 40
12.0
 40
12.0
 40
13.0
 40
13.0
 40
14.0
 40
14.0
 40
15.0
 40
15.0
 40
16.0
 40
16.0
 40
17.0
 40
17.0
 40
18.0
 40
18.0
 40
19.0
 40
19.0
 40
20.0
 40
20.0
 40
21.0
 40
21.0
 40
22.0
 40
22.0
 40
23.0
 40
23.0
 40
24.0
 40
24.0
 40
25.0
 40
25.0
 40
26.0
 40
26.0
 40
27.0
 40
27.0
 40
28.0
 40
28.0
 40
29.0
 40
29.0
 40
30.0
 40
30.0
 40
31.0
 40
31.0
 40
32.0
 40
32.0
 40
33.0
 40
33.0
 40
34.0
 40
34.0
 40
35.0
 40
35.0
 40
36.0
 40
36.0
 40
37.0
 40
37.0
 40
38.0
 40
38.0
 40
39.0
 40
39.0
 40
40.0
 40
40.0
 40
41.0
 40
41.0
 40
42.0
 40
42.0
 40
43.0
 40
43.0
 40
44.0
 40
44.0
 40
45.0
 40
45.0
 40
46.0
 40
46.0
 40
47.0
 40
47.0
 40
48.0
 40
48.0
 40
49.0
 40
49.0
 40
50.0
 40
50.0
 40
51.0
 40
51.0
 40
52.0
 40
52.0
 40
53.0
 40
53.0
 40
54.0
 40
54.0
 40
55.0
 40
55.0
 40
56.0
 40
56.0
 40
57.0
 40
57.0
 40
58.0
 40
58.0
 40
59.0
 40
59.0
 40
60.0
 40
60.0
 40
61.0
 40
61.0
 40
62.0
 40
62.0
 40
63.0
 40
63.0
 40
64.0
 40
64.0
 40
65.0
 40
65.0
 40
66.0
 40
66.0
 40
67.0
 40
67.0
 40
68.0
 40
68.0
 40
69.0
 40
69.0
 40
70.0
 40
70.0
 40
71.0
 40
71.0
 40
72.0
 40
72.0
 40
73.0
 40
73.0
 40
74.0
 40
74.0
 40
75.0
 40
75.0
 40
76.0
 40
76.0
 40
77.0
 40
77.0
 40
78.0
 40
78.0
 40
79.0
 40
79.0
 40
80.0
 40
80.0
 40
81.0
 40
81.0
 40
82.0
 40
82.0
 40
83.0
 40
83.0
 40
84.0
 40
84.0
 40
85.0
 40
85.0
 40
86.0
 40
86.0
 40
87.0
 40
87.0
 40
88.0
 40
88.0
 40
89.0
 40
89.0
 40
90.0
 40
90.0
 40
91.0
 40
91.0
 40
92.0
 40
92.0
 40
93.0
 40
93.0
 40
94.0
 40
94.0
 40
95.0
 40
95.0
 40
96.0
 40
96.0
 40
97.0
 40
97.0
 40
98.0
 40
98.0
 40
99.0
 40
99.0
 40
100.0
 40
100.0
 40
101.0
 40
101.0
 40
102.0
 40
102.0
 40
103.0
 40
103.0
 40
104.0
 40
104.0
 40
105.0
 40
105.0
 40
106.0
 40
106.0
 40
107.0
 40
107.0
 40
108.0
 40
108.0
 40
109.0
 40
109.0
 40
110.0
 40
110.0
 40
111.0
 40
111.0
 40
112.0
 40
112.0
 40
113.0
 40
113.0
 40
114.0
 40
114.0
 40
115.0
 40
115.0
 40
116.0
 40
116.0
 40
117.0
 40
117.0
 40
118.0
 40
118.0
 40
119.0
 40
119.0
 40
120.0
 40
120.0
 40
121.0
 40
121.0
 40
122.0
 40
122.0
 40
123.0
 40
123.0
 40
124.0
 40
124.0
 40
125.0
 40
125.0
 40
126.0
 40
126.0
 40
127.0
 40
127.0
 40
128.0
 40
128.0
 40
129.0
 40
129.0
 40
130.0
 40
130.0
 40
131.0
 40
131.0
 40
132.0
 40
132.0
 40
133.0
 40
133.0
 40
134.0
 40
134.0
 40
135.0
 40
135.0
 40
136.0
 40
136.0
 40
137.0
 40
137.0
 40
138.0
 40
138.0
 40
139.0
 40
139.0
 40
140.0
 40
140.0
 40
141.0
 40
141.0
 40
142.0
 40
142.0
 40
143.0
 40
143.0
 40
144.0
 40
144.0
 40
145.0
 40
145.0
 40
146.0
 40
146.0
 40
147.0
 40
147.0
 40
148.0
 40
148.0
 40
149.0
 40
149.0
 40
150.0
 40
150.0
 40
151.0
 40
151.0
 40
152.0
 40
152.0
 40
153.0
 40
153.0
 40
154.0
 40
154.0
 40
155.0
 40
155.0
 40
156.0
 40
156.0
 40
157.0
 40
157.0
 40
158.0
 40
158.0
 40
159.0
 40
159.0
 40
160.0
 40
160.0
 40
161.0
 40
161.0
 40
162.0
 40
162.0
 40
163.0
 40
163.0
 40
164.0
 40
164.0
 40
165.0
 40
165.0
 40
166.0
 40
166.0
 40
167.0
 40
167.0
 40
168.0
 40
168.0
 40
169.0
 40
169.0
 40
170.0
 40
170.0
 40
171.0
 40
171.0
 40
172.0
 40
172.0
 40
173.0
 40
173.0
 40
174.0
 40
174.0
 40
175.0
 40
175.0
 40
176.0
 40
176.0
 40
177.0
 40
177.0
 40
178.0
 40
178.0
 40
179.0
 40
179.0
 40
180.0
 40
180.0
 40
181.0
 40
181.0
 40
182.0
 40
182.0
 40
183.0
 40
183.0
 40
184.0
 40
184.0
 40
185.0
 40
185.0
 40
186.0
 40
186.0
 40
187.0
 40
187.0
 40
188.0
 40
188.0
 40
189.0
 40
189.0
 40
190.0
 40
190.0
 40
191.0
 40
191.0
 40
192.0
 40
192.0
 40
193.0
 40
193.0
 40
194.0
 40
194.0
 40
195.0
 40
195.0
 40
196.0
 40
196.0
 40
197.0
 40
197.0
 40
198.0
 40
198.0
 40
199.0
 40
199.0
 40
200.0
 40
200.0
 40
201.0
 40
201.0
 40
202.0
 40
202.0
 40
203.0
 40
203.0
 40
204.0
 40
204.0
 40
205.0
 40
205.0
 40
206.0
 40
206.0
 40
207.0
 40
207.0
 40
208.0
 40
208.0
 40
209.0
 40
209.0
 40
210.0
 40
210.0
 40
211.0
 40
211.0
 40
212.0
 40
212.0
 40
213.0
 40
213.0
 40
214.0
 40
214.0
 40
215.0
 40
215.0
 40
216.0
 40
216.0
 40
217.0
 40
217.0
 40
218.0
 40
218.0
 40
219.0
 40
219.0
 40
220.0
 40
220.0
 40
221.0
 40
221.0
 40
222.0
 40
222.0
 40
223.0
 40
223.0
 40
224.0
 40
224.0
 40
225.0
 40
225.0
 40
226.0
 40
226.0
 40
227.0
 40
227.0
 40
228.0
 40
228.0
 40
229.0
 40
229.0
 40
230.0
 40
230.0
 40
231.0
 40
231.0
 40
232.0
 40
232.0
 40
233.0
 40
233.0
 40
234.0
 40
234.0
 40
235.0
 40
235.0
 40
236.0
 40
236.0
 40
237.0
 40
237.0
 40
238.0
 40
238.0
 40
239.0
 40
239.0
 40
240.0
 40
240.0
 40
241.0
 40
241.0
 40
242.0
 40
242.0
 40
243.0
 40
243.0
 40
244.0
 40
244.0
 40
245.0
 40
245.0
 40
246.0
 40
246.0
 40
247.0
 40
247.0
 40
248.0
 40
248.0
 40
249.0
 40
249.0
 40
250.0
 40
250.0
 40
251.0
 40
251.0
 40
252.0
 40
252.0
 40
253.0
 40
253.0
 40
254.0
 40
254.0
 40
255.0
 40
255.0
 40
256.0
 40
256.0
 40
257.0
 40
257.0
 40
258.0
 40
258.0
 40
259.0
 40
259.0
 40
260.0
 40
260.0
 40
261.0
 40
261.0
 40
262.0
 40
262.0
 40
263.0
 40
263.0
 40
264.0
 40
264.0
 40
265.0
 40
265.0
 40
266.0
 40
266.0
 40
267.0
 40
267.0
 40
268.0
 40
268.0
 40
269.0
 40
269.0
 40
270.0
 40
270.0
 40
271.0
 40
271.0
 40
272.0
 40
272.0
 40
273.0
 40
273.0
 40
274.0
 40
274.0
 40
275.0
 40
275.0
 40
276.0
 40
276.0
 40
277.0
 40
277.0
 40
278.0
 40
278.0
 40
279.0
 40
279.0
 40
280.0
 40
280.0
 40
281.0
 40
281.0
 40
282.0
 40
282.0
 40
283.0
 40
283.0
 40
284.0
 40
284.0
 40
285.0
 40
285.0
 40
286.0
 40
286.0
 40
287.0
 40
287.0
 40
288.0
 40
288.0
 40
289.0
 40
289.0
 40
290.0
 40
290.0
 40
291.0
 40
291.0
 40
292.0
 40
292.0
 40
293.0
 40
293.0
 40
294.0
 40
294.0
 40
295.0
 40
295.0
 40
296.0
 40
296.0
 40
297.0
 40
297.0
 40
298.0
 40
298.0
 40
299.0
 40
299.0
 40
300.0
 40
300.0
 40
301.0
 40
301.0
 40
302.0
 40
302.0
 40
303.0
 40
303.0
 40
304.0
 40
304.0
 40
305.0
 40
305.0
 40
306.0
 40
306.0
 40
307.0
 40
307.0
 40
308.0
 40
308.0
 40
309.0
 40
309.0
 40
310.0
 40
310.0
 40
311.0
 40
311.0
 40
312.0
 40
312.0
 40
313.0
 40
313.0
 40
314.0
 40
314.0
 40
315.0
 40
315.0
 40
316.0
 40
316.0
 40
317.0
 40
317.0
 40
318.0
 40
318.0
 40
319.0
 40
319.0
 40
320.0
 40
320.0
 40
321.0
 40
321.0
 40
322.0
 40
322.0
 40
323.0
 40
323.0
 40
324.0
 40
324.0
 40
325.0
 40
325.0
 40
326.0
 40
326.0
 40
327.0
 40
327.0
 40
328.0
 40
328.0
 40
329.0
 40
329.0
 40
330.0
 40
330.0
 40
331.0
 40
331.0
 40
332.0
 40
332.0
 40
333.0
 40
333.0
 40
334.0
 40
334.0
 40
335.0
 40
335.0
 40
336.0
 40
336.0
 40
337.0
 40
337.0
 40
338.0
 40
338.0
 40
339.0
 40
339.0
 40
340.0
 40
340.0
 40
341.0
 40
341.0
 40
342.0
 40
342.0
 40
343.0
 40
343.0
 40
344.0
 40
344.0
 40
345.0
 40
345.0
 40
346.0
 40
346.0
 40
347.0
 40
347.0
 40
348.0
 40
348.0
 40
349.0
 40
349.0
 40
350.0
 40
350.0
 40
351.0
 40
351.0
 40
352.0
 40
352.0
 40
353.0
 40
353.0
 40
354.0
 40
354.0
 40
355.0
 40
355.0
 40
356.0
 40
356.0
 40
357.0
 40
357.0
 40
358.0
 40
358.0
 40
359.0
 40
359.0
 40
360.0
 40
360.0
 40
361.0
 40
361.0
 40
362.0
 40
362.0
 40
363.0
 40
363.0
 40
364.0
 40
364.0
 40
365.0
 40
365.0
 40
366.0
 40
366.0
 40
367.0
 40
367.0
 40
368.0
 40
368.0
 40
369.0
 40
369.0
 40
370.0
 40
370.0
 40
371.0
 40
371.0
 40
372.0
 40
372.0
 40
373.0
 40
373.0
 40
374.0
 40
374.0
 40
375.0
 40
375.0
 40
376.0
 40
376.0
 40
377.0
 40
377.0
 40
378.0
 40
378.0
 40
379.0
 40
379.0
 40
380.0
 40
380.0
 40
381.0
 40
381.0
 40
382.0
 40
382.0
 40
383.0
 40
383.0
 40
384.0
 40
384.0
 40
385.0
 40
385.0
 40
386.0
 40
386.0
 40
387.0
 40
387.0
 40
388.0
 40
388.0
 40
389.0
 40
389.0
 40
389.0
 10
925.44947652911821
 20
-1341.7581829517439
 30
0.0
 41
1.0
 10
926.26790063783881
 20
-1341.7581829517439
 30
0.0
 41
1.0
 10
927.0863247465594
 20
-1341.7581829517439
 30
0.0
 41
1.0
 10
926.67257101104258
 20
-1343.1008092159936
 30
0.0
 41
1.0
 10
926.25881727552576
 20
-1344.4434354802434
 30
0.0
 41
1.0
 10
926.27715677068113
 20
-1344.4147347073513
 30
0.0
 41
0.9999957264444958
 10
926.29566376750006
 20
-1344.386141657219
 30
0.0
 41
1.0
 10
926.32609309164945
 20
-1344.3391287788245
 30
0.0
 41
1.0
 10
926.35652241579896
 20
-1344.2921159004297
 30
0.0
 41
1.0
 10
926.43588806090463
 20
-1344.1694970935268
 30
0.0
 41
0.9995394069080952
 10
926.52254645245819
 20
-1344.051919031783
 30
0.0
 41
1.0
 10
926.55830331471589
 20
-1344.0034041391923
 30
0.0
 41
1.0
 10
926.59406017697358
 20
-1343.9548892466016
 30
0.0
 41
1.0
 10
926.72778684479294
 20
-1343.773448971473
 30
0.0
 41
0.9994460617143676
 10
926.87328732608273
 20
-1343.6013065738211
 30
0.0
 41
1.0
 10
926.87767550705917
 20
-1343.5961148934368
 30
0.0
 41
1.0
 10
926.88206368803571
 20
-1343.5909232130525
 30
0.0
 41
1.0
 10
927.0187878073732
 20
-1343.4291641761688
 30
0.0
 41
0.9994359394934478
 10
927.1660620377221
 20
-1343.2769479750068
 30
0.0
 41
1.0
 10
927.16844539167653
 20
-1343.2744846446326
 30
0.0
 41
1.0
 10
927.17082874563096
 20
-1343.2720213142582
 30
0.0
 41
1.0
 10
927.31333626807407
 20
-1343.1247317738416
 30
0.0
 41
0.9995293688567625
 10
927.46460794905568
 20
-1342.9864585616781
 30
0.0
 41
1.0
 10
927.48390170831522
 20
-1342.9688226760304
 30
0.0
 41
1.0
 10
927.50319546757464
 20
-1342.9511867903827
 30
0.0
 41
1.0
 10
927.61587963003444
 20
-1342.8481853495166
 30
0.0
 41
0.9997087614802481
 10
927.73340251899276
 20
-1342.7507410687163
 30
0.0
 41
1.0
 10
927.75256859217279
 20
-1342.7348494902044
 30
0.0
 41
1.0
 10
927.77173466535294
 20
-1342.7189579116928
 30
0.0
 41
1.0
 10
927.85092540794949
 20
-1342.653296787917
 30
0.0
 41
0.9999595338698282
 10
927.93128467880297
 20
-1342.5890710572633
 30
0.0
 41
1.0
 10
928.01164394965974
 20
-1342.5248453266067
 30
0.0
 41
0.9999749417505126
 10
928.09290448399895
 20
-1342.461763772664
 30
0.0
 41
1.0
 10
928.11389063016213
 20
-1342.4454724853617
 30
0.0
 41
1.0
 10
928.1348767763252
 20
-1342.4291811980595
 30
0.0
 41
1.0
 10
928.21944466162847
 20
-1342.3635321882175
 30
0.0
 41
0.9999792037125383
 10
928.30485226140399
 20
-1342.2989794065693
 30
0.0
 41
1.0
 10
928.32567708725139
 20
-1342.28323958436
 30
0.0
 41
1.0
 10
928.34650191309879
 20
-1342.2674997621507
 30
0.0
 41
1.0
 10
928.39025986113143
 20
-1342.2344266249575
 30
0.0
 41
0.9999993374085197
 10
928.43394154731675
 20
-1342.2012528295018
 30
0.0
 41
1.0
 10
928.4776232334608
 20
-1342.168079034077
 30
0.0
 41
0.9999160953814864
 10
928.52214964438156
 20
-1342.1360479688778
 30
0.0
 41
1.0
 10
928.55497153179999
 20
-1342.1124368132937
 30
0.0
 41
1.0
 10
928.58779341921854
 20
-1342.0888256577095
 30
0.0
 41
1.0
 10
928.69796360497617
 20
-1342.0095722813421
 30
0.0
 41
0.9980964527231142
 10
928.81705259847502
 20
-1341.944484808487
 30
0.0
 41
1.0
 10
928.85408520540443
 20
-1341.9242448288933
 30
0.0
 41
1.0
 10
928.89111781233385
 20
-1341.9040048492993
 30
0.0
 41
1.0
 10
929.07044482560696
 20
-1341.8059945985983
 30
0.0
 41
0.9984572810573081
 10
929.25953339196587
 20
-1341.7284723372518
 30
0.0
 41
1.0
 10
929.26317966136139
 20
-1341.7269774449139
 30
0.0
 41
1.0
 10
929.26682593075702
 20
-1341.7254825525761
 30
0.0
 41
1.0
 10
929.44862195832491
 20
-1341.6509500759053
 30
0.0
 41
0.9987838528034085
 10
929.63687461688403
 20
-1341.5946844357395
 30
0.0
 41
1.0
 10
929.64111256608248
 20
-1341.5934177820495
 30
0.0
 41
1.0
 10
929.64535051528094
 20
-1341.5921511283593
 30
0.0
 41
1.0
 10
929.82512727544304
 20
-1341.5384187955738
 30
0.0
 41
0.9990652816207258
 10
930.00887320715913
 20
-1341.5004151160317
 30
0.0
 41
1.0
 10
930.01406160819272
 20
-1341.4993420129249
 30
0.0
 41
1.0
 10
930.01925000922631
 20
-1341.4982689098179
 30
0.0
 41
1.0
 10
930.19261913887738
 20
-1341.4624114364894
 30
0.0
 41
0.9992909934270505
 10
930.36819490533333
 20
-1341.4397010040232
 30
0.0
 41
1.0
 10
930.54377067179075
 20
-1341.4169905715567
 30
0.0
 41
0.9994553539448284
 10
930.72046210488361
 20
-1341.4059112673503
 30
0.0
 41
1.0
 10
930.7558965126799
 20
-1341.4036893793027
 30
0.0
 41
1.0
 10
930.79133092047618
 20
-1341.4014674912548
 30
0.0
 41
1.0
 10
930.95755668704567
 20
-1341.3910444288431
 30
0.0
 41
0.9990928098292904
 10
931.12406647894795
 20
-1341.3948040700777
 30
0.0
 41
1.0
 10
931.16262831422
 20
-1341.3956747616107
 30
0.0
 41
1.0
 10
931.20119014949194
 20
-1341.3965454531437
 30
0.0
 41
1.0
 10
931.29057627085081
 20
-1341.3985637113124
 30
0.0
 41
0.9998382089205909
 10
931.37983195363688
 20
-1341.4037958378403
 30
0.0
 41
1.0
 10
931.380261859857
 20
-1341.4038210387425
 30
0.0
 41
1.0
 10
931.38069176607712
 20
-1341.403846239645
 30
0.0
 41
1.0
 10
931.4690876364233
 20
-1341.4090279643683
 30
0.0
 41
0.9997558016758181
 10
931.55716821362387
 20
-1341.4181104797349
 30
0.0
 41
1.0
 10
931.55764435205151
 20
-1341.4181595772172
 30
0.0
 41
1.0
 10
931.55812049047904
 20
-1341.4182086746996
 30
0.0
 41
1.0
 10
931.64524879082251
 20
-1341.4271929951012
 30
0.0
 41
0.9996565144181667
 10
931.73178664416673
 20
-1341.4407303017904
 30
0.0
 41
1.0
 10
931.73225256954447
 20
-1341.4408031875219
 30
0.0
 41
1.0
 10
931.73271849492221
 20
-1341.4408760732531
 30
0.0
 41
1.0
 10
931.81832449750891
 20
-1341.4542676084793
 30
0.0
 41
0.9995321806867009
 10
931.9029515778368
 20
-1341.4728680969085
 30
0.0
 41
1.0
 10
931.90334077240914
 20
-1341.4729536393745
 30
0.0
 41
1.0
 10
931.90372996698136
 20
-1341.4730391818405
 30
0.0
 41
1.0
 10
931.98757865816515
 20
-1341.491468585338
 30
0.0
 41
0.9993819199219268
 10
932.06992519236098
 20
-1341.5157439685986
 30
0.0
 41
1.0
 10
932.07016362585932
 20
-1341.5158142577079
 30
0.0
 41
1.0
 10
932.07040205935778
 20
-1341.5158845468175
 30
0.0
 41
1.0
 10
932.1522717265575
 20
-1341.5400193518594
 30
0.0
 41
0.9992088568506077
 10
932.23196424554544
 20
-1341.5705845876537
 30
0.0
 41
1.0
 10
932.31164523642462
 20
-1341.6011441883868
 30
0.0
 41
0.9990226101772057
 10
932.38831590633163
 20
-1341.6386216200015
 30
0.0
 41
1.0
 10
932.46497504812965
 20
-1341.676093416555
 30
0.0
 41
0.9988424273972852
 10
932.53767867534236
 20
-1341.720758191808
 30
0.0
 41
1.0
 10
932.53794638372153
 20
-1341.7209226558803
 30
0.0
 41
1.0
 10
932.5382140921007
 20
-1341.7210871199522
 30
0.0
 41
1.0
 10
932.61145313607233
 20
-1341.76608082335
 30
0.0
 41
0.9986928844490072
 10
932.67971600278156
 20
-1341.8183165576295
 30
0.0
 41
1.0
 10
932.68029729500427
 20
-1341.8187613708574
 30
0.0
 41
1.0
 10
932.68087858722686
 20
-1341.819206184085
 30
0.0
 41
1.0
 10
932.75030403838207
 20
-1341.8723315448206
 30
0.0
 41
0.9986007262279069
 10
932.81373020814897
 20
-1341.9324923145141
 30
0.0
 41
1.0
 10
932.81462462360616
 20
-1341.9333406823491
 30
0.0
 41
1.0
 10
932.81551903906336
 20
-1341.9341890501842
 30
0.0
 41
1.0
 10
932.88073403974499
 20
-1341.9960465555482
 30
0.0
 41
0.9985581491381174
 10
932.93894165144638
 20
-1342.0645390458196
 30
0.0
 41
1.0
 10
932.94820010504213
 20
-1342.0754334035214
 30
0.0
 41
1.0
 10
932.95745855863788
 20
-1342.0863277612229
 30
0.0
 41
1.0
 10
933.03418307753168
 20
-1342.176608966899
 30
0.0
 41
0.9970460233521356
 10
933.09617497869078
 20
-1342.2775760510801
 30
0.0
 41
1.0
 10
933.11064434376988
 20
-1342.3011425101606
 30
0.0
 41
1.0
 10
933.12511370884897
 20
-1342.3247089692411
 30
0.0
 41
1.0
 10
933.16485040886153
 20
-1342.3894286932732
 30
0.0
 41
0.9988468816636387
 10
933.19819677961334
 20
-1342.4576611457014
 30
0.0
 41
1.0
 10
933.20523280210659
 20
-1342.4720580668422
 30
0.0
 41
1.0
 10
933.21226882459973
 20
-1342.4864549879833
 30
0.0
 41
1.0
 10
933.23154315036516
 20
-1342.5258935981296
 30
0.0
 41
0.9998431189999063
 10
933.2494084778599
 20
-1342.5659901525698
 30
0.0
 41
1.0
 10
933.26727380532668
 20
-1342.6060867069473
 30
0.0
 41
0.9999989989940038
 10
933.28525252875306
 20
-1342.6461325445414
 30
0.0
 41
1.0
 10
933.29142484035924
 20
-1342.6598807613805
 30
0.0
 41
1.0
 10
933.29759715196531
 20
-1342.6736289782198
 30
0.0
 41
1.0
 10
933.3279204985763
 20
-1342.7411712494302
 30
0.0
 41
0.9998790356320368
 10
933.35612837871258
 20
-1342.8096240013633
 30
0.0
 41
1.0
 10
933.36296355999775
 20
-1342.8262111027925
 30
0.0
 41
1.0
 10
933.36979874128281
 20
-1342.8427982042219
 30
0.0
 41
1.0
 10
933.39335640366289
 20
-1342.8999661591067
 30
0.0
 41
0.999822757456164
 10
933.41474515205198
 20
-1342.9579804673838
 30
0.0
 41
1.0
 10
933.43613390043981
 20
-1343.0159947756572
 30
0.0
 41
0.99967979710418
 10
933.45456018539903
 20
-1343.0750168947748
 30
0.0
 41
1.0
 10
933.45846398812523
 20
-1343.0875213529459
 30
0.0
 41
1.0
 10
933.46236779085154
 20
-1343.1000258111171
 30
0.0
 41
1.0
 10
933.48860168126168
 20
-1343.1840568465727
 30
0.0
 41
0.9979274938734773
 10
933.50382620474124
 20
-1343.2707612052345
 30
0.0
 41
1.0
 10
933.50604989200235
 20
-1343.2834252060552
 30
0.0
 41
1.0
 10
933.50827357926346
 20
-1343.2960892068756
 30
0.0
 41
1.0
 10
933.5192035189616
 20
-1343.3583357141658
 30
0.0
 41
0.9994985982138457
 10
933.52617168413872
 20
-1343.4211492153081
 30
0.0
 41
1.0
 10
933.53313984931583
 20
-1343.4839627164508
 30
0.0
 41
0.9996372611201457
 10
933.53671571508357
 20
-1343.547060295135
 30
0.0
 41
1.0
 10
933.53688429257272
 20
-1343.5500349122158
 30
0.0
 41
1.0
 10
933.53705287006198
 20
-1343.5530095292966
 30
0.0
 41
1.0
 10
933.54096589080814
 20
-1343.6220563421423
 30
0.0
 41
0.9997730630737195
 10
933.54193420429647
 20
-1343.6912071661807
 30
0.0
 41
1.0
 10
933.54199131071459
 20
-1343.6952853453206
 30
0.0
 41
1.0
 10
933.54204841713261
 20
-1343.6993635244605
 30
0.0
 41
1.0
 10
933.5431309434573
 20
-1343.7766707067676
 30
0.0
 41
0.9998772614072212
 10
933.54179085672536
 20
-1343.8539738533284
 30
0.0
 41
1.0
 10
933.54170159352657
 20
-1343.8591230171705
 30
0.0
 41
1.0
 10
933.54161233032767
 20
-1343.8642721810127
 30
0.0
 41
1.0
 10
933.5400937171986
 20
-1343.9518736552436
 30
0.0
 41
0.999941556732741
 10
933.53668140695322
 20
-1344.0394218169042
 30
0.0
 41
1.0
 10
933.53644008627748
 20
-1344.0456132766503
 30
0.0
 41
1.0
 10
933.53619876560185
 20
-1344.0518047363967
 30
0.0
 41
1.0
 10
933.53230381400522
 20
-1344.1517358175481
 30
0.0
 41
0.9999716810427647
 10
933.52690523088665
 20
-1344.2515969557764
 30
0.0
 41
1.0
 10
933.5236924320975
 20
-1344.311026205442
 30
0.0
 41
1.0
 10
933.52047963330824
 20
-1344.3704554551075
 30
0.0
 41
1.0
 10
933.51240572415588
 20
-1344.5198038563794
 30
0.0
 41
0.9999819129889562
 10
933.50253593254001
 20
-1344.6690443340822
 30
0.0
 41
1.0
 10
933.49266614092346
 20
-1344.8182848117935
 30
0.0
 41
1.0
 10
933.49022682035945
 20
-1344.8554778576431
 30
0.0
 41
1.0
 10
933.51292505415904
 20
-1344.8167368603658
 30
0.0
 41
0.9999982128186824
 10
933.53576961291924
 20
-1344.7780819664004
 30
0.0
 41
1.0
 10
933.5626791728173
 20
-1344.7325487523226
 30
0.0
 41
1.0
 10
933.58958873271547
 20
-1344.6870155382449
 30
0.0
 41
1.0
 10
933.66625241124405
 20
-1344.5572942161707
 30
0.0
 41
0.9998609190056511
 10
933.74719972410992
 20
-1344.4302018342353
 30
0.0
 41
1.0
 10
933.77684804558828
 20
-1344.3836521012834
 30
0.0
 41
1.0
 10
933.80649636706664
 20
-1344.3371023683314
 30
0.0
 41
1.0
 10
933.88876858730214
 20
-1344.2079297983387
 30
0.0
 41
0.9999067609733837
 10
933.97453759676773
 20
-1344.0810521088952
 30
0.0
 41
1.0
 10
933.97694229996648
 20
-1344.0774948428434
 30
0.0
 41
1.0
 10
933.97934700316523
 20
-1344.0739375767919
 30
0.0
 41
1.0
 10
934.06030660622719
 20
-1343.9541744194601
 30
0.0
 41
0.9998784952148091
 10
934.1449602159131
 20
-1343.8369932027451
 30
0.0
 41
1.0
 10
934.2296138255989
 20
-1343.7198119860307
 30
0.0
 41
0.9998532968283936
 10
934.31823144642578
 20
-1343.6055990775551
 30
0.0
 41
1.0
 10
934.3381932354115
 20
-1343.5798717565417
 30
0.0
 41
1.0
 10
934.35815502439721
 20
-1343.5541444355285
 30
0.0
 41
1.0
 10
934.47663907415711
 20
-1343.4014388245585
 30
0.0
 41
0.999155197579531
 10
934.60726352378185
 20
-1343.2589792624738
 30
0.0
 41
1.0
 10
934.61077313976011
 20
-1343.255151660851
 30
0.0
 41
1.0
 10
934.61428275573849
 20
-1343.2513240592282
 30
0.0
 41
1.0
 10
934.73788797340353
 20
-1343.116519700392
 30
0.0
 41
0.9997418144181303
 10
934.86749011310599
 20
-1342.9874702897778
 30
0.0
 41
1.0
 10
934.99709225280651
 20
-1342.8584208791654
 30
0.0
 41
0.9989238204633201
 10
935.13809480105738
 20
-1342.7419359171265
 30
0.0
 41
1.0
 10
935.18334247919825
 20
-1342.7045559255166
 30
0.0
 41
1.0
 10
935.22859015733923
 20
-1342.6671759339067
 30
0.0
 41
1.0
 10
935.36883021455924
 20
-1342.5513208806169
 30
0.0
 41
0.9990825084096349
 10
935.51847014716202
 20
-1342.4478918827849
 30
0.0
 41
1.0
 10
935.52851551121944
 20
-1342.440948669705
 30
0.0
 41
1.0
 10
935.53856087527686
 20
-1342.4340054566251
 30
0.0
 41
1.0
 10
935.66811007976526
 20
-1342.3444628849525
 30
0.0
 41
0.9998164899826367
 10
935.80099428314224
 20
-1342.2599486434356
 30
0.0
 41
1.0
 10
935.81283984366678
 20
-1342.2524148769107
 30
0.0
 41
1.0
 10
935.8246854041912
 20
-1342.2448811103861
 30
0.0
 41
1.0
 10
935.93387848651707
 20
-1342.1754344019198
 30
0.0
 41
0.9997473449132073
 10
936.04608244376789
 20
-1342.1109654441034
 30
0.0
 41
1.0
 10
936.15828640101518
 20
-1342.0464964862888
 30
0.0
 41
0.9999327861144237
 10
936.27195501178198
 20
-1341.9846464946056
 30
0.0
 41
1.0
 10
936.27250701434218
 20
-1341.9843461359269
 30
0.0
 41
1.0
 10
936.27305901690227
 20
-1341.984045777248
 30
0.0
 41
1.0
 10
936.38783163278947
 20
-1341.9215950682071
 30
0.0
 41
0.9996956420483411
 10
936.50554495863003
 20
-1341.8648816012324
 30
0.0
 41
1.0
 10
936.53598536351876
 20
-1341.8502156245042
 30
0.0
 41
1.0
 10
936.5664257684075
 20
-1341.8355496477761
 30
0.0
 41
1.0
 10
936.66940287515285
 20
-1341.7859359893318
 30
0.0
 41
0.9998070570176333
 10
936.77424926409742
 20
-1341.7404054024291
 30
0.0
 41
1.0
 10
936.87909565303846
 20
-1341.694874815528
 30
0.0
 41
0.99978274361481
 10
936.98574858964616
 20
-1341.653753644217
 30
0.0
 41
1.0
 10
937.00497143927862
 20
-1341.6463420705841
 30
0.0
 41
1.0
 10
937.02419428891108
 20
-1341.6389304969514
 30
0.0
 41
1.0
 10
937.16929292478517
 20
-1341.5829861783743
 30
0.0
 41
0.9988031841976718
 10
937.31916328739146
 20
-1341.5414861142062
 30
0.0
 41
1.0
 10
937.34408053575271
 20
-1341.5345863683999
 30
0.0
 41
1.0
 10
937.36899778411396
 20
-1341.5276866225936
 30
0.0
 41
1.0
 10
937.53626780976185
 20
-1341.4813684801866
 30
0.0
 41
0.9984748040550054
 10
937.70762471841113
 20
-1341.4537742479217
 30
0.0
 41
1.0
 10
937.71236385465932
 20
-1341.4530110874084
 30
0.0
 41
1.0
 10
937.71710299090751
 20
-1341.4522479268951
 30
0.0
 41
1.0
 10
937.87898162705937
 20
-1341.4261800156569
 30
0.0
 41
0.99844364954799
 10
938.04275637078479
 20
-1341.4183020618382
 30
0.0
 41
1.0
 10
938.06445357891664
 20
-1341.4172583746385
 30
0.0
 41
1.0
 10
938.0861507870485
 20
-1341.4162146874387
 30
0.0
 41
1.0
 10
938.20653111451008
 20
-1341.4104241080195
 30
0.0
 41
0.9987954789335637
 10
938.32689935941937
 20
-1341.4164606357617
 30
0.0
 41
1.0
 10
938.34686415191322
 20
-1341.4174618801003
 30
0.0
 41
1.0
 10
938.36682894440708
 20
-1341.4184631244389
 30
0.0
 41
1.0
 10
938.44726760432877
 20
-1341.422497163504
 30
0.0
 41
0.9997941595877463
 10
938.52747638242374
 20
-1341.4297912294251
 30
0.0
 41
1.0
 10
938.60768516052303
 20
-1341.4370852953468
 30
0.0
 41
0.9998589466238577
 10
938.68760370738289
 20
-1341.4470691497975
 30
0.0
 41
1.0
 10
938.72000990918627
 20
-1341.4511175067159
 30
0.0
 41
1.0
 10
938.75241611098966
 20
-1341.4551658636346
 30
0.0
 41
1.0
 10
938.89714706145969
 20
-1341.4732464319229
 30
0.0
 41
0.9993495063249555
 10
939.04019830522373
 20
-1341.501712141664
 30
0.0
 41
1.0
 10
939.07313200237786
 20
-1341.5082656048794
 30
0.0
 41
1.0
 10
939.10606569953188
 20
-1341.5148190680945
 30
0.0
 41
1.0
 10
939.21535952273553
 20
-1341.5365674022296
 30
0.0
 41
0.9996788715561404
 10
939.32341109469178
 20
-1341.5638252015926
 30
0.0
 41
1.0
 10
939.32547409722997
 20
-1341.5643456281655
 30
0.0
 41
1.0
 10
939.32753709976828
 20
-1341.5648660547381
 30
0.0
 41
1.0
 10
939.43146266664803
 20
-1341.5910830009557
 30
0.0
 41
0.999548065449237
 10
939.53362490187749
 20
-1341.6234979575802
 30
0.0
 41
1.0
 10
939.53531454400763
 20
-1341.6240340624945
 30
0.0
 41
1.0
 10
939.53700418613766
 20
-1341.6245701674086
 30
0.0
 41
1.0
 10
939.6357871371082
 20
-1341.6559129142051
 30
0.0
 41
0.9993867959456867
 10
939.73213429554937
 20
-1341.6940922834945
 30
0.0
 41
1.0
 10
939.73337724463386
 20
-1341.6945848253906
 30
0.0
 41
1.0
 10
939.73462019371846
 20
-1341.6950773672868
 30
0.0
 41
1.0
 10
939.82848145399191
 20
-1341.7322716527842
 30
0.0
 41
0.9992050256521967
 10
939.91908112902536
 20
-1341.776825552023
 30
0.0
 41
1.0
 10
939.91981581173866
 20
-1341.7771868444843
 30
0.0
 41
1.0
 10
939.92055049445196
 20
-1341.7775481369454
 30
0.0
 41
1.0
 10
940.00968080405937
 20
-1341.8213794512621
 30
0.0
 41
0.9990222350742051
 10
940.09459086545246
 20
-1341.8729127189599
 30
0.0
 41
1.0
 10
940.09477475073481
 20
-1341.8730243218645
 30
0.0
 41
1.0
 10
940.09495863601705
 20
-1341.873135924769
 30
0.0
 41
1.0
 10
940.17950092684521
 20
-1341.9244459866575
 30
0.0
 41
0.9988642743804662
 10
940.25877546146501
 20
-1341.9835701741833
 30
0.0
 41
1.0
 10
940.33804999608356
 20
-1342.0426943617081
 30
0.0
 41
0.998768123330992
 10
940.41107378036008
 20
-1342.1093850531095
 30
0.0
 41
1.0
 10
940.41140270832591
 20
-1342.1096854543237
 30
0.0
 41
1.0
 10
940.41173163629173
 20
-1342.1099858555378
 30
0.0
 41
1.0
 10
940.48541327649934
 20
-1342.1772773493667
 30
0.0
 41
0.9987496570898259
 10
940.55200708182656
 20
-1342.2515901634536
 30
0.0
 41
1.0
 10
940.55277925158714
 20
-1342.2524518368116
 30
0.0
 41
1.0
 10
940.55355142134772
 20
-1342.2533135101696
 30
0.0
 41
1.0
 10
940.62168956619678
 20
-1342.3293496709734
 30
0.0
 41
0.9988147669827219
 10
940.68211182042171
 20
-1342.4116506778157
 30
0.0
 41
1.0
 10
940.683231146499
 20
-1342.4131753091676
 30
0.0
 41
1.0
 10
940.68435047257628
 20
-1342.4146999405195
 30
0.0
 41
1.0
 10
940.74701137895704
 20
-1342.5000502100677
 30
0.0
 41
0.9989452636216573
 10
940.80157829191785
 20
-1342.5907888992244
 30
0.0
 41
1.0
 10
940.80292701800363
 20
-1342.5930316802508
 30
0.0
 41
1.0
 10
940.8042757440893
 20
-1342.5952744612771
 30
0.0
 41
1.0
 10
940.86154010922098
 20
-1342.6904987124856
 30
0.0
 41
0.9991046436070595
 10
940.91054932254269
 20
-1342.7902231455109
 30
0.0
 41
1.0
 10
940.91201318413323
 20
-1342.7932018255842
 30
0.0
 41
1.0
 10
940.91347704572365
 20
-1342.7961805056577
 30
0.0
 41
1.0
 10
940.96541398222473
 20
-1342.9018622988262
 30
0.0
 41
0.9992763831100396
 10
941.00916711078003
 20
-1343.0111863607829
 30
0.0
 41
1.0
 10
941.01064638044363
 20
-1343.014882548317
 30
0.0
 41
1.0
 10
941.01212565010712
 20
-1343.0185787358514
 30
0.0
 41
1.0
 10
941.05883731798929
 20
-1343.1352951728759
 30
0.0
 41
0.9994163472884101
 10
941.09747034917939
 20
-1343.2549287613413
 30
0.0
 41
1.0
 10
941.09870850142647
 20
-1343.2587629051245
 30
0.0
 41
1.0
 10
941.09994665367344
 20
-1343.262597048908
 30
0.0
 41
1.0
 10
941.13983021469051
 20
-1343.3861031103868
 30
0.0
 41
0.9997268055891769
 10
941.1738982706014
 20
-1343.5113381423332
 30
0.0
 41
1.0
 10
941.17482845087079
 20
-1343.5147575084413
 30
0.0
 41
1.0
 10
941.17575863114018
 20
-1343.5181768745495
 30
0.0
 41
1.0
 10
941.20796632651309
 20
-1343.6365731742826
 30
0.0
 41
0.9996701319000082
 10
941.23405194328382
 20
-1343.7564671275472
 30
0.0
 41
1.0
 10
941.26013756005432
 20
-1343.8763610808114
 30
0.0
 41
0.9995785451109187
 10
941.2792211373943
 20
-1343.9975668418442
 30
0.0
 41
1.0
 10
941.28344091956785
 20
-1344.0243679966079
 30
0.0
 41
1.0
 10
941.2876607017414
 20
-1344.0511691513714
 30
0.0
 41
1.0
 10
941.31423567768024
 20
-1344.219955125076
 30
0.0
 41
0.9979925101216397
 10
941.31926126360645
 20
-1344.3907464531669
 30
0.0
 41
1.0
 10
941.3200860760312
 20
-1344.418777176651
 30
0.0
 41
1.0
 10
941.32091088845584
 20
-1344.4468079001349
 30
0.0
 41
1.0
 10
941.32428684953277
 20
-1344.561537781263
 30
0.0
 41
0.9995314902263367
 10
941.32063665739429
 20
-1344.6762592650107
 30
0.0
 41
1.0
 10
941.31698646525558
 20
-1344.7909807487652
 30
0.0
 41
0.9996245486944611
 10
941.30705737012488
 20
-1344.9053300198884
 30
0.0
 41
1.0
 10
941.30689432213069
 20
-1344.9072077760229
 30
0.0
 41
1.0
 10
941.3067312741365
 20
-1344.9090855321572
 30
0.0
 41
1.0
 10
941.29647608301684
 20
-1345.0271903155533
 30
0.0
 41
0.9997286095000888
 10
941.28073075944599
 20
-1345.1446892244435
 30
0.0
 41
1.0
 10
941.28033726679541
 20
-1345.1476256491469
 30
0.0
 41
1.0
 10
941.27994377414495
 20
-1345.1505620738501
 30
0.0
 41
1.0
 10
941.26341146527307
 20
-1345.2739338321464
 30
0.0
 41
0.9998265533969153
 10
941.24229600654087
 20
-1345.3966043069324
 30
0.0
 41
1.0
 10
941.24161946440336
 20
-1345.4005346854422
 30
0.0
 41
1.0
 10
941.24094292226584
 20
-1345.4044650639519
 30
0.0
 41
1.0
 10
941.21847437925919
 20
-1345.534996295755
 30
0.0
 41
0.9999022530852034
 10
941.1923649146479
 20
-1345.6648482643991
 30
0.0
 41
1.0
 10
941.19138627348309
 20
-1345.6697154067838
 30
0.0
 41
1.0
 10
941.19040763231828
 20
-1345.6745825491682
 30
0.0
 41
1.0
 10
941.16234088537487
 20
-1345.8141688025935
 30
0.0
 41
0.9999524761932238
 10
941.13155791654015
 20
-1345.953181295758
 30
0.0
 41
1.0
 10
941.13028180936601
 20
-1345.9589440550544
 30
0.0
 41
1.0
 10
941.12900570219188
 20
-1345.9647068143508
 30
0.0
 41
1.0
 10
941.09567051900444
 20
-1346.1152448261273
 30
0.0
 41
0.9999813588734144
 10
941.06049951821069
 20
-1346.265364538775
 30
0.0
 41
1.0
 10
941.05894559275407
 20
-1346.2719971291979
 30
0.0
 41
1.0
 10
941.05739166729734
 20
-1346.2786297196208
 30
0.0
 41
1.0
 10
941.01911281559637
 20
-1346.4420146130878
 30
0.0
 41
0.999995523769936
 10
940.97985693761393
 20
-1346.6051675167032
 30
0.0
 41
1.0
 10
940.96757530197647
 20
-1346.6562117072385
 30
0.0
 41
1.0
 10
940.95529366633912
 20
-1346.7072558977741
 30
0.0
 41
1.0
 10
940.89147451708845
 20
-1346.9724971824321
 30
0.0
 41
0.9999993604818562
 10
940.82705556991311
 20
-1347.2375934331467
 30
0.0
 41
1.0
 10
940.82233673437054
 20
-1347.257012341169
 30
0.0
 41
1.0
 10
940.81761789882785
 20
-1347.2764312491913
 30
0.0
 41
1.0
 10
940.74376128056736
 20
-1347.5803653159501
 30
0.0
 41
0.9999659914728709
 10
940.66490168468272
 20
-1347.8830398625075
 30
0.0
 41
1.0
 10
940.65994899575185
 20
-1347.902048999691
 30
0.0
 41
1.0
 10
940.65499630682086
 20
-1347.9210581368743
 30
0.0
 41
1.0
 10
940.56623133307448
 20
-1348.2617509577979
 30
0.0
 41
0.9999441976028975
 10
940.47028830010618
 20
-1348.6004923831135
 30
0.0
 41
1.0
 10
940.45358778168361
 20
-1348.6594560956307
 30
0.0
 41
1.0
 10
940.43688726326093
 20
-1348.7184198081479
 30
0.0
 41
1.0
 10
940.30754319344408
 20
-1349.1750886585096
 30
0.0
 41
0.9999625120736215
 10
940.17031042611882
 20
-1349.6294491925119
 30
0.0
 41
1.0
 10
940.1345204830385
 20
-1349.7479452191301
 30
0.0
 41
1.0
 10
940.09873053995818
 20
-1349.8664412457485
 30
0.0
 41
1.0
 10
940.02421033591691
 20
-1350.1131683238514
 30
0.0
 41
0.9999793386303827
 10
939.94652431277825
 20
-1350.3589169630907
 30
0.0
 41
1.0
 10
939.86883828964062
 20
-1350.6046656023268
 30
0.0
 41
1.0
 10
939.85805873077004
 20
-1350.6386835067015
 30
0.0
 41
1.0
 10
938.00768567750094
 20
-1356.5257554291688
 30
0.0
 41
1.0
 10
936.15731262423185
 20
-1362.4128273516362
 30
0.0
 41
1.0
 10
935.19605593420818
 20
-1362.4128273516362
 30
0.0
 41
1.0
 10
934.2347992441845
 20
-1362.4128273516362
 30
0.0
 41
1.0
 10
935.853744022863
 20
-1357.2647988498468
 30
0.0
 41
1.0
 10
937.47268880154149
 20
-1352.1167703480573
 30
0.0
 41
1.0
 10
937.51785462471321
 20
-1351.9727391257957
 30
0.0
 41
1.0
 10
937.56302044788492
 20
-1351.8287079035342
 30
0.0
 41
1.0
 10
937.73332486525476
 20
-1351.2856168743497
 30
0.0
 41
0.9999911657901964
 10
937.89905767693313
 20
-1350.7411133429916
 30
0.0
 41
1.0
 10
937.928753620419
 20
-1350.6435494029893
 30
0.0
 41
1.0
 10
937.95844956390488
 20
-1350.5459854629867
 30
0.0
 41
1.0
 10
938.06479048859853
 20
-1350.1966098116768
 30
0.0
 41
0.9999952428119698
 10
938.16897407793817
 20
-1349.8465847872783
 30
0.0
 41
1.0
 10
938.17403354826865
 20
-1349.8295865130099
 30
0.0
 41
1.0
 10
938.17909301859913
 20
-1349.8125882387415
 30
0.0
 41
1.0
 10
938.2731576672661
 20
-1349.4965597629187
 30
0.0
 41
0.9999931687493894
 10
938.36488350513685
 20
-1349.1798445496581
 30
0.0
 41
1.0
 10
938.36981876959203
 20
-1349.1628038404024
 30
0.0
 41
1.0
 10
938.3747540340471
 20
-1349.1457631311466
 30
0.0
 41
1.0
 10
938.45660934300327
 20
-1348.8631293364133
 30
0.0
 41
0.9999893840810321
 10
938.53585656946746
 20
-1348.579753207141
 30
0.0
 41
1.0
 10
938.61510379592903
 20
-1348.2963770778779
 30
0.0
 41
0.9999833980058509
 10
938.69108003666793
 20
-1348.0121064948587
 30
0.0
 41
1.0
 10
938.70008397339097
 20
-1347.9784176163776
 30
0.0
 41
1.0
 10
938.70908791011402
 20
-1347.9447287378962
 30
0.0
 41
1.0
 10
938.77805245897878
 20
-1347.686692905605
 30
0.0
 41
0.9999233658065013
 10
938.84060743019768
 20
-1347.427028746888
 30
0.0
 41
1.0
 10
938.90316240141794
 20
-1347.1673645881656
 30
0.0
 41
1.0
 10
938.94264582027552
 20
-1347.0035579237394
 30
0.0
 41
1.0
 10
938.94762442425008
 20
-1346.98290296188
 30
0.0
 41
1.0
 10
938.95260302822476
 20
-1346.9622480000205
 30
0.0
 41
1.0
 10
938.98212923913115
 20
-1346.8397512593212
 30
0.0
 41
0.9999868670871414
 10
939.01039832312927
 20
-1346.7169583136679
 30
0.0
 41
1.0
 10
939.01429581028697
 20
-1346.7000287262508
 30
0.0
 41
1.0
 10
939.01819329744478
 20
-1346.6830991388338
 30
0.0
 41
1.0
 10
939.03866740712476
 20
-1346.5941653680252
 30
0.0
 41
0.9999778173344485
 10
939.05795500524084
 20
-1346.5049667507919
 30
0.0
 41
1.0
 10
939.07724260335488
 20
-1346.415768133568
 30
0.0
 41
0.9999602692860523
 10
939.09493696198797
 20
-1346.3262398451307
 30
0.0
 41
1.0
 10
939.0981407940651
 20
-1346.3100293902471
 30
0.0
 41
1.0
 10
939.10134462614235
 20
-1346.2938189353638
 30
0.0
 41
1.0
 10
939.12544664892914
 20
-1346.1718697371625
 30
0.0
 41
0.9995617985319887
 10
939.14228999614818
 20
-1346.0487079894533
 30
0.0
 41
1.0
 10
939.1447544860539
 20
-1346.0306871720913
 30
0.0
 41
1.0
 10
939.14721897595962
 20
-1346.0126663547292
 30
0.0
 41
1.0
 10
939.16750223700774
 20
-1345.8643513050283
 30
0.0
 41
0.9991121410640237
 10
939.17522759059614
 20
-1345.7148552062215
 30
0.0
 41
1.0
 10
939.17614638062071
 20
-1345.6970753696451
 30
0.0
 41
1.0
 10
939.17706517064528
 20
-1345.6792955330689
 30
0.0
 41
1.0
 10
939.18295294418442
 20
-1345.5653591074151
 30
0.0
 41
0.9989792494905316
 10
939.17853385206706
 20
-1345.4513562715169
 30
0.0
 41
1.0
 10
939.17788588019835
 20
-1345.4346400255872
 30
0.0
 41
1.0
 10
939.17723790832952
 20
-1345.4179237796575
 30
0.0
 41
1.0
 10
939.17411475994936
 20
-1345.3373534356133
 30
0.0
 41
0.9997820295393711
 10
939.16763076257405
 20
-1345.2569837138747
 30
0.0
 41
1.0
 10
939.16114676519862
 20
-1345.1766139921328
 30
0.0
 41
0.9998335105973601
 10
939.1517345696866
 20
-1345.0965343756793
 30
0.0
 41
1.0
 10
939.15013964501031
 20
-1345.0829646451969
 30
0.0
 41
1.0
 10
939.14854472033403
 20
-1345.0693949147144
 30
0.0
 41
1.0
 10
939.13594267547012
 20
-1344.9621758373009
 30
0.0
 41
0.9996876457879124
 10
939.11799876267139
 20
-1344.855720409583
 30
0.0
 41
1.0
 10
939.11576709952647
 20
-1344.8424806743433
 30
0.0
 41
1.0
 10
939.11353543638143
 20
-1344.8292409391033
 30
0.0
 41
1.0
 10
939.0997396149603
 20
-1344.7473947951444
 30
0.0
 41
0.9995547496495039
 10
939.08108629306696
 20
-1344.666517297949
 30
0.0
 41
1.0
 10
939.08071233619557
 20
-1344.6648958872429
 30
0.0
 41
1.0
 10
939.08033837932408
 20
-1344.6632744765368
 30
0.0
 41
1.0
 10
939.06243297117419
 20
-1344.5856398007575
 30
0.0
 41
0.9994899427175592
 10
939.03960806249506
 20
-1344.5093065179235
 30
0.0
 41
1.0
 10
939.03914953575395
 20
-1344.5077730681337
 30
0.0
 41
1.0
 10
939.03869100901295
 20
-1344.5062396183441
 30
0.0
 41
1.0
 10
939.01678315381548
 20
-1344.4329732350884
 30
0.0
 41
0.9993784877590545
 10
938.98976751870907
 20
-1344.3614325299302
 30
0.0
 41
1.0
 10
938.98923582773227
 20
-1344.3600245472098
 30
0.0
 41
1.0
 10
938.98870413675536
 20
-1344.3586165644895
 30
0.0
 41
1.0
 10
938.96275188360221
 20
-1344.2898918247708
 30
0.0
 41
0.999243083225471
 10
938.93153534844305
 20
-1344.2233926727029
 30
0.0
 41
1.0
 10
938.93095323238663
 20
-1344.2221526175858
 30
0.0
 41
1.0
 10
938.93037111633021
 20
-1344.220912562469
 30
0.0
 41
1.0
 10
938.90031881328446
 20
-1344.1568935206362
 30
0.0
 41
0.9990789632798747
 10
938.86488818650707
 20
-1344.095686908885
 30
0.0
 41
1.0
 10
938.86429248032516
 20
-1344.094657823026
 30
0.0
 41
1.0
 10
938.86369677414325
 20
-1344.0936287371669
 30
0.0
 41
1.0
 10
938.82945755973049
 20
-1344.0344802971354
 30
0.0
 41
0.9988874801120607
 10
938.78979828369836
 20
-1343.9788205847174
 30
0.0
 41
1.0
 10
938.78924275763393
 20
-1343.9780409330424
 30
0.0
 41
1.0
 10
938.7886872315695
 20
-1343.9772612813674
 30
0.0
 41
1.0
 10
938.75013900766612
 20
-1343.9231608722991
 30
0.0
 41
0.9986762060692608
 10
938.70623653639007
 20
-1343.8733071578604
 30
0.0
 41
1.0
 10
938.705792576058
 20
-1343.8728030160439
 30
0.0
 41
1.0
 10
938.70534861572594
 20
-1343.8722988742275
 30
0.0
 41
1.0
 10
938.66233406511401
 20
-1343.8234534434214
 30
0.0
 41
0.9984621642488659
 10
938.61417650833607
 20
-1343.7796701429502
 30
0.0
 41
1.0
 10
938.61392987381942
 20
-1343.7794459107865
 30
0.0
 41
1.0
 10
938.61368323930265
 20
-1343.7792216786229
 30
0.0
 41
1.0
 10
938.56601895155779
 20
-1343.7358868424785
 30
0.0
 41
0.9982724693850478
 10
938.51360031971683
 20
-1343.6984424919613
 30
0.0
 41
1.0
 10
938.46118168787564
 20
-1343.6609981414438
 30
0.0
 41
0.998139918015859
 10
938.40459562448336
 20
-1343.6302116220008
 30
0.0
 41
1.0
 10
938.40454996240419
 20
-1343.6301867788434
 30
0.0
 41
1.0
 10
938.40450430032513
 20
-1343.6301619356857
 30
0.0
 41
1.0
 10
938.34782691277428
 20
-1343.5993257299276
 30
0.0
 41
0.9980927086836355
 10
938.28778156170677
 20
-1343.5757089210747
 30
0.0
 41
1.0
 10
938.28734139199594
 20
-1343.5755357952
 30
0.0
 41
1.0
 10
938.28690122228511
 20
-1343.5753626693254
 30
0.0
 41
1.0
 10
938.22597553179571
 20
-1343.5513996087232
 30
0.0
 41
0.9981411356562383
 10
938.16258701039703
 20
-1343.5350269672176
 30
0.0
 41
1.0
 10
938.16170489369506
 20
-1343.5347991250119
 30
0.0
 41
1.0
 10
938.16082277699309
 20
-1343.5345712828064
 30
0.0
 41
1.0
 10
938.09567002219137
 20
-1343.5177429568901
 30
0.0
 41
0.9983031812935573
 10
938.02900259319745
 20
-1343.5086035957138
 30
0.0
 41
1.0
 10
938.0201315677923
 20
-1343.5073874770424
 30
0.0
 41
1.0
 10
938.01126054238728
 20
-1343.5061713583709
 30
0.0
 41
1.0
 10
937.95691089988384
 20
-1343.4987206283799
 30
0.0
 41
0.9983887708262165
 10
937.90206705059131
 20
-1343.4974759547467
 30
0.0
 41
1.0
 10
937.89400364537369
 20
-1343.4972929568719
 30
0.0
 41
1.0
 10
937.88594024015606
 20
-1343.497109958997
 30
0.0
 41
1.0
 10
937.84722320129845
 20
-1343.4962312811135
 30
0.0
 41
0.9998869563080632
 10
937.80849724809582
 20
-1343.4965171504732
 30
0.0
 41
1.0
 10
937.76977129487432
 20
-1343.4968030198331
 30
0.0
 41
0.9999972320153787
 10
937.73104711564429
 20
-1343.4972711193623
 30
0.0
 41
1.0
 10
937.71169409908339
 20
-1343.4975050594514
 30
0.0
 41
1.0
 10
937.69234108252238
 20
-1343.4977389995406
 30
0.0
 41
1.0
 10
937.61491087015406
 20
-1343.4986749792483
 30
0.0
 41
0.9997304945086828
 10
937.53760756391887
 20
-1343.5032040730341
 30
0.0
 41
1.0
 10
937.52855792221226
 20
-1343.5037342790242
 30
0.0
 41
1.0
 10
937.51950828050553
 20
-1343.5042644850143
 30
0.0
 41
1.0
 10
937.42410569085985
 20
-1343.5098539907804
 30
0.0
 41
0.999788830641582
 10
937.32901335501811
 20
-1343.5193589552694
 30
0.0
 41
1.0
 10
937.32029229344471
 20
-1343.5202306699016
 30
0.0
 41
1.0
 10
937.31157123187131
 20
-1343.5211023845336
 30
0.0
 41
1.0
 10
937.19903677288255
 20
-1343.5323507782869
 30
0.0
 41
0.9984170238190281
 10
937.08847762553034
 20
-1343.5561668602229
 30
0.0
 41
1.0
 10
937.05209649454571
 20
-1343.5640038960287
 30
0.0
 41
1.0
 10
937.01571536356107
 20
-1343.5718409318345
 30
0.0
 41
1.0
 10
936.90052429513855
 20
-1343.5966547983442
 30
0.0
 41
0.9976592854199026
 10
936.78979612873252
 20
-1343.6369534754917
 30
0.0
 41
1.0
 10
936.67906796232774
 20
-1343.6772521526389
 30
0.0
 41
0.9993255074352443
 10
936.57159616353647
 20
-1343.7255690511315
 30
0.0
 41
1.0
 10
936.56697098461336
 20
-1343.7276484273311
 30
0.0
 41
1.0
 10
936.56234580569014
 20
-1343.7297278035307
 30
0.0
 41
1.0
 10
936.4456236490521
 20
-1343.7822034544229
 30
0.0
 41
0.9976475078274126
 10
936.33717630474132
 20
-1343.8501514440818
 30
0.0
 41
1.0
 10
936.31883391060728
 20
-1343.8616439228958
 30
0.0
 41
1.0
 10
936.30049151647336
 20
-1343.8731364017099
 30
0.0
 41
1.0
 10
936.2162893249216
 20
-1343.925893522478
 30
0.0
 41
0.9995131336407281
 10
936.13554160996318
 20
-1343.9837997344318
 30
0.0
 41
1.0
 10
936.05479389500613
 20
-1344.0417059463848
 30
0.0
 41
0.9995810107606286
 10
935.9775322472774
 20
-1344.1041876288505
 30
0.0
 41
1.0
 10
935.97456221606717
 20
-1344.1065895003153
 30
0.0
 41
1.0
 10
935.97159218485683
 20
-1344.1089913717799
 30
0.0
 41
1.0
 10
935.88839047470435
 20
-1344.1762767971777
 30
0.0
 41
0.9996617837955071
 10
935.80879978756752
 20
-1344.2477972527392
 30
0.0
 41
1.0
 10
935.79666903669181
 20
-1344.2586979857288
 30
0.0
 41
1.0
 10
935.78453828581621
 20
-1344.2695987187183
 30
0.0
 41
1.0
 10
935.71626275842073
 20
-1344.3309513341894
 30
0.0
 41
0.9997267750051891
 10
935.65092925013732
 20
-1344.3954278707147
 30
0.0
 41
1.0
 10
935.58559574187075
 20
-1344.4599044072229
 30
0.0
 41
0.999966728895346
 10
935.52132279873365
 20
-1344.5254382141075
 30
0.0
 41
1.0
 10
935.45249535094513
 20
-1344.5956158728791
 30
0.0
 41
1.0
 10
935.38366790315672
 20
-1344.6657935316509
 30
0.0
 41
1.0
 10
935.18174006445975
 20
-1344.8716826560619
 30
0.0
 41
0.998820533517512
 10
935.00073444748125
 20
-1345.0961868881213
 30
0.0
 41
1.0
 10
934.97009448257609
 20
-1345.1341901385517
 30
0.0
 41
1.0
 10
934.93945451767104
 20
-1345.1721933889821
 30
0.0
 41
1.0
 10
934.69716897088097
 20
-1345.4727041219039
 30
0.0
 41
0.9997077826754669
 10
934.46969101977277
 20
-1345.7845739161248
 30
0.0
 41
1.0
 10
934.4679676046444
 20
-1345.7869366995014
 30
0.0
 41
1.0
 10
934.46624418951603
 20
-1345.7892994828781
 30
0.0
 41
1.0
 10
934.23531940814996
 20
-1346.1058948438533
 30
0.0
 41
0.9989147567079064
 10
934.0348559052652
 20
-1346.4426043050403
 30
0.0
 41
1.0
 10
934.01011475995983
 20
-1346.48416088559
 30
0.0
 41
1.0
 10
933.98537361465435
 20
-1346.5257174661399
 30
0.0
 41
1.0
 10
933.83016231601573
 20
-1346.7864188505951
 30
0.0
 41
0.9997476598180884
 10
933.68681732850553
 20
-1347.0538285991784
 30
0.0
 41
1.0
 10
933.5434723409976
 20
-1347.3212383477576
 30
0.0
 41
0.9996258967110341
 10
933.41496408906596
 20
-1347.596086284381
 30
0.0
 41
1.0
 10
933.40176417961391
 20
-1347.6243176844819
 30
0.0
 41
1.0
 10
933.38856427016185
 20
-1347.6525490845825
 30
0.0
 41
1.0
 10
933.24835554916251
 20
-1347.9524214825346
 30
0.0
 41
0.9998735413945146
 10
933.11775420244442
 20
-1348.2566010819974
 30
0.0
 41
1.0
 10
933.11431137438285
 20
-1348.2646196674646
 30
0.0
 41
1.0
 10
933.1108685463214
 20
-1348.2726382529315
 30
0.0
 41
1.0
 10
932.98715285572348
 20
-1348.5607806814664
 30
0.0
 41
0.9999377418863275
 10
932.86989805354938
 20
-1348.85161214914
 30
0.0
 41
1.0
 10
932.75264325138028
 20
-1349.1424436168013
 30
0.0
 41
0.9999508299512718
 10
932.64117930800592
 20
-1349.4355432936136
 30
0.0
 41
1.0
 10
932.6380985393389
 20
-1349.4436443195893
 30
0.0
 41
1.0
 10
932.63501777067188
 20
-1349.4517453455651
 30
0.0
 41
1.0
 10
932.51739228996757
 20
-1349.7610470743193
 30
0.0
 41
0.9999609228439935
 10
932.40525368709098
 20
-1350.0723800903424
 30
0.0
 41
1.0
 10
932.40229767674361
 20
-1350.0805869307455
 30
0.0
 41
1.0
 10
932.39934166639625
 20
-1350.0887937711486
 30
0.0
 41
1.0
 10
932.281291042823
 20
-1350.4165404679832
 30
0.0
 41
0.9999674607400171
 10
932.1685435167534
 20
-1350.7461490879821
 30
0.0
 41
1.0
 10
932.11714512619164
 20
-1350.8964082836719
 30
0.0
 41
1.0
 10
932.06574673562989
 20
-1351.0466674793615
 30
0.0
 41
1.0
 10
931.94973612887327
 20
-1351.3858154618611
 30
0.0
 41
0.9999287532306023
 10
931.84185472490117
 20
-1351.7276362008408
 30
0.0
 41
1.0
 10
931.79537746882613
 20
-1351.8748987450085
 30
0.0
 41
1.0
 10
931.7489002127511
 20
-1352.0221612891764
 30
0.0
 41
1.0
 10
931.73397332095965
 20
-1352.0694569397238
 30
0.0
 41
0.9999998224589962
 10
931.71910281220005
 20
-1352.1167703480573
 30
0.0
 41
1.0
 10
930.0984466754046
 20
-1357.2647988498468
 30
0.0
 41
1.0
 10
928.47779053860916
 20
-1362.4128273516362
 30
0.0
 41
1.0
 10
927.57248209471823
 20
-1362.4128273516362
 30
0.0
 41
1.0
 10
926.66717365082729
 20
-1362.4128273516362
 30
0.0
 41
1.0
 10
928.51925806221334
 20
-1356.5257554291688
 30
0.0
 41
1.0
 10
930.37134247359938
 20
-1350.6386835067015
 30
0.0
 41
1.0
 10
930.38146423190199
 20
-1350.6066402932515
 30
0.0
 41
1.0
 10
930.45407190075173
 20
-1350.3763407514257
 30
0.0
 41
1.0
 10
930.52667956959203
 20
-1350.1460412096296
 30
0.0
 41
0.9999825681971735
 10
930.59656260880001
 20
-1349.9149003145776
 30
0.0
 41
1.0
 10
930.64485367096904
 20
-1349.7551757310544
 30
0.0
 41
1.0
 10
930.69314473313807
 20
-1349.5954511475313
 30
0.0
 41
1.0
 10
930.79029708645419
 20
-1349.2741159257587
 30
0.0
 41
0.9999672528961787
 10
930.88223589207394
 20
-1348.951250380185
 30
0.0
 41
1.0
 10
930.88502477574946
 20
-1348.9414565347747
 30
0.0
 41
1.0
 10
930.88781365942498
 20
-1348.9316626893647
 30
0.0
 41
1.0
 10
930.97417469770403
 20
-1348.6283848345754
 30
0.0
 41
0.9999899749144574
 10
931.05781630723197
 20
-1348.3243457461463
 30
0.0
 41
1.0
 10
931.06792222624995
 20
-1348.2876105084665
 30
0.0
 41
1.0
 10
931.07802814526781
 20
-1348.2508752707868
 30
0.0
 41
1.0
 10
931.14145791676629
 20
-1348.0203066576946
 30
0.0
 41
0.9999214200504665
 10
931.19908734514433
 20
-1347.7882203154845
 30
0.0
 41
1.0
 10
931.21185319732342
 20
-1347.7368094300946
 30
0.0
 41
1.0
 10
931.22461904950251
 20
-1347.6853985447046
 30
0.0
 41
1.0
 10
931.25671677352011
 20
-1347.5561339732826
 30
0.0
 41
0.9999828681666056
 10
931.28729902551754
 20
-1347.4265024988076
 30
0.0
 41
1.0
 10
931.3178812775144
 20
-1347.2968710243335
 30
0.0
 41
0.9999389844479563
 10
931.34559226630518
 20
-1347.1665955684266
 30
0.0
 41
1.0
 10
931.35273001002383
 20
-1347.1330394645961
 30
0.0
 41
1.0
 10
931.35986775374261
 20
-1347.0994833607654
 30
0.0
 41
1.0
 10
931.4018542299716
 20
-1346.9020956971935
 30
0.0
 41
0.9998933699441154
 10
931.43805849437467
 20
-1346.7035660894308
 30
0.0
 41
1.0
 10
931.43943131959099
 20
-1346.6960380687347
 30
0.0
 41
1.0
 10
931.4408041448072
 20
-1346.6885100480388
 30
0.0
 41
1.0
 10
931.479754059642
 20
-1346.4749243988879
 30
0.0
 41
0.9996850305193432
 10
931.50793773590055
 20
-1346.2596533934525
 30
0.0
 41
1.0
 10
931.50993276926988
 20
-1346.244415039331
 30
0.0
 41
1.0
 10
931.51192780263909
 20
-1346.2291766852095
 30
0.0
 41
1.0
 10
931.53933566509818
 20
-1346.019831458053
 30
0.0
 41
0.9994697936707012
 10
931.55306022431819
 20
-1345.809146262721
 30
0.0
 41
1.0
 10
931.55353729356784
 20
-1345.8018227905109
 30
0.0
 41
1.0
 10
931.55401436281738
 20
-1345.7944993183007
 30
0.0
 41
1.0
 10
931.56678478353774
 20
-1345.5984610673929
 30
0.0
 41
0.9991804893136884
 10
931.56365646726499
 20
-1345.4020322174169
 30
0.0
 41
1.0
 10
931.56357258844287
 20
-1345.3967654160042
 30
0.0
 41
1.0
 10
931.56348870962074
 20
-1345.3914986145912
 30
0.0
 41
1.0
 10
931.56052815099224
 20
-1345.2056033674446
 30
0.0
 41
0.9988448329321664
 10
931.53973660536838
 20
-1345.0208507776101
 30
0.0
 41
1.0
 10
931.53814253166547
 20
-1345.0066859218398
 30
0.0
 41
1.0
 10
931.53654845796257
 20
-1344.9925210660695
 30
0.0
 41
1.0
 10
931.51894505974462
 20
-1344.8360981877768
 30
0.0
 41
0.9985503209458482
 10
931.48462878744499
 20
-1344.6824740036875
 30
0.0
 41
1.0
 10
931.47704279537402
 20
-1344.6485136762885
 30
0.0
 41
1.0
 10
931.46945680330316
 20
-1344.6145533488898
 30
0.0
 41
1.0
 10
931.45031251514558
 20
-1344.5288498195996
 30
0.0
 41
0.9991036781371004
 10
931.42398765349424
 20
-1344.4450727322733
 30
0.0
 41
1.0
 10
931.42000542803771
 20
-1344.4323995697607
 30
0.0
 41
1.0
 10
931.41602320258107
 20
-1344.4197264072482
 30
0.0
 41
1.0
 10
931.39766279184141
 20
-1344.3612956449424
 30
0.0
 41
0.9998874504367161
 10
931.37755758416472
 20
-1344.303442042725
 30
0.0
 41
1.0
 10
931.35745237648621
 20
-1344.2455884405013
 30
0.0
 41
0.9994041637544248
 10
931.3334037635517
 20
-1344.1892597366107
 30
0.0
 41
1.0
 10
931.32920697932855
 20
-1344.1794296721309
 30
0.0
 41
1.0
 10
931.32501019510539
 20
-1344.169599607651
 30
0.0
 41
1.0
 10
931.2971313641101
 20
-1344.1042994416819
 30
0.0
 41
0.9991846840702251
 10
931.26407500741641
 20
-1344.0414614104004
 30
0.0
 41
1.0
 10
931.26293840102107
 20
-1344.0393007939451
 30
0.0
 41
1.0
 10
931.26180179462563
 20
-1344.0371401774896
 30
0.0
 41
1.0
 10
931.23101865072294
 20
-1343.9786233791194
 30
0.0
 41
0.9989253167921887
 10
931.19494922666831
 20
-1343.92320845073
 30
0.0
 41
1.0
 10
931.19389510199449
 20
-1343.9215889559682
 30
0.0
 41
1.0
 10
931.19284097732054
 20
-1343.9199694612064
 30
0.0
 41
1.0
 10
931.15887980261311
 20
-1343.8677935223398
 30
0.0
 41
0.9986467172836846
 10
931.11968264997586
 20
-1343.8194274887103
 30
0.0
 41
1.0
 10
931.11880852127479
 20
-1343.8183488864315
 30
0.0
 41
1.0
 10
931.1179343925736
 20
-1343.8172702841528
 30
0.0
 41
1.0
 10
931.08048549733792
 20
-1343.7710614550801
 30
0.0
 41
0.9984001104267471
 10
931.03805876682134
 20
-1343.7293763477119
 30
0.0
 41
1.0
 10
931.03747162871241
 20
-1343.728799472831
 30
0.0
 41
1.0
 10
931.03688449060348
 20
-1343.7282225979502
 30
0.0
 41
1.0
 10
930.99563203630487
 20
-1343.6876912403436
 30
0.0
 41
0.9982442159082664
 10
930.94987593496865
 20
-1343.652322679083
 30
0.0
 41
1.0
 10
930.94966113950682
 20
-1343.6521566464398
 30
0.0
 41
1.0
 10
930.9494463440451
 20
-1343.6519906137967
 30
0.0
 41
1.0
 10
930.90411983363344
 20
-1343.6169541178233
 30
0.0
 41
0.9982450060837776
 10
930.85496885456121
 20
-1343.5875223347891
 30
0.0
 41
1.0
 10
930.80581787548954
 20
-1343.5580905517554
 30
0.0
 41
0.9983922639634538
 10
930.75365156932492
 20
-1343.5344109171015
 30
0.0
 41
1.0
 10
930.75342469200029
 20
-1343.5343079316199
 30
0.0
 41
1.0
 10
930.75319781467567
 20
-1343.5342049461385
 30
0.0
 41
1.0
 10
930.70057775386124
 20
-1343.5103193405214
 30
0.0
 41
0.9986517147150378
 10
930.64576478099343
 20
-1343.4920182213996
 30
0.0
 41
1.0
 10
930.64508685956594
 20
-1343.4917918749684
 30
0.0
 41
1.0
 10
930.64440893813833
 20
-1343.491565528537
 30
0.0
 41
1.0
 10
930.58824012241541
 20
-1343.4728117165525
 30
0.0
 41
0.9989435598956332
 10
930.5305867352638
 20
-1343.4592940143179
 30
0.0
 41
1.0
 10
930.52950661568184
 20
-1343.4590407640649
 30
0.0
 41
1.0
 10
930.52842649609988
 20
-1343.4587875138118
 30
0.0
 41
1.0
 10
930.46861286978537
 20
-1343.4447633110713
 30
0.0
 41
0.999224924123971
 10
930.40788136088804
 20
-1343.4354879683563
 30
0.0
 41
1.0
 10
930.40646767259682
 20
-1343.4352720599484
 30
0.0
 41
1.0
 10
930.4050539843056
 20
-1343.4350561515405
 30
0.0
 41
1.0
 10
930.34149509882457
 20
-1343.4253489920095
 30
0.0
 41
0.999439659783393
 10
930.27742916228556
 20
-1343.4199160696637
 30
0.0
 41
1.0
 10
930.25828849480956
 20
-1343.4182929019453
 30
0.0
 41
1.0
 10
930.23914782733357
 20
-1343.4166697342266
 30
0.0
 41
1.0
 10
930.13680055584257
 20
-1343.4079904764437
 30
0.0
 41
0.9987693403121298
 10
930.03409693225694
 20
-1343.4094935398962
 30
0.0
 41
1.0
 10
930.02384259802659
 20
-1343.4096436116706
 30
0.0
 41
1.0
 10
930.01358826379624
 20
-1343.4097936834448
 30
0.0
 41
1.0
 10
929.90403249761914
 20
-1343.4113970277322
 30
0.0
 41
0.9989753644966194
 10
929.79507049760412
 20
-1343.4229000346572
 30
0.0
 41
1.0
 10
929.68610849758829
 20
-1343.4344030415823
 30
0.0
 41
0.9983190067305888
 10
929.57920968662393
 20
-1343.4584380333688
 30
0.0
 41
1.0
 10
929.57030873501662
 20
-1343.4604393119316
 30
0.0
 41
1.0
 10
929.56140778340921
 20
-1343.4624405904945
 30
0.0
 41
1.0
 10
929.43670706923024
 20
-1343.4904781394066
 30
0.0
 41
0.9985539388302668
 10
929.31573731555216
 20
-1343.5317418154525
 30
0.0
 41
1.0
 10
929.31339188459219
 20
-1343.5325418592683
 30
0.0
 41
1.0
 10
929.31104645363212
 20
-1343.533341903084
 30
0.0
 41
1.0
 10
929.18538583803377
 20
-1343.5762056667613
 30
0.0
 41
0.9988468746493867
 10
929.06441549573435
 20
-1343.6309237518233
 30
0.0
 41
1.0
 10
929.06123267374517
 20
-1343.6323634263836
 30
0.0
 41
1.0
 10
929.05804985175598
 20
-1343.6338031009436
 30
0.0
 41
1.0
 10
928.93071386547831
 20
-1343.6914005351259
 30
0.0
 41
0.9991322885919579
 10
928.80861328142089
 20
-1343.7593958673078
 30
0.0
 41
1.0
 10
928.79101127037711
 20
-1343.7691980692975
 30
0.0
 41
1.0
 10
928.77340925933345
 20
-1343.7790002712873
 30
0.0
 41
1.0
 10
928.67123257827654
 20
-1343.8359003870678
 30
0.0
 41
0.9993860037849373
 10
928.57329157420304
 20
-1343.8998164026564
 30
0.0
 41
1.0
 10
928.56767326134923
 20
-1343.9034828973522
 30
0.0
 41
1.0
 10
928.5620549484953
 20
-1343.9071493920483
 30
0.0
 41
1.0
 10
928.47535057012806
 20
-1343.9637324182459
 30
0.0
 41
0.9998821494953818
 10
928.39042419431678
 20
-1344.0229506483217
 30
0.0
 41
1.0
 10
928.30549781850652
 20
-1344.0821688783967
 30
0.0
 41
0.9997976482744712
 10
928.22302218810751
 20
-1344.1447552864349
 30
0.0
 41
1.0
 10
928.20838592329892
 20
-1344.1558619762175
 30
0.0
 41
1.0
 10
928.19374965849045
 20
-1344.166968666
 30
0.0
 41
1.0
 10
928.0820014984746
 20
-1344.2517684536033
 30
0.0
 41
0.9998091630799891
 10
927.97365122044266
 20
-1344.3408688043082
 30
0.0
 41
1.0
 10
927.96064546796879
 20
-1344.3515639047514
 30
0.0
 41
1.0
 10
927.9476397154948
 20
-1344.3622590051948
 30
0.0
 41
1.0
 10
927.81327793251285
 20
-1344.4727495567881
 30
0.0
 41
0.9995035112317261
 10
927.68614205474944
 20
-1344.5914833738029
 30
0.0
 41
1.0
 10
927.67649474436303
 20
-1344.60049311996
 30
0.0
 41
1.0
 10
927.66684743397673
 20
-1344.6095028661171
 30
0.0
 41
1.0
 10
927.54342437121147
 20
-1344.724769237873
 30
0.0
 41
0.9994630424299612
 10
927.42781596542534
 20
-1344.8478719811101
 30
0.0
 41
1.0
 10
927.42413312665076
 20
-1344.8517935606264
 30
0.0
 41
1.0
 10
927.42045028787629
 20
-1344.8557151401428
 30
0.0
 41
1.0
 10
927.31220755963841
 20
-1344.9709747243483
 30
0.0
 41
0.9995160693749698
 10
927.21134153010939
 20
-1345.0927421422177
 30
0.0
 41
1.0
 10
927.20940781003151
 20
-1345.0950765664224
 30
0.0
 41
1.0
 10
927.20747408995362
 20
-1345.0974109906272
 30
0.0
 41
1.0
 10
927.11047550057947
 20
-1345.2145095600877
 30
0.0
 41
0.999656147051508
 10
927.01974928191157
 20
-1345.3365323225394
 30
0.0
 41
1.0
 10
927.01359161600931
 20
-1345.3448141115819
 30
0.0
 41
1.0
 10
927.00743395010716
 20
-1345.3530959006246
 30
0.0
 41
1.0
 10
926.92902306324504
 20
-1345.4585550849895
 30
0.0
 41
0.9998349055171543
 10
926.8544957813134
 20
-1345.5667936686521
 30
0.0
 41
1.0
 10
926.77996849937722
 20
-1345.6750322523212
 30
0.0
 41
0.9999728109559769
 10
926.70704560347167
 20
-1345.7843581778698
 30
0.0
 41
1.0
 10
926.70573038805969
 20
-1345.7863299473729
 30
0.0
 41
1.0
 10
926.7044151726476
 20
-1345.7883017168758
 30
0.0
 41
1.0
 10
926.62886184590047
 20
-1345.9015711814566
 30
0.0
 41
0.9999972147358669
 10
926.5538440355358
 20
-1346.0151960242781
 30
0.0
 41
1.0
 10
926.54887249291551
 20
-1346.0227261127473
 30
0.0
 41
1.0
 10
926.54390095029532
 20
-1346.0302562012164
 30
0.0
 41
1.0
 10
926.45894005467608
 20
-1346.1589412209973
 30
0.0
 41
0.9999371979006501
 10
926.37688470527701
 20
-1346.2894981347665
 30
0.0
 41
1.0
 10
926.37337582091254
 20
-1346.2950810628358
 30
0.0
 41
1.0
 10
926.36986693654819
 20
-1346.3006639909049
 30
0.0
 41
1.0
 10
926.28079381842019
 20
-1346.4423867608125
 30
0.0
 41
0.9998272025609543
 10
926.19705042753571
 20
-1346.5873226375591
 30
0.0
 41
1.0
 10
926.18183525551262
 20
-1346.6136557520142
 30
0.0
 41
1.0
 10
926.16662008348942
 20
-1346.6399888664694
 30
0.0
 41
1.0
 10
926.05244634855887
 20
-1346.8375909721258
 30
0.0
 41
0.9995217214838245
 10
925.95070665900346
 20
-1347.0418732999879
 30
0.0
 41
1.0
 10
925.94306309637034
 20
-1347.0572207496868
 30
0.0
 41
1.0
 10
925.93541953373722
 20
-1347.0725681993858
 30
0.0
 41
1.0
 10
925.84851424114595
 20
-1347.2470646574709
 30
0.0
 41
0.9998269762607637
 10
925.76815977487183
 20
-1347.4246729441982
 30
0.0
 41
1.0
 10
925.68780530859726
 20
-1347.602281230927
 30
0.0
 41
0.9998944747389702
 10
925.61264451403042
 20
-1347.782148956562
 30
0.0
 41
1.0
 10
925.60769084444132
 20
-1347.7940036114742
 30
0.0
 41
1.0
 10
925.60273717485234
 20
-1347.8058582663866
 30
0.0
 41
1.0
 10
925.52209011429773
 20
-1347.9988552064096
 30
0.0
 41
0.9999506734414413
 10
925.44529258539603
 20
-1348.193416011261
 30
0.0
 41
1.0
 10
925.43069262013057
 20
-1348.2304039330534
 30
0.0
 41
1.0
 10
925.41609265486511
 20
-1348.2673918548455
 30
0.0
 41
1.0
 10
925.36849505649525
 20
-1348.3879768161096
 30
0.0
 41
0.9999912393921692
 10
925.32190861246988
 20
-1348.5089560188128
 30
0.0
 41
1.0
 10
925.27532216845361
 20
-1348.6299352214924
 30
0.0
 41
0.9999927113936861
 10
925.2296608740661
 20
-1348.7512666289761
 30
0.0
 41
1.0
 10
925.21569244266198
 20
-1348.7883836109922
 30
0.0
 41
1.0
 10
925.20172401125774
 20
-1348.8255005930084
 30
0.0
 41
1.0
 10
925.12812585406664
 20
-1349.0210659645127
 30
0.0
 41
0.9999487550945874
 10
925.05850222909032
 20
-1349.2180813297082
 30
0.0
 41
1.0
 10
925.03490861915691
 20
-1349.2848446399912
 30
0.0
 41
1.0
 10
925.01131500922349
 20
-1349.351607950274
 30
0.0
 41
1.0
 10
924.9166293748533
 20
-1349.6195417850977
 30
0.0
 41
0.9999808436945415
 10
924.8252677862107
 20
-1349.8886272163656
 30
0.0
 41
1.0
 10
924.73390619757765
 20
-1350.1577126476054
 30
0.0
 41
0.9999873932905495
 10
924.64525148886821
 20
-1350.4277020025922
 30
0.0
 41
1.0
 10
924.62515913199036
 20
-1350.4888913353707
 30
0.0
 41
1.0
 10
924.6050667751125
 20
-1350.5500806681493
 30
0.0
 41
1.0
 10
924.47622735265065
 20
-1350.942448688684
 30
0.0
 41
0.9999794883031739
 10
924.3524245676864
 20
-1351.3364348949819
 30
0.0
 41
1.0
 10
924.3412723082763
 20
-1351.3719255051319
 30
0.0
 41
1.0
 10
924.33012004886632
 20
-1351.4074161152816
 30
0.0
 41
1.0
 10
924.18756188496059
 20
-1351.8610888673936
 30
0.0
 41
0.9999982761828343
 10
924.04668944490993
 20
-1352.3152878896299
 30
0.0
 41
1.0
 10
922.45854911233732
 20
-1357.364057620633
 30
0.0
 41
1.0
 10
920.87040877976472
 20
-1362.4128273516362
 30
0.0
 41
1.0
 10
919.92165816828833
 20
-1362.4128273516362
 30
0.0
 41
1.0
 10
918.97290755681195
 20
-1362.4128273516362
 30
0.0
 41
1.0
 10
922.21119204296508
 20
-1352.0855051516901
 30
0.0
 41
1.0
 10
925.44947652911821
 20
-1341.7581829517439
 30
0.0
 41
1.0
  0
LWPOLYLINE
  5
5E
100
AcDbEntity
  8
0
370
              15
390
0
  6
Continuous
 62
               7
100
AcDbPolyline
 90
      232
 70
             128
 10
899.74593075529117
 20
-1342.8425257832591
 42
0.0004370800691482
 10
899.69305358132647
 20
-1342.9111924223757
 10
899.65376935009169
 20
-1342.9622995354121
 42
0.003048199217863
 10
899.52343063294973
 20
-1343.1340212277869
 10
899.48491896122221
 20
-1343.1854080115445
 42
0.0042058245756443
 10
899.2809339105529
 20
-1343.4624137566175
 10
899.22852878805168
 20
-1343.5348466033988
 42
0.0120948898745133
 10
898.9324848712896
 20
-1343.9655962079489
 10
898.83629237216746
 20
-1344.1130769431741
 42
0.0141601263949539
 10
898.53264832524644
 20
-1344.6087462799082
 10
898.49311105781521
 20
-1344.6775902473494
 42
0.0071131081302267
 10
898.28783873458201
 20
-1345.0470930461781
 42
0.0068458791004015
 10
898.09295920774173
 20
-1345.4221846096484
 10
898.08614734528112
 20
-1345.4357463233778
 42
0.0064120880288379
 10
897.88800509524253
 20
-1345.8431707982845
 10
897.88047040971981
 20
-1345.8591826550178
 42
0.0058857236452268
 10
897.67771501784136
 20
-1346.3035587660681
 10
897.66954009155415
 20
-1346.3220489196867
 42
0.005318974189557
 10
897.46083577889306
 20
-1346.8080123935895
 10
897.45208797320527
 20
-1346.8289942718009
 42
0.0047503650418215
 10
897.23611424705234
 20
-1347.3611937050159
 10
897.22684599870638
 20
-1347.3846700811184
 42
0.0042071762172825
 10
897.00229861498622
 20
-1347.967763675168
 10
896.99254921263002
 20
-1347.9937298500579
 42
0.0036680086483029
 10
896.758094569317
 20
-1348.6323652345923
 10
896.74788678947027
 20
-1348.6608137689336
 42
0.0032573142628531
 10
896.50225450349978
 20
-1349.3596664286979
 10
896.43360398266213
 20
-1349.5591295127419
 42
0.0026133366647625
 10
896.08515878390483
 20
-1350.588992796412
 10
896.02190199639563
 20
-1350.7792236318307
 42
0.0020592950743305
 10
895.808038927437
 20
-1351.4313272844181
 10
895.80498713627469
 20
-1351.4407637728252
 42
0.002560992853512
 10
895.60316663478795
 20
-1352.0759089951937
 10
895.60057526766627
 20
-1352.0842113361182
 42
0.0031362356242354
 10
895.4110844819844
 20
-1352.7049741923138
 10
895.40895343904958
 20
-1352.7121154985498
 42
0.0037229918029209
 10
895.23215305213068
 20
-1353.3211008004989
 10
895.23047446292821
 20
-1353.3270476906591
 42
0.0043077623704979
 10
895.0667336608592
 20
-1353.9268664224423
 42
0.0047654161822816
 10
894.91390493834285
 20
-1354.5295525113465
 10
894.87944032950418
 20
-1354.6711142884944
 42
0.0112969368446456
 10
894.68357597136082
 20
-1355.5628064491173
 10
894.65556958226387
 20
-1355.7056344952164
 42
0.0130056762571996
 10
894.45473233861719
 20
-1356.8925755668613
 10
894.43419258847018
 20
-1357.0366536803381
 42
0.013872153214469
 10
894.33048958393226
 20
-1357.943483166164
 10
894.31119409602468
 20
-1358.1669808880854
 42
0.0071254697008145
 10
894.27784745010183
 20
-1358.6301678969364
 10
894.272886475939
 20
-1358.7161718914895
 42
0.0028881799200002
 10
894.2577481826487
 20
-1359.0079136013392
 42
0.0060297297134456
 10
894.24781598287291
 20
-1359.2998625374628
 10
894.24675370120599
 20
-1359.3482549093862
 42
0.0229523164155252
 10
894.25448472899177
 20
-1359.6710097556706
 10
894.25871050251214
 20
-1359.7314132896861
 42
0.0123673300666939
 10
894.27778914903047
 20
-1359.9325340148616
 42
0.0128577674474788
 10
894.30698453943739
 20
-1360.1324318647921
 10
894.31411041282377
 20
-1360.1737606793854
 42
0.0285717853763761
 10
894.37860441451915
 20
-1360.4518768306975
 10
894.3922729381859
 20
-1360.498531600176
 42
0.0316283099163431
 10
894.50808351810019
 20
-1360.8175461020019
 10
894.51113220985599
 20
-1360.824532474328
 42
0.0338984824233194
 10
894.66056392082294
 20
-1361.1120984385166
 10
894.66287265019162
 20
-1361.1158894677906
 42
0.0350228718352296
 10
894.84523294086637
 20
-1361.3729414524694
 10
894.84611819264205
 20
-1361.3740205302342
 42
0.0347476747533783
 10
895.06054287988138
 20
-1361.6012055774534
 42
0.0331337701911996
 10
895.30378620562794
 20
-1361.797334239531
 10
895.30488630414391
 20
-1361.7981069427033
 42
0.0305233319083812
 10
895.57343099971797
 20
-1361.963235112795
 10
895.57666104421855
 20
-1361.9649591246573
 42
0.0273744481155118
 10
895.86921475579345
 20
-1362.1010972685478
 10
895.87431929093032
 20
-1362.1031408530173
 42
0.024096440619279
 10
896.18979636657457
 20
-1362.2121245792982
 10
896.19637969578605
 20
-1362.2140493189738
 42
0.0209636179812607
 10
896.53377984843712
 20
-1362.2975174669057
 10
896.54141230888729
 20
-1362.2990693799075
 42
0.0181388704694594
 10
896.89973470088773
 20
-1362.3584854731216
 10
896.90801554926384
 20
-1362.3595516569385
 42
0.0156086547589347
 10
897.28620291345749
 20
-1362.3962878435154
 10
897.32939816577937
 20
-1362.3991263459941
 42
0.0137148329024179
 10
897.65707131107865
 20
-1362.4116466012454
 10
897.70300750102751
 20
-1362.4121410343605
 42
0.0051057823885483
 10
897.93915308759688
 20
-1362.4122712887697
 42
0.0052256693313425
 10
898.17525037137762
 20
-1362.4075224643057
 10
898.24547715512495
 20
-1362.4053754982915
 42
0.0161507179049102
 10
898.62121423322537
 20
-1362.381725127965
 10
898.64122719359921
 20
-1362.3798149326774
 42
0.0101216737834043
 10
899.05525441509315
 20
-1362.3318220023114
 10
899.08930770451673
 20
-1362.3271743055022
 42
0.0245291776398328
 10
899.56609736006726
 20
-1362.2380992274261
 10
899.65092067558987
 20
-1362.2179033070806
 42
0.0143509212552286
 10
900.00755177953147
 20
-1362.1220986733013
 42
0.0156557857044692
 10
900.35776784426059
 20
-1362.0050874574817
 10
900.36526905875337
 20
-1362.0023172957283
 42
0.0170137333631383
 10
900.72186505444063
 20
-1361.8566596808544
 10
900.72896897684222
 20
-1361.8534718452934
 42
0.0183105364405415
 10
901.08831864500326
 20
-1361.676136803472
 10
901.09526540964725
 20
-1361.672386368597
 42
0.0194899958154224
 10
901.45374615063201
 20
-1361.4604073867058
 10
901.4607600299679
 20
-1361.4558820444113
 42
0.0204869852950954
 10
901.81477433206612
 20
-1361.206362029322
 10
901.82203994064878
 20
-1361.2007819639771
 42
0.0212516938555141
 10
902.16802987175367
 20
-1360.9108779670855
 10
902.21454656582989
 20
-1360.8684106569913
 42
0.0215248918249327
 10
902.47457273472014
 20
-1360.6096463779943
 10
902.51960246910085
 20
-1360.5608022566444
 42
0.0114578554950171
 10
902.67439462277821
 20
-1360.3849793231861
 10
902.68558915877031
 20
-1360.3716605596344
 42
0.0061531305138475
 10
902.8120638047593
 20
-1360.2173710263351
 42
0.0006325587117228
 10
902.93644228884637
 20
-1360.0613676507403
 10
902.95948242396253
 20
-1360.0323941299998
 42
0.004189776155631
 10
903.12793782797144
 20
-1359.8168747538912
 10
903.18639994782734
 20
-1359.7407734069529
 42
0.0092993880040552
 10
903.46301187505162
 20
-1359.3664946430683
 10
903.54540636824595
 20
-1359.2505576395063
 42
0.0159321727082651
 10
903.89201285089223
 20
-1358.7283834187444
 10
903.93636898628188
 20
-1358.6567038544936
 42
0.0085547317017642
 10
904.17088075160711
 20
-1358.2628289052698
 42
0.0084601156889123
 10
904.39185692904869
 20
-1357.8612020562389
 10
904.3999724028796
 20
-1357.8458423739646
 42
0.0081429654285359
 10
904.62322167331831
 20
-1357.4061208614212
 10
904.63208183750112
 20
-1357.3879420194044
 42
0.0076574581326149
 10
904.85848934806916
 20
-1356.9047591441483
 10
904.86796898879152
 20
-1356.8836946658482
 42
0.0070682724206649
 10
905.09841389660312
 20
-1356.3516573610555
 10
905.10840418058001
 20
-1356.3276681720554
 42
0.0064559514446533
 10
905.34373738875718
 20
-1355.7413559055483
 10
905.35414674692674
 20
-1355.7144209800942
 42
0.0058311413905887
 10
905.59519348369099
 20
-1355.0683888857066
 10
905.60594856107707
 20
-1355.0385045445501
 42
0.0052312425819667
 10
905.85352983911912
 20
-1354.3273021307118
 10
905.8645736754977
 20
-1354.2944754186458
 42
0.0046680544793393
 10
906.11950210322448
 20
-1353.5126491029152
 10
906.16149425327103
 20
-1353.3796658656136
 42
0.004166685644549
 10
906.36478026567056
 20
-1352.7166970905932
 10
906.40244270633525
 20
-1352.5901159829366
 42
0.0015170975155445
 10
906.52362928474747
 20
-1352.1782476314459
 42
-0.0004887993112627
 10
906.64396905782019
 20
-1351.7661292195769
 10
906.72044631536573
 20
-1351.5051718334628
 42
0.0002583378929194
 10
906.99366088550266
 20
-1350.5711151300345
 10
907.07543373502301
 20
-1350.2910158706443
 42
0.0006636169673198
 10
907.26930149501788
 20
-1349.6236629471139
 10
907.27439814937543
 20
-1349.6060313641974
 42
0.0010589131324507
 10
907.45584685028155
 20
-1348.973300021185
 10
907.46082892074253
 20
-1348.9557871142333
 42
0.0015655524459932
 10
907.62909912794487
 20
-1348.357170434964
 10
907.63392932835382
 20
-1348.3397782760501
 42
0.0021640440479595
 10
907.78821930034587
 20
-1347.7747512580099
 10
907.79285351977228
 20
-1347.7574865280294
 42
0.0028763871852895
 10
907.93236923782865
 20
-1347.2255185771689
 10
907.9367551019958
 20
-1347.2083945990146
 42
0.003731051194631
 10
908.06071179383275
 20
-1346.7089470049907
 10
908.0647870141197
 20
-1346.6919867337538
 42
0.0047652197768536
 10
908.17241091463029
 20
-1346.2245089654402
 10
908.17610151395354
 20
-1346.2077494102907
 42
0.006027669930185
 10
908.26663161310728
 20
-1345.771673615146
 10
908.26985030339642
 20
-1345.7551724008367
 42
0.007582433775148
 10
908.34253961281195
 20
-1345.3499052364107
 10
908.34518499019237
 20
-1345.3337502889592
 42
0.0095130624613331
 10
908.39930022582348
 20
-1344.9586609358882
 10
908.40628644970695
 20
-1344.902727377764
 42
0.0121054653233011
 10
908.43287778028389
 20
-1344.6378315492977
 10
908.43374427004335
 20
-1344.6264281063702
 42
0.0069050827383936
 10
908.44883308808119
 20
-1344.3834868795245
 10
908.44996838774989
 20
-1344.3599606224775
 42
0.0169063976705057
 10
908.45279566673003
 20
-1344.163767895179
 10
908.45162501519849
 20
-1344.103432133822
 42
0.0052007732916665
 10
908.44937156660569
 20
-1344.0278387436779
 42
0.0054038123296994
 10
908.4294080547669
 20
-1343.9078204476682
 10
908.42432219889645
 20
-1343.8791619610868
 42
0.0112050460464702
 10
908.38893783683818
 20
-1343.7028355227485
 10
908.37111287479729
 20
-1343.6232939360268
 42
0.0240764468013231
 10
908.28021550865117
 20
-1343.2930569005259
 10
908.26165674583729
 20
-1343.2364367355308
 42
0.0256812331836307
 10
908.11829382564804
 20
-1342.8647125292744
 10
908.11288439982604
 20
-1342.8525811942834
 42
0.0268360501221174
 10
907.94345715897668
 20
-1342.5215880602636
 10
907.93792075134229
 20
-1342.5120683899524
 42
0.0274670231731785
 10
907.74571977492838
 20
-1342.2197810150342
 10
907.7403384749656
 20
-1342.2125018674926
 42
0.0275035967101154
 10
907.52876559540391
 20
-1341.9569859771889
 10
907.52369609443758
 20
-1341.9515068895587
 42
0.0269557673520792
 10
907.2962925509978
 20
-1341.730864603596
 10
907.29154949321583
 20
-1341.7267346491358
 42
0.025912480220974
 10
907.05199466178442
 20
-1341.5390441219829
 10
907.04746381660209
 20
-1341.5358586196523
 42
0.0245162152999345
 10
906.79954746350779
 20
-1341.3791256105421
 10
906.79502091718314
 20
-1341.376565413341
 42
0.022928258884307
 10
906.54260136035634
 20
-1341.2486972208424
 10
906.53782086651813
 20
-1341.2465449210797
 42
0.0212984135695259
 10
906.28478291405781
 20
-1341.1453460038381
 10
906.2794786290907
 20
-1341.143482441079
 42
0.0197555462344664
 10
906.02970029136532
 20
-1341.0666670231133
 42
0.0183511896784405
 10
905.77477156590339
 20
-1341.0090841161482
 10
905.68840636917889
 20
-1340.9928813257629
 42
0.033805787714722
 10
905.40289901991878
 20
-1340.9590729206225
 10
905.31189361487304
 20
-1340.9544932653607
 42
0.0091990524498097
 10
905.20604650624284
 20
-1340.9511174094389
 42
0.002833398079296
 10
905.10013259023765
 20
-1340.9502893019223
 10
905.09921713720064
 20
-1340.9502873320982
 42
-0.0023619827801926
 10
904.9914711220714
 20
-1340.9495464910196
 10
904.95506595191887
 20
-1340.9491241845567
 42
0.0008824598482625
 10
904.77450996210416
 20
-1340.9473484063187
 10
904.73064852966297
 20
-1340.9469944447928
 42
0.0038132665768274
 10
904.46236563378193
 20
-1340.9468755087264
 10
904.44583197899067
 20
-1340.9469942748699
 42
0.0060665569335865
 10
904.14455148739376
 20
-1340.9528145742909
 10
904.13030115537401
 20
-1340.9532628822583
 42
0.0080356953334908
 10
903.80084243903798
 20
-1340.9689306043249
 10
903.78877242394753
 20
-1340.9696991872656
 42
0.0098996399106745
 10
903.43600933929508
 20
-1340.999184416464
 10
903.42596362992197
 20
-1341.000224712662
 42
0.0117740981366177
 10
903.05480677157595
 20
-1341.0475169601914
 10
903.04658407509066
 20
-1341.0487620767626
 42
0.0137435215133853
 10
902.6619952556033
 20
-1341.1178590503246
 10
902.65533821648228
 20
-1341.1192449465577
 42
0.0158359869385699
 10
902.26234112267946
 20
-1341.2141370350384
 10
902.25692793581266
 20
-1341.2156269759089
 42
0.0180554124029143
 10
901.86061289120164
 20
-1341.3402649921472
 10
901.85605610311677
 20
-1341.341881028414
 42
0.0203657431285102
 10
901.46157858530125
 20
-1341.5001413699317
 10
901.45743504629809
 20
-1341.5020029913717
 42
0.0226819684657509
 10
901.06999899009543
 20
-1341.6976455700421
 10
901.06579919907631
 20
-1341.7000111619625
 42
0.0248634984601571
 10
900.69061725789516
 20
-1341.9366378079096
 10
900.64242232911283
 20
-1341.970494849734
 42
0.0267044190881183
 10
900.36812963219461
 20
-1342.1859352256035
 42
0.0139303002202137
 10
900.11196246624854
 20
-1342.4231740665227
 10
900.10710908053488
 20
-1342.4279267293757
 42
0.0283460963440463
 10
899.86303648630906
 20
-1342.6956573898187
 10
899.82336798115114
 20
-1342.7444589672937
 42
0.0070695364819099
 10
899.74593075529117
 20
-1342.8425257832591
 42
0.0070695364819099
  0
LWPOLYLINE
  5
5F
100
AcDbEntity
  8
0
370
              15
390
0
  6
Continuous
 62
               7
100
AcDbPolyline
 90
      226
 70
             128
 10
896.21711031804477
 20
-1358.5641145894433
 42
-0.0026277636659791
 10
896.21703243424463
 20
-1358.4973426637273
 10
896.21724979247676
 20
-1358.444187446257
 42
-0.008868029672807
 10
896.22102640876994
 20
-1358.2711716638514
 10
896.22337276788232
 20
-1358.2118916384004
 42
-0.0077381705617217
 10
896.23941887864487
 20
-1357.920631142611
 10
896.24028678981858
 20
-1357.9083429089171
 42
-0.0068872530529516
 10
896.26691886956712
 20
-1357.5931211568445
 10
896.26812309375282
 20
-1357.5808801778294
 42
-0.0062130021484706
 10
896.30571681058098
 20
-1357.2420104865878
 10
896.30722071411572
 20
-1357.2298366146742
 42
-0.005672692967592
 10
896.35614257361794
 20
-1356.8676413925616
 10
896.35791601926246
 20
-1356.8555475923156
 42
-0.005234188449152
 10
896.41852660552343
 20
-1356.4703543367925
 10
896.42054459429914
 20
-1356.4583494068054
 42
-0.0049768450167071
 10
896.49328327572493
 20
-1356.0505048393754
 10
896.51753229044721
 20
-1355.9219568563667
 42
-0.0089029805623886
 10
896.65461314224194
 20
-1355.2601814089444
 10
896.68735851756048
 20
-1355.1151499784207
 42
-0.0080318257101165
 10
896.91690713190178
 20
-1354.1694403465649
 10
896.92889205834945
 20
-1354.123309711377
 42
-0.0074265721317749
 10
897.21290359720012
 20
-1353.0932451329941
 10
897.23278314031393
 20
-1353.0251110724143
 42
-0.0069711922704057
 10
897.56008771882273
 20
-1351.9588433320791
 10
897.62003966592943
 20
-1351.772821973705
 42
-0.0052070422894837
 10
897.84946489118761
 20
-1351.0855498966771
 10
897.86674608335557
 20
-1351.0355226160725
 42
-0.0009167004451194
 10
898.06983797064913
 20
-1350.451066767906
 42
-0.002516272694553
 10
898.27693560091757
 20
-1349.8680255037273
 10
898.31416021270957
 20
-1349.764875957859
 42
-0.0028212681461714
 10
898.56233613168024
 20
-1349.089145325667
 10
898.57216689442691
 20
-1349.0628378810009
 42
-0.0031964916823911
 10
898.80845915209329
 20
-1348.4426331188633
 10
898.81809360609634
 20
-1348.4178231287096
 42
-0.0036281836451066
 10
899.04319956719348
 20
-1347.8503824478269
 10
899.05263797735574
 20
-1347.8270850163121
 42
-0.0041269166833791
 10
899.26725567401013
 20
-1347.3096441203456
 10
899.2998886304357
 20
-1347.2327656739733
 42
-0.0047472213055453
 10
899.45693343598452
 20
-1346.8723442061012
 10
899.46382751718988
 20
-1346.8569236087756
 42
-0.0025651659995423
 10
899.6121855510429
 20
-1346.5295955530207
 42
-0.005714463499795
 10
899.76593524481063
 20
-1346.2047858796657
 10
899.7939659502174
 20
-1346.1472774972601
 42
-0.0065388068371334
 10
899.97743297795535
 20
-1345.783045000599
 10
899.98589143372737
 20
-1345.766785421242
 42
-0.0074510843025933
 10
900.16207367961158
 20
-1345.4400971401069
 10
900.17025335014569
 20
-1345.4254563628326
 42
-0.0084648979857026
 10
900.3398872032426
 20
-1345.133547351877
 10
900.34774332973655
 20
-1345.1205403602166
 42
-0.0095638542800637
 10
900.51157877732498
 20
-1344.8606514882476
 10
900.51905372099316
 20
-1344.8492821267976
 42
-0.010719162680617
 10
900.67785530138428
 20
-1344.618670892248
 10
900.68487203511233
 20
-1344.6089347998875
 42
-0.0118458573906043
 10
900.83942013362787
 20
-1344.4048626045726
 42
-0.0129184518194612
 10
901.00387275723256
 20
-1344.2087020883987
 10
901.03401752959587
 20
-1344.1745760094989
 42
-0.0217742579627421
 10
901.21062985192793
 20
-1343.9913692392527
 10
901.22137539638106
 20
-1343.9811524060567
 42
-0.0097266568660454
 10
901.38743301524391
 20
-1343.8293048316123
 42
-0.018772090571696
 10
901.56178059113381
 20
-1343.6872359782228
 10
901.59248658180672
 20
-1343.6640768958275
 42
-0.0179428207517375
 10
901.82490730180382
 20
-1343.5015247187152
 10
901.82855962871736
 20
-1343.499160783829
 42
-0.0170047877701308
 10
902.06432326624997
 20
-1343.3577002696761
 10
902.06810625499531
 20
-1343.3556019646405
 42
-0.0160190788362934
 10
902.30501480263183
 20
-1343.2339506626518
 42
-0.0151102861489957
 10
902.54904658508383
 20
-1343.1272678865948
 10
902.60143308729027
 20
-1343.1062277537023
 42
-0.0271945441888945
 10
902.9600956463463
 20
-1342.984362942997
 10
903.02916044683957
 20
-1342.9650134017293
 42
-0.0237596594022674
 10
903.44495729385903
 20
-1342.8695626897486
 10
903.51302014758562
 20
-1342.8573080016226
 42
-0.0213715440556687
 10
903.79889507903476
 20
-1342.8183609701121
 10
903.8590422452578
 20
-1342.8127712554108
 42
-0.0101465655814668
 10
904.02653477724698
 20
-1342.8006277121469
 10
904.03587516344783
 20
-1342.8001407971494
 42
-0.0100375910878078
 10
904.18502926400777
 20
-1342.7953649792244
 10
904.19528853368695
 20
-1342.79524254021
 42
-0.010362563338323
 10
904.32399652834295
 20
-1342.7963739737365
 10
904.34626217961238
 20
-1342.7970313322014
 42
-0.0115689250231101
 10
904.43031291713771
 20
-1342.8014608384467
 42
-0.0072438037428569
 10
904.51415119657486
 20
-1342.8090500381959
 10
904.53095170604968
 20
-1342.8108165809203
 42
-0.0217917313124746
 10
904.64752146936462
 20
-1342.8282364736415
 10
904.71312155993246
 20
-1342.8409830820563
 42
-0.0332943556761533
 10
904.91751372495855
 20
-1342.8950233733628
 10
904.94768629350665
 20
-1342.9051914504805
 42
-0.0184824084795513
 10
905.086191349974
 20
-1342.9576424658678
 42
-0.0198002050699563
 10
905.2202656904733
 20
-1343.020526526067
 10
905.22215232785027
 20
-1343.0215043129469
 42
-0.0212242342990935
 10
905.35429127025077
 20
-1343.0972670517392
 10
905.3561065657957
 20
-1343.0984128539485
 42
-0.0226090605785201
 10
905.48461046701732
 20
-1343.1878924975131
 10
905.48645490875469
 20
-1343.1893047505005
 42
-0.0238457052231951
 10
905.60963699004787
 20
-1343.2933006463629
 10
905.61158971860675
 20
-1343.295115524129
 42
-0.0248160564159307
 10
905.72779122590669
 20
-1343.4143901253367
 10
905.72989485930952
 20
-1343.4167754590421
 42
-0.0254109591456937
 10
905.83750007717538
 20
-1343.5520638450064
 10
905.83974809908955
 20
-1343.555205393407
 42
-0.0255528488279026
 10
905.93719477788727
 20
-1343.7072324476424
 10
905.93952587780279
 20
-1343.7113140592489
 42
-0.0252146793222148
 10
906.02530690381161
 20
-1343.8808163052452
 10
906.02760914296948
 20
-1343.8859983871587
 42
-0.0244265635950448
 10
906.10026383673096
 20
-1344.0737449592052
 10
906.10951023819882
 20
-1344.1016103775416
 42
-0.0231319612894765
 10
906.1554330171914
 20
-1344.264911424345
 42
-0.0112130424356494
 10
906.19006903972934
 20
-1344.4311150245317
 10
906.19127156484205
 20
-1344.4376116114208
 42
-0.0210527881232037
 10
906.21695804021317
 20
-1344.6186672568642
 10
906.22046863503476
 20
-1344.6540728054092
 42
-0.0190029892419884
 10
906.23591010857945
 20
-1344.9076086516836
 10
906.23672008502342
 20
-1344.9430842660506
 42
-0.0137974553661055
 10
906.23517123218778
 20
-1345.2681156727856
 10
906.23432577723236
 20
-1345.2942344173773
 42
-0.0081336634214253
 10
906.21946644200978
 20
-1345.599581884976
 42
-0.0073526923569723
 10
906.19515790863647
 20
-1345.9043301292472
 10
906.19389648485242
 20
-1345.9176668039272
 42
-0.0066886138685095
 10
906.15816089880468
 20
-1346.2482528474347
 10
906.15650380933596
 20
-1346.261874466416
 42
-0.0061359187354216
 10
906.10865320728556
 20
-1346.6186384465125
 10
906.10661570621221
 20
-1346.6325332493452
 42
-0.0056698610065493
 10
906.04596537544705
 20
-1347.015811818173
 10
906.04355994212222
 20
-1347.029970937414
 42
-0.0052721077274785
 10
905.96942774132458
 20
-1347.4400982770819
 10
905.96666459248092
 20
-1347.4545149124779
 42
-0.0049289272177488
 10
905.87837047438325
 20
-1347.8918234235891
 10
905.87525797969829
 20
-1347.906492276416
 42
-0.0047415956712786
 10
905.77201998816815
 20
-1348.3712890338168
 10
905.73725177780614
 20
-1348.5210961292098
 42
-0.008440447090236
 10
905.54723533423351
 20
-1349.281320153744
 10
905.54110864624863
 20
-1349.3041842778944
 42
-0.0039635940256574
 10
905.31965496196426
 20
-1350.1051731421433
 10
905.30627816678509
 20
-1350.1521047587337
 42
-0.007247504083819
 10
905.03883127892561
 20
-1351.0413244751126
 10
904.96861895209202
 20
-1351.263064825104
 42
-0.0051345458829316
 10
904.68185958003573
 20
-1352.137390012907
 10
904.6603333132706
 20
-1352.20081628003
 42
-0.0019150016601924
 10
904.40479990640154
 20
-1352.944365400263
 10
904.39833230200531
 20
-1352.9629528651844
 42
-0.0021524362751559
 10
904.14985425094153
 20
-1353.6672786868926
 10
904.14064383024458
 20
-1353.6930322651954
 42
-0.0024331286822438
 10
903.9043885712091
 20
-1354.3436315733122
 10
903.89534061866095
 20
-1354.36817487966
 42
-0.0027449721790523
 10
903.67072604782311
 20
-1354.9673047585909
 10
903.66183604044375
 20
-1354.9906273484094
 42
-0.0031083229770409
 10
903.44829355382092
 20
-1355.5405513860228
 10
903.43955742214132
 20
-1355.5626411018907
 42
-0.003531134328376
 10
903.2365162365536
 20
-1356.0656242276107
 10
903.22793089739912
 20
-1356.0864669511375
 42
-0.0040245640948826
 10
903.03481909361142
 20
-1356.5447762737135
 10
903.02638298000966
 20
-1356.5643556417826
 42
-0.004601513585009
 10
902.84262668684448
 20
-1356.9802606714279
 10
902.83434050901201
 20
-1356.9985578108895
 42
-0.0052768638266002
 10
902.65936299006069
 20
-1357.3743306951503
 10
902.65123077944043
 20
-1357.3913240336797
 42
-0.0060672675645508
 10
902.48445116666778
 20
-1357.7292396568077
 10
902.47648168618889
 20
-1357.7449049157999
 42
-0.0069904648866957
 10
902.31731329218474
 20
-1358.0472407224686
 10
902.30952189257664
 20
-1358.0615512716909
 42
-0.0080637022772758
 10
902.15737003222807
 20
-1358.3305865748489
 10
902.14978099959285
 20
-1358.3435144404564
 42
-0.0093006455663692
 10
902.0040403230654
 20
-1358.5815288389529
 10
901.99668965632191
 20
-1358.5930468081258
 42
-0.0107060778052074
 10
901.85674111288336
 20
-1358.8023171255052
 10
901.8496793446036
 20
-1358.8124026680712
 42
-0.0122723111411358
 10
901.71488562640548
 20
-1358.9951959975599
 10
901.71455940285068
 20
-1358.9956163853706
 42
-0.0141836319617131
 10
901.57097779987737
 20
-1359.1701861431991
 10
901.56403004422577
 20
-1359.1781611434635
 42
-0.017595747721047
 10
901.42412387619072
 20
-1359.3277820318688
 42
-0.0080466359676059
 10
901.27666011116696
 20
-1359.4701045600139
 10
901.23062556664297
 20
-1359.5131249981112
 42
-0.0269600260392386
 10
900.97734532066215
 20
-1359.7254482566188
 10
900.91077818436429
 20
-1359.7753996712433
 42
-0.0178362839756049
 10
900.67083369470731
 20
-1359.9424175974966
 10
900.66358872370699
 20
-1359.9470861097013
 42
-0.0174650732652197
 10
900.42725252626553
 20
-1360.0879470746606
 42
-0.0169240130165577
 10
900.18178628040789
 20
-1360.212239334438
 10
900.13580012484999
 20
-1360.2336012900053
 42
-0.0318883036841026
 10
899.78544926922893
 20
-1360.3699395995156
 10
899.71708373406591
 20
-1360.3916402199907
 42
-0.0284435909901894
 10
899.34103360777431
 20
-1360.4878576554654
 10
899.30587544727211
 20
-1360.4947512512945
 42
-0.0243909341010652
 10
898.99243198635679
 20
-1360.5404722823239
 10
898.94215125958851
 20
-1360.5453178292253
 42
-0.0196639292933315
 10
898.72655568205835
 20
-1360.5575661147391
 10
898.67473161089231
 20
-1360.5584693754759
 42
-0.010050151068139
 10
898.56230832923063
 20
-1360.5581689771227
 10
898.53064846788368
 20
-1360.5574479052373
 42
-0.0019752031115959
 10
898.48155613120525
 20
-1360.5561357450279
 10
898.47879582796804
 20
-1360.5560510532011
 42
0.0065378752010054
 10
898.4352192532283
 20
-1360.5552841619867
 42
-0.016797469464197
 10
898.39168843029449
 20
-1360.5536242634605
 10
898.38760909103439
 20
-1360.5533312525656
 42
-0.0081283276252259
 10
898.33604929329226
 20
-1360.5487842589273
 10
898.32430971941744
 20
-1360.5475563413493
 42
-0.0126703440184903
 10
898.24959142363241
 20
-1360.5378215502792
 10
898.22680355594719
 20
-1360.5342632943625
 42
-0.0117852088431928
 10
898.10726457011117
 20
-1360.5127002992047
 10
898.05188411835172
 20
-1360.5013567589708
 42
-0.025177459229538
 10
897.82504007934597
 20
-1360.4428587495386
 10
897.78032088948828
 20
-1360.4288919302012
 42
-0.0146525199891297
 10
897.59392790195432
 20
-1360.3646254030045
 42
-0.0166929435854447
 10
897.41195024582623
 20
-1360.2888182699492
 10
897.40729361455453
 20
-1360.2866933693358
 42
-0.0191684358432975
 10
897.2221099833082
 20
-1360.1934572855475
 10
897.21877739754837
 20
-1360.1916160379926
 42
-0.0221181781811334
 10
897.03546709364423
 20
-1360.0794825396206
 10
897.03311728963763
 20
-1360.0778982416309
 42
-0.0254984685383614
 10
896.85682713925223
 20
-1359.9454870916611
 10
896.83434499155101
 20
-1359.9267347827254
 42
-0.0292492648808481
 10
896.70957605270735
 20
-1359.8096419830817
 42
-0.0159048957499198
 10
896.5957360552585
 20
-1359.6816219914842
 10
896.59441726467787
 20
-1359.6800403784628
 42
-0.0343813379567885
 10
896.49178000305108
 20
-1359.5381690526924
 10
896.46028847169066
 20
-1359.4876656605991
 42
-0.036911727570056
 10
896.37439596979345
 20
-1359.3241884196507
 42
-0.0191751379899405
 10
896.30720258423594
 20
-1359.1517838136431
 10
896.30543926047699
 20
-1359.1466904689698
 42
-0.0378178042233983
 10
896.25564454169285
 20
-1358.957749692888
 10
896.24964924596213
 20
-1358.9251890746884
 42
-0.018484604647319
 10
896.22893204666821
 20
-1358.7834362541466
 42
-0.0179866351316441
 10
896.21859904159464
 20
-1358.640545441069
 10
896.21854259914869
 20
-1358.638987754453
 42
-0.008549718610918
 10
896.21711031804477
 20
-1358.5641145894433
 42
-0.008549718610918
  0
ENDBLK
  5
60
100
AcDbEntity
  8
template
390
0
100
AcDbBlockEnd
  0
BLOCK
  5
61
100
AcDbEntity
  8
info
390
0
100
AcDbBlockBegin
  2
*D3
 70
               1
 10
0.0
 20
0.0
 30
0.0
  3
*D3
  1

  0
LINE
  5
62
100
AcDbEntity
  8
0
370
              -2
390
0
  6
Continuous
 62
               0
100
AcDbLine
 10
2712.9659090036944
 20
3170.1962520827674
 30
0.0
 11
2787.9659090036944
 21
3170.1962520827674
 31
0.0
  0
LINE
  5
63
100
AcDbEntity
  8
0
370
              -2
390
0
  6
Continuous
 62
               0
100
AcDbLine
 10
2712.9659090036944
 20
3120.1962520827674
 30
0.0
 11
2787.9659090036944
 21
3120.1962520827674
 31
0.0
  0
LINE
  5
64
100
AcDbEntity
  8
0
370
              -2
390
0
  6
Continuous
 62
               0
100
AcDbLine
 10
2787.9659090036944
 20
3170.1962520827674
 30
0.0
 11
2787.9659090036944
 21
3120.1962520827674
 31
0.0
  0
CIRCLE
  5
65
102
{ACAD_REACTORS
330
66
102
}
100
AcDbEntity
  8
0
370
              -2
390
0
  6
Continuous
 62
               0
100
AcDbCircle
 10
2787.9659090036944
 20
3170.1962520827674
 30
0.0
 40
4.99969482421875
  0
HATCH
  5
66
100
AcDbEntity
  8
0
370
              -2
390
0
  6
Continuous
 62
               0
100
AcDbHatch
 10
0.0
 20
0.0
 30
0.0
210
0.0
220
0.0
230
1.0
  2
SOLID
 70
               1
 71
               1
 91
        1
 92
        1
 93
        1
 72
               2
 10
2787.9659090036944
 20
3170.1962520827674
 40
4.99969482421875
 50
0.0
 51
360.0
 73
               0
 97
        1
330
65
 75
               0
 76
               1
 98
        1
 10
0.0
 20
0.0
  0
CIRCLE
  5
67
102
{ACAD_REACTORS
330
68
102
}
100
AcDbEntity
  8
0
370
              -2
390
0
  6
Continuous
 62
               0
100
AcDbCircle
 10
2787.9659090036944
 20
3120.1962520827674
 30
0.0
 40
4.99969482421875
  0
HATCH
  5
68
100
AcDbEntity
  8
0
370
              -2
390
0
  6
Continuous
 62
               0
100
AcDbHatch
 10
0.0
 20
0.0
 30
0.0
210
0.0
220
0.0
230
1.0
  2
SOLID
 70
               1
 71
               1
 91
        1
 92
        1
 93
        1
 72
               2
 10
2787.9659090036944
 20
3120.1962520827674
 40
4.99969482421875
 50
0.0
 51
360.0
 73
               0
 97
        1
330
67
 75
               0
 76
               1
 98
        1
 10
0.0
 20
0.0
  0
MTEXT
  5
69
100
AcDbEntity
  8
0
390
0
 62
               0
100
AcDbMText
 10
2754.0882918161947
 20
3129.3212520827674
 30
0.0
 40
24.432617187500004
 41
0.0
 71
               1
 72
               1
  1
50
  7
ＭＳ ゴシック
 11
0.0
 21
1.0
 31
0.0
 73
               1
 44
0.7828267384257843
  0
POINT
  5
6A
100
AcDbEntity
  8
Defpoints
370
               0
390
0
 62
               0
100
AcDbPoint
 10
2687.9659090036944
 20
3120.1962520827674
 30
0.0
  0
POINT
  5
6B
100
AcDbEntity
  8
Defpoints
370
               0
390
0
 62
               0
100
AcDbPoint
 10
2687.9659090036944
 20
3170.1962520827674
 30
0.0
  0
POINT
  5
6C
100
AcDbEntity
  8
Defpoints
370
               0
390
0
 62
               0
100
AcDbPoint
 10
2787.9659090036944
 20
3170.1962520827674
 30
0.0
  0
ENDBLK
  5
6D
100
AcDbEntity
  8
info
390
0
100
AcDbBlockEnd
  0
BLOCK
  5
6E
100
AcDbEntity
  8
info
390
0
100
AcDbBlockBegin
  2
*D4
 70
               1
 10
0.0
 20
0.0
 30
0.0
  3
*D4
  1

  0
LINE
  5
6F
100
AcDbEntity
  8
0
370
              -2
390
0
  6
Continuous
 62
               0
100
AcDbLine
 10
2991.6456714284641
 20
3170.1962520827674
 30
0.0
 11
2911.8570040915411
 21
3170.1962520827674
 31
0.0
  0
LINE
  5
70
100
AcDbEntity
  8
0
370
              -2
390
0
  6
Continuous
 62
               0
100
AcDbLine
 10
3063.9913181571737
 20
2980.2006035645027
 30
0.0
 11
2911.8570040915411
 21
2980.2006035645027
 31
0.0
  0
LINE
  5
71
100
AcDbEntity
  8
0
370
              -2
390
0
  6
Continuous
 62
               0
100
AcDbLine
 10
2911.8570040915411
 20
3170.1962520827674
 30
0.0
 11
2911.8570040915411
 21
2980.2006035645027
 31
0.0
  0
CIRCLE
  5
72
102
{ACAD_REACTORS
330
73
102
}
100
AcDbEntity
  8
0
370
              -2
390
0
  6
Continuous
 62
               0
100
AcDbCircle
 10
2911.8570040915411
 20
3170.1962520827674
 30
0.0
 40
4.99969482421875
  0
HATCH
  5
73
100
AcDbEntity
  8
0
370
              -2
390
0
  6
Continuous
 62
               0
100
AcDbHatch
 10
0.0
 20
0.0
 30
0.0
210
0.0
220
0.0
230
1.0
  2
SOLID
 70
               1
 71
               1
 91
        1
 92
        1
 93
        1
 72
               2
 10
2911.8570040915411
 20
3170.1962520827674
 40
4.99969482421875
 50
0.0
 51
360.0
 73
               0
 97
        1
330
72
 75
               0
 76
               1
 98
        1
 10
0.0
 20
0.0
  0
CIRCLE
  5
74
102
{ACAD_REACTORS
330
75
102
}
100
AcDbEntity
  8
0
370
              -2
390
0
  6
Continuous
 62
               0
100
AcDbCircle
 10
2911.8570040915411
 20
2980.2006035645027
 30
0.0
 40
4.99969482421875
  0
HATCH
  5
75
100
AcDbEntity
  8
0
370
              -2
390
0
  6
Continuous
 62
               0
100
AcDbHatch
 10
0.0
 20
0.0
 30
0.0
210
0.0
220
0.0
230
1.0
  2
SOLID
 70
               1
 71
               1
 91
        1
 92
        1
 93
        1
 72
               2
 10
2911.8570040915411
 20
2980.2006035645027
 40
4.99969482421875
 50
0.0
 51
360.0
 73
               0
 97
        1
330
74
 75
               0
 76
               1
 98
        1
 10
0.0
 20
0.0
  0
MTEXT
  5
76
100
AcDbEntity
  8
0
390
0
 62
               0
100
AcDbMText
 10
2877.9793869040409
 20
3051.38592614146
 30
0.0
 40
24.432617187500004
 41
0.0
 71
               1
 72
               1
  1
190
  7
ＭＳ ゴシック
 11
0.0
 21
1.0
 31
0.0
 73
               1
 44
0.7828267384257843
  0
POINT
  5
77
100
AcDbEntity
  8
Defpoints
370
               0
390
0
 62
               0
100
AcDbPoint
 10
3088.9913181571737
 20
2980.2006035645027
 30
0.0
  0
POINT
  5
78
100
AcDbEntity
  8
Defpoints
370
               0
390
0
 62
               0
100
AcDbPoint
 10
3016.6456714284641
 20
3170.1962520827674
 30
0.0
  0
POINT
  5
79
100
AcDbEntity
  8
Defpoints
370
               0
390
0
 62
               0
100
AcDbPoint
 10
2911.8570040915411
 20
3170.1962520827674
 30
0.0
  0
ENDBLK
  5
7A
100
AcDbEntity
  8
info
390
0
100
AcDbBlockEnd
  0
BLOCK
  5
7B
100
AcDbEntity
  8
info
390
0
100
AcDbBlockBegin
  2
*D5
 70
               1
 10
0.0
 20
0.0
 30
0.0
  3
*D5
  1

  0
LINE
  5
7C
100
AcDbEntity
  8
0
370
              -2
390
0
  6
Continuous
 62
               0
100
AcDbLine
 10
2277.9659090036944
 20
3175.1962520827674
 30
0.0
 11
2277.9659090036944
 21
3270.1962520827674
 31
0.0
  0
LINE
  5
7D
100
AcDbEntity
  8
0
370
              -2
390
0
  6
Continuous
 62
               0
100
AcDbLine
 10
2557.9659090036944
 20
3175.1962520827674
 30
0.0
 11
2557.9659090036944
 21
3270.1962520827674
 31
0.0
  0
LINE
  5
7E
100
AcDbEntity
  8
0
370
              -2
390
0
  6
Continuous
 62
               0
100
AcDbLine
 10
2277.9659090036944
 20
3270.1962520827674
 30
0.0
 11
2557.9659090036944
 21
3270.1962520827674
 31
0.0
  0
CIRCLE
  5
7F
102
{ACAD_REACTORS
330
80
102
}
100
AcDbEntity
  8
0
370
              -2
390
0
  6
Continuous
 62
               0
100
AcDbCircle
 10
2277.9659090036944
 20
3270.1962520827674
 30
0.0
 40
4.99969482421875
  0
HATCH
  5
80
100
AcDbEntity
  8
0
370
              -2
390
0
  6
Continuous
 62
               0
100
AcDbHatch
 10
0.0
 20
0.0
 30
0.0
210
0.0
220
0.0
230
1.0
  2
SOLID
 70
               1
 71
               1
 91
        1
 92
        1
 93
        1
 72
               2
 10
2277.9659090036944
 20
3270.1962520827674
 40
4.99969482421875
 50
0.0
 51
360.0
 73
               0
 97
        1
330
7F
 75
               0
 76
               1
 98
        1
 10
0.0
 20
0.0
  0
CIRCLE
  5
81
102
{ACAD_REACTORS
330
82
102
}
100
AcDbEntity
  8
0
370
              -2
390
0
  6
Continuous
 62
               0
100
AcDbCircle
 10
2557.9659090036944
 20
3270.1962520827674
 30
0.0
 40
4.99969482421875
  0
HATCH
  5
82
100
AcDbEntity
  8
0
370
              -2
390
0
  6
Continuous
 62
               0
100
AcDbHatch
 10
0.0
 20
0.0
 30
0.0
210
0.0
220
0.0
230
1.0
  2
SOLID
 70
               1
 71
               1
 91
        1
 92
        1
 93
        1
 72
               2
 10
2557.9659090036944
 20
3270.1962520827674
 40
4.99969482421875
 50
0.0
 51
360.0
 73
               0
 97
        1
330
81
 75
               0
 76
               1
 98
        1
 10
0.0
 20
0.0
  0
MTEXT
  5
83
100
AcDbEntity
  8
0
390
0
 62
               0
100
AcDbMText
 10
2394.1534073215189
 20
3304.0738692702676
 30
0.0
 40
24.432617187500004
 41
0.0
 71
               1
 72
               1
  1
280
  7
ＭＳ ゴシック
 73
               1
 44
0.7828267384257843
  0
POINT
  5
84
100
AcDbEntity
  8
Defpoints
370
               0
390
0
 62
               0
100
AcDbPoint
 10
2557.9659090036944
 20
3150.1962520827674
 30
0.0
  0
POINT
  5
85
100
AcDbEntity
  8
Defpoints
370
               0
390
0
 62
               0
100
AcDbPoint
 10
2277.9659090036944
 20
3150.1962520827674
 30
0.0
  0
POINT
  5
86
100
AcDbEntity
  8
Defpoints
370
               0
390
0
 62
               0
100
AcDbPoint
 10
2277.9659090036944
 20
3270.1962520827674
 30
0.0
  0
ENDBLK
  5
87
100
AcDbEntity
  8
info
390
0
100
AcDbBlockEnd
  0
BLOCK
  5
88
100
AcDbEntity
  8
info
390
0
100
AcDbBlockBegin
  2
*D6
 70
               1
 10
0.0
 20
0.0
 30
0.0
  3
*D6
  1

  0
LINE
  5
89
100
AcDbEntity
  8
0
370
              -2
390
0
  6
Continuous
 62
               0
100
AcDbLine
 10
3220.2247892820515
 20
3170.1962520827674
 30
0.0
 11
3186.9301570155571
 21
3170.1962520827674
 31
0.0
  0
LINE
  5
8A
100
AcDbEntity
  8
0
370
              -2
390
0
  6
Continuous
 62
               0
100
AcDbLine
 10
3207.97688052698
 20
3030.1962520827674
 30
0.0
 11
3186.9301570155571
 21
3030.1962520827674
 31
0.0
  0
LINE
  5
8B
100
AcDbEntity
  8
0
370
              -2
390
0
  6
Continuous
 62
               0
100
AcDbLine
 10
3186.9301570155571
 20
3170.1962520827674
 30
0.0
 11
3186.9301570155571
 21
3319.2588615675413
 31
0.0
  0
LINE
  5
8C
100
AcDbEntity
  8
0
370
              -2
390
0
  6
Continuous
 62
               0
100
AcDbLine
 10
3186.9301570155571
 20
3170.1962520827674
 30
0.0
 11
3186.9301570155571
 21
3030.1962520827674
 31
0.0
  0
CIRCLE
  5
8D
102
{ACAD_REACTORS
330
8E
102
}
100
AcDbEntity
  8
0
370
              -2
390
0
  6
Continuous
 62
               0
100
AcDbCircle
 10
3186.9301570155571
 20
3170.1962520827674
 30
0.0
 40
4.99969482421875
  0
HATCH
  5
8E
100
AcDbEntity
  8
0
370
              -2
390
0
  6
Continuous
 62
               0
100
AcDbHatch
 10
0.0
 20
0.0
 30
0.0
210
0.0
220
0.0
230
1.0
  2
SOLID
 70
               1
 71
               1
 91
        1
 92
        1
 93
        1
 72
               2
 10
3186.9301570155571
 20
3170.1962520827674
 40
4.99969482421875
 50
0.0
 51
360.0
 73
               0
 97
        1
330
8D
 75
               0
 76
               1
 98
        1
 10
0.0
 20
0.0
  0
CIRCLE
  5
8F
102
{ACAD_REACTORS
330
90
102
}
100
AcDbEntity
  8
0
370
              -2
390
0
  6
Continuous
 62
               0
100
AcDbCircle
 10
3186.9301570155571
 20
3030.1962520827674
 30
0.0
 40
4.99969482421875
  0
HATCH
  5
90
100
AcDbEntity
  8
0
370
              -2
390
0
  6
Continuous
 62
               0
100
AcDbHatch
 10
0.0
 20
0.0
 30
0.0
210
0.0
220
0.0
230
1.0
  2
SOLID
 70
               1
 71
               1
 91
        1
 92
        1
 93
        1
 72
               2
 10
3186.9301570155571
 20
3030.1962520827674
 40
4.99969482421875
 50
0.0
 51
360.0
 73
               0
 97
        1
330
8F
 75
               0
 76
               1
 98
        1
 10
0.0
 20
0.0
  0
MTEXT
  5
91
100
AcDbEntity
  8
0
390
0
 62
               0
100
AcDbMText
 10
3153.0525398280574
 20
3176.3838615675413
 30
0.0
 40
24.432617187500004
 41
0.0
 71
               1
 72
               1
  1
140(深さ)
  7
ＭＳ ゴシック
 11
0.0
 21
1.0
 31
0.0
 73
               1
 44
0.7828267384257843
  0
POINT
  5
92
100
AcDbEntity
  8
Defpoints
370
               0
390
0
 62
               0
100
AcDbPoint
 10
3232.97688052698
 20
3030.1962520827674
 30
0.0
  0
POINT
  5
93
100
AcDbEntity
  8
Defpoints
370
               0
390
0
 62
               0
100
AcDbPoint
 10
3245.2247892820515
 20
3170.1962520827674
 30
0.0
  0
POINT
  5
94
100
AcDbEntity
  8
Defpoints
370
               0
390
0
 62
               0
100
AcDbPoint
 10
3186.9301570155571
 20
3170.1962520827674
 30
0.0
  0
ENDBLK
  5
95
100
AcDbEntity
  8
info
390
0
100
AcDbBlockEnd
  0
BLOCK
  5
96
100
AcDbEntity
  8
info
390
0
100
AcDbBlockBegin
  2
*D7
 70
               1
 10
0.0
 20
0.0
 30
0.0
  3
*D7
  1

  0
LINE
  5
97
100
AcDbEntity
  8
0
370
              -2
390
0
  6
Continuous
 62
               0
100
AcDbLine
 10
1912.9659090036944
 20
3170.1962520827674
 30
0.0
 11
1837.9659090036944
 21
3170.1962520827674
 31
0.0
  0
LINE
  5
98
100
AcDbEntity
  8
0
370
              -2
390
0
  6
Continuous
 62
               0
100
AcDbLine
 10
2205.7840578192399
 20
3130.1962520827674
 30
0.0
 11
1837.9659090036944
 21
3130.1962520827674
 31
0.0
  0
LINE
  5
99
100
AcDbEntity
  8
0
370
              -2
390
0
  6
Continuous
 62
               0
100
AcDbLine
 10
1837.9659090036944
 20
3170.1962520827674
 30
0.0
 11
1837.9659090036944
 21
3130.1962520827674
 31
0.0
  0
CIRCLE
  5
9A
102
{ACAD_REACTORS
330
9B
102
}
100
AcDbEntity
  8
0
370
              -2
390
0
  6
Continuous
 62
               0
100
AcDbCircle
 10
1837.9659090036944
 20
3170.1962520827674
 30
0.0
 40
4.99969482421875
  0
HATCH
  5
9B
100
AcDbEntity
  8
0
370
              -2
390
0
  6
Continuous
 62
               0
100
AcDbHatch
 10
0.0
 20
0.0
 30
0.0
210
0.0
220
0.0
230
1.0
  2
SOLID
 70
               1
 71
               1
 91
        1
 92
        1
 93
        1
 72
               2
 10
1837.9659090036944
 20
3170.1962520827674
 40
4.99969482421875
 50
0.0
 51
360.0
 73
               0
 97
        1
330
9A
 75
               0
 76
               1
 98
        1
 10
0.0
 20
0.0
  0
CIRCLE
  5
9C
102
{ACAD_REACTORS
330
9D
102
}
100
AcDbEntity
  8
0
370
              -2
390
0
  6
Continuous
 62
               0
100
AcDbCircle
 10
1837.9659090036944
 20
3130.1962520827674
 30
0.0
 40
4.99969482421875
  0
HATCH
  5
9D
100
AcDbEntity
  8
0
370
              -2
390
0
  6
Continuous
 62
               0
100
AcDbHatch
 10
0.0
 20
0.0
 30
0.0
210
0.0
220
0.0
230
1.0
  2
SOLID
 70
               1
 71
               1
 91
        1
 92
        1
 93
        1
 72
               2
 10
1837.9659090036944
 20
3130.1962520827674
 40
4.99969482421875
 50
0.0
 51
360.0
 73
               0
 97
        1
330
9C
 75
               0
 76
               1
 98
        1
 10
0.0
 20
0.0
  0
MTEXT
  5
9E
100
AcDbEntity
  8
0
390
0
 62
               0
100
AcDbMText
 10
1804.0882918161942
 20
3134.3212520827674
 30
0.0
 40
24.432617187500004
 41
0.0
 71
               1
 72
               1
  1
40
  7
ＭＳ ゴシック
 11
0.0
 21
1.0
 31
0.0
 73
               1
 44
0.7828267384257843
  0
POINT
  5
9F
100
AcDbEntity
  8
Defpoints
370
               0
390
0
 62
               0
100
AcDbPoint
 10
2230.7840578192399
 20
3130.1962520827674
 30
0.0
  0
POINT
  5
A0
100
AcDbEntity
  8
Defpoints
370
               0
390
0
 62
               0
100
AcDbPoint
 10
1937.9659090036944
 20
3170.1962520827674
 30
0.0
  0
POINT
  5
A1
100
AcDbEntity
  8
Defpoints
370
               0
390
0
 62
               0
100
AcDbPoint
 10
1837.9659090036944
 20
3170.1962520827674
 30
0.0
  0
ENDBLK
  5
A2
100
AcDbEntity
  8
info
390
0
100
AcDbBlockEnd
  0
BLOCK
  5
A3
100
AcDbEntity
  8
info
390
0
100
AcDbBlockBegin
  2
*D8
 70
               1
 10
0.0
 20
0.0
 30
0.0
  3
*D8
  1

  0
LINE
  5
A4
100
AcDbEntity
  8
0
370
              -2
390
0
  6
Continuous
 62
               0
100
AcDbLine
 10
3491.5946457067816
 20
2960.2344634648821
 30
0.0
 11
3491.5946457067816
 21
2886.1962520827674
 31
0.0
  0
LINE
  5
A5
100
AcDbEntity
  8
0
370
              -2
390
0
  6
Continuous
 62
               0
100
AcDbLine
 10
3196.5946457067821
 20
2957.0145703019862
 30
0.0
 11
3196.5946457067821
 21
2886.1962520827674
 31
0.0
  0
LINE
  5
A6
100
AcDbEntity
  8
0
370
              -2
390
0
  6
Continuous
 62
               0
100
AcDbLine
 10
3491.5946457067816
 20
2886.1962520827674
 30
0.0
 11
3196.5946457067821
 21
2886.1962520827674
 31
0.0
  0
CIRCLE
  5
A7
102
{ACAD_REACTORS
330
A8
102
}
100
AcDbEntity
  8
0
370
              -2
390
0
  6
Continuous
 62
               0
100
AcDbCircle
 10
3491.5946457067816
 20
2886.1962520827674
 30
0.0
 40
4.99969482421875
  0
HATCH
  5
A8
100
AcDbEntity
  8
0
370
              -2
390
0
  6
Continuous
 62
               0
100
AcDbHatch
 10
0.0
 20
0.0
 30
0.0
210
0.0
220
0.0
230
1.0
  2
SOLID
 70
               1
 71
               1
 91
        1
 92
        1
 93
        1
 72
               2
 10
3491.5946457067816
 20
2886.1962520827674
 40
4.99969482421875
 50
0.0
 51
360.0
 73
               0
 97
        1
330
A7
 75
               0
 76
               1
 98
        1
 10
0.0
 20
0.0
  0
CIRCLE
  5
A9
102
{ACAD_REACTORS
330
AA
102
}
100
AcDbEntity
  8
0
370
              -2
390
0
  6
Continuous
 62
               0
100
AcDbCircle
 10
3196.5946457067821
 20
2886.1962520827674
 30
0.0
 40
4.99969482421875
  0
HATCH
  5
AA
100
AcDbEntity
  8
0
370
              -2
390
0
  6
Continuous
 62
               0
100
AcDbHatch
 10
0.0
 20
0.0
 30
0.0
210
0.0
220
0.0
230
1.0
  2
SOLID
 70
               1
 71
               1
 91
        1
 92
        1
 93
        1
 72
               2
 10
3196.5946457067821
 20
2886.1962520827674
 40
4.99969482421875
 50
0.0
 51
360.0
 73
               0
 97
        1
330
A9
 75
               0
 76
               1
 98
        1
 10
0.0
 20
0.0
  0
MTEXT
  5
AB
100
AcDbEntity
  8
0
390
0
 62
               0
100
AcDbMText
 10
3320.2821440246062
 20
2920.0738692702676
 30
0.0
 40
24.432617187500004
 41
0.0
 71
               1
 72
               1
  1
295
  7
ＭＳ ゴシック
 73
               1
 44
0.7828267384257843
  0
POINT
  5
AC
100
AcDbEntity
  8
Defpoints
370
               0
390
0
 62
               0
100
AcDbPoint
 10
3196.5946457067821
 20
2982.0145703019862
 30
0.0
  0
POINT
  5
AD
100
AcDbEntity
  8
Defpoints
370
               0
390
0
 62
               0
100
AcDbPoint
 10
3491.5946457067816
 20
2985.2344634648821
 30
0.0
  0
POINT
  5
AE
100
AcDbEntity
  8
Defpoints
370
               0
390
0
 62
               0
100
AcDbPoint
 10
3491.5946457067816
 20
2886.1962520827674
 30
0.0
  0
ENDBLK
  5
AF
100
AcDbEntity
  8
info
390
0
100
AcDbBlockEnd
  0
BLOCK
  5
B0
100
AcDbEntity
  8
info
390
0
100
AcDbBlockBegin
  2
*D9
 70
               1
 10
0.0
 20
0.0
 30
0.0
  3
*D9
  1

  0
LINE
  5
B1
100
AcDbEntity
  8
0
370
              -2
390
0
  6
Continuous
 62
               0
100
AcDbLine
 10
2687.9659090036944
 20
4408.1184499663204
 30
0.0
 11
2687.9659090036944
 21
4536.1184499663204
 31
0.0
  0
LINE
  5
B2
100
AcDbEntity
  8
0
370
              -2
390
0
  6
Continuous
 62
               0
100
AcDbLine
 10
1937.9659090036953
 20
4408.1184499663204
 30
0.0
 11
1937.9659090036953
 21
4536.1184499663204
 31
0.0
  0
LINE
  5
B3
100
AcDbEntity
  8
0
370
              -2
390
0
  6
Continuous
 62
               0
100
AcDbLine
 10
2687.9659090036944
 20
4536.1184499663204
 30
0.0
 11
1937.9659090036953
 21
4536.1184499663204
 31
0.0
  0
CIRCLE
  5
B4
102
{ACAD_REACTORS
330
B5
102
}
100
AcDbEntity
  8
0
370
              -2
390
0
  6
Continuous
 62
               0
100
AcDbCircle
 10
2687.9659090036944
 20
4536.1184499663204
 30
0.0
 40
4.99969482421875
  0
HATCH
  5
B5
100
AcDbEntity
  8
0
370
              -2
390
0
  6
Continuous
 62
               0
100
AcDbHatch
 10
0.0
 20
0.0
 30
0.0
210
0.0
220
0.0
230
1.0
  2
SOLID
 70
               1
 71
               1
 91
        1
 92
        1
 93
        1
 72
               2
 10
2687.9659090036944
 20
4536.1184499663204
 40
4.99969482421875
 50
0.0
 51
360.0
 73
               0
 97
        1
330
B4
 75
               0
 76
               1
 98
        1
 10
0.0
 20
0.0
  0
CIRCLE
  5
B6
102
{ACAD_REACTORS
330
B7
102
}
100
AcDbEntity
  8
0
370
              -2
390
0
  6
Continuous
 62
               0
100
AcDbCircle
 10
1937.9659090036953
 20
4536.1184499663204
 30
0.0
 40
4.99969482421875
  0
HATCH
  5
B7
100
AcDbEntity
  8
0
370
              -2
390
0
  6
Continuous
 62
               0
100
AcDbHatch
 10
0.0
 20
0.0
 30
0.0
210
0.0
220
0.0
230
1.0
  2
SOLID
 70
               1
 71
               1
 91
        1
 92
        1
 93
        1
 72
               2
 10
1937.9659090036953
 20
4536.1184499663204
 40
4.99969482421875
 50
0.0
 51
360.0
 73
               0
 97
        1
330
B6
 75
               0
 76
               1
 98
        1
 10
0.0
 20
0.0
  0
MTEXT
  5
B8
100
AcDbEntity
  8
0
390
0
 62
               0
100
AcDbMText
 10
2289.1534073215194
 20
4569.9960671538211
 30
0.0
 40
24.432617187500004
 41
0.0
 71
               1
 72
               1
  1
750
  7
ＭＳ ゴシック
 73
               1
 44
0.7828267384257843
  0
POINT
  5
B9
100
AcDbEntity
  8
Defpoints
370
               0
390
0
 62
               0
100
AcDbPoint
 10
1937.9659090036953
 20
4383.1184499663204
 30
0.0
  0
POINT
  5
BA
100
AcDbEntity
  8
Defpoints
370
               0
390
0
 62
               0
100
AcDbPoint
 10
2687.9659090036944
 20
4383.1184499663204
 30
0.0
  0
POINT
  5
BB
100
AcDbEntity
  8
Defpoints
370
               0
390
0
 62
               0
100
AcDbPoint
 10
2687.9659090036944
 20
4536.1184499663204
 30
0.0
  0
ENDBLK
  5
BC
100
AcDbEntity
  8
info
390
0
100
AcDbBlockEnd
  0
BLOCK
  5
BD
100
AcDbEntity
  8
info
390
0
100
AcDbBlockBegin
  2
*D10
 70
               1
 10
0.0
 20
0.0
 30
0.0
  3
*D10
  1

  0
LINE
  5
BE
100
AcDbEntity
  8
0
370
              -2
390
0
  6
Continuous
 62
               0
100
AcDbLine
 10
1910.7829898433793
 20
4386.1184499663204
 30
0.0
 11
1837.9659090036944
 21
4386.1184499663204
 31
0.0
  0
LINE
  5
BF
100
AcDbEntity
  8
0
370
              -2
390
0
  6
Continuous
 62
               0
100
AcDbLine
 10
1913.7829898433793
 20
4056.1184499663204
 30
0.0
 11
1837.9659090036944
 21
4056.1184499663204
 31
0.0
  0
LINE
  5
C0
100
AcDbEntity
  8
0
370
              -2
390
0
  6
Continuous
 62
               0
100
AcDbLine
 10
1837.9659090036944
 20
4386.1184499663204
 30
0.0
 11
1837.9659090036944
 21
4056.1184499663204
 31
0.0
  0
CIRCLE
  5
C1
102
{ACAD_REACTORS
330
C2
102
}
100
AcDbEntity
  8
0
370
              -2
390
0
  6
Continuous
 62
               0
100
AcDbCircle
 10
1837.9659090036944
 20
4386.1184499663204
 30
0.0
 40
4.99969482421875
  0
HATCH
  5
C2
100
AcDbEntity
  8
0
370
              -2
390
0
  6
Continuous
 62
               0
100
AcDbHatch
 10
0.0
 20
0.0
 30
0.0
210
0.0
220
0.0
230
1.0
  2
SOLID
 70
               1
 71
               1
 91
        1
 92
        1
 93
        1
 72
               2
 10
1837.9659090036944
 20
4386.1184499663204
 40
4.99969482421875
 50
0.0
 51
360.0
 73
               0
 97
        1
330
C1
 75
               0
 76
               1
 98
        1
 10
0.0
 20
0.0
  0
CIRCLE
  5
C3
102
{ACAD_REACTORS
330
C4
102
}
100
AcDbEntity
  8
0
370
              -2
390
0
  6
Continuous
 62
               0
100
AcDbCircle
 10
1837.9659090036944
 20
4056.1184499663204
 30
0.0
 40
4.99969482421875
  0
HATCH
  5
C4
100
AcDbEntity
  8
0
370
              -2
390
0
  6
Continuous
 62
               0
100
AcDbHatch
 10
0.0
 20
0.0
 30
0.0
210
0.0
220
0.0
230
1.0
  2
SOLID
 70
               1
 71
               1
 91
        1
 92
        1
 93
        1
 72
               2
 10
1837.9659090036944
 20
4056.1184499663204
 40
4.99969482421875
 50
0.0
 51
360.0
 73
               0
 97
        1
330
C3
 75
               0
 76
               1
 98
        1
 10
0.0
 20
0.0
  0
MTEXT
  5
C5
100
AcDbEntity
  8
0
390
0
 62
               0
100
AcDbMText
 10
1804.0882918161942
 20
4197.3059482841454
 30
0.0
 40
24.432617187500004
 41
0.0
 71
               1
 72
               1
  1
335
  7
ＭＳ ゴシック
 11
0.0
 21
1.0
 31
0.0
 73
               1
 44
0.7828267384257843
  0
POINT
  5
C6
100
AcDbEntity
  8
Defpoints
370
               0
390
0
 62
               0
100
AcDbPoint
 10
1938.7829898433793
 20
4056.1184499663204
 30
0.0
  0
POINT
  5
C7
100
AcDbEntity
  8
Defpoints
370
               0
390
0
 62
               0
100
AcDbPoint
 10
1935.7829898433793
 20
4386.1184499663204
 30
0.0
  0
POINT
  5
C8
100
AcDbEntity
  8
Defpoints
370
               0
390
0
 62
               0
100
AcDbPoint
 10
1837.9659090036944
 20
4386.1184499663204
 30
0.0
  0
ENDBLK
  5
C9
100
AcDbEntity
  8
info
390
0
100
AcDbBlockEnd
  0
BLOCK
  5
CA
100
AcDbEntity
  8
info
390
0
100
AcDbBlockBegin
  2
*D11
 70
               1
 10
0.0
 20
0.0
 30
0.0
  3
*D11
  1

  0
LINE
  5
CB
100
AcDbEntity
  8
0
370
              -2
390
0
  6
Continuous
 62
               0
100
AcDbLine
 10
2577.7969399880294
 20
3931.1184499663195
 30
0.0
 11
2783.8124410388782
 21
3931.1184499663195
 31
0.0
  0
LINE
  5
CC
100
AcDbEntity
  8
0
370
              -2
390
0
  6
Continuous
 62
               0
100
AcDbLine
 10
2710.7829898433783
 20
4251.1184499663195
 30
0.0
 11
2783.8124410388782
 21
4251.1184499663195
 31
0.0
  0
LINE
  5
CD
100
AcDbEntity
  8
0
370
              -2
390
0
  6
Continuous
 62
               0
100
AcDbLine
 10
2783.8124410388782
 20
3931.1184499663195
 30
0.0
 11
2783.8124410388782
 21
4251.1184499663195
 31
0.0
  0
CIRCLE
  5
CE
102
{ACAD_REACTORS
330
CF
102
}
100
AcDbEntity
  8
0
370
              -2
390
0
  6
Continuous
 62
               0
100
AcDbCircle
 10
2783.8124410388782
 20
3931.1184499663195
 30
0.0
 40
4.99969482421875
  0
HATCH
  5
CF
100
AcDbEntity
  8
0
370
              -2
390
0
  6
Continuous
 62
               0
100
AcDbHatch
 10
0.0
 20
0.0
 30
0.0
210
0.0
220
0.0
230
1.0
  2
SOLID
 70
               1
 71
               1
 91
        1
 92
        1
 93
        1
 72
               2
 10
2783.8124410388782
 20
3931.1184499663195
 40
4.99969482421875
 50
0.0
 51
360.0
 73
               0
 97
        1
330
CE
 75
               0
 76
               1
 98
        1
 10
0.0
 20
0.0
  0
CIRCLE
  5
D0
102
{ACAD_REACTORS
330
D1
102
}
100
AcDbEntity
  8
0
370
              -2
390
0
  6
Continuous
 62
               0
100
AcDbCircle
 10
2783.8124410388782
 20
4251.1184499663195
 30
0.0
 40
4.99969482421875
  0
HATCH
  5
D1
100
AcDbEntity
  8
0
370
              -2
390
0
  6
Continuous
 62
               0
100
AcDbHatch
 10
0.0
 20
0.0
 30
0.0
210
0.0
220
0.0
230
1.0
  2
SOLID
 70
               1
 71
               1
 91
        1
 92
        1
 93
        1
 72
               2
 10
2783.8124410388782
 20
4251.1184499663195
 40
4.99969482421875
 50
0.0
 51
360.0
 73
               0
 97
        1
330
D0
 75
               0
 76
               1
 98
        1
 10
0.0
 20
0.0
  0
MTEXT
  5
D2
100
AcDbEntity
  8
0
390
0
 62
               0
100
AcDbMText
 10
2749.9348238513785
 20
4067.3059482841441
 30
0.0
 40
24.432617187500004
 41
0.0
 71
               1
 72
               1
  1
320
  7
ＭＳ ゴシック
 11
0.0
 21
1.0
 31
0.0
 73
               1
 44
0.7828267384257843
  0
POINT
  5
D3
100
AcDbEntity
  8
Defpoints
370
               0
390
0
 62
               0
100
AcDbPoint
 10
2685.7829898433783
 20
4251.1184499663195
 30
0.0
  0
POINT
  5
D4
100
AcDbEntity
  8
Defpoints
370
               0
390
0
 62
               0
100
AcDbPoint
 10
2552.7969399880294
 20
3931.1184499663195
 30
0.0
  0
POINT
  5
D5
100
AcDbEntity
  8
Defpoints
370
               0
390
0
 62
               0
100
AcDbPoint
 10
2783.8124410388782
 20
3931.1184499663195
 30
0.0
  0
ENDBLK
  5
D6
100
AcDbEntity
  8
info
390
0
100
AcDbBlockEnd
  0
BLOCK
  5
D7
100
AcDbEntity
  8
info
390
0
100
AcDbBlockBegin
  2
*D12
 70
               1
 10
0.0
 20
0.0
 30
0.0
  3
*D12
  1

  0
LINE
  5
D8
100
AcDbEntity
  8
0
370
              -2
390
0
  6
Continuous
 62
               0
100
AcDbLine
 10
1915.9659090036953
 20
4386.1184499663195
 30
0.0
 11
1751.8950937090103
 21
4386.1184499663195
 31
0.0
  0
LINE
  5
D9
100
AcDbEntity
  8
0
370
              -2
390
0
  6
Continuous
 62
               0
100
AcDbLine
 10
2345.1193769685106
 20
3906.1184499663195
 30
0.0
 11
1751.8950937090103
 21
3906.1184499663195
 31
0.0
  0
LINE
  5
DA
100
AcDbEntity
  8
0
370
              -2
390
0
  6
Continuous
 62
               0
100
AcDbLine
 10
1751.8950937090103
 20
4386.1184499663195
 30
0.0
 11
1751.8950937090103
 21
3906.1184499663195
 31
0.0
  0
CIRCLE
  5
DB
102
{ACAD_REACTORS
330
DC
102
}
100
AcDbEntity
  8
0
370
              -2
390
0
  6
Continuous
 62
               0
100
AcDbCircle
 10
1751.8950937090103
 20
4386.1184499663195
 30
0.0
 40
4.99969482421875
  0
HATCH
  5
DC
100
AcDbEntity
  8
0
370
              -2
390
0
  6
Continuous
 62
               0
100
AcDbHatch
 10
0.0
 20
0.0
 30
0.0
210
0.0
220
0.0
230
1.0
  2
SOLID
 70
               1
 71
               1
 91
        1
 92
        1
 93
        1
 72
               2
 10
1751.8950937090103
 20
4386.1184499663195
 40
4.99969482421875
 50
0.0
 51
360.0
 73
               0
 97
        1
330
DB
 75
               0
 76
               1
 98
        1
 10
0.0
 20
0.0
  0
CIRCLE
  5
DD
102
{ACAD_REACTORS
330
DE
102
}
100
AcDbEntity
  8
0
370
              -2
390
0
  6
Continuous
 62
               0
100
AcDbCircle
 10
1751.8950937090103
 20
3906.1184499663195
 30
0.0
 40
4.99969482421875
  0
HATCH
  5
DE
100
AcDbEntity
  8
0
370
              -2
390
0
  6
Continuous
 62
               0
100
AcDbHatch
 10
0.0
 20
0.0
 30
0.0
210
0.0
220
0.0
230
1.0
  2
SOLID
 70
               1
 71
               1
 91
        1
 92
        1
 93
        1
 72
               2
 10
1751.8950937090103
 20
3906.1184499663195
 40
4.99969482421875
 50
0.0
 51
360.0
 73
               0
 97
        1
330
DD
 75
               0
 76
               1
 98
        1
 10
0.0
 20
0.0
  0
MTEXT
  5
DF
100
AcDbEntity
  8
0
390
0
 62
               0
100
AcDbMText
 10
1718.0174765215102
 20
4122.3059482841445
 30
0.0
 40
24.432617187500004
 41
0.0
 71
               1
 72
               1
  1
480
  7
ＭＳ ゴシック
 11
0.0
 21
1.0
 31
0.0
 73
               1
 44
0.7828267384257843
  0
POINT
  5
E0
100
AcDbEntity
  8
Defpoints
370
               0
390
0
 62
               0
100
AcDbPoint
 10
2370.1193769685106
 20
3906.1184499663195
 30
0.0
  0
POINT
  5
E1
100
AcDbEntity
  8
Defpoints
370
               0
390
0
 62
               0
100
AcDbPoint
 10
1940.9659090036953
 20
4386.1184499663195
 30
0.0
  0
POINT
  5
E2
100
AcDbEntity
  8
Defpoints
370
               0
390
0
 62
               0
100
AcDbPoint
 10
1751.8950937090103
 20
4386.1184499663195
 30
0.0
  0
ENDBLK
  5
E3
100
AcDbEntity
  8
info
390
0
100
AcDbBlockEnd
  0
BLOCK
  5
E4
100
AcDbEntity
  8
info
390
0
100
AcDbBlockBegin
  2
*D13
 70
               1
 10
0.0
 20
0.0
 30
0.0
  3
*D13
  1

  0
LINE
  5
E5
100
AcDbEntity
  8
0
370
              -2
390
0
  6
Continuous
 62
               0
100
AcDbLine
 10
2617.9600360345012
 20
3975.5169538811065
 30
0.0
 11
2617.9600360345012
 21
3818.0
 31
0.0
  0
LINE
  5
E6
100
AcDbEntity
  8
0
370
              -2
390
0
  6
Continuous
 62
               0
100
AcDbLine
 10
2217.9659090036935
 20
3974.1354038474269
 30
0.0
 11
2217.9659090036935
 21
3818.0
 31
0.0
  0
LINE
  5
E7
100
AcDbEntity
  8
0
370
              -2
390
0
  6
Continuous
 62
               0
100
AcDbLine
 10
2617.9600360345012
 20
3818.0
 30
0.0
 11
2217.9659090036935
 21
3818.0
 31
0.0
  0
CIRCLE
  5
E8
102
{ACAD_REACTORS
330
E9
102
}
100
AcDbEntity
  8
0
370
              -2
390
0
  6
Continuous
 62
               0
100
AcDbCircle
 10
2617.9600360345012
 20
3818.0
 30
0.0
 40
4.99969482421875
  0
HATCH
  5
E9
100
AcDbEntity
  8
0
370
              -2
390
0
  6
Continuous
 62
               0
100
AcDbHatch
 10
0.0
 20
0.0
 30
0.0
210
0.0
220
0.0
230
1.0
  2
SOLID
 70
               1
 71
               1
 91
        1
 92
        1
 93
        1
 72
               2
 10
2617.9600360345012
 20
3818.0
 40
4.99969482421875
 50
0.0
 51
360.0
 73
               0
 97
        1
330
E8
 75
               0
 76
               1
 98
        1
 10
0.0
 20
0.0
  0
CIRCLE
  5
EA
102
{ACAD_REACTORS
330
EB
102
}
100
AcDbEntity
  8
0
370
              -2
390
0
  6
Continuous
 62
               0
100
AcDbCircle
 10
2217.9659090036935
 20
3818.0
 30
0.0
 40
4.99969482421875
  0
HATCH
  5
EB
100
AcDbEntity
  8
0
370
              -2
390
0
  6
Continuous
 62
               0
100
AcDbHatch
 10
0.0
 20
0.0
 30
0.0
210
0.0
220
0.0
230
1.0
  2
SOLID
 70
               1
 71
               1
 91
        1
 92
        1
 93
        1
 72
               2
 10
2217.9659090036935
 20
3818.0
 40
4.99969482421875
 50
0.0
 51
360.0
 73
               0
 97
        1
330
EA
 75
               0
 76
               1
 98
        1
 10
0.0
 20
0.0
  0
MTEXT
  5
EC
100
AcDbEntity
  8
0
390
0
 62
               0
100
AcDbMText
 10
2394.1504708369216
 20
3851.8776171875002
 30
0.0
 40
24.432617187500004
 41
0.0
 71
               1
 72
               1
  1
400
  7
ＭＳ ゴシック
 73
               1
 44
0.7828267384257843
  0
POINT
  5
ED
100
AcDbEntity
  8
Defpoints
370
               0
390
0
 62
               0
100
AcDbPoint
 10
2217.9659090036935
 20
3999.1354038474269
 30
0.0
  0
POINT
  5
EE
100
AcDbEntity
  8
Defpoints
370
               0
390
0
 62
               0
100
AcDbPoint
 10
2617.9600360345012
 20
4000.5169538811065
 30
0.0
  0
POINT
  5
EF
100
AcDbEntity
  8
Defpoints
370
               0
390
0
 62
               0
100
AcDbPoint
 10
2617.9600360345012
 20
3818.0
 30
0.0
  0
ENDBLK
  5
F0
100
AcDbEntity
  8
info
390
0
100
AcDbBlockEnd
  0
BLOCK
  5
F1
100
AcDbEntity
  8
info
390
0
100
AcDbBlockBegin
  2
*D14
 70
               1
 10
0.0
 20
0.0
 30
0.0
  3
*D14
  1

  0
LINE
  5
F2
100
AcDbEntity
  8
0
370
              -2
390
0
  6
Continuous
 62
               0
100
AcDbLine
 10
2417.9659090036944
 20
4363.6184499663204
 30
0.0
 11
2417.9659090036944
 21
4436.1184499663204
 31
0.0
  0
LINE
  5
F3
100
AcDbEntity
  8
0
370
              -2
390
0
  6
Continuous
 62
               0
100
AcDbLine
 10
2252.9659090036944
 20
4323.6184499663204
 30
0.0
 11
2252.9659090036944
 21
4436.1184499663204
 31
0.0
  0
LINE
  5
F4
100
AcDbEntity
  8
0
370
              -2
390
0
  6
Continuous
 62
               0
100
AcDbLine
 10
2417.9659090036944
 20
4436.1184499663204
 30
0.0
 11
2252.9659090036944
 21
4436.1184499663204
 31
0.0
  0
CIRCLE
  5
F5
102
{ACAD_REACTORS
330
F6
102
}
100
AcDbEntity
  8
0
370
              -2
390
0
  6
Continuous
 62
               0
100
AcDbCircle
 10
2417.9659090036944
 20
4436.1184499663204
 30
0.0
 40
4.99969482421875
  0
HATCH
  5
F6
100
AcDbEntity
  8
0
370
              -2
390
0
  6
Continuous
 62
               0
100
AcDbHatch
 10
0.0
 20
0.0
 30
0.0
210
0.0
220
0.0
230
1.0
  2
SOLID
 70
               1
 71
               1
 91
        1
 92
        1
 93
        1
 72
               2
 10
2417.9659090036944
 20
4436.1184499663204
 40
4.99969482421875
 50
0.0
 51
360.0
 73
               0
 97
        1
330
F5
 75
               0
 76
               1
 98
        1
 10
0.0
 20
0.0
  0
CIRCLE
  5
F7
102
{ACAD_REACTORS
330
F8
102
}
100
AcDbEntity
  8
0
370
              -2
390
0
  6
Continuous
 62
               0
100
AcDbCircle
 10
2252.9659090036944
 20
4436.1184499663204
 30
0.0
 40
4.99969482421875
  0
HATCH
  5
F8
100
AcDbEntity
  8
0
370
              -2
390
0
  6
Continuous
 62
               0
100
AcDbHatch
 10
0.0
 20
0.0
 30
0.0
210
0.0
220
0.0
230
1.0
  2
SOLID
 70
               1
 71
               1
 91
        1
 92
        1
 93
        1
 72
               2
 10
2252.9659090036944
 20
4436.1184499663204
 40
4.99969482421875
 50
0.0
 51
360.0
 73
               0
 97
        1
330
F7
 75
               0
 76
               1
 98
        1
 10
0.0
 20
0.0
  0
MTEXT
  5
F9
100
AcDbEntity
  8
0
390
0
 62
               0
100
AcDbMText
 10
2311.6534073215189
 20
4469.9960671538201
 30
0.0
 40
24.432617187500004
 41
0.0
 71
               1
 72
               1
  1
165
  7
ＭＳ ゴシック
 73
               1
 44
0.7828267384257843
  0
POINT
  5
FA
100
AcDbEntity
  8
Defpoints
370
               0
390
0
 62
               0
100
AcDbPoint
 10
2252.9659090036944
 20
4298.6184499663204
 30
0.0
  0
POINT
  5
FB
100
AcDbEntity
  8
Defpoints
370
               0
390
0
 62
               0
100
AcDbPoint
 10
2417.9659090036944
 20
4338.6184499663204
 30
0.0
  0
POINT
  5
FC
100
AcDbEntity
  8
Defpoints
370
               0
390
0
 62
               0
100
AcDbPoint
 10
2417.9659090036944
 20
4436.1184499663204
 30
0.0
  0
ENDBLK
  5
FD
100
AcDbEntity
  8
info
390
0
100
AcDbBlockEnd
  0
BLOCK
  5
FE
100
AcDbEntity
  8
info
390
0
100
AcDbBlockBegin
  2
*D15
 70
               1
 10
0.0
 20
0.0
 30
0.0
  3
*D15
  1

  0
LINE
  5
FF
100
AcDbEntity
  8
0
370
              -2
390
0
  6
Continuous
 62
               0
100
AcDbLine
 10
2417.9659090036944
 20
4363.6184499663204
 30
0.0
 11
2417.9659090036944
 21
4436.1184499663204
 31
0.0
  0
LINE
  5
100
100
AcDbEntity
  8
0
370
              -2
390
0
  6
Continuous
 62
               0
100
AcDbLine
 10
2582.9659090036944
 20
4323.6184499663204
 30
0.0
 11
2582.9659090036944
 21
4436.1184499663204
 31
0.0
  0
LINE
  5
101
100
AcDbEntity
  8
0
370
              -2
390
0
  6
Continuous
 62
               0
100
AcDbLine
 10
2417.9659090036944
 20
4436.1184499663204
 30
0.0
 11
2582.9659090036944
 21
4436.1184499663204
 31
0.0
  0
CIRCLE
  5
102
102
{ACAD_REACTORS
330
103
102
}
100
AcDbEntity
  8
0
370
              -2
390
0
  6
Continuous
 62
               0
100
AcDbCircle
 10
2417.9659090036944
 20
4436.1184499663204
 30
0.0
 40
4.99969482421875
  0
HATCH
  5
103
100
AcDbEntity
  8
0
370
              -2
390
0
  6
Continuous
 62
               0
100
AcDbHatch
 10
0.0
 20
0.0
 30
0.0
210
0.0
220
0.0
230
1.0
  2
SOLID
 70
               1
 71
               1
 91
        1
 92
        1
 93
        1
 72
               2
 10
2417.9659090036944
 20
4436.1184499663204
 40
4.99969482421875
 50
0.0
 51
360.0
 73
               0
 97
        1
330
102
 75
               0
 76
               1
 98
        1
 10
0.0
 20
0.0
  0
CIRCLE
  5
104
102
{ACAD_REACTORS
330
105
102
}
100
AcDbEntity
  8
0
370
              -2
390
0
  6
Continuous
 62
               0
100
AcDbCircle
 10
2582.9659090036944
 20
4436.1184499663204
 30
0.0
 40
4.99969482421875
  0
HATCH
  5
105
100
AcDbEntity
  8
0
370
              -2
390
0
  6
Continuous
 62
               0
100
AcDbHatch
 10
0.0
 20
0.0
 30
0.0
210
0.0
220
0.0
230
1.0
  2
SOLID
 70
               1
 71
               1
 91
        1
 92
        1
 93
        1
 72
               2
 10
2582.9659090036944
 20
4436.1184499663204
 40
4.99969482421875
 50
0.0
 51
360.0
 73
               0
 97
        1
330
104
 75
               0
 76
               1
 98
        1
 10
0.0
 20
0.0
  0
MTEXT
  5
106
100
AcDbEntity
  8
0
390
0
 62
               0
100
AcDbMText
 10
2476.6534073215189
 20
4469.9960671538201
 30
0.0
 40
24.432617187500004
 41
0.0
 71
               1
 72
               1
  1
165
  7
ＭＳ ゴシック
 73
               1
 44
0.7828267384257843
  0
POINT
  5
107
100
AcDbEntity
  8
Defpoints
370
               0
390
0
 62
               0
100
AcDbPoint
 10
2582.9659090036944
 20
4298.6184499663204
 30
0.0
  0
POINT
  5
108
100
AcDbEntity
  8
Defpoints
370
               0
390
0
 62
               0
100
AcDbPoint
 10
2417.9659090036944
 20
4338.6184499663204
 30
0.0
  0
POINT
  5
109
100
AcDbEntity
  8
Defpoints
370
               0
390
0
 62
               0
100
AcDbPoint
 10
2417.9659090036944
 20
4436.1184499663204
 30
0.0
  0
ENDBLK
  5
10A
100
AcDbEntity
  8
info
390
0
100
AcDbBlockEnd
  0
BLOCK
  5
10B
100
AcDbEntity
  8
info
390
0
100
AcDbBlockBegin
  2
*D16
 70
               1
 10
0.0
 20
0.0
 30
0.0
  3
*D16
  1

  0
LINE
  5
10C
100
AcDbEntity
  8
0
370
              -2
390
0
  6
Continuous
 62
               0
100
AcDbLine
 10
2417.9659090036944
 20
4363.6184499663204
 30
0.0
 11
2417.9659090036944
 21
4486.1184499663204
 31
0.0
  0
LINE
  5
10D
100
AcDbEntity
  8
0
370
              -2
390
0
  6
Continuous
 62
               0
100
AcDbLine
 10
2687.9659090036935
 20
4408.1184499663195
 30
0.0
 11
2687.9659090036935
 21
4486.1184499663204
 31
0.0
  0
LINE
  5
10E
100
AcDbEntity
  8
0
370
              -2
390
0
  6
Continuous
 62
               0
100
AcDbLine
 10
2417.9659090036944
 20
4486.1184499663204
 30
0.0
 11
2687.9659090036935
 21
4486.1184499663204
 31
0.0
  0
CIRCLE
  5
10F
102
{ACAD_REACTORS
330
110
102
}
100
AcDbEntity
  8
0
370
              -2
390
0
  6
Continuous
 62
               0
100
AcDbCircle
 10
2417.9659090036944
 20
4486.1184499663204
 30
0.0
 40
4.99969482421875
  0
HATCH
  5
110
100
AcDbEntity
  8
0
370
              -2
390
0
  6
Continuous
 62
               0
100
AcDbHatch
 10
0.0
 20
0.0
 30
0.0
210
0.0
220
0.0
230
1.0
  2
SOLID
 70
               1
 71
               1
 91
        1
 92
        1
 93
        1
 72
               2
 10
2417.9659090036944
 20
4486.1184499663204
 40
4.99969482421875
 50
0.0
 51
360.0
 73
               0
 97
        1
330
10F
 75
               0
 76
               1
 98
        1
 10
0.0
 20
0.0
  0
CIRCLE
  5
111
102
{ACAD_REACTORS
330
112
102
}
100
AcDbEntity
  8
0
370
              -2
390
0
  6
Continuous
 62
               0
100
AcDbCircle
 10
2687.9659090036935
 20
4486.1184499663204
 30
0.0
 40
4.99969482421875
  0
HATCH
  5
112
100
AcDbEntity
  8
0
370
              -2
390
0
  6
Continuous
 62
               0
100
AcDbHatch
 10
0.0
 20
0.0
 30
0.0
210
0.0
220
0.0
230
1.0
  2
SOLID
 70
               1
 71
               1
 91
        1
 92
        1
 93
        1
 72
               2
 10
2687.9659090036935
 20
4486.1184499663204
 40
4.99969482421875
 50
0.0
 51
360.0
 73
               0
 97
        1
330
111
 75
               0
 76
               1
 98
        1
 10
0.0
 20
0.0
  0
MTEXT
  5
113
100
AcDbEntity
  8
0
390
0
 62
               0
100
AcDbMText
 10
2529.1534073215184
 20
4519.9960671538201
 30
0.0
 40
24.432617187500004
 41
0.0
 71
               1
 72
               1
  1
270
  7
ＭＳ ゴシック
 73
               1
 44
0.7828267384257843
  0
POINT
  5
114
100
AcDbEntity
  8
Defpoints
370
               0
390
0
 62
               0
100
AcDbPoint
 10
2687.9659090036935
 20
4383.1184499663195
 30
0.0
  0
POINT
  5
115
100
AcDbEntity
  8
Defpoints
370
               0
390
0
 62
               0
100
AcDbPoint
 10
2417.9659090036944
 20
4338.6184499663204
 30
0.0
  0
POINT
  5
116
100
AcDbEntity
  8
Defpoints
370
               0
390
0
 62
               0
100
AcDbPoint
 10
2417.9659090036944
 20
4486.1184499663204
 30
0.0
  0
ENDBLK
  5
117
100
AcDbEntity
  8
info
390
0
100
AcDbBlockEnd
  0
BLOCK
  5
118
100
AcDbEntity
  8
info
390
0
100
AcDbBlockBegin
  2
*D17
 70
               1
 10
0.0
 20
0.0
 30
0.0
  3
*D17
  1

  0
LINE
  5
119
100
AcDbEntity
  8
0
370
              -2
390
0
  6
Continuous
 62
               0
100
AcDbLine
 10
2210.4659090036944
 20
4281.1184499663195
 30
0.0
 11
2176.1193769685106
 21
4281.1184499663195
 31
0.0
  0
LINE
  5
11A
100
AcDbEntity
  8
0
370
              -2
390
0
  6
Continuous
 62
               0
100
AcDbLine
 10
2210.4659090036944
 20
4386.1184499663195
 30
0.0
 11
2176.1193769685106
 21
4386.1184499663195
 31
0.0
  0
LINE
  5
11B
100
AcDbEntity
  8
0
370
              -2
390
0
  6
Continuous
 62
               0
100
AcDbLine
 10
2176.1193769685106
 20
4281.1184499663195
 30
0.0
 11
2176.1193769685106
 21
4386.1184499663195
 31
0.0
  0
CIRCLE
  5
11C
102
{ACAD_REACTORS
330
11D
102
}
100
AcDbEntity
  8
0
370
              -2
390
0
  6
Continuous
 62
               0
100
AcDbCircle
 10
2176.1193769685106
 20
4281.1184499663195
 30
0.0
 40
4.99969482421875
  0
HATCH
  5
11D
100
AcDbEntity
  8
0
370
              -2
390
0
  6
Continuous
 62
               0
100
AcDbHatch
 10
0.0
 20
0.0
 30
0.0
210
0.0
220
0.0
230
1.0
  2
SOLID
 70
               1
 71
               1
 91
        1
 92
        1
 93
        1
 72
               2
 10
2176.1193769685106
 20
4281.1184499663195
 40
4.99969482421875
 50
0.0
 51
360.0
 73
               0
 97
        1
330
11C
 75
               0
 76
               1
 98
        1
 10
0.0
 20
0.0
  0
CIRCLE
  5
11E
102
{ACAD_REACTORS
330
11F
102
}
100
AcDbEntity
  8
0
370
              -2
390
0
  6
Continuous
 62
               0
100
AcDbCircle
 10
2176.1193769685106
 20
4386.1184499663195
 30
0.0
 40
4.99969482421875
  0
HATCH
  5
11F
100
AcDbEntity
  8
0
370
              -2
390
0
  6
Continuous
 62
               0
100
AcDbHatch
 10
0.0
 20
0.0
 30
0.0
210
0.0
220
0.0
230
1.0
  2
SOLID
 70
               1
 71
               1
 91
        1
 92
        1
 93
        1
 72
               2
 10
2176.1193769685106
 20
4386.1184499663195
 40
4.99969482421875
 50
0.0
 51
360.0
 73
               0
 97
        1
330
11E
 75
               0
 76
               1
 98
        1
 10
0.0
 20
0.0
  0
MTEXT
  5
120
100
AcDbEntity
  8
0
390
0
 62
               0
100
AcDbMText
 10
2142.2417597810104
 20
4309.8059482841445
 30
0.0
 40
24.432617187500004
 41
0.0
 71
               1
 72
               1
  1
105
  7
ＭＳ ゴシック
 11
0.0
 21
1.0
 31
0.0
 73
               1
 44
0.7828267384257843
  0
POINT
  5
121
100
AcDbEntity
  8
Defpoints
370
               0
390
0
 62
               0
100
AcDbPoint
 10
2235.4659090036944
 20
4386.1184499663195
 30
0.0
  0
POINT
  5
122
100
AcDbEntity
  8
Defpoints
370
               0
390
0
 62
               0
100
AcDbPoint
 10
2235.4659090036944
 20
4281.1184499663195
 30
0.0
  0
POINT
  5
123
100
AcDbEntity
  8
Defpoints
370
               0
390
0
 62
               0
100
AcDbPoint
 10
2176.1193769685106
 20
4281.1184499663195
 30
0.0
  0
ENDBLK
  5
124
100
AcDbEntity
  8
info
390
0
100
AcDbBlockEnd
  0
BLOCK
  5
125
100
AcDbEntity
  8
info
390
0
100
AcDbBlockBegin
  2
*D18
 70
               1
 10
0.0
 20
0.0
 30
0.0
  3
*D18
  1

  0
LINE
  5
126
100
AcDbEntity
  8
0
370
              -2
390
0
  6
Continuous
 62
               0
100
AcDbLine
 10
2377.9659090036944
 20
4321.1184499663195
 30
0.0
 11
2348.1193769685106
 21
4321.1184499663195
 31
0.0
  0
LINE
  5
127
100
AcDbEntity
  8
0
370
              -2
390
0
  6
Continuous
 62
               0
100
AcDbLine
 10
2377.9659090036944
 20
4386.1184499663195
 30
0.0
 11
2348.1193769685106
 21
4386.1184499663195
 31
0.0
  0
LINE
  5
128
100
AcDbEntity
  8
0
370
              -2
390
0
  6
Continuous
 62
               0
100
AcDbLine
 10
2348.1193769685106
 20
4321.1184499663195
 30
0.0
 11
2348.1193769685106
 21
4386.1184499663195
 31
0.0
  0
CIRCLE
  5
129
102
{ACAD_REACTORS
330
12A
102
}
100
AcDbEntity
  8
0
370
              -2
390
0
  6
Continuous
 62
               0
100
AcDbCircle
 10
2348.1193769685106
 20
4321.1184499663195
 30
0.0
 40
4.99969482421875
  0
HATCH
  5
12A
100
AcDbEntity
  8
0
370
              -2
390
0
  6
Continuous
 62
               0
100
AcDbHatch
 10
0.0
 20
0.0
 30
0.0
210
0.0
220
0.0
230
1.0
  2
SOLID
 70
               1
 71
               1
 91
        1
 92
        1
 93
        1
 72
               2
 10
2348.1193769685106
 20
4321.1184499663195
 40
4.99969482421875
 50
0.0
 51
360.0
 73
               0
 97
        1
330
129
 75
               0
 76
               1
 98
        1
 10
0.0
 20
0.0
  0
CIRCLE
  5
12B
102
{ACAD_REACTORS
330
12C
102
}
100
AcDbEntity
  8
0
370
              -2
390
0
  6
Continuous
 62
               0
100
AcDbCircle
 10
2348.1193769685106
 20
4386.1184499663195
 30
0.0
 40
4.99969482421875
  0
HATCH
  5
12C
100
AcDbEntity
  8
0
370
              -2
390
0
  6
Continuous
 62
               0
100
AcDbHatch
 10
0.0
 20
0.0
 30
0.0
210
0.0
220
0.0
230
1.0
  2
SOLID
 70
               1
 71
               1
 91
        1
 92
        1
 93
        1
 72
               2
 10
2348.1193769685106
 20
4386.1184499663195
 40
4.99969482421875
 50
0.0
 51
360.0
 73
               0
 97
        1
330
12B
 75
               0
 76
               1
 98
        1
 10
0.0
 20
0.0
  0
MTEXT
  5
12D
100
AcDbEntity
  8
0
390
0
 62
               0
100
AcDbMText
 10
2314.2417597810104
 20
4337.7434499663195
 30
0.0
 40
24.432617187500004
 41
0.0
 71
               1
 72
               1
  1
65
  7
ＭＳ ゴシック
 11
0.0
 21
1.0
 31
0.0
 73
               1
 44
0.7828267384257843
  0
POINT
  5
12E
100
AcDbEntity
  8
Defpoints
370
               0
390
0
 62
               0
100
AcDbPoint
 10
2402.9659090036944
 20
4386.1184499663195
 30
0.0
  0
POINT
  5
12F
100
AcDbEntity
  8
Defpoints
370
               0
390
0
 62
               0
100
AcDbPoint
 10
2402.9659090036944
 20
4321.1184499663195
 30
0.0
  0
POINT
  5
130
100
AcDbEntity
  8
Defpoints
370
               0
390
0
 62
               0
100
AcDbPoint
 10
2348.1193769685106
 20
4321.1184499663195
 30
0.0
  0
ENDBLK
  5
131
100
AcDbEntity
  8
info
390
0
100
AcDbBlockEnd
  0
BLOCK
  5
132
100
AcDbEntity
  8
info
390
0
100
AcDbBlockBegin
  2
*D19
 70
               1
 10
0.0
 20
0.0
 30
0.0
  3
*D19
  1

  0
LINE
  5
133
100
AcDbEntity
  8
0
370
              -2
390
0
  6
Continuous
 62
               0
100
AcDbLine
 10
1937.9659090036944
 20
4037.1184499663204
 30
0.0
 11
1937.9659090036944
 21
3818.0
 31
0.0
  0
LINE
  5
134
100
AcDbEntity
  8
0
370
              -2
390
0
  6
Continuous
 62
               0
100
AcDbLine
 10
2217.9659090036935
 20
3949.1354038474269
 30
0.0
 11
2217.9659090036935
 21
3818.0
 31
0.0
  0
LINE
  5
135
100
AcDbEntity
  8
0
370
              -2
390
0
  6
Continuous
 62
               0
100
AcDbLine
 10
1937.9659090036944
 20
3818.0
 30
0.0
 11
2217.9659090036935
 21
3818.0
 31
0.0
  0
CIRCLE
  5
136
102
{ACAD_REACTORS
330
137
102
}
100
AcDbEntity
  8
0
370
              -2
390
0
  6
Continuous
 62
               0
100
AcDbCircle
 10
1937.9659090036944
 20
3818.0
 30
0.0
 40
4.99969482421875
  0
HATCH
  5
137
100
AcDbEntity
  8
0
370
              -2
390
0
  6
Continuous
 62
               0
100
AcDbHatch
 10
0.0
 20
0.0
 30
0.0
210
0.0
220
0.0
230
1.0
  2
SOLID
 70
               1
 71
               1
 91
        1
 92
        1
 93
        1
 72
               2
 10
1937.9659090036944
 20
3818.0
 40
4.99969482421875
 50
0.0
 51
360.0
 73
               0
 97
        1
330
136
 75
               0
 76
               1
 98
        1
 10
0.0
 20
0.0
  0
CIRCLE
  5
138
102
{ACAD_REACTORS
330
139
102
}
100
AcDbEntity
  8
0
370
              -2
390
0
  6
Continuous
 62
               0
100
AcDbCircle
 10
2217.9659090036935
 20
3818.0
 30
0.0
 40
4.99969482421875
  0
HATCH
  5
139
100
AcDbEntity
  8
0
370
              -2
390
0
  6
Continuous
 62
               0
100
AcDbHatch
 10
0.0
 20
0.0
 30
0.0
210
0.0
220
0.0
230
1.0
  2
SOLID
 70
               1
 71
               1
 91
        1
 92
        1
 93
        1
 72
               2
 10
2217.9659090036935
 20
3818.0
 40
4.99969482421875
 50
0.0
 51
360.0
 73
               0
 97
        1
330
138
 75
               0
 76
               1
 98
        1
 10
0.0
 20
0.0
  0
MTEXT
  5
13A
100
AcDbEntity
  8
0
390
0
 62
               0
100
AcDbMText
 10
2054.1534073215184
 20
3851.8776171875002
 30
0.0
 40
24.432617187500004
 41
0.0
 71
               1
 72
               1
  1
280
  7
ＭＳ ゴシック
 73
               1
 44
0.7828267384257843
  0
POINT
  5
13B
100
AcDbEntity
  8
Defpoints
370
               0
390
0
 62
               0
100
AcDbPoint
 10
2217.9659090036935
 20
3974.1354038474269
 30
0.0
  0
POINT
  5
13C
100
AcDbEntity
  8
Defpoints
370
               0
390
0
 62
               0
100
AcDbPoint
 10
1937.9659090036944
 20
4062.1184499663204
 30
0.0
  0
POINT
  5
13D
100
AcDbEntity
  8
Defpoints
370
               0
390
0
 62
               0
100
AcDbPoint
 10
1937.9659090036944
 20
3818.0
 30
0.0
  0
ENDBLK
  5
13E
100
AcDbEntity
  8
info
390
0
100
AcDbBlockEnd
  0
BLOCK
  5
13F
100
AcDbEntity
  8
info
390
0
100
AcDbBlockBegin
  2
*D20
 70
               1
 10
0.0
 20
0.0
 30
0.0
  3
*D20
  1

  0
LINE
  5
140
100
AcDbEntity
  8
0
370
              -2
390
0
  6
Continuous
 62
               0
100
AcDbLine
 10
2687.9659090036944
 20
3195.1962520827674
 30
0.0
 11
2687.9659090036944
 21
3270.1962520827674
 31
0.0
  0
LINE
  5
141
100
AcDbEntity
  8
0
370
              -2
390
0
  6
Continuous
 62
               0
100
AcDbLine
 10
2557.9659090036944
 20
3175.1962520827674
 30
0.0
 11
2557.9659090036944
 21
3270.1962520827674
 31
0.0
  0
LINE
  5
142
100
AcDbEntity
  8
0
370
              -2
390
0
  6
Continuous
 62
               0
100
AcDbLine
 10
2687.9659090036944
 20
3270.1962520827674
 30
0.0
 11
2557.9659090036944
 21
3270.1962520827674
 31
0.0
  0
CIRCLE
  5
143
102
{ACAD_REACTORS
330
144
102
}
100
AcDbEntity
  8
0
370
              -2
390
0
  6
Continuous
 62
               0
100
AcDbCircle
 10
2687.9659090036944
 20
3270.1962520827674
 30
0.0
 40
4.99969482421875
  0
HATCH
  5
144
100
AcDbEntity
  8
0
370
              -2
390
0
  6
Continuous
 62
               0
100
AcDbHatch
 10
0.0
 20
0.0
 30
0.0
210
0.0
220
0.0
230
1.0
  2
SOLID
 70
               1
 71
               1
 91
        1
 92
        1
 93
        1
 72
               2
 10
2687.9659090036944
 20
3270.1962520827674
 40
4.99969482421875
 50
0.0
 51
360.0
 73
               0
 97
        1
330
143
 75
               0
 76
               1
 98
        1
 10
0.0
 20
0.0
  0
CIRCLE
  5
145
102
{ACAD_REACTORS
330
146
102
}
100
AcDbEntity
  8
0
370
              -2
390
0
  6
Continuous
 62
               0
100
AcDbCircle
 10
2557.9659090036944
 20
3270.1962520827674
 30
0.0
 40
4.99969482421875
  0
HATCH
  5
146
100
AcDbEntity
  8
0
370
              -2
390
0
  6
Continuous
 62
               0
100
AcDbHatch
 10
0.0
 20
0.0
 30
0.0
210
0.0
220
0.0
230
1.0
  2
SOLID
 70
               1
 71
               1
 91
        1
 92
        1
 93
        1
 72
               2
 10
2557.9659090036944
 20
3270.1962520827674
 40
4.99969482421875
 50
0.0
 51
360.0
 73
               0
 97
        1
330
145
 75
               0
 76
               1
 98
        1
 10
0.0
 20
0.0
  0
MTEXT
  5
147
100
AcDbEntity
  8
0
390
0
 62
               0
100
AcDbMText
 10
2599.1534073215189
 20
3304.0738692702676
 30
0.0
 40
24.432617187500004
 41
0.0
 71
               1
 72
               1
  1
130
  7
ＭＳ ゴシック
 73
               1
 44
0.7828267384257843
  0
POINT
  5
148
100
AcDbEntity
  8
Defpoints
370
               0
390
0
 62
               0
100
AcDbPoint
 10
2557.9659090036944
 20
3150.1962520827674
 30
0.0
  0
POINT
  5
149
100
AcDbEntity
  8
Defpoints
370
               0
390
0
 62
               0
100
AcDbPoint
 10
2687.9659090036944
 20
3170.1962520827674
 30
0.0
  0
POINT
  5
14A
100
AcDbEntity
  8
Defpoints
370
               0
390
0
 62
               0
100
AcDbPoint
 10
2687.9659090036944
 20
3270.1962520827674
 30
0.0
  0
ENDBLK
  5
14B
100
AcDbEntity
  8
info
390
0
100
AcDbBlockEnd
  0
BLOCK
  5
14C
100
AcDbEntity
  8
ADF70-1210
390
0
100
AcDbBlockBegin
  2
*D21
 70
               1
 10
0.0
 20
0.0
 30
0.0
  3
*D21
  1

  0
LINE
  5
14D
100
AcDbEntity
  8
0
370
              -2
390
0
  6
Continuous
 62
               0
100
AcDbLine
 10
2617.9659090036935
 20
3972.0347238661111
 30
0.0
 11
2617.9659090036935
 21
3818.0
 31
0.0
  0
LINE
  5
14E
100
AcDbEntity
  8
0
370
              -2
390
0
  6
Continuous
 62
               0
100
AcDbLine
 10
2687.9659090036944
 20
4037.1184499663204
 30
0.0
 11
2687.9659090036944
 21
3818.0
 31
0.0
  0
LINE
  5
14F
100
AcDbEntity
  8
0
370
              -2
390
0
  6
Continuous
 62
               0
100
AcDbLine
 10
2617.9659090036935
 20
3818.0
 30
0.0
 11
2687.9659090036944
 21
3818.0
 31
0.0
  0
CIRCLE
  5
150
102
{ACAD_REACTORS
330
151
102
}
100
AcDbEntity
  8
0
370
              -2
390
0
  6
Continuous
 62
               0
100
AcDbCircle
 10
2617.9659090036935
 20
3818.0
 30
0.0
 40
4.99969482421875
  0
HATCH
  5
151
100
AcDbEntity
  8
0
370
              -2
390
0
  6
Continuous
 62
               0
100
AcDbHatch
 10
0.0
 20
0.0
 30
0.0
210
0.0
220
0.0
230
1.0
  2
SOLID
 70
               1
 71
               1
 91
        1
 92
        1
 93
        1
 72
               2
 10
2617.9659090036935
 20
3818.0
 40
4.99969482421875
 50
0.0
 51
360.0
 73
               0
 97
        1
330
150
 75
               0
 76
               1
 98
        1
 10
0.0
 20
0.0
  0
CIRCLE
  5
152
102
{ACAD_REACTORS
330
153
102
}
100
AcDbEntity
  8
0
370
              -2
390
0
  6
Continuous
 62
               0
100
AcDbCircle
 10
2687.9659090036944
 20
3818.0
 30
0.0
 40
4.99969482421875
  0
HATCH
  5
153
100
AcDbEntity
  8
0
370
              -2
390
0
  6
Continuous
 62
               0
100
AcDbHatch
 10
0.0
 20
0.0
 30
0.0
210
0.0
220
0.0
230
1.0
  2
SOLID
 70
               1
 71
               1
 91
        1
 92
        1
 93
        1
 72
               2
 10
2687.9659090036944
 20
3818.0
 40
4.99969482421875
 50
0.0
 51
360.0
 73
               0
 97
        1
330
152
 75
               0
 76
               1
 98
        1
 10
0.0
 20
0.0
  0
MTEXT
  5
154
100
AcDbEntity
  8
0
390
0
 62
               0
100
AcDbMText
 10
2637.0909090036939
 20
3851.8776171875002
 30
0.0
 40
24.432617187500004
 41
0.0
 71
               1
 72
               1
  1
70
  7
ＭＳ ゴシック
 73
               1
 44
0.7828267384257843
  0
POINT
  5
155
100
AcDbEntity
  8
Defpoints
370
               0
390
0
 62
               0
100
AcDbPoint
 10
2687.9659090036944
 20
4062.1184499663204
 30
0.0
  0
POINT
  5
156
100
AcDbEntity
  8
Defpoints
370
               0
390
0
 62
               0
100
AcDbPoint
 10
2617.9659090036935
 20
3997.0347238661111
 30
0.0
  0
POINT
  5
157
100
AcDbEntity
  8
Defpoints
370
               0
390
0
 62
               0
100
AcDbPoint
 10
2617.9659090036935
 20
3818.0
 30
0.0
  0
ENDBLK
  5
158
100
AcDbEntity
  8
ADF70-1210
390
0
100
AcDbBlockEnd
  0
BLOCK
  5
159
100
AcDbEntity
  8
ADF70-1210
390
0
100
AcDbBlockBegin
  2
*D22
 70
               1
 10
0.0
 20
0.0
 30
0.0
  3
*D22
  1

  0
LINE
  5
15A
100
AcDbEntity
  8
0
370
              -2
390
0
  6
Continuous
 62
               0
100
AcDbLine
 10
3151.5946457067821
 20
2985.1993991587242
 30
0.0
 11
3112.8124410388782
 21
2985.1993991587242
 31
0.0
  0
LINE
  5
15B
100
AcDbEntity
  8
0
370
              -2
390
0
  6
Continuous
 62
               0
100
AcDbLine
 10
3151.8124410388782
 20
2980.1996429008223
 30
0.0
 11
3112.8124410388782
 21
2980.1996429008223
 31
0.0
  0
LINE
  5
15C
100
AcDbEntity
  8
0
370
              -2
390
0
  6
Continuous
 62
               0
100
AcDbLine
 10
3112.8124410388782
 20
2980.1996429008223
 30
0.0
 11
3112.8124410388782
 21
2948.125
 31
0.0
  0
LINE
  5
15D
100
AcDbEntity
  8
0
370
              -2
390
0
  6
Continuous
 62
               0
100
AcDbLine
 10
3112.8124410388782
 20
2985.1993991587242
 30
0.0
 11
3112.8124410388782
 21
2980.1996429008223
 31
0.0
  0
CIRCLE
  5
15E
102
{ACAD_REACTORS
330
15F
102
}
100
AcDbEntity
  8
0
370
              -2
390
0
  6
Continuous
 62
               0
100
AcDbCircle
 10
3112.8124410388782
 20
2985.1993991587242
 30
0.0
 40
4.99969482421875
  0
HATCH
  5
15F
100
AcDbEntity
  8
0
370
              -2
390
0
  6
Continuous
 62
               0
100
AcDbHatch
 10
0.0
 20
0.0
 30
0.0
210
0.0
220
0.0
230
1.0
  2
SOLID
 70
               1
 71
               1
 91
        1
 92
        1
 93
        1
 72
               2
 10
3112.8124410388782
 20
2985.1993991587242
 40
4.99969482421875
 50
0.0
 51
360.0
 73
               0
 97
        1
330
15E
 75
               0
 76
               1
 98
        1
 10
0.0
 20
0.0
  0
CIRCLE
  5
160
102
{ACAD_REACTORS
330
161
102
}
100
AcDbEntity
  8
0
370
              -2
390
0
  6
Continuous
 62
               0
100
AcDbCircle
 10
3112.8124410388782
 20
2980.1996429008223
 30
0.0
 40
4.99969482421875
  0
HATCH
  5
161
100
AcDbEntity
  8
0
370
              -2
390
0
  6
Continuous
 62
               0
100
AcDbHatch
 10
0.0
 20
0.0
 30
0.0
210
0.0
220
0.0
230
1.0
  2
SOLID
 70
               1
 71
               1
 91
        1
 92
        1
 93
        1
 72
               2
 10
3112.8124410388782
 20
2980.1996429008223
 40
4.99969482421875
 50
0.0
 51
360.0
 73
               0
 97
        1
330
160
 75
               0
 76
               1
 98
        1
 10
0.0
 20
0.0
  0
MTEXT
  5
162
100
AcDbEntity
  8
0
390
0
 62
               0
100
AcDbMText
 10
3078.934823851378
 20
2948.125
 30
0.0
 40
24.432617187500004
 41
0.0
 71
               1
 72
               1
  1
5
  7
ＭＳ ゴシック
 11
0.0
 21
1.0
 31
0.0
 73
               1
 44
0.7828267384257843
  0
POINT
  5
163
100
AcDbEntity
  8
Defpoints
370
               0
390
0
 62
               0
100
AcDbPoint
 10
3176.8124410388782
 20
2980.1996429008223
 30
0.0
  0
POINT
  5
164
100
AcDbEntity
  8
Defpoints
370
               0
390
0
 62
               0
100
AcDbPoint
 10
3176.5946457067821
 20
2985.1993991587242
 30
0.0
  0
POINT
  5
165
100
AcDbEntity
  8
Defpoints
370
               0
390
0
 62
               0
100
AcDbPoint
 10
3112.8124410388782
 20
2985.1993991587242
 30
0.0
  0
ENDBLK
  5
166
100
AcDbEntity
  8
ADF70-1210
390
0
100
AcDbBlockEnd
  0
BLOCK
  5
167
100
AcDbEntity
  8
ADF70-1210
390
0
100
AcDbBlockBegin
  2
*D23
 70
               1
 10
0.0
 20
0.0
 30
0.0
  3
*D23
  1

  0
LINE
  5
168
100
AcDbEntity
  8
0
370
              -2
390
0
  6
Continuous
 62
               0
100
AcDbLine
 10
2705.8124410388782
 20
4386.1184499663195
 30
0.0
 11
2781.8124410388782
 21
4386.1184499663195
 31
0.0
  0
LINE
  5
169
100
AcDbEntity
  8
0
370
              -2
390
0
  6
Continuous
 62
               0
100
AcDbLine
 10
2712.9659090036939
 20
4251.1184499663195
 30
0.0
 11
2781.8124410388782
 21
4251.1184499663195
 31
0.0
  0
LINE
  5
16A
100
AcDbEntity
  8
0
370
              -2
390
0
  6
Continuous
 62
               0
100
AcDbLine
 10
2781.8124410388782
 20
4386.1184499663195
 30
0.0
 11
2781.8124410388782
 21
4251.1184499663195
 31
0.0
  0
CIRCLE
  5
16B
102
{ACAD_REACTORS
330
16C
102
}
100
AcDbEntity
  8
0
370
              -2
390
0
  6
Continuous
 62
               0
100
AcDbCircle
 10
2781.8124410388782
 20
4386.1184499663195
 30
0.0
 40
4.99969482421875
  0
HATCH
  5
16C
100
AcDbEntity
  8
0
370
              -2
390
0
  6
Continuous
 62
               0
100
AcDbHatch
 10
0.0
 20
0.0
 30
0.0
210
0.0
220
0.0
230
1.0
  2
SOLID
 70
               1
 71
               1
 91
        1
 92
        1
 93
        1
 72
               2
 10
2781.8124410388782
 20
4386.1184499663195
 40
4.99969482421875
 50
0.0
 51
360.0
 73
               0
 97
        1
330
16B
 75
               0
 76
               1
 98
        1
 10
0.0
 20
0.0
  0
CIRCLE
  5
16D
102
{ACAD_REACTORS
330
16E
102
}
100
AcDbEntity
  8
0
370
              -2
390
0
  6
Continuous
 62
               0
100
AcDbCircle
 10
2781.8124410388782
 20
4251.1184499663195
 30
0.0
 40
4.99969482421875
  0
HATCH
  5
16E
100
AcDbEntity
  8
0
370
              -2
390
0
  6
Continuous
 62
               0
100
AcDbHatch
 10
0.0
 20
0.0
 30
0.0
210
0.0
220
0.0
230
1.0
  2
SOLID
 70
               1
 71
               1
 91
        1
 92
        1
 93
        1
 72
               2
 10
2781.8124410388782
 20
4251.1184499663195
 40
4.99969482421875
 50
0.0
 51
360.0
 73
               0
 97
        1
330
16D
 75
               0
 76
               1
 98
        1
 10
0.0
 20
0.0
  0
MTEXT
  5
16F
100
AcDbEntity
  8
0
390
0
 62
               0
100
AcDbMText
 10
2747.9348238513785
 20
4294.8059482841445
 30
0.0
 40
24.432617187500004
 41
0.0
 71
               1
 72
               1
  1
135
  7
ＭＳ ゴシック
 11
0.0
 21
1.0
 31
0.0
 73
               1
 44
0.7828267384257843
  0
POINT
  5
170
100
AcDbEntity
  8
Defpoints
370
               0
390
0
 62
               0
100
AcDbPoint
 10
2687.9659090036939
 20
4251.1184499663195
 30
0.0
  0
POINT
  5
171
100
AcDbEntity
  8
Defpoints
370
               0
390
0
 62
               0
100
AcDbPoint
 10
2680.8124410388782
 20
4386.1184499663195
 30
0.0
  0
POINT
  5
172
100
AcDbEntity
  8
Defpoints
370
               0
390
0
 62
               0
100
AcDbPoint
 10
2781.8124410388782
 20
4386.1184499663195
 30
0.0
  0
ENDBLK
  5
173
100
AcDbEntity
  8
ADF70-1210
390
0
100
AcDbBlockEnd
  0
BLOCK
  5
174
100
AcDbEntity
  8
ADF70-1210
390
0
100
AcDbBlockBegin
  2
*D24
 70
               1
 10
0.0
 20
0.0
 30
0.0
  3
*D24
  1

  0
LINE
  5
175
100
AcDbEntity
  8
0
370
              -2
390
0
  6
Continuous
 62
               0
100
AcDbLine
 10
2418.012441038878
 20
2960.1993991587242
 30
0.0
 11
2418.012441038878
 21
2886.1962520827674
 31
0.0
  0
LINE
  5
176
100
AcDbEntity
  8
0
370
              -2
390
0
  6
Continuous
 62
               0
100
AcDbLine
 10
2687.9659090036944
 20
3103.0
 30
0.0
 11
2687.9659090036944
 21
2886.1962520827674
 31
0.0
  0
LINE
  5
177
100
AcDbEntity
  8
0
370
              -2
390
0
  6
Continuous
 62
               0
100
AcDbLine
 10
2418.012441038878
 20
2886.1962520827674
 30
0.0
 11
2687.9659090036944
 21
2886.1962520827674
 31
0.0
  0
CIRCLE
  5
178
102
{ACAD_REACTORS
330
179
102
}
100
AcDbEntity
  8
0
370
              -2
390
0
  6
Continuous
 62
               0
100
AcDbCircle
 10
2418.012441038878
 20
2886.1962520827674
 30
0.0
 40
4.99969482421875
  0
HATCH
  5
179
100
AcDbEntity
  8
0
370
              -2
390
0
  6
Continuous
 62
               0
100
AcDbHatch
 10
0.0
 20
0.0
 30
0.0
210
0.0
220
0.0
230
1.0
  2
SOLID
 70
               1
 71
               1
 91
        1
 92
        1
 93
        1
 72
               2
 10
2418.012441038878
 20
2886.1962520827674
 40
4.99969482421875
 50
0.0
 51
360.0
 73
               0
 97
        1
330
178
 75
               0
 76
               1
 98
        1
 10
0.0
 20
0.0
  0
CIRCLE
  5
17A
102
{ACAD_REACTORS
330
17B
102
}
100
AcDbEntity
  8
0
370
              -2
390
0
  6
Continuous
 62
               0
100
AcDbCircle
 10
2687.9659090036944
 20
2886.1962520827674
 30
0.0
 40
4.99969482421875
  0
HATCH
  5
17B
100
AcDbEntity
  8
0
370
              -2
390
0
  6
Continuous
 62
               0
100
AcDbHatch
 10
0.0
 20
0.0
 30
0.0
210
0.0
220
0.0
230
1.0
  2
SOLID
 70
               1
 71
               1
 91
        1
 92
        1
 93
        1
 72
               2
 10
2687.9659090036944
 20
2886.1962520827674
 40
4.99969482421875
 50
0.0
 51
360.0
 73
               0
 97
        1
330
17A
 75
               0
 76
               1
 98
        1
 10
0.0
 20
0.0
  0
MTEXT
  5
17C
100
AcDbEntity
  8
0
390
0
 62
               0
100
AcDbMText
 10
2529.1766733391109
 20
2920.0738692702676
 30
0.0
 40
24.432617187500004
 41
0.0
 71
               1
 72
               1
  1
270
  7
ＭＳ ゴシック
 73
               1
 44
0.7828267384257843
  0
POINT
  5
17D
100
AcDbEntity
  8
Defpoints
370
               0
390
0
 62
               0
100
AcDbPoint
 10
2687.9659090036944
 20
3128.0
 30
0.0
  0
POINT
  5
17E
100
AcDbEntity
  8
Defpoints
370
               0
390
0
 62
               0
100
AcDbPoint
 10
2418.012441038878
 20
2985.1993991587242
 30
0.0
  0
POINT
  5
17F
100
AcDbEntity
  8
Defpoints
370
               0
390
0
 62
               0
100
AcDbPoint
 10
2418.012441038878
 20
2886.1962520827674
 30
0.0
  0
ENDBLK
  5
180
100
AcDbEntity
  8
ADF70-1210
390
0
100
AcDbBlockEnd
  0
ENDSEC
  0
SECTION
  2
ENTITIES
  0
MTEXT
  5
181
100
AcDbEntity
  8
template
390
0
 62
               7
100
AcDbMText
 10
1687.6313094072339
 20
2468.4645848441082
 30
0.0
 40
16.288411458333332
 41
0.0
 71
               1
 72
               1
  1
品名
  7
ＭＳ ゴシック
 73
               1
 44
0.7828267384257843
  0
MTEXT
  5
182
100
AcDbEntity
  8
template
390
0
 62
               7
100
AcDbMText
 10
1687.6313094072339
 20
2383.4645848441082
 30
0.0
 40
16.288411458333332
 41
0.0
 71
               1
 72
               1
  1
仕様
  7
ＭＳ ゴシック
 73
               1
 44
0.7828267384257843
  0
LINE
  5
183
100
AcDbEntity
  8
template
370
               5
390
0
  6
Continuous
 62
               7
100
AcDbLine
 10
3630.6313094067518
 20
2391.8795067191081
 30
0.0
 11
1680.6313094067518
 21
2391.8795067191081
 31
0.0
  0
LWPOLYLINE
  5
184
100
AcDbEntity
  8
template
370
               5
390
0
  6
Continuous
 62
               7
100
AcDbPolyline
 90
        5
 70
             128
 10
3630.6313094072343
 20
5021.8795067191077
 10
1680.6313094072339
 20
5021.8795067191077
 10
1680.6313094072339
 20
2221.8795067191081
 10
3630.6313094072343
 20
2221.8795067191081
 10
3630.6313094072343
 20
5021.8795067191077
  0
LINE
  5
185
100
AcDbEntity
  8
template
370
               5
390
0
  6
Continuous
 62
               7
100
AcDbLine
 10
3630.6313094067518
 20
2476.8795067191081
 30
0.0
 11
1680.6313094067518
 21
2476.8795067191081
 31
0.0
  0
LINE
  5
186
100
AcDbEntity
  8
template
370
               5
390
0
  6
Continuous
 62
               7
100
AcDbLine
 10
3630.6313094072343
 20
2306.8795067191081
 30
0.0
 11
2877.6313094072339
 21
2306.8795067191081
 31
0.0
  0
MTEXT
  5
187
100
AcDbEntity
  8
template
390
0
 62
               7
100
AcDbMText
 10
1680.6313094074371
 20
2210.0256846622515
 30
0.0
 40
21.717881944444446
 41
0.0
 71
               1
 72
               1
  1
100701HS
  7
ＭＳ ゴシック
 73
               1
 44
0.7828267384257843
  0
MTEXT
  5
188
100
AcDbEntity
  8
template
390
0
 62
               7
100
AcDbMText
 10
2907.5027156594938
 20
2276.9691122458007
 30
0.0
 40
24.432617187500004
 41
0.0
 71
               1
 72
               1
  1
大洋金物株式会社 ティーフォルム事業部
  7
ＭＳ ゴシック
 73
               1
 44
0.7828267384257843
  0
INSERT
  5
189
100
AcDbEntity
  8
template
390
0
 62
               7
100
AcDbBlockReference
  2
グループ
 10
2660.4817045266859
 20
3613.3569686384053
 30
0.0
  0
MTEXT
  5
18A
100
AcDbEntity
  8
template
390
0
 62
               7
100
AcDbMText
 10
3439.6313094074931
 20
2354.8821239066083
 30
0.0
 40
24.432617187500004
 41
0.0
 71
               1
 72
               1
  1
1:10
  7
ＭＳ ゴシック
 73
               1
 44
0.7828267384257843
  0
MTEXT
  5
18B
100
AcDbEntity
  8
template
390
0
 62
               7
100
AcDbMText
 10
3386.6313094074931
 20
2383.4645848441082
 30
0.0
 40
16.288411458333332
 41
0.0
 71
               1
 72
               1
  1
縮尺
  7
ＭＳ ゴシック
 73
               1
 44
0.7828267384257843
  0
LINE
  5
18C
100
AcDbEntity
  8
template
370
               5
390
0
  6
Continuous
 62
               7
100
AcDbLine
 10
3379.6313094074931
 20
2306.8795067191081
 30
0.0
 11
3379.6313094074931
 21
2391.8795067191081
 31
0.0
  0
MTEXT
  5
18D
100
AcDbEntity
  8
template
390
0
 62
               7
100
AcDbMText
 10
3135.6313094074926
 20
2383.4645848441082
 30
0.0
 40
16.288411458333332
 41
0.0
 71
               1
 72
               1
  1
容量
  7
ＭＳ ゴシック
 73
               1
 44
0.7828267384257843
  0
LINE
  5
18E
100
AcDbEntity
  8
template
370
               5
390
0
  6
Continuous
 62
               7
100
AcDbLine
 10
3128.6313094074926
 20
2306.8795067191081
 30
0.0
 11
3128.6313094074926
 21
2391.8795067191081
 31
0.0
  0
MTEXT
  5
18F
100
AcDbEntity
  8
template
390
0
 62
               7
100
AcDbMText
 10
2884.6313094074926
 20
2468.4645848441082
 30
0.0
 40
16.288411458333332
 41
0.0
 71
               1
 72
               1
  1
品番
  7
ＭＳ ゴシック
 73
               1
 44
0.7828267384257843
  0
MTEXT
  5
190
100
AcDbEntity
  8
template
390
0
 62
               7
100
AcDbMText
 10
2884.6313094074926
 20
2383.4645848441082
 30
0.0
 40
16.288411458333332
 41
0.0
 71
               1
 72
               1
  1
重量
  7
ＭＳ ゴシック
 73
               1
 44
0.7828267384257843
  0
MTEXT
  5
191
100
AcDbEntity
  8
template
390
0
 62
               7
100
AcDbMText
 10
2937.6313094074926
 20
2439.8821239066083
 30
0.0
 40
24.432617187500004
 41
0.0
 71
               1
 72
               1
  1
ADF70-1210
  7
ＭＳ ゴシック
 73
               1
 44
0.7828267384257843
  0
LINE
  5
192
100
AcDbEntity
  8
template
370
               5
390
0
  6
Continuous
 62
               7
100
AcDbLine
 10
2877.6313094074926
 20
2221.8795067191081
 30
0.0
 11
2877.6313094074926
 21
2476.8795067191081
 31
0.0
  0
MTEXT
  5
193
100
AcDbEntity
  8
template
390
0
 62
               7
100
AcDbMText
 10
1740.6313094072339
 20
2439.8821239066083
 30
0.0
 40
24.432617187500004
 41
0.0
 71
               1
 72
               1
  1
洗面器 -CATALANO,{\H0.902x;\lSfera}-
  7
ＭＳ ゴシック
 73
               1
 44
0.7828267384257843
  0
MTEXT
  5
194
100
AcDbEntity
  8
template
390
0
 62
               7
100
AcDbMText
 10
1740.6313094072339
 20
2354.8821239066083
 30
0.0
 40
24.432617187500004
 41
0.0
 71
               1
 72
               1
  1
壁掛け/オーバーフロー付き/壁取付ボルト付属/\P陶器/ホワイト
  7
ＭＳ ゴシック
 73
               1
 44
1.3047112307096407
  0
MTEXT
  5
195
100
AcDbEntity
  8
template
390
0
 62
               7
100
AcDbMText
 10
2938.0
 20
2355.1276171874997
 30
0.0
 40
24.432617187500004
 41
0.0
 71
               1
 72
               1
  1
22kg
  7
ＭＳ ゴシック
 73
               1
 44
0.7828267384257843
  0
MTEXT
  5
196
100
AcDbEntity
  8
template
390
0
 62
               7
100
AcDbMText
 10
3189.9199958706577
 20
2355.1276171874997
 30
0.0
 40
24.432617187500004
 41
0.0
 71
               1
 72
               1
  1
6L
  7
ＭＳ ゴシック
 73
               1
 44
0.7828267384257843
  0
CIRCLE
  5
197
100
AcDbEntity
  8
info
370
               5
390
0
  6
STYLE_12
 62
               7
100
AcDbCircle
 10
1914.6141287779565
 20
3731.110437359856
 30
0.0
 40
17.5
  0
MTEXT
  5
198
100
AcDbEntity
  8
info
390
0
 62
               7
100
AcDbMText
 10
1936.6141287779565
 20
3746.7635150209335
 30
0.0
 40
24.432617187500004
 41
885.86064049338654
 71
               1
 72
               1
  1
＝φ30もしくはφ35の水栓取付用穴あけ加工を承ります。\P  必要な場合、ご注文の際にご指示ください。
  7
ＭＳ ゴシック
 73
               1
 44
1.0437689845677123
  0
DIMENSION
  5
199
100
AcDbEntity
  8
info
370
               5
390
0
  6
Continuous
 62
               7
100
AcDbDimension
  2
*D3
 10
2787.9659090036944
 20
3170.1962520827674
 30
0.0
 11
2787.9659090036944
 21
3145.1962520827674
 31
0.0
 71
               5
 72
               1
 41
1.0
 42
0.0
  3
tform線あり
100
AcDbAlignedDimension
 13
2687.9659090036944
 23
3120.1962520827674
 33
0.0
 14
2687.9659090036944
 24
3170.1962520827674
 34
0.0
 50
90.0
100
AcDbRotatedDimension
1001
ACAD
1000
DSTYLE
1002
{
1070
             279
1070
               2
1070
             340
1005
3A
1070
             147
1040
5.0
1002
}
  0
DIMENSION
  5
19A
100
AcDbEntity
  8
info
370
               5
390
0
  6
Continuous
 62
               7
100
AcDbDimension
  2
*D4
 10
2911.8570040915411
 20
3170.1962520827674
 30
0.0
 11
2911.8570040915411
 21
3075.198427823635
 31
0.0
 71
               5
 72
               1
 41
1.0
 42
0.0
  3
tform線あり
100
AcDbAlignedDimension
 13
3088.9913181571737
 23
2980.2006035645027
 33
0.0
 14
3016.6456714284641
 24
3170.1962520827674
 34
0.0
 50
90.0
100
AcDbRotatedDimension
1001
ACAD
1000
DSTYLE
1002
{
1070
             279
1070
               2
1070
             340
1005
3A
1070
             147
1040
5.0
1002
}
  0
DIMENSION
  5
19B
100
AcDbEntity
  8
info
370
               5
390
0
  6
Continuous
 62
               7
100
AcDbDimension
  2
*D5
 10
2277.9659090036944
 20
3270.1962520827674
 30
0.0
 11
2417.9659090036944
 21
3270.1962520827674
 31
0.0
 71
               5
 72
               1
 41
1.0
 42
0.0
  3
tform線あり
100
AcDbAlignedDimension
 13
2557.9659090036944
 23
3150.1962520827674
 33
0.0
 14
2277.9659090036944
 24
3150.1962520827674
 34
0.0
100
AcDbRotatedDimension
1001
ACAD
1000
DSTYLE
1002
{
1070
             279
1070
               2
1070
             340
1005
3A
1070
             147
1040
5.0
1002
}
  0
DIMENSION
  5
19C
100
AcDbEntity
  8
info
370
               5
390
0
  6
Continuous
 62
               7
100
AcDbDimension
  2
*D6
 10
3186.9301570155571
 20
3170.1962520827674
 30
0.0
 11
3181.9301570155571
 21
3176.3838615675413
 31
0.0
 70
             128
 71
               5
 72
               1
 41
1.0
 42
0.0
  3
tform線あり
100
AcDbAlignedDimension
 13
3232.97688052698
 23
3030.1962520827674
 33
0.0
 14
3245.2247892820515
 24
3170.1962520827674
 34
0.0
 50
90.0
100
AcDbRotatedDimension
1001
ACAD
1000
DSTYLE
1002
{
1070
             279
1070
               2
1070
             340
1005
3A
1070
               3
1000
<>(深さ)
1070
             174
1070
               0
1070
             147
1040
5.0
1002
}
  0
MTEXT
  5
19D
100
AcDbEntity
  8
info
390
0
 62
               7
100
AcDbMText
 10
1907.6230497213446
 20
3260.5058789787054
 30
0.0
 40
24.432617187500004
 41
0.0
 71
               1
 72
               1
  1
壁取付ボルト穴(2ヶ所)
  7
ＭＳ ゴシック
 73
               1
 44
0.7828267384257843
  0
LINE
  5
19E
100
AcDbEntity
  8
info
370
               5
390
0
  6
Continuous
 62
               7
100
AcDbLine
 10
2279.7820643031077
 20
3130.1962520827674
 30
0.0
 11
2215.4747692713431
 21
3227.1962520827674
 31
0.0
  0
DIMENSION
  5
19F
100
AcDbEntity
  8
info
370
               5
390
0
  6
Continuous
 62
               7
100
AcDbDimension
  2
*D7
 10
1837.9659090036944
 20
3170.1962520827674
 30
0.0
 11
1832.9659090036944
 21
3150.1962520827674
 31
0.0
 70
             128
 71
               5
 72
               1
 41
1.0
 42
0.0
  3
tform線あり
100
AcDbAlignedDimension
 13
2230.7840578192399
 23
3130.1962520827674
 33
0.0
 14
1937.9659090036944
 24
3170.1962520827674
 34
0.0
 50
90.0
100
AcDbRotatedDimension
1001
ACAD
1000
DSTYLE
1002
{
1070
             279
1070
               2
1070
             340
1005
3A
1070
             147
1040
5.0
1002
}
  0
DIMENSION
  5
1A0
100
AcDbEntity
  8
info
370
               5
390
0
  6
Continuous
 62
               7
100
AcDbDimension
  2
*D8
 10
3491.5946457067816
 20
2886.1962520827674
 30
0.0
 11
3344.0946457067821
 21
2886.1962520827674
 31
0.0
 71
               5
 72
               1
 41
1.0
 42
0.0
  3
tform線あり
100
AcDbAlignedDimension
 13
3196.5946457067821
 23
2982.0145703019862
 33
0.0
 14
3491.5946457067816
 24
2985.2344634648821
 34
0.0
100
AcDbRotatedDimension
1001
ACAD
1000
DSTYLE
1002
{
1070
             279
1070
               2
1070
             340
1005
3A
1070
             147
1040
5.0
1002
}
  0
DIMENSION
  5
1A1
100
AcDbEntity
  8
info
370
               5
390
0
  6
Continuous
 62
               7
100
AcDbDimension
  2
*D9
 10
2687.9659090036944
 20
4536.1184499663204
 30
0.0
 11
2312.9659090036948
 21
4536.1184499663204
 31
0.0
 71
               5
 72
               1
 41
1.0
 42
0.0
  3
tform線あり
100
AcDbAlignedDimension
 13
1937.9659090036953
 23
4383.1184499663204
 33
0.0
 14
2687.9659090036944
 24
4383.1184499663204
 34
0.0
100
AcDbRotatedDimension
1001
ACAD
1000
DSTYLE
1002
{
1070
             279
1070
               2
1070
             340
1005
3A
1070
             147
1040
5.0
1002
}
  0
DIMENSION
  5
1A2
100
AcDbEntity
  8
info
370
               5
390
0
  6
Continuous
 62
               7
100
AcDbDimension
  2
*D10
 10
1837.9659090036944
 20
4386.1184499663204
 30
0.0
 11
1832.9659090036944
 21
4221.1184499663204
 31
0.0
 70
             128
 71
               5
 72
               1
 41
1.0
 42
0.0
  1
335
  3
tform線あり
100
AcDbAlignedDimension
 13
1938.7829898433793
 23
4056.1184499663204
 33
0.0
 14
1935.7829898433793
 24
4386.1184499663204
 34
0.0
 50
90.0
100
AcDbRotatedDimension
1001
ACAD
1000
DSTYLE
1002
{
1070
             279
1070
               2
1070
             340
1005
3A
1070
             147
1040
5.0
1002
}
  0
DIMENSION
  5
1A3
100
AcDbEntity
  8
info
370
               5
390
0
  6
Continuous
 62
               7
100
AcDbDimension
  2
*D11
 10
2783.8124410388782
 20
3931.1184499663195
 30
0.0
 11
2783.8124410388782
 21
4091.1184499663195
 31
0.0
 71
               5
 72
               1
 41
1.0
 42
0.0
  3
tform線あり
100
AcDbAlignedDimension
 13
2685.7829898433783
 23
4251.1184499663195
 33
0.0
 14
2552.7969399880294
 24
3931.1184499663195
 34
0.0
 50
90.0
100
AcDbRotatedDimension
1001
ACAD
1000
DSTYLE
1002
{
1070
             279
1070
               2
1070
             340
1005
3A
1070
             147
1040
5.0
1002
}
  0
DIMENSION
  5
1A4
100
AcDbEntity
  8
info
370
               5
390
0
  6
Continuous
 62
               7
100
AcDbDimension
  2
*D12
 10
1751.8950937090103
 20
4386.1184499663195
 30
0.0
 11
1751.8950937090103
 21
4146.1184499663195
 31
0.0
 71
               5
 72
               1
 41
1.0
 42
0.0
  3
tform線あり
100
AcDbAlignedDimension
 13
2370.1193769685106
 23
3906.1184499663195
 33
0.0
 14
1940.9659090036953
 24
4386.1184499663195
 34
0.0
 50
90.0
100
AcDbRotatedDimension
1001
ACAD
1000
DSTYLE
1002
{
1070
             279
1070
               2
1070
             340
1005
3A
1070
             147
1040
5.0
1002
}
  0
DIMENSION
  5
1A5
100
AcDbEntity
  8
info
370
               5
390
0
  6
Continuous
 62
               7
100
AcDbDimension
  2
*D13
 10
2617.9600360345012
 20
3818.0
 30
0.0
 11
2417.9629725190971
 21
3823.0
 31
0.0
 70
             128
 71
               5
 72
               1
 41
1.0
 42
0.0
  3
tform線あり
100
AcDbAlignedDimension
 13
2217.9659090036935
 23
3999.1354038474269
 33
0.0
 14
2617.9600360345012
 24
4000.5169538811065
 34
0.0
100
AcDbRotatedDimension
1001
ACAD
1000
DSTYLE
1002
{
1070
             279
1070
               2
1070
             340
1005
3A
1070
             147
1040
5.0
1002
}
  0
DIMENSION
  5
1A6
100
AcDbEntity
  8
info
370
               5
390
0
  6
Continuous
 62
               7
100
AcDbDimension
  2
*D14
 10
2417.9659090036944
 20
4436.1184499663204
 30
0.0
 11
2335.4659090036944
 21
4436.1184499663204
 31
0.0
 71
               5
 72
               1
 41
1.0
 42
0.0
  3
tform線あり
100
AcDbAlignedDimension
 13
2252.9659090036944
 23
4298.6184499663204
 33
0.0
 14
2417.9659090036944
 24
4338.6184499663204
 34
0.0
100
AcDbRotatedDimension
1001
ACAD
1000
DSTYLE
1002
{
1070
             279
1070
               2
1070
             340
1005
3A
1070
             147
1040
5.0
1002
}
  0
DIMENSION
  5
1A7
100
AcDbEntity
  8
info
370
               5
390
0
  6
Continuous
 62
               7
100
AcDbDimension
  2
*D15
 10
2417.9659090036944
 20
4436.1184499663204
 30
0.0
 11
2500.4659090036944
 21
4436.1184499663204
 31
0.0
 71
               5
 72
               1
 41
1.0
 42
0.0
  3
tform線あり
100
AcDbAlignedDimension
 13
2582.9659090036944
 23
4298.6184499663204
 33
0.0
 14
2417.9659090036944
 24
4338.6184499663204
 34
0.0
100
AcDbRotatedDimension
1001
ACAD
1000
DSTYLE
1002
{
1070
             279
1070
               2
1070
             340
1005
3A
1070
             147
1040
5.0
1002
}
  0
DIMENSION
  5
1A8
100
AcDbEntity
  8
info
370
               5
390
0
  6
Continuous
 62
               7
100
AcDbDimension
  2
*D16
 10
2417.9659090036944
 20
4486.1184499663204
 30
0.0
 11
2552.9659090036939
 21
4491.1184499663204
 31
0.0
 70
             128
 71
               5
 72
               1
 41
1.0
 42
0.0
  3
tform線あり
100
AcDbAlignedDimension
 13
2687.9659090036935
 23
4383.1184499663195
 33
0.0
 14
2417.9659090036944
 24
4338.6184499663204
 34
0.0
100
AcDbRotatedDimension
1001
ACAD
1000
DSTYLE
1002
{
1070
             279
1070
               2
1070
             340
1005
3A
1070
             147
1040
5.0
1002
}
  0
DIMENSION
  5
1A9
100
AcDbEntity
  8
info
370
               5
390
0
  6
Continuous
 62
               7
100
AcDbDimension
  2
*D17
 10
2176.1193769685106
 20
4281.1184499663195
 30
0.0
 11
2176.1193769685106
 21
4333.6184499663195
 31
0.0
 71
               5
 72
               1
 41
1.0
 42
0.0
  3
tform線あり
100
AcDbAlignedDimension
 13
2235.4659090036944
 23
4386.1184499663195
 33
0.0
 14
2235.4659090036944
 24
4281.1184499663195
 34
0.0
 50
90.0
100
AcDbRotatedDimension
1001
ACAD
1000
DSTYLE
1002
{
1070
             279
1070
               2
1070
             340
1005
3A
1070
             147
1040
5.0
1002
}
  0
DIMENSION
  5
1AA
100
AcDbEntity
  8
info
370
               5
390
0
  6
Continuous
 62
               7
100
AcDbDimension
  2
*D18
 10
2348.1193769685106
 20
4321.1184499663195
 30
0.0
 11
2348.1193769685106
 21
4353.6184499663195
 31
0.0
 71
               5
 72
               1
 41
1.0
 42
0.0
  3
tform線あり
100
AcDbAlignedDimension
 13
2402.9659090036944
 23
4386.1184499663195
 33
0.0
 14
2402.9659090036944
 24
4321.1184499663195
 34
0.0
 50
90.0
100
AcDbRotatedDimension
1001
ACAD
1000
DSTYLE
1002
{
1070
             279
1070
               2
1070
             340
1005
3A
1070
             147
1040
5.0
1002
}
  0
DIMENSION
  5
1AB
100
AcDbEntity
  8
info
370
               5
390
0
  6
Continuous
 62
               7
100
AcDbDimension
  2
*D19
 10
1937.9659090036944
 20
3818.0
 30
0.0
 11
2077.9659090036939
 21
3818.0
 31
0.0
 71
               5
 72
               1
 41
1.0
 42
0.0
  3
tform線あり
100
AcDbAlignedDimension
 13
2217.9659090036935
 23
3974.1354038474269
 33
0.0
 14
1937.9659090036944
 24
4062.1184499663204
 34
0.0
100
AcDbRotatedDimension
1001
ACAD
1000
DSTYLE
1002
{
1070
             279
1070
               2
1070
             340
1005
3A
1070
             147
1040
5.0
1002
}
  0
DIMENSION
  5
1AC
100
AcDbEntity
  8
info
370
               5
390
0
  6
Continuous
 62
               7
100
AcDbDimension
  2
*D20
 10
2687.9659090036944
 20
3270.1962520827674
 30
0.0
 11
2622.9659090036944
 21
3270.1962520827674
 31
0.0
 71
               5
 72
               1
 41
1.0
 42
0.0
  3
tform線あり
100
AcDbAlignedDimension
 13
2557.9659090036944
 23
3150.1962520827674
 33
0.0
 14
2687.9659090036944
 24
3170.1962520827674
 34
0.0
100
AcDbRotatedDimension
1001
ACAD
1000
DSTYLE
1002
{
1070
             279
1070
               2
1070
             340
1005
3A
1070
             147
1040
5.0
1002
}
  0
LINE
  5
1AD
100
AcDbEntity
  8
ADF70-1210
370
              15
390
0
  6
STYLE_12
 62
               7
100
AcDbLine
 10
3161.7463597764745
 20
3030.1962520827674
 30
0.0
 11
3236.4429316370879
 21
3030.1962520827674
 31
0.0
  0
LINE
  5
1AE
100
AcDbEntity
  8
ADF70-1210
370
              15
390
0
  6
Continuous
 62
               7
100
AcDbLine
 10
3491.5946457067812
 20
3165.1962520827674
 30
0.0
 11
3491.5946457067816
 21
2985.2344634648821
 31
0.0
  0
LINE
  5
1AF
100
AcDbEntity
  8
ADF70-1210
370
              15
390
0
  6
Continuous
 62
               7
100
AcDbLine
 10
3016.6456714284641
 20
3170.1962520827674
 30
0.0
 11
3486.5946457067816
 21
3170.1962520827674
 31
0.0
  0
LINE
  5
1B0
100
AcDbEntity
  8
ADF70-1210
370
              15
390
0
  6
STYLE_12
 62
               7
100
AcDbLine
 10
3221.5946457067821
 20
2985.1993991587242
 30
0.0
 11
3176.5946457067821
 21
2985.1993991587242
 31
0.0
  0
LINE
  5
1B1
100
AcDbEntity
  8
ADF70-1210
370
              15
390
0
  6
STYLE_12
 62
               7
100
AcDbLine
 10
3221.5946457067821
 20
3020.0145703019862
 30
0.0
 11
3176.5946457067821
 21
3020.0145703019862
 31
0.0
  0
LINE
  5
1B2
100
AcDbEntity
  8
ADF70-1210
370
              15
390
0
  6
STYLE_12
 62
               7
100
AcDbLine
 10
3221.5946457067812
 20
3020.0145703019862
 30
0.0
 11
3221.5946457067821
 21
2985.1993991587242
 31
0.0
  0
LINE
  5
1B3
100
AcDbEntity
  8
ADF70-1210
370
              15
390
0
  6
STYLE_12
 62
               7
100
AcDbLine
 10
3237.7240663449033
 20
3031.074744453841
 30
0.0
 11
3221.5946457067812
 21
3020.0145703019862
 31
0.0
  0
ARC
  5
1B4
100
AcDbEntity
  8
ADF70-1210
370
              15
390
0
  6
STYLE_12
 62
               7
100
AcDbCircle
 10
3243.3793499004187
 20
3022.8274559353804
 30
0.0
 40
10.000000000000133
100
AcDbArc
 50
101.20060204140826
 51
124.43898930880447
  0
ARC
  5
1B5
100
AcDbEntity
  8
ADF70-1210
370
              15
390
0
  6
Continuous
 62
               7
100
AcDbCircle
 10
3486.5946457067816
 20
3165.1962520827674
 30
0.0
 40
5.0
100
AcDbArc
 50
0.0
 51
90.0
  0
ARC
  5
1B6
100
AcDbEntity
  8
ADF70-1210
370
              15
390
0
  6
Continuous
 62
               7
100
AcDbCircle
 10
3486.5946457067816
 20
2985.2344634648821
 30
0.0
 40
5.0
100
AcDbArc
 50
270.0
 51
0.0
  0
ARC
  5
1B7
100
AcDbEntity
  8
ADF70-1210
370
              15
390
0
  6
STYLE_12
 62
               7
100
AcDbCircle
 10
3366.2582234389556
 20
3165.1962520827674
 30
0.0
 40
5.0000000000000568
100
AcDbArc
 50
90.0
 51
174.76399229938025
  0
LINE
  5
1B8
100
AcDbEntity
  8
ADF70-1210
370
              15
390
0
  6
Continuous
 62
               7
100
AcDbLine
 10
3439.0946457067812
 20
3170.1962520827674
 30
0.0
 11
3439.0946457067812
 21
3162.1962520827674
 31
0.0
  0
LINE
  5
1B9
100
AcDbEntity
  8
ADF70-1210
370
              15
390
0
  6
Continuous
 62
               7
100
AcDbLine
 10
3404.0946457067812
 20
3170.1962520827674
 30
0.0
 11
3404.0946457067812
 21
3162.1962520827674
 31
0.0
  0
ARC
  5
1BA
100
AcDbEntity
  8
ADF70-1210
370
              15
390
0
  6
STYLE_12
 62
               7
100
AcDbCircle
 10
3222.6686182838835
 20
3170.0410351583359
 30
0.0
 40
138.67992266925907
100
AcDbArc
 50
351.24719879993347
 51
358.18658686734335
  0
ARC
  5
1BB
100
AcDbEntity
  8
ADF70-1210
370
              15
390
0
  6
STYLE_12
 62
               7
100
AcDbCircle
 10
3222.6686182839626
 20
3170.0410351583196
 30
0.0
 40
138.67992266917858
100
AcDbArc
 50
339.26601662022199
 51
351.24719879993324
  0
ARC
  5
1BC
100
AcDbEntity
  8
ADF70-1210
370
              15
390
0
  6
STYLE_12
 62
               7
100
AcDbCircle
 10
3222.6686182838835
 20
3170.0410351583359
 30
0.0
 40
138.67992266925918
100
AcDbArc
 50
277.77800747342894
 51
339.26601662022188
  0
POLYLINE
  5
1BD
100
AcDbEntity
  8
ADF70-1210
370
              15
390
0
  6
Continuous
 62
               7
100
AcDb2dPolyline
 66
               1
 10
0.0
 20
0.0
 30
0.0
 75
               5
  0
VERTEX
  5
1BE
100
AcDbEntity
  8
ADF70-1210
370
              15
390
0
  6
Continuous
 62
               7
100
AcDbVertex
100
AcDb2dVertex
 10
3088.9358474428536
 20
2980.2006035645027
 30
0.0
  0
VERTEX
  5
1BF
100
AcDbEntity
  8
ADF70-1210
370
              15
390
0
  6
Continuous
 62
               7
100
AcDbVertex
100
AcDb2dVertex
 10
3088.9913181571737
 20
2980.2006035645027
 30
0.0
  0
VERTEX
  5
1C0
100
AcDbEntity
  8
ADF70-1210
370
              15
390
0
  6
Continuous
 62
               7
100
AcDbVertex
100
AcDb2dVertex
 10
3094.3913181571738
 20
2980.2006035645027
 30
0.0
  0
SEQEND
  5
1C1
100
AcDbEntity
  8
ADF70-1210
370
              15
390
0
  6
Continuous
 62
               7
  0
ARC
  5
1C2
100
AcDbEntity
  8
ADF70-1210
370
              15
390
0
  6
Continuous
 62
               7
100
AcDbCircle
 10
3088.9358474428536
 20
2984.9270740342686
 30
0.0
 40
4.7264704697656574
100
AcDbArc
 50
223.21627884613261
 51
270.00000000000074
  0
LINE
  5
1C3
100
AcDbEntity
  8
ADF70-1210
370
              15
390
0
  6
Continuous
 62
               7
100
AcDbLine
 10
3085.4913181571737
 20
2981.7006035645027
 30
0.0
 11
3085.4913181571737
 21
2981.6906035645034
 31
0.0
  0
LINE
  5
1C4
100
AcDbEntity
  8
ADF70-1210
370
              15
390
0
  6
Continuous
 62
               7
100
AcDbLine
 10
3073.382851954123
 20
2995.5861264338541
 30
0.0
 11
3085.4913181571737
 21
2981.7006035645027
 31
0.0
  0
ARC
  5
1C5
100
AcDbEntity
  8
ADF70-1210
370
              15
390
0
  6
Continuous
 62
               7
100
AcDbCircle
 10
3261.8049370286008
 20
3159.8941233670121
 30
0.0
 40
250.00000000000082
100
AcDbArc
 50
181.16938280561394
 51
221.08910854490867
  0
LINE
  5
1C6
100
AcDbEntity
  8
ADF70-1210
370
              15
390
0
  6
Continuous
 62
               7
100
AcDbLine
 10
3011.6467127697238
 20
3165.0942112664416
 30
0.0
 11
3011.8570040915411
 21
3154.7920825506862
 31
0.0
  0
ARC
  5
1C7
100
AcDbEntity
  8
ADF70-1210
370
              15
390
0
  6
Continuous
 62
               7
100
AcDbCircle
 10
3016.6456714284641
 20
3165.1962520827683
 30
0.0
 40
4.9999999999991473
100
AcDbArc
 50
90.0
 51
181.16938280561592
  0
ARC
  5
1C8
100
AcDbEntity
  8
ADF70-1210
370
              15
390
0
  6
STYLE_12
 62
               7
100
AcDbCircle
 10
3031.93106797461
 20
3165.1962520827688
 30
0.0
 40
4.999999999999126
100
AcDbArc
 50
5.2360077006305712
 51
90.000000000011724
  0
ARC
  5
1C9
100
AcDbEntity
  8
ADF70-1210
370
              15
390
0
  6
STYLE_12
 62
               7
100
AcDbCircle
 10
3175.5206731296812
 20
3170.0410351583364
 30
0.0
 40
138.67992266926041
100
AcDbArc
 50
181.81341313264525
 51
262.2219925265714
  0
ARC
  5
1CA
100
AcDbEntity
  8
ADF70-1210
370
              15
390
0
  6
STYLE_12
 62
               7
100
AcDbCircle
 10
3154.8099415131433
 20
3022.8274559353795
 30
0.0
 40
10.000000000001595
100
AcDbArc
 50
55.561010691204686
 51
78.799397958572186
  0
LINE
  5
1CB
100
AcDbEntity
  8
ADF70-1210
370
              15
390
0
  6
STYLE_12
 62
               7
100
AcDbLine
 10
3176.5946457067821
 20
3020.0145703019862
 30
0.0
 11
3160.4652250686599
 21
3031.0747444538401
 31
0.0
  0
LINE
  5
1CC
100
AcDbEntity
  8
ADF70-1210
370
              15
390
0
  6
STYLE_12
 62
               7
100
AcDbLine
 10
3176.5946457067821
 20
2985.1993991587242
 30
0.0
 11
3176.5946457067821
 21
3020.0145703019862
 31
0.0
  0
LINE
  5
1CD
100
AcDbEntity
  8
ADF70-1210
370
              15
390
0
  6
Continuous
 62
               7
100
AcDbLine
 10
3486.791318157173
 20
2980.1962520827674
 30
0.0
 11
3088.9913181571737
 21
2980.2006035645027
 31
0.0
  0
LINE
  5
1CE
100
AcDbEntity
  8
ADF70-1210
370
              15
390
0
  6
Continuous
 62
               7
100
AcDbLine
 10
2549.643861319777
 20
2980.2006035645027
 30
0.0
 11
2286.343429333861
 21
2980.2006035645027
 31
0.0
  0
LINE
  5
1CF
100
AcDbEntity
  8
ADF70-1210
370
              15
390
0
  6
Continuous
 62
               7
100
AcDbLine
 10
2553.2230520178232
 20
2980.2006035645027
 30
0.0
 11
2553.1675813035031
 21
2980.2006035645027
 31
0.0
  0
LINE
  5
1D0
100
AcDbEntity
  8
ADF70-1210
370
              15
390
0
  6
Continuous
 62
               7
100
AcDbLine
 10
2556.6675813035031
 20
2981.7006035645027
 30
0.0
 11
2556.6675813035031
 21
2981.6906035645034
 31
0.0
  0
LINE
  5
1D1
100
AcDbEntity
  8
ADF70-1210
370
              15
390
0
  6
Continuous
 62
               7
100
AcDbLine
 10
2286.2879586195409
 20
2980.2006035645027
 30
0.0
 11
2286.343429333861
 21
2980.2006035645027
 31
0.0
  0
ARC
  5
1D2
100
AcDbEntity
  8
ADF70-1210
370
              15
390
0
  6
Continuous
 62
               7
100
AcDbCircle
 10
2286.2879586195409
 20
2984.9270740342686
 30
0.0
 40
4.7264704697657764
100
AcDbArc
 50
223.21627884613318
 51
270.0
  0
LINE
  5
1D3
100
AcDbEntity
  8
ADF70-1210
370
              15
390
0
  6
Continuous
 62
               7
100
AcDbLine
 10
2282.843429333861
 20
2981.7006035645027
 30
0.0
 11
2282.843429333861
 21
2981.6906035645034
 31
0.0
  0
LINE
  5
1D4
100
AcDbEntity
  8
ADF70-1210
370
              15
390
0
  6
Continuous
 62
               7
100
AcDbLine
 10
2270.5787182835365
 20
2995.5861264338537
 30
0.0
 11
2282.843429333861
 21
2981.7006035645027
 31
0.0
  0
ARC
  5
1D5
100
AcDbEntity
  8
ADF70-1210
370
              15
390
0
  6
Continuous
 62
               7
100
AcDbCircle
 10
2448.1745466692064
 20
3159.8941233670112
 30
0.0
 40
250.00000000000011
100
AcDbArc
 50
178.80771319471634
 51
192.40329448789933
  0
ARC
  5
1D6
100
AcDbEntity
  8
ADF70-1210
370
              15
390
0
  6
Continuous
 62
               7
100
AcDbCircle
 10
2443.3893378871198
 20
3174.9266950403248
 30
0.0
 40
249.05129952655682
100
AcDbArc
 50
196.01976972025636
 51
226.06231544270568
  0
LINE
  5
1D7
100
AcDbEntity
  8
ADF70-1210
370
              15
390
0
  6
STYLE_12
 62
               7
100
AcDbLine
 10
2277.9659090036944
 20
3110.1962520827674
 30
0.0
 11
2277.9659090036944
 21
3150.1962520827674
 31
0.0
  0
LINE
  5
1D8
100
AcDbEntity
  8
ADF70-1210
370
              15
390
0
  6
STYLE_12
 62
               7
100
AcDbLine
 10
2297.9659090036944
 20
3130.1962520827674
 30
0.0
 11
2257.9659090036944
 21
3130.1962520827674
 31
0.0
  0
CIRCLE
  5
1D9
100
AcDbEntity
  8
ADF70-1210
370
              15
390
0
  6
STYLE_01
 62
               7
100
AcDbCircle
 10
2277.9659090036944
 20
3130.1962520827674
 30
0.0
 40
10.0
  0
LINE
  5
1DA
100
AcDbEntity
  8
ADF70-1210
370
              15
390
0
  6
STYLE_12
 62
               7
100
AcDbLine
 10
2557.9659090036944
 20
3110.1962520827674
 30
0.0
 11
2557.9659090036944
 21
3150.1962520827674
 31
0.0
  0
LINE
  5
1DB
100
AcDbEntity
  8
ADF70-1210
370
              15
390
0
  6
STYLE_12
 62
               7
100
AcDbLine
 10
2577.9659090036944
 20
3130.1962520827674
 30
0.0
 11
2537.9659090036944
 21
3130.1962520827674
 31
0.0
  0
CIRCLE
  5
1DC
100
AcDbEntity
  8
ADF70-1210
370
              15
390
0
  6
STYLE_01
 62
               7
100
AcDbCircle
 10
2557.9659090036944
 20
3130.1962520827674
 30
0.0
 40
10.0
  0
LINE
  5
1DD
100
AcDbEntity
  8
ADF70-1210
370
              15
390
0
  6
Continuous
 62
               7
100
AcDbLine
 10
3156.5946457067812
 20
3170.1962520827674
 30
0.0
 11
3156.5946457067812
 21
3120.1962520827674
 31
0.0
  0
LINE
  5
1DE
100
AcDbEntity
  8
ADF70-1210
370
              15
390
0
  6
Continuous
 62
               7
100
AcDbLine
 10
3156.5946457067812
 20
3120.1962520827674
 30
0.0
 11
3491.5946457067812
 21
3120.1962520827674
 31
0.0
  0
CIRCLE
  5
1DF
100
AcDbEntity
  8
ADF70-1210
370
              15
390
0
  6
STYLE_01
 62
               7
100
AcDbCircle
 10
2582.9659090036944
 20
4281.1184499663204
 30
0.0
 40
17.499999999999904
  0
CIRCLE
  5
1E0
100
AcDbEntity
  8
ADF70-1210
370
              15
390
0
  6
STYLE_01
 62
               7
100
AcDbCircle
 10
2252.9659090036944
 20
4281.1184499663204
 30
0.0
 40
17.499999999999915
  0
CIRCLE
  5
1E1
100
AcDbEntity
  8
ADF70-1210
370
              15
390
0
  6
Continuous
 62
               7
100
AcDbCircle
 10
2417.9659090036944
 20
4091.1184499663195
 30
0.0
 40
22.5
  0
CIRCLE
  5
1E2
100
AcDbEntity
  8
ADF70-1210
370
              15
390
0
  6
Continuous
 62
               7
100
AcDbCircle
 10
2417.9659090036944
 20
4091.1184499663195
 30
0.0
 40
39.0
  0
LINE
  5
1E3
100
AcDbEntity
  8
ADF70-1210
370
              15
390
0
  6
Continuous
 62
               7
100
AcDbLine
 10
2687.9659090036944
 20
4062.1184499663204
 30
0.0
 11
2687.9659090036935
 21
4383.1184499663195
 31
0.0
  0
LINE
  5
1E4
100
AcDbEntity
  8
ADF70-1210
370
              15
390
0
  6
Continuous
 62
               7
100
AcDbLine
 10
2684.9659090036935
 20
4386.1184499663195
 30
0.0
 11
1940.9659090036944
 21
4386.1184499663204
 31
0.0
  0
LINE
  5
1E5
100
AcDbEntity
  8
ADF70-1210
370
              15
390
0
  6
Continuous
 62
               7
100
AcDbLine
 10
1937.9659090036944
 20
4383.1184499663204
 30
0.0
 11
1937.9659090036944
 21
4062.1184499663204
 31
0.0
  0
LINE
  5
1E6
100
AcDbEntity
  8
ADF70-1210
370
              15
390
0
  6
Continuous
 62
               7
100
AcDbLine
 10
1943.9659090036944
 20
4056.1184499663204
 30
0.0
 11
2193.7084289690351
 21
4056.1184499663204
 31
0.0
  0
ARC
  5
1E7
100
AcDbEntity
  8
ADF70-1210
370
              15
390
0
  6
Continuous
 62
               7
100
AcDbCircle
 10
2382.2555053186829
 20
4093.61844996632
 30
0.0
 40
187.49999999999966
100
AcDbArc
 50
192.99148238268572
 51
270.0
  0
LINE
  5
1E8
100
AcDbEntity
  8
ADF70-1210
370
              15
390
0
  6
Continuous
 62
               7
100
AcDbLine
 10
2382.2555053186829
 20
3906.1184499663204
 30
0.0
 11
2457.2555053186811
 21
3906.1184499663204
 31
0.0
  0
SPLINE
  5
1E9
100
AcDbEntity
  8
ADF70-1210
370
              15
390
0
  6
Continuous
 62
               7
100
AcDbSpline
210
0.0
220
0.0
230
1.0
 70
              13
 71
               2
 72
              12
 73
               9
 74
               0
 42
0.000001
 43
0.000001
 40
0.0
 40
0.0
 40
0.0
 40
0.25
 40
0.25
 40
0.5
 40
0.5
 40
0.75
 40
0.75
 40
1.0
 40
1.0
 40
1.0
 10
2430.4659090036944
 20
4234.1184499663195
 30
0.0
 41
1.0
 10
2430.4659090036948
 20
4229.3449483865743
 30
0.0
 41
0.7071067811865476
 10
2417.9659090036944
 20
4229.3449483865752
 30
0.0
 41
1.0
 10
2405.4659090036948
 20
4229.3449483865743
 30
0.0
 41
0.7071067811865476
 10
2405.4659090036944
 20
4234.1184499663195
 30
0.0
 41
1.0
 10
2405.4659090036948
 20
4238.8919515460648
 30
0.0
 41
0.7071067811865476
 10
2417.9659090036944
 20
4238.8919515460657
 30
0.0
 41
1.0
 10
2430.4659090036948
 20
4238.8919515460648
 30
0.0
 41
0.7071067811865476
 10
2430.4659090036944
 20
4234.1184499663195
 30
0.0
 41
1.0
  0
ARC
  5
1EA
100
AcDbEntity
  8
ADF70-1210
370
              15
390
0
  6
Continuous
 62
               7
100
AcDbCircle
 10
2684.9659090036935
 20
4383.1184499663195
 30
0.0
 40
3.0000000000000036
100
AcDbArc
 50
0.0
 51
90.0
  0
ARC
  5
1EB
100
AcDbEntity
  8
ADF70-1210
370
              15
390
0
  6
Continuous
 62
               7
100
AcDbCircle
 10
1940.9659090036944
 20
4383.1184499663204
 30
0.0
 40
3.0
100
AcDbArc
 50
90.0
 51
180.0
  0
ARC
  5
1EC
100
AcDbEntity
  8
ADF70-1210
370
              15
390
0
  6
Continuous
 62
               7
100
AcDbCircle
 10
1943.9659090036944
 20
4062.1184499663204
 30
0.0
 40
6.0
100
AcDbArc
 50
180.0
 51
270.0
  0
ARC
  5
1ED
100
AcDbEntity
  8
ADF70-1210
370
              15
390
0
  6
Continuous
 62
               7
100
AcDbCircle
 10
2193.7084289690351
 20
4050.1184499663204
 30
0.0
 40
6.000000000000056
100
AcDbArc
 50
12.991482382685367
 51
89.999999999999986
  0
ARC
  5
1EE
100
AcDbEntity
  8
ADF70-1210
370
              15
390
0
  6
Continuous
 62
               7
100
AcDbCircle
 10
2457.2555053186811
 20
4093.61844996632
 30
0.0
 40
187.49999999999977
100
AcDbArc
 50
270.0
 51
347.00851761731428
  0
ARC
  5
1EF
100
AcDbEntity
  8
ADF70-1210
370
              15
390
0
  6
Continuous
 62
               7
100
AcDbCircle
 10
2645.8025816683289
 20
4050.1184499663204
 30
0.0
 40
6.0
100
AcDbArc
 50
90.0
 51
167.00851761731465
  0
LINE
  5
1F0
100
AcDbEntity
  8
ADF70-1210
370
              15
390
0
  6
Continuous
 62
               7
100
AcDbLine
 10
2645.8025816683289
 20
4056.1184499663204
 30
0.0
 11
2681.9659090036944
 21
4056.1184499663204
 31
0.0
  0
ARC
  5
1F1
100
AcDbEntity
  8
ADF70-1210
370
              15
390
0
  6
Continuous
 62
               7
100
AcDbCircle
 10
2681.9659090036944
 20
4062.1184499663204
 30
0.0
 40
6.0
100
AcDbArc
 50
270.0
 51
0.0
  0
CIRCLE
  5
1F2
100
AcDbEntity
  8
ADF70-1210
370
              15
390
0
  6
STYLE_01
 62
               7
100
AcDbCircle
 10
2417.9659090036944
 20
4321.1184499663204
 30
0.0
 40
17.499999999999915
  0
LINE
  5
1F3
100
AcDbEntity
  8
ADF70-1210
370
              15
390
0
  6
Continuous
 62
               7
100
AcDbLine
 10
1937.9659090036944
 20
3170.1962520827674
 30
0.0
 11
1937.9659090036944
 21
3120.1962520827674
 31
0.0
  0
LINE
  5
1F4
100
AcDbEntity
  8
ADF70-1210
370
              15
390
0
  6
Continuous
 62
               7
100
AcDbLine
 10
1937.9659090036944
 20
3170.1962520827674
 30
0.0
 11
2687.9659090036944
 21
3170.1962520827674
 31
0.0
  0
LINE
  5
1F5
100
AcDbEntity
  8
ADF70-1210
370
              15
390
0
  6
Continuous
 62
               7
100
AcDbLine
 10
1937.9659090036944
 20
3120.1962520827674
 30
0.0
 11
2201.3465113581833
 21
3120.1962520827674
 31
0.0
  0
LINE
  5
1F6
100
AcDbEntity
  8
ADF70-1210
370
              15
390
0
  6
Continuous
 62
               7
100
AcDbLine
 10
2180.8124410388782
 20
3170.1962520827674
 30
0.0
 11
2249.8124410388782
 21
3170.1962520827674
 31
0.0
  0
LINE
  5
1F7
100
AcDbEntity
  8
ADF70-1210
370
              15
390
0
  6
Continuous
 62
               7
100
AcDbLine
 10
2687.9659090036944
 20
3170.1962520827674
 30
0.0
 11
2687.9659090036944
 21
3120.1962520827674
 31
0.0
  0
LINE
  5
1F8
100
AcDbEntity
  8
ADF70-1210
370
              15
390
0
  6
Continuous
 62
               7
100
AcDbLine
 10
2687.9659090036944
 20
3120.1962520827674
 30
0.0
 11
2634.5853066492059
 21
3120.1962520827674
 31
0.0
  0
ARC
  5
1F9
100
AcDbEntity
  8
ADF70-1210
370
              15
390
0
  6
Continuous
 62
               7
100
AcDbCircle
 10
2203.2319259779888
 20
3165.1962520827678
 30
0.0
 40
4.9999999999999432
100
AcDbArc
 50
90.0
 51
178.7599456488218
  0
LINE
  5
1FA
100
AcDbEntity
  8
ADF70-1210
370
              15
390
0
  6
STYLE_12
 62
               7
100
AcDbLine
 10
2418.012441038878
 20
2985.1993991587242
 30
0.0
 11
2440.5124410388785
 21
2985.1993991587242
 31
0.0
  0
LINE
  5
1FB
100
AcDbEntity
  8
ADF70-1210
370
              15
390
0
  6
STYLE_12
 62
               7
100
AcDbLine
 10
2418.0124410388785
 20
3032.0145703019862
 30
0.0
 11
2458.0124410388789
 21
3032.0145703019862
 31
0.0
  0
LINE
  5
1FC
100
AcDbEntity
  8
ADF70-1210
370
              15
390
0
  6
STYLE_12
 62
               7
100
AcDbLine
 10
2418.012441038878
 20
3020.0145703019862
 30
0.0
 11
2440.5124410388785
 21
3020.0145703019862
 31
0.0
  0
ARC
  5
1FD
100
AcDbEntity
  8
ADF70-1210
370
              15
390
0
  6
STYLE_12
 62
               7
100
AcDbCircle
 10
2619.4672687423454
 20
3165.1962520827683
 30
0.0
 40
5.0000000000004547
100
AcDbArc
 50
90.0
 51
174.76399229935708
  0
ARC
  5
1FE
100
AcDbEntity
  8
ADF70-1210
370
              15
390
0
  6
STYLE_12
 62
               7
100
AcDbCircle
 10
2469.0930857636731
 20
3177.9028026084889
 30
0.0
 40
145.91020681535582
100
AcDbArc
 50
266.40340188321488
 51
355.18391940599514
  0
ARC
  5
1FF
100
AcDbEntity
  8
ADF70-1210
370
              15
390
0
  6
STYLE_12
 62
               7
100
AcDbCircle
 10
2461.9237042169439
 20
3022.827455935379
 30
0.0
 40
10.000000000002267
100
AcDbArc
 50
101.20060204142975
 51
124.43898930879507
  0
LINE
  5
200
100
AcDbEntity
  8
ADF70-1210
370
              15
390
0
  6
STYLE_12
 62
               7
100
AcDbLine
 10
2440.1390000233041
 20
3020.0145703019862
 30
0.0
 11
2456.2684206614267
 21
3031.0747444538401
 31
0.0
  0
LINE
  5
201
100
AcDbEntity
  8
ADF70-1210
370
              15
390
0
  6
STYLE_12
 62
               7
100
AcDbLine
 10
2440.1390000233041
 20
2985.1993991587242
 30
0.0
 11
2440.1390000233041
 21
3020.0145703019862
 31
0.0
  0
LINE
  5
202
100
AcDbEntity
  8
ADF70-1210
370
              15
390
0
  6
STYLE_12
 62
               7
100
AcDbLine
 10
2418.012441038878
 20
2985.1993991587242
 30
0.0
 11
2395.512441038878
 21
2985.1993991587242
 31
0.0
  0
LINE
  5
203
100
AcDbEntity
  8
ADF70-1210
370
              15
390
0
  6
STYLE_12
 62
               7
100
AcDbLine
 10
2418.012441038878
 20
3032.0145703019862
 30
0.0
 11
2378.012441038878
 21
3032.0145703019862
 31
0.0
  0
LINE
  5
204
100
AcDbEntity
  8
ADF70-1210
370
              15
390
0
  6
STYLE_12
 62
               7
100
AcDbLine
 10
2418.012441038878
 20
3020.0145703019862
 30
0.0
 11
2395.512441038878
 21
3020.0145703019862
 31
0.0
  0
ARC
  5
205
100
AcDbEntity
  8
ADF70-1210
370
              15
390
0
  6
STYLE_12
 62
               7
100
AcDbCircle
 10
2216.5576133354111
 20
3165.1962520827683
 30
0.0
 40
5.0000000000005942
100
AcDbArc
 50
5.2360077006427668
 51
90.0
  0
ARC
  5
206
100
AcDbEntity
  8
ADF70-1210
370
              15
390
0
  6
STYLE_12
 62
               7
100
AcDbCircle
 10
2366.9317963140834
 20
3177.9028026084889
 30
0.0
 40
145.91020681535596
100
AcDbArc
 50
184.81608059400486
 51
273.596598116785
  0
ARC
  5
207
100
AcDbEntity
  8
ADF70-1210
370
              15
390
0
  6
STYLE_12
 62
               7
100
AcDbCircle
 10
2374.1011778608126
 20
3022.827455935379
 30
0.0
 40
10.000000000002258
100
AcDbArc
 50
55.56101069120492
 51
78.799397958570268
  0
LINE
  5
208
100
AcDbEntity
  8
ADF70-1210
370
              15
390
0
  6
STYLE_12
 62
               7
100
AcDbLine
 10
2395.8858820544519
 20
3020.0145703019862
 30
0.0
 11
2379.7564614163298
 21
3031.0747444538401
 31
0.0
  0
LINE
  5
209
100
AcDbEntity
  8
ADF70-1210
370
              15
390
0
  6
STYLE_12
 62
               7
100
AcDbLine
 10
2395.8858820544519
 20
2985.1993991587242
 30
0.0
 11
2395.8858820544519
 21
3020.0145703019862
 31
0.0
  0
ARC
  5
20A
100
AcDbEntity
  8
ADF70-1210
370
              15
390
0
  6
Continuous
 62
               7
100
AcDbCircle
 10
2632.6998920294
 20
3165.1962520827678
 30
0.0
 40
4.999999999999976
100
AcDbArc
 50
1.2400543511782058
 51
90.0
  0
LINE
  5
20B
100
AcDbEntity
  8
ADF70-1210
370
              15
390
0
  6
Continuous
 62
               7
100
AcDbLine
 10
2549.6438593878479
 20
2980.2006035645027
 30
0.0
 11
2549.5883886735278
 21
2980.2006035645027
 31
0.0
  0
ARC
  5
20C
100
AcDbEntity
  8
ADF70-1210
370
              15
390
0
  6
Continuous
 62
               7
100
AcDbCircle
 10
2549.6438593878479
 20
2984.9270740342686
 30
0.0
 40
4.7264704697657862
100
AcDbArc
 50
270.0
 51
316.78372115386713
  0
LINE
  5
20D
100
AcDbEntity
  8
ADF70-1210
370
              15
390
0
  6
Continuous
 62
               7
100
AcDbLine
 10
2553.0883886735278
 20
2981.7006035645027
 30
0.0
 11
2553.0883886735278
 21
2981.6906035645034
 31
0.0
  0
LINE
  5
20E
100
AcDbEntity
  8
ADF70-1210
370
              15
390
0
  6
Continuous
 62
               7
100
AcDbLine
 10
2565.3530997238522
 20
2995.5861264338537
 30
0.0
 11
2553.0883886735278
 21
2981.7006035645027
 31
0.0
  0
ARC
  5
20F
100
AcDbEntity
  8
ADF70-1210
370
              15
390
0
  6
Continuous
 62
               7
100
AcDbCircle
 10
2387.7572713381824
 20
3159.8941233670112
 30
0.0
 40
250.00000000000023
100
AcDbArc
 50
347.5967055121007
 51
1.1922868052836861
  0
ARC
  5
210
100
AcDbEntity
  8
ADF70-1210
370
              15
390
0
  6
Continuous
 62
               7
100
AcDbCircle
 10
2392.5424801202689
 20
3174.9266950403248
 30
0.0
 40
249.0512995265569
100
AcDbArc
 50
313.93768455729435
 51
343.98023027974364
  0
DIMENSION
  5
211
100
AcDbEntity
  8
ADF70-1210
370
               5
390
0
  6
Continuous
 62
               7
100
AcDbDimension
  2
*D21
 10
2617.9659090036935
 20
3818.0
 30
0.0
 11
2652.9659090036939
 21
3818.0
 31
0.0
 71
               5
 72
               1
 41
1.0
 42
0.0
  3
tform線あり
100
AcDbAlignedDimension
 13
2687.9659090036944
 23
4062.1184499663204
 33
0.0
 14
2617.9659090036935
 24
3997.0347238661111
 34
0.0
100
AcDbRotatedDimension
1001
ACAD
1000
DSTYLE
1002
{
1070
             279
1070
               2
1070
             340
1005
3A
1070
             147
1040
5.0
1002
}
  0
DIMENSION
  5
212
100
AcDbEntity
  8
ADF70-1210
370
               5
390
0
  6
Continuous
 62
               7
100
AcDbDimension
  2
*D22
 10
3112.8124410388782
 20
2985.1993991587242
 30
0.0
 11
3107.8124410388782
 21
2964.0
 31
0.0
 70
             128
 71
               5
 72
               1
 41
1.0
 42
0.0
  3
tform線あり
100
AcDbAlignedDimension
 13
3176.8124410388782
 23
2980.1996429008223
 33
0.0
 14
3176.5946457067821
 24
2985.1993991587242
 34
0.0
 50
90.0
100
AcDbRotatedDimension
1001
ACAD
1000
DSTYLE
1002
{
1070
             279
1070
               2
1070
             340
1005
3A
1070
             174
1070
               0
1070
             147
1040
5.0
1002
}
  0
ARC
  5
213
100
AcDbEntity
  8
ADF70-1210
370
               5
390
0
  6
Continuous
 62
               7
100
AcDbCircle
 10
2452.965909003693
 20
4091.1184499663195
 30
0.0
 40
160.0
100
AcDbArc
 50
270.0000000000008
 51
90.000000000000796
  0
ARC
  5
214
100
AcDbEntity
  8
ADF70-1210
370
               5
390
0
  6
Continuous
 62
               7
100
AcDbCircle
 10
2382.965909003693
 20
4091.1184499663195
 30
0.0
 40
160.0
100
AcDbArc
 50
89.999999999999204
 51
269.9999999999992
  0
LINE
  5
215
100
AcDbEntity
  8
ADF70-1210
370
               5
390
0
  6
Continuous
 62
               7
100
AcDbLine
 10
2452.9659090036907
 20
4251.1184499663195
 30
0.0
 11
2382.9659090036953
 21
4251.1184499663195
 31
0.0
  0
LINE
  5
216
100
AcDbEntity
  8
ADF70-1210
370
               5
390
0
  6
Continuous
 62
               7
100
AcDbLine
 10
2452.9659090036957
 20
3931.1184499663195
 30
0.0
 11
2382.9659090036907
 21
3931.1184499663195
 31
0.0
  0
DIMENSION
  5
217
100
AcDbEntity
  8
ADF70-1210
370
               5
390
0
  6
Continuous
 62
               7
100
AcDbDimension
  2
*D23
 10
2781.8124410388782
 20
4386.1184499663195
 30
0.0
 11
2781.8124410388782
 21
4318.6184499663195
 31
0.0
 71
               5
 72
               1
 41
1.0
 42
0.0
  3
tform線あり
100
AcDbAlignedDimension
 13
2687.9659090036939
 23
4251.1184499663195
 33
0.0
 14
2680.8124410388782
 24
4386.1184499663195
 34
0.0
 50
90.0
100
AcDbRotatedDimension
1001
ACAD
1000
DSTYLE
1002
{
1070
             279
1070
               2
1070
             340
1005
3A
1070
             147
1040
5.0
1002
}
  0
DIMENSION
  5
218
100
AcDbEntity
  8
ADF70-1210
370
               5
390
0
  6
Continuous
 62
               7
100
AcDbDimension
  2
*D24
 10
2418.012441038878
 20
2886.1962520827674
 30
0.0
 11
2552.9891750212864
 21
2886.1962520827674
 31
0.0
 71
               5
 72
               1
 41
1.0
 42
0.0
  3
tform線あり
100
AcDbAlignedDimension
 13
2687.9659090036944
 23
3128.0
 33
0.0
 14
2418.012441038878
 24
2985.1993991587242
 34
0.0
100
AcDbRotatedDimension
1001
ACAD
1000
DSTYLE
1002
{
1070
             279
1070
               2
1070
             340
1005
3A
1070
             147
1040
5.0
1002
}
  0
ENDSEC
  0
SECTION
  2
OBJECTS
  0
DICTIONARY
  5
19
100
AcDbDictionary
280
               0
281
               1
  3
ACAD_GROUP
350
1A
  3
ACAD_MLINESTYLE
350
1B
  3
ACAD_LAYOUT
350
1E
  3
ACAD_PLOTSETTINGS
350
22
  3
ACAD_PLOTSTYLENAME
350
1F
  0
DICTIONARY
  5
1A
102
{ACAD_REACTORS
330
19
102
}
100
AcDbDictionary
280
               0
281
               1
  0
DICTIONARY
  5
1B
102
{ACAD_REACTORS
330
19
102
}
100
AcDbDictionary
280
               0
281
               1
  3
Standard
350
1C
  0
MLINESTYLE
  5
1C
102
{ACAD_REACTORS
330
1B
102
}
100
AcDbMlineStyle
  2
Standard
 70
               0
  3

 62
               0
 51
90.0
 52
90.0
 71
               2
 49
0.5
 62
             256
  6
ByLayer
 49
-0.5
 62
             256
  6
ByLayer
  0
ACDBDICTIONARYWDFLT
  5
1F
102
{ACAD_REACTORS
330
19
102
}
100
AcDbDictionary
281
               1
  3
Normal
350
1D
100
AcDbDictionaryWithDefault
340
1D
  0
ACDBPLACEHOLDER
  5
1D
102
{ACAD_REACTORS
330
1F
102
}
  0
LAYOUT
  5
20
102
{ACAD_REACTORS
330
1E
102
}
100
AcDbPlotSettings
  1

  2

  4

  6

 40
0.0
 41
0.0
 42
0.0
 43
0.0
 44
0.0
 45
0.0
 46
0.0
 47
0.0
 48
0.0
 49
0.0
140
0.0
141
0.0
142
1.0
143
1.0
 70
            1024
 72
               0
 73
               0
 74
               0
  7

 75
               0
147
1.0
148
0.0
149
0.0
100
AcDbLayout
  1
Model
 70
               0
 71
               0
 10
0.0
 20
0.0
 11
0.0
 21
0.0
 12
0.0
 22
0.0
 32
0.0
 14
0.0
 24
0.0
 34
0.0
 15
0.0
 25
0.0
 35
0.0
146
0.0
 13
0.0
 23
0.0
 33
0.0
 16
0.0
 26
0.0
 36
0.0
 17
0.0
 27
0.0
 37
0.0
 76
               0
330
A
331
0
345
0
346
0
  0
LAYOUT
  5
21
102
{ACAD_REACTORS
330
1E
102
}
100
AcDbPlotSettings
  1

  2

  4

  6

 40
0.0
 41
0.0
 42
0.0
 43
0.0
 44
0.0
 45
0.0
 46
0.0
 47
0.0
 48
0.0
 49
0.0
140
0.0
141
0.0
142
1.0
143
1.0
 70
               0
 72
               0
 73
               0
 74
               0
  7

 75
               0
147
1.0
148
0.0
149
0.0
100
AcDbLayout
  1
Layout1
 70
               0
 71
               0
 10
0.0
 20
0.0
 11
0.0
 21
0.0
 12
0.0
 22
0.0
 32
0.0
 14
0.0
 24
0.0
 34
0.0
 15
0.0
 25
0.0
 35
0.0
146
0.0
 13
0.0
 23
0.0
 33
0.0
 16
0.0
 26
0.0
 36
0.0
 17
0.0
 27
0.0
 37
0.0
 76
               0
330
B
331
0
345
0
346
0
  0
DICTIONARY
  5
1E
102
{ACAD_REACTORS
330
19
102
}
100
AcDbDictionary
280
               0
281
               1
  3
Layout1
350
21
  3
Model
350
20
  0
DICTIONARY
  5
22
102
{ACAD_REACTORS
330
19
102
}
100
AcDbDictionary
280
               0
281
               1
  0
ENDSEC
  0
EOF
