  0
SECTION
  2
HEADER
  9
$ACADVER
  1
AC1015
  9
$ACADMAINTVER
 70
               6
  9
$DWGCODEPAGE
  3
ANSI_932
  9
$INSBASE
 10
0.0
 20
0.0
 30
0.0
  9
$EXTMIN
 10
-1050.0
 20
-1485.0
 30
-14.834305555555552
  9
$EXTMAX
 10
1050.0
 20
1485.0
 30
14.834305555555552
  9
$LIMMIN
 10
0.0
 20
0.0
  9
$LIMMAX
 10
0.0
 20
0.0
  9
$ORTHOMODE
 70
               0
  9
$REGENMODE
 70
               1
  9
$FILLMODE
 70
               1
  9
$QTEXTMODE
 70
               0
  9
$MIRRTEXT
 70
               1
  9
$LTSCALE
 40
127.0
  9
$ATTMODE
 70
               1
  9
$TEXTSIZE
 40
0.2
  9
$TRACEWID
 40
1.0
  9
$TEXTSTYLE
  7
Standard
  9
$CLAYER
  8
template
  9
$CELTYPE
  6
Continuous
  9
$CECOLOR
 62
             256
  9
$CELTSCALE
 40
1.0
  9
$DISPSILH
 70
               0
  9
$DIMSCALE
 40
1.0
  9
$DIMASZ
 40
31.75
  9
$DIMEXO
 40
0.0
  9
$DIMDLI
 40
6.9999999999999396
  9
$DIMRND
 40
0.0
  9
$DIMDLE
 40
0.0
  9
$DIMEXE
 40
19.999999999996199
  9
$DIMTP
 40
0.0
  9
$DIMTM
 40
0.0
  9
$DIMTXT
 40
24.432617187500004
  9
$DIMCEN
 40
0.0
  9
$DIMTSZ
 40
0.0
  9
$DIMTOL
 70
               0
  9
$DIMLIM
 70
               0
  9
$DIMTIH
 70
               0
  9
$DIMTOH
 70
               0
  9
$DIMSE1
 70
               0
  9
$DIMSE2
 70
               0
  9
$DIMTAD
 70
               1
  9
$DIMZIN
 70
              11
  9
$DIMBLK
  1
VW_FILLEDARROW
  9
$DIMASO
 70
               1
  9
$DIMSHO
 70
               1
  9
$DIMPOST
  1
<>
  9
$DIMAPOST
  1
[]
  9
$DIMALT
 70
               0
  9
$DIMALTD
 70
               1
  9
$DIMALTF
 40
1.0
  9
$DIMLFAC
 40
1.0
  9
$DIMTOFL
 70
               0
  9
$DIMTVP
 40
0.0
  9
$DIMTIX
 70
               1
  9
$DIMSOXD
 70
               0
  9
$DIMSAH
 70
               0
  9
$DIMBLK1
  1

  9
$DIMBLK2
  1

  9
$DIMSTYLE
  2
JIS
  9
$DIMCLRD
 70
               0
  9
$DIMCLRE
 70
               0
  9
$DIMCLRT
 70
               0
  9
$DIMTFAC
 40
1.0
  9
$DIMGAP
 40
1.00000000000108
  9
$DIMJUST
 70
               0
  9
$DIMSD1
 70
               0
  9
$DIMSD2
 70
               0
  9
$DIMTOLJ
 70
               1
  9
$DIMTZIN
 70
              11
  9
$DIMALTZ
 70
              11
  9
$DIMALTTZ
 70
              11
  9
$DIMUPT
 70
               0
  9
$DIMDEC
 70
               1
  9
$DIMTDEC
 70
               1
  9
$DIMALTU
 70
               2
  9
$DIMALTTD
 70
               2
  9
$DIMTXSTY
  7
ＭＳゴシック
  9
$DIMAUNIT
 70
               0
  9
$DIMADEC
 70
               2
  9
$DIMALTRND
 40
0.0
  9
$DIMAZIN
 70
               0
  9
$DIMDSEP
 70
              46
  9
$DIMATFIT
 70
               0
  9
$DIMFRAC
 70
               2
  9
$DIMLDRBLK
  1

  9
$DIMLUNIT
 70
               2
  9
$DIMLWD
 70
              -2
  9
$DIMLWE
 70
              -2
  9
$DIMTMOVE
 70
               0
  9
$LUNITS
 70
               2
  9
$LUPREC
 70
               4
  9
$SKETCHINC
 40
0.1
  9
$FILLETRAD
 40
0.0
  9
$AUNITS
 70
               0
  9
$AUPREC
 70
               0
  9
$MENU
  1
acad
  9
$ELEVATION
 40
0.0
  9
$PELEVATION
 40
0.0
  9
$THICKNESS
 40
0.0
  9
$LIMCHECK
 70
               0
  9
$CHAMFERA
 40
0.0
  9
$CHAMFERB
 40
0.0
  9
$CHAMFERC
 40
0.0
  9
$CHAMFERD
 40
0.0
  9
$SKPOLY
 70
               0
  9
$TDCREATE
 40
2456036.708981481
  9
$TDUCREATE
 40
0.000000000
  9
$TDUPDATE
 40
2456036.708981481
  9
$TDUUPDATE
 40
0.000000000
  9
$TDINDWG
 40
0.0000000000
  9
$TDUSRTIMER
 40
0.0000000000
  9
$USRTIMER
 70
               1
  9
$ANGBASE
 50
0.0
  9
$ANGDIR
 70
               0
  9
$PDMODE
 70
               1
  9
$PDSIZE
 40
-2.0
  9
$PLINEWID
 40
0.0
  9
$SPLFRAME
 70
               0
  9
$SPLINETYPE
 70
               6
  9
$SPLINESEGS
 70
               8
  9
$HANDSEED
  5
24D
  9
$SURFTAB1
 70
               6
  9
$SURFTAB2
 70
               6
  9
$SURFTYPE
 70
               6
  9
$SURFU
 70
               6
  9
$SURFV
 70
               6
  9
$UCSBASE
  2

  9
$UCSNAME
  2

  9
$UCSORG
 10
0.0
 20
0.0
 30
0.0
  9
$UCSXDIR
 10
1.0
 20
0.0
 30
0.0
  9
$UCSYDIR
 10
0.0
 20
1.0
 30
0.0
  9
$UCSORTHOREF
  2

  9
$UCSORTHOVIEW
 70
               0
  9
$UCSORGTOP
 10
0.0
 20
0.0
 30
0.0
  9
$UCSORGBOTTOM
 10
0.0
 20
0.0
 30
0.0
  9
$UCSORGLEFT
 10
0.0
 20
0.0
 30
0.0
  9
$UCSORGRIGHT
 10
0.0
 20
0.0
 30
0.0
  9
$UCSORGFRONT
 10
0.0
 20
0.0
 30
0.0
  9
$UCSORGBACK
 10
0.0
 20
0.0
 30
0.0
  9
$PUCSBASE
  2

  9
$PUCSNAME
  2

  9
$PUCSORG
 10
0.0
 20
0.0
 30
0.0
  9
$PUCSXDIR
 10
1.0
 20
0.0
 30
0.0
  9
$PUCSYDIR
 10
0.0
 20
1.0
 30
0.0
  9
$PUCSORTHOREF
  2

  9
$PUCSORTHOVIEW
 70
               0
  9
$PUCSORGTOP
 10
0.0
 20
0.0
 30
0.0
  9
$PUCSORGBOTTOM
 10
0.0
 20
0.0
 30
0.0
  9
$PUCSORGLEFT
 10
0.0
 20
0.0
 30
0.0
  9
$PUCSORGRIGHT
 10
0.0
 20
0.0
 30
0.0
  9
$PUCSORGFRONT
 10
0.0
 20
0.0
 30
0.0
  9
$PUCSORGBACK
 10
0.0
 20
0.0
 30
0.0
  9
$USERI1
 70
               0
  9
$USERI2
 70
               0
  9
$USERI3
 70
               0
  9
$USERI4
 70
               0
  9
$USERI5
 70
               0
  9
$USERR1
 40
0.0
  9
$USERR2
 40
0.0
  9
$USERR3
 40
0.0
  9
$USERR4
 40
0.0
  9
$USERR5
 40
0.0
  9
$WORLDVIEW
 70
               1
  9
$SHADEDGE
 70
               3
  9
$SHADEDIF
 70
              70
  9
$TILEMODE
 70
               1
  9
$MAXACTVP
 70
              64
  9
$PINSBASE
 10
0.0
 20
0.0
 30
0.0
  9
$PLIMCHECK
 70
               0
  9
$PEXTMIN
 10
1.0000000000000000E+20
 20
1.0000000000000000E+20
 30
1.0000000000000000E+20
  9
$PEXTMAX
 10
-1.0000000000000000E+20
 20
-1.0000000000000000E+20
 30
-1.0000000000000000E+20
  9
$PLIMMIN
 10
0.0
 20
0.0
  9
$PLIMMAX
 10
12.0
 20
9.0
  9
$UNITMODE
 70
               0
  9
$VISRETAIN
 70
               0
  9
$PLINEGEN
 70
               1
  9
$PSLTSCALE
 70
               0
  9
$TREEDEPTH
 70
            3020
  9
$CMLSTYLE
  2
Standard
  9
$CMLJUST
 70
               0
  9
$CMLSCALE
 40
1.0
  9
$PROXYGRAPHICS
 70
               0
  9
$MEASUREMENT
 70
               1
  9
$CELWEIGHT
370
               0
  9
$ENDCAPS
280
               0
  9
$JOINSTYLE
280
               0
  9
$LWDISPLAY
290
               1
  9
$INSUNITS
 70
               4
  9
$HYPERLINKBASE
  1

  9
$STYLESHEET
  1

  9
$XEDIT
290
               1
  9
$CEPSNTYPE
380
               0
  9
$PSTYLEMODE
290
               1
  9
$FINGERPRINTGUID
  2

  9
$VERSIONGUID
  2

  9
$EXTNAMES
290
               1
  9
$PSVPSCALE
 40
0.0
  0
ENDSEC
  0
SECTION
  2
CLASSES
  0
CLASS
  1
LWPOLYLINE
  2
AcDbPolyline
  3
AutoCAD 2000
 90
        0
280
               0
281
               1
  0
CLASS
  1
IMAGE
  2
AcDbRasterImage
  3
ISM
 90
      127
280
               0
281
               1
  0
CLASS
  1
OLE2FRAME
  2
AcDbOle2Frame
  3
AutoCAD 2000
 90
        0
280
               0
281
               1
  0
CLASS
  1
HATCH
  2
AcDbHatch
  3
AutoCAD 2000
 90
        0
280
               0
281
               1
  0
CLASS
  1
DICTIONARYVAR
  2
AcDbDictionaryVar
  3
AutoCAD 2000
 90
        0
280
               0
281
               0
  0
CLASS
  1
RASTERVARIABLES
  2
AcDbRasterVariables
  3
ISM
 90
        0
280
               0
281
               0
  0
CLASS
  1
IMAGEDEF
  2
AcDbRasterImageDef
  3
ISM
 90
        0
280
               0
281
               0
  0
CLASS
  1
IMAGEDEF_REACTOR
  2
AcDbRasterImageDefReactor
  3
ISM
 90
        1
280
               0
281
               0
  0
CLASS
  1
IDBUFFER
  2
AcDbIdBuffer
  3
AutoCAD 2000
 90
        0
280
               0
281
               0
  0
CLASS
  1
SPATIAL_FILTER
  2
AcDbSpatialFilter
  3
AutoCAD 2000
 90
        0
280
               0
281
               0
  0
CLASS
  1
XRECORD
  2
AcDbXrecord
  3
AutoCAD 2000
 90
        0
280
               0
281
               0
  0
CLASS
  1
SORTENTSTABLE
  2
AcDbSortentsTable
  3
AutoCAD 2000
 90
        0
280
               0
281
               0
  0
CLASS
  1
LAYER_INDEX
  2
AcDbLayerIndex
  3
AutoCAD 2000
 90
        0
280
               0
281
               0
  0
CLASS
  1
SPATIAL_INDEX
  2
AcDbSpatialIndex
  3
AutoCAD 2000
 90
        0
280
               0
281
               0
  0
CLASS
  1
OBJECT_PTR
  2
CAseDLPNTableRecord
  3
"ASE-LPNTableRecord"
 90
        1
280
               0
281
               0
  0
CLASS
  1
LAYOUT
  2
AcDbLayout
  3
AutoCAD 2000
 90
        0
280
               0
281
               0
  0
CLASS
  1
PLOTSETTINGS
  2
AcDbPlotSettings
  3
AutoCAD 2000
 90
        0
280
               0
281
               0
  0
CLASS
  1
ACDBDICTIONARYWDFLT
  2
AcDbDictionaryWithDefault
  3
AutoCAD 2000
 90
        0
280
               0
281
               0
  0
CLASS
  1
ACDBPLACEHOLDER
  2
AcDbPlaceHolder
  3
AutoCAD 2000
 90
        0
280
               0
281
               0
  0
ENDSEC
  0
SECTION
  2
TABLES
  0
TABLE
  2
VPORT
  5
7
100
AcDbSymbolTable
 70
               1
  0
VPORT
  5
15
100
AcDbSymbolTableRecord
100
AcDbViewportTableRecord
  2
*ACTIVE
 70
               0
 10
0.0
 20
0.0
 11
1.0
 21
1.0
 12
0.0
 22
0.0
 13
0.0
 23
0.0
 14
1.0
 24
1.0
 15
0.0
 25
0.0
 16
0.0
 26
0.0
 36
1.0
 17
0.0
 27
0.0
 37
0.0
 40
2970.0
 41
0.688564
 42
50.0
 43
0.0
 44
0.0
 50
0.0
 51
0.0
 71
               0
 72
            2000
 73
               1
 74
               1
 75
               0
 76
               0
 77
               0
 78
               0
281
               0
 65
               0
110
0.0
120
0.0
130
0.0
111
1.0
121
0.0
131
0.0
112
0.0
122
1.0
132
0.0
345
0
346
0
 79
               0
146
0.0
  0
ENDTAB
  0
TABLE
  2
LTYPE
  5
4
100
AcDbSymbolTable
 70
              14
  0
LTYPE
  5
11
100
AcDbSymbolTableRecord
100
AcDbLinetypeTableRecord
  2
ByBlock
 70
              64
  3

 72
              65
 73
               0
 40
0.0
  0
LTYPE
  5
12
100
AcDbSymbolTableRecord
100
AcDbLinetypeTableRecord
  2
ByLayer
 70
              64
  3

 72
              65
 73
               0
 40
0.0
  0
LTYPE
  5
13
100
AcDbSymbolTableRecord
100
AcDbLinetypeTableRecord
  2
Continuous
 70
              64
  3
Solid line
 72
              65
 73
               0
 40
0.0
  0
LTYPE
  5
40
100
AcDbSymbolTableRecord
100
AcDbLinetypeTableRecord
  2
STYLE_01
 70
               0
  3

 72
              65
 73
               2
 40
3.75
 49
2.5
 74
               0
 49
-1.25
 74
               0
  0
LTYPE
  5
41
100
AcDbSymbolTableRecord
100
AcDbLinetypeTableRecord
  2
STYLE_02
 70
               0
  3

 72
              65
 73
               4
 40
0.3937007874015748
 49
0.1968503937007874
 74
               0
 49
-0.0984251968503937
 74
               0
 49
0.0002
 74
               0
 49
-0.0982251968503937
 74
               0
  0
LTYPE
  5
42
100
AcDbSymbolTableRecord
100
AcDbLinetypeTableRecord
  2
STYLE_03
 70
               0
  3

 72
              65
 73
               2
 40
0.5
 49
0.416656
 74
               0
 49
-0.083344
 74
               0
  0
LTYPE
  5
43
100
AcDbSymbolTableRecord
100
AcDbLinetypeTableRecord
  2
STYLE_04
 70
               0
  3

 72
              65
 73
               2
 40
0.611084
 49
0.52777
 74
               0
 49
-0.083314
 74
               0
  0
LTYPE
  5
44
100
AcDbSymbolTableRecord
100
AcDbLinetypeTableRecord
  2
STYLE_05
 70
               0
  3

 72
              65
 73
               2
 40
0.083312
 49
0.02777
 74
               0
 49
-0.055542
 74
               0
  0
LTYPE
  5
45
100
AcDbSymbolTableRecord
100
AcDbLinetypeTableRecord
  2
STYLE_06
 70
               0
  3

 72
              65
 73
               4
 40
0.416656
 49
0.25
 74
               0
 49
-0.083312
 74
               0
 49
0.027772
 74
               0
 49
-0.055572
 74
               0
  0
LTYPE
  5
46
100
AcDbSymbolTableRecord
100
AcDbLinetypeTableRecord
  2
STYLE_07
 70
               0
  3

 72
              65
 73
               6
 40
0.75
 49
0.25
 74
               0
 49
-0.083312
 74
               0
 49
0.2500000000000001
 74
               0
 49
-0.083344
 74
               0
 49
0.027772
 74
               0
 49
-0.055572
 74
               0
  0
LTYPE
  5
47
100
AcDbSymbolTableRecord
100
AcDbLinetypeTableRecord
  2
STYLE_08
 70
               0
  3

 72
              65
 73
               6
 40
0.5
 49
0.25
 74
               0
 49
-0.083312
 74
               0
 49
0.027772
 74
               0
 49
-0.055572
 74
               0
 49
0.027772
 74
               0
 49
-0.055572
 74
               0
  0
LTYPE
  5
48
100
AcDbSymbolTableRecord
100
AcDbLinetypeTableRecord
  2
STYLE_09
 70
               0
  3

 72
              65
 73
               4
 40
2.0
 49
1.5
 74
               0
 49
-0.1111139999999999
 74
               0
 49
0.2777720000000001
 74
               0
 49
-0.1111139999999999
 74
               0
  0
LTYPE
  5
49
100
AcDbSymbolTableRecord
100
AcDbLinetypeTableRecord
  2
STYLE_10
 70
               0
  3

 72
              65
 73
               6
 40
2.375
 49
1.5
 74
               0
 49
-0.1111139999999999
 74
               0
 49
0.2777720000000001
 74
               0
 49
-0.1111139999999999
 74
               0
 49
0.25
 74
               0
 49
-0.125
 74
               0
  0
LTYPE
  5
4A
100
AcDbSymbolTableRecord
100
AcDbLinetypeTableRecord
  2
STYLE_11
 70
               0
  3

 72
              65
 73
               2
 40
0.1574803149606299
 49
0.078740157480315
 74
               0
 49
-0.078740157480315
 74
               0
  0
ENDTAB
  0
TABLE
  2
LAYER
  5
2
100
AcDbSymbolTable
 70
               5
  0
LAYER
  5
14
100
AcDbSymbolTableRecord
100
AcDbLayerTableRecord
  2
0
 70
               0
 62
               7
  6
Continuous
290
               1
370
              -3
390
1D
  0
LAYER
  5
4B
100
AcDbSymbolTableRecord
100
AcDbLayerTableRecord
  2
Defpoints
 70
               0
 62
               7
  6
Continuous
290
               0
370
              -3
390
1D
  0
LAYER
  5
4C
100
AcDbSymbolTableRecord
100
AcDbLayerTableRecord
  2
template
 70
               0
 62
               7
  6
Continuous
290
               1
370
              -3
390
1D
  0
LAYER
  5
4D
100
AcDbSymbolTableRecord
100
AcDbLayerTableRecord
  2
notes
 70
               0
 62
               7
  6
Continuous
290
               1
370
              -3
390
1D
  0
LAYER
  5
4E
100
AcDbSymbolTableRecord
100
AcDbLayerTableRecord
  2
ADF70-1302
 70
               0
 62
               7
  6
Continuous
290
               1
370
              -3
390
1D
  0
ENDTAB
  0
TABLE
  2
STYLE
  5
3
100
AcDbSymbolTable
 70
               4
  0
STYLE
  5
17
100
AcDbSymbolTableRecord
100
AcDbTextStyleTableRecord
  2
Standard
 70
               0
 40
0.0
 41
1.0
 50
0.0
 71
               0
 42
0.0
  3
txt
  4
BIGFONT.SHX
  0
STYLE
  5
3D
100
AcDbSymbolTableRecord
100
AcDbTextStyleTableRecord
  2
MS UI Gothic
 70
               0
 40
0.0
 41
1.0
 50
0.0
 71
               0
 42
0.0
  3

  4
MS UI Gothic
1001
ACAD
1000
MS UI Gothic
1071
        0
  0
STYLE
  5
3E
100
AcDbSymbolTableRecord
100
AcDbTextStyleTableRecord
  2
ＭＳ ゴシック
 70
               0
 40
0.0
 41
1.0
 50
0.0
 71
               0
 42
0.0
  3

  4
ＭＳ ゴシック
1001
ACAD
1000
ＭＳ ゴシック
1071
        0
  0
STYLE
  5
3F
100
AcDbSymbolTableRecord
100
AcDbTextStyleTableRecord
  2
ＭＳゴシック
 70
               0
 40
0.0
 41
1.0
 50
0.0
 71
               0
 42
0.0
  3

  4
ＭＳゴシック
1001
ACAD
1000
ＭＳゴシック
1071
        0
  0
ENDTAB
  0
TABLE
  2
VIEW
  5
5
100
AcDbSymbolTable
 70
               0
  0
ENDTAB
  0
TABLE
  2
UCS
  5
6
100
AcDbSymbolTable
 70
               0
  0
ENDTAB
  0
TABLE
  2
APPID
  5
8
100
AcDbSymbolTable
 70
               1
  0
APPID
  5
16
100
AcDbSymbolTableRecord
100
AcDbRegAppTableRecord
  2
ACAD
 70
               0
  0
ENDTAB
  0
TABLE
  2
DIMSTYLE
  5
9
100
AcDbSymbolTable
 70
               3
100
AcDbDimStyleTable
 71
               0
  0
DIMSTYLE
105
18
100
AcDbSymbolTableRecord
100
AcDbDimStyleTableRecord
  2
Standard
 70
               0
  3

  4

 40
1.0
 41
0.18
 42
0.0625
 43
0.38
 44
0.18
 45
0.0
 46
0.0
 47
0.0
 48
0.0
 71
               0
 72
               0
 73
               1
 74
               1
 75
               0
 76
               0
 77
               0
 78
               0
 79
               0
140
0.18
141
0.09
142
0.0
143
25.399999999999999
144
1.0
145
0.0
146
1.0
147
0.09
148
0.0
170
               0
171
               2
172
               0
173
               0
174
               0
175
               0
176
               0
177
               0
178
               0
179
               0
271
               4
272
               4
273
               2
274
               2
275
               0
276
               0
277
               2
278
              46
279
               0
280
               0
281
               0
282
               0
283
               1
284
               0
285
               0
286
               0
288
               0
289
               3
340
17
341
0
342
0
343
0
344
0
371
              -2
372
              -2
  0
DIMSTYLE
105
57
100
AcDbSymbolTableRecord
100
AcDbDimStyleTableRecord
  2
tform線あり
 70
               0
  3
<>
  4
[]
 40
1.0
 41
9.9993896484374982
 42
24.999999999999996
 43
0.9999999999999999
 44
0.0
 45
0.0
 46
0.0
 47
0.0
 48
0.0
 71
               0
 72
               0
 73
               0
 74
               0
 75
               0
 76
               0
 77
               1
 78
              11
 79
               0
140
24.432617187500004
141
0.0
142
0.0
143
1.0
144
1.0
145
0.0
146
1.0
147
0.4999999999999999
148
0.0
170
               0
171
               1
172
               0
173
               0
174
               1
175
               0
176
               0
177
               0
178
               0
179
               2
271
               1
272
               1
273
               2
274
               2
275
               0
276
               2
277
               2
278
              46
279
               0
280
               0
281
               0
282
               0
283
               1
284
              11
285
              11
286
              11
288
               0
289
               0
340
3F
341
4F
342
4F
343
0
344
0
371
              -2
372
              -2
  0
DIMSTYLE
105
5C
100
AcDbSymbolTableRecord
100
AcDbDimStyleTableRecord
  2
JIS
 70
               0
  3
<>
  4
[]
 40
1.0
 41
31.75
 42
0.0
 43
6.9999999999999396
 44
19.999999999996199
 45
0.0
 46
0.0
 47
0.0
 48
0.0
 71
               0
 72
               0
 73
               0
 74
               0
 75
               0
 76
               0
 77
               1
 78
              11
 79
               0
140
24.432617187500004
141
0.0
142
0.0
143
1.0
144
1.0
145
0.0
146
1.0
147
1.00000000000108
148
0.0
170
               0
171
               1
172
               0
173
               0
174
               1
175
               0
176
               0
177
               0
178
               0
179
               2
271
               1
272
               1
273
               2
274
               2
275
               0
276
               2
277
               2
278
              46
279
               0
280
               0
281
               0
282
               0
283
               1
284
              11
285
              11
286
              11
288
               0
289
               0
340
3F
341
58
342
58
343
0
344
0
371
              -2
372
              -2
  0
ENDTAB
  0
TABLE
  2
BLOCK_RECORD
  5
1
100
AcDbSymbolTable
 70
              28
  0
BLOCK_RECORD
  5
A
100
AcDbSymbolTableRecord
100
AcDbBlockTableRecord
  2
*MODEL_SPACE
340
20
  0
BLOCK_RECORD
  5
B
100
AcDbSymbolTableRecord
100
AcDbBlockTableRecord
  2
*PAPER_SPACE
340
21
  0
BLOCK_RECORD
  5
4F
100
AcDbSymbolTableRecord
100
AcDbBlockTableRecord
  2
_DOT
340
0
  0
BLOCK_RECORD
  5
58
100
AcDbSymbolTableRecord
100
AcDbBlockTableRecord
  2
VW_FILLEDARROW
340
0
  0
BLOCK_RECORD
  5
23
100
AcDbSymbolTableRecord
100
AcDbBlockTableRecord
  2
グループ
340
0
102
{BLKREFS
331
1AC
102
}
  0
BLOCK_RECORD
  5
24
100
AcDbSymbolTableRecord
100
AcDbBlockTableRecord
  2
グループ-1
340
0
102
{BLKREFS
331
1B9
102
}
  0
BLOCK_RECORD
  5
25
100
AcDbSymbolTableRecord
100
AcDbBlockTableRecord
  2
*D4
340
0
  0
BLOCK_RECORD
  5
26
100
AcDbSymbolTableRecord
100
AcDbBlockTableRecord
  2
*D5
340
0
  0
BLOCK_RECORD
  5
27
100
AcDbSymbolTableRecord
100
AcDbBlockTableRecord
  2
*D6
340
0
  0
BLOCK_RECORD
  5
28
100
AcDbSymbolTableRecord
100
AcDbBlockTableRecord
  2
*D7
340
0
  0
BLOCK_RECORD
  5
29
100
AcDbSymbolTableRecord
100
AcDbBlockTableRecord
  2
*D8
340
0
  0
BLOCK_RECORD
  5
2A
100
AcDbSymbolTableRecord
100
AcDbBlockTableRecord
  2
*D9
340
0
  0
BLOCK_RECORD
  5
2B
100
AcDbSymbolTableRecord
100
AcDbBlockTableRecord
  2
*D10
340
0
  0
BLOCK_RECORD
  5
2C
100
AcDbSymbolTableRecord
100
AcDbBlockTableRecord
  2
*D11
340
0
  0
BLOCK_RECORD
  5
2D
100
AcDbSymbolTableRecord
100
AcDbBlockTableRecord
  2
*D12
340
0
  0
BLOCK_RECORD
  5
2E
100
AcDbSymbolTableRecord
100
AcDbBlockTableRecord
  2
*D13
340
0
  0
BLOCK_RECORD
  5
2F
100
AcDbSymbolTableRecord
100
AcDbBlockTableRecord
  2
*D14
340
0
  0
BLOCK_RECORD
  5
30
100
AcDbSymbolTableRecord
100
AcDbBlockTableRecord
  2
*D15
340
0
  0
BLOCK_RECORD
  5
31
100
AcDbSymbolTableRecord
100
AcDbBlockTableRecord
  2
*D16
340
0
  0
BLOCK_RECORD
  5
32
100
AcDbSymbolTableRecord
100
AcDbBlockTableRecord
  2
*D17
340
0
  0
BLOCK_RECORD
  5
33
100
AcDbSymbolTableRecord
100
AcDbBlockTableRecord
  2
*D18
340
0
  0
BLOCK_RECORD
  5
34
100
AcDbSymbolTableRecord
100
AcDbBlockTableRecord
  2
*D19
340
0
  0
BLOCK_RECORD
  5
35
100
AcDbSymbolTableRecord
100
AcDbBlockTableRecord
  2
*D20
340
0
  0
BLOCK_RECORD
  5
36
100
AcDbSymbolTableRecord
100
AcDbBlockTableRecord
  2
*D21
340
0
  0
BLOCK_RECORD
  5
37
100
AcDbSymbolTableRecord
100
AcDbBlockTableRecord
  2
*D22
340
0
  0
BLOCK_RECORD
  5
38
100
AcDbSymbolTableRecord
100
AcDbBlockTableRecord
  2
*D23
340
0
  0
BLOCK_RECORD
  5
39
100
AcDbSymbolTableRecord
100
AcDbBlockTableRecord
  2
*D24
340
0
  0
BLOCK_RECORD
  5
3A
100
AcDbSymbolTableRecord
100
AcDbBlockTableRecord
  2
*D25
340
0
  0
BLOCK_RECORD
  5
3B
100
AcDbSymbolTableRecord
100
AcDbBlockTableRecord
  2
*D26
340
0
  0
BLOCK_RECORD
  5
3C
100
AcDbSymbolTableRecord
100
AcDbBlockTableRecord
  2
*D27
340
0
  0
ENDTAB
  0
ENDSEC
  0
SECTION
  2
BLOCKS
  0
BLOCK
  5
D
100
AcDbEntity
  8
0
390
0
100
AcDbBlockBegin
  2
*MODEL_SPACE
 70
               0
 10
0.0
 20
0.0
 30
0.0
  3
*MODEL_SPACE
  1

  0
ENDBLK
  5
E
100
AcDbEntity
  8
0
390
0
100
AcDbBlockEnd
  0
BLOCK
  5
F
100
AcDbEntity
 67
               1
  8
0
390
0
100
AcDbBlockBegin
  2
*PAPER_SPACE
 70
               0
 10
0.0
 20
0.0
 30
0.0
  3
*PAPER_SPACE
  1

  0
ENDBLK
  5
10
100
AcDbEntity
 67
               1
  8
0
390
0
100
AcDbBlockEnd
  0
BLOCK
  5
50
100
AcDbEntity
  8
0
390
0
100
AcDbBlockBegin
  2
_DOT
 70
               0
 10
0.0
 20
0.0
 30
0.0
  3
_DOT
  1

  0
POLYLINE
  5
51
100
AcDbEntity
  8
0
370
              -2
390
0
  6
ByBlock
 62
               0
100
AcDb2dPolyline
 66
               1
 10
0.0
 20
0.0
 30
0.0
 70
               1
 40
0.5
 41
0.5
  0
VERTEX
  5
52
100
AcDbEntity
  8
0
370
              -2
390
0
  6
ByBlock
 62
               0
100
AcDbVertex
100
AcDb2dVertex
 10
-0.25
 20
0.0
 30
0.0
 42
1.0
  0
VERTEX
  5
53
100
AcDbEntity
  8
0
370
              -2
390
0
  6
ByBlock
 62
               0
100
AcDbVertex
100
AcDb2dVertex
 10
0.25
 20
0.0
 30
0.0
 42
1.0
  0
SEQEND
  5
54
100
AcDbEntity
  8
0
390
0
  0
LINE
  5
55
100
AcDbEntity
  8
0
370
              -2
390
0
  6
ByBlock
 62
               0
100
AcDbLine
 10
-0.5
 20
0.0
 30
0.0
 11
-1.0
 21
0.0
 31
0.0
  0
ENDBLK
  5
56
100
AcDbEntity
  8
0
390
0
100
AcDbBlockEnd
  0
BLOCK
  5
59
100
AcDbEntity
  8
0
370
              -2
390
0
  6
ByBlock
 62
               0
100
AcDbBlockBegin
  2
VW_FILLEDARROW
 70
               0
 10
0.0
 20
0.0
 30
0.0
  3
VW_FILLEDARROW
  1

  0
SOLID
  5
5A
100
AcDbEntity
  8
0
370
              -2
390
0
 62
               0
100
AcDbTrace
 10
0.0
 20
0.0
 30
0.0
 11
-0.9921874999999999
 21
-0.2658558393652545
 31
0.0
 12
-0.9921874999999999
 22
0.2658558393652548
 32
0.0
 13
-0.9921874999999999
 23
0.2658558393652548
 33
0.0
  0
ENDBLK
  5
5B
100
AcDbEntity
  8
0
390
0
100
AcDbBlockEnd
  0
BLOCK
  5
5D
100
AcDbEntity
  8
template
390
0
100
AcDbBlockBegin
  2
グループ
 70
               0
 10
0.0
 20
0.0
 30
0.0
  3
グループ
  1

  0
LWPOLYLINE
  5
5E
100
AcDbEntity
  8
0
370
              15
390
0
  6
Continuous
 62
               7
100
AcDbPolyline
 90
        8
 70
             129
 10
-13101.31955328318
 20
264.9540505520813
 10
-13101.31955328318
 20
258.95666185850541
 10
-13110.820750201183
 20
258.95666185850541
 10
-13110.820750201183
 20
234.5056985949966
 10
-13119.176127462966
 20
234.5056985949966
 10
-13119.176127462966
 20
258.95666185850541
 10
-13128.509084409276
 20
258.95666185850541
 10
-13128.509084409276
 20
264.9540505520813
  0
LWPOLYLINE
  5
5F
100
AcDbEntity
  8
0
370
              15
390
0
  6
Continuous
 62
               7
100
AcDbPolyline
 90
      101
 70
             128
 10
-13088.591261452622
 20
264.22580205914483
 10
-13088.575911423835
 20
264.23016281583028
 42
-0.0222221607823494
 10
-13088.285906847166
 20
264.29878728107451
 10
-13088.270113083168
 20
264.30179070417222
 42
-0.0146883565618821
 10
-13088.007410377948
 20
264.34379389112087
 42
-0.012745884421618
 10
-13087.7427714108
 20
264.37133085919311
 10
-13087.680316332484
 20
264.37622428178156
 42
-0.0198099018566806
 10
-13087.289467223005
 20
264.3913094391782
 10
-13087.237655753563
 20
264.39125566351311
 42
-0.0147617382742602
 10
-13086.743032292585
 20
264.3761356382679
 10
-13086.670340837718
 20
264.37176303138074
 42
-0.0162624548995455
 10
-13086.280187208249
 20
264.33553015610823
 10
-13086.158654816989
 20
264.32024359711158
 42
-0.0080020874616134
 10
-13086.013075785897
 20
264.29956074984329
 10
-13085.974756315289
 20
264.29348947203016
 42
-0.0053821929593979
 10
-13085.906272209988
 20
264.28188194821064
 10
-13086.632677909187
 20
262.10095349249673
 42
0.0108667757324652
 10
-13086.69999497931
 20
262.11414060771511
 10
-13086.737463002508
 20
262.12063835031108
 42
0.0170663203338004
 10
-13086.880679789427
 20
262.14046794760321
 10
-13086.948555122106
 20
262.14751511819031
 42
0.0220162375256839
 10
-13087.22893452996
 20
262.16419747896043
 10
-13087.306790097013
 20
262.16539684622694
 42
0.0282606915758641
 10
-13087.642426420593
 20
262.1515935692579
 10
-13087.686339694354
 20
262.14729357925529
 42
0.0169677213697838
 10
-13087.932264189323
 20
262.11475652970228
 42
0.0190576269838461
 10
-13088.175172151905
 20
262.06460965759544
 10
-13088.181431340014
 20
262.06306668348657
 42
0.0213685642893541
 10
-13088.431815824497
 20
261.98986639837926
 10
-13088.437305719406
 20
261.98800340232276
 42
0.0237595297600117
 10
-13088.690800604314
 20
261.88831888042341
 10
-13088.695902678335
 20
261.88602710494899
 42
0.0261857468826363
 10
-13088.948073454574
 20
261.7564907675694
 10
-13088.958499643659
 20
261.75042529310258
 42
0.0272553062039036
 10
-13089.194929418891
 20
261.59505308716177
 10
-13089.229692432404
 20
261.56939193906737
 42
0.0325996893149531
 10
-13089.379847776052
 20
261.44264406609818
 10
-13089.403557205174
 20
261.41982603758578
 42
0.0138050960665427
 10
-13089.495440361385
 20
261.32637637603364
 42
0.0125280103872131
 10
-13089.582282894233
 20
261.22821304941709
 10
-13089.605963339127
 20
261.20005455124624
 42
0.0205218024726437
 10
-13089.731063414658
 20
261.03826123699207
 10
-13089.753529755128
 20
261.00660150719023
 42
0.0163110129571893
 10
-13089.909240134379
 20
260.77127107212186
 10
-13089.911964030431
 20
260.76684731013484
 42
0.0131897341884069
 10
-13090.058764551326
 20
260.51371521779129
 10
-13090.060464646704
 20
260.51059697863468
 42
0.0107895576021994
 10
-13090.198241348913
 20
260.24438176900202
 10
-13090.198974238439
 20
260.24288753635301
 42
0.0091371507217819
 10
-13090.327454187118
 20
259.96836233852923
 10
-13090.357199818498
 20
259.9016558314346
 42
0.0135418326353878
 10
-13090.528913757562
 20
259.4867180461851
 10
-13090.562518566017
 20
259.39885190384723
 42
0.00928345424374
 10
-13090.733747625924
 20
258.92495340557923
 10
-13090.759364753694
 20
258.84971233563135
 42
0.0054261043639415
 10
-13090.867002901934
 20
258.52194836272076
 10
-13090.884528888535
 20
258.46656019915224
 42
0.0008225090889651
 10
-13090.953198939942
 20
258.2482914423415
 10
-13091.937888071876
 20
255.22340014908491
 10
-13088.705264231801
 20
255.22340014908491
 10
-13089.209456661654
 20
253.31892185073252
 10
-13092.465512943638
 20
253.31892185073252
 10
-13098.294661975993
 20
234.50569878472766
 10
-13100.119759586303
 20
234.50569878472766
 10
-13094.285081550801
 20
253.31892185073252
 10
-13096.690197919843
 20
253.31892185073252
 10
-13096.186005489988
 20
255.22340014908491
 10
-13093.757456679039
 20
255.22340014908491
 10
-13092.89730176085
 20
257.8598131497838
 42
-0.0005863560671918
 10
-13092.860567082611
 20
257.97663957018597
 10
-13092.784479248985
 20
258.217631869461
 42
-0.0087522378964474
 10
-13092.585011105564
 20
258.81290795650392
 10
-13092.492746830079
 20
259.07304812522199
 42
-0.007740095381687
 10
-13092.234813170984
 20
259.7660528026687
 10
-13092.21904819942
 20
259.80648368601641
 42
-0.0082369946344042
 10
-13091.971963728793
 20
260.41056275225048
 42
-0.0085725238365266
 10
-13091.704717632792
 20
261.00598879153512
 10
-13091.60308803179
 20
261.222409893509
 42
-0.0168109410599371
 10
-13091.316143603053
 20
261.78361741962703
 10
-13091.190300212473
 20
262.01058145284321
 42
-0.0007817726827494
 10
-13091.136015862538
 20
262.10812569765551
 10
-13091.135887556458
 20
262.10835540650277
 42
-0.0036626142206365
 10
-13091.080999692498
 20
262.20495328636048
 42
-0.0080221150761803
 10
-13091.023875437097
 20
262.30023252110499
 10
-13090.993175485732
 20
262.34962347023554
 42
-0.0202139325615217
 10
-13090.865519745956
 20
262.5376050708723
 10
-13090.811452280737
 20
262.61068393515779
 42
-0.0249323791760893
 10
-13090.552289486997
 20
262.92672917733307
 10
-13090.528149672889
 20
262.95334345022468
 42
-0.0242132121546823
 10
-13090.188468931357
 20
263.29322693642166
 10
-13090.140557358622
 20
263.3367360725951
 42
-0.0251017527864825
 10
-13089.856575657957
 20
263.56972881837953
 10
-13089.855130181173
 20
263.57079807593703
 42
-0.0130868069058537
 10
-13089.556869531185
 20
263.77957854450096
 10
-13089.55530771206
 20
263.78061198476354
 42
-0.029032952643084
 10
-13089.244196570649
 20
263.96143748640532
 10
-13089.214351008666
 20
263.97653986924337
 42
-0.0160250190060545
 10
-13088.948446594899
 20
264.10055597945814
 42
-0.0267600374841495
 10
-13088.673170517439
 20
264.20130430000393
 10
-13088.646434597909
 20
264.20949685883238
 42
-0.0049981587636453
 10
-13088.591261452622
 20
264.22580205914483
 42
-0.0049981587636453
  0
LWPOLYLINE
  5
60
100
AcDbEntity
  8
0
370
              15
390
0
  6
Continuous
 62
               7
100
AcDbPolyline
 90
      118
 70
             128
 10
-13068.776893888176
 20
255.14941682125755
 10
-13066.901771963676
 20
255.14941682125755
 10
-13067.739810869276
 20
252.4678502948575
 42
-0.0010587229284828
 10
-13067.708355053568
 20
252.50475482837203
 10
-13067.650160963072
 20
252.57273708438856
 42
-0.0071874740440711
 10
-13067.499785744994
 20
252.74337777639434
 10
-13067.358062971711
 20
252.89961391773079
 42
-0.014811805351286
 10
-13066.907933678975
 20
253.3672277637686
 10
-13066.820711344059
 20
253.45262508463452
 42
-0.0086273358678091
 10
-13066.485162543089
 20
253.7700007186138
 10
-13066.441328826861
 20
253.81005036295019
 42
-0.0103138323109951
 10
-13066.18330512463
 20
254.03621350028516
 10
-13066.137530718343
 20
254.07469554751191
 42
-0.0060206748601424
 10
-13065.96468265419
 20
254.21649019829977
 10
-13065.962651523252
 20
254.21811590397229
 42
-0.0067069027314113
 10
-13065.790358708642
 20
254.352266537726
 10
-13065.787809942773
 20
254.35419670755846
 42
-0.0076184352078203
 10
-13065.616904676845
 20
254.4795715828451
 42
-0.008965286166993
 10
-13065.441943714164
 20
254.5992048431427
 10
-13065.40559199396
 20
254.62311605666412
 42
-0.0156916245956477
 10
-13065.209632496806
 20
254.74337854313501
 42
-0.0023299011067519
 10
-13065.00937045281
 20
254.85655648268502
 10
-13064.993986320445
 20
254.86515647774058
 42
-0.0107669341460771
 10
-13064.759749495304
 20
254.98955661110992
 10
-13064.737484694269
 20
255.00077336104005
 42
-0.0078058045914536
 10
-13064.453894576316
 20
255.13813481667958
 10
-13064.443987488608
 20
255.14274394454696
 42
-0.0181829330495102
 10
-13064.133678083981
 20
255.27360768564654
 10
-13064.079622641442
 20
255.29412280557986
 42
-0.0208411536051627
 10
-13063.730537673975
 20
255.41021326807925
 10
-13063.716181573844
 20
255.4143317130339
 42
-0.0222799817123265
 10
-13063.38746177993
 20
255.49297327917304
 10
-13063.378572816693
 20
255.49468528975797
 42
-0.0215509523867662
 10
-13063.062101848413
 20
255.54160097829242
 10
-13063.019619887367
 20
255.54603850508292
 42
-0.0182545924847148
 10
-13062.785511108059
 20
255.56188233047419
 10
-13062.746110091706
 20
255.56310687555353
 42
-0.0072962856530671
 10
-13062.590187212023
 20
255.56567620407554
 10
-13062.561087541451
 20
255.56573103947929
 42
-0.0059227516354952
 10
-13062.463338042306
 20
255.56475732768888
 10
-13062.434095824827
 20
255.56411956108545
 42
-0.0011833111733968
 10
-13062.394844541101
 20
255.5631705567755
 10
-13063.190231136708
 20
253.02443661167649
 42
0.0143932051446105
 10
-13063.216632519074
 20
253.03463558172774
 10
-13063.223904491475
 20
253.03720680057916
 42
0.0234388603335528
 10
-13063.265735357405
 20
253.04982603629384
 10
-13063.27441702032
 20
253.05200699829948
 42
0.0199162742942405
 10
-13063.334705854393
 20
253.06462373363323
 10
-13063.355519792207
 20
253.06812093306303
 42
0.029364355071838
 10
-13063.458594650971
 20
253.07927097871641
 10
-13063.483279831686
 20
253.08048259573479
 42
0.0214606686823051
 10
-13063.636420747634
 20
253.08142115615237
 10
-13063.645792658457
 20
253.08107624460797
 42
0.0167564054202657
 10
-13063.817312849569
 20
253.0689992022397
 10
-13063.825772642325
 20
253.06811786181277
 42
0.0137677553284455
 10
-13064.013125955606
 20
253.04336855326648
 10
-13064.020477695096
 20
253.04219063330129
 42
0.0118497261465251
 10
-13064.22097545919
 20
253.00517328311389
 10
-13064.227125466445
 20
253.00388642039206
 42
0.0106421143909757
 10
-13064.438006353716
 20
252.95505404482071
 10
-13064.442915162119
 20
252.95380670213217
 42
0.0099746379722787
 10
-13064.661373631292
 20
252.89363217381467
 10
-13064.722921671451
 20
252.87535029518676
 42
0.0191613675866551
 10
-13065.058906133976
 20
252.76137291489681
 10
-13065.146965906719
 20
252.72768600457329
 42
0.02052740801449
 10
-13065.532272678614
 20
252.56185759674918
 10
-13065.589921960605
 20
252.53418963217203
 42
0.0181256912229505
 10
-13065.848198901262
 20
252.39850581319899
 10
-13065.901154284616
 20
252.36818819996122
 42
0.0140709242437153
 10
-13066.046109219205
 20
252.27969352654986
 10
-13066.072358087784
 20
252.26263670786113
 42
0.0086667884410331
 10
-13066.161284249367
 20
252.20263403995159
 42
0.0036408191904868
 10
-13066.248717487313
 20
252.14045318222193
 10
-13066.283944361869
 20
252.11501223624646
 42
0.0052260781225035
 10
-13066.440173059109
 20
251.99967984972503
 10
-13066.456379915518
 20
251.98745173899408
 42
0.005002443593709
 10
-13066.64238325859
 20
251.84416917072335
 10
-13066.657701415093
 20
251.83212314828609
 42
0.0136138710312822
 10
-13066.868142683425
 20
251.65715664336651
 10
-13066.901810559211
 20
251.62757767065852
 42
0.0172815186900985
 10
-13067.166214100864
 20
251.37858099804603
 10
-13067.168776446717
 20
251.37599518088803
 42
0.0189403858003474
 10
-13067.419358245294
 20
251.10318991608455
 10
-13067.451989738809
 20
251.06484598461174
 42
0.0185044199502268
 10
-13067.643946177812
 20
250.82159740346367
 42
0.008856524388957
 10
-13067.822406284402
 20
250.56808098336919
 10
-13067.831584264088
 20
250.55453960355362
 42
0.0157195347247121
 10
-13068.014804870449
 20
250.26501739419379
 10
-13068.060887812362
 20
250.18686519720401
 42
0.0095451879788105
 10
-13068.225973362492
 20
249.89427055486055
 10
-13068.237121281409
 20
249.87359988275406
 42
0.0100351706205107
 10
-13068.369165030581
 20
249.61654432223781
 42
0.0086935915426371
 10
-13068.491496182385
 20
249.35471117680723
 10
-13068.494816923789
 20
249.34726885386158
 42
0.0072580174852574
 10
-13068.615163375733
 20
249.06667686228369
 10
-13068.618425009041
 20
249.05875683626061
 42
0.0060005122607417
 10
-13068.737625677366
 20
248.75914716569807
 10
-13068.740836655725
 20
248.75078563775071
 42
0.0049017787001833
 10
-13068.859736814631
 20
248.43185665701176
 10
-13068.862902620973
 20
248.42310371991596
 42
0.0039415167664308
 10
-13068.982338899132
 20
248.08456165720014
 10
-13068.98547000168
 20
248.07545845662662
 42
0.003103583876673
 10
-13069.106274787373
 20
247.71701859485722
 10
-13069.109384831905
 20
247.7075979734783
 42
0.002507074715686
 10
-13069.23228618314
 20
247.32895075678431
 10
-13069.269580079646
 20
247.21205909128139
 42
0.0029081910279657
 10
-13069.461598377417
 20
246.5978954331207
 10
-13069.502401545975
 20
246.46467219071383
 42
0.0009266453724553
 10
-13069.770818920255
 20
245.58244773090294
 10
-13069.791706392793
 20
245.51333585200373
 42
-0.0005809993670846
 10
-13070.069043073519
 20
244.59952774491546
 10
-13070.135324871802
 20
244.38204281272164
 42
-0.0012018708172824
 10
-13070.282309181222
 20
243.90388014823509
 10
-13070.334629033117
 20
243.73512100630805
 42
-0.0002691059526459
 10
-13070.378198513956
 20
243.59485338702734
 10
-13073.211154412245
 20
234.50569878472766
 10
-13075.029143304224
 20
234.50569878472766
 10
-13068.776893888176
 20
255.14941682125755
  0
SPLINE
  5
61
100
AcDbEntity
  8
0
370
              15
390
0
  6
Continuous
 62
               7
100
AcDbSpline
210
0.0
220
0.0
230
1.0
 70
              13
 71
               2
 72
             782
 73
             779
 74
               0
 42
0.000001
 43
0.000001
 40
0.0
 40
0.0
 40
0.0
 40
1.0
 40
1.0
 40
2.0
 40
2.0
 40
3.0
 40
3.0
 40
4.0
 40
4.0
 40
5.0
 40
5.0
 40
6.0
 40
6.0
 40
7.0
 40
7.0
 40
8.0
 40
8.0
 40
9.0
 40
9.0
 40
10.0
 40
10.0
 40
11.0
 40
11.0
 40
12.0
 40
12.0
 40
13.0
 40
13.0
 40
14.0
 40
14.0
 40
15.0
 40
15.0
 40
16.0
 40
16.0
 40
17.0
 40
17.0
 40
18.0
 40
18.0
 40
19.0
 40
19.0
 40
20.0
 40
20.0
 40
21.0
 40
21.0
 40
22.0
 40
22.0
 40
23.0
 40
23.0
 40
24.0
 40
24.0
 40
25.0
 40
25.0
 40
26.0
 40
26.0
 40
27.0
 40
27.0
 40
28.0
 40
28.0
 40
29.0
 40
29.0
 40
30.0
 40
30.0
 40
31.0
 40
31.0
 40
32.0
 40
32.0
 40
33.0
 40
33.0
 40
34.0
 40
34.0
 40
35.0
 40
35.0
 40
36.0
 40
36.0
 40
37.0
 40
37.0
 40
38.0
 40
38.0
 40
39.0
 40
39.0
 40
40.0
 40
40.0
 40
41.0
 40
41.0
 40
42.0
 40
42.0
 40
43.0
 40
43.0
 40
44.0
 40
44.0
 40
45.0
 40
45.0
 40
46.0
 40
46.0
 40
47.0
 40
47.0
 40
48.0
 40
48.0
 40
49.0
 40
49.0
 40
50.0
 40
50.0
 40
51.0
 40
51.0
 40
52.0
 40
52.0
 40
53.0
 40
53.0
 40
54.0
 40
54.0
 40
55.0
 40
55.0
 40
56.0
 40
56.0
 40
57.0
 40
57.0
 40
58.0
 40
58.0
 40
59.0
 40
59.0
 40
60.0
 40
60.0
 40
61.0
 40
61.0
 40
62.0
 40
62.0
 40
63.0
 40
63.0
 40
64.0
 40
64.0
 40
65.0
 40
65.0
 40
66.0
 40
66.0
 40
67.0
 40
67.0
 40
68.0
 40
68.0
 40
69.0
 40
69.0
 40
70.0
 40
70.0
 40
71.0
 40
71.0
 40
72.0
 40
72.0
 40
73.0
 40
73.0
 40
74.0
 40
74.0
 40
75.0
 40
75.0
 40
76.0
 40
76.0
 40
77.0
 40
77.0
 40
78.0
 40
78.0
 40
79.0
 40
79.0
 40
80.0
 40
80.0
 40
81.0
 40
81.0
 40
82.0
 40
82.0
 40
83.0
 40
83.0
 40
84.0
 40
84.0
 40
85.0
 40
85.0
 40
86.0
 40
86.0
 40
87.0
 40
87.0
 40
88.0
 40
88.0
 40
89.0
 40
89.0
 40
90.0
 40
90.0
 40
91.0
 40
91.0
 40
92.0
 40
92.0
 40
93.0
 40
93.0
 40
94.0
 40
94.0
 40
95.0
 40
95.0
 40
96.0
 40
96.0
 40
97.0
 40
97.0
 40
98.0
 40
98.0
 40
99.0
 40
99.0
 40
100.0
 40
100.0
 40
101.0
 40
101.0
 40
102.0
 40
102.0
 40
103.0
 40
103.0
 40
104.0
 40
104.0
 40
105.0
 40
105.0
 40
106.0
 40
106.0
 40
107.0
 40
107.0
 40
108.0
 40
108.0
 40
109.0
 40
109.0
 40
110.0
 40
110.0
 40
111.0
 40
111.0
 40
112.0
 40
112.0
 40
113.0
 40
113.0
 40
114.0
 40
114.0
 40
115.0
 40
115.0
 40
116.0
 40
116.0
 40
117.0
 40
117.0
 40
118.0
 40
118.0
 40
119.0
 40
119.0
 40
120.0
 40
120.0
 40
121.0
 40
121.0
 40
122.0
 40
122.0
 40
123.0
 40
123.0
 40
124.0
 40
124.0
 40
125.0
 40
125.0
 40
126.0
 40
126.0
 40
127.0
 40
127.0
 40
128.0
 40
128.0
 40
129.0
 40
129.0
 40
130.0
 40
130.0
 40
131.0
 40
131.0
 40
132.0
 40
132.0
 40
133.0
 40
133.0
 40
134.0
 40
134.0
 40
135.0
 40
135.0
 40
136.0
 40
136.0
 40
137.0
 40
137.0
 40
138.0
 40
138.0
 40
139.0
 40
139.0
 40
140.0
 40
140.0
 40
141.0
 40
141.0
 40
142.0
 40
142.0
 40
143.0
 40
143.0
 40
144.0
 40
144.0
 40
145.0
 40
145.0
 40
146.0
 40
146.0
 40
147.0
 40
147.0
 40
148.0
 40
148.0
 40
149.0
 40
149.0
 40
150.0
 40
150.0
 40
151.0
 40
151.0
 40
152.0
 40
152.0
 40
153.0
 40
153.0
 40
154.0
 40
154.0
 40
155.0
 40
155.0
 40
156.0
 40
156.0
 40
157.0
 40
157.0
 40
158.0
 40
158.0
 40
159.0
 40
159.0
 40
160.0
 40
160.0
 40
161.0
 40
161.0
 40
162.0
 40
162.0
 40
163.0
 40
163.0
 40
164.0
 40
164.0
 40
165.0
 40
165.0
 40
166.0
 40
166.0
 40
167.0
 40
167.0
 40
168.0
 40
168.0
 40
169.0
 40
169.0
 40
170.0
 40
170.0
 40
171.0
 40
171.0
 40
172.0
 40
172.0
 40
173.0
 40
173.0
 40
174.0
 40
174.0
 40
175.0
 40
175.0
 40
176.0
 40
176.0
 40
177.0
 40
177.0
 40
178.0
 40
178.0
 40
179.0
 40
179.0
 40
180.0
 40
180.0
 40
181.0
 40
181.0
 40
182.0
 40
182.0
 40
183.0
 40
183.0
 40
184.0
 40
184.0
 40
185.0
 40
185.0
 40
186.0
 40
186.0
 40
187.0
 40
187.0
 40
188.0
 40
188.0
 40
189.0
 40
189.0
 40
190.0
 40
190.0
 40
191.0
 40
191.0
 40
192.0
 40
192.0
 40
193.0
 40
193.0
 40
194.0
 40
194.0
 40
195.0
 40
195.0
 40
196.0
 40
196.0
 40
197.0
 40
197.0
 40
198.0
 40
198.0
 40
199.0
 40
199.0
 40
200.0
 40
200.0
 40
201.0
 40
201.0
 40
202.0
 40
202.0
 40
203.0
 40
203.0
 40
204.0
 40
204.0
 40
205.0
 40
205.0
 40
206.0
 40
206.0
 40
207.0
 40
207.0
 40
208.0
 40
208.0
 40
209.0
 40
209.0
 40
210.0
 40
210.0
 40
211.0
 40
211.0
 40
212.0
 40
212.0
 40
213.0
 40
213.0
 40
214.0
 40
214.0
 40
215.0
 40
215.0
 40
216.0
 40
216.0
 40
217.0
 40
217.0
 40
218.0
 40
218.0
 40
219.0
 40
219.0
 40
220.0
 40
220.0
 40
221.0
 40
221.0
 40
222.0
 40
222.0
 40
223.0
 40
223.0
 40
224.0
 40
224.0
 40
225.0
 40
225.0
 40
226.0
 40
226.0
 40
227.0
 40
227.0
 40
228.0
 40
228.0
 40
229.0
 40
229.0
 40
230.0
 40
230.0
 40
231.0
 40
231.0
 40
232.0
 40
232.0
 40
233.0
 40
233.0
 40
234.0
 40
234.0
 40
235.0
 40
235.0
 40
236.0
 40
236.0
 40
237.0
 40
237.0
 40
238.0
 40
238.0
 40
239.0
 40
239.0
 40
240.0
 40
240.0
 40
241.0
 40
241.0
 40
242.0
 40
242.0
 40
243.0
 40
243.0
 40
244.0
 40
244.0
 40
245.0
 40
245.0
 40
246.0
 40
246.0
 40
247.0
 40
247.0
 40
248.0
 40
248.0
 40
249.0
 40
249.0
 40
250.0
 40
250.0
 40
251.0
 40
251.0
 40
252.0
 40
252.0
 40
253.0
 40
253.0
 40
254.0
 40
254.0
 40
255.0
 40
255.0
 40
256.0
 40
256.0
 40
257.0
 40
257.0
 40
258.0
 40
258.0
 40
259.0
 40
259.0
 40
260.0
 40
260.0
 40
261.0
 40
261.0
 40
262.0
 40
262.0
 40
263.0
 40
263.0
 40
264.0
 40
264.0
 40
265.0
 40
265.0
 40
266.0
 40
266.0
 40
267.0
 40
267.0
 40
268.0
 40
268.0
 40
269.0
 40
269.0
 40
270.0
 40
270.0
 40
271.0
 40
271.0
 40
272.0
 40
272.0
 40
273.0
 40
273.0
 40
274.0
 40
274.0
 40
275.0
 40
275.0
 40
276.0
 40
276.0
 40
277.0
 40
277.0
 40
278.0
 40
278.0
 40
279.0
 40
279.0
 40
280.0
 40
280.0
 40
281.0
 40
281.0
 40
282.0
 40
282.0
 40
283.0
 40
283.0
 40
284.0
 40
284.0
 40
285.0
 40
285.0
 40
286.0
 40
286.0
 40
287.0
 40
287.0
 40
288.0
 40
288.0
 40
289.0
 40
289.0
 40
290.0
 40
290.0
 40
291.0
 40
291.0
 40
292.0
 40
292.0
 40
293.0
 40
293.0
 40
294.0
 40
294.0
 40
295.0
 40
295.0
 40
296.0
 40
296.0
 40
297.0
 40
297.0
 40
298.0
 40
298.0
 40
299.0
 40
299.0
 40
300.0
 40
300.0
 40
301.0
 40
301.0
 40
302.0
 40
302.0
 40
303.0
 40
303.0
 40
304.0
 40
304.0
 40
305.0
 40
305.0
 40
306.0
 40
306.0
 40
307.0
 40
307.0
 40
308.0
 40
308.0
 40
309.0
 40
309.0
 40
310.0
 40
310.0
 40
311.0
 40
311.0
 40
312.0
 40
312.0
 40
313.0
 40
313.0
 40
314.0
 40
314.0
 40
315.0
 40
315.0
 40
316.0
 40
316.0
 40
317.0
 40
317.0
 40
318.0
 40
318.0
 40
319.0
 40
319.0
 40
320.0
 40
320.0
 40
321.0
 40
321.0
 40
322.0
 40
322.0
 40
323.0
 40
323.0
 40
324.0
 40
324.0
 40
325.0
 40
325.0
 40
326.0
 40
326.0
 40
327.0
 40
327.0
 40
328.0
 40
328.0
 40
329.0
 40
329.0
 40
330.0
 40
330.0
 40
331.0
 40
331.0
 40
332.0
 40
332.0
 40
333.0
 40
333.0
 40
334.0
 40
334.0
 40
335.0
 40
335.0
 40
336.0
 40
336.0
 40
337.0
 40
337.0
 40
338.0
 40
338.0
 40
339.0
 40
339.0
 40
340.0
 40
340.0
 40
341.0
 40
341.0
 40
342.0
 40
342.0
 40
343.0
 40
343.0
 40
344.0
 40
344.0
 40
345.0
 40
345.0
 40
346.0
 40
346.0
 40
347.0
 40
347.0
 40
348.0
 40
348.0
 40
349.0
 40
349.0
 40
350.0
 40
350.0
 40
351.0
 40
351.0
 40
352.0
 40
352.0
 40
353.0
 40
353.0
 40
354.0
 40
354.0
 40
355.0
 40
355.0
 40
356.0
 40
356.0
 40
357.0
 40
357.0
 40
358.0
 40
358.0
 40
359.0
 40
359.0
 40
360.0
 40
360.0
 40
361.0
 40
361.0
 40
362.0
 40
362.0
 40
363.0
 40
363.0
 40
364.0
 40
364.0
 40
365.0
 40
365.0
 40
366.0
 40
366.0
 40
367.0
 40
367.0
 40
368.0
 40
368.0
 40
369.0
 40
369.0
 40
370.0
 40
370.0
 40
371.0
 40
371.0
 40
372.0
 40
372.0
 40
373.0
 40
373.0
 40
374.0
 40
374.0
 40
375.0
 40
375.0
 40
376.0
 40
376.0
 40
377.0
 40
377.0
 40
378.0
 40
378.0
 40
379.0
 40
379.0
 40
380.0
 40
380.0
 40
381.0
 40
381.0
 40
382.0
 40
382.0
 40
383.0
 40
383.0
 40
384.0
 40
384.0
 40
385.0
 40
385.0
 40
386.0
 40
386.0
 40
387.0
 40
387.0
 40
388.0
 40
388.0
 40
389.0
 40
389.0
 40
389.0
 10
-13058.448189437444
 20
255.16034318461993
 30
0.0
 41
1.0
 10
-13057.629765328722
 20
255.16034318461993
 30
0.0
 41
1.0
 10
-13056.811341220002
 20
255.16034318461993
 30
0.0
 41
1.0
 10
-13057.22509495552
 20
253.81771692037023
 30
0.0
 41
1.0
 10
-13057.638848691036
 20
252.47509065612053
 30
0.0
 41
1.0
 10
-13057.620509195956
 20
252.50379142889688
 30
0.0
 41
0.9999957264374561
 10
-13057.602002199166
 20
252.53238447898343
 30
0.0
 41
1.0
 10
-13057.571572874964
 20
252.5793973574589
 30
0.0
 41
1.0
 10
-13057.541143550763
 20
252.62641023593437
 30
0.0
 41
1.0
 10
-13057.461777905663
 20
252.74902904282948
 30
0.0
 41
0.9995394069081321
 10
-13057.375119514118
 20
252.86660710456266
 30
0.0
 41
1.0
 10
-13057.339362651848
 20
252.9151219971701
 30
0.0
 41
1.0
 10
-13057.303605789577
 20
252.96363688977758
 30
0.0
 41
1.0
 10
-13057.169879121766
 20
253.14507716489541
 30
0.0
 41
0.999446061714162
 10
-13057.024378640479
 20
253.31721956254285
 30
0.0
 41
1.0
 10
-13057.019990459508
 20
253.32241124292057
 30
0.0
 41
1.0
 10
-13057.015602278538
 20
253.32760292329826
 30
0.0
 41
1.0
 10
-13056.878878159199
 20
253.48936196018471
 30
0.0
 41
0.9994359394932452
 10
-13056.73160392884
 20
253.64157816135707
 30
0.0
 41
1.0
 10
-13056.729220574902
 20
253.64404149171426
 30
0.0
 41
1.0
 10
-13056.726837220964
 20
253.64650482207145
 30
0.0
 41
1.0
 10
-13056.584329698509
 20
253.7937943625019
 30
0.0
 41
0.9995293688566077
 10
-13056.433058017505
 20
253.9320675746859
 30
0.0
 41
1.0
 10
-13056.41376425825
 20
253.94970346032895
 30
0.0
 41
1.0
 10
-13056.394470498995
 20
253.96733934597199
 30
0.0
 41
1.0
 10
-13056.281786336525
 20
254.07034078684831
 30
0.0
 41
0.9997087614803055
 10
-13056.164263447568
 20
254.16778506764786
 30
0.0
 41
1.0
 10
-13056.145097374396
 20
254.18367664615371
 30
0.0
 41
1.0
 10
-13056.125931301223
 20
254.19956822465957
 30
0.0
 41
1.0
 10
-13056.046740558637
 20
254.26522934842706
 30
0.0
 41
0.9999595338691707
 10
-13055.966381287759
 20
254.32945507910074
 30
0.0
 41
1.0
 10
-13055.886022016906
 20
254.39368080975328
 30
0.0
 41
0.9999749417511087
 10
-13055.804761482632
 20
254.45676236364667
 30
0.0
 41
1.0
 10
-13055.783775336444
 20
254.47305365096807
 30
0.0
 41
1.0
 10
-13055.762789190256
 20
254.48934493828946
 30
0.0
 41
1.0
 10
-13055.678221304976
 20
254.55499394811466
 30
0.0
 41
0.9999792037125301
 10
-13055.592813705158
 20
254.61954672979471
 30
0.0
 41
1.0
 10
-13055.571988879428
 20
254.63528655191485
 30
0.0
 41
1.0
 10
-13055.551164053699
 20
254.65102637403498
 30
0.0
 41
1.0
 10
-13055.507406105618
 20
254.68409951126409
 30
0.0
 41
0.9999993374217726
 10
-13055.463724419245
 20
254.71727330686235
 30
0.0
 41
1.0
 10
-13055.420042733082
 20
254.75044710230179
 30
0.0
 41
0.9999160953817545
 10
-13055.375516322178
 20
254.78247816748751
 30
0.0
 41
1.0
 10
-13055.342694434759
 20
254.80608932307098
 30
0.0
 41
1.0
 10
-13055.309872547343
 20
254.82970047865444
 30
0.0
 41
1.0
 10
-13055.19970236159
 20
254.90895385502105
 30
0.0
 41
0.9980964527224947
 10
-13055.080613368093
 20
254.97404132787378
 30
0.0
 41
1.0
 10
-13055.043580761161
 20
254.99428130746952
 30
0.0
 41
1.0
 10
-13055.006548154228
 20
255.01452128706524
 30
0.0
 41
1.0
 10
-13054.827221140955
 20
255.1125315377659
 30
0.0
 41
0.9984572810574466
 10
-13054.638132574597
 20
255.19005379911221
 30
0.0
 41
1.0
 10
-13054.634486305196
 20
255.19154869145166
 30
0.0
 41
1.0
 10
-13054.630840035798
 20
255.19304358379111
 30
0.0
 41
1.0
 10
-13054.449044008239
 20
255.26757606045848
 30
0.0
 41
0.9987838528032246
 10
-13054.260791349678
 20
255.32384170062437
 30
0.0
 41
1.0
 10
-13054.256553400483
 20
255.32510835431356
 30
0.0
 41
1.0
 10
-13054.252315451287
 20
255.32637500800271
 30
0.0
 41
1.0
 10
-13054.072538691122
 20
255.38010734079018
 30
0.0
 41
0.9990652816205703
 10
-13053.888792759402
 20
255.41811102033216
 30
0.0
 41
1.0
 10
-13053.883604358367
 20
255.41918412343944
 30
0.0
 41
1.0
 10
-13053.878415957332
 20
255.42025722654674
 30
0.0
 41
1.0
 10
-13053.705046827672
 20
255.45611469987676
 30
0.0
 41
0.9992909934269636
 10
-13053.529471061229
 20
255.47882513234072
 30
0.0
 41
1.0
 10
-13053.35389529476
 20
255.50153556480805
 30
0.0
 41
0.9994553539448849
 10
-13053.177203861682
 20
255.51261486901322
 30
0.0
 41
1.0
 10
-13053.141769453883
 20
255.51483675706123
 30
0.0
 41
1.0
 10
-13053.106335046083
 20
255.51705864510927
 30
0.0
 41
1.0
 10
-13052.940109279505
 20
255.52748170752088
 30
0.0
 41
0.9990928098293235
 10
-13052.773599487613
 20
255.52372206628627
 30
0.0
 41
1.0
 10
-13052.735037652343
 20
255.52285137475332
 30
0.0
 41
1.0
 10
-13052.696475817072
 20
255.52198068322036
 30
0.0
 41
1.0
 10
-13052.607089695708
 20
255.51996242505192
 30
0.0
 41
0.9998382089204358
 10
-13052.517834012924
 20
255.51473029852366
 30
0.0
 41
1.0
 10
-13052.517404106708
 20
255.51470509762157
 30
0.0
 41
1.0
 10
-13052.516974200491
 20
255.51467989671951
 30
0.0
 41
1.0
 10
-13052.428578330158
 20
255.50949817199674
 30
0.0
 41
0.9997558016759538
 10
-13052.340497752939
 20
255.50041565662912
 30
0.0
 41
1.0
 10
-13052.340021614509
 20
255.50036655914641
 30
0.0
 41
1.0
 10
-13052.339545476078
 20
255.50031746166368
 30
0.0
 41
1.0
 10
-13052.252417175734
 20
255.4913331412628
 30
0.0
 41
0.999656514417971
 10
-13052.165879322394
 20
255.47779583457361
 30
0.0
 41
1.0
 10
-13052.165413397011
 20
255.47772294884135
 30
0.0
 41
1.0
 10
-13052.164947471627
 20
255.47765006310908
 30
0.0
 41
1.0
 10
-13052.07934146904
 20
255.4642585278815
 30
0.0
 41
0.9995321806869624
 10
-13051.994714388726
 20
255.44565803945534
 30
0.0
 41
1.0
 10
-13051.994325194155
 20
255.44557249698983
 30
0.0
 41
1.0
 10
-13051.993935999586
 20
255.44548695452434
 30
0.0
 41
1.0
 10
-13051.910087308388
 20
255.42705755102378
 30
0.0
 41
0.9993819199219349
 10
-13051.827740774201
 20
255.40278216776539
 30
0.0
 41
1.0
 10
-13051.827502340702
 20
255.40271187865596
 30
0.0
 41
1.0
 10
-13051.827263907204
 20
255.40264158954653
 30
0.0
 41
1.0
 10
-13051.745394239999
 20
255.378506784503
 30
0.0
 41
0.9992088568505748
 10
-13051.665701721016
 20
255.34794154871031
 30
0.0
 41
1.0
 10
-13051.586020730136
 20
255.31738194797609
 30
0.0
 41
0.9990226101773987
 10
-13051.509350060231
 20
255.27990451636254
 30
0.0
 41
1.0
 10
-13051.432690918433
 20
255.24243271980922
 30
0.0
 41
0.9988424273970085
 10
-13051.359987291225
 20
255.19776794455916
 30
0.0
 41
1.0
 10
-13051.359719582844
 20
255.19760348048544
 30
0.0
 41
1.0
 10
-13051.359451874461
 20
255.19743901641175
 30
0.0
 41
1.0
 10
-13051.286212830481
 20
255.15244531300698
 30
0.0
 41
0.9986928844497248
 10
-13051.217949963771
 20
255.10020957872828
 30
0.0
 41
1.0
 10
-13051.217368671554
 20
255.09976476550361
 30
0.0
 41
1.0
 10
-13051.216787379335
 20
255.09931995227896
 30
0.0
 41
1.0
 10
-13051.14736192819
 20
255.04619459155248
 30
0.0
 41
0.9986007262277911
 10
-13051.083935758425
 20
254.98603382186047
 30
0.0
 41
1.0
 10
-13051.083041342961
 20
254.98518545402015
 30
0.0
 41
1.0
 10
-13051.0821469275
 20
254.98433708617983
 30
0.0
 41
1.0
 10
-13051.016931926819
 20
254.92247958081737
 30
0.0
 41
0.9985581491374111
 10
-13050.958724315115
 20
254.85398709054186
 30
0.0
 41
1.0
 10
-13050.949465861519
 20
254.84309273284146
 30
0.0
 41
1.0
 10
-13050.940207407924
 20
254.83219837514105
 30
0.0
 41
1.0
 10
-13050.863482889028
 20
254.74191716946052
 30
0.0
 41
0.9970460233524028
 10
-13050.801490987868
 20
254.64095008527511
 30
0.0
 41
1.0
 10
-13050.787021622784
 20
254.61738362618772
 30
0.0
 41
1.0
 10
-13050.7725522577
 20
254.59381716710033
 30
0.0
 41
1.0
 10
-13050.732815557692
 20
254.52909744307692
 30
0.0
 41
0.9988468816638145
 10
-13050.699469186948
 20
254.46086499066246
 30
0.0
 41
1.0
 10
-13050.692433164466
 20
254.44646806954651
 30
0.0
 41
1.0
 10
-13050.685397141986
 20
254.43207114843057
 30
0.0
 41
1.0
 10
-13050.66612281621
 20
254.39263253826567
 30
0.0
 41
0.9998431189998176
 10
-13050.648257488701
 20
254.35253598379404
 30
0.0
 41
1.0
 10
-13050.630392160991
 20
254.31243942886877
 30
0.0
 41
0.9999989989948407
 10
-13050.612413437246
 20
254.27239359056509
 30
0.0
 41
1.0
 10
-13050.606241125923
 20
254.25864537435467
 30
0.0
 41
1.0
 10
-13050.600068814598
 20
254.24489715814423
 30
0.0
 41
1.0
 10
-13050.569745467976
 20
254.17735488690894
 30
0.0
 41
0.9998790356322488
 10
-13050.541537587829
 20
254.10890213495372
 30
0.0
 41
1.0
 10
-13050.534702406523
 20
254.09231503347428
 30
0.0
 41
1.0
 10
-13050.527867225219
 20
254.07572793199481
 30
0.0
 41
1.0
 10
-13050.504309562872
 20
254.01855997718349
 30
0.0
 41
0.9998227574566075
 10
-13050.482920814509
 20
253.96054566898022
 30
0.0
 41
1.0
 10
-13050.461532066123
 20
253.90253136070768
 30
0.0
 41
0.9996797971047033
 10
-13050.443105781167
 20
253.84350924160429
 30
0.0
 41
1.0
 10
-13050.439201978439
 20
253.83100478342553
 30
0.0
 41
1.0
 10
-13050.435298175711
 20
253.81850032524676
 30
0.0
 41
1.0
 10
-13050.409064285303
 20
253.734469289804
 30
0.0
 41
0.9979274938729491
 10
-13050.393839761826
 20
253.64776493115772
 30
0.0
 41
1.0
 10
-13050.391616074567
 20
253.63510093035239
 30
0.0
 41
1.0
 10
-13050.389392387307
 20
253.62243692954706
 30
0.0
 41
1.0
 10
-13050.378462447603
 20
253.56019042222712
 30
0.0
 41
0.9994985982133037
 10
-13050.371494282423
 20
253.49737692105589
 30
0.0
 41
1.0
 10
-13050.364526117246
 20
253.43456341992757
 30
0.0
 41
0.9996372611201235
 10
-13050.360950251479
 20
253.37146584125725
 30
0.0
 41
1.0
 10
-13050.36078167399
 20
253.36849122416228
 30
0.0
 41
1.0
 10
-13050.3606130965
 20
253.36551660706732
 30
0.0
 41
1.0
 10
-13050.356700075754
 20
253.29646979420778
 30
0.0
 41
0.9997730630738582
 10
-13050.355731762265
 20
253.22731897016089
 30
0.0
 41
1.0
 10
-13050.355674655848
 20
253.22324079103214
 30
0.0
 41
1.0
 10
-13050.35561754943
 20
253.21916261190336
 30
0.0
 41
1.0
 10
-13050.354535023105
 20
253.14185542962508
 30
0.0
 41
0.9998772614070349
 10
-13050.355875109835
 20
253.0645522831006
 30
0.0
 41
1.0
 10
-13050.355964373035
 20
253.05940311922592
 30
0.0
 41
1.0
 10
-13050.356053636235
 20
253.05425395535121
 30
0.0
 41
1.0
 10
-13050.357572249366
 20
252.96665248105984
 30
0.0
 41
0.9999415567327418
 10
-13050.360984559615
 20
252.87910431932821
 30
0.0
 41
1.0
 10
-13050.361225880288
 20
252.87291285964773
 30
0.0
 41
1.0
 10
-13050.361467200961
 20
252.86672139996722
 30
0.0
 41
1.0
 10
-13050.365362152548
 20
252.76679031897237
 30
0.0
 41
0.9999716810420184
 10
-13050.370760735659
 20
252.6669291808997
 30
0.0
 41
1.0
 10
-13050.373973534453
 20
252.60749993111421
 30
0.0
 41
1.0
 10
-13050.377186333249
 20
252.54807068132871
 30
0.0
 41
1.0
 10
-13050.385260242403
 20
252.39872228001732
 30
0.0
 41
0.9999819129909506
 10
-13050.395130034021
 20
252.24948180228171
 30
0.0
 41
1.0
 10
-13050.404999825638
 20
252.10024132457033
 30
0.0
 41
1.0
 10
-13050.407439146202
 20
252.063048278721
 30
0.0
 41
1.0
 10
-13050.384740912095
 20
252.10178927651697
 30
0.0
 41
0.9999982128039359
 10
-13050.361896353119
 20
252.14044417085051
 30
0.0
 41
1.0
 10
-13050.334986793483
 20
252.18597738448477
 30
0.0
 41
1.0
 10
-13050.308077233847
 20
252.23151059811903
 30
0.0
 41
1.0
 10
-13050.231413555317
 20
252.36123192019659
 30
0.0
 41
0.9998609190057284
 10
-13050.150466242461
 20
252.48832430211422
 30
0.0
 41
1.0
 10
-13050.120817920979
 20
252.53487403507322
 30
0.0
 41
1.0
 10
-13050.091169599496
 20
252.58142376803221
 30
0.0
 41
1.0
 10
-13050.008897379263
 20
252.71059633802128
 30
0.0
 41
0.9999067609733435
 10
-13049.923128369795
 20
252.83747402746883
 30
0.0
 41
1.0
 10
-13049.920723666608
 20
252.8410312935053
 30
0.0
 41
1.0
 10
-13049.918318963419
 20
252.84458855954176
 30
0.0
 41
1.0
 10
-13049.837359360346
 20
252.96435171688836
 30
0.0
 41
0.9998784952150058
 10
-13049.752705750649
 20
253.08153293361886
 30
0.0
 41
1.0
 10
-13049.668052140994
 20
253.19871415029218
 30
0.0
 41
0.9998532968281717
 10
-13049.579434520179
 20
253.31292705875387
 30
0.0
 41
1.0
 10
-13049.559472731176
 20
253.3386543797879
 30
0.0
 41
1.0
 10
-13049.539510942175
 20
253.36438170082195
 30
0.0
 41
1.0
 10
-13049.421026892414
 20
253.51708731179528
 30
0.0
 41
0.9991551975794055
 10
-13049.290402442781
 20
253.65954687389035
 30
0.0
 41
1.0
 10
-13049.286892826804
 20
253.66337447551103
 30
0.0
 41
1.0
 10
-13049.283383210828
 20
253.66720207713169
 30
0.0
 41
1.0
 10
-13049.15977799316
 20
253.80200643596979
 30
0.0
 41
0.9997418144180875
 10
-13049.030175853455
 20
253.93105584658633
 30
0.0
 41
1.0
 10
-13048.90057371376
 20
254.06010525719651
 30
0.0
 41
0.998923820463011
 10
-13048.759571165518
 20
254.17659021922643
 30
0.0
 41
1.0
 10
-13048.714323487351
 20
254.2139702108567
 30
0.0
 41
1.0
 10
-13048.669075809186
 20
254.25135020248698
 30
0.0
 41
1.0
 10
-13048.528835751986
 20
254.36720525575879
 30
0.0
 41
0.9990825084097148
 10
-13048.3791958194
 20
254.47063425357908
 30
0.0
 41
1.0
 10
-13048.369150455324
 20
254.47757746667111
 30
0.0
 41
1.0
 10
-13048.359105091249
 20
254.48452067976314
 30
0.0
 41
1.0
 10
-13048.229555886761
 20
254.57406325143393
 30
0.0
 41
0.9998164899827433
 10
-13048.096671683419
 20
254.65857749292843
 30
0.0
 41
1.0
 10
-13048.084826122906
 20
254.6661112594461
 30
0.0
 41
1.0
 10
-13048.072980562392
 20
254.67364502596376
 30
0.0
 41
1.0
 10
-13047.963787480045
 20
254.74309173444323
 30
0.0
 41
0.9997473449132713
 10
-13047.851583522794
 20
254.80756069226049
 30
0.0
 41
1.0
 10
-13047.739379565512
 20
254.87202965009374
 30
0.0
 41
0.9999327861144688
 10
-13047.625710954751
 20
254.93387964177404
 30
0.0
 41
1.0
 10
-13047.625158952205
 20
254.934180000445
 30
0.0
 41
1.0
 10
-13047.624606949659
 20
254.93448035911592
 30
0.0
 41
1.0
 10
-13047.509834333772
 20
254.99693106815715
 30
0.0
 41
0.9996956420482965
 10
-13047.392121007944
 20
255.05364453512519
 30
0.0
 41
1.0
 10
-13047.361680603028
 20
255.06831051186671
 30
0.0
 41
1.0
 10
-13047.331240198111
 20
255.08297648860824
 30
0.0
 41
1.0
 10
-13047.228263091374
 20
255.13259014704829
 30
0.0
 41
0.9998070570175851
 10
-13047.123416702465
 20
255.17812073393486
 30
0.0
 41
1.0
 10
-13047.018570313534
 20
255.22365132083209
 30
0.0
 41
0.9997827436146614
 10
-13046.911917376898
 20
255.26477249215384
 30
0.0
 41
1.0
 10
-13046.892694527274
 20
255.27218406578316
 30
0.0
 41
1.0
 10
-13046.873471677651
 20
255.27959563941249
 30
0.0
 41
1.0
 10
-13046.72837304178
 20
255.33553995798835
 30
0.0
 41
0.9988031841976152
 10
-13046.578502679171
 20
255.37704002215733
 30
0.0
 41
1.0
 10
-13046.553585430804
 20
255.38393976796499
 30
0.0
 41
1.0
 10
-13046.528668182438
 20
255.39083951377268
 30
0.0
 41
1.0
 10
-13046.361398156796
 20
255.43715765617878
 30
0.0
 41
0.9984748040548317
 10
-13046.190041248152
 20
255.46475188844238
 30
0.0
 41
1.0
 10
-13046.185302111899
 20
255.46551504895638
 30
0.0
 41
1.0
 10
-13046.180562975647
 20
255.4662782094704
 30
0.0
 41
1.0
 10
-13046.018684339502
 20
255.49234612070782
 30
0.0
 41
0.9984436495478219
 10
-13045.854909595777
 20
255.50022407452593
 30
0.0
 41
1.0
 10
-13045.833212387644
 20
255.50126776172564
 30
0.0
 41
1.0
 10
-13045.811515179512
 20
255.50231144892535
 30
0.0
 41
1.0
 10
-13045.691134852063
 20
255.50810202834512
 30
0.0
 41
0.9987954789333408
 10
-13045.570766607143
 20
255.50206550060238
 30
0.0
 41
1.0
 10
-13045.550801814654
 20
255.50106425626402
 30
0.0
 41
1.0
 10
-13045.530837022163
 20
255.50006301192565
 30
0.0
 41
1.0
 10
-13045.450398362223
 20
255.49602897285942
 30
0.0
 41
0.9997941595877299
 10
-13045.370189584137
 20
255.48873490693904
 30
0.0
 41
1.0
 10
-13045.289980806037
 20
255.48144084101733
 30
0.0
 41
0.999858946623796
 10
-13045.210062259188
 20
255.47145698656794
 30
0.0
 41
1.0
 10
-13045.17765605738
 20
255.4674086296487
 30
0.0
 41
1.0
 10
-13045.145249855572
 20
255.46336027272946
 30
0.0
 41
1.0
 10
-13045.00051890511
 20
255.44527970444207
 30
0.0
 41
0.9993495063250395
 10
-13044.857467661332
 20
255.41681399469849
 30
0.0
 41
1.0
 10
-13044.824533964184
 20
255.41026053148443
 30
0.0
 41
1.0
 10
-13044.791600267035
 20
255.40370706827036
 30
0.0
 41
1.0
 10
-13044.682306443839
 20
255.38195873413827
 30
0.0
 41
0.9996788715558276
 10
-13044.57425487187
 20
255.35470093477124
 30
0.0
 41
1.0
 10
-13044.572191869322
 20
255.35418050819595
 30
0.0
 41
1.0
 10
-13044.570128866773
 20
255.35366008162069
 30
0.0
 41
1.0
 10
-13044.4662032999
 20
255.32744313540385
 30
0.0
 41
0.9995480654494122
 10
-13044.364041064684
 20
255.29502817878381
 30
0.0
 41
1.0
 10
-13044.362351422558
 20
255.29449207387097
 30
0.0
 41
1.0
 10
-13044.360661780433
 20
255.29395596895816
 30
0.0
 41
1.0
 10
-13044.261878829469
 20
255.26261322216595
 30
0.0
 41
0.9993867959452106
 10
-13044.165531671013
 20
255.22443385286965
 30
0.0
 41
1.0
 10
-13044.164288721924
 20
255.22394131097167
 30
0.0
 41
1.0
 10
-13044.163045772835
 20
255.22344876907368
 30
0.0
 41
1.0
 10
-13044.069184512557
 20
255.18625448357406
 30
0.0
 41
0.999205025652247
 10
-13043.978584837536
 20
255.14170058434115
 30
0.0
 41
1.0
 10
-13043.977850154826
 20
255.14133929188171
 30
0.0
 41
1.0
 10
-13043.977115472117
 20
255.14097799942226
 30
0.0
 41
1.0
 10
-13043.887985162499
 20
255.09714668510097
 30
0.0
 41
0.9990222350739056
 10
-13043.80307510111
 20
255.04561341740407
 30
0.0
 41
1.0
 10
-13043.802891215833
 20
255.04550181450344
 30
0.0
 41
1.0
 10
-13043.802707330558
 20
255.04539021160284
 30
0.0
 41
1.0
 10
-13043.718165039727
 20
254.9940801497132
 30
0.0
 41
0.9988642743804393
 10
-13043.638890505097
 20
254.93495596218054
 30
0.0
 41
1.0
 10
-13043.55961597048
 20
254.87583177465854
 30
0.0
 41
0.9987681233305823
 10
-13043.486592186209
 20
254.80914108326033
 30
0.0
 41
1.0
 10
-13043.486263258241
 20
254.80884068204324
 30
0.0
 41
1.0
 10
-13043.485934330271
 20
254.80854028082615
 30
0.0
 41
1.0
 10
-13043.412252690065
 20
254.74124878699891
 30
0.0
 41
0.9987496570902199
 10
-13043.345658884735
 20
254.66693597291035
 30
0.0
 41
1.0
 10
-13043.344886714975
 20
254.66607429955241
 30
0.0
 41
1.0
 10
-13043.344114545214
 20
254.66521262619449
 30
0.0
 41
1.0
 10
-13043.275976400353
 20
254.58917646537429
 30
0.0
 41
0.998814766983157
 10
-13043.21555414612
 20
254.50687545852171
 30
0.0
 41
1.0
 10
-13043.214434820053
 20
254.50535082718312
 30
0.0
 41
1.0
 10
-13043.213315493986
 20
254.50382619584457
 30
0.0
 41
1.0
 10
-13043.150654587602
 20
254.41847592629136
 30
0.0
 41
0.9989452636220046
 10
-13043.096087674636
 20
254.32773723712597
 30
0.0
 41
1.0
 10
-13043.094738948554
 20
254.32549445610644
 30
0.0
 41
1.0
 10
-13043.093390222471
 20
254.32325167508691
 30
0.0
 41
1.0
 10
-13043.036125857338
 20
254.22802742387242
 30
0.0
 41
0.9991046436071855
 10
-13042.987116644012
 20
254.1283029908366
 30
0.0
 41
1.0
 10
-13042.985652782425
 20
254.12532431077142
 30
0.0
 41
1.0
 10
-13042.984188920838
 20
254.12234563070626
 30
0.0
 41
1.0
 10
-13042.93225198433
 20
254.01666383751689
 30
0.0
 41
0.9992763831103647
 10
-13042.888498855766
 20
253.90733977553916
 30
0.0
 41
1.0
 10
-13042.887019586111
 20
253.90364358802594
 30
0.0
 41
1.0
 10
-13042.885540316456
 20
253.8999474005127
 30
0.0
 41
1.0
 10
-13042.838828648575
 20
253.78323096349249
 30
0.0
 41
0.999416347288384
 10
-13042.800195617383
 20
253.66359737502719
 30
0.0
 41
1.0
 10
-13042.798957465131
 20
253.65976323122703
 30
0.0
 41
1.0
 10
-13042.797719312879
 20
253.65592908742684
 30
0.0
 41
1.0
 10
-13042.757835751869
 20
253.5324230259672
 30
0.0
 41
0.9997268055893408
 10
-13042.723767695959
 20
253.40718799403089
 30
0.0
 41
1.0
 10
-13042.722837515688
 20
253.40376862791703
 30
0.0
 41
1.0
 10
-13042.721907335417
 20
253.40034926180314
 30
0.0
 41
1.0
 10
-13042.689699640046
 20
253.28195296207622
 30
0.0
 41
0.9996701319002546
 10
-13042.663614023277
 20
253.16205900881675
 30
0.0
 41
1.0
 10
-13042.637528406502
 20
253.04216505552401
 30
0.0
 41
0.9995785451110344
 10
-13042.618444829159
 20
252.92095929445816
 30
0.0
 41
1.0
 10
-13042.614225046989
 20
252.89415813972968
 30
0.0
 41
1.0
 10
-13042.610005264822
 20
252.86735698500121
 30
0.0
 41
1.0
 10
-13042.583430288882
 20
252.69857101129341
 30
0.0
 41
0.9979925101214852
 10
-13042.578404702956
 20
252.52777968319697
 30
0.0
 41
1.0
 10
-13042.577579890531
 20
252.49974895971991
 30
0.0
 41
1.0
 10
-13042.576755078107
 20
252.47171823624288
 30
0.0
 41
1.0
 10
-13042.57337911703
 20
252.35698835510993
 30
0.0
 41
0.9995314902261664
 10
-13042.577029309168
 20
252.24226687135331
 30
0.0
 41
1.0
 10
-13042.580679501309
 20
252.12754538757127
 30
0.0
 41
0.9996245486948482
 10
-13042.590608596442
 20
252.01319611641679
 30
0.0
 41
1.0
 10
-13042.590771644434
 20
252.01131836031186
 30
0.0
 41
1.0
 10
-13042.590934692425
 20
252.00944060420693
 30
0.0
 41
1.0
 10
-13042.601189883551
 20
251.89133582076363
 30
0.0
 41
0.9997286095004079
 10
-13042.616935207127
 20
251.77383691182345
 30
0.0
 41
1.0
 10
-13042.617328699771
 20
251.77090048716872
 30
0.0
 41
1.0
 10
-13042.617722192415
 20
251.76796406251401
 30
0.0
 41
1.0
 10
-13042.634254501289
 20
251.6445923042177
 30
0.0
 41
0.9998265533968562
 10
-13042.655369960021
 20
251.52192182943489
 30
0.0
 41
1.0
 10
-13042.656046502158
 20
251.51799145092349
 30
0.0
 41
1.0
 10
-13042.656723044296
 20
251.51406107241212
 30
0.0
 41
1.0
 10
-13042.679191587313
 20
251.38352984056729
 30
0.0
 41
0.9999022530852316
 10
-13042.70530105193
 20
251.25367787189126
 30
0.0
 41
1.0
 10
-13042.706279693088
 20
251.24881072954344
 30
0.0
 41
1.0
 10
-13042.707258334245
 20
251.24394358719564
 30
0.0
 41
1.0
 10
-13042.735325081183
 20
251.1043573337937
 30
0.0
 41
0.9999524761937462
 10
-13042.766108050017
 20
250.96534484063116
 30
0.0
 41
1.0
 10
-13042.767384157192
 20
250.95958208132214
 30
0.0
 41
1.0
 10
-13042.76866026437
 20
250.95381932201315
 30
0.0
 41
1.0
 10
-13042.801995447533
 20
250.80328131034057
 30
0.0
 41
0.9999813588727894
 10
-13042.837166448311
 20
250.65316159776674
 30
0.0
 41
1.0
 10
-13042.838720373788
 20
250.64652900725503
 30
0.0
 41
1.0
 10
-13042.840274299266
 20
250.63989641674334
 30
0.0
 41
1.0
 10
-13042.878553150998
 20
250.47651152313796
 30
0.0
 41
0.9999955237692719
 10
-13042.917809029006
 20
250.31335861941773
 30
0.0
 41
1.0
 10
-13042.930090664613
 20
250.26231442900388
 30
0.0
 41
1.0
 10
-13042.942372300222
 20
250.21127023859003
 30
0.0
 41
1.0
 10
-13043.006191449589
 20
249.94602895345548
 30
0.0
 41
0.9999993604494898
 10
-13043.070610396871
 20
249.68093270230636
 30
0.0
 41
1.0
 10
-13043.075329232302
 20
249.66151379473951
 30
0.0
 41
1.0
 10
-13043.080048067735
 20
249.64209488717268
 30
0.0
 41
1.0
 10
-13043.153904686027
 20
249.3381608202869
 30
0.0
 41
0.9999659914728137
 10
-13043.23276428194
 20
249.03548627362488
 30
0.0
 41
1.0
 10
-13043.237716970842
 20
249.01647713655723
 30
0.0
 41
1.0
 10
-13043.242669659741
 20
248.99746799948957
 30
0.0
 41
1.0
 10
-13043.331434633501
 20
248.65677517851969
 30
0.0
 41
0.9999441976022471
 10
-13043.427377666476
 20
248.31803375318
 30
0.0
 41
1.0
 10
-13043.44407818489
 20
248.25907004069802
 30
0.0
 41
1.0
 10
-13043.460778703302
 20
248.20010632821607
 30
0.0
 41
1.0
 10
-13043.590122773112
 20
247.74343747787296
 30
0.0
 41
0.9999625120730542
 10
-13043.727355540439
 20
247.28907694386359
 30
0.0
 41
1.0
 10
-13043.763145483459
 20
247.17058091744116
 30
0.0
 41
1.0
 10
-13043.798935426481
 20
247.05208489101872
 30
0.0
 41
1.0
 10
-13043.873455630583
 20
246.80535781270885
 30
0.0
 41
0.999979338631536
 10
-13043.951141653783
 20
246.55960917327343
 30
0.0
 41
1.0
 10
-13044.028827676921
 20
246.3138605340373
 30
0.0
 41
1.0
 10
-13044.039607235793
 20
246.27984262966265
 30
0.0
 41
1.0
 10
-13045.889980289061
 20
240.39277070719515
 30
0.0
 41
1.0
 10
-13047.740353342329
 20
234.50569878472766
 30
0.0
 41
1.0
 10
-13048.701610032353
 20
234.50569878472766
 30
0.0
 41
1.0
 10
-13049.662866722378
 20
234.50569878472766
 30
0.0
 41
1.0
 10
-13048.043921943699
 20
239.6537272865171
 30
0.0
 41
1.0
 10
-13046.424977165021
 20
244.80175578830654
 30
0.0
 41
1.0
 10
-13046.379811341867
 20
244.94578701050767
 30
0.0
 41
1.0
 10
-13046.334645518715
 20
245.08981823270881
 30
0.0
 41
1.0
 10
-13046.164341101326
 20
245.63290926195577
 30
0.0
 41
0.9999911657876858
 10
-13045.998608289628
 20
246.17741279337247
 30
0.0
 41
1.0
 10
-13045.968912346119
 20
246.27497673345198
 30
0.0
 41
1.0
 10
-13045.93921640261
 20
246.37254067353149
 30
0.0
 41
1.0
 10
-13045.832875477943
 20
246.72191632475335
 30
0.0
 41
0.9999952428183617
 10
-13045.728691888624
 20
247.07194134908571
 30
0.0
 41
1.0
 10
-13045.723632418285
 20
247.08893962338226
 30
0.0
 41
1.0
 10
-13045.718572947946
 20
247.10593789767881
 30
0.0
 41
1.0
 10
-13045.624508299301
 20
247.42196637342855
 30
0.0
 41
0.9999931687551233
 10
-13045.532782461425
 20
247.73868158670575
 30
0.0
 41
1.0
 10
-13045.527847196947
 20
247.75572229603776
 30
0.0
 41
1.0
 10
-13045.52291193247
 20
247.77276300536977
 30
0.0
 41
1.0
 10
-13045.441056623527
 20
248.05539680006174
 30
0.0
 41
0.9999893840784523
 10
-13045.361809397094
 20
248.33877292922284
 30
0.0
 41
1.0
 10
-13045.282562170647
 20
248.62214905843607
 30
0.0
 41
0.9999833980075681
 10
-13045.206585929911
 20
248.90641964143703
 30
0.0
 41
1.0
 10
-13045.197581993203
 20
248.94010851986135
 30
0.0
 41
1.0
 10
-13045.188578056495
 20
248.97379739828568
 30
0.0
 41
1.0
 10
-13045.119613507606
 20
249.23183323067559
 30
0.0
 41
0.9999233658065774
 10
-13045.057058536364
 20
249.49149738947585
 30
0.0
 41
1.0
 10
-13044.994503565144
 20
249.7511615481983
 30
0.0
 41
1.0
 10
-13044.955020146286
 20
249.91496821262444
 30
0.0
 41
1.0
 10
-13044.950041542337
 20
249.93562317437812
 30
0.0
 41
1.0
 10
-13044.945062938388
 20
249.95627813613183
 30
0.0
 41
1.0
 10
-13044.91553672746
 20
250.07877487691962
 30
0.0
 41
0.9999868670845763
 10
-13044.887267643433
 20
250.20156782269601
 30
0.0
 41
1.0
 10
-13044.88337015628
 20
250.21849741009237
 30
0.0
 41
1.0
 10
-13044.879472669127
 20
250.2354269974887
 30
0.0
 41
1.0
 10
-13044.858998559439
 20
250.32436076833244
 30
0.0
 41
0.9999778173342682
 10
-13044.839710961322
 20
250.41355938557194
 30
0.0
 41
1.0
 10
-13044.820423363182
 20
250.50275800290768
 30
0.0
 41
0.9999602692861962
 10
-13044.802729004536
 20
250.59228629142603
 30
0.0
 41
1.0
 10
-13044.799525172479
 20
250.60849674621306
 30
0.0
 41
1.0
 10
-13044.79632134042
 20
250.62470720100009
 30
0.0
 41
1.0
 10
-13044.772219317627
 20
250.74665639923688
 30
0.0
 41
0.9995617985319188
 10
-13044.755375970404
 20
250.86981814697737
 30
0.0
 41
1.0
 10
-13044.752911480504
 20
250.88783896429686
 30
0.0
 41
1.0
 10
-13044.750446990605
 20
250.90585978161636
 30
0.0
 41
1.0
 10
-13044.730163729555
 20
251.05417483132661
 30
0.0
 41
0.9991121410637882
 10
-13044.722438375966
 20
251.20367093014249
 30
0.0
 41
1.0
 10
-13044.721519585941
 20
251.22145076672211
 30
0.0
 41
1.0
 10
-13044.720600795916
 20
251.23923060330176
 30
0.0
 41
1.0
 10
-13044.714713022378
 20
251.35316702895221
 30
0.0
 41
0.998979249490629
 10
-13044.719132114496
 20
251.46716986484705
 30
0.0
 41
1.0
 10
-13044.719780086365
 20
251.48388611076717
 30
0.0
 41
1.0
 10
-13044.720428058232
 20
251.50060235668732
 30
0.0
 41
1.0
 10
-13044.723551206613
 20
251.5811727007391
 30
0.0
 41
0.9997820295393549
 10
-13044.730035203989
 20
251.66154242248945
 30
0.0
 41
1.0
 10
-13044.736519201364
 20
251.74191214423539
 30
0.0
 41
0.9998335105972972
 10
-13044.745931396876
 20
251.82199176068926
 30
0.0
 41
1.0
 10
-13044.747526321553
 20
251.83556149116941
 30
0.0
 41
1.0
 10
-13044.749121246228
 20
251.8491312216496
 30
0.0
 41
1.0
 10
-13044.761723291094
 20
251.95635029907953
 30
0.0
 41
0.9996876457879179
 10
-13044.779667203895
 20
252.06280572680745
 30
0.0
 41
1.0
 10
-13044.781898867037
 20
252.07604546202884
 30
0.0
 41
1.0
 10
-13044.784130530179
 20
252.08928519725023
 30
0.0
 41
1.0
 10
-13044.797926351601
 20
252.17113134121783
 30
0.0
 41
0.9995547496498
 10
-13044.816579673494
 20
252.25200883841489
 30
0.0
 41
1.0
 10
-13044.816953630365
 20
252.25363024911434
 30
0.0
 41
1.0
 10
-13044.817327587234
 20
252.25525165981378
 30
0.0
 41
1.0
 10
-13044.835232995387
 20
252.33288633560306
 30
0.0
 41
0.999489942717595
 10
-13044.858057904066
 20
252.40921961844049
 30
0.0
 41
1.0
 10
-13044.858516430797
 20
252.41075306819619
 30
0.0
 41
1.0
 10
-13044.858974957528
 20
252.41228651795191
 30
0.0
 41
1.0
 10
-13044.880882812737
 20
252.4855529012421
 30
0.0
 41
0.9993784877597493
 10
-13044.907898447853
 20
252.55709360643391
 30
0.0
 41
1.0
 10
-13044.908430138836
 20
252.55850158917292
 30
0.0
 41
1.0
 10
-13044.90896182982
 20
252.55990957191193
 30
0.0
 41
1.0
 10
-13044.934914082965
 20
252.62863431160969
 30
0.0
 41
0.9992430832252759
 10
-13044.966130618119
 20
252.69513346366125
 30
0.0
 41
1.0
 10
-13044.966712734167
 20
252.69637351876344
 30
0.0
 41
1.0
 10
-13044.967294850218
 20
252.69761357386565
 30
0.0
 41
1.0
 10
-13044.99734715327
 20
252.76163261571287
 30
0.0
 41
0.999078963279922
 10
-13045.032777780056
 20
252.82283922747911
 30
0.0
 41
1.0
 10
-13045.03337348624
 20
252.82386831334219
 30
0.0
 41
1.0
 10
-13045.033969192424
 20
252.82489739920524
 30
0.0
 41
1.0
 10
-13045.068208406838
 20
252.88404583923662
 30
0.0
 41
0.998887480112168
 10
-13045.107867682864
 20
252.93970555164663
 30
0.0
 41
1.0
 10
-13045.108423208932
 20
252.94048520332694
 30
0.0
 41
1.0
 10
-13045.108978735001
 20
252.94126485500729
 30
0.0
 41
1.0
 10
-13045.147526958897
 20
252.99536526406735
 30
0.0
 41
0.998676206068758
 10
-13045.191429430171
 20
253.04521897850361
 30
0.0
 41
1.0
 10
-13045.191873390504
 20
253.04572312031951
 30
0.0
 41
1.0
 10
-13045.192317350835
 20
253.0462272621354
 30
0.0
 41
1.0
 10
-13045.235331901451
 20
253.09507269294622
 30
0.0
 41
0.9984621642482495
 10
-13045.283489458227
 20
253.13885599341393
 30
0.0
 41
1.0
 10
-13045.283736092757
 20
253.13908022558977
 30
0.0
 41
1.0
 10
-13045.283982727287
 20
253.1393044577656
 30
0.0
 41
1.0
 10
-13045.331647015015
 20
253.18263929389656
 30
0.0
 41
0.9982724693833731
 10
-13045.384065646846
 20
253.22008364440273
 30
0.0
 41
1.0
 10
-13045.436484278691
 20
253.25752799492196
 30
0.0
 41
0.9981399180164368
 10
-13045.493070342096
 20
253.28831451437284
 30
0.0
 41
1.0
 10
-13045.493116004167
 20
253.2883393575255
 30
0.0
 41
1.0
 10
-13045.493161666236
 20
253.28836420067819
 30
0.0
 41
1.0
 10
-13045.549839053781
 20
253.31920040643411
 30
0.0
 41
0.9980927086834175
 10
-13045.609884404857
 20
253.34281721528998
 30
0.0
 41
1.0
 10
-13045.610324574567
 20
253.34299034116424
 30
0.0
 41
1.0
 10
-13045.610764744277
 20
253.34316346703849
 30
0.0
 41
1.0
 10
-13045.671690434772
 20
253.36712652764348
 30
0.0
 41
0.9981411356554355
 10
-13045.735078956173
 20
253.38349916914822
 30
0.0
 41
1.0
 10
-13045.735961072871
 20
253.38372701135285
 30
0.0
 41
1.0
 10
-13045.73684318957
 20
253.3839548535575
 30
0.0
 41
1.0
 10
-13045.801995944379
 20
253.40078317947643
 30
0.0
 41
0.9983031812925173
 10
-13045.868663373365
 20
253.40992254065014
 30
0.0
 41
1.0
 10
-13045.877534398769
 20
253.41113865932135
 30
0.0
 41
1.0
 10
-13045.886405424171
 20
253.41235477799259
 30
0.0
 41
1.0
 10
-13045.940755066673
 20
253.41980550798255
 30
0.0
 41
0.998388770827373
 10
-13045.99559891597
 20
253.42105018161726
 30
0.0
 41
1.0
 10
-13046.003662321187
 20
253.42123317949211
 30
0.0
 41
1.0
 10
-13046.011725726405
 20
253.42141617736695
 30
0.0
 41
1.0
 10
-13046.050442765238
 20
253.4222948552499
 30
0.0
 41
0.9998869563081506
 10
-13046.089168718467
 20
253.4220089858909
 30
0.0
 41
1.0
 10
-13046.127894671647
 20
253.42172311653229
 30
0.0
 41
0.9999972320102074
 10
-13046.166618850875
 20
253.42125501700221
 30
0.0
 41
1.0
 10
-13046.185971867457
 20
253.42102107691278
 30
0.0
 41
1.0
 10
-13046.205324884038
 20
253.42078713682338
 30
0.0
 41
1.0
 10
-13046.282755096425
 20
253.41985115711543
 30
0.0
 41
0.9997304945085201
 10
-13046.36005840265
 20
253.41532206332946
 30
0.0
 41
1.0
 10
-13046.369108044353
 20
253.41479185733954
 30
0.0
 41
1.0
 10
-13046.378157686057
 20
253.41426165134965
 30
0.0
 41
1.0
 10
-13046.473560275694
 20
253.40867214558355
 30
0.0
 41
0.9997888306417526
 10
-13046.568652611546
 20
253.39916718109473
 30
0.0
 41
1.0
 10
-13046.577373673119
 20
253.39829546646257
 30
0.0
 41
1.0
 10
-13046.586094734692
 20
253.39742375183039
 30
0.0
 41
1.0
 10
-13046.698629193676
 20
253.38617535807703
 30
0.0
 41
0.998417023819328
 10
-13046.809188341032
 20
253.36235927614069
 30
0.0
 41
1.0
 10
-13046.845569472014
 20
253.35452224033583
 30
0.0
 41
1.0
 10
-13046.881950602994
 20
253.34668520453096
 30
0.0
 41
1.0
 10
-13046.997141671416
 20
253.32187133802074
 30
0.0
 41
0.997659285420657
 10
-13047.10786983783
 20
253.28157266087226
 30
0.0
 41
1.0
 10
-13047.218598004234
 20
253.24127398372474
 30
0.0
 41
0.99932550743552
 10
-13047.326069803035
 20
253.19295708522844
 30
0.0
 41
1.0
 10
-13047.330694981953
 20
253.19087770903084
 30
0.0
 41
1.0
 10
-13047.335320160872
 20
253.18879833283324
 30
0.0
 41
1.0
 10
-13047.45204231752
 20
253.13632268193726
 30
0.0
 41
0.9976475078268284
 10
-13047.56048966183
 20
253.06837469227662
 30
0.0
 41
1.0
 10
-13047.57883205595
 20
253.05688221347188
 30
0.0
 41
1.0
 10
-13047.597174450069
 20
253.04538973466714
 30
0.0
 41
1.0
 10
-13047.681376641625
 20
252.99263261389481
 30
0.0
 41
0.9995131336411027
 10
-13047.762124356599
 20
252.93472640193227
 30
0.0
 41
1.0
 10
-13047.842872071546
 20
252.87682018998541
 30
0.0
 41
0.9995810107609865
 10
-13047.920133719266
 20
252.81433850752893
 30
0.0
 41
1.0
 10
-13047.923103750487
 20
252.81193663605652
 30
0.0
 41
1.0
 10
-13047.926073781706
 20
252.8095347645841
 30
0.0
 41
1.0
 10
-13048.009275491853
 20
252.74224933918813
 30
0.0
 41
0.9996617837956079
 10
-13048.088866178976
 20
252.67072888364041
 30
0.0
 41
1.0
 10
-13048.10099692987
 20
252.65982815063455
 30
0.0
 41
1.0
 10
-13048.113127680765
 20
252.64892741762873
 30
0.0
 41
1.0
 10
-13048.181403208146
 20
252.58757480216983
 30
0.0
 41
0.9997267750052624
 10
-13048.246736716424
 20
252.52309826564931
 30
0.0
 41
1.0
 10
-13048.312070224754
 20
252.45862172908008
 30
0.0
 41
0.9999667288953031
 10
-13048.376343167914
 20
252.39308792216926
 30
0.0
 41
1.0
 10
-13048.44517061566
 20
252.32291026344114
 30
0.0
 41
1.0
 10
-13048.513998063405
 20
252.25273260471306
 30
0.0
 41
1.0
 10
-13048.715925902099
 20
252.04684348030702
 30
0.0
 41
0.9988205335174505
 10
-13048.89693151907
 20
251.82233924825667
 30
0.0
 41
1.0
 10
-13048.927571483981
 20
251.7843359978192
 30
0.0
 41
1.0
 10
-13048.958211448891
 20
251.74633274738176
 30
0.0
 41
1.0
 10
-13049.200496995682
 20
251.44582201445888
 30
0.0
 41
0.9997077826755406
 10
-13049.427974946797
 20
251.13395222022839
 30
0.0
 41
1.0
 10
-13049.429698361921
 20
251.1315894368571
 30
0.0
 41
1.0
 10
-13049.431421777046
 20
251.12922665348583
 30
0.0
 41
1.0
 10
-13049.662346558393
 20
250.81263129253767
 30
0.0
 41
0.9989147567080348
 10
-13049.862810061268
 20
250.47592183137323
 30
0.0
 41
1.0
 10
-13049.887551206586
 20
250.43436525080131
 30
0.0
 41
1.0
 10
-13049.912292351906
 20
250.39280867022939
 30
0.0
 41
1.0
 10
-13050.067503650547
 20
250.13210728576871
 30
0.0
 41
0.9997476598182492
 10
-13050.210848638057
 20
249.86469753718552
 30
0.0
 41
1.0
 10
-13050.354193625573
 20
249.59728778858963
 30
0.0
 41
0.9996258967109786
 10
-13050.482701877512
 20
249.32243985194731
 30
0.0
 41
1.0
 10
-13050.495901786955
 20
249.29420845186723
 30
0.0
 41
1.0
 10
-13050.509101696398
 20
249.26597705178716
 30
0.0
 41
1.0
 10
-13050.649310417401
 20
248.96610465382622
 30
0.0
 41
0.999873541394645
 10
-13050.779911764117
 20
248.66192505436663
 30
0.0
 41
1.0
 10
-13050.783354592171
 20
248.65390646891791
 30
0.0
 41
1.0
 10
-13050.786797420224
 20
248.64588788346919
 30
0.0
 41
1.0
 10
-13050.910513110828
 20
248.35774545492069
 30
0.0
 41
0.9999377418859674
 10
-13051.027767913012
 20
248.06691398722398
 30
0.0
 41
1.0
 10
-13051.145022715218
 20
247.77608251947012
 30
0.0
 41
0.9999508299503367
 10
-13051.256486658629
 20
247.48298284256015
 30
0.0
 41
1.0
 10
-13051.25956742726
 20
247.47488181667953
 30
0.0
 41
1.0
 10
-13051.262648195891
 20
247.46678079079891
 30
0.0
 41
1.0
 10
-13051.380273676627
 20
247.15747906196003
 30
0.0
 41
0.9999609228438521
 10
-13051.49241227954
 20
246.84614604583038
 30
0.0
 41
1.0
 10
-13051.495368289852
 20
246.83793920552287
 30
0.0
 41
1.0
 10
-13051.498324300166
 20
246.82973236521536
 30
0.0
 41
1.0
 10
-13051.616374923713
 20
246.50198566845373
 30
0.0
 41
0.9999674607402752
 10
-13051.729122449753
 20
246.17237704854116
 30
0.0
 41
1.0
 10
-13051.780520840373
 20
246.02211785268116
 30
0.0
 41
1.0
 10
-13051.831919230994
 20
245.87185865682116
 30
0.0
 41
1.0
 10
-13051.947929837717
 20
245.53271067441864
 30
0.0
 41
0.9999287532307939
 10
-13052.055811241662
 20
245.19088993552316
 30
0.0
 41
1.0
 10
-13052.102288497861
 20
245.04362739096268
 30
0.0
 41
1.0
 10
-13052.14876575406
 20
244.89636484640221
 30
0.0
 41
1.0
 10
-13052.163692645758
 20
244.84906919614474
 30
0.0
 41
0.9999998224747021
 10
-13052.178563154363
 20
244.80175578830654
 30
0.0
 41
1.0
 10
-13053.799219291159
 20
239.6537272865171
 30
0.0
 41
1.0
 10
-13055.419875427953
 20
234.50569878472766
 30
0.0
 41
1.0
 10
-13056.325183871844
 20
234.50569878472766
 30
0.0
 41
1.0
 10
-13057.230492315735
 20
234.50569878472766
 30
0.0
 41
1.0
 10
-13055.378407904349
 20
240.39277070719515
 30
0.0
 41
1.0
 10
-13053.526323492963
 20
246.27984262966265
 30
0.0
 41
1.0
 10
-13053.516201734659
 20
246.31188584311235
 30
0.0
 41
1.0
 10
-13053.44359406581
 20
246.54218538493819
 30
0.0
 41
1.0
 10
-13053.370986396891
 20
246.77248492698402
 30
0.0
 41
0.999982568197298
 10
-13053.30110335762
 20
247.00362582224736
 30
0.0
 41
1.0
 10
-13053.252812295519
 20
247.16335040555131
 30
0.0
 41
1.0
 10
-13053.204521233418
 20
247.32307498885527
 30
0.0
 41
1.0
 10
-13053.10736888011
 20
247.64441021059974
 30
0.0
 41
0.9999672528959209
 10
-13053.015430074487
 20
247.96727575617899
 30
0.0
 41
1.0
 10
-13053.01264119081
 20
247.97706960159826
 30
0.0
 41
1.0
 10
-13053.00985230713
 20
247.9868634470175
 30
0.0
 41
1.0
 10
-13052.923491268855
 20
248.29014130179587
 30
0.0
 41
0.9999899749163305
 10
-13052.839849659329
 20
248.59418039021773
 30
0.0
 41
1.0
 10
-13052.829743740323
 20
248.63091562785746
 30
0.0
 41
1.0
 10
-13052.819637821316
 20
248.66765086549717
 30
0.0
 41
1.0
 10
-13052.756208049805
 20
248.89821947863766
 30
0.0
 41
0.9999214200504371
 10
-13052.698578621417
 20
249.13030582087947
 30
0.0
 41
1.0
 10
-13052.685812769212
 20
249.18171670637639
 30
0.0
 41
1.0
 10
-13052.673046917007
 20
249.23312759187328
 30
0.0
 41
1.0
 10
-13052.640949193014
 20
249.36239216319345
 30
0.0
 41
0.9999828681669433
 10
-13052.610366941044
 20
249.49202363755626
 30
0.0
 41
1.0
 10
-13052.579784689053
 20
249.62165511201175
 30
0.0
 41
0.9999389844475244
 10
-13052.552073700266
 20
249.75193056789379
 30
0.0
 41
1.0
 10
-13052.544935956543
 20
249.78548667174621
 30
0.0
 41
1.0
 10
-13052.537798212819
 20
249.81904277559863
 30
0.0
 41
1.0
 10
-13052.49581173659
 20
250.01643043917699
 30
0.0
 41
0.9998933699441862
 10
-13052.459607472187
 20
250.21496004693094
 30
0.0
 41
1.0
 10
-13052.458234646971
 20
250.22248806762815
 30
0.0
 41
1.0
 10
-13052.456861821755
 20
250.23001608832533
 30
0.0
 41
1.0
 10
-13052.417911906923
 20
250.44360173745599
 30
0.0
 41
0.999685030519358
 10
-13052.389728230668
 20
250.65887274286652
 30
0.0
 41
1.0
 10
-13052.387733197298
 20
250.67411109698196
 30
0.0
 41
1.0
 10
-13052.38573816393
 20
250.6893494510974
 30
0.0
 41
1.0
 10
-13052.358330301468
 20
250.89869467828157
 30
0.0
 41
0.999469793670873
 10
-13052.344605742244
 20
251.10937987364298
 30
0.0
 41
1.0
 10
-13052.344128672994
 20
251.1167033458637
 30
0.0
 41
1.0
 10
-13052.343651603744
 20
251.12402681808442
 30
0.0
 41
1.0
 10
-13052.330881183025
 20
251.32006506898324
 30
0.0
 41
0.999180489313758
 10
-13052.334009499296
 20
251.51649391894716
 30
0.0
 41
1.0
 10
-13052.334093378118
 20
251.52176072033939
 30
0.0
 41
1.0
 10
-13052.33417725694
 20
251.52702752173164
 30
0.0
 41
1.0
 10
-13052.33713781557
 20
251.71292276890023
 30
0.0
 41
0.9988448329323334
 10
-13052.357929361195
 20
251.89767535875399
 30
0.0
 41
1.0
 10
-13052.359523434898
 20
251.91184021453472
 30
0.0
 41
1.0
 10
-13052.361117508603
 20
251.92600507031548
 30
0.0
 41
1.0
 10
-13052.37872090682
 20
252.08242794859643
 30
0.0
 41
0.9985503209455222
 10
-13052.413037179118
 20
252.2360521326766
 30
0.0
 41
1.0
 10
-13052.420623171189
 20
252.27001246007575
 30
0.0
 41
1.0
 10
-13052.428209163259
 20
252.30397278747489
 30
0.0
 41
1.0
 10
-13052.447353451416
 20
252.38967631676493
 30
0.0
 41
0.9991036781367852
 10
-13052.473678313068
 20
252.47345340409083
 30
0.0
 41
1.0
 10
-13052.477660538541
 20
252.48612656665347
 30
0.0
 41
1.0
 10
-13052.481642764013
 20
252.4987997292161
 30
0.0
 41
1.0
 10
-13052.500003174735
 20
252.55723049146474
 30
0.0
 41
0.9998874504368479
 10
-13052.520108382396
 20
252.6150840936391
 30
0.0
 41
1.0
 10
-13052.540213590069
 20
252.67293769584978
 30
0.0
 41
0.9994041637545168
 10
-13052.564262203003
 20
252.72926639973539
 30
0.0
 41
1.0
 10
-13052.568458987225
 20
252.73909646421305
 30
0.0
 41
1.0
 10
-13052.572655771446
 20
252.7489265286907
 30
0.0
 41
1.0
 10
-13052.600534602447
 20
252.81422669466929
 30
0.0
 41
0.9991846840708376
 10
-13052.633590959145
 20
252.87706472596346
 30
0.0
 41
1.0
 10
-13052.634727565543
 20
252.87922534242227
 30
0.0
 41
1.0
 10
-13052.63586417194
 20
252.88138595888105
 30
0.0
 41
1.0
 10
-13052.666647315838
 20
252.93990275724528
 30
0.0
 41
0.9989253167920923
 10
-13052.702716739894
 20
252.99531768563395
 30
0.0
 41
1.0
 10
-13052.703770864568
 20
252.99693718039589
 30
0.0
 41
1.0
 10
-13052.704824989241
 20
252.9985566751578
 30
0.0
 41
1.0
 10
-13052.738786163951
 20
253.05073261402651
 30
0.0
 41
0.9986467172837492
 10
-13052.777983316586
 20
253.0990986476537
 30
0.0
 41
1.0
 10
-13052.77885744529
 20
253.10017724993617
 30
0.0
 41
1.0
 10
-13052.779731573994
 20
253.10125585221863
 30
0.0
 41
1.0
 10
-13052.817180469227
 20
253.14746468128624
 30
0.0
 41
0.9984001104269623
 10
-13052.85960719974
 20
253.18914978865212
 30
0.0
 41
1.0
 10
-13052.860194337851
 20
253.18972666353494
 30
0.0
 41
1.0
 10
-13052.860781475962
 20
253.19030353841774
 30
0.0
 41
1.0
 10
-13052.902033930257
 20
253.23083489602067
 30
0.0
 41
0.9982442159079338
 10
-13052.947790031594
 20
253.26620345728111
 30
0.0
 41
1.0
 10
-13052.94800482706
 20
253.26636948992675
 30
0.0
 41
1.0
 10
-13052.948219622524
 20
253.26653552257238
 30
0.0
 41
1.0
 10
-13052.993546132933
 20
253.30157201854411
 30
0.0
 41
0.998245006083693
 10
-13053.042697112001
 20
253.33100380157487
 30
0.0
 41
1.0
 10
-13053.091848091066
 20
253.36043558460437
 30
0.0
 41
0.998392263963598
 10
-13053.14401439723
 20
253.3841152192588
 30
0.0
 41
1.0
 10
-13053.14424127456
 20
253.38421820474207
 30
0.0
 41
1.0
 10
-13053.144468151888
 20
253.38432119022536
 30
0.0
 41
1.0
 10
-13053.197088212686
 20
253.40820679583504
 30
0.0
 41
0.9986517147159095
 10
-13053.251901185549
 20
253.42650791495774
 30
0.0
 41
1.0
 10
-13053.252579106986
 20
253.42673426139231
 30
0.0
 41
1.0
 10
-13053.253257028424
 20
253.42696060782691
 30
0.0
 41
1.0
 10
-13053.309425844151
 20
253.44571441981248
 30
0.0
 41
0.9989435598954292
 10
-13053.367079231295
 20
253.45923212204482
 30
0.0
 41
1.0
 10
-13053.368159350879
 20
253.45948537229845
 30
0.0
 41
1.0
 10
-13053.369239470463
 20
253.45973862255209
 30
0.0
 41
1.0
 10
-13053.429053096783
 20
253.47376282529441
 30
0.0
 41
0.9992249241235971
 10
-13053.489784605674
 20
253.48303816800788
 30
0.0
 41
1.0
 10
-13053.491198293965
 20
253.48325407641568
 30
0.0
 41
1.0
 10
-13053.492611982256
 20
253.4834699848235
 30
0.0
 41
1.0
 10
-13053.556170867747
 20
253.49317714435529
 30
0.0
 41
0.9994396597835794
 10
-13053.620236804274
 20
253.49861006670008
 30
0.0
 41
1.0
 10
-13053.639377471751
 20
253.50023323441872
 30
0.0
 41
1.0
 10
-13053.658518139229
 20
253.50185640213738
 30
0.0
 41
1.0
 10
-13053.760865410715
 20
253.51053565991921
 30
0.0
 41
0.9987693403125886
 10
-13053.863569034307
 20
253.50903259646773
 30
0.0
 41
1.0
 10
-13053.873823368534
 20
253.50888252469355
 30
0.0
 41
1.0
 10
-13053.884077702762
 20
253.50873245291933
 30
0.0
 41
1.0
 10
-13053.993633468941
 20
253.5071291086314
 30
0.0
 41
0.998975364496828
 10
-13054.102595468958
 20
253.49562610170676
 30
0.0
 41
1.0
 10
-13054.211557468969
 20
253.48412309478275
 30
0.0
 41
0.9983190067304456
 10
-13054.318456279932
 20
253.46008810299648
 30
0.0
 41
1.0
 10
-13054.327357231543
 20
253.45808682443294
 30
0.0
 41
1.0
 10
-13054.336258183153
 20
253.45608554586943
 30
0.0
 41
1.0
 10
-13054.460958897333
 20
253.42804799695591
 30
0.0
 41
0.9985539388305823
 10
-13054.581928651014
 20
253.38678432090975
 30
0.0
 41
1.0
 10
-13054.584274081972
 20
253.38598427709491
 30
0.0
 41
1.0
 10
-13054.586619512929
 20
253.38518423328003
 30
0.0
 41
1.0
 10
-13054.71228012853
 20
253.34232046960167
 30
0.0
 41
0.9988468746494168
 10
-13054.833250470841
 20
253.28760238453376
 30
0.0
 41
1.0
 10
-13054.836433292823
 20
253.28616270997713
 30
0.0
 41
1.0
 10
-13054.839616114805
 20
253.28472303542048
 30
0.0
 41
1.0
 10
-13054.966952101075
 20
253.22712560124191
 30
0.0
 41
0.9991322885920723
 10
-13055.089052685142
 20
253.1591302690554
 30
0.0
 41
1.0
 10
-13055.106654696187
 20
253.14932806706506
 30
0.0
 41
1.0
 10
-13055.124256707231
 20
253.13952586507472
 30
0.0
 41
1.0
 10
-13055.226433388296
 20
253.08262574928997
 30
0.0
 41
0.999386003784786
 10
-13055.324374392359
 20
253.01870973370751
 30
0.0
 41
1.0
 10
-13055.329992705225
 20
253.01504323900417
 30
0.0
 41
1.0
 10
-13055.33561101809
 20
253.0113767443008
 30
0.0
 41
1.0
 10
-13055.422315396458
 20
252.95479371810217
 30
0.0
 41
0.9998821494952482
 10
-13055.507241772244
 20
252.89557548804225
 30
0.0
 41
1.0
 10
-13055.59216814805
 20
252.83635725796995
 30
0.0
 41
0.9997976482744573
 10
-13055.674643778477
 20
252.77377084991238
 30
0.0
 41
1.0
 10
-13055.689280043274
 20
252.76266416013823
 30
0.0
 41
1.0
 10
-13055.703916308072
 20
252.75155747036411
 30
0.0
 41
1.0
 10
-13055.815664468044
 20
252.66675768279464
 30
0.0
 41
0.9998091630799317
 10
-13055.924014746053
 20
252.57765733210948
 30
0.0
 41
1.0
 10
-13055.937020498561
 20
252.56696223163934
 30
0.0
 41
1.0
 10
-13055.950026251066
 20
252.55626713116919
 30
0.0
 41
1.0
 10
-13056.08438803406
 20
252.44577657956768
 30
0.0
 41
0.9995035112316238
 10
-13056.211523911845
 20
252.32704276253153
 30
0.0
 41
1.0
 10
-13056.221171222207
 20
252.31803301639673
 30
0.0
 41
1.0
 10
-13056.230818532569
 20
252.30902327026189
 30
0.0
 41
1.0
 10
-13056.354241595345
 20
252.1937568984961
 30
0.0
 41
0.9994630424300297
 10
-13056.469850001136
 20
252.07065415525403
 30
0.0
 41
1.0
 10
-13056.473532839907
 20
252.06673257574062
 30
0.0
 41
1.0
 10
-13056.47721567868
 20
252.06281099622717
 30
0.0
 41
1.0
 10
-13056.585458406915
 20
251.94755141202376
 30
0.0
 41
0.999516069375111
 10
-13056.686324436452
 20
251.82578399414626
 30
0.0
 41
1.0
 10
-13056.688258156511
 20
251.82344956996394
 30
0.0
 41
1.0
 10
-13056.690191876571
 20
251.82111514578162
 30
0.0
 41
1.0
 10
-13056.787190465962
 20
251.70401657630057
 30
0.0
 41
0.9996561470515797
 10
-13056.877916684651
 20
251.58199381382451
 30
0.0
 41
1.0
 10
-13056.884074350572
 20
251.57371202475832
 30
0.0
 41
1.0
 10
-13056.890232016491
 20
251.56543023569216
 30
0.0
 41
1.0
 10
-13056.968642903334
 20
251.45997105135112
 30
0.0
 41
0.9998349055173131
 10
-13057.043170185249
 20
251.35173246771194
 30
0.0
 41
1.0
 10
-13057.117697467193
 20
251.24349388403135
 30
0.0
 41
0.9999728109564484
 10
-13057.190620363075
 20
251.1341679585172
 30
0.0
 41
1.0
 10
-13057.191935578496
 20
251.13219618900274
 30
0.0
 41
1.0
 10
-13057.193250793915
 20
251.13022441948829
 30
0.0
 41
1.0
 10
-13057.268804120511
 20
251.01695495513195
 30
0.0
 41
0.9999972147344067
 10
-13057.343821930865
 20
250.90333011232795
 30
0.0
 41
1.0
 10
-13057.348793473564
 20
250.89580002373776
 30
0.0
 41
1.0
 10
-13057.353765016265
 20
250.8882699351476
 30
0.0
 41
1.0
 10
-13057.438725911892
 20
250.75958491535533
 30
0.0
 41
0.9999371979002411
 10
-13057.520781261308
 20
250.62902800155862
 30
0.0
 41
1.0
 10
-13057.52429014566
 20
250.62344507350878
 30
0.0
 41
1.0
 10
-13057.527799030013
 20
250.61786214545896
 30
0.0
 41
1.0
 10
-13057.616872148137
 20
250.47613937555894
 30
0.0
 41
0.9998272025609027
 10
-13057.700615539008
 20
250.33120349883697
 30
0.0
 41
1.0
 10
-13057.71583071104
 20
250.30487038436581
 30
0.0
 41
1.0
 10
-13057.731045883073
 20
250.27853726989463
 30
0.0
 41
1.0
 10
-13057.845219618006
 20
250.08093516423216
 30
0.0
 41
0.9995217214837985
 10
-13057.946959307561
 20
249.87665283636895
 30
0.0
 41
1.0
 10
-13057.954602870199
 20
249.86130538665964
 30
0.0
 41
1.0
 10
-13057.962246432839
 20
249.84595793695036
 30
0.0
 41
1.0
 10
-13058.049151725425
 20
249.67146147887507
 30
0.0
 41
0.9998269762608468
 10
-13058.12950619169
 20
249.49385319216594
 30
0.0
 41
1.0
 10
-13058.209860657975
 20
249.31624490541543
 30
0.0
 41
0.9998944747388692
 10
-13058.285021452557
 20
249.13637717974242
 30
0.0
 41
1.0
 10
-13058.289975122127
 20
249.12452252487589
 30
0.0
 41
1.0
 10
-13058.294928791696
 20
249.11266787000932
 30
0.0
 41
1.0
 10
-13058.375575852262
 20
248.91967092996239
 30
0.0
 41
0.9999506734410062
 10
-13058.452373381166
 20
248.72511012510301
 30
0.0
 41
1.0
 10
-13058.466973346498
 20
248.68812220314283
 30
0.0
 41
1.0
 10
-13058.48157331183
 20
248.65113428118261
 30
0.0
 41
1.0
 10
-13058.52917091012
 20
248.53054932011634
 30
0.0
 41
0.9999912393962933
 10
-13058.57575735409
 20
248.40957011755108
 30
0.0
 41
1.0
 10
-13058.622343798024
 20
248.28859091508664
 30
0.0
 41
0.9999927113946096
 10
-13058.66800509235
 20
248.16725950777473
 30
0.0
 41
1.0
 10
-13058.681973523828
 20
248.13014252556508
 30
0.0
 41
1.0
 10
-13058.695941955304
 20
248.09302554335545
 30
0.0
 41
1.0
 10
-13058.769540112469
 20
247.89746017192243
 30
0.0
 41
0.999948755094712
 10
-13058.839163737422
 20
247.70044480679562
 30
0.0
 41
1.0
 10
-13058.862757347393
 20
247.63368149640363
 30
0.0
 41
1.0
 10
-13058.886350957366
 20
247.56691818601163
 30
0.0
 41
1.0
 10
-13058.981036591726
 20
247.29898435121476
 30
0.0
 41
0.9999808436935889
 10
-13059.072398180351
 20
247.02989891999823
 30
0.0
 41
1.0
 10
-13059.163759768933
 20
246.7608134889108
 30
0.0
 41
0.9999873932924864
 10
-13059.252414477591
 20
246.4908241340855
 30
0.0
 41
1.0
 10
-13059.272506834521
 20
246.42963480115003
 30
0.0
 41
1.0
 10
-13059.292599191449
 20
246.36844546821453
 30
0.0
 41
1.0
 10
-13059.42143861389
 20
245.97607744774714
 30
0.0
 41
0.9999794883038161
 10
-13059.545241398833
 20
245.58209124151588
 30
0.0
 41
1.0
 10
-13059.556393658277
 20
245.54660063126005
 30
0.0
 41
1.0
 10
-13059.56754591772
 20
245.51111002100419
 30
0.0
 41
1.0
 10
-13059.710104081638
 20
245.05743726885493
 30
0.0
 41
0.9999982761769101
 10
-13059.850976521651
 20
244.60323824673424
 30
0.0
 41
1.0
 10
-13061.439116854224
 20
239.55446851573095
 30
0.0
 41
1.0
 10
-13063.027257186797
 20
234.50569878472766
 30
0.0
 41
1.0
 10
-13063.976007798274
 20
234.50569878472766
 30
0.0
 41
1.0
 10
-13064.92475840975
 20
234.50569878472766
 30
0.0
 41
1.0
 10
-13061.686473923597
 20
244.83302098467379
 30
0.0
 41
1.0
 10
-13058.448189437444
 20
255.16034318461993
 30
0.0
 41
1.0
  0
LWPOLYLINE
  5
62
100
AcDbEntity
  8
0
370
              15
390
0
  6
Continuous
 62
               7
100
AcDbPolyline
 90
      232
 70
             128
 10
-13084.151735211271
 20
254.07600035310475
 42
0.0004370800654969
 10
-13084.204612385991
 20
254.0073337130062
 10
-13084.24389661647
 20
253.95622660095194
 42
0.0030481992155433
 10
-13084.374235333515
 20
253.78450490870756
 10
-13084.412747005339
 20
253.73311812481961
 42
0.0042058245750223
 10
-13084.616732056007
 20
253.45611237974845
 10
-13084.669137178509
 20
253.38367953296517
 42
0.0120948898737544
 10
-13084.96518109524
 20
252.95292992846416
 10
-13085.061373594383
 20
252.80544919320874
 42
0.0141601263948882
 10
-13085.365017641316
 20
252.30977985645586
 10
-13085.404554908791
 20
252.24093588893658
 42
0.0071131081322532
 10
-13085.60982723198
 20
251.87143309018597
 42
0.0068458791006489
 10
-13085.804706758789
 20
251.49634152678061
 10
-13085.811518621282
 20
251.48277981298622
 42
0.0064120880303164
 10
-13086.009660871347
 20
251.07535533802175
 10
-13086.017195556842
 20
251.0593434813461
 42
0.0058857236424524
 10
-13086.219950948725
 20
250.61496737028673
 10
-13086.228125875008
 20
250.59647721667716
 42
0.0053189741879039
 10
-13086.436830187657
 20
250.11051374280336
 10
-13086.445577993356
 20
250.08953186456313
 42
0.0047503650433159
 10
-13086.661551719555
 20
249.55733243123589
 10
-13086.670819967856
 20
249.53385605524556
 42
0.004207176214749
 10
-13086.895367351512
 20
248.95076246136992
 10
-13086.905116753933
 20
248.9247962863061
 42
0.0036680086469351
 10
-13087.139571397229
 20
248.28616090181796
 10
-13087.149779177093
 20
248.25771236743037
 42
0.0032573142634155
 10
-13087.395411463138
 20
247.55885970744646
 10
-13087.464061983848
 20
247.35939662377504
 42
0.0026133366640084
 10
-13087.812507182658
 20
246.32953333995215
 10
-13087.875763970133
 20
246.13930250463395
 42
0.002059295073478
 10
-13088.089627039124
 20
245.487198851946
 10
-13088.092678830228
 20
245.47776236372084
 42
0.0025609928536962
 10
-13088.294499331774
 20
244.84261714117042
 10
-13088.297090699032
 20
244.83431479980626
 42
0.0031362356275742
 10
-13088.486581484576
 20
244.21355194405032
 10
-13088.488712527589
 20
244.20641063755113
 42
0.0037229918050942
 10
-13088.665512914431
 20
243.59742533586507
 10
-13088.667191503666
 20
243.59147844559163
 42
0.0043077623704931
 10
-13088.830932305704
 20
242.99165971392165
 42
0.0047654161822248
 10
-13088.983761028214
 20
242.38897362503442
 10
-13089.018225637057
 20
242.24741184786956
 42
0.0112969368449277
 10
-13089.21408999521
 20
241.35571968721212
 10
-13089.2420963843
 20
241.21289164114751
 42
0.0130056762563881
 10
-13089.442933627946
 20
240.02595056950258
 10
-13089.463473378097
 20
239.88187245600184
 42
0.0138721532144795
 10
-13089.56717638263
 20
238.97504297019987
 10
-13089.586471870534
 20
238.75154524831069
 42
0.0071254697007813
 10
-13089.619818516461
 20
238.28835823942757
 10
-13089.624779490647
 20
238.20235424448094
 42
0.0028881799231764
 10
-13089.639917783912
 20
237.91061253502482
 42
0.0060297297162677
 10
-13089.649849983689
 20
237.61866359887858
 10
-13089.650912265355
 20
237.57027122698801
 42
0.0229523164151019
 10
-13089.64318123757
 20
237.24751638069336
 10
-13089.638955464052
 20
237.18711284670476
 42
0.0123673300689715
 10
-13089.619876817531
 20
236.98599212150236
 42
0.0128577674503484
 10
-13089.590681427126
 20
236.78609427157932
 10
-13089.583555553738
 20
236.7447654569786
 42
0.0285717853794446
 10
-13089.519061552044
 20
236.46664930566945
 10
-13089.505393028378
 20
236.41999453619368
 42
0.0316283099177032
 10
-13089.389582448461
 20
236.10098003436224
 10
-13089.386533756706
 20
236.09399366203735
 42
0.0338984824230833
 10
-13089.237102045739
 20
235.80642769784754
 10
-13089.234793316375
 20
235.80263666857923
 42
0.0350228718310254
 10
-13089.052433025696
 20
235.54558468389473
 10
-13089.051547773914
 20
235.54450560612088
 42
0.0347476747519167
 10
-13088.83712308668
 20
235.31732055891064
 42
0.0331337701925782
 10
-13088.59387976094
 20
235.12119189683679
 10
-13088.592779662418
 20
235.12041919366072
 42
0.0305233319057425
 10
-13088.32423496684
 20
234.95529102356679
 10
-13088.321004922343
 20
234.9535670117067
 42
0.0273744481166154
 10
-13088.028451210777
 20
234.81742886781942
 10
-13088.023346675633
 20
234.81538528334659
 42
0.024096440617785
 10
-13087.70786959997
 20
234.70640155706056
 10
-13087.701286270776
 20
234.70447681739017
 42
0.0209636179822587
 10
-13087.363886118121
 20
234.62100866945724
 10
-13087.356253657676
 20
234.61945675645666
 42
0.0181388704692249
 10
-13086.997931265678
 20
234.56004066324289
 10
-13086.989650417298
 20
234.55897447942561
 42
0.0156086547584453
 10
-13086.611463053112
 20
234.52223829284915
 10
-13086.568267800782
 20
234.51939979036999
 42
0.0137148328996276
 10
-13086.240594655483
 20
234.50687953511863
 10
-13086.194658465542
 20
234.50638510200341
 42
0.0051057823892523
 10
-13085.958512878966
 20
234.50625484759428
 42
0.0052256693305882
 10
-13085.72241559519
 20
234.51100367205834
 10
-13085.652188811437
 20
234.5131506380726
 42
0.0161507179022845
 10
-13085.276451733338
 20
234.53680100839878
 10
-13085.256438772962
 20
234.53871120368672
 42
0.0101216737840346
 10
-13084.842411551464
 20
234.58670413405338
 10
-13084.808358262046
 20
234.59135183086187
 42
0.0245291776418617
 10
-13084.331568606496
 20
234.68042690893762
 10
-13084.246745290982
 20
234.70062282928114
 42
0.0143509212535547
 10
-13083.89011418703
 20
234.79642746306274
 42
0.015655785705498
 10
-13083.539898122308
 20
234.91343867888003
 10
-13083.532396907809
 20
234.9162088406357
 42
0.0170137333637054
 10
-13083.175800912122
 20
235.06186645550883
 10
-13083.16869698972
 20
235.06505429107051
 42
0.018310536443523
 10
-13082.809347321549
 20
235.24238933289766
 10
-13082.802400556915
 20
235.24613976776698
 42
0.0194899958167506
 10
-13082.443919815913
 20
235.45811874966935
 10
-13082.436905936594
 20
235.46264409195271
 42
0.0204869852925546
 10
-13082.082891634529
 20
235.71216410701675
 10
-13082.075626025913
 20
235.71774417238692
 42
0.0212516938576799
 10
-13081.729636094802
 20
236.00764816928506
 10
-13081.683119400748
 20
236.05011547935814
 42
0.0215248918238462
 10
-13081.423093231842
 20
236.3088797583697
 10
-13081.378063497468
 20
236.35772387971286
 42
0.0114578554965174
 10
-13081.223271343784
 20
236.53354681317785
 10
-13081.21207680784
 20
236.54686557667296
 42
0.0061531305163841
 10
-13081.085602161802
 20
236.70115511002894
 42
0.000632558718162
 10
-13080.961223677079
 20
236.857158486424
 10
-13080.938183542599
 20
236.88613200636405
 42
0.0041897761535838
 10
-13080.769728138634
 20
237.10165138241746
 10
-13080.711266018734
 20
237.17775272941105
 42
0.0092993880028602
 10
-13080.434654091487
 20
237.55203149332999
 10
-13080.352259598296
 20
237.66796849688805
 42
0.015932172709628
 10
-13080.00565311567
 20
238.19014271761966
 10
-13079.961296980284
 20
238.26182228186531
 42
0.0085547317029975
 10
-13079.726785214954
 20
238.65569723109434
 42
0.0084601156861762
 10
-13079.505809037557
 20
239.05732408004147
 10
-13079.497693563682
 20
239.07268376239949
 42
0.0081429654274551
 10
-13079.274444293284
 20
239.51240527486186
 10
-13079.265584129062
 20
239.53058411695963
 42
0.007657458134095
 10
-13079.03917661848
 20
240.01376699224252
 10
-13079.02969697777
 20
240.03483147051577
 42
0.0070682724212992
 10
-13078.799252069961
 20
240.56686877530436
 10
-13078.789261785982
 20
240.59085796430861
 42
0.0064559514458068
 10
-13078.553928577778
 20
241.17717023088605
 10
-13078.543519219635
 20
241.20410515626975
 42
0.0058311413902043
 10
-13078.302472482925
 20
241.85013725050823
 10
-13078.291717405486
 20
241.88002159181394
 42
0.005231242583617
 10
-13078.044136127402
 20
242.5912240057767
 10
-13078.033092291065
 20
242.62405071771821
 42
0.0046680544805627
 10
-13077.778163863355
 20
243.40587703339605
 10
-13077.736171713192
 20
243.53886027106691
 42
0.0041666856456998
 10
-13077.532885700892
 20
244.20182904577064
 10
-13077.495223260203
 20
244.32841015351116
 42
0.0015170975176576
 10
-13077.374036681815
 20
244.74027850491802
 42
-0.0004887993122138
 10
-13077.253696908663
 20
245.15239691705631
 10
-13077.177219651196
 20
245.4133543029011
 42
0.0002583378935103
 10
-13076.904005080571
 20
246.34741100800454
 10
-13076.822232231687
 20
246.62751026521394
 42
0.0006636169669015
 10
-13076.628364471544
 20
247.29486318925024
 10
-13076.623267817042
 20
247.31249477266945
 42
0.0010589131341282
 10
-13076.44181911628
 20
247.94522611517914
 10
-13076.436837045732
 20
247.9627390224355
 42
0.0015655524475179
 10
-13076.268566838618
 20
248.56135570140009
 10
-13076.263736638251
 20
248.57874786016225
 42
0.0021640440472444
 10
-13076.109446666216
 20
249.14377487835407
 10
-13076.104812446785
 20
249.16103960834991
 42
0.0028763871855766
 10
-13075.965296728733
 20
249.69300755919494
 10
-13075.960910864565
 20
249.71013153735404
 42
0.0037310511958752
 10
-13075.83695417273
 20
250.20957913137329
 10
-13075.832878952408
 20
250.22653940275967
 42
0.0047652197804667
 10
-13075.725255051932
 20
250.69401717092387
 10
-13075.721564452639
 20
250.71077672593455
 42
0.0060276699276636
 10
-13075.631034353455
 20
251.14685252121808
 10
-13075.627815663203
 20
251.1633537353307
 42
0.0075824337681246
 10
-13075.555126353749
 20
251.56862089995343
 10
-13075.552480976365
 20
251.58477584743139
 42
0.0095130624635732
 10
-13075.498365740739
 20
251.95986520047575
 10
-13075.491379516854
 20
252.01579875860872
 42
0.0121054653227436
 10
-13075.464788186278
 20
252.28069458706614
 10
-13075.463921696533
 20
252.29209802981489
 42
0.0069050827351351
 10
-13075.448832878481
 20
252.53503925683947
 10
-13075.447697578813
 20
252.55856551387856
 42
0.0169063976664575
 10
-13075.444870299831
 20
252.75475824118496
 10
-13075.446040951358
 20
252.81509400240282
 42
0.0052007732680658
 10
-13075.448294399956
 20
252.89068739268623
 42
0.0054038123356441
 10
-13075.468257911802
 20
253.01070568872981
 10
-13075.473343767666
 20
253.03936417527734
 42
0.0112050460498252
 10
-13075.508728129731
 20
253.21569061364926
 10
-13075.526553091764
 20
253.29523220033718
 42
0.0240764467982383
 10
-13075.61745045791
 20
253.62546923583363
 10
-13075.636009220729
 20
253.68208940084168
 42
0.0256812331861621
 10
-13075.779372140914
 20
254.05381360708952
 10
-13075.784781566732
 20
254.06594494207118
 42
0.026836050123032
 10
-13075.954208807585
 20
254.39693807610024
 10
-13075.959745215217
 20
254.4064577464078
 42
0.0274670231742161
 10
-13076.151946191634
 20
254.69874512132981
 10
-13076.157327491617
 20
254.70602426889914
 42
0.0275035967109661
 10
-13076.368900371159
 20
254.96154015917523
 10
-13076.373969872129
 20
254.96701924680966
 42
0.0269557673535032
 10
-13076.601373415564
 20
255.18766153276795
 10
-13076.606116473367
 20
255.19179148724649
 42
0.0259124802275031
 10
-13076.845671304778
 20
255.3794820143811
 10
-13076.850202149957
 20
255.38266751670966
 42
0.0245162152984056
 10
-13077.098118503054
 20
255.53940052582186
 10
-13077.102645049377
 20
255.54196072302193
 42
0.0229282588848974
 10
-13077.355064606207
 20
255.66982891552163
 10
-13077.359845100014
 20
255.67198121527051
 42
0.0212984135698829
 10
-13077.612883052505
 20
255.77318013252591
 10
-13077.618187337474
 20
255.77504369528572
 42
0.0197555462363284
 10
-13077.867965675197
 20
255.85185911325073
 42
0.0183511896808361
 10
-13078.122894400669
 20
255.90944202021799
 10
-13078.209259597388
 20
255.92564481060211
 42
0.033805787711403
 10
-13078.494766946642
 20
255.95945321574152
 10
-13078.585772351687
 20
255.9640328710031
 42
0.0091990524572685
 10
-13078.691619460318
 20
255.96740872692499
 42
0.0028333980703448
 10
-13078.797533376312
 20
255.96823683444174
 10
-13078.79844882936
 20
255.96823880426575
 42
-0.0023619827739145
 10
-13078.906194844476
 20
255.96897964534435
 10
-13078.942600014643
 20
255.9694019518073
 42
0.000882459848577
 10
-13079.123156004471
 20
255.97117773004535
 10
-13079.167017436899
 20
255.97153169157116
 42
0.0038132665802559
 10
-13079.435300332774
 20
255.97165062763779
 10
-13079.451833987572
 20
255.97153186149421
 42
0.0060665569349925
 10
-13079.753114479172
 20
255.96571156207315
 10
-13079.767364811189
 20
255.96526325410582
 42
0.00803569533432
 10
-13080.096823527521
 20
255.9495955320393
 10
-13080.108893542614
 20
255.94882694909847
 42
0.0098996399119899
 10
-13080.461656627274
 20
255.91934171989917
 10
-13080.471702336639
 20
255.91830142370213
 42
0.011774098138251
 10
-13080.842859195
 20
255.87100917617056
 10
-13080.851081891471
 20
255.86976405960149
 42
0.0137435215130806
 10
-13081.235670710947
 20
255.80066708604173
 10
-13081.242327750078
 20
255.79928118980627
 42
0.0158359869361303
 10
-13081.635324843885
 20
255.70438910132518
 10
-13081.64073803075
 20
255.70289916045499
 42
0.018055412400849
 10
-13082.037053075368
 20
255.578261144214
 10
-13082.041609863445
 20
255.57664510794996
 42
0.0203657431297542
 10
-13082.436087381253
 20
255.41838476643525
 10
-13082.440230920263
 20
255.41652314499231
 42
0.0226819684653315
 10
-13082.827666976462
 20
255.22088056632495
 10
-13082.831866767487
 20
255.2185149744015
 42
0.0248634984576224
 10
-13083.207048708655
 20
254.9818883284623
 10
-13083.255243637466
 20
254.94803128661735
 42
0.0267044190904588
 10
-13083.529536334368
 20
254.73259091076045
 42
0.0139303002180432
 10
-13083.785703500294
 20
254.49535206985871
 10
-13083.790556886026
 20
254.49059940698839
 42
0.0283460963422882
 10
-13084.034629480246
 20
254.22286874655467
 10
-13084.074297985411
 20
254.17406716907021
 42
0.0070695364835228
 10
-13084.151735211271
 20
254.07600035310475
 42
0.0070695364835228
  0
LWPOLYLINE
  5
63
100
AcDbEntity
  8
0
370
              15
390
0
  6
Continuous
 62
               7
100
AcDbPolyline
 90
      226
 70
             128
 10
-13087.680555648518
 20
238.3544115469208
 42
-0.0026277636610965
 10
-13087.680633532318
 20
238.42118347265767
 10
-13087.680416174086
 20
238.47433869010695
 42
-0.0088680296652625
 10
-13087.676639557794
 20
238.64735447251914
 10
-13087.674293198681
 20
238.70663449796359
 42
-0.0077381705575465
 10
-13087.658247087913
 20
238.99789499382874
 10
-13087.657379176744
 20
239.01018322744687
 42
-0.0068872530536469
 10
-13087.630747097004
 20
239.32540497940971
 10
-13087.629542872808
 20
239.33764595853461
 42
-0.0062130021505427
 10
-13087.59194915598
 20
239.67651564979192
 10
-13087.590445252446
 20
239.68868952168964
 42
-0.0056726929657533
 10
-13087.541523392934
 20
240.05088474386713
 10
-13087.5397499473
 20
240.06297854404841
 42
-0.0052341884483764
 10
-13087.479139361061
 20
240.44817179944187
 10
-13087.477121372263
 20
240.46017672955873
 42
-0.0049768450183622
 10
-13087.404382690853
 20
240.86802129689548
 10
-13087.380133676113
 20
240.99656927999729
 42
-0.0089029805642652
 10
-13087.243052824319
 20
241.65834472742034
 10
-13087.210307449001
 20
241.80337615794315
 42
-0.0080318257103135
 10
-13086.980758834647
 20
242.74908578985026
 10
-13086.968773908213
 20
242.79521642498696
 42
-0.0074265721312132
 10
-13086.684762369336
 20
243.82528100346269
 10
-13086.664882826241
 20
243.89341506397693
 42
-0.0069711922704027
 10
-13086.33757824774
 20
244.95968280428485
 10
-13086.277626300642
 20
245.14570416263157
 42
-0.0052070422897902
 10
-13086.048201075375
 20
245.83297623968679
 10
-13086.030919883502
 20
245.88300351943604
 42
-0.0009167004472085
 10
-13085.827827995912
 20
246.46745936845798
 42
-0.0025162726962187
 10
-13085.620730365767
 20
247.05050063230078
 10
-13085.583505753722
 20
247.15365017886683
 42
-0.0028212681455492
 10
-13085.335329834881
 20
247.82938081069699
 10
-13085.325499072167
 20
247.85568825527523
 42
-0.0031964916838869
 10
-13085.089206814468
 20
248.47589301750077
 10
-13085.079572360493
 20
248.50070300757952
 42
-0.0036281836468471
 10
-13084.854466399367
 20
249.06814368853713
 10
-13084.845027989242
 20
249.09144111996156
 42
-0.0041269166840551
 10
-13084.630410292551
 20
249.60888201601824
 10
-13084.597777336143
 20
249.68576046234884
 42
-0.0047472213094411
 10
-13084.440732530576
 20
250.04618193026272
 10
-13084.433838449386
 20
250.06160252755438
 42
-0.0025651660014007
 10
-13084.285480415519
 20
250.38893058334315
 42
-0.0057144635003707
 10
-13084.131730721756
 20
250.71374025669033
 10
-13084.103700016356
 20
250.77124863907989
 42
-0.0065388068358056
 10
-13083.920232988607
 20
251.13548113576485
 10
-13083.911774532833
 20
251.15174071512362
 42
-0.0074510843027656
 10
-13083.73559228695
 20
251.47842899625709
 10
-13083.727412616405
 20
251.49306977355133
 42
-0.0084648979840282
 10
-13083.557778763319
 20
251.78497878448707
 10
-13083.549922636805
 20
251.79798577618288
 42
-0.0095638542787428
 10
-13083.386087189238
 20
252.05787464811647
 10
-13083.378612245542
 20
252.06924400960708
 42
-0.0107191626788898
 10
-13083.219810665178
 20
252.29985524411597
 10
-13083.212793931429
 20
252.309591336506
 42
-0.01184585738874
 10
-13083.058245832934
 20
252.51366353179128
 42
-0.0129184518120535
 10
-13082.89379320929
 20
252.70982404801123
 10
-13082.863648436958
 20
252.74395012687486
 42
-0.0217742579618063
 10
-13082.687036114636
 20
252.92715689711133
 10
-13082.676290570156
 20
252.93737373033261
 42
-0.0097266568671266
 10
-13082.510232951317
 20
253.08922130475162
 42
-0.0187720905767757
 10
-13082.335885375429
 20
253.2312901581397
 10
-13082.305179384783
 20
253.2544492405143
 42
-0.0179428207544813
 10
-13082.072758664759
 20
253.41700141764863
 10
-13082.069106337864
 20
253.41936535252367
 42
-0.0170047877672531
 10
-13081.833342700313
 20
253.56082586668788
 10
-13081.82955971157
 20
253.56292417172205
 42
-0.0160190788360471
 10
-13081.59265116393
 20
253.68457547371224
 42
-0.0151102861490205
 10
-13081.348619381472
 20
253.79125824977172
 10
-13081.296232879271
 20
253.81229838266154
 42
-0.0271945441912021
 10
-13080.937570320217
 20
253.93416319336671
 10
-13080.86850551972
 20
253.95351273463575
 42
-0.0237596594013111
 10
-13080.452708672703
 20
254.0489634466154
 10
-13080.384645818976
 20
254.06121813474161
 42
-0.0213715440538404
 10
-13080.098770887527
 20
254.10016516625205
 10
-13080.038623721306
 20
254.1057548809533
 42
-0.0101465655769418
 10
-13079.871131189317
 20
254.11789842421706
 10
-13079.861790803119
 20
254.11838533921426
 42
-0.0100375910881937
 10
-13079.712636702556
 20
254.12316115713952
 10
-13079.702377432877
 20
254.12328359615395
 42
-0.0103625633329343
 10
-13079.573669438219
 20
254.12215216262734
 10
-13079.551403786943
 20
254.12149480416218
 42
-0.0115689250134196
 10
-13079.467353049426
 20
254.11706529791729
 42
-0.0072438037451037
 10
-13079.383514769977
 20
254.10947609816716
 10
-13079.366714260512
 20
254.10770955544376
 42
-0.0217917313105917
 10
-13079.250144497199
 20
254.09028966272268
 10
-13079.184544406637
 20
254.07754305430927
 42
-0.0332943556734388
 10
-13078.980152241602
 20
254.02350276300115
 10
-13078.949979673052
 20
254.01333468588288
 42
-0.0184824084843841
 10
-13078.811474616588
 20
253.96088367049617
 42
-0.0198002050685573
 10
-13078.67740027609
 20
253.89799961029826
 10
-13078.675513638711
 20
253.89702182341694
 42
-0.021224234296866
 10
-13078.543374696319
 20
253.82125908463027
 10
-13078.541559400766
 20
253.82011328241549
 42
-0.022609060575755
 10
-13078.413055499563
 20
253.73063363886476
 10
-13078.411211057808
 20
253.72922138586353
 42
-0.02384570522185
 10
-13078.288028976525
 20
253.62522549001082
 10
-13078.286076247956
 20
253.62341061223503
 42
-0.0248160564117424
 10
-13078.169874740652
 20
253.50413601102363
 10
-13078.167771107252
 20
253.50175067732187
 42
-0.0254109591480602
 10
-13078.060165889396
 20
253.3664622913696
 10
-13078.057917867472
 20
253.36332074295694
 42
-0.0255528488217209
 10
-13077.960471188664
 20
253.21129368870467
 10
-13077.958140088758
 20
253.20721207711506
 42
-0.0252146793198319
 10
-13077.872359062749
 20
253.03770983111698
 10
-13077.870056823591
 20
253.0325277492052
 42
-0.0244265635971531
 10
-13077.797402129836
 20
252.84478117717256
 10
-13077.78815572836
 20
252.81691575881311
 42
-0.0231319612949278
 10
-13077.742232949371
 20
252.65361471201913
 42
-0.0112130424416921
 10
-13077.707596926834
 20
252.48741111182852
 10
-13077.706394401721
 20
252.48091452494316
 42
-0.0210527881203991
 10
-13077.680707926345
 20
252.29985887946947
 10
-13077.677197331526
 20
252.26445333095467
 42
-0.0190029892388516
 10
-13077.661755857982
 20
252.0109174846398
 10
-13077.660945881538
 20
251.97544187031338
 42
-0.0137974553628507
 10
-13077.662494734377
 20
251.6504104634904
 10
-13077.663340189332
 20
251.62429171890611
 42
-0.0081336634182603
 10
-13077.678199524553
 20
251.31894425138785
 42
-0.0073526923542274
 10
-13077.702508057931
 20
251.01419600705091
 10
-13077.70376948171
 20
251.00085933243668
 42
-0.006688613871062
 10
-13077.739505067757
 20
250.67027328894142
 10
-13077.741162157226
 20
250.65665166994802
 42
-0.0061359187350144
 10
-13077.789012759275
 20
250.29988768986723
 10
-13077.79105026035
 20
250.28599288701878
 42
-0.0056698610063412
 10
-13077.851700591105
 20
249.90271431824087
 10
-13077.854106024439
 20
249.88855519895003
 42
-0.0052721077247077
 10
-13077.92823822526
 20
249.47842785916376
 10
-13077.931001374081
 20
249.46401122388613
 42
-0.0049289272197115
 10
-13078.019295492146
 20
249.02670271293198
 10
-13078.022407986864
 20
249.01203385994791
 42
-0.0047415956713971
 10
-13078.125645978393
 20
248.54723710254967
 10
-13078.160414188755
 20
248.39743000715407
 42
-0.0084404470906562
 10
-13078.350430632316
 20
247.63720598266721
 10
-13078.356557320312
 20
247.61434185846952
 42
-0.0039635940244879
 10
-13078.578011004607
 20
246.8133529941868
 10
-13078.591387799777
 20
246.76642137763031
 42
-0.0072475040843323
 10
-13078.858834687628
 20
245.87720166128562
 10
-13078.929047014475
 20
245.65546131124634
 42
-0.0051345458827802
 10
-13079.215806386526
 20
244.78113612345692
 10
-13079.237332653302
 20
244.71770985630602
 42
-0.0019150016601816
 10
-13079.49286606016
 20
243.97416073610088
 10
-13079.499333664609
 20
243.95557327102802
 42
-0.0021524362756298
 10
-13079.747811715621
 20
243.25124744947141
 10
-13079.757022136147
 20
243.2254938716423
 42
-0.0024331286837611
 10
-13079.993277395351
 20
242.57489456305177
 10
-13080.002325347808
 20
242.55035125695278
 42
-0.0027449721796084
 10
-13080.226939918739
 20
241.95122137777298
 10
-13080.235829926134
 20
241.92789878791322
 42
-0.003108322976715
 10
-13080.449372412742
 20
241.37797475034108
 10
-13080.458108544422
 20
241.35588503447204
 42
-0.0035311343274563
 10
-13080.661149730007
 20
240.85290190875321
 10
-13080.669735069143
 20
240.83205918527199
 42
-0.0040245640961757
 10
-13080.862846872951
 20
240.37374986265047
 10
-13080.8712829866
 20
240.35417049447122
 42
-0.0046015135832943
 10
-13081.055039279718
 20
239.93826546493619
 10
-13081.063325457513
 20
239.91996832555682
 42
-0.005276863826391
 10
-13081.238302976501
 20
239.54419544121379
 10
-13081.246435187095
 20
239.52720210273696
 42
-0.0060672675611662
 10
-13081.413214799893
 20
239.18928647955636
 10
-13081.421184280294
 20
239.17362122071933
 42
-0.006990464889838
 10
-13081.580352674377
 20
238.87128541389541
 10
-13081.588144073981
 20
238.85697486468032
 42
-0.0080637022762938
 10
-13081.740295934334
 20
238.58793956151499
 10
-13081.747884966962
 20
238.5750116959201
 42
-0.0093006455672782
 10
-13081.893625643497
 20
238.33699729741113
 10
-13081.900976310231
 20
238.32547932825213
 42
-0.0107060778036648
 10
-13082.040924853678
 20
238.11620901085894
 10
-13082.047986621934
 20
238.10612346832588
 42
-0.0122723111450406
 10
-13082.182780340157
 20
237.92333013880409
 10
-13082.183106563725
 20
237.92290975097643
 42
-0.0141836319640721
 10
-13082.326688166686
 20
237.7483399931649
 10
-13082.333635922343
 20
237.74036499289392
 42
-0.017595747717604
 10
-13082.473542090371
 20
237.59074410449534
 42
-0.0080466359678914
 10
-13082.621005855392
 20
237.44842157635341
 10
-13082.66704039992
 20
237.40540113825296
 42
-0.026960026040822
 10
-13082.920320645904
 20
237.19307787974148
 10
-13082.986887782206
 20
237.14312646511365
 42
-0.017836283976049
 10
-13083.226832271856
 20
236.97610853886749
 10
-13083.234077242865
 20
236.97144002665709
 42
-0.0174650732635634
 10
-13083.470413440296
 20
236.83057906170347
 42
-0.0169240130188083
 10
-13083.715879686142
 20
236.70628680193124
 10
-13083.761865841712
 20
236.68492484635885
 42
-0.0318883036840393
 10
-13084.112216697325
 20
236.54858653685014
 10
-13084.1805822325
 20
236.52688591637195
 42
-0.0284435909898306
 10
-13084.556632358788
 20
236.43066848089859
 10
-13084.591790519284
 20
236.42377488507071
 42
-0.024390934102004
 10
-13084.905233980204
 20
236.37805385403999
 10
-13084.955514706977
 20
236.37320830713813
 42
-0.0196639292901073
 10
-13085.171110284504
 20
236.36096002162481
 10
-13085.222934355663
 20
236.36005676088811
 42
-0.0100501510627508
 10
-13085.33535763733
 20
236.36035715924118
 10
-13085.367017498682
 20
236.3610782311267
 42
-0.0019752031172871
 10
-13085.416109835358
 20
236.36239039133613
 10
-13085.418870138586
 20
236.36247508316265
 42
0.0065378752075402
 10
-13085.462446713333
 20
236.36324197437739
 42
-0.01679746946668
 10
-13085.505977536264
 20
236.36490187290349
 10
-13085.510056875526
 20
236.36519488379838
 42
-0.0081283276269192
 10
-13085.561616673267
 20
236.36974187743655
 10
-13085.573356247143
 20
236.37096979501462
 42
-0.0126703440352224
 10
-13085.648074542934
 20
236.38070458608564
 10
-13085.670862410614
 20
236.38426284200136
 42
-0.011785208850903
 10
-13085.790401396445
 20
236.40582583715806
 10
-13085.845781848209
 20
236.41716937739307
 42
-0.0251774592302387
 10
-13086.072625887218
 20
236.47566738682616
 10
-13086.117345077066
 20
236.48963420616062
 42
-0.0146525199924835
 10
-13086.303738064607
 20
236.55390073335946
 42
-0.0166929435843344
 10
-13086.485715720733
 20
236.62970786641395
 10
-13086.490372352007
 20
236.63183276702807
 42
-0.0191684358464428
 10
-13086.67555598326
 20
236.72506885081935
 10
-13086.678888569015
 20
236.72691009837138
 42
-0.0221181781851431
 10
-13086.862198872899
 20
236.83904359673107
 10
-13086.864548676924
 20
236.84062789473319
 42
-0.0254984685379862
 10
-13087.040838827319
 20
236.97303904470897
 10
-13087.063320975019
 20
236.99179135364497
 42
-0.0292492648734213
 10
-13087.188089913856
 20
237.10888415328213
 42
-0.015904895749956
 10
-13087.301929911295
 20
237.23690414486774
 10
-13087.303248701885
 20
237.23848575790123
 42
-0.0343813379564176
 10
-13087.405885963515
 20
237.38035708367923
 10
-13087.437377494867
 20
237.43086047575716
 42
-0.0369117275732876
 10
-13087.523269996769
 20
237.5943377167132
 42
-0.0191751379940103
 10
-13087.590463382323
 20
237.76674232271344
 10
-13087.592226706085
 20
237.77183566739404
 42
-0.0378178042202868
 10
-13087.642021424868
 20
237.96077644346599
 10
-13087.648016720614
 20
237.99333706174727
 42
-0.0184846046355255
 10
-13087.668733919894
 20
238.13508988221724
 42
-0.0179866351232495
 10
-13087.679066924968
 20
238.2779806952943
 10
-13087.679123367414
 20
238.27953838191092
 42
-0.0085497186018588
 10
-13087.680555648518
 20
238.3544115469208
 42
-0.0085497186018588
  0
ENDBLK
  5
64
100
AcDbEntity
  8
template
390
0
100
AcDbBlockEnd
  0
BLOCK
  5
65
100
AcDbEntity
  8
notes
390
0
100
AcDbBlockBegin
  2
グループ-1
 70
               0
 10
0.0
 20
0.0
 30
0.0
  3
グループ-1
  1

  0
MTEXT
  5
66
100
AcDbEntity
  8
0
390
0
 62
               7
100
AcDbMText
 10
-13830.96398284645
 20
1962.8830387833327
 30
0.0
 40
24.432617187500004
 41
0.0
 71
               1
 72
               1
  1
※カウンター置きの場合も壁固定が必要です。\P
  7
ＭＳ ゴシック
 11
0.0
 21
1.0
 31
0.0
 73
               1
 44
0.7828267384257843
  0
MTEXT
  5
67
100
AcDbEntity
  8
0
390
0
 62
               7
100
AcDbMText
 10
-13975.990091539383
 20
1962.8830387833327
 30
0.0
 40
24.432617187500004
 41
764.7717154610109
 71
               1
 72
               1
  1
※陶器製品には寸法公差があります。\P  洗面器の収め方をご確認の上、必ず現物を合わせて\P  カウンターに切込を行ってください。
  7
ＭＳ ゴシック
 11
0.0
 21
1.0
 31
0.0
 73
               1
 44
1.0437689845677123
  0
ENDBLK
  5
68
100
AcDbEntity
  8
notes
390
0
100
AcDbBlockEnd
  0
BLOCK
  5
69
100
AcDbEntity
  8
notes
390
0
100
AcDbBlockBegin
  2
*D4
 70
               1
 10
0.0
 20
0.0
 30
0.0
  3
*D4
  1

  0
LINE
  5
6A
100
AcDbEntity
  8
0
370
              -2
390
0
  6
Continuous
 62
               0
100
AcDbLine
 10
-651.48970282418486
 20
-912.04318758400893
 30
0.0
 11
-781.45317920229718
 21
-912.04318758400893
 31
0.0
  0
LINE
  5
6B
100
AcDbEntity
  8
0
370
              -2
390
0
  6
Continuous
 62
               0
100
AcDbLine
 10
-651.48970282418486
 20
-12.04324959762107
 30
0.0
 11
-781.45317920229718
 21
-12.04324959762107
 31
0.0
  0
LINE
  5
6C
100
AcDbEntity
  8
0
370
              -2
390
0
  6
Continuous
 62
               0
100
AcDbLine
 10
-781.45317920229718
 20
-912.04318758400893
 30
0.0
 11
-781.45317920229718
 21
-12.04324959762107
 31
0.0
  0
CIRCLE
  5
6D
102
{ACAD_REACTORS
330
6E
102
}
100
AcDbEntity
  8
0
370
              -2
390
0
  6
Continuous
 62
               0
100
AcDbCircle
 10
-781.45317920229718
 20
-912.04318758400893
 30
0.0
 40
4.99969482421875
  0
HATCH
  5
6E
100
AcDbEntity
  8
0
370
              -2
390
0
  6
Continuous
 62
               0
100
AcDbHatch
 10
0.0
 20
0.0
 30
0.0
210
0.0
220
0.0
230
1.0
  2
SOLID
 70
               1
 71
               1
 91
        1
 92
        1
 93
        1
 72
               2
 10
-781.45317920229718
 20
-912.04318758400893
 40
4.99969482421875
 50
0.0
 51
360.0
 73
               0
 97
        1
330
6D
 75
               0
 76
               1
 98
        1
 10
0.0
 20
0.0
  0
CIRCLE
  5
6F
102
{ACAD_REACTORS
330
70
102
}
100
AcDbEntity
  8
0
370
              -2
390
0
  6
Continuous
 62
               0
100
AcDbCircle
 10
-781.45317920229718
 20
-12.04324959762107
 30
0.0
 40
4.99969482421875
  0
HATCH
  5
70
100
AcDbEntity
  8
0
370
              -2
390
0
  6
Continuous
 62
               0
100
AcDbHatch
 10
0.0
 20
0.0
 30
0.0
210
0.0
220
0.0
230
1.0
  2
SOLID
 70
               1
 71
               1
 91
        1
 92
        1
 93
        1
 72
               2
 10
-781.45317920229718
 20
-12.04324959762107
 40
4.99969482421875
 50
0.0
 51
360.0
 73
               0
 97
        1
330
6F
 75
               0
 76
               1
 98
        1
 10
0.0
 20
0.0
  0
MTEXT
  5
71
100
AcDbEntity
  8
0
390
0
 62
               0
100
AcDbMText
 10
-815.33079638979689
 20
-485.85572027299054
 30
0.0
 40
24.432617187500004
 41
0.0
 71
               1
 72
               1
  1
900
  7
ＭＳゴシック
 11
0.0
 21
1.0
 31
0.0
 73
               1
 44
0.7828267384257843
  0
POINT
  5
72
100
AcDbEntity
  8
Defpoints
370
               0
390
0
 62
               0
100
AcDbPoint
 10
-626.48970282418486
 20
-12.04324959762107
 30
0.0
  0
POINT
  5
73
100
AcDbEntity
  8
Defpoints
370
               0
390
0
 62
               0
100
AcDbPoint
 10
-626.48970282418486
 20
-912.04318758400893
 30
0.0
  0
POINT
  5
74
100
AcDbEntity
  8
Defpoints
370
               0
390
0
 62
               0
100
AcDbPoint
 10
-781.45317920229718
 20
-912.04318758400893
 30
0.0
  0
ENDBLK
  5
75
100
AcDbEntity
  8
notes
390
0
100
AcDbBlockEnd
  0
BLOCK
  5
76
100
AcDbEntity
  8
notes
390
0
100
AcDbBlockBegin
  2
*D5
 70
               1
 10
0.0
 20
0.0
 30
0.0
  3
*D5
  1

  0
LINE
  5
77
100
AcDbEntity
  8
0
370
              -2
390
0
  6
Continuous
 62
               0
100
AcDbLine
 10
494.68082177431643
 20
-717.03064318717702
 30
0.0
 11
399.67021292788377
 21
-717.03064318717702
 31
0.0
  0
LINE
  5
78
100
AcDbEntity
  8
0
370
              -2
390
0
  6
Continuous
 62
               0
100
AcDbLine
 10
494.68082177431643
 20
-602.0306431871777
 30
0.0
 11
399.67021292788377
 21
-602.0306431871777
 31
0.0
  0
LINE
  5
79
100
AcDbEntity
  8
0
370
              -2
390
0
  6
Continuous
 62
               0
100
AcDbLine
 10
399.67021292788377
 20
-717.03064318717702
 30
0.0
 11
399.67021292788377
 21
-602.0306431871777
 31
0.0
  0
CIRCLE
  5
7A
102
{ACAD_REACTORS
330
7B
102
}
100
AcDbEntity
  8
0
370
              -2
390
0
  6
Continuous
 62
               0
100
AcDbCircle
 10
399.67021292788377
 20
-717.03064318717702
 30
0.0
 40
4.99969482421875
  0
HATCH
  5
7B
100
AcDbEntity
  8
0
370
              -2
390
0
  6
Continuous
 62
               0
100
AcDbHatch
 10
0.0
 20
0.0
 30
0.0
210
0.0
220
0.0
230
1.0
  2
SOLID
 70
               1
 71
               1
 91
        1
 92
        1
 93
        1
 72
               2
 10
399.67021292788377
 20
-717.03064318717702
 40
4.99969482421875
 50
0.0
 51
360.0
 73
               0
 97
        1
330
7A
 75
               0
 76
               1
 98
        1
 10
0.0
 20
0.0
  0
CIRCLE
  5
7C
102
{ACAD_REACTORS
330
7D
102
}
100
AcDbEntity
  8
0
370
              -2
390
0
  6
Continuous
 62
               0
100
AcDbCircle
 10
399.67021292788377
 20
-602.0306431871777
 30
0.0
 40
4.99969482421875
  0
HATCH
  5
7D
100
AcDbEntity
  8
0
370
              -2
390
0
  6
Continuous
 62
               0
100
AcDbHatch
 10
0.0
 20
0.0
 30
0.0
210
0.0
220
0.0
230
1.0
  2
SOLID
 70
               1
 71
               1
 91
        1
 92
        1
 93
        1
 72
               2
 10
399.67021292788377
 20
-602.0306431871777
 40
4.99969482421875
 50
0.0
 51
360.0
 73
               0
 97
        1
330
7C
 75
               0
 76
               1
 98
        1
 10
0.0
 20
0.0
  0
MTEXT
  5
7E
100
AcDbEntity
  8
0
390
0
 62
               0
100
AcDbMText
 10
365.79259574038406
 20
-683.34314486935284
 30
0.0
 40
24.432617187500004
 41
0.0
 71
               1
 72
               1
  1
115
  7
ＭＳゴシック
 11
0.0
 21
1.0
 31
0.0
 73
               1
 44
0.7828267384257843
  0
POINT
  5
7F
100
AcDbEntity
  8
Defpoints
370
               0
390
0
 62
               0
100
AcDbPoint
 10
519.68082177431643
 20
-602.0306431871777
 30
0.0
  0
POINT
  5
80
100
AcDbEntity
  8
Defpoints
370
               0
390
0
 62
               0
100
AcDbPoint
 10
519.68082177431643
 20
-717.03064318717702
 30
0.0
  0
POINT
  5
81
100
AcDbEntity
  8
Defpoints
370
               0
390
0
 62
               0
100
AcDbPoint
 10
399.67021292788377
 20
-717.03064318717702
 30
0.0
  0
ENDBLK
  5
82
100
AcDbEntity
  8
notes
390
0
100
AcDbBlockEnd
  0
BLOCK
  5
83
100
AcDbEntity
  8
notes
390
0
100
AcDbBlockBegin
  2
*D6
 70
               1
 10
0.0
 20
0.0
 30
0.0
  3
*D6
  1

  0
LINE
  5
84
100
AcDbEntity
  8
0
370
              -2
390
0
  6
Continuous
 62
               0
100
AcDbLine
 10
494.68082177431643
 20
-602.0306431871777
 30
0.0
 11
399.67021292788377
 21
-602.0306431871777
 31
0.0
  0
LINE
  5
85
100
AcDbEntity
  8
0
370
              -2
390
0
  6
Continuous
 62
               0
100
AcDbLine
 10
494.68082177431643
 20
-322.03064318717816
 30
0.0
 11
399.67021292788377
 21
-322.03064318717816
 31
0.0
  0
LINE
  5
86
100
AcDbEntity
  8
0
370
              -2
390
0
  6
Continuous
 62
               0
100
AcDbLine
 10
399.67021292788377
 20
-602.0306431871777
 30
0.0
 11
399.67021292788377
 21
-322.03064318717816
 31
0.0
  0
CIRCLE
  5
87
102
{ACAD_REACTORS
330
88
102
}
100
AcDbEntity
  8
0
370
              -2
390
0
  6
Continuous
 62
               0
100
AcDbCircle
 10
399.67021292788377
 20
-602.0306431871777
 30
0.0
 40
4.99969482421875
  0
HATCH
  5
88
100
AcDbEntity
  8
0
370
              -2
390
0
  6
Continuous
 62
               0
100
AcDbHatch
 10
0.0
 20
0.0
 30
0.0
210
0.0
220
0.0
230
1.0
  2
SOLID
 70
               1
 71
               1
 91
        1
 92
        1
 93
        1
 72
               2
 10
399.67021292788377
 20
-602.0306431871777
 40
4.99969482421875
 50
0.0
 51
360.0
 73
               0
 97
        1
330
87
 75
               0
 76
               1
 98
        1
 10
0.0
 20
0.0
  0
CIRCLE
  5
89
102
{ACAD_REACTORS
330
8A
102
}
100
AcDbEntity
  8
0
370
              -2
390
0
  6
Continuous
 62
               0
100
AcDbCircle
 10
399.67021292788377
 20
-322.03064318717816
 30
0.0
 40
4.99969482421875
  0
HATCH
  5
8A
100
AcDbEntity
  8
0
370
              -2
390
0
  6
Continuous
 62
               0
100
AcDbHatch
 10
0.0
 20
0.0
 30
0.0
210
0.0
220
0.0
230
1.0
  2
SOLID
 70
               1
 71
               1
 91
        1
 92
        1
 93
        1
 72
               2
 10
399.67021292788377
 20
-322.03064318717816
 40
4.99969482421875
 50
0.0
 51
360.0
 73
               0
 97
        1
330
89
 75
               0
 76
               1
 98
        1
 10
0.0
 20
0.0
  0
MTEXT
  5
8B
100
AcDbEntity
  8
0
390
0
 62
               0
100
AcDbMText
 10
365.79259574038406
 20
-485.84314486935341
 30
0.0
 40
24.432617187500004
 41
0.0
 71
               1
 72
               1
  1
280
  7
ＭＳゴシック
 11
0.0
 21
1.0
 31
0.0
 73
               1
 44
0.7828267384257843
  0
POINT
  5
8C
100
AcDbEntity
  8
Defpoints
370
               0
390
0
 62
               0
100
AcDbPoint
 10
519.68082177431643
 20
-322.03064318717816
 30
0.0
  0
POINT
  5
8D
100
AcDbEntity
  8
Defpoints
370
               0
390
0
 62
               0
100
AcDbPoint
 10
519.68082177431643
 20
-602.0306431871777
 30
0.0
  0
POINT
  5
8E
100
AcDbEntity
  8
Defpoints
370
               0
390
0
 62
               0
100
AcDbPoint
 10
399.67021292788377
 20
-602.0306431871777
 30
0.0
  0
ENDBLK
  5
8F
100
AcDbEntity
  8
notes
390
0
100
AcDbBlockEnd
  0
BLOCK
  5
90
100
AcDbEntity
  8
notes
390
0
100
AcDbBlockBegin
  2
*D7
 70
               1
 10
0.0
 20
0.0
 30
0.0
  3
*D7
  1

  0
LINE
  5
91
100
AcDbEntity
  8
0
370
              -2
390
0
  6
Continuous
 62
               0
100
AcDbLine
 10
494.68082177431643
 20
-322.03064318717816
 30
0.0
 11
399.67021292788377
 21
-322.03064318717816
 31
0.0
  0
LINE
  5
92
100
AcDbEntity
  8
0
370
              -2
390
0
  6
Continuous
 62
               0
100
AcDbLine
 10
494.68082177431643
 20
-207.03064318717816
 30
0.0
 11
399.67021292788377
 21
-207.03064318717816
 31
0.0
  0
LINE
  5
93
100
AcDbEntity
  8
0
370
              -2
390
0
  6
Continuous
 62
               0
100
AcDbLine
 10
399.67021292788377
 20
-322.03064318717816
 30
0.0
 11
399.67021292788377
 21
-207.03064318717816
 31
0.0
  0
CIRCLE
  5
94
102
{ACAD_REACTORS
330
95
102
}
100
AcDbEntity
  8
0
370
              -2
390
0
  6
Continuous
 62
               0
100
AcDbCircle
 10
399.67021292788377
 20
-322.03064318717816
 30
0.0
 40
4.99969482421875
  0
HATCH
  5
95
100
AcDbEntity
  8
0
370
              -2
390
0
  6
Continuous
 62
               0
100
AcDbHatch
 10
0.0
 20
0.0
 30
0.0
210
0.0
220
0.0
230
1.0
  2
SOLID
 70
               1
 71
               1
 91
        1
 92
        1
 93
        1
 72
               2
 10
399.67021292788377
 20
-322.03064318717816
 40
4.99969482421875
 50
0.0
 51
360.0
 73
               0
 97
        1
330
94
 75
               0
 76
               1
 98
        1
 10
0.0
 20
0.0
  0
CIRCLE
  5
96
102
{ACAD_REACTORS
330
97
102
}
100
AcDbEntity
  8
0
370
              -2
390
0
  6
Continuous
 62
               0
100
AcDbCircle
 10
399.67021292788377
 20
-207.03064318717816
 30
0.0
 40
4.99969482421875
  0
HATCH
  5
97
100
AcDbEntity
  8
0
370
              -2
390
0
  6
Continuous
 62
               0
100
AcDbHatch
 10
0.0
 20
0.0
 30
0.0
210
0.0
220
0.0
230
1.0
  2
SOLID
 70
               1
 71
               1
 91
        1
 92
        1
 93
        1
 72
               2
 10
399.67021292788377
 20
-207.03064318717816
 40
4.99969482421875
 50
0.0
 51
360.0
 73
               0
 97
        1
330
96
 75
               0
 76
               1
 98
        1
 10
0.0
 20
0.0
  0
MTEXT
  5
98
100
AcDbEntity
  8
0
390
0
 62
               0
100
AcDbMText
 10
365.79259574038406
 20
-288.34314486935364
 30
0.0
 40
24.432617187500004
 41
0.0
 71
               1
 72
               1
  1
115
  7
ＭＳゴシック
 11
0.0
 21
1.0
 31
0.0
 73
               1
 44
0.7828267384257843
  0
POINT
  5
99
100
AcDbEntity
  8
Defpoints
370
               0
390
0
 62
               0
100
AcDbPoint
 10
519.68082177431643
 20
-207.03064318717816
 30
0.0
  0
POINT
  5
9A
100
AcDbEntity
  8
Defpoints
370
               0
390
0
 62
               0
100
AcDbPoint
 10
519.68082177431643
 20
-322.03064318717816
 30
0.0
  0
POINT
  5
9B
100
AcDbEntity
  8
Defpoints
370
               0
390
0
 62
               0
100
AcDbPoint
 10
399.67021292788377
 20
-322.03064318717816
 30
0.0
  0
ENDBLK
  5
9C
100
AcDbEntity
  8
notes
390
0
100
AcDbBlockEnd
  0
BLOCK
  5
9D
100
AcDbEntity
  8
notes
390
0
100
AcDbBlockBegin
  2
*D8
 70
               1
 10
0.0
 20
0.0
 30
0.0
  3
*D8
  1

  0
LINE
  5
9E
100
AcDbEntity
  8
0
370
              -2
390
0
  6
Continuous
 62
               0
100
AcDbLine
 10
539.67021292788377
 20
-792.03064318717634
 30
0.0
 11
539.67021292788377
 21
-1012.0213045152027
 31
0.0
  0
LINE
  5
9F
100
AcDbEntity
  8
0
370
              -2
390
0
  6
Continuous
 62
               0
100
AcDbLine
 10
499.67021292788377
 20
-932.02133552200917
 30
0.0
 11
499.67021292788377
 21
-1012.0213045152027
 31
0.0
  0
LINE
  5
A0
100
AcDbEntity
  8
0
370
              -2
390
0
  6
Continuous
 62
               0
100
AcDbLine
 10
539.67021292788377
 20
-1012.0213045152027
 30
0.0
 11
499.67021292788377
 21
-1012.0213045152027
 31
0.0
  0
CIRCLE
  5
A1
102
{ACAD_REACTORS
330
A2
102
}
100
AcDbEntity
  8
0
370
              -2
390
0
  6
Continuous
 62
               0
100
AcDbCircle
 10
539.67021292788377
 20
-1012.0213045152027
 30
0.0
 40
4.99969482421875
  0
HATCH
  5
A2
100
AcDbEntity
  8
0
370
              -2
390
0
  6
Continuous
 62
               0
100
AcDbHatch
 10
0.0
 20
0.0
 30
0.0
210
0.0
220
0.0
230
1.0
  2
SOLID
 70
               1
 71
               1
 91
        1
 92
        1
 93
        1
 72
               2
 10
539.67021292788377
 20
-1012.0213045152027
 40
4.99969482421875
 50
0.0
 51
360.0
 73
               0
 97
        1
330
A1
 75
               0
 76
               1
 98
        1
 10
0.0
 20
0.0
  0
CIRCLE
  5
A3
102
{ACAD_REACTORS
330
A4
102
}
100
AcDbEntity
  8
0
370
              -2
390
0
  6
Continuous
 62
               0
100
AcDbCircle
 10
499.67021292788377
 20
-1012.0213045152027
 30
0.0
 40
4.99969482421875
  0
HATCH
  5
A4
100
AcDbEntity
  8
0
370
              -2
390
0
  6
Continuous
 62
               0
100
AcDbHatch
 10
0.0
 20
0.0
 30
0.0
210
0.0
220
0.0
230
1.0
  2
SOLID
 70
               1
 71
               1
 91
        1
 92
        1
 93
        1
 72
               2
 10
499.67021292788377
 20
-1012.0213045152027
 40
4.99969482421875
 50
0.0
 51
360.0
 73
               0
 97
        1
330
A3
 75
               0
 76
               1
 98
        1
 10
0.0
 20
0.0
  0
MTEXT
  5
A5
100
AcDbEntity
  8
0
390
0
 62
               0
100
AcDbMText
 10
503.79521292788377
 20
-978.14368732770265
 30
0.0
 40
24.432617187500004
 41
0.0
 71
               1
 72
               1
  1
40
  7
ＭＳゴシック
 73
               1
 44
0.7828267384257843
  0
POINT
  5
A6
100
AcDbEntity
  8
Defpoints
370
               0
390
0
 62
               0
100
AcDbPoint
 10
499.67021292788377
 20
-907.02133552200917
 30
0.0
  0
POINT
  5
A7
100
AcDbEntity
  8
Defpoints
370
               0
390
0
 62
               0
100
AcDbPoint
 10
539.67021292788377
 20
-767.03064318717634
 30
0.0
  0
POINT
  5
A8
100
AcDbEntity
  8
Defpoints
370
               0
390
0
 62
               0
100
AcDbPoint
 10
539.67021292788377
 20
-1012.0213045152027
 30
0.0
  0
ENDBLK
  5
A9
100
AcDbEntity
  8
notes
390
0
100
AcDbBlockEnd
  0
BLOCK
  5
AA
100
AcDbEntity
  8
notes
390
0
100
AcDbBlockBegin
  2
*D9
 70
               1
 10
0.0
 20
0.0
 30
0.0
  3
*D9
  1

  0
LINE
  5
AB
100
AcDbEntity
  8
0
370
              -2
390
0
  6
Continuous
 62
               0
100
AcDbLine
 10
499.67021292788377
 20
7.8755608471901724
 30
0.0
 11
499.67021292788377
 21
87.978633471184821
 31
0.0
  0
LINE
  5
AC
100
AcDbEntity
  8
0
370
              -2
390
0
  6
Continuous
 62
               0
100
AcDbLine
 10
679.67021292784739
 20
-69.254776370614763
 30
0.0
 11
679.67021292784739
 21
87.978633471184821
 31
0.0
  0
LINE
  5
AD
100
AcDbEntity
  8
0
370
              -2
390
0
  6
Continuous
 62
               0
100
AcDbLine
 10
499.67021292788377
 20
87.978633471184821
 30
0.0
 11
679.67021292784739
 21
87.978633471184821
 31
0.0
  0
CIRCLE
  5
AE
102
{ACAD_REACTORS
330
AF
102
}
100
AcDbEntity
  8
0
370
              -2
390
0
  6
Continuous
 62
               0
100
AcDbCircle
 10
499.67021292788377
 20
87.978633471184821
 30
0.0
 40
4.99969482421875
  0
HATCH
  5
AF
100
AcDbEntity
  8
0
370
              -2
390
0
  6
Continuous
 62
               0
100
AcDbHatch
 10
0.0
 20
0.0
 30
0.0
210
0.0
220
0.0
230
1.0
  2
SOLID
 70
               1
 71
               1
 91
        1
 92
        1
 93
        1
 72
               2
 10
499.67021292788377
 20
87.978633471184821
 40
4.99969482421875
 50
0.0
 51
360.0
 73
               0
 97
        1
330
AE
 75
               0
 76
               1
 98
        1
 10
0.0
 20
0.0
  0
CIRCLE
  5
B0
102
{ACAD_REACTORS
330
B1
102
}
100
AcDbEntity
  8
0
370
              -2
390
0
  6
Continuous
 62
               0
100
AcDbCircle
 10
679.67021292784739
 20
87.978633471184821
 30
0.0
 40
4.99969482421875
  0
HATCH
  5
B1
100
AcDbEntity
  8
0
370
              -2
390
0
  6
Continuous
 62
               0
100
AcDbHatch
 10
0.0
 20
0.0
 30
0.0
210
0.0
220
0.0
230
1.0
  2
SOLID
 70
               1
 71
               1
 91
        1
 92
        1
 93
        1
 72
               2
 10
679.67021292784739
 20
87.978633471184821
 40
4.99969482421875
 50
0.0
 51
360.0
 73
               0
 97
        1
330
B0
 75
               0
 76
               1
 98
        1
 10
0.0
 20
0.0
  0
MTEXT
  5
B2
100
AcDbEntity
  8
0
390
0
 62
               0
100
AcDbMText
 10
565.85771124568964
 20
121.85625065868476
 30
0.0
 40
24.432617187500004
 41
0.0
 71
               1
 72
               1
  1
180
  7
ＭＳゴシック
 73
               1
 44
0.7828267384257843
  0
POINT
  5
B3
100
AcDbEntity
  8
Defpoints
370
               0
390
0
 62
               0
100
AcDbPoint
 10
679.67021292784739
 20
-94.254776370614763
 30
0.0
  0
POINT
  5
B4
100
AcDbEntity
  8
Defpoints
370
               0
390
0
 62
               0
100
AcDbPoint
 10
499.67021292788377
 20
-17.124439152809828
 30
0.0
  0
POINT
  5
B5
100
AcDbEntity
  8
Defpoints
370
               0
390
0
 62
               0
100
AcDbPoint
 10
499.67021292788377
 20
87.978633471184821
 30
0.0
  0
ENDBLK
  5
B6
100
AcDbEntity
  8
notes
390
0
100
AcDbBlockEnd
  0
BLOCK
  5
B7
100
AcDbEntity
  8
notes
390
0
100
AcDbBlockBegin
  2
*D10
 70
               1
 10
0.0
 20
0.0
 30
0.0
  3
*D10
  1

  0
LINE
  5
B8
100
AcDbEntity
  8
0
370
              -2
390
0
  6
Continuous
 62
               0
100
AcDbLine
 10
-631.48970282418486
 20
-932.04318758400893
 30
0.0
 11
-631.48970282418486
 21
-1012.0431875840089
 31
0.0
  0
LINE
  5
B9
100
AcDbEntity
  8
0
370
              -2
390
0
  6
Continuous
 62
               0
100
AcDbLine
 10
-501.48970282418304
 20
-937.04318758400893
 30
0.0
 11
-501.48970282418304
 21
-1012.0431875840089
 31
0.0
  0
LINE
  5
BA
100
AcDbEntity
  8
0
370
              -2
390
0
  6
Continuous
 62
               0
100
AcDbLine
 10
-631.48970282418486
 20
-1012.0431875840089
 30
0.0
 11
-501.48970282418304
 21
-1012.0431875840089
 31
0.0
  0
CIRCLE
  5
BB
102
{ACAD_REACTORS
330
BC
102
}
100
AcDbEntity
  8
0
370
              -2
390
0
  6
Continuous
 62
               0
100
AcDbCircle
 10
-631.48970282418486
 20
-1012.0431875840089
 30
0.0
 40
4.99969482421875
  0
HATCH
  5
BC
100
AcDbEntity
  8
0
370
              -2
390
0
  6
Continuous
 62
               0
100
AcDbHatch
 10
0.0
 20
0.0
 30
0.0
210
0.0
220
0.0
230
1.0
  2
SOLID
 70
               1
 71
               1
 91
        1
 92
        1
 93
        1
 72
               2
 10
-631.48970282418486
 20
-1012.0431875840089
 40
4.99969482421875
 50
0.0
 51
360.0
 73
               0
 97
        1
330
BB
 75
               0
 76
               1
 98
        1
 10
0.0
 20
0.0
  0
CIRCLE
  5
BD
102
{ACAD_REACTORS
330
BE
102
}
100
AcDbEntity
  8
0
370
              -2
390
0
  6
Continuous
 62
               0
100
AcDbCircle
 10
-501.48970282418304
 20
-1012.0431875840089
 30
0.0
 40
4.99969482421875
  0
HATCH
  5
BE
100
AcDbEntity
  8
0
370
              -2
390
0
  6
Continuous
 62
               0
100
AcDbHatch
 10
0.0
 20
0.0
 30
0.0
210
0.0
220
0.0
230
1.0
  2
SOLID
 70
               1
 71
               1
 91
        1
 92
        1
 93
        1
 72
               2
 10
-501.48970282418304
 20
-1012.0431875840089
 40
4.99969482421875
 50
0.0
 51
360.0
 73
               0
 97
        1
330
BD
 75
               0
 76
               1
 98
        1
 10
0.0
 20
0.0
  0
MTEXT
  5
BF
100
AcDbEntity
  8
0
390
0
 62
               0
100
AcDbMText
 10
-590.30220450635898
 20
-978.16557039650888
 30
0.0
 40
24.432617187500004
 41
0.0
 71
               1
 72
               1
  1
130
  7
ＭＳゴシック
 73
               1
 44
0.7828267384257843
  0
POINT
  5
C0
100
AcDbEntity
  8
Defpoints
370
               0
390
0
 62
               0
100
AcDbPoint
 10
-501.48970282418304
 20
-912.04318758400893
 30
0.0
  0
POINT
  5
C1
100
AcDbEntity
  8
Defpoints
370
               0
390
0
 62
               0
100
AcDbPoint
 10
-631.48970282418486
 20
-907.04318758400893
 30
0.0
  0
POINT
  5
C2
100
AcDbEntity
  8
Defpoints
370
               0
390
0
 62
               0
100
AcDbPoint
 10
-631.48970282418486
 20
-1012.0431875840089
 30
0.0
  0
ENDBLK
  5
C3
100
AcDbEntity
  8
notes
390
0
100
AcDbBlockEnd
  0
BLOCK
  5
C4
100
AcDbEntity
  8
notes
390
0
100
AcDbBlockBegin
  2
*D11
 70
               1
 10
0.0
 20
0.0
 30
0.0
  3
*D11
  1

  0
LINE
  5
C5
100
AcDbEntity
  8
0
370
              -2
390
0
  6
Continuous
 62
               0
100
AcDbLine
 10
-501.48970282418304
 20
-930.2482683408964
 30
0.0
 11
-501.48970282418304
 21
-1012.0431875840095
 31
0.0
  0
LINE
  5
C6
100
AcDbEntity
  8
0
370
              -2
390
0
  6
Continuous
 62
               0
100
AcDbLine
 10
-201.48970282418486
 20
-844.91406568904188
 30
0.0
 11
-201.48970282418486
 21
-1012.0431875840095
 31
0.0
  0
LINE
  5
C7
100
AcDbEntity
  8
0
370
              -2
390
0
  6
Continuous
 62
               0
100
AcDbLine
 10
-501.48970282418304
 20
-1012.0431875840095
 30
0.0
 11
-201.48970282418486
 21
-1012.0431875840095
 31
0.0
  0
CIRCLE
  5
C8
102
{ACAD_REACTORS
330
C9
102
}
100
AcDbEntity
  8
0
370
              -2
390
0
  6
Continuous
 62
               0
100
AcDbCircle
 10
-501.48970282418304
 20
-1012.0431875840095
 30
0.0
 40
4.99969482421875
  0
HATCH
  5
C9
100
AcDbEntity
  8
0
370
              -2
390
0
  6
Continuous
 62
               0
100
AcDbHatch
 10
0.0
 20
0.0
 30
0.0
210
0.0
220
0.0
230
1.0
  2
SOLID
 70
               1
 71
               1
 91
        1
 92
        1
 93
        1
 72
               2
 10
-501.48970282418304
 20
-1012.0431875840095
 40
4.99969482421875
 50
0.0
 51
360.0
 73
               0
 97
        1
330
C8
 75
               0
 76
               1
 98
        1
 10
0.0
 20
0.0
  0
CIRCLE
  5
CA
102
{ACAD_REACTORS
330
CB
102
}
100
AcDbEntity
  8
0
370
              -2
390
0
  6
Continuous
 62
               0
100
AcDbCircle
 10
-201.48970282418486
 20
-1012.0431875840095
 30
0.0
 40
4.99969482421875
  0
HATCH
  5
CB
100
AcDbEntity
  8
0
370
              -2
390
0
  6
Continuous
 62
               0
100
AcDbHatch
 10
0.0
 20
0.0
 30
0.0
210
0.0
220
0.0
230
1.0
  2
SOLID
 70
               1
 71
               1
 91
        1
 92
        1
 93
        1
 72
               2
 10
-201.48970282418486
 20
-1012.0431875840095
 40
4.99969482421875
 50
0.0
 51
360.0
 73
               0
 97
        1
330
CA
 75
               0
 76
               1
 98
        1
 10
0.0
 20
0.0
  0
MTEXT
  5
CC
100
AcDbEntity
  8
0
390
0
 62
               0
100
AcDbMText
 10
-375.30220450635898
 20
-978.16557039650945
 30
0.0
 40
24.432617187500004
 41
0.0
 71
               1
 72
               1
  1
300
  7
ＭＳゴシック
 73
               1
 44
0.7828267384257843
  0
POINT
  5
CD
100
AcDbEntity
  8
Defpoints
370
               0
390
0
 62
               0
100
AcDbPoint
 10
-201.48970282418486
 20
-819.91406568904188
 30
0.0
  0
POINT
  5
CE
100
AcDbEntity
  8
Defpoints
370
               0
390
0
 62
               0
100
AcDbPoint
 10
-501.48970282418304
 20
-905.2482683408964
 30
0.0
  0
POINT
  5
CF
100
AcDbEntity
  8
Defpoints
370
               0
390
0
 62
               0
100
AcDbPoint
 10
-501.48970282418304
 20
-1012.0431875840095
 30
0.0
  0
ENDBLK
  5
D0
100
AcDbEntity
  8
notes
390
0
100
AcDbBlockEnd
  0
BLOCK
  5
D1
100
AcDbEntity
  8
notes
390
0
100
AcDbBlockBegin
  2
*D12
 70
               1
 10
0.0
 20
0.0
 30
0.0
  3
*D12
  1

  0
LINE
  5
D2
100
AcDbEntity
  8
0
370
              -2
390
0
  6
Continuous
 62
               0
100
AcDbLine
 10
-631.45317920229718
 20
7.956750402378475
 30
0.0
 11
-631.45317920229718
 21
87.956750402378475
 31
0.0
  0
LINE
  5
D3
100
AcDbEntity
  8
0
370
              -2
390
0
  6
Continuous
 62
               0
100
AcDbLine
 10
-176.48970282418304
 20
-172.04324959762153
 30
0.0
 11
-176.48970282418304
 21
87.956750402378475
 31
0.0
  0
LINE
  5
D4
100
AcDbEntity
  8
0
370
              -2
390
0
  6
Continuous
 62
               0
100
AcDbLine
 10
-631.45317920229718
 20
87.956750402378475
 30
0.0
 11
-176.48970282418304
 21
87.956750402378475
 31
0.0
  0
CIRCLE
  5
D5
102
{ACAD_REACTORS
330
D6
102
}
100
AcDbEntity
  8
0
370
              -2
390
0
  6
Continuous
 62
               0
100
AcDbCircle
 10
-631.45317920229718
 20
87.956750402378475
 30
0.0
 40
4.99969482421875
  0
HATCH
  5
D6
100
AcDbEntity
  8
0
370
              -2
390
0
  6
Continuous
 62
               0
100
AcDbHatch
 10
0.0
 20
0.0
 30
0.0
210
0.0
220
0.0
230
1.0
  2
SOLID
 70
               1
 71
               1
 91
        1
 92
        1
 93
        1
 72
               2
 10
-631.45317920229718
 20
87.956750402378475
 40
4.99969482421875
 50
0.0
 51
360.0
 73
               0
 97
        1
330
D5
 75
               0
 76
               1
 98
        1
 10
0.0
 20
0.0
  0
CIRCLE
  5
D7
102
{ACAD_REACTORS
330
D8
102
}
100
AcDbEntity
  8
0
370
              -2
390
0
  6
Continuous
 62
               0
100
AcDbCircle
 10
-176.48970282418304
 20
87.956750402378475
 30
0.0
 40
4.99969482421875
  0
HATCH
  5
D8
100
AcDbEntity
  8
0
370
              -2
390
0
  6
Continuous
 62
               0
100
AcDbHatch
 10
0.0
 20
0.0
 30
0.0
210
0.0
220
0.0
230
1.0
  2
SOLID
 70
               1
 71
               1
 91
        1
 92
        1
 93
        1
 72
               2
 10
-176.48970282418304
 20
87.956750402378475
 40
4.99969482421875
 50
0.0
 51
360.0
 73
               0
 97
        1
330
D7
 75
               0
 76
               1
 98
        1
 10
0.0
 20
0.0
  0
MTEXT
  5
D9
100
AcDbEntity
  8
0
390
0
 62
               0
100
AcDbMText
 10
-427.78394269541604
 20
121.83436758987841
 30
0.0
 40
24.432617187500004
 41
0.0
 71
               1
 72
               1
  1
455
  7
ＭＳゴシック
 73
               1
 44
0.7828267384257843
  0
POINT
  5
DA
100
AcDbEntity
  8
Defpoints
370
               0
390
0
 62
               0
100
AcDbPoint
 10
-176.48970282418304
 20
-197.04324959762153
 30
0.0
  0
POINT
  5
DB
100
AcDbEntity
  8
Defpoints
370
               0
390
0
 62
               0
100
AcDbPoint
 10
-631.45317920229718
 20
-17.043249597621525
 30
0.0
  0
POINT
  5
DC
100
AcDbEntity
  8
Defpoints
370
               0
390
0
 62
               0
100
AcDbPoint
 10
-631.45317920229718
 20
87.956750402378475
 30
0.0
  0
ENDBLK
  5
DD
100
AcDbEntity
  8
notes
390
0
100
AcDbBlockEnd
  0
BLOCK
  5
DE
100
AcDbEntity
  8
notes
390
0
100
AcDbBlockBegin
  2
*D13
 70
               1
 10
0.0
 20
0.0
 30
0.0
  3
*D13
  1

  0
LINE
  5
DF
100
AcDbEntity
  8
0
370
              -2
390
0
  6
Continuous
 62
               0
100
AcDbLine
 10
-226.09157026490357
 20
-877.05252625598257
 30
0.0
 11
-76.48970282418486
 21
-877.05252625598257
 31
0.0
  0
LINE
  5
E0
100
AcDbEntity
  8
0
370
              -2
390
0
  6
Continuous
 62
               0
100
AcDbLine
 10
-226.09157026490357
 20
-47.052526255984503
 30
0.0
 11
-76.48970282418486
 21
-47.052526255984503
 31
0.0
  0
LINE
  5
E1
100
AcDbEntity
  8
0
370
              -2
390
0
  6
Continuous
 62
               0
100
AcDbLine
 10
-76.48970282418486
 20
-877.05252625598257
 30
0.0
 11
-76.48970282418486
 21
-47.052526255984503
 31
0.0
  0
CIRCLE
  5
E2
102
{ACAD_REACTORS
330
E3
102
}
100
AcDbEntity
  8
0
370
              -2
390
0
  6
Continuous
 62
               0
100
AcDbCircle
 10
-76.48970282418486
 20
-877.05252625598257
 30
0.0
 40
4.99969482421875
  0
HATCH
  5
E3
100
AcDbEntity
  8
0
370
              -2
390
0
  6
Continuous
 62
               0
100
AcDbHatch
 10
0.0
 20
0.0
 30
0.0
210
0.0
220
0.0
230
1.0
  2
SOLID
 70
               1
 71
               1
 91
        1
 92
        1
 93
        1
 72
               2
 10
-76.48970282418486
 20
-877.05252625598257
 40
4.99969482421875
 50
0.0
 51
360.0
 73
               0
 97
        1
330
E2
 75
               0
 76
               1
 98
        1
 10
0.0
 20
0.0
  0
CIRCLE
  5
E4
102
{ACAD_REACTORS
330
E5
102
}
100
AcDbEntity
  8
0
370
              -2
390
0
  6
Continuous
 62
               0
100
AcDbCircle
 10
-76.48970282418486
 20
-47.052526255984503
 30
0.0
 40
4.99969482421875
  0
HATCH
  5
E5
100
AcDbEntity
  8
0
370
              -2
390
0
  6
Continuous
 62
               0
100
AcDbHatch
 10
0.0
 20
0.0
 30
0.0
210
0.0
220
0.0
230
1.0
  2
SOLID
 70
               1
 71
               1
 91
        1
 92
        1
 93
        1
 72
               2
 10
-76.48970282418486
 20
-47.052526255984503
 40
4.99969482421875
 50
0.0
 51
360.0
 73
               0
 97
        1
330
E4
 75
               0
 76
               1
 98
        1
 10
0.0
 20
0.0
  0
MTEXT
  5
E6
100
AcDbEntity
  8
0
390
0
 62
               0
100
AcDbMText
 10
-110.36732001168457
 20
-485.86502793815907
 30
0.0
 40
24.432617187500004
 41
0.0
 71
               1
 72
               1
  1
830
  7
ＭＳゴシック
 11
0.0
 21
1.0
 31
0.0
 73
               1
 44
0.7828267384257843
  0
POINT
  5
E7
100
AcDbEntity
  8
Defpoints
370
               0
390
0
 62
               0
100
AcDbPoint
 10
-251.09157026490357
 20
-47.052526255984503
 30
0.0
  0
POINT
  5
E8
100
AcDbEntity
  8
Defpoints
370
               0
390
0
 62
               0
100
AcDbPoint
 10
-251.09157026490357
 20
-877.05252625598257
 30
0.0
  0
POINT
  5
E9
100
AcDbEntity
  8
Defpoints
370
               0
390
0
 62
               0
100
AcDbPoint
 10
-76.48970282418486
 20
-877.05252625598257
 30
0.0
  0
ENDBLK
  5
EA
100
AcDbEntity
  8
notes
390
0
100
AcDbBlockEnd
  0
BLOCK
  5
EB
100
AcDbEntity
  8
notes
390
0
100
AcDbBlockBegin
  2
*D14
 70
               1
 10
0.0
 20
0.0
 30
0.0
  3
*D14
  1

  0
LINE
  5
EC
100
AcDbEntity
  8
0
370
              -2
390
0
  6
Continuous
 62
               0
100
AcDbLine
 10
-611.31566889038004
 20
-662.0432185908162
 30
0.0
 11
-731.45317920229718
 21
-662.0432185908162
 31
0.0
  0
LINE
  5
ED
100
AcDbEntity
  8
0
370
              -2
390
0
  6
Continuous
 62
               0
100
AcDbLine
 10
-611.31566889038004
 20
-562.04321859081665
 30
0.0
 11
-731.45317920229718
 21
-562.04321859081665
 31
0.0
  0
LINE
  5
EE
100
AcDbEntity
  8
0
370
              -2
390
0
  6
Continuous
 62
               0
100
AcDbLine
 10
-731.45317920229718
 20
-662.0432185908162
 30
0.0
 11
-731.45317920229718
 21
-562.04321859081665
 31
0.0
  0
CIRCLE
  5
EF
102
{ACAD_REACTORS
330
F0
102
}
100
AcDbEntity
  8
0
370
              -2
390
0
  6
Continuous
 62
               0
100
AcDbCircle
 10
-731.45317920229718
 20
-662.0432185908162
 30
0.0
 40
4.99969482421875
  0
HATCH
  5
F0
100
AcDbEntity
  8
0
370
              -2
390
0
  6
Continuous
 62
               0
100
AcDbHatch
 10
0.0
 20
0.0
 30
0.0
210
0.0
220
0.0
230
1.0
  2
SOLID
 70
               1
 71
               1
 91
        1
 92
        1
 93
        1
 72
               2
 10
-731.45317920229718
 20
-662.0432185908162
 40
4.99969482421875
 50
0.0
 51
360.0
 73
               0
 97
        1
330
EF
 75
               0
 76
               1
 98
        1
 10
0.0
 20
0.0
  0
CIRCLE
  5
F1
102
{ACAD_REACTORS
330
F2
102
}
100
AcDbEntity
  8
0
370
              -2
390
0
  6
Continuous
 62
               0
100
AcDbCircle
 10
-731.45317920229718
 20
-562.04321859081665
 30
0.0
 40
4.99969482421875
  0
HATCH
  5
F2
100
AcDbEntity
  8
0
370
              -2
390
0
  6
Continuous
 62
               0
100
AcDbHatch
 10
0.0
 20
0.0
 30
0.0
210
0.0
220
0.0
230
1.0
  2
SOLID
 70
               1
 71
               1
 91
        1
 92
        1
 93
        1
 72
               2
 10
-731.45317920229718
 20
-562.04321859081665
 40
4.99969482421875
 50
0.0
 51
360.0
 73
               0
 97
        1
330
F1
 75
               0
 76
               1
 98
        1
 10
0.0
 20
0.0
  0
MTEXT
  5
F3
100
AcDbEntity
  8
0
390
0
 62
               0
100
AcDbMText
 10
-765.33079638979689
 20
-635.8557202729919
 30
0.0
 40
24.432617187500004
 41
0.0
 71
               1
 72
               1
  1
100
  7
ＭＳゴシック
 11
0.0
 21
1.0
 31
0.0
 73
               1
 44
0.7828267384257843
  0
POINT
  5
F4
100
AcDbEntity
  8
Defpoints
370
               0
390
0
 62
               0
100
AcDbPoint
 10
-586.31566889038004
 20
-562.04321859081665
 30
0.0
  0
POINT
  5
F5
100
AcDbEntity
  8
Defpoints
370
               0
390
0
 62
               0
100
AcDbPoint
 10
-586.31566889038004
 20
-662.0432185908162
 30
0.0
  0
POINT
  5
F6
100
AcDbEntity
  8
Defpoints
370
               0
390
0
 62
               0
100
AcDbPoint
 10
-731.45317920229718
 20
-662.0432185908162
 30
0.0
  0
ENDBLK
  5
F7
100
AcDbEntity
  8
notes
390
0
100
AcDbBlockEnd
  0
BLOCK
  5
F8
100
AcDbEntity
  8
notes
390
0
100
AcDbBlockBegin
  2
*D15
 70
               1
 10
0.0
 20
0.0
 30
0.0
  3
*D15
  1

  0
LINE
  5
F9
100
AcDbEntity
  8
0
370
              -2
390
0
  6
Continuous
 62
               0
100
AcDbLine
 10
-611.31566889038004
 20
-562.04321859081665
 30
0.0
 11
-731.45317920229718
 21
-562.04321859081665
 31
0.0
  0
LINE
  5
FA
100
AcDbEntity
  8
0
370
              -2
390
0
  6
Continuous
 62
               0
100
AcDbLine
 10
-611.31566889038004
 20
-462.04321859081665
 30
0.0
 11
-731.45317920229718
 21
-462.04321859081665
 31
0.0
  0
LINE
  5
FB
100
AcDbEntity
  8
0
370
              -2
390
0
  6
Continuous
 62
               0
100
AcDbLine
 10
-731.45317920229718
 20
-562.04321859081665
 30
0.0
 11
-731.45317920229718
 21
-462.04321859081665
 31
0.0
  0
CIRCLE
  5
FC
102
{ACAD_REACTORS
330
FD
102
}
100
AcDbEntity
  8
0
370
              -2
390
0
  6
Continuous
 62
               0
100
AcDbCircle
 10
-731.45317920229718
 20
-562.04321859081665
 30
0.0
 40
4.99969482421875
  0
HATCH
  5
FD
100
AcDbEntity
  8
0
370
              -2
390
0
  6
Continuous
 62
               0
100
AcDbHatch
 10
0.0
 20
0.0
 30
0.0
210
0.0
220
0.0
230
1.0
  2
SOLID
 70
               1
 71
               1
 91
        1
 92
        1
 93
        1
 72
               2
 10
-731.45317920229718
 20
-562.04321859081665
 40
4.99969482421875
 50
0.0
 51
360.0
 73
               0
 97
        1
330
FC
 75
               0
 76
               1
 98
        1
 10
0.0
 20
0.0
  0
CIRCLE
  5
FE
102
{ACAD_REACTORS
330
FF
102
}
100
AcDbEntity
  8
0
370
              -2
390
0
  6
Continuous
 62
               0
100
AcDbCircle
 10
-731.45317920229718
 20
-462.04321859081665
 30
0.0
 40
4.99969482421875
  0
HATCH
  5
FF
100
AcDbEntity
  8
0
370
              -2
390
0
  6
Continuous
 62
               0
100
AcDbHatch
 10
0.0
 20
0.0
 30
0.0
210
0.0
220
0.0
230
1.0
  2
SOLID
 70
               1
 71
               1
 91
        1
 92
        1
 93
        1
 72
               2
 10
-731.45317920229718
 20
-462.04321859081665
 40
4.99969482421875
 50
0.0
 51
360.0
 73
               0
 97
        1
330
FE
 75
               0
 76
               1
 98
        1
 10
0.0
 20
0.0
  0
MTEXT
  5
100
100
AcDbEntity
  8
0
390
0
 62
               0
100
AcDbMText
 10
-765.33079638979689
 20
-535.85572027299213
 30
0.0
 40
24.432617187500004
 41
0.0
 71
               1
 72
               1
  1
100
  7
ＭＳゴシック
 11
0.0
 21
1.0
 31
0.0
 73
               1
 44
0.7828267384257843
  0
POINT
  5
101
100
AcDbEntity
  8
Defpoints
370
               0
390
0
 62
               0
100
AcDbPoint
 10
-586.31566889038004
 20
-462.04321859081665
 30
0.0
  0
POINT
  5
102
100
AcDbEntity
  8
Defpoints
370
               0
390
0
 62
               0
100
AcDbPoint
 10
-586.31566889038004
 20
-562.04321859081665
 30
0.0
  0
POINT
  5
103
100
AcDbEntity
  8
Defpoints
370
               0
390
0
 62
               0
100
AcDbPoint
 10
-731.45317920229718
 20
-562.04321859081665
 30
0.0
  0
ENDBLK
  5
104
100
AcDbEntity
  8
notes
390
0
100
AcDbBlockEnd
  0
BLOCK
  5
105
100
AcDbEntity
  8
notes
390
0
100
AcDbBlockBegin
  2
*D16
 70
               1
 10
0.0
 20
0.0
 30
0.0
  3
*D16
  1

  0
LINE
  5
106
100
AcDbEntity
  8
0
370
              -2
390
0
  6
Continuous
 62
               0
100
AcDbLine
 10
-611.31566889038004
 20
-462.04321859081665
 30
0.0
 11
-731.45317920229718
 21
-462.04321859081665
 31
0.0
  0
LINE
  5
107
100
AcDbEntity
  8
0
370
              -2
390
0
  6
Continuous
 62
               0
100
AcDbLine
 10
-611.31566889038004
 20
-362.04321859081665
 30
0.0
 11
-731.45317920229718
 21
-362.04321859081665
 31
0.0
  0
LINE
  5
108
100
AcDbEntity
  8
0
370
              -2
390
0
  6
Continuous
 62
               0
100
AcDbLine
 10
-731.45317920229718
 20
-462.04321859081665
 30
0.0
 11
-731.45317920229718
 21
-362.04321859081665
 31
0.0
  0
CIRCLE
  5
109
102
{ACAD_REACTORS
330
10A
102
}
100
AcDbEntity
  8
0
370
              -2
390
0
  6
Continuous
 62
               0
100
AcDbCircle
 10
-731.45317920229718
 20
-462.04321859081665
 30
0.0
 40
4.99969482421875
  0
HATCH
  5
10A
100
AcDbEntity
  8
0
370
              -2
390
0
  6
Continuous
 62
               0
100
AcDbHatch
 10
0.0
 20
0.0
 30
0.0
210
0.0
220
0.0
230
1.0
  2
SOLID
 70
               1
 71
               1
 91
        1
 92
        1
 93
        1
 72
               2
 10
-731.45317920229718
 20
-462.04321859081665
 40
4.99969482421875
 50
0.0
 51
360.0
 73
               0
 97
        1
330
109
 75
               0
 76
               1
 98
        1
 10
0.0
 20
0.0
  0
CIRCLE
  5
10B
102
{ACAD_REACTORS
330
10C
102
}
100
AcDbEntity
  8
0
370
              -2
390
0
  6
Continuous
 62
               0
100
AcDbCircle
 10
-731.45317920229718
 20
-362.04321859081665
 30
0.0
 40
4.99969482421875
  0
HATCH
  5
10C
100
AcDbEntity
  8
0
370
              -2
390
0
  6
Continuous
 62
               0
100
AcDbHatch
 10
0.0
 20
0.0
 30
0.0
210
0.0
220
0.0
230
1.0
  2
SOLID
 70
               1
 71
               1
 91
        1
 92
        1
 93
        1
 72
               2
 10
-731.45317920229718
 20
-362.04321859081665
 40
4.99969482421875
 50
0.0
 51
360.0
 73
               0
 97
        1
330
10B
 75
               0
 76
               1
 98
        1
 10
0.0
 20
0.0
  0
MTEXT
  5
10D
100
AcDbEntity
  8
0
390
0
 62
               0
100
AcDbMText
 10
-765.33079638979689
 20
-435.85572027299213
 30
0.0
 40
24.432617187500004
 41
0.0
 71
               1
 72
               1
  1
100
  7
ＭＳゴシック
 11
0.0
 21
1.0
 31
0.0
 73
               1
 44
0.7828267384257843
  0
POINT
  5
10E
100
AcDbEntity
  8
Defpoints
370
               0
390
0
 62
               0
100
AcDbPoint
 10
-586.31566889038004
 20
-362.04321859081665
 30
0.0
  0
POINT
  5
10F
100
AcDbEntity
  8
Defpoints
370
               0
390
0
 62
               0
100
AcDbPoint
 10
-586.31566889038004
 20
-462.04321859081665
 30
0.0
  0
POINT
  5
110
100
AcDbEntity
  8
Defpoints
370
               0
390
0
 62
               0
100
AcDbPoint
 10
-731.45317920229718
 20
-462.04321859081665
 30
0.0
  0
ENDBLK
  5
111
100
AcDbEntity
  8
notes
390
0
100
AcDbBlockEnd
  0
BLOCK
  5
112
100
AcDbEntity
  8
notes
390
0
100
AcDbBlockBegin
  2
*D17
 70
               1
 10
0.0
 20
0.0
 30
0.0
  3
*D17
  1

  0
LINE
  5
113
100
AcDbEntity
  8
0
370
              -2
390
0
  6
Continuous
 62
               0
100
AcDbLine
 10
-611.31566889038004
 20
-362.04321859081665
 30
0.0
 11
-731.45317920229718
 21
-362.04321859081665
 31
0.0
  0
LINE
  5
114
100
AcDbEntity
  8
0
370
              -2
390
0
  6
Continuous
 62
               0
100
AcDbLine
 10
-611.31566889038004
 20
-262.04321859081665
 30
0.0
 11
-731.45317920229718
 21
-262.04321859081665
 31
0.0
  0
LINE
  5
115
100
AcDbEntity
  8
0
370
              -2
390
0
  6
Continuous
 62
               0
100
AcDbLine
 10
-731.45317920229718
 20
-362.04321859081665
 30
0.0
 11
-731.45317920229718
 21
-262.04321859081665
 31
0.0
  0
CIRCLE
  5
116
102
{ACAD_REACTORS
330
117
102
}
100
AcDbEntity
  8
0
370
              -2
390
0
  6
Continuous
 62
               0
100
AcDbCircle
 10
-731.45317920229718
 20
-362.04321859081665
 30
0.0
 40
4.99969482421875
  0
HATCH
  5
117
100
AcDbEntity
  8
0
370
              -2
390
0
  6
Continuous
 62
               0
100
AcDbHatch
 10
0.0
 20
0.0
 30
0.0
210
0.0
220
0.0
230
1.0
  2
SOLID
 70
               1
 71
               1
 91
        1
 92
        1
 93
        1
 72
               2
 10
-731.45317920229718
 20
-362.04321859081665
 40
4.99969482421875
 50
0.0
 51
360.0
 73
               0
 97
        1
330
116
 75
               0
 76
               1
 98
        1
 10
0.0
 20
0.0
  0
CIRCLE
  5
118
102
{ACAD_REACTORS
330
119
102
}
100
AcDbEntity
  8
0
370
              -2
390
0
  6
Continuous
 62
               0
100
AcDbCircle
 10
-731.45317920229718
 20
-262.04321859081665
 30
0.0
 40
4.99969482421875
  0
HATCH
  5
119
100
AcDbEntity
  8
0
370
              -2
390
0
  6
Continuous
 62
               0
100
AcDbHatch
 10
0.0
 20
0.0
 30
0.0
210
0.0
220
0.0
230
1.0
  2
SOLID
 70
               1
 71
               1
 91
        1
 92
        1
 93
        1
 72
               2
 10
-731.45317920229718
 20
-262.04321859081665
 40
4.99969482421875
 50
0.0
 51
360.0
 73
               0
 97
        1
330
118
 75
               0
 76
               1
 98
        1
 10
0.0
 20
0.0
  0
MTEXT
  5
11A
100
AcDbEntity
  8
0
390
0
 62
               0
100
AcDbMText
 10
-765.33079638979689
 20
-335.85572027299213
 30
0.0
 40
24.432617187500004
 41
0.0
 71
               1
 72
               1
  1
100
  7
ＭＳゴシック
 11
0.0
 21
1.0
 31
0.0
 73
               1
 44
0.7828267384257843
  0
POINT
  5
11B
100
AcDbEntity
  8
Defpoints
370
               0
390
0
 62
               0
100
AcDbPoint
 10
-586.31566889038004
 20
-262.04321859081665
 30
0.0
  0
POINT
  5
11C
100
AcDbEntity
  8
Defpoints
370
               0
390
0
 62
               0
100
AcDbPoint
 10
-586.31566889038004
 20
-362.04321859081665
 30
0.0
  0
POINT
  5
11D
100
AcDbEntity
  8
Defpoints
370
               0
390
0
 62
               0
100
AcDbPoint
 10
-731.45317920229718
 20
-362.04321859081665
 30
0.0
  0
ENDBLK
  5
11E
100
AcDbEntity
  8
notes
390
0
100
AcDbBlockEnd
  0
BLOCK
  5
11F
100
AcDbEntity
  8
notes
390
0
100
AcDbBlockBegin
  2
*D18
 70
               1
 10
0.0
 20
0.0
 30
0.0
  3
*D18
  1

  0
LINE
  5
120
100
AcDbEntity
  8
0
370
              -2
390
0
  6
Continuous
 62
               0
100
AcDbLine
 10
-611.31566889038004
 20
-262.04321859081665
 30
0.0
 11
-731.45317920229718
 21
-262.04321859081665
 31
0.0
  0
LINE
  5
121
100
AcDbEntity
  8
0
370
              -2
390
0
  6
Continuous
 62
               0
100
AcDbLine
 10
-611.31566889038004
 20
-162.04321859081665
 30
0.0
 11
-731.45317920229718
 21
-162.04321859081665
 31
0.0
  0
LINE
  5
122
100
AcDbEntity
  8
0
370
              -2
390
0
  6
Continuous
 62
               0
100
AcDbLine
 10
-731.45317920229718
 20
-262.04321859081665
 30
0.0
 11
-731.45317920229718
 21
-162.04321859081665
 31
0.0
  0
CIRCLE
  5
123
102
{ACAD_REACTORS
330
124
102
}
100
AcDbEntity
  8
0
370
              -2
390
0
  6
Continuous
 62
               0
100
AcDbCircle
 10
-731.45317920229718
 20
-262.04321859081665
 30
0.0
 40
4.99969482421875
  0
HATCH
  5
124
100
AcDbEntity
  8
0
370
              -2
390
0
  6
Continuous
 62
               0
100
AcDbHatch
 10
0.0
 20
0.0
 30
0.0
210
0.0
220
0.0
230
1.0
  2
SOLID
 70
               1
 71
               1
 91
        1
 92
        1
 93
        1
 72
               2
 10
-731.45317920229718
 20
-262.04321859081665
 40
4.99969482421875
 50
0.0
 51
360.0
 73
               0
 97
        1
330
123
 75
               0
 76
               1
 98
        1
 10
0.0
 20
0.0
  0
CIRCLE
  5
125
102
{ACAD_REACTORS
330
126
102
}
100
AcDbEntity
  8
0
370
              -2
390
0
  6
Continuous
 62
               0
100
AcDbCircle
 10
-731.45317920229718
 20
-162.04321859081665
 30
0.0
 40
4.99969482421875
  0
HATCH
  5
126
100
AcDbEntity
  8
0
370
              -2
390
0
  6
Continuous
 62
               0
100
AcDbHatch
 10
0.0
 20
0.0
 30
0.0
210
0.0
220
0.0
230
1.0
  2
SOLID
 70
               1
 71
               1
 91
        1
 92
        1
 93
        1
 72
               2
 10
-731.45317920229718
 20
-162.04321859081665
 40
4.99969482421875
 50
0.0
 51
360.0
 73
               0
 97
        1
330
125
 75
               0
 76
               1
 98
        1
 10
0.0
 20
0.0
  0
MTEXT
  5
127
100
AcDbEntity
  8
0
390
0
 62
               0
100
AcDbMText
 10
-765.33079638979689
 20
-235.85572027299213
 30
0.0
 40
24.432617187500004
 41
0.0
 71
               1
 72
               1
  1
100
  7
ＭＳゴシック
 11
0.0
 21
1.0
 31
0.0
 73
               1
 44
0.7828267384257843
  0
POINT
  5
128
100
AcDbEntity
  8
Defpoints
370
               0
390
0
 62
               0
100
AcDbPoint
 10
-586.31566889038004
 20
-162.04321859081665
 30
0.0
  0
POINT
  5
129
100
AcDbEntity
  8
Defpoints
370
               0
390
0
 62
               0
100
AcDbPoint
 10
-586.31566889038004
 20
-262.04321859081665
 30
0.0
  0
POINT
  5
12A
100
AcDbEntity
  8
Defpoints
370
               0
390
0
 62
               0
100
AcDbPoint
 10
-731.45317920229718
 20
-262.04321859081665
 30
0.0
  0
ENDBLK
  5
12B
100
AcDbEntity
  8
notes
390
0
100
AcDbBlockEnd
  0
BLOCK
  5
12C
100
AcDbEntity
  8
notes
390
0
100
AcDbBlockBegin
  2
*D19
 70
               1
 10
0.0
 20
0.0
 30
0.0
  3
*D19
  1

  0
LINE
  5
12D
100
AcDbEntity
  8
0
370
              -2
390
0
  6
Continuous
 62
               0
100
AcDbLine
 10
-611.31566889038004
 20
-662.0432185908162
 30
0.0
 11
-731.45317920229718
 21
-662.0432185908162
 31
0.0
  0
LINE
  5
12E
100
AcDbEntity
  8
0
370
              -2
390
0
  6
Continuous
 62
               0
100
AcDbLine
 10
-611.31566889038004
 20
-762.04321859081529
 30
0.0
 11
-731.45317920229718
 21
-762.04321859081529
 31
0.0
  0
LINE
  5
12F
100
AcDbEntity
  8
0
370
              -2
390
0
  6
Continuous
 62
               0
100
AcDbLine
 10
-731.45317920229718
 20
-662.0432185908162
 30
0.0
 11
-731.45317920229718
 21
-762.04321859081529
 31
0.0
  0
CIRCLE
  5
130
102
{ACAD_REACTORS
330
131
102
}
100
AcDbEntity
  8
0
370
              -2
390
0
  6
Continuous
 62
               0
100
AcDbCircle
 10
-731.45317920229718
 20
-662.0432185908162
 30
0.0
 40
4.99969482421875
  0
HATCH
  5
131
100
AcDbEntity
  8
0
370
              -2
390
0
  6
Continuous
 62
               0
100
AcDbHatch
 10
0.0
 20
0.0
 30
0.0
210
0.0
220
0.0
230
1.0
  2
SOLID
 70
               1
 71
               1
 91
        1
 92
        1
 93
        1
 72
               2
 10
-731.45317920229718
 20
-662.0432185908162
 40
4.99969482421875
 50
0.0
 51
360.0
 73
               0
 97
        1
330
130
 75
               0
 76
               1
 98
        1
 10
0.0
 20
0.0
  0
CIRCLE
  5
132
102
{ACAD_REACTORS
330
133
102
}
100
AcDbEntity
  8
0
370
              -2
390
0
  6
Continuous
 62
               0
100
AcDbCircle
 10
-731.45317920229718
 20
-762.04321859081529
 30
0.0
 40
4.99969482421875
  0
HATCH
  5
133
100
AcDbEntity
  8
0
370
              -2
390
0
  6
Continuous
 62
               0
100
AcDbHatch
 10
0.0
 20
0.0
 30
0.0
210
0.0
220
0.0
230
1.0
  2
SOLID
 70
               1
 71
               1
 91
        1
 92
        1
 93
        1
 72
               2
 10
-731.45317920229718
 20
-762.04321859081529
 40
4.99969482421875
 50
0.0
 51
360.0
 73
               0
 97
        1
330
132
 75
               0
 76
               1
 98
        1
 10
0.0
 20
0.0
  0
MTEXT
  5
134
100
AcDbEntity
  8
0
390
0
 62
               0
100
AcDbMText
 10
-765.33079638979689
 20
-735.85572027299122
 30
0.0
 40
24.432617187500004
 41
0.0
 71
               1
 72
               1
  1
100
  7
ＭＳゴシック
 11
0.0
 21
1.0
 31
0.0
 73
               1
 44
0.7828267384257843
  0
POINT
  5
135
100
AcDbEntity
  8
Defpoints
370
               0
390
0
 62
               0
100
AcDbPoint
 10
-586.31566889038004
 20
-762.04321859081529
 30
0.0
  0
POINT
  5
136
100
AcDbEntity
  8
Defpoints
370
               0
390
0
 62
               0
100
AcDbPoint
 10
-586.31566889038004
 20
-662.0432185908162
 30
0.0
  0
POINT
  5
137
100
AcDbEntity
  8
Defpoints
370
               0
390
0
 62
               0
100
AcDbPoint
 10
-731.45317920229718
 20
-662.0432185908162
 30
0.0
  0
ENDBLK
  5
138
100
AcDbEntity
  8
notes
390
0
100
AcDbBlockEnd
  0
BLOCK
  5
139
100
AcDbEntity
  8
notes
390
0
100
AcDbBlockBegin
  2
*D20
 70
               1
 10
0.0
 20
0.0
 30
0.0
  3
*D20
  1

  0
LINE
  5
13A
100
AcDbEntity
  8
0
370
              -2
390
0
  6
Continuous
 62
               0
100
AcDbLine
 10
478.67021292788195
 20
920.78480447652055
 30
0.0
 11
399.67021292788195
 21
920.78480447652055
 31
0.0
  0
LINE
  5
13B
100
AcDbEntity
  8
0
370
              -2
390
0
  6
Continuous
 62
               0
100
AcDbLine
 10
474.67021292788195
 20
855.78480447866696
 30
0.0
 11
399.67021292788195
 21
855.78480447866696
 31
0.0
  0
LINE
  5
13C
100
AcDbEntity
  8
0
370
              -2
390
0
  6
Continuous
 62
               0
100
AcDbLine
 10
399.67021292788195
 20
920.78480447652055
 30
0.0
 11
399.67021292788195
 21
855.78480447866696
 31
0.0
  0
CIRCLE
  5
13D
102
{ACAD_REACTORS
330
13E
102
}
100
AcDbEntity
  8
0
370
              -2
390
0
  6
Continuous
 62
               0
100
AcDbCircle
 10
399.67021292788195
 20
920.78480447652055
 30
0.0
 40
4.99969482421875
  0
HATCH
  5
13E
100
AcDbEntity
  8
0
370
              -2
390
0
  6
Continuous
 62
               0
100
AcDbHatch
 10
0.0
 20
0.0
 30
0.0
210
0.0
220
0.0
230
1.0
  2
SOLID
 70
               1
 71
               1
 91
        1
 92
        1
 93
        1
 72
               2
 10
399.67021292788195
 20
920.78480447652055
 40
4.99969482421875
 50
0.0
 51
360.0
 73
               0
 97
        1
330
13D
 75
               0
 76
               1
 98
        1
 10
0.0
 20
0.0
  0
CIRCLE
  5
13F
102
{ACAD_REACTORS
330
140
102
}
100
AcDbEntity
  8
0
370
              -2
390
0
  6
Continuous
 62
               0
100
AcDbCircle
 10
399.67021292788195
 20
855.78480447866696
 30
0.0
 40
4.99969482421875
  0
HATCH
  5
140
100
AcDbEntity
  8
0
370
              -2
390
0
  6
Continuous
 62
               0
100
AcDbHatch
 10
0.0
 20
0.0
 30
0.0
210
0.0
220
0.0
230
1.0
  2
SOLID
 70
               1
 71
               1
 91
        1
 92
        1
 93
        1
 72
               2
 10
399.67021292788195
 20
855.78480447866696
 40
4.99969482421875
 50
0.0
 51
360.0
 73
               0
 97
        1
330
13F
 75
               0
 76
               1
 98
        1
 10
0.0
 20
0.0
  0
MTEXT
  5
141
100
AcDbEntity
  8
0
390
0
 62
               0
100
AcDbMText
 10
365.79259574038224
 20
872.40980447759375
 30
0.0
 40
24.432617187500004
 41
0.0
 71
               1
 72
               1
  1
65
  7
ＭＳゴシック
 11
0.0
 21
1.0
 31
0.0
 73
               1
 44
0.7828267384257843
  0
POINT
  5
142
100
AcDbEntity
  8
Defpoints
370
               0
390
0
 62
               0
100
AcDbPoint
 10
499.67021292788195
 20
855.78480447866696
 30
0.0
  0
POINT
  5
143
100
AcDbEntity
  8
Defpoints
370
               0
390
0
 62
               0
100
AcDbPoint
 10
503.67021292788195
 20
920.78480447652055
 30
0.0
  0
POINT
  5
144
100
AcDbEntity
  8
Defpoints
370
               0
390
0
 62
               0
100
AcDbPoint
 10
399.67021292788195
 20
920.78480447652055
 30
0.0
  0
ENDBLK
  5
145
100
AcDbEntity
  8
notes
390
0
100
AcDbBlockEnd
  0
BLOCK
  5
146
100
AcDbEntity
  8
notes
390
0
100
AcDbBlockBegin
  2
*D21
 70
               1
 10
0.0
 20
0.0
 30
0.0
  3
*D21
  1

  0
LINE
  5
147
100
AcDbEntity
  8
0
370
              -2
390
0
  6
Continuous
 62
               0
100
AcDbLine
 10
698.67021292788013
 20
920.78480447652146
 30
0.0
 11
779.67021292784375
 21
920.78480447652146
 31
0.0
  0
LINE
  5
148
100
AcDbEntity
  8
0
370
              -2
390
0
  6
Continuous
 62
               0
100
AcDbLine
 10
699.6702129278583
 20
640.78480447652282
 30
0.0
 11
779.67021292784375
 21
640.78480447652282
 31
0.0
  0
LINE
  5
149
100
AcDbEntity
  8
0
370
              -2
390
0
  6
Continuous
 62
               0
100
AcDbLine
 10
779.67021292784375
 20
920.78480447652146
 30
0.0
 11
779.67021292784375
 21
640.78480447652282
 31
0.0
  0
CIRCLE
  5
14A
102
{ACAD_REACTORS
330
14B
102
}
100
AcDbEntity
  8
0
370
              -2
390
0
  6
Continuous
 62
               0
100
AcDbCircle
 10
779.67021292784375
 20
920.78480447652146
 30
0.0
 40
4.99969482421875
  0
HATCH
  5
14B
100
AcDbEntity
  8
0
370
              -2
390
0
  6
Continuous
 62
               0
100
AcDbHatch
 10
0.0
 20
0.0
 30
0.0
210
0.0
220
0.0
230
1.0
  2
SOLID
 70
               1
 71
               1
 91
        1
 92
        1
 93
        1
 72
               2
 10
779.67021292784375
 20
920.78480447652146
 40
4.99969482421875
 50
0.0
 51
360.0
 73
               0
 97
        1
330
14A
 75
               0
 76
               1
 98
        1
 10
0.0
 20
0.0
  0
CIRCLE
  5
14C
102
{ACAD_REACTORS
330
14D
102
}
100
AcDbEntity
  8
0
370
              -2
390
0
  6
Continuous
 62
               0
100
AcDbCircle
 10
779.67021292784375
 20
640.78480447652282
 30
0.0
 40
4.99969482421875
  0
HATCH
  5
14D
100
AcDbEntity
  8
0
370
              -2
390
0
  6
Continuous
 62
               0
100
AcDbHatch
 10
0.0
 20
0.0
 30
0.0
210
0.0
220
0.0
230
1.0
  2
SOLID
 70
               1
 71
               1
 91
        1
 92
        1
 93
        1
 72
               2
 10
779.67021292784375
 20
640.78480447652282
 40
4.99969482421875
 50
0.0
 51
360.0
 73
               0
 97
        1
330
14C
 75
               0
 76
               1
 98
        1
 10
0.0
 20
0.0
  0
MTEXT
  5
14E
100
AcDbEntity
  8
0
390
0
 62
               0
100
AcDbMText
 10
745.79259574034404
 20
756.97230279434643
 30
0.0
 40
24.432617187500004
 41
0.0
 71
               1
 72
               1
  1
280
  7
ＭＳゴシック
 11
0.0
 21
1.0
 31
0.0
 73
               1
 44
0.7828267384257843
  0
POINT
  5
14F
100
AcDbEntity
  8
Defpoints
370
               0
390
0
 62
               0
100
AcDbPoint
 10
674.6702129278583
 20
640.78480447652282
 30
0.0
  0
POINT
  5
150
100
AcDbEntity
  8
Defpoints
370
               0
390
0
 62
               0
100
AcDbPoint
 10
673.67021292788013
 20
920.78480447652146
 30
0.0
  0
POINT
  5
151
100
AcDbEntity
  8
Defpoints
370
               0
390
0
 62
               0
100
AcDbPoint
 10
779.67021292784375
 20
920.78480447652146
 30
0.0
  0
ENDBLK
  5
152
100
AcDbEntity
  8
notes
390
0
100
AcDbBlockEnd
  0
BLOCK
  5
153
100
AcDbEntity
  8
notes
390
0
100
AcDbBlockBegin
  2
*D22
 70
               1
 10
0.0
 20
0.0
 30
0.0
  3
*D22
  1

  0
LINE
  5
154
100
AcDbEntity
  8
0
370
              -2
390
0
  6
Continuous
 62
               0
100
AcDbLine
 10
499.67021292788377
 20
641.64587599050674
 30
0.0
 11
499.67021292788377
 21
648.19782852510889
 31
0.0
  0
LINE
  5
155
100
AcDbEntity
  8
0
370
              -2
390
0
  6
Continuous
 62
               0
100
AcDbLine
 10
624.67021292786012
 20
641.64587599050674
 30
0.0
 11
624.67021292786012
 21
648.19782852510889
 31
0.0
  0
LINE
  5
156
100
AcDbEntity
  8
0
370
              -2
390
0
  6
Continuous
 62
               0
100
AcDbLine
 10
499.67021292788377
 20
648.19782852510889
 30
0.0
 11
347.85771292787103
 21
648.19782852510889
 31
0.0
  0
LINE
  5
157
100
AcDbEntity
  8
0
370
              -2
390
0
  6
Continuous
 62
               0
100
AcDbLine
 10
499.67021292788377
 20
648.19782852510889
 30
0.0
 11
624.67021292786012
 21
648.19782852510889
 31
0.0
  0
CIRCLE
  5
158
102
{ACAD_REACTORS
330
159
102
}
100
AcDbEntity
  8
0
370
              -2
390
0
  6
Continuous
 62
               0
100
AcDbCircle
 10
499.67021292788377
 20
648.19782852510889
 30
0.0
 40
4.99969482421875
  0
HATCH
  5
159
100
AcDbEntity
  8
0
370
              -2
390
0
  6
Continuous
 62
               0
100
AcDbHatch
 10
0.0
 20
0.0
 30
0.0
210
0.0
220
0.0
230
1.0
  2
SOLID
 70
               1
 71
               1
 91
        1
 92
        1
 93
        1
 72
               2
 10
499.67021292788377
 20
648.19782852510889
 40
4.99969482421875
 50
0.0
 51
360.0
 73
               0
 97
        1
330
158
 75
               0
 76
               1
 98
        1
 10
0.0
 20
0.0
  0
CIRCLE
  5
15A
102
{ACAD_REACTORS
330
15B
102
}
100
AcDbEntity
  8
0
370
              -2
390
0
  6
Continuous
 62
               0
100
AcDbCircle
 10
624.67021292786012
 20
648.19782852510889
 30
0.0
 40
4.99969482421875
  0
HATCH
  5
15B
100
AcDbEntity
  8
0
370
              -2
390
0
  6
Continuous
 62
               0
100
AcDbHatch
 10
0.0
 20
0.0
 30
0.0
210
0.0
220
0.0
230
1.0
  2
SOLID
 70
               1
 71
               1
 91
        1
 92
        1
 93
        1
 72
               2
 10
624.67021292786012
 20
648.19782852510889
 40
4.99969482421875
 50
0.0
 51
360.0
 73
               0
 97
        1
330
15A
 75
               0
 76
               1
 98
        1
 10
0.0
 20
0.0
  0
MTEXT
  5
15C
100
AcDbEntity
  8
0
390
0
 62
               0
100
AcDbMText
 10
347.85771292787103
 20
682.07544571260905
 30
0.0
 40
24.432617187500004
 41
0.0
 71
               1
 72
               1
  1
125(深さ)
  7
ＭＳゴシック
 73
               1
 44
0.7828267384257843
  0
POINT
  5
15D
100
AcDbEntity
  8
Defpoints
370
               0
390
0
 62
               0
100
AcDbPoint
 10
624.67021292786012
 20
666.64587599050674
 30
0.0
  0
POINT
  5
15E
100
AcDbEntity
  8
Defpoints
370
               0
390
0
 62
               0
100
AcDbPoint
 10
499.67021292788377
 20
666.64587599050674
 30
0.0
  0
POINT
  5
15F
100
AcDbEntity
  8
Defpoints
370
               0
390
0
 62
               0
100
AcDbPoint
 10
499.67021292788377
 20
648.19782852510889
 30
0.0
  0
ENDBLK
  5
160
100
AcDbEntity
  8
notes
390
0
100
AcDbBlockEnd
  0
BLOCK
  5
161
100
AcDbEntity
  8
notes
390
0
100
AcDbBlockBegin
  2
*D23
 70
               1
 10
0.0
 20
0.0
 30
0.0
  3
*D23
  1

  0
LINE
  5
162
100
AcDbEntity
  8
0
370
              -2
390
0
  6
Continuous
 62
               0
100
AcDbLine
 10
-286.45317920229718
 20
1096.2109826685764
 30
0.0
 11
-211.45317920229718
 21
1096.2109826685764
 31
0.0
  0
LINE
  5
163
100
AcDbEntity
  8
0
370
              -2
390
0
  6
Continuous
 62
               0
100
AcDbLine
 10
-286.45317920229718
 20
396.21098266857643
 30
0.0
 11
-211.45317920229718
 21
396.21098266857643
 31
0.0
  0
LINE
  5
164
100
AcDbEntity
  8
0
370
              -2
390
0
  6
Continuous
 62
               0
100
AcDbLine
 10
-211.45317920229718
 20
1096.2109826685764
 30
0.0
 11
-211.45317920229718
 21
396.21098266857643
 31
0.0
  0
CIRCLE
  5
165
102
{ACAD_REACTORS
330
166
102
}
100
AcDbEntity
  8
0
370
              -2
390
0
  6
Continuous
 62
               0
100
AcDbCircle
 10
-211.45317920229718
 20
1096.2109826685764
 30
0.0
 40
4.99969482421875
  0
HATCH
  5
166
100
AcDbEntity
  8
0
370
              -2
390
0
  6
Continuous
 62
               0
100
AcDbHatch
 10
0.0
 20
0.0
 30
0.0
210
0.0
220
0.0
230
1.0
  2
SOLID
 70
               1
 71
               1
 91
        1
 92
        1
 93
        1
 72
               2
 10
-211.45317920229718
 20
1096.2109826685764
 40
4.99969482421875
 50
0.0
 51
360.0
 73
               0
 97
        1
330
165
 75
               0
 76
               1
 98
        1
 10
0.0
 20
0.0
  0
CIRCLE
  5
167
102
{ACAD_REACTORS
330
168
102
}
100
AcDbEntity
  8
0
370
              -2
390
0
  6
Continuous
 62
               0
100
AcDbCircle
 10
-211.45317920229718
 20
396.21098266857643
 30
0.0
 40
4.99969482421875
  0
HATCH
  5
168
100
AcDbEntity
  8
0
370
              -2
390
0
  6
Continuous
 62
               0
100
AcDbHatch
 10
0.0
 20
0.0
 30
0.0
210
0.0
220
0.0
230
1.0
  2
SOLID
 70
               1
 71
               1
 91
        1
 92
        1
 93
        1
 72
               2
 10
-211.45317920229718
 20
396.21098266857643
 40
4.99969482421875
 50
0.0
 51
360.0
 73
               0
 97
        1
330
167
 75
               0
 76
               1
 98
        1
 10
0.0
 20
0.0
  0
MTEXT
  5
169
100
AcDbEntity
  8
0
390
0
 62
               0
100
AcDbMText
 10
-245.33079638979689
 20
722.39848098640095
 30
0.0
 40
24.432617187500004
 41
0.0
 71
               1
 72
               1
  1
700
  7
ＭＳゴシック
 11
0.0
 21
1.0
 31
0.0
 73
               1
 44
0.7828267384257843
  0
POINT
  5
16A
100
AcDbEntity
  8
Defpoints
370
               0
390
0
 62
               0
100
AcDbPoint
 10
-311.45317920229718
 20
396.21098266857643
 30
0.0
  0
POINT
  5
16B
100
AcDbEntity
  8
Defpoints
370
               0
390
0
 62
               0
100
AcDbPoint
 10
-311.45317920229718
 20
1096.2109826685764
 30
0.0
  0
POINT
  5
16C
100
AcDbEntity
  8
Defpoints
370
               0
390
0
 62
               0
100
AcDbPoint
 10
-211.45317920229718
 20
1096.2109826685764
 30
0.0
  0
ENDBLK
  5
16D
100
AcDbEntity
  8
notes
390
0
100
AcDbBlockEnd
  0
BLOCK
  5
16E
100
AcDbEntity
  8
notes
390
0
100
AcDbBlockBegin
  2
*D24
 70
               1
 10
0.0
 20
0.0
 30
0.0
  3
*D24
  1

  0
LINE
  5
16F
100
AcDbEntity
  8
0
370
              -2
390
0
  6
Continuous
 62
               0
100
AcDbLine
 10
-311.45317920229718
 20
1121.2109826685764
 30
0.0
 11
-311.45317920229718
 21
1246.2109826685764
 31
0.0
  0
LINE
  5
170
100
AcDbEntity
  8
0
370
              -2
390
0
  6
Continuous
 62
               0
100
AcDbLine
 10
-631.45317920229718
 20
1121.2109826685764
 30
0.0
 11
-631.45317920229718
 21
1246.2109826685764
 31
0.0
  0
LINE
  5
171
100
AcDbEntity
  8
0
370
              -2
390
0
  6
Continuous
 62
               0
100
AcDbLine
 10
-311.45317920229718
 20
1246.2109826685764
 30
0.0
 11
-631.45317920229718
 21
1246.2109826685764
 31
0.0
  0
CIRCLE
  5
172
102
{ACAD_REACTORS
330
173
102
}
100
AcDbEntity
  8
0
370
              -2
390
0
  6
Continuous
 62
               0
100
AcDbCircle
 10
-311.45317920229718
 20
1246.2109826685764
 30
0.0
 40
4.99969482421875
  0
HATCH
  5
173
100
AcDbEntity
  8
0
370
              -2
390
0
  6
Continuous
 62
               0
100
AcDbHatch
 10
0.0
 20
0.0
 30
0.0
210
0.0
220
0.0
230
1.0
  2
SOLID
 70
               1
 71
               1
 91
        1
 92
        1
 93
        1
 72
               2
 10
-311.45317920229718
 20
1246.2109826685764
 40
4.99969482421875
 50
0.0
 51
360.0
 73
               0
 97
        1
330
172
 75
               0
 76
               1
 98
        1
 10
0.0
 20
0.0
  0
CIRCLE
  5
174
102
{ACAD_REACTORS
330
175
102
}
100
AcDbEntity
  8
0
370
              -2
390
0
  6
Continuous
 62
               0
100
AcDbCircle
 10
-631.45317920229718
 20
1246.2109826685764
 30
0.0
 40
4.99969482421875
  0
HATCH
  5
175
100
AcDbEntity
  8
0
370
              -2
390
0
  6
Continuous
 62
               0
100
AcDbHatch
 10
0.0
 20
0.0
 30
0.0
210
0.0
220
0.0
230
1.0
  2
SOLID
 70
               1
 71
               1
 91
        1
 92
        1
 93
        1
 72
               2
 10
-631.45317920229718
 20
1246.2109826685764
 40
4.99969482421875
 50
0.0
 51
360.0
 73
               0
 97
        1
330
174
 75
               0
 76
               1
 98
        1
 10
0.0
 20
0.0
  0
MTEXT
  5
176
100
AcDbEntity
  8
0
390
0
 62
               0
100
AcDbMText
 10
-495.26568088447311
 20
1280.0885998560766
 30
0.0
 40
24.432617187500004
 41
0.0
 71
               1
 72
               1
  1
320
  7
ＭＳゴシック
 73
               1
 44
0.7828267384257843
  0
POINT
  5
177
100
AcDbEntity
  8
Defpoints
370
               0
390
0
 62
               0
100
AcDbPoint
 10
-631.45317920229718
 20
1096.2109826685764
 30
0.0
  0
POINT
  5
178
100
AcDbEntity
  8
Defpoints
370
               0
390
0
 62
               0
100
AcDbPoint
 10
-311.45317920229718
 20
1096.2109826685764
 30
0.0
  0
POINT
  5
179
100
AcDbEntity
  8
Defpoints
370
               0
390
0
 62
               0
100
AcDbPoint
 10
-311.45317920229718
 20
1246.2109826685764
 30
0.0
  0
ENDBLK
  5
17A
100
AcDbEntity
  8
notes
390
0
100
AcDbBlockEnd
  0
BLOCK
  5
17B
100
AcDbEntity
  8
notes
390
0
100
AcDbBlockBegin
  2
*D25
 70
               1
 10
0.0
 20
0.0
 30
0.0
  3
*D25
  1

  0
LINE
  5
17C
100
AcDbEntity
  8
0
370
              -2
390
0
  6
Continuous
 62
               0
100
AcDbLine
 10
704.67021292784739
 20
-87.057803466284895
 30
0.0
 11
779.67021292784739
 21
-87.057803466284895
 31
0.0
  0
LINE
  5
17D
100
AcDbEntity
  8
0
370
              -2
390
0
  6
Continuous
 62
               0
100
AcDbLine
 10
704.67021292784739
 20
-837.05780346628489
 30
0.0
 11
779.67021292784739
 21
-837.05780346628489
 31
0.0
  0
LINE
  5
17E
100
AcDbEntity
  8
0
370
              -2
390
0
  6
Continuous
 62
               0
100
AcDbLine
 10
779.67021292784739
 20
-87.057803466284895
 30
0.0
 11
779.67021292784739
 21
-837.05780346628489
 31
0.0
  0
CIRCLE
  5
17F
102
{ACAD_REACTORS
330
180
102
}
100
AcDbEntity
  8
0
370
              -2
390
0
  6
Continuous
 62
               0
100
AcDbCircle
 10
779.67021292784739
 20
-87.057803466284895
 30
0.0
 40
4.99969482421875
  0
HATCH
  5
180
100
AcDbEntity
  8
0
370
              -2
390
0
  6
Continuous
 62
               0
100
AcDbHatch
 10
0.0
 20
0.0
 30
0.0
210
0.0
220
0.0
230
1.0
  2
SOLID
 70
               1
 71
               1
 91
        1
 92
        1
 93
        1
 72
               2
 10
779.67021292784739
 20
-87.057803466284895
 40
4.99969482421875
 50
0.0
 51
360.0
 73
               0
 97
        1
330
17F
 75
               0
 76
               1
 98
        1
 10
0.0
 20
0.0
  0
CIRCLE
  5
181
102
{ACAD_REACTORS
330
182
102
}
100
AcDbEntity
  8
0
370
              -2
390
0
  6
Continuous
 62
               0
100
AcDbCircle
 10
779.67021292784739
 20
-837.05780346628489
 30
0.0
 40
4.99969482421875
  0
HATCH
  5
182
100
AcDbEntity
  8
0
370
              -2
390
0
  6
Continuous
 62
               0
100
AcDbHatch
 10
0.0
 20
0.0
 30
0.0
210
0.0
220
0.0
230
1.0
  2
SOLID
 70
               1
 71
               1
 91
        1
 92
        1
 93
        1
 72
               2
 10
779.67021292784739
 20
-837.05780346628489
 40
4.99969482421875
 50
0.0
 51
360.0
 73
               0
 97
        1
330
181
 75
               0
 76
               1
 98
        1
 10
0.0
 20
0.0
  0
MTEXT
  5
183
100
AcDbEntity
  8
0
390
0
 62
               0
100
AcDbMText
 10
745.79259574034768
 20
-485.87030514846037
 30
0.0
 40
24.432617187500004
 41
0.0
 71
               1
 72
               1
  1
750
  7
ＭＳゴシック
 11
0.0
 21
1.0
 31
0.0
 73
               1
 44
0.7828267384257843
  0
POINT
  5
184
100
AcDbEntity
  8
Defpoints
370
               0
390
0
 62
               0
100
AcDbPoint
 10
679.67021292784739
 20
-837.05780346628489
 30
0.0
  0
POINT
  5
185
100
AcDbEntity
  8
Defpoints
370
               0
390
0
 62
               0
100
AcDbPoint
 10
679.67021292784739
 20
-87.057803466284895
 30
0.0
  0
POINT
  5
186
100
AcDbEntity
  8
Defpoints
370
               0
390
0
 62
               0
100
AcDbPoint
 10
779.67021292784739
 20
-87.057803466284895
 30
0.0
  0
ENDBLK
  5
187
100
AcDbEntity
  8
notes
390
0
100
AcDbBlockEnd
  0
BLOCK
  5
188
100
AcDbEntity
  8
notes
390
0
100
AcDbBlockBegin
  2
*D26
 70
               1
 10
0.0
 20
0.0
 30
0.0
  3
*D26
  1

  0
LINE
  5
189
100
AcDbEntity
  8
0
370
              -2
390
0
  6
Continuous
 62
               0
100
AcDbLine
 10
698.67021292788013
 20
920.78480447652146
 30
0.0
 11
829.67021292784557
 21
920.78480447652146
 31
0.0
  0
LINE
  5
18A
100
AcDbEntity
  8
0
370
              -2
390
0
  6
Continuous
 62
               0
100
AcDbLine
 10
698.67021292788013
 20
545.78480447652146
 30
0.0
 11
829.67021292784557
 21
545.78480447652146
 31
0.0
  0
LINE
  5
18B
100
AcDbEntity
  8
0
370
              -2
390
0
  6
Continuous
 62
               0
100
AcDbLine
 10
829.67021292784557
 20
920.78480447652146
 30
0.0
 11
829.67021292784557
 21
545.78480447652146
 31
0.0
  0
CIRCLE
  5
18C
102
{ACAD_REACTORS
330
18D
102
}
100
AcDbEntity
  8
0
370
              -2
390
0
  6
Continuous
 62
               0
100
AcDbCircle
 10
829.67021292784557
 20
920.78480447652146
 30
0.0
 40
4.99969482421875
  0
HATCH
  5
18D
100
AcDbEntity
  8
0
370
              -2
390
0
  6
Continuous
 62
               0
100
AcDbHatch
 10
0.0
 20
0.0
 30
0.0
210
0.0
220
0.0
230
1.0
  2
SOLID
 70
               1
 71
               1
 91
        1
 92
        1
 93
        1
 72
               2
 10
829.67021292784557
 20
920.78480447652146
 40
4.99969482421875
 50
0.0
 51
360.0
 73
               0
 97
        1
330
18C
 75
               0
 76
               1
 98
        1
 10
0.0
 20
0.0
  0
CIRCLE
  5
18E
102
{ACAD_REACTORS
330
18F
102
}
100
AcDbEntity
  8
0
370
              -2
390
0
  6
Continuous
 62
               0
100
AcDbCircle
 10
829.67021292784557
 20
545.78480447652146
 30
0.0
 40
4.99969482421875
  0
HATCH
  5
18F
100
AcDbEntity
  8
0
370
              -2
390
0
  6
Continuous
 62
               0
100
AcDbHatch
 10
0.0
 20
0.0
 30
0.0
210
0.0
220
0.0
230
1.0
  2
SOLID
 70
               1
 71
               1
 91
        1
 92
        1
 93
        1
 72
               2
 10
829.67021292784557
 20
545.78480447652146
 40
4.99969482421875
 50
0.0
 51
360.0
 73
               0
 97
        1
330
18E
 75
               0
 76
               1
 98
        1
 10
0.0
 20
0.0
  0
MTEXT
  5
190
100
AcDbEntity
  8
0
390
0
 62
               0
100
AcDbMText
 10
795.79259574034586
 20
709.47230279434598
 30
0.0
 40
24.432617187500004
 41
0.0
 71
               1
 72
               1
  1
375
  7
ＭＳゴシック
 11
0.0
 21
1.0
 31
0.0
 73
               1
 44
0.7828267384257843
  0
POINT
  5
191
100
AcDbEntity
  8
Defpoints
370
               0
390
0
 62
               0
100
AcDbPoint
 10
673.67021292788013
 20
545.78480447652146
 30
0.0
  0
POINT
  5
192
100
AcDbEntity
  8
Defpoints
370
               0
390
0
 62
               0
100
AcDbPoint
 10
673.67021292788013
 20
920.78480447652146
 30
0.0
  0
POINT
  5
193
100
AcDbEntity
  8
Defpoints
370
               0
390
0
 62
               0
100
AcDbPoint
 10
829.67021292784557
 20
920.78480447652146
 30
0.0
  0
ENDBLK
  5
194
100
AcDbEntity
  8
notes
390
0
100
AcDbBlockEnd
  0
BLOCK
  5
195
100
AcDbEntity
  8
notes
390
0
100
AcDbBlockBegin
  2
*D27
 70
               1
 10
0.0
 20
0.0
 30
0.0
  3
*D27
  1

  0
LINE
  5
196
100
AcDbEntity
  8
0
370
              -2
390
0
  6
Continuous
 62
               0
100
AcDbLine
 10
669.6702129278583
 20
595.78537315842868
 30
0.0
 11
669.6702129278583
 21
588.0
 31
0.0
  0
LINE
  5
197
100
AcDbEntity
  8
0
370
              -2
390
0
  6
Continuous
 62
               0
100
AcDbLine
 10
679.67021292784375
 20
595.78537315842868
 30
0.0
 11
679.67021292784375
 21
588.0
 31
0.0
  0
LINE
  5
198
100
AcDbEntity
  8
0
370
              -2
390
0
  6
Continuous
 62
               0
100
AcDbLine
 10
679.67021292784375
 20
588.0
 30
0.0
 11
731.75
 21
588.0
 31
0.0
  0
LINE
  5
199
100
AcDbEntity
  8
0
370
              -2
390
0
  6
Continuous
 62
               0
100
AcDbLine
 10
669.6702129278583
 20
588.0
 30
0.0
 11
679.67021292784375
 21
588.0
 31
0.0
  0
CIRCLE
  5
19A
102
{ACAD_REACTORS
330
19B
102
}
100
AcDbEntity
  8
0
370
              -2
390
0
  6
Continuous
 62
               0
100
AcDbCircle
 10
669.6702129278583
 20
588.0
 30
0.0
 40
4.99969482421875
  0
HATCH
  5
19B
100
AcDbEntity
  8
0
370
              -2
390
0
  6
Continuous
 62
               0
100
AcDbHatch
 10
0.0
 20
0.0
 30
0.0
210
0.0
220
0.0
230
1.0
  2
SOLID
 70
               1
 71
               1
 91
        1
 92
        1
 93
        1
 72
               2
 10
669.6702129278583
 20
588.0
 40
4.99969482421875
 50
0.0
 51
360.0
 73
               0
 97
        1
330
19A
 75
               0
 76
               1
 98
        1
 10
0.0
 20
0.0
  0
CIRCLE
  5
19C
102
{ACAD_REACTORS
330
19D
102
}
100
AcDbEntity
  8
0
370
              -2
390
0
  6
Continuous
 62
               0
100
AcDbCircle
 10
679.67021292784375
 20
588.0
 30
0.0
 40
4.99969482421875
  0
HATCH
  5
19D
100
AcDbEntity
  8
0
370
              -2
390
0
  6
Continuous
 62
               0
100
AcDbHatch
 10
0.0
 20
0.0
 30
0.0
210
0.0
220
0.0
230
1.0
  2
SOLID
 70
               1
 71
               1
 91
        1
 92
        1
 93
        1
 72
               2
 10
679.67021292784375
 20
588.0
 40
4.99969482421875
 50
0.0
 51
360.0
 73
               0
 97
        1
330
19C
 75
               0
 76
               1
 98
        1
 10
0.0
 20
0.0
  0
MTEXT
  5
19E
100
AcDbEntity
  8
0
390
0
 62
               0
100
AcDbMText
 10
700.0
 20
621.87761718750016
 30
0.0
 40
24.432617187500004
 41
0.0
 71
               1
 72
               1
  1
10
  7
ＭＳゴシック
 73
               1
 44
0.7828267384257843
  0
POINT
  5
19F
100
AcDbEntity
  8
Defpoints
370
               0
390
0
 62
               0
100
AcDbPoint
 10
679.67021292784375
 20
620.78537315842868
 30
0.0
  0
POINT
  5
1A0
100
AcDbEntity
  8
Defpoints
370
               0
390
0
 62
               0
100
AcDbPoint
 10
669.6702129278583
 20
620.78537315842868
 30
0.0
  0
POINT
  5
1A1
100
AcDbEntity
  8
Defpoints
370
               0
390
0
 62
               0
100
AcDbPoint
 10
669.6702129278583
 20
588.0
 30
0.0
  0
ENDBLK
  5
1A2
100
AcDbEntity
  8
notes
390
0
100
AcDbBlockEnd
  0
ENDSEC
  0
SECTION
  2
ENTITIES
  0
MTEXT
  5
1A3
100
AcDbEntity
  8
template
390
0
 62
               7
100
AcDbMText
 10
-967.99999999975989
 20
-1147.4176292337006
 30
0.0
 40
16.288411458333332
 41
0.0
 71
               1
 72
               1
  1
品名
  7
ＭＳ ゴシック
 73
               1
 44
0.7828267384257843
  0
MTEXT
  5
1A4
100
AcDbEntity
  8
template
390
0
 62
               7
100
AcDbMText
 10
-967.99999999975989
 20
-1232.4176292337006
 30
0.0
 40
16.288411458333332
 41
0.0
 71
               1
 72
               1
  1
仕様
  7
ＭＳ ゴシック
 73
               1
 44
0.7828267384257843
  0
MTEXT
  5
1A5
100
AcDbEntity
  8
template
390
0
 62
               7
100
AcDbMText
 10
-914.99999999975989
 20
-1176.0000901712006
 30
0.0
 40
24.432617187500004
 41
0.0
 71
               1
 72
               1
  1
洗面器 -CATALANO,C-
  7
ＭＳ ゴシック
 73
               1
 44
0.7828267384257843
  0
LINE
  5
1A6
100
AcDbEntity
  8
template
370
               5
390
0
  6
Continuous
 62
               7
100
AcDbLine
 10
974.99999999975807
 20
-1224.0027073587005
 30
0.0
 11
-975.00000000024193
 21
-1224.0027073587005
 31
0.0
  0
LWPOLYLINE
  5
1A7
100
AcDbEntity
  8
template
370
               5
390
0
  6
Continuous
 62
               7
100
AcDbPolyline
 90
        5
 70
             128
 10
975.00000000024193
 20
1405.9972926412997
 10
-974.99999999975989
 20
1405.9972926412997
 10
-974.99999999975989
 20
-1394.0027073587005
 10
975.00000000024193
 20
-1394.0027073587005
 10
975.00000000024193
 20
1405.9972926412997
  0
LINE
  5
1A8
100
AcDbEntity
  8
template
370
               5
390
0
  6
Continuous
 62
               7
100
AcDbLine
 10
974.99999999975807
 20
-1139.0027073587005
 30
0.0
 11
-975.00000000024193
 21
-1139.0027073587005
 31
0.0
  0
LINE
  5
1A9
100
AcDbEntity
  8
template
370
               5
390
0
  6
Continuous
 62
               7
100
AcDbLine
 10
975.00000000024193
 20
-1309.0027073587005
 30
0.0
 11
222.00000000024193
 21
-1309.0027073587005
 31
0.0
  0
MTEXT
  5
1AA
100
AcDbEntity
  8
template
390
0
 62
               7
100
AcDbMText
 10
-974.99999999955617
 20
-1405.8565294155574
 30
0.0
 40
21.717881944444446
 41
0.0
 71
               1
 72
               1
  1
100707SH
  7
ＭＳ ゴシック
 73
               1
 44
0.7828267384257843
  0
MTEXT
  5
1AB
100
AcDbEntity
  8
template
390
0
 62
               7
100
AcDbMText
 10
251.8714062525014
 20
-1338.9131018320081
 30
0.0
 40
24.432617187500004
 41
0.0
 71
               1
 72
               1
  1
大洋金物株式会社 ティーフォルム事業部
  7
ＭＳ ゴシック
 73
               1
 44
0.7828267384257843
  0
INSERT
  5
1AC
100
AcDbEntity
  8
template
390
0
 62
               7
100
AcDbBlockReference
  2
グループ
 10
13988.748061086255
 20
-1599.4437715757672
 30
0.0
  0
MTEXT
  5
1AD
100
AcDbEntity
  8
template
390
0
 62
               7
100
AcDbMText
 10
784.00000000050022
 20
-1261.0000901712006
 30
0.0
 40
24.432617187500004
 41
0.0
 71
               1
 72
               1
  1
1:10
  7
ＭＳ ゴシック
 73
               1
 44
0.7828267384257843
  0
MTEXT
  5
1AE
100
AcDbEntity
  8
template
390
0
 62
               7
100
AcDbMText
 10
731.00000000050022
 20
-1232.4176292337006
 30
0.0
 40
16.288411458333332
 41
0.0
 71
               1
 72
               1
  1
縮尺
  7
ＭＳ ゴシック
 73
               1
 44
0.7828267384257843
  0
LINE
  5
1AF
100
AcDbEntity
  8
template
370
               5
390
0
  6
Continuous
 62
               7
100
AcDbLine
 10
724.00000000050022
 20
-1309.0027073587005
 30
0.0
 11
724.00000000050022
 21
-1224.0027073587005
 31
0.0
  0
MTEXT
  5
1B0
100
AcDbEntity
  8
template
390
0
 62
               7
100
AcDbMText
 10
480.00000000050022
 20
-1232.4176292337006
 30
0.0
 40
16.288411458333332
 41
0.0
 71
               1
 72
               1
  1
容量
  7
ＭＳ ゴシック
 73
               1
 44
0.7828267384257843
  0
MTEXT
  5
1B1
100
AcDbEntity
  8
template
390
0
 62
               7
100
AcDbMText
 10
533.00000000050022
 20
-1261.0000901712006
 30
0.0
 40
24.432617187500004
 41
0.0
 71
               1
 72
               1
  1
13L
  7
ＭＳ ゴシック
 73
               1
 44
0.7828267384257843
  0
LINE
  5
1B2
100
AcDbEntity
  8
template
370
               5
390
0
  6
Continuous
 62
               7
100
AcDbLine
 10
473.00000000050022
 20
-1309.0027073587005
 30
0.0
 11
473.00000000050022
 21
-1224.0027073587005
 31
0.0
  0
MTEXT
  5
1B3
100
AcDbEntity
  8
template
390
0
 62
               7
100
AcDbMText
 10
229.00000000050022
 20
-1147.4176292337006
 30
0.0
 40
16.288411458333332
 41
0.0
 71
               1
 72
               1
  1
品番
  7
ＭＳ ゴシック
 73
               1
 44
0.7828267384257843
  0
MTEXT
  5
1B4
100
AcDbEntity
  8
template
390
0
 62
               7
100
AcDbMText
 10
229.00000000050022
 20
-1232.4176292337006
 30
0.0
 40
16.288411458333332
 41
0.0
 71
               1
 72
               1
  1
重量
  7
ＭＳ ゴシック
 73
               1
 44
0.7828267384257843
  0
MTEXT
  5
1B5
100
AcDbEntity
  8
template
390
0
 62
               7
100
AcDbMText
 10
282.00000000050022
 20
-1176.0000901712006
 30
0.0
 40
24.432617187500004
 41
0.0
 71
               1
 72
               1
  1
ADF70-1302
  7
ＭＳ ゴシック
 73
               1
 44
0.7828267384257843
  0
MTEXT
  5
1B6
100
AcDbEntity
  8
template
390
0
 62
               7
100
AcDbMText
 10
282.00000000050022
 20
-1261.0000901712006
 30
0.0
 40
24.432617187500004
 41
0.0
 71
               1
 72
               1
  1
25kg
  7
ＭＳ ゴシック
 73
               1
 44
0.7828267384257843
  0
LINE
  5
1B7
100
AcDbEntity
  8
template
370
               5
390
0
  6
Continuous
 62
               7
100
AcDbLine
 10
222.00000000050022
 20
-1394.0027073587005
 30
0.0
 11
222.00000000050022
 21
-1139.0027073587005
 31
0.0
  0
MTEXT
  5
1B8
100
AcDbEntity
  8
template
390
0
 62
               7
100
AcDbMText
 10
-914.99999999975989
 20
-1261.0000901712006
 30
0.0
 40
24.432617187500004
 41
0.0
 71
               1
 72
               1
  1
壁掛け,カウンタ ー置き/オーバーフロー付き/壁取付ボルト付属/\P陶器/ホワイト
  7
ＭＳ ゴシック
 73
               1
 44
1.3047112307096407
  0
INSERT
  5
1B9
100
AcDbEntity
  8
notes
390
0
 62
               7
100
AcDbBlockReference
  2
グループ-1
 10
13988.748061086255
 20
-1599.4437715757672
 30
0.0
  0
DIMENSION
  5
1BA
100
AcDbEntity
  8
notes
370
               5
390
0
  6
Continuous
 62
               7
100
AcDbDimension
  2
*D4
 10
-781.45317920229718
 20
-912.04318758400893
 30
0.0
 11
-781.45317920229718
 21
-462.04321859081506
 31
0.0
 71
               5
 72
               1
 41
1.0
 42
0.0
  3
tform線あり
100
AcDbAlignedDimension
 13
-626.48970282418486
 23
-12.04324959762107
 33
0.0
 14
-626.48970282418486
 24
-912.04318758400893
 34
0.0
 50
90.0
100
AcDbRotatedDimension
1001
ACAD
1000
DSTYLE
1002
{
1070
             279
1070
               2
1070
             340
1005
3E
1070
             147
1040
5.0
1002
}
  0
DIMENSION
  5
1BB
100
AcDbEntity
  8
notes
370
               5
390
0
  6
Continuous
 62
               7
100
AcDbDimension
  2
*D5
 10
399.67021292788377
 20
-717.03064318717702
 30
0.0
 11
399.67021292788377
 21
-659.53064318717736
 31
0.0
 71
               5
 72
               1
 41
1.0
 42
0.0
  3
tform線あり
100
AcDbAlignedDimension
 13
519.68082177431643
 23
-602.0306431871777
 33
0.0
 14
519.68082177431643
 24
-717.03064318717702
 34
0.0
 50
90.0
100
AcDbRotatedDimension
1001
ACAD
1000
DSTYLE
1002
{
1070
             279
1070
               2
1070
             340
1005
3E
1070
             147
1040
5.0
1002
}
  0
DIMENSION
  5
1BC
100
AcDbEntity
  8
notes
370
               5
390
0
  6
Continuous
 62
               7
100
AcDbDimension
  2
*D6
 10
399.67021292788377
 20
-602.0306431871777
 30
0.0
 11
399.67021292788377
 21
-462.03064318717793
 31
0.0
 71
               5
 72
               1
 41
1.0
 42
0.0
  3
tform線あり
100
AcDbAlignedDimension
 13
519.68082177431643
 23
-322.03064318717816
 33
0.0
 14
519.68082177431643
 24
-602.0306431871777
 34
0.0
 50
90.0
100
AcDbRotatedDimension
1001
ACAD
1000
DSTYLE
1002
{
1070
             279
1070
               2
1070
             340
1005
3E
1070
             147
1040
5.0
1002
}
  0
DIMENSION
  5
1BD
100
AcDbEntity
  8
notes
370
               5
390
0
  6
Continuous
 62
               7
100
AcDbDimension
  2
*D7
 10
399.67021292788377
 20
-322.03064318717816
 30
0.0
 11
399.67021292788377
 21
-264.53064318717816
 31
0.0
 71
               5
 72
               1
 41
1.0
 42
0.0
  3
tform線あり
100
AcDbAlignedDimension
 13
519.68082177431643
 23
-207.03064318717816
 33
0.0
 14
519.68082177431643
 24
-322.03064318717816
 34
0.0
 50
90.0
100
AcDbRotatedDimension
1001
ACAD
1000
DSTYLE
1002
{
1070
             279
1070
               2
1070
             340
1005
3E
1070
             147
1040
5.0
1002
}
  0
DIMENSION
  5
1BE
100
AcDbEntity
  8
notes
370
               5
390
0
  6
Continuous
 62
               7
100
AcDbDimension
  2
*D8
 10
539.67021292788377
 20
-1012.0213045152027
 30
0.0
 11
519.67021292788377
 21
-1007.0213045152027
 31
0.0
 70
             128
 71
               5
 72
               1
 41
1.0
 42
0.0
  3
tform線あり
100
AcDbAlignedDimension
 13
499.67021292788377
 23
-907.02133552200917
 33
0.0
 14
539.67021292788377
 24
-767.03064318717634
 34
0.0
100
AcDbRotatedDimension
1001
ACAD
1000
DSTYLE
1002
{
1070
             279
1070
               2
1070
             340
1005
3E
1070
             147
1040
5.0
1002
}
  0
DIMENSION
  5
1BF
100
AcDbEntity
  8
notes
370
               5
390
0
  6
Continuous
 62
               7
100
AcDbDimension
  2
*D9
 10
499.67021292788377
 20
87.978633471184821
 30
0.0
 11
589.67021292786558
 21
87.978633471184821
 31
0.0
 71
               5
 72
               1
 41
1.0
 42
0.0
  3
tform線あり
100
AcDbAlignedDimension
 13
679.67021292784739
 23
-94.254776370614763
 33
0.0
 14
499.67021292788377
 24
-17.124439152809828
 34
0.0
100
AcDbRotatedDimension
1001
ACAD
1000
DSTYLE
1002
{
1070
             279
1070
               2
1070
             340
1005
3E
1070
             147
1040
5.0
1002
}
  0
DIMENSION
  5
1C0
100
AcDbEntity
  8
notes
370
               5
390
0
  6
Continuous
 62
               7
100
AcDbDimension
  2
*D10
 10
-631.48970282418486
 20
-1012.0431875840089
 30
0.0
 11
-566.48970282418304
 21
-1012.0431875840089
 31
0.0
 71
               5
 72
               1
 41
1.0
 42
0.0
  3
tform線あり
100
AcDbAlignedDimension
 13
-501.48970282418304
 23
-912.04318758400893
 33
0.0
 14
-631.48970282418486
 24
-907.04318758400893
 34
0.0
100
AcDbRotatedDimension
1001
ACAD
1000
DSTYLE
1002
{
1070
             279
1070
               2
1070
             340
1005
3E
1070
             147
1040
5.0
1002
}
  0
DIMENSION
  5
1C1
100
AcDbEntity
  8
notes
370
               5
390
0
  6
Continuous
 62
               7
100
AcDbDimension
  2
*D11
 10
-501.48970282418304
 20
-1012.0431875840095
 30
0.0
 11
-351.48970282418304
 21
-1012.0431875840095
 31
0.0
 71
               5
 72
               1
 41
1.0
 42
0.0
  3
tform線あり
100
AcDbAlignedDimension
 13
-201.48970282418486
 23
-819.91406568904188
 33
0.0
 14
-501.48970282418304
 24
-905.2482683408964
 34
0.0
100
AcDbRotatedDimension
1001
ACAD
1000
DSTYLE
1002
{
1070
             279
1070
               2
1070
             340
1005
3E
1070
             147
1040
5.0
1002
}
  0
DIMENSION
  5
1C2
100
AcDbEntity
  8
notes
370
               5
390
0
  6
Continuous
 62
               7
100
AcDbDimension
  2
*D12
 10
-631.45317920229718
 20
87.956750402378475
 30
0.0
 11
-403.97144101324011
 21
87.956750402378475
 31
0.0
 71
               5
 72
               1
 41
1.0
 42
0.0
  3
tform線あり
100
AcDbAlignedDimension
 13
-176.48970282418304
 23
-197.04324959762153
 33
0.0
 14
-631.45317920229718
 24
-17.043249597621525
 34
0.0
100
AcDbRotatedDimension
1001
ACAD
1000
DSTYLE
1002
{
1070
             279
1070
               2
1070
             340
1005
3E
1070
             147
1040
5.0
1002
}
  0
DIMENSION
  5
1C3
100
AcDbEntity
  8
notes
370
               5
390
0
  6
Continuous
 62
               7
100
AcDbDimension
  2
*D13
 10
-76.48970282418486
 20
-877.05252625598257
 30
0.0
 11
-76.48970282418486
 21
-462.05252625598359
 31
0.0
 71
               5
 72
               1
 41
1.0
 42
0.0
  3
tform線あり
100
AcDbAlignedDimension
 13
-251.09157026490357
 23
-47.052526255984503
 33
0.0
 14
-251.09157026490357
 24
-877.05252625598257
 34
0.0
 50
90.0
100
AcDbRotatedDimension
1001
ACAD
1000
DSTYLE
1002
{
1070
             279
1070
               2
1070
             340
1005
3E
1070
             147
1040
5.0
1002
}
  0
DIMENSION
  5
1C4
100
AcDbEntity
  8
notes
370
               5
390
0
  6
Continuous
 62
               7
100
AcDbDimension
  2
*D14
 10
-731.45317920229718
 20
-662.0432185908162
 30
0.0
 11
-731.45317920229718
 21
-612.04321859081642
 31
0.0
 71
               5
 72
               1
 41
1.0
 42
0.0
  3
tform線あり
100
AcDbAlignedDimension
 13
-586.31566889038004
 23
-562.04321859081665
 33
0.0
 14
-586.31566889038004
 24
-662.0432185908162
 34
0.0
 50
90.0
100
AcDbRotatedDimension
1001
ACAD
1000
DSTYLE
1002
{
1070
             279
1070
               2
1070
             340
1005
3E
1070
             147
1040
5.0
1002
}
  0
DIMENSION
  5
1C5
100
AcDbEntity
  8
notes
370
               5
390
0
  6
Continuous
 62
               7
100
AcDbDimension
  2
*D15
 10
-731.45317920229718
 20
-562.04321859081665
 30
0.0
 11
-731.45317920229718
 21
-512.04321859081665
 31
0.0
 71
               5
 72
               1
 41
1.0
 42
0.0
  3
tform線あり
100
AcDbAlignedDimension
 13
-586.31566889038004
 23
-462.04321859081665
 33
0.0
 14
-586.31566889038004
 24
-562.04321859081665
 34
0.0
 50
90.0
100
AcDbRotatedDimension
1001
ACAD
1000
DSTYLE
1002
{
1070
             279
1070
               2
1070
             340
1005
3E
1070
             147
1040
5.0
1002
}
  0
DIMENSION
  5
1C6
100
AcDbEntity
  8
notes
370
               5
390
0
  6
Continuous
 62
               7
100
AcDbDimension
  2
*D16
 10
-731.45317920229718
 20
-462.04321859081665
 30
0.0
 11
-731.45317920229718
 21
-412.04321859081665
 31
0.0
 71
               5
 72
               1
 41
1.0
 42
0.0
  3
tform線あり
100
AcDbAlignedDimension
 13
-586.31566889038004
 23
-362.04321859081665
 33
0.0
 14
-586.31566889038004
 24
-462.04321859081665
 34
0.0
 50
90.0
100
AcDbRotatedDimension
1001
ACAD
1000
DSTYLE
1002
{
1070
             279
1070
               2
1070
             340
1005
3E
1070
             147
1040
5.0
1002
}
  0
DIMENSION
  5
1C7
100
AcDbEntity
  8
notes
370
               5
390
0
  6
Continuous
 62
               7
100
AcDbDimension
  2
*D17
 10
-731.45317920229718
 20
-362.04321859081665
 30
0.0
 11
-731.45317920229718
 21
-312.04321859081665
 31
0.0
 71
               5
 72
               1
 41
1.0
 42
0.0
  3
tform線あり
100
AcDbAlignedDimension
 13
-586.31566889038004
 23
-262.04321859081665
 33
0.0
 14
-586.31566889038004
 24
-362.04321859081665
 34
0.0
 50
90.0
100
AcDbRotatedDimension
1001
ACAD
1000
DSTYLE
1002
{
1070
             279
1070
               2
1070
             340
1005
3E
1070
             147
1040
5.0
1002
}
  0
DIMENSION
  5
1C8
100
AcDbEntity
  8
notes
370
               5
390
0
  6
Continuous
 62
               7
100
AcDbDimension
  2
*D18
 10
-731.45317920229718
 20
-262.04321859081665
 30
0.0
 11
-731.45317920229718
 21
-212.04321859081665
 31
0.0
 71
               5
 72
               1
 41
1.0
 42
0.0
  3
tform線あり
100
AcDbAlignedDimension
 13
-586.31566889038004
 23
-162.04321859081665
 33
0.0
 14
-586.31566889038004
 24
-262.04321859081665
 34
0.0
 50
90.0
100
AcDbRotatedDimension
1001
ACAD
1000
DSTYLE
1002
{
1070
             279
1070
               2
1070
             340
1005
3E
1070
             147
1040
5.0
1002
}
  0
DIMENSION
  5
1C9
100
AcDbEntity
  8
notes
370
               5
390
0
  6
Continuous
 62
               7
100
AcDbDimension
  2
*D19
 10
-731.45317920229718
 20
-662.0432185908162
 30
0.0
 11
-731.45317920229718
 21
-712.04321859081574
 31
0.0
 71
               5
 72
               1
 41
1.0
 42
0.0
  3
tform線あり
100
AcDbAlignedDimension
 13
-586.31566889038004
 23
-762.04321859081529
 33
0.0
 14
-586.31566889038004
 24
-662.0432185908162
 34
0.0
 50
90.0
100
AcDbRotatedDimension
1001
ACAD
1000
DSTYLE
1002
{
1070
             279
1070
               2
1070
             340
1005
3E
1070
             147
1040
5.0
1002
}
  0
DIMENSION
  5
1CA
100
AcDbEntity
  8
notes
370
               5
390
0
  6
Continuous
 62
               7
100
AcDbDimension
  2
*D20
 10
399.67021292788195
 20
920.78480447652055
 30
0.0
 11
394.67021292788195
 21
888.28480447759375
 31
0.0
 70
             128
 71
               5
 72
               1
 41
1.0
 42
0.0
  3
tform線あり
100
AcDbAlignedDimension
 13
499.67021292788195
 23
855.78480447866696
 33
0.0
 14
503.67021292788195
 24
920.78480447652055
 34
0.0
 50
90.0
100
AcDbRotatedDimension
1001
ACAD
1000
DSTYLE
1002
{
1070
             279
1070
               2
1070
             340
1005
3E
1070
             147
1040
5.0
1002
}
  0
DIMENSION
  5
1CB
100
AcDbEntity
  8
notes
370
               5
390
0
  6
Continuous
 62
               7
100
AcDbDimension
  2
*D21
 10
779.67021292784375
 20
920.78480447652146
 30
0.0
 11
779.67021292784375
 21
780.78480447652191
 31
0.0
 71
               5
 72
               1
 41
1.0
 42
0.0
  3
tform線あり
100
AcDbAlignedDimension
 13
674.6702129278583
 23
640.78480447652282
 33
0.0
 14
673.67021292788013
 24
920.78480447652146
 34
0.0
 50
90.0
100
AcDbRotatedDimension
1001
ACAD
1000
DSTYLE
1002
{
1070
             279
1070
               2
1070
             340
1005
3E
1070
             147
1040
5.0
1002
}
  0
DIMENSION
  5
1CC
100
AcDbEntity
  8
notes
370
               5
390
0
  6
Continuous
 62
               7
100
AcDbDimension
  2
*D22
 10
499.67021292788377
 20
648.19782852510889
 30
0.0
 11
490.73271292787103
 21
653.19782852510889
 31
0.0
 70
             128
 71
               5
 72
               1
 41
1.0
 42
0.0
  3
tform線あり
100
AcDbAlignedDimension
 13
624.67021292786012
 23
666.64587599050674
 33
0.0
 14
499.67021292788377
 24
666.64587599050674
 34
0.0
100
AcDbRotatedDimension
1001
ACAD
1000
DSTYLE
1002
{
1070
             279
1070
               2
1070
             340
1005
3E
1070
               3
1000
<>(深さ)
1070
             174
1070
               0
1070
             147
1040
5.0
1002
}
  0
DIMENSION
  5
1CD
100
AcDbEntity
  8
notes
370
               5
390
0
  6
Continuous
 62
               7
100
AcDbDimension
  2
*D23
 10
-211.45317920229718
 20
1096.2109826685764
 30
0.0
 11
-211.45317920229718
 21
746.21098266857643
 31
0.0
 71
               5
 72
               1
 41
1.0
 42
0.0
  3
tform線あり
100
AcDbAlignedDimension
 13
-311.45317920229718
 23
396.21098266857643
 33
0.0
 14
-311.45317920229718
 24
1096.2109826685764
 34
0.0
 50
90.0
100
AcDbRotatedDimension
1001
ACAD
1000
DSTYLE
1002
{
1070
             279
1070
               2
1070
             340
1005
3E
1070
             147
1040
5.0
1002
}
  0
DIMENSION
  5
1CE
100
AcDbEntity
  8
notes
370
               5
390
0
  6
Continuous
 62
               7
100
AcDbDimension
  2
*D24
 10
-311.45317920229718
 20
1246.2109826685764
 30
0.0
 11
-471.45317920229718
 21
1246.2109826685764
 31
0.0
 71
               5
 72
               1
 41
1.0
 42
0.0
  3
tform線あり
100
AcDbAlignedDimension
 13
-631.45317920229718
 23
1096.2109826685764
 33
0.0
 14
-311.45317920229718
 24
1096.2109826685764
 34
0.0
100
AcDbRotatedDimension
1001
ACAD
1000
DSTYLE
1002
{
1070
             279
1070
               2
1070
             340
1005
3E
1070
             147
1040
5.0
1002
}
  0
DIMENSION
  5
1CF
100
AcDbEntity
  8
notes
370
               5
390
0
  6
Continuous
 62
               7
100
AcDbDimension
  2
*D25
 10
779.67021292784739
 20
-87.057803466284895
 30
0.0
 11
779.67021292784739
 21
-462.05780346628489
 31
0.0
 71
               5
 72
               1
 41
1.0
 42
0.0
  3
tform線あり
100
AcDbAlignedDimension
 13
679.67021292784739
 23
-837.05780346628489
 33
0.0
 14
679.67021292784739
 24
-87.057803466284895
 34
0.0
 50
90.0
100
AcDbRotatedDimension
1001
ACAD
1000
DSTYLE
1002
{
1070
             279
1070
               2
1070
             340
1005
3E
1070
             147
1040
5.0
1002
}
  0
DIMENSION
  5
1D0
100
AcDbEntity
  8
notes
370
               5
390
0
  6
Continuous
 62
               7
100
AcDbDimension
  2
*D26
 10
829.67021292784557
 20
920.78480447652146
 30
0.0
 11
829.67021292784557
 21
733.28480447652146
 31
0.0
 71
               5
 72
               1
 41
1.0
 42
0.0
  3
tform線あり
100
AcDbAlignedDimension
 13
673.67021292788013
 23
545.78480447652146
 33
0.0
 14
673.67021292788013
 24
920.78480447652146
 34
0.0
 50
90.0
100
AcDbRotatedDimension
1001
ACAD
1000
DSTYLE
1002
{
1070
             279
1070
               2
1070
             340
1005
3E
1070
             147
1040
5.0
1002
}
  0
MTEXT
  5
1D1
100
AcDbEntity
  8
notes
390
0
 62
               7
100
AcDbMText
 10
12.757969546872118
 20
-816.64096003019949
 30
0.0
 40
24.432617187500004
 41
841.88315656391478
 71
               1
 72
               1
  1
＝φ30もしくはφ35の水栓取付用穴あけ加工を承ります。\P   必要な場合、ご注文の際にご指示ください。
  7
ＭＳ ゴシック
 11
0.0
 21
1.0
 31
0.0
 73
               1
 44
1.0437689845677123
  0
MTEXT
  5
1D2
100
AcDbEntity
  8
notes
390
0
 62
               7
100
AcDbMText
 10
411.44436526290156
 20
-136.45884564990774
 30
0.0
 40
24.253472222222221
 41
0.0
 71
               1
 72
               1
  1
壁取付ボルト穴(4ヶ所)
  7
MS UI Gothic
 11
0.0
 21
1.0
 31
0.0
 73
               1
 44
0.8762322015334064
  0
CIRCLE
  5
1D3
100
AcDbEntity
  8
notes
370
              15
390
0
  6
STYLE_11
 62
               7
100
AcDbCircle
 10
24.550594346354046
 20
-843.16087025549723
 30
0.0
 40
17.499999999999659
  0
MTEXT
  5
1D4
100
AcDbEntity
  8
notes
390
0
 62
               7
100
AcDbMText
 10
-842.26763876269615
 20
605.21514933524304
 30
0.0
 40
24.253472222222221
 41
0.0
 71
               1
 72
               1
  1
カウンター切込寸法
  7
MS UI Gothic
 11
0.0
 21
1.0
 31
0.0
 73
               1
 44
0.8762322015334064
  0
LINE
  5
1D5
100
AcDbEntity
  8
notes
370
               5
390
0
  6
Continuous
 62
               7
100
AcDbLine
 10
539.68082177431643
 20
-207.03064318717816
 30
0.0
 11
455.07823494457989
 21
-122.42805635744276
 31
0.0
  0
LINE
  5
1D6
100
AcDbEntity
  8
notes
370
               5
390
0
  6
Continuous
 62
               7
100
AcDbLine
 10
-631.45317920229718
 20
246.21098266857643
 30
0.0
 11
-631.45317920229718
 21
1246.2109826685764
 31
0.0
  0
LINE
  5
1D7
100
AcDbEntity
  8
notes
370
               5
390
0
  6
Continuous
 62
               7
100
AcDbLine
 10
-631.45317920229718
 20
1093.2109826685764
 30
0.0
 11
-668.45317920229718
 21
1130.2109826685764
 31
0.0
  0
LINE
  5
1D8
100
AcDbEntity
  8
notes
370
               5
390
0
  6
Continuous
 62
               7
100
AcDbLine
 10
-631.45317920229718
 20
1113.2109826685764
 30
0.0
 11
-668.45317920229718
 21
1150.2109826685764
 31
0.0
  0
LINE
  5
1D9
100
AcDbEntity
  8
notes
370
               5
390
0
  6
Continuous
 62
               7
100
AcDbLine
 10
-631.45317920229718
 20
1133.2109826685764
 30
0.0
 11
-668.45317920229718
 21
1170.2109826685764
 31
0.0
  0
DIMENSION
  5
1DA
100
AcDbEntity
  8
notes
370
               5
390
0
  6
Continuous
 62
               7
100
AcDbDimension
  2
*D27
 10
669.6702129278583
 20
588.0
 30
0.0
 11
700.0
 21
593.0
 31
0.0
 70
             128
 71
               5
 72
               1
 41
1.0
 42
0.0
  3
tform線あり
100
AcDbAlignedDimension
 13
679.67021292784375
 23
620.78537315842868
 33
0.0
 14
669.6702129278583
 24
620.78537315842868
 34
0.0
100
AcDbRotatedDimension
1001
ACAD
1000
DSTYLE
1002
{
1070
             279
1070
               2
1070
             340
1005
3E
1070
             174
1070
               0
1070
             147
1040
5.0
1002
}
  0
CIRCLE
  5
1DB
100
AcDbEntity
  8
ADF70-1302
370
              15
390
0
  6
Continuous
 62
               7
100
AcDbCircle
 10
-348.99027150609072
 20
-462.04321859081665
 30
0.0
 40
22.999999999999545
  0
SPLINE
  5
1DC
100
AcDbEntity
  8
ADF70-1302
370
              15
390
0
  6
Continuous
 62
               7
100
AcDbSpline
210
0.0
220
0.0
230
1.0
 70
               8
 71
               2
 72
              30
 73
              27
 74
               0
 42
0.000001
 43
0.000001
 40
0.0
 40
0.0
 40
0.0
 40
1.0
 40
1.0
 40
2.0
 40
3.0
 40
4.0
 40
5.0
 40
6.0
 40
7.0
 40
8.0
 40
9.0
 40
10.0
 40
11.0
 40
12.0
 40
13.0
 40
14.0
 40
15.0
 40
16.0
 40
17.0
 40
18.0
 40
19.0
 40
20.0
 40
21.0
 40
22.0
 40
22.0
 40
23.0
 40
23.0
 40
23.0
 10
-479.69766291834094
 20
-449.5432185908171
 30
0.0
 10
-479.77337996955794
 20
-449.5432185861132
 30
0.0
 10
-479.84909702077493
 20
-449.54321858140929
 30
0.0
 10
-480.65337465758057
 20
-449.86161959199808
 30
0.0
 10
-481.56491423541047
 20
-452.15165751498671
 30
0.0
 10
-482.07023974544791
 20
-454.25855425666441
 30
0.0
 10
-482.43744191244696
 20
-456.76460730885765
 30
0.0
 10
-482.7468933558248
 20
-460.75976883718704
 30
0.0
 10
-482.64846314276656
 20
-464.63900556987664
 30
0.0
 10
-482.43744738769783
 20
-467.32177247176787
 30
0.0
 10
-482.07025430498288
 20
-469.82783321702755
 30
0.0
 10
-481.56489598830558
 20
-471.93474054647868
 30
0.0
 10
-480.64216568817028
 20
-474.21936311374793
 30
0.0
 10
-479.69767806460914
 20
-474.60915628818748
 30
0.0
 10
-478.74264949346434
 20
-474.22525553237665
 30
0.0
 10
-477.83045371284061
 20
-471.93481855457776
 30
0.0
 10
-477.32509033207498
 20
-469.82793233791654
 30
0.0
 10
-476.95789122586757
 20
-467.32188693324406
 30
0.0
 10
-476.64843383694097
 20
-463.3267318498356
 30
0.0
 10
-476.74685982086157
 20
-459.44749306720132
 30
0.0
 10
-476.9578713261526
 20
-456.76472177062669
 30
0.0
 10
-477.32506746963918
 20
-454.25865337772802
 30
0.0
 10
-477.830387915561
 20
-452.15173552483748
 30
0.0
 10
-478.749105154473
 20
-449.86636231496732
 30
0.0
 10
-479.54619886052751
 20
-449.54322490859477
 30
0.0
 10
-479.62191591173905
 20
-449.5432217500188
 30
0.0
 10
-479.69763296295241
 20
-449.54321859144284
 30
0.0
  0
CIRCLE
  5
1DD
100
AcDbEntity
  8
ADF70-1302
370
              15
390
0
  6
Continuous
 62
               7
100
AcDbCircle
 10
-348.99027150609072
 20
-462.04321859081665
 30
0.0
 40
38.999999999999545
  0
LINE
  5
1DE
100
AcDbEntity
  8
ADF70-1302
370
              15
390
0
  6
Continuous
 62
               7
100
AcDbLine
 10
-626.48970282418486
 20
-912.04318758400893
 30
0.0
 11
-361.48970282418486
 21
-912.04318758400893
 31
0.0
  0
LINE
  5
1DF
100
AcDbEntity
  8
ADF70-1302
370
              15
390
0
  6
Continuous
 62
               7
100
AcDbLine
 10
-361.48970282418304
 20
-12.043249597621525
 30
0.0
 11
-626.48970282418486
 21
-12.04324959762107
 31
0.0
  0
ARC
  5
1E0
100
AcDbEntity
  8
ADF70-1302
370
              15
390
0
  6
Continuous
 62
               7
100
AcDbCircle
 10
-351.48970282418486
 20
-729.54318758400962
 30
0.0
 40
150.02083188677497
100
AcDbArc
 50
180.95484125387213
 51
359.04515874612792
  0
LINE
  5
1E1
100
AcDbEntity
  8
ADF70-1302
370
              15
390
0
  6
Continuous
 62
               7
100
AcDbLine
 10
-501.48970282418304
 20
-732.0431875840095
 30
0.0
 11
-501.48970282418304
 21
-192.04318758401087
 31
0.0
  0
ARC
  5
1E2
100
AcDbEntity
  8
ADF70-1302
370
              15
390
0
  6
Continuous
 62
               7
100
AcDbCircle
 10
-351.48970282418486
 20
-194.54318758401087
 30
0.0
 40
150.02083188677679
100
AcDbArc
 50
0.9548412538721771
 51
179.04515874612764
  0
LINE
  5
1E3
100
AcDbEntity
  8
ADF70-1302
370
              15
390
0
  6
Continuous
 62
               7
100
AcDbLine
 10
-201.48970282418304
 20
-192.04318758401087
 30
0.0
 11
-201.48970282418304
 21
-732.0431875840095
 31
0.0
  0
LINE
  5
1E4
100
AcDbEntity
  8
ADF70-1302
370
              15
390
0
  6
Continuous
 62
               7
100
AcDbLine
 10
-631.45317920229718
 20
-907.04318758400893
 30
0.0
 11
-631.45317920229718
 21
-17.043249597621525
 31
0.0
  0
LINE
  5
1E5
100
AcDbEntity
  8
ADF70-1302
370
              15
390
0
  6
Continuous
 62
               7
100
AcDbLine
 10
-176.48970282418486
 20
-727.04318758400962
 30
0.0
 11
-176.48970282418304
 21
-197.04324959762153
 31
0.0
  0
ARC
  5
1E6
100
AcDbEntity
  8
ADF70-1302
370
              15
390
0
  6
Continuous
 62
               7
100
AcDbCircle
 10
-361.48970282418304
 20
-197.04324959762153
 30
0.0
 40
185.0
100
AcDbArc
 50
0.0
 51
90.0
  0
ARC
  5
1E7
100
AcDbEntity
  8
ADF70-1302
370
              15
390
0
  6
Continuous
 62
               7
100
AcDbCircle
 10
-361.48970282418486
 20
-727.04318758400962
 30
0.0
 40
184.99999999999932
100
AcDbArc
 50
270.0
 51
0.0
  0
ARC
  5
1E8
100
AcDbEntity
  8
ADF70-1302
370
              15
390
0
  6
Continuous
 62
               7
100
AcDbCircle
 10
-626.48970282418486
 20
-907.04318758400893
 30
0.0
 40
5.0
100
AcDbArc
 50
180.0
 51
270.0
  0
ARC
  5
1E9
100
AcDbEntity
  8
ADF70-1302
370
              15
390
0
  6
Continuous
 62
               7
100
AcDbCircle
 10
-626.48970282418486
 20
-17.04324959762107
 30
0.0
 40
5.0
100
AcDbArc
 50
90.0
 51
180.0
  0
LINE
  5
1EA
100
AcDbEntity
  8
ADF70-1302
370
              15
390
0
  6
Continuous
 62
               7
100
AcDbLine
 10
499.67021292788377
 20
-907.02133552200917
 30
0.0
 11
499.67021292788377
 21
-17.124439152809373
 31
0.0
  0
LINE
  5
1EB
100
AcDbEntity
  8
ADF70-1302
370
              15
390
0
  6
STYLE_11
 62
               7
100
AcDbLine
 10
669.67021292786194
 20
-484.5213355220103
 30
0.0
 11
669.67021292786194
 21
-439.52133552201076
 31
0.0
  0
LINE
  5
1EC
100
AcDbEntity
  8
ADF70-1302
370
              15
390
0
  6
STYLE_11
 62
               7
100
AcDbLine
 10
624.67021292786194
 20
-502.0213355220103
 30
0.0
 11
624.67021292786194
 21
-422.0213355220103
 31
0.0
  0
LINE
  5
1ED
100
AcDbEntity
  8
ADF70-1302
370
              15
390
0
  6
STYLE_11
 62
               7
100
AcDbLine
 10
636.67021292786012
 20
-484.5213355220103
 30
0.0
 11
636.67021292786012
 21
-439.52133552201076
 31
0.0
  0
ARC
  5
1EE
100
AcDbEntity
  8
ADF70-1302
370
              15
390
0
  6
STYLE_11
 62
               7
100
AcDbCircle
 10
499.17933456984611
 20
-144.6035950983096
 30
0.0
 40
125.49093145437031
100
AcDbArc
 50
0.0527064573398575
 51
20.859043574632096
  0
ARC
  5
1EF
100
AcDbEntity
  8
ADF70-1302
370
              15
390
0
  6
STYLE_11
 62
               7
100
AcDbCircle
 10
541.68875583426598
 20
-128.40563385776841
 30
0.0
 40
80.000000000000924
100
AcDbArc
 50
20.859043574639262
 51
55.251918840895648
  0
ARC
  5
1F0
100
AcDbEntity
  8
ADF70-1302
370
              15
390
0
  6
STYLE_11
 62
               7
100
AcDbCircle
 10
509.15388439596791
 20
-175.30781106769837
 30
0.0
 40
137.08180171068869
100
AcDbArc
 50
55.251918840897069
 51
71.734367468898441
  0
ARC
  5
1F1
100
AcDbEntity
  8
ADF70-1302
370
              15
390
0
  6
STYLE_11
 62
               7
100
AcDbCircle
 10
520.77617059302065
 20
-140.09442608895324
 30
0.0
 40
100.00000000004424
100
AcDbArc
 50
71.73436746890232
 51
74.695997908136746
  0
ARC
  5
1F2
100
AcDbEntity
  8
ADF70-1302
370
              15
390
0
  6
STYLE_11
 62
               7
100
AcDbCircle
 10
520.77617059316799
 20
-140.09442608841073
 30
0.0
 40
99.999999999482085
100
AcDbArc
 50
74.695997908142616
 51
76.787295353955912
  0
ARC
  5
1F3
100
AcDbEntity
  8
ADF70-1302
370
              15
390
0
  6
STYLE_11
 62
               7
100
AcDbCircle
 10
493.12273536843713
 20
-257.87796628038222
 30
0.0
 40
220.98625880552228
100
AcDbArc
 50
76.787295353949531
 51
82.446914697551335
  0
ARC
  5
1F4
100
AcDbEntity
  8
ADF70-1302
370
              15
390
0
  6
STYLE_11
 62
               7
100
AcDbCircle
 10
500.87916899635275
 20
-162.00747294707617
 30
0.0
 40
125.02459369693213
100
AcDbArc
 50
80.195037536484094
 51
88.329226819791501
  0
ARC
  5
1F5
100
AcDbEntity
  8
ADF70-1302
370
              15
390
0
  6
STYLE_11
 62
               7
100
AcDbCircle
 10
504.67021292787831
 20
-32.038157522395522
 30
0.0
 40
4.999999999994543
100
AcDbArc
 50
180.0
 51
268.32922681986452
  0
ARC
  5
1F6
100
AcDbEntity
  8
ADF70-1302
370
              15
390
0
  6
Continuous
 62
               7
100
AcDbCircle
 10
504.67021292788377
 20
-17.124439152810282
 30
0.0
 40
5.0000000000000728
100
AcDbArc
 50
88.830617194373204
 51
179.9999999999948
  0
ARC
  5
1F7
100
AcDbEntity
  8
ADF70-1302
370
              15
390
0
  6
Continuous
 62
               7
100
AcDbCircle
 10
499.67021292788377
 20
-262.07341343112512
 30
0.0
 40
249.99999999999949
100
AcDbArc
 50
44.131636241597654
 51
88.830617194385695
  0
ARC
  5
1F8
100
AcDbEntity
  8
ADF70-1302
370
              15
390
0
  6
Continuous
 62
               7
100
AcDbCircle
 10
677.67021292785103
 20
-89.388729686409988
 30
0.0
 40
1.999999999998181
100
AcDbArc
 50
0.0
 51
44.131636241671345
  0
LINE
  5
1F9
100
AcDbEntity
  8
ADF70-1302
370
              15
390
0
  6
Continuous
 62
               7
100
AcDbLine
 10
679.67021292784739
 20
-94.254776370614763
 30
0.0
 11
679.67021292784921
 21
-89.388729686409533
 31
0.0
  0
LINE
  5
1FA
100
AcDbEntity
  8
ADF70-1302
370
              15
390
0
  6
STYLE_11
 62
               7
100
AcDbLine
 10
636.67021292786012
 20
-439.81770425975219
 30
0.0
 11
669.67021292786194
 21
-439.81770425975265
 31
0.0
  0
LINE
  5
1FB
100
AcDbEntity
  8
ADF70-1302
370
              15
390
0
  6
STYLE_11
 62
               7
100
AcDbLine
 10
624.67021292786194
 20
-422.31770425975219
 30
0.0
 11
636.67021292786012
 21
-439.81770425975219
 31
0.0
  0
LINE
  5
1FC
100
AcDbEntity
  8
ADF70-1302
370
              15
390
0
  6
STYLE_11
 62
               7
100
AcDbLine
 10
636.67021292786012
 20
-439.81770425975219
 30
0.0
 11
624.67021292786194
 21
-422.31770425975219
 31
0.0
  0
LINE
  5
1FD
100
AcDbEntity
  8
ADF70-1302
370
              15
390
0
  6
STYLE_11
 62
               7
100
AcDbLine
 10
624.67021292786194
 20
-422.31770425975219
 30
0.0
 11
624.67021292786194
 21
-144.48815585394277
 31
0.0
  0
ARC
  5
1FE
100
AcDbEntity
  8
ADF70-1302
370
              15
390
0
  6
STYLE_11
 62
               7
100
AcDbCircle
 10
499.17933456984611
 20
-779.5421795765094
 30
0.0
 40
125.49093145436885
100
AcDbArc
 50
339.14095642536796
 51
359.94729354266019
  0
ARC
  5
1FF
100
AcDbEntity
  8
ADF70-1302
370
              15
390
0
  6
STYLE_11
 62
               7
100
AcDbCircle
 10
541.68875583426598
 20
-795.74014081705013
 30
0.0
 40
80.000000000001677
100
AcDbArc
 50
304.74808115910446
 51
339.14095642536046
  0
ARC
  5
200
100
AcDbEntity
  8
ADF70-1302
370
              15
390
0
  6
STYLE_11
 62
               7
100
AcDbCircle
 10
509.15388439596791
 20
-748.83796360712108
 30
0.0
 40
137.08180171068784
100
AcDbArc
 50
288.26563253110174
 51
304.74808115910321
  0
ARC
  5
201
100
AcDbEntity
  8
ADF70-1302
370
              15
390
0
  6
STYLE_11
 62
               7
100
AcDbCircle
 10
520.77617059301883
 20
-784.0513485858653
 30
0.0
 40
100.00000000004498
100
AcDbArc
 50
285.30400209186422
 51
288.26563253109873
  0
ARC
  5
202
100
AcDbEntity
  8
ADF70-1302
370
              15
390
0
  6
STYLE_11
 62
               7
100
AcDbCircle
 10
520.77617059316799
 20
-784.05134858640827
 30
0.0
 40
99.999999999482057
100
AcDbArc
 50
283.21270464604407
 51
285.3040020918574
  0
ARC
  5
203
100
AcDbEntity
  8
ADF70-1302
370
              15
390
0
  6
STYLE_11
 62
               7
100
AcDbCircle
 10
493.12273536843713
 20
-666.26780839443745
 30
0.0
 40
220.98625880552146
100
AcDbArc
 50
277.55308530244872
 51
283.2127046460505
  0
ARC
  5
204
100
AcDbEntity
  8
ADF70-1302
370
              15
390
0
  6
STYLE_11
 62
               7
100
AcDbCircle
 10
500.87916899635093
 20
-762.13830172774306
 30
0.0
 40
125.02459369693202
100
AcDbArc
 50
271.67077318020853
 51
279.80496246351674
  0
ARC
  5
205
100
AcDbEntity
  8
ADF70-1302
370
              15
390
0
  6
STYLE_11
 62
               7
100
AcDbCircle
 10
504.67021292787831
 20
-892.10761715242347
 30
0.0
 40
4.9999999999945652
100
AcDbArc
 50
91.670773180156345
 51
180.0
  0
ARC
  5
206
100
AcDbEntity
  8
ADF70-1302
370
              15
390
0
  6
Continuous
 62
               7
100
AcDbCircle
 10
504.67021292788377
 20
-907.02133552200871
 30
0.0
 40
5.000000000001819
100
AcDbArc
 50
180.00000000000523
 51
271.16938280560589
  0
ARC
  5
207
100
AcDbEntity
  8
ADF70-1302
370
              15
390
0
  6
Continuous
 62
               7
100
AcDbCircle
 10
499.67021292788377
 20
-662.07236124369501
 30
0.0
 40
249.99999999999596
100
AcDbArc
 50
271.1693828056143
 51
315.8683637584025
  0
ARC
  5
208
100
AcDbEntity
  8
ADF70-1302
370
              15
390
0
  6
Continuous
 62
               7
100
AcDbCircle
 10
677.67021292785103
 20
-834.75704498840901
 30
0.0
 40
1.999999999997909
100
AcDbArc
 50
315.86836375832866
 51
0.0
  0
LINE
  5
209
100
AcDbEntity
  8
ADF70-1302
370
              15
390
0
  6
Continuous
 62
               7
100
AcDbLine
 10
679.67021292784739
 20
-829.89099830420378
 30
0.0
 11
679.67021292784921
 21
-834.75704498840901
 31
0.0
  0
LINE
  5
20A
100
AcDbEntity
  8
ADF70-1302
370
              15
390
0
  6
STYLE_11
 62
               7
100
AcDbLine
 10
636.67021292786012
 20
-484.81770425975174
 30
0.0
 11
670.0
 21
-484.81770425975174
 31
0.0
  0
LINE
  5
20B
100
AcDbEntity
  8
ADF70-1302
370
              15
390
0
  6
STYLE_11
 62
               7
100
AcDbLine
 10
624.67021292786194
 20
-502.31770425975174
 30
0.0
 11
636.67021292786012
 21
-484.81770425975174
 31
0.0
  0
LINE
  5
20C
100
AcDbEntity
  8
ADF70-1302
370
              15
390
0
  6
STYLE_11
 62
               7
100
AcDbLine
 10
624.67021292786194
 20
-502.0213355220103
 30
0.0
 11
624.67021292786194
 21
-779.65761882087622
 31
0.0
  0
LINE
  5
20D
100
AcDbEntity
  8
ADF70-1302
370
              15
390
0
  6
Continuous
 62
               7
100
AcDbLine
 10
679.67021292784739
 20
-829.89099830420378
 30
0.0
 11
679.67021292784739
 21
-94.254776370614763
 31
0.0
  0
CIRCLE
  5
20E
100
AcDbEntity
  8
ADF70-1302
370
              15
390
0
  6
STYLE_11
 62
               7
100
AcDbCircle
 10
-566.45317920229718
 20
-662.0432185908162
 30
0.0
 40
17.5
  0
CIRCLE
  5
20F
100
AcDbEntity
  8
ADF70-1302
370
              15
390
0
  6
STYLE_11
 62
               7
100
AcDbCircle
 10
-566.45317920229718
 20
-362.04321859081665
 30
0.0
 40
17.5
  0
CIRCLE
  5
210
100
AcDbEntity
  8
ADF70-1302
370
              15
390
0
  6
STYLE_11
 62
               7
100
AcDbCircle
 10
-566.45317920229718
 20
-462.04321859081665
 30
0.0
 40
17.499999999999545
  0
CIRCLE
  5
211
100
AcDbEntity
  8
ADF70-1302
370
              15
390
0
  6
STYLE_11
 62
               7
100
AcDbCircle
 10
-566.45317920229718
 20
-262.04321859081665
 30
0.0
 40
17.5
  0
CIRCLE
  5
212
100
AcDbEntity
  8
ADF70-1302
370
              15
390
0
  6
STYLE_11
 62
               7
100
AcDbCircle
 10
-566.45317920229718
 20
-562.04321859081665
 30
0.0
 40
17.5
  0
CIRCLE
  5
213
100
AcDbEntity
  8
ADF70-1302
370
              15
390
0
  6
STYLE_11
 62
               7
100
AcDbCircle
 10
-566.45317920229718
 20
-162.04321859081665
 30
0.0
 40
17.5
  0
CIRCLE
  5
214
100
AcDbEntity
  8
ADF70-1302
370
              15
390
0
  6
STYLE_11
 62
               7
100
AcDbCircle
 10
-566.45317920229718
 20
-762.04321859081529
 30
0.0
 40
17.499999999999659
  0
ARC
  5
215
100
AcDbEntity
  8
ADF70-1302
370
              15
390
0
  6
Continuous
 62
               7
100
AcDbCircle
 10
503.67021292788195
 20
916.78480447652055
 30
0.0
 40
4.0
100
AcDbArc
 50
90.0
 51
180.0
  0
LINE
  5
216
100
AcDbEntity
  8
ADF70-1302
370
              15
390
0
  6
Continuous
 62
               7
100
AcDbLine
 10
503.67021292788195
 20
920.78480447652055
 30
0.0
 11
673.67021292788013
 21
920.78480447652146
 31
0.0
  0
ARC
  5
217
100
AcDbEntity
  8
ADF70-1302
370
              15
390
0
  6
Continuous
 62
               7
100
AcDbCircle
 10
673.67021292788013
 20
914.78480447652146
 30
0.0
 40
6.0
100
AcDbArc
 50
0.0
 51
90.0
  0
LINE
  5
218
100
AcDbEntity
  8
ADF70-1302
370
              15
390
0
  6
Continuous
 62
               7
100
AcDbLine
 10
499.67021292788377
 20
475.71115649706962
 30
0.0
 11
499.67021292788195
 21
916.78480447652055
 31
0.0
  0
LINE
  5
219
100
AcDbEntity
  8
ADF70-1302
370
              15
390
0
  6
STYLE_11
 62
               7
100
AcDbLine
 10
669.6702129278583
 20
665.78537315842868
 30
0.0
 11
669.6702129278583
 21
620.78537315842868
 31
0.0
  0
LINE
  5
21A
100
AcDbEntity
  8
ADF70-1302
370
              15
390
0
  6
STYLE_11
 62
               7
100
AcDbLine
 10
624.67021292786012
 20
683.28537315842868
 30
0.0
 11
624.67021292786012
 21
603.28537315842868
 31
0.0
  0
LINE
  5
21B
100
AcDbEntity
  8
ADF70-1302
370
              15
390
0
  6
STYLE_11
 62
               7
100
AcDbLine
 10
636.67021292786012
 20
665.78537315842868
 30
0.0
 11
636.67021292786012
 21
620.78537315842868
 31
0.0
  0
LINE
  5
21C
100
AcDbEntity
  8
ADF70-1302
370
              15
390
0
  6
Continuous
 62
               7
100
AcDbLine
 10
679.67021292784375
 20
546.07011414080307
 30
0.0
 11
679.67021292788013
 21
914.78480447652146
 31
0.0
  0
LINE
  5
21D
100
AcDbEntity
  8
ADF70-1302
370
              15
390
0
  6
STYLE_11
 62
               7
100
AcDbLine
 10
636.67021292786012
 20
665.78537315842777
 30
0.0
 11
669.6702129278583
 21
665.78537315842777
 31
0.0
  0
LINE
  5
21E
100
AcDbEntity
  8
ADF70-1302
370
              15
390
0
  6
STYLE_11
 62
               7
100
AcDbLine
 10
624.67021292786012
 20
683.28537315842868
 30
0.0
 11
636.67021292786012
 21
665.78537315842777
 31
0.0
  0
LWPOLYLINE
  5
21F
100
AcDbEntity
  8
ADF70-1302
370
              15
390
0
  6
STYLE_11
 62
               7
100
AcDbPolyline
 90
        4
 70
             128
 10
624.67021292786012
 20
683.28537315842868
 42
0.0910350092384879
 10
616.44549508821365
 20
727.85350443574089
 42
0.151203982528741
 10
587.2862954539105
 20
765.10117729262083
 42
0.1285504905355452
 10
522.16678412651891
 20
788.92847770298204
 42
0.1285504905355452
  0
LWPOLYLINE
  5
220
100
AcDbEntity
  8
ADF70-1302
370
              15
390
0
  6
STYLE_11
 62
               7
100
AcDbPolyline
 90
        3
 70
             128
 10
499.67021292788195
 20
795.58660139089579
 42
0.3993187804734604
 10
504.41472222635821
 20
790.59313320721003
 42
-0.0201791894081084
 10
522.17021292788195
 20
788.9644346154646
 42
-0.0201791894081084
  0
LINE
  5
221
100
AcDbEntity
  8
ADF70-1302
370
              15
390
0
  6
STYLE_11
 62
               7
100
AcDbLine
 10
624.67021292786012
 20
603.28537315842868
 30
0.0
 11
636.67021292786012
 21
620.78537315842868
 31
0.0
  0
LINE
  5
222
100
AcDbEntity
  8
ADF70-1302
370
              15
390
0
  6
STYLE_11
 62
               7
100
AcDbLine
 10
636.67021292786012
 20
620.78537315842868
 30
0.0
 11
641.50234521345556
 21
620.78537315842868
 31
0.0
  0
LINE
  5
223
100
AcDbEntity
  8
ADF70-1302
370
              15
390
0
  6
STYLE_11
 62
               7
100
AcDbLine
 10
636.67021292786012
 20
620.78537315842868
 30
0.0
 11
669.6702129278583
 21
620.78537315842868
 31
0.0
  0
LINE
  5
224
100
AcDbEntity
  8
ADF70-1302
370
              15
390
0
  6
STYLE_11
 62
               7
100
AcDbLine
 10
624.67021292786012
 20
603.28537315842868
 30
0.0
 11
636.67021292786012
 21
620.78537315842868
 31
0.0
  0
LWPOLYLINE
  5
225
100
AcDbEntity
  8
ADF70-1302
370
              15
390
0
  6
STYLE_11
 62
               7
100
AcDbPolyline
 90
        9
 70
             128
 10
624.67021292786012
 20
603.28537315842868
 42
-0.0910350092384496
 10
616.44549508821365
 20
558.71724188111557
 42
-0.1512039825288384
 10
587.2862954539105
 20
521.46956902423608
 42
-0.0720424990888565
 10
552.11846158458866
 20
503.93027864223723
 42
-0.012923269968347
 10
547.17021292783284
 20
502.43774492770081
 42
-0.0091252597922174
 10
543.63284497707173
 20
501.5388189037908
 42
-0.0246997690845108
 10
522.17021292787285
 20
497.6063117013905
 42
-0.0355070067564806
 10
504.52443112522451
 20
495.83324914161449
 42
0.4056982143734852
 10
499.67021292788377
 20
490.83537482687143
 42
0.4056982143734852
  0
ARC
  5
226
100
AcDbEntity
  8
ADF70-1302
370
              15
390
0
  6
Continuous
 62
               7
100
AcDbCircle
 10
504.67021292788559
 20
475.71115649706962
 30
0.0
 40
5.000000000001819
100
AcDbArc
 50
180.0
 51
268.75303687303631
  0
ARC
  5
227
100
AcDbEntity
  8
ADF70-1302
370
              15
390
0
  6
Continuous
 62
               7
100
AcDbCircle
 10
509.59093717430551
 20
701.77414938767788
 30
0.0
 40
231.11654137140908
100
AcDbArc
 50
268.75303687306825
 51
317.18882216608773
  0
ARC
  5
228
100
AcDbEntity
  8
ADF70-1302
370
              15
390
0
  6
Continuous
 62
               7
100
AcDbCircle
 10
677.67021292784739
 20
546.07011414079625
 30
0.0
 40
1.9999999999960196
100
AcDbArc
 50
317.18882216616697
 51
0.0000000001954277
  0
LINE
  5
229
100
AcDbEntity
  8
ADF70-1302
370
              15
390
0
  6
Continuous
 62
               7
100
AcDbLine
 10
514.67021292788195
 20
873.28480448081245
 30
0.0
 11
499.67021292788195
 21
873.28480448081245
 31
0.0
  0
LINE
  5
22A
100
AcDbEntity
  8
ADF70-1302
370
              15
390
0
  6
Continuous
 62
               7
100
AcDbLine
 10
514.67021292788195
 20
838.28480447652146
 30
0.0
 11
499.67021292788195
 21
838.28480447652146
 31
0.0
  0
CIRCLE
  5
22B
100
AcDbEntity
  8
ADF70-1302
370
               5
390
0
  6
STYLE_11
 62
               7
100
AcDbCircle
 10
-348.99027150609072
 20
746.21101367537949
 30
0.0
 40
22.999999999999091
  0
LINE
  5
22C
100
AcDbEntity
  8
ADF70-1302
370
               5
390
0
  6
STYLE_11
 62
               7
100
AcDbLine
 10
-626.48970282418486
 20
296.211044682188
 30
0.0
 11
-361.48970282418486
 21
296.211044682188
 31
0.0
  0
LINE
  5
22D
100
AcDbEntity
  8
ADF70-1302
370
               5
390
0
  6
STYLE_11
 62
               7
100
AcDbLine
 10
-361.48970282418304
 20
1196.2109826685764
 30
0.0
 11
-626.48970282418486
 21
1196.2109826685769
 31
0.0
  0
LINE
  5
22E
100
AcDbEntity
  8
ADF70-1302
370
              15
390
0
  6
STYLE_05
 62
               7
100
AcDbLine
 10
-631.45317920229718
 20
301.211044682188
 30
0.0
 11
-631.45317920229718
 21
1191.2109826685764
 31
0.0
  0
LINE
  5
22F
100
AcDbEntity
  8
ADF70-1302
370
               5
390
0
  6
STYLE_11
 62
               7
100
AcDbLine
 10
-176.48970282418486
 20
481.21104468218709
 30
0.0
 11
-176.48970282418304
 21
1011.2109826685755
 31
0.0
  0
ARC
  5
230
100
AcDbEntity
  8
ADF70-1302
370
               5
390
0
  6
STYLE_11
 62
               7
100
AcDbCircle
 10
-361.48970282418304
 20
1011.2109826685755
 30
0.0
 40
185.0
100
AcDbArc
 50
0.0
 51
90.0
  0
ARC
  5
231
100
AcDbEntity
  8
ADF70-1302
370
               5
390
0
  6
STYLE_11
 62
               7
100
AcDbCircle
 10
-361.48970282418486
 20
481.21104468218709
 30
0.0
 40
184.99999999999909
100
AcDbArc
 50
270.0
 51
0.0
  0
ARC
  5
232
100
AcDbEntity
  8
ADF70-1302
370
              15
390
0
  6
STYLE_05
 62
               7
100
AcDbCircle
 10
-626.48970282418486
 20
301.211044682188
 30
0.0
 40
5.0
100
AcDbArc
 50
180.0
 51
270.0
  0
ARC
  5
233
100
AcDbEntity
  8
ADF70-1302
370
              15
390
0
  6
STYLE_05
 62
               7
100
AcDbCircle
 10
-626.48970282418486
 20
1191.2109826685769
 30
0.0
 40
5.0
100
AcDbArc
 50
90.0
 51
180.0
  0
CIRCLE
  5
234
100
AcDbEntity
  8
ADF70-1302
370
               5
390
0
  6
STYLE_11
 62
               7
100
AcDbCircle
 10
-566.45317920229718
 20
546.21101367537949
 30
0.0
 40
17.5
  0
CIRCLE
  5
235
100
AcDbEntity
  8
ADF70-1302
370
               5
390
0
  6
STYLE_11
 62
               7
100
AcDbCircle
 10
-566.45317920229718
 20
846.21101367537949
 30
0.0
 40
17.5
  0
CIRCLE
  5
236
100
AcDbEntity
  8
ADF70-1302
370
               5
390
0
  6
STYLE_11
 62
               7
100
AcDbCircle
 10
-566.45317920229718
 20
746.21101367537949
 30
0.0
 40
17.499999999999091
  0
CIRCLE
  5
237
100
AcDbEntity
  8
ADF70-1302
370
               5
390
0
  6
STYLE_11
 62
               7
100
AcDbCircle
 10
-566.45317920229718
 20
946.21101367537949
 30
0.0
 40
17.5
  0
CIRCLE
  5
238
100
AcDbEntity
  8
ADF70-1302
370
               5
390
0
  6
STYLE_11
 62
               7
100
AcDbCircle
 10
-566.45317920229718
 20
646.21101367537949
 30
0.0
 40
17.5
  0
CIRCLE
  5
239
100
AcDbEntity
  8
ADF70-1302
370
               5
390
0
  6
STYLE_11
 62
               7
100
AcDbCircle
 10
-566.45317920229718
 20
1046.2110136753813
 30
0.0
 40
17.5
  0
CIRCLE
  5
23A
100
AcDbEntity
  8
ADF70-1302
370
               5
390
0
  6
STYLE_11
 62
               7
100
AcDbCircle
 10
-566.45317920229718
 20
446.21101367538176
 30
0.0
 40
17.499999999999545
  0
POLYLINE
  5
23B
100
AcDbEntity
  8
ADF70-1302
370
              15
390
0
  6
Continuous
 62
               7
100
AcDb2dPolyline
 66
               1
 10
0.0
 20
0.0
 30
0.0
 70
               1
 75
               5
  0
VERTEX
  5
23C
100
AcDbEntity
  8
ADF70-1302
370
              15
390
0
  6
Continuous
 62
               7
100
AcDbVertex
100
AcDb2dVertex
 10
-631.45317920229718
 20
1096.2109826685764
 30
0.0
  0
VERTEX
  5
23D
100
AcDbEntity
  8
ADF70-1302
370
              15
390
0
  6
Continuous
 62
               7
100
AcDbVertex
100
AcDb2dVertex
 10
-311.45317920229718
 20
1096.2109826685764
 30
0.0
  0
VERTEX
  5
23E
100
AcDbEntity
  8
ADF70-1302
370
              15
390
0
  6
Continuous
 62
               7
100
AcDbVertex
100
AcDb2dVertex
 10
-311.45317920229718
 20
396.21098266857643
 30
0.0
  0
VERTEX
  5
23F
100
AcDbEntity
  8
ADF70-1302
370
              15
390
0
  6
Continuous
 62
               7
100
AcDbVertex
100
AcDb2dVertex
 10
-631.45317920229718
 20
396.21098266857643
 30
0.0
  0
SEQEND
  5
240
100
AcDbEntity
  8
ADF70-1302
370
              15
390
0
  6
Continuous
 62
               7
  0
LINE
  5
241
100
AcDbEntity
  8
ADF70-1302
370
              15
390
0
  6
STYLE_11
 62
               7
100
AcDbLine
 10
539.68082177431643
 20
-697.03064318717679
 30
0.0
 11
539.68082177431643
 21
-737.03064318717725
 31
0.0
  0
CIRCLE
  5
242
100
AcDbEntity
  8
ADF70-1302
370
              15
390
0
  6
STYLE_11
 62
               7
100
AcDbCircle
 10
539.68082177431643
 20
-717.03064318717702
 30
0.0
 40
10.0
  0
LINE
  5
243
100
AcDbEntity
  8
ADF70-1302
370
              15
390
0
  6
STYLE_11
 62
               7
100
AcDbLine
 10
559.68082177431643
 20
-602.03064318717702
 30
0.0
 11
519.68082177431643
 21
-602.03064318717702
 31
0.0
  0
LINE
  5
244
100
AcDbEntity
  8
ADF70-1302
370
              15
390
0
  6
STYLE_11
 62
               7
100
AcDbLine
 10
539.68082177431643
 20
-582.03064318717679
 30
0.0
 11
539.68082177431643
 21
-622.03064318717725
 31
0.0
  0
CIRCLE
  5
245
100
AcDbEntity
  8
ADF70-1302
370
              15
390
0
  6
STYLE_11
 62
               7
100
AcDbCircle
 10
539.68082177431643
 20
-602.03064318717702
 30
0.0
 40
10.0
  0
LINE
  5
246
100
AcDbEntity
  8
ADF70-1302
370
              15
390
0
  6
STYLE_11
 62
               7
100
AcDbLine
 10
559.68082177431643
 20
-322.03064318717702
 30
0.0
 11
519.68082177431643
 21
-322.03064318717702
 31
0.0
  0
LINE
  5
247
100
AcDbEntity
  8
ADF70-1302
370
              15
390
0
  6
STYLE_11
 62
               7
100
AcDbLine
 10
539.68082177431643
 20
-302.03064318717679
 30
0.0
 11
539.68082177431643
 21
-342.03064318717725
 31
0.0
  0
CIRCLE
  5
248
100
AcDbEntity
  8
ADF70-1302
370
              15
390
0
  6
STYLE_11
 62
               7
100
AcDbCircle
 10
539.68082177431643
 20
-322.03064318717702
 30
0.0
 40
10.0
  0
LINE
  5
249
100
AcDbEntity
  8
ADF70-1302
370
              15
390
0
  6
STYLE_11
 62
               7
100
AcDbLine
 10
559.68082177431643
 20
-207.03064318717702
 30
0.0
 11
519.68082177431643
 21
-207.03064318717702
 31
0.0
  0
LINE
  5
24A
100
AcDbEntity
  8
ADF70-1302
370
              15
390
0
  6
STYLE_11
 62
               7
100
AcDbLine
 10
539.68082177431643
 20
-187.03064318717679
 30
0.0
 11
539.68082177431643
 21
-227.03064318717725
 31
0.0
  0
CIRCLE
  5
24B
100
AcDbEntity
  8
ADF70-1302
370
              15
390
0
  6
STYLE_11
 62
               7
100
AcDbCircle
 10
539.68082177431643
 20
-207.03064318717702
 30
0.0
 40
10.0
  0
LINE
  5
24C
100
AcDbEntity
  8
ADF70-1302
370
              15
390
0
  6
STYLE_11
 62
               7
100
AcDbLine
 10
559.68082177431643
 20
-717.03064318717702
 30
0.0
 11
519.68082177431643
 21
-717.03064318717702
 31
0.0
  0
ENDSEC
  0
SECTION
  2
OBJECTS
  0
DICTIONARY
  5
19
100
AcDbDictionary
280
               0
281
               1
  3
ACAD_GROUP
350
1A
  3
ACAD_MLINESTYLE
350
1B
  3
ACAD_LAYOUT
350
1E
  3
ACAD_PLOTSETTINGS
350
22
  3
ACAD_PLOTSTYLENAME
350
1F
  0
DICTIONARY
  5
1A
102
{ACAD_REACTORS
330
19
102
}
100
AcDbDictionary
280
               0
281
               1
  0
DICTIONARY
  5
1B
102
{ACAD_REACTORS
330
19
102
}
100
AcDbDictionary
280
               0
281
               1
  3
Standard
350
1C
  0
MLINESTYLE
  5
1C
102
{ACAD_REACTORS
330
1B
102
}
100
AcDbMlineStyle
  2
Standard
 70
               0
  3

 62
               0
 51
90.0
 52
90.0
 71
               2
 49
0.5
 62
             256
  6
ByLayer
 49
-0.5
 62
             256
  6
ByLayer
  0
ACDBDICTIONARYWDFLT
  5
1F
102
{ACAD_REACTORS
330
19
102
}
100
AcDbDictionary
281
               1
  3
Normal
350
1D
100
AcDbDictionaryWithDefault
340
1D
  0
ACDBPLACEHOLDER
  5
1D
102
{ACAD_REACTORS
330
1F
102
}
  0
LAYOUT
  5
20
102
{ACAD_REACTORS
330
1E
102
}
100
AcDbPlotSettings
  1

  2

  4

  6

 40
0.0
 41
0.0
 42
0.0
 43
0.0
 44
0.0
 45
0.0
 46
0.0
 47
0.0
 48
0.0
 49
0.0
140
0.0
141
0.0
142
1.0
143
1.0
 70
            1024
 72
               0
 73
               0
 74
               0
  7

 75
               0
147
1.0
148
0.0
149
0.0
100
AcDbLayout
  1
Model
 70
               0
 71
               0
 10
0.0
 20
0.0
 11
0.0
 21
0.0
 12
0.0
 22
0.0
 32
0.0
 14
0.0
 24
0.0
 34
0.0
 15
0.0
 25
0.0
 35
0.0
146
0.0
 13
0.0
 23
0.0
 33
0.0
 16
0.0
 26
0.0
 36
0.0
 17
0.0
 27
0.0
 37
0.0
 76
               0
330
A
331
0
345
0
346
0
  0
LAYOUT
  5
21
102
{ACAD_REACTORS
330
1E
102
}
100
AcDbPlotSettings
  1

  2

  4

  6

 40
0.0
 41
0.0
 42
0.0
 43
0.0
 44
0.0
 45
0.0
 46
0.0
 47
0.0
 48
0.0
 49
0.0
140
0.0
141
0.0
142
1.0
143
1.0
 70
               0
 72
               0
 73
               0
 74
               0
  7

 75
               0
147
1.0
148
0.0
149
0.0
100
AcDbLayout
  1
Layout1
 70
               0
 71
               0
 10
0.0
 20
0.0
 11
0.0
 21
0.0
 12
0.0
 22
0.0
 32
0.0
 14
0.0
 24
0.0
 34
0.0
 15
0.0
 25
0.0
 35
0.0
146
0.0
 13
0.0
 23
0.0
 33
0.0
 16
0.0
 26
0.0
 36
0.0
 17
0.0
 27
0.0
 37
0.0
 76
               0
330
B
331
0
345
0
346
0
  0
DICTIONARY
  5
1E
102
{ACAD_REACTORS
330
19
102
}
100
AcDbDictionary
280
               0
281
               1
  3
Layout1
350
21
  3
Model
350
20
  0
DICTIONARY
  5
22
102
{ACAD_REACTORS
330
19
102
}
100
AcDbDictionary
280
               0
281
               1
  0
ENDSEC
  0
EOF
