  0
SECTION
  2
HEADER
  9
$ACADVER
  1
AC1015
  9
$ACADMAINTVER
 70
               6
  9
$DWGCODEPAGE
  3
ANSI_932
  9
$INSBASE
 10
0.0
 20
0.0
 30
0.0
  9
$EXTMIN
 10
-975.00000000024011
 20
-1431.5255224711129
 30
-14.834305555555556
  9
$EXTMAX
 10
975.00000000024011
 20
1405.9972926412993
 30
14.834305555555556
  9
$LIMMIN
 10
0.0
 20
0.0
  9
$LIMMAX
 10
0.0
 20
0.0
  9
$ORTHOMODE
 70
               0
  9
$REGENMODE
 70
               1
  9
$FILLMODE
 70
               1
  9
$QTEXTMODE
 70
               0
  9
$MIRRTEXT
 70
               1
  9
$LTSCALE
 40
50.799999999999997
  9
$ATTMODE
 70
               1
  9
$TEXTSIZE
 40
0.2
  9
$TRACEWID
 40
1.0
  9
$TEXTSTYLE
  7
Standard
  9
$CLAYER
  8
notes
  9
$CELTYPE
  6
Continuous
  9
$CECOLOR
 62
             256
  9
$CELTSCALE
 40
1.0
  9
$DISPSILH
 70
               0
  9
$DIMSCALE
 40
1.0
  9
$DIMASZ
 40
22.4482421875
  9
$DIMEXO
 40
15.875
  9
$DIMDLI
 40
10.16
  9
$DIMRND
 40
0.0
  9
$DIMDLE
 40
1.5874999999999999
  9
$DIMEXE
 40
31.75
  9
$DIMTP
 40
0.0
  9
$DIMTM
 40
0.0
  9
$DIMTXT
 40
24.432617187500004
  9
$DIMCEN
 40
0.0
  9
$DIMTSZ
 40
0.0
  9
$DIMTOL
 70
               0
  9
$DIMLIM
 70
               0
  9
$DIMTIH
 70
               0
  9
$DIMTOH
 70
               0
  9
$DIMSE1
 70
               0
  9
$DIMSE2
 70
               0
  9
$DIMTAD
 70
               1
  9
$DIMZIN
 70
              11
  9
$DIMBLK
  1
VW_SLASH
  9
$DIMASO
 70
               1
  9
$DIMSHO
 70
               1
  9
$DIMPOST
  1
<>
  9
$DIMAPOST
  1
[]
  9
$DIMALT
 70
               0
  9
$DIMALTD
 70
               1
  9
$DIMALTF
 40
1.0
  9
$DIMLFAC
 40
1.0
  9
$DIMTOFL
 70
               1
  9
$DIMTVP
 40
0.0
  9
$DIMTIX
 70
               1
  9
$DIMSOXD
 70
               0
  9
$DIMSAH
 70
               0
  9
$DIMBLK1
  1

  9
$DIMBLK2
  1

  9
$DIMSTYLE
  2
Arch
  9
$DIMCLRD
 70
               0
  9
$DIMCLRE
 70
               0
  9
$DIMCLRT
 70
               0
  9
$DIMTFAC
 40
1.0
  9
$DIMGAP
 40
1.5874999999999999
  9
$DIMJUST
 70
               0
  9
$DIMSD1
 70
               0
  9
$DIMSD2
 70
               0
  9
$DIMTOLJ
 70
               1
  9
$DIMTZIN
 70
              11
  9
$DIMALTZ
 70
              11
  9
$DIMALTTZ
 70
              11
  9
$DIMUPT
 70
               0
  9
$DIMDEC
 70
               1
  9
$DIMTDEC
 70
               1
  9
$DIMALTU
 70
               2
  9
$DIMALTTD
 70
               2
  9
$DIMTXSTY
  7
ＭＳ ゴシック
  9
$DIMAUNIT
 70
               0
  9
$DIMADEC
 70
               2
  9
$DIMALTRND
 40
0.0
  9
$DIMAZIN
 70
               0
  9
$DIMDSEP
 70
              46
  9
$DIMATFIT
 70
               0
  9
$DIMFRAC
 70
               2
  9
$DIMLDRBLK
  1

  9
$DIMLUNIT
 70
               2
  9
$DIMLWD
 70
              -2
  9
$DIMLWE
 70
              -2
  9
$DIMTMOVE
 70
               0
  9
$LUNITS
 70
               2
  9
$LUPREC
 70
               4
  9
$SKETCHINC
 40
0.1
  9
$FILLETRAD
 40
0.0
  9
$AUNITS
 70
               0
  9
$AUPREC
 70
               0
  9
$MENU
  1
acad
  9
$ELEVATION
 40
0.0
  9
$PELEVATION
 40
0.0
  9
$THICKNESS
 40
0.0
  9
$LIMCHECK
 70
               0
  9
$CHAMFERA
 40
0.0
  9
$CHAMFERB
 40
0.0
  9
$CHAMFERC
 40
0.0
  9
$CHAMFERD
 40
0.0
  9
$SKPOLY
 70
               0
  9
$TDCREATE
 40
2456006.598587963
  9
$TDUCREATE
 40
0.000000000
  9
$TDUPDATE
 40
2456006.598587963
  9
$TDUUPDATE
 40
0.000000000
  9
$TDINDWG
 40
0.0000000000
  9
$TDUSRTIMER
 40
0.0000000000
  9
$USRTIMER
 70
               1
  9
$ANGBASE
 50
0.0
  9
$ANGDIR
 70
               0
  9
$PDMODE
 70
               1
  9
$PDSIZE
 40
-2.0
  9
$PLINEWID
 40
0.0
  9
$SPLFRAME
 70
               0
  9
$SPLINETYPE
 70
               6
  9
$SPLINESEGS
 70
               8
  9
$HANDSEED
  5
19F
  9
$SURFTAB1
 70
               6
  9
$SURFTAB2
 70
               6
  9
$SURFTYPE
 70
               6
  9
$SURFU
 70
               6
  9
$SURFV
 70
               6
  9
$UCSBASE
  2

  9
$UCSNAME
  2

  9
$UCSORG
 10
0.0
 20
0.0
 30
0.0
  9
$UCSXDIR
 10
1.0
 20
0.0
 30
0.0
  9
$UCSYDIR
 10
0.0
 20
1.0
 30
0.0
  9
$UCSORTHOREF
  2

  9
$UCSORTHOVIEW
 70
               0
  9
$UCSORGTOP
 10
0.0
 20
0.0
 30
0.0
  9
$UCSORGBOTTOM
 10
0.0
 20
0.0
 30
0.0
  9
$UCSORGLEFT
 10
0.0
 20
0.0
 30
0.0
  9
$UCSORGRIGHT
 10
0.0
 20
0.0
 30
0.0
  9
$UCSORGFRONT
 10
0.0
 20
0.0
 30
0.0
  9
$UCSORGBACK
 10
0.0
 20
0.0
 30
0.0
  9
$PUCSBASE
  2

  9
$PUCSNAME
  2

  9
$PUCSORG
 10
0.0
 20
0.0
 30
0.0
  9
$PUCSXDIR
 10
1.0
 20
0.0
 30
0.0
  9
$PUCSYDIR
 10
0.0
 20
1.0
 30
0.0
  9
$PUCSORTHOREF
  2

  9
$PUCSORTHOVIEW
 70
               0
  9
$PUCSORGTOP
 10
0.0
 20
0.0
 30
0.0
  9
$PUCSORGBOTTOM
 10
0.0
 20
0.0
 30
0.0
  9
$PUCSORGLEFT
 10
0.0
 20
0.0
 30
0.0
  9
$PUCSORGRIGHT
 10
0.0
 20
0.0
 30
0.0
  9
$PUCSORGFRONT
 10
0.0
 20
0.0
 30
0.0
  9
$PUCSORGBACK
 10
0.0
 20
0.0
 30
0.0
  9
$USERI1
 70
               0
  9
$USERI2
 70
               0
  9
$USERI3
 70
               0
  9
$USERI4
 70
               0
  9
$USERI5
 70
               0
  9
$USERR1
 40
0.0
  9
$USERR2
 40
0.0
  9
$USERR3
 40
0.0
  9
$USERR4
 40
0.0
  9
$USERR5
 40
0.0
  9
$WORLDVIEW
 70
               1
  9
$SHADEDGE
 70
               3
  9
$SHADEDIF
 70
              70
  9
$TILEMODE
 70
               1
  9
$MAXACTVP
 70
              64
  9
$PINSBASE
 10
0.0
 20
0.0
 30
0.0
  9
$PLIMCHECK
 70
               0
  9
$PEXTMIN
 10
1.0000000000000000E+20
 20
1.0000000000000000E+20
 30
1.0000000000000000E+20
  9
$PEXTMAX
 10
-1.0000000000000000E+20
 20
-1.0000000000000000E+20
 30
-1.0000000000000000E+20
  9
$PLIMMIN
 10
0.0
 20
0.0
  9
$PLIMMAX
 10
12.0
 20
9.0
  9
$UNITMODE
 70
               0
  9
$VISRETAIN
 70
               0
  9
$PLINEGEN
 70
               1
  9
$PSLTSCALE
 70
               0
  9
$TREEDEPTH
 70
            3020
  9
$CMLSTYLE
  2
Standard
  9
$CMLJUST
 70
               0
  9
$CMLSCALE
 40
1.0
  9
$PROXYGRAPHICS
 70
               0
  9
$MEASUREMENT
 70
               1
  9
$CELWEIGHT
370
               0
  9
$ENDCAPS
280
               0
  9
$JOINSTYLE
280
               0
  9
$LWDISPLAY
290
               1
  9
$INSUNITS
 70
               4
  9
$HYPERLINKBASE
  1

  9
$STYLESHEET
  1

  9
$XEDIT
290
               1
  9
$CEPSNTYPE
380
               0
  9
$PSTYLEMODE
290
               1
  9
$FINGERPRINTGUID
  2

  9
$VERSIONGUID
  2

  9
$EXTNAMES
290
               1
  9
$PSVPSCALE
 40
0.0
  0
ENDSEC
  0
SECTION
  2
CLASSES
  0
CLASS
  1
LWPOLYLINE
  2
AcDbPolyline
  3
AutoCAD 2000
 90
        0
280
               0
281
               1
  0
CLASS
  1
IMAGE
  2
AcDbRasterImage
  3
ISM
 90
      127
280
               0
281
               1
  0
CLASS
  1
OLE2FRAME
  2
AcDbOle2Frame
  3
AutoCAD 2000
 90
        0
280
               0
281
               1
  0
CLASS
  1
HATCH
  2
AcDbHatch
  3
AutoCAD 2000
 90
        0
280
               0
281
               1
  0
CLASS
  1
DICTIONARYVAR
  2
AcDbDictionaryVar
  3
AutoCAD 2000
 90
        0
280
               0
281
               0
  0
CLASS
  1
RASTERVARIABLES
  2
AcDbRasterVariables
  3
ISM
 90
        0
280
               0
281
               0
  0
CLASS
  1
IMAGEDEF
  2
AcDbRasterImageDef
  3
ISM
 90
        0
280
               0
281
               0
  0
CLASS
  1
IMAGEDEF_REACTOR
  2
AcDbRasterImageDefReactor
  3
ISM
 90
        1
280
               0
281
               0
  0
CLASS
  1
IDBUFFER
  2
AcDbIdBuffer
  3
AutoCAD 2000
 90
        0
280
               0
281
               0
  0
CLASS
  1
SPATIAL_FILTER
  2
AcDbSpatialFilter
  3
AutoCAD 2000
 90
        0
280
               0
281
               0
  0
CLASS
  1
XRECORD
  2
AcDbXrecord
  3
AutoCAD 2000
 90
        0
280
               0
281
               0
  0
CLASS
  1
SORTENTSTABLE
  2
AcDbSortentsTable
  3
AutoCAD 2000
 90
        0
280
               0
281
               0
  0
CLASS
  1
LAYER_INDEX
  2
AcDbLayerIndex
  3
AutoCAD 2000
 90
        0
280
               0
281
               0
  0
CLASS
  1
SPATIAL_INDEX
  2
AcDbSpatialIndex
  3
AutoCAD 2000
 90
        0
280
               0
281
               0
  0
CLASS
  1
OBJECT_PTR
  2
CAseDLPNTableRecord
  3
"ASE-LPNTableRecord"
 90
        1
280
               0
281
               0
  0
CLASS
  1
LAYOUT
  2
AcDbLayout
  3
AutoCAD 2000
 90
        0
280
               0
281
               0
  0
CLASS
  1
PLOTSETTINGS
  2
AcDbPlotSettings
  3
AutoCAD 2000
 90
        0
280
               0
281
               0
  0
CLASS
  1
ACDBDICTIONARYWDFLT
  2
AcDbDictionaryWithDefault
  3
AutoCAD 2000
 90
        0
280
               0
281
               0
  0
CLASS
  1
ACDBPLACEHOLDER
  2
AcDbPlaceHolder
  3
AutoCAD 2000
 90
        0
280
               0
281
               0
  0
ENDSEC
  0
SECTION
  2
TABLES
  0
TABLE
  2
VPORT
  5
7
100
AcDbSymbolTable
 70
               1
  0
VPORT
  5
15
100
AcDbSymbolTableRecord
100
AcDbViewportTableRecord
  2
*ACTIVE
 70
               0
 10
0.0
 20
0.0
 11
1.0
 21
1.0
 12
0.0
 22
-12.764114914906941
 13
0.0
 23
0.0
 14
1.0
 24
1.0
 15
0.0
 25
0.0
 16
0.0
 26
0.0
 36
1.0
 17
0.0
 27
0.0
 37
0.0
 40
2837.522815112412
 41
0.688564
 42
50.0
 43
0.0
 44
0.0
 50
0.0
 51
0.0
 71
               0
 72
            2000
 73
               1
 74
               1
 75
               0
 76
               0
 77
               0
 78
               0
281
               0
 65
               0
110
0.0
120
0.0
130
0.0
111
1.0
121
0.0
131
0.0
112
0.0
122
1.0
132
0.0
345
0
346
0
 79
               0
146
0.0
  0
ENDTAB
  0
TABLE
  2
LTYPE
  5
4
100
AcDbSymbolTable
 70
              13
  0
LTYPE
  5
11
100
AcDbSymbolTableRecord
100
AcDbLinetypeTableRecord
  2
ByBlock
 70
              64
  3

 72
              65
 73
               0
 40
0.0
  0
LTYPE
  5
12
100
AcDbSymbolTableRecord
100
AcDbLinetypeTableRecord
  2
ByLayer
 70
              64
  3

 72
              65
 73
               0
 40
0.0
  0
LTYPE
  5
13
100
AcDbSymbolTableRecord
100
AcDbLinetypeTableRecord
  2
Continuous
 70
              64
  3
Solid line
 72
              65
 73
               0
 40
0.0
  0
LTYPE
  5
34
100
AcDbSymbolTableRecord
100
AcDbLinetypeTableRecord
  2
STYLE_01
 70
               0
  3

 72
              65
 73
               2
 40
0.375
 49
0.25
 74
               0
 49
-0.125
 74
               0
  0
LTYPE
  5
35
100
AcDbSymbolTableRecord
100
AcDbLinetypeTableRecord
  2
STYLE_02
 70
               0
  3

 72
              65
 73
               2
 40
0.6944250000000001
 49
0.48607
 74
               0
 49
-0.2083550000000001
 74
               0
  0
LTYPE
  5
36
100
AcDbSymbolTableRecord
100
AcDbLinetypeTableRecord
  2
STYLE_03
 70
               0
  3

 72
              65
 73
               2
 40
1.25
 49
1.0416400000000001
 74
               0
 49
-0.2083599999999999
 74
               0
  0
LTYPE
  5
37
100
AcDbSymbolTableRecord
100
AcDbLinetypeTableRecord
  2
STYLE_04
 70
               0
  3

 72
              65
 73
               2
 40
1.5277099999999999
 49
1.3194249999999998
 74
               0
 49
-0.208285
 74
               0
  0
LTYPE
  5
38
100
AcDbSymbolTableRecord
100
AcDbLinetypeTableRecord
  2
STYLE_05
 70
               0
  3

 72
              65
 73
               2
 40
0.20828
 49
0.069425
 74
               0
 49
-0.138855
 74
               0
  0
LTYPE
  5
39
100
AcDbSymbolTableRecord
100
AcDbLinetypeTableRecord
  2
STYLE_06
 70
               0
  3

 72
              65
 73
               4
 40
1.0416400000000001
 49
0.625
 74
               0
 49
-0.20828
 74
               0
 49
0.06943
 74
               0
 49
-0.13893
 74
               0
  0
LTYPE
  5
3A
100
AcDbSymbolTableRecord
100
AcDbLinetypeTableRecord
  2
STYLE_07
 70
               0
  3

 72
              65
 73
               6
 40
1.875
 49
0.625
 74
               0
 49
-0.20828
 74
               0
 49
0.6250000000000001
 74
               0
 49
-0.2083599999999999
 74
               0
 49
0.06943
 74
               0
 49
-0.1389299999999999
 74
               0
  0
LTYPE
  5
3B
100
AcDbSymbolTableRecord
100
AcDbLinetypeTableRecord
  2
STYLE_08
 70
               0
  3

 72
              65
 73
               6
 40
1.25
 49
0.625
 74
               0
 49
-0.20828
 74
               0
 49
0.06943
 74
               0
 49
-0.13893
 74
               0
 49
0.0694299999999999
 74
               0
 49
-0.13893
 74
               0
  0
LTYPE
  5
3C
100
AcDbSymbolTableRecord
100
AcDbLinetypeTableRecord
  2
STYLE_09
 70
               0
  3

 72
              65
 73
               4
 40
5.0
 49
3.75
 74
               0
 49
-0.2777849999999998
 74
               0
 49
0.6944300000000003
 74
               0
 49
-0.2777849999999998
 74
               0
  0
LTYPE
  5
3D
100
AcDbSymbolTableRecord
100
AcDbLinetypeTableRecord
  2
STYLE_10
 70
               0
  3

 72
              65
 73
               6
 40
5.9375
 49
3.75
 74
               0
 49
-0.2777849999999998
 74
               0
 49
0.6944300000000003
 74
               0
 49
-0.2777849999999998
 74
               0
 49
0.625
 74
               0
 49
-0.3125
 74
               0
  0
ENDTAB
  0
TABLE
  2
LAYER
  5
2
100
AcDbSymbolTable
 70
               5
  0
LAYER
  5
14
100
AcDbSymbolTableRecord
100
AcDbLayerTableRecord
  2
0
 70
               0
 62
               7
  6
Continuous
290
               1
370
              -3
390
1D
  0
LAYER
  5
3E
100
AcDbSymbolTableRecord
100
AcDbLayerTableRecord
  2
Defpoints
 70
               0
 62
               7
  6
Continuous
290
               0
370
              -3
390
1D
  0
LAYER
  5
3F
100
AcDbSymbolTableRecord
100
AcDbLayerTableRecord
  2
template
 70
               0
 62
               7
  6
Continuous
290
               1
370
              -3
390
1D
  0
LAYER
  5
40
100
AcDbSymbolTableRecord
100
AcDbLayerTableRecord
  2
notes
 70
               0
 62
               7
  6
Continuous
290
               1
370
              -3
390
1D
  0
LAYER
  5
41
100
AcDbSymbolTableRecord
100
AcDbLayerTableRecord
  2
ADF70-1304
 70
               0
 62
               7
  6
Continuous
290
               1
370
              -3
390
1D
  0
ENDTAB
  0
TABLE
  2
STYLE
  5
3
100
AcDbSymbolTable
 70
               2
  0
STYLE
  5
17
100
AcDbSymbolTableRecord
100
AcDbTextStyleTableRecord
  2
Standard
 70
               0
 40
0.0
 41
1.0
 50
0.0
 71
               0
 42
0.0
  3
txt
  4
BIGFONT.SHX
  0
STYLE
  5
33
100
AcDbSymbolTableRecord
100
AcDbTextStyleTableRecord
  2
ＭＳ ゴシック
 70
               0
 40
0.0
 41
1.0
 50
0.0
 71
               0
 42
0.0
  3

  4
ＭＳ ゴシック
1001
ACAD
1000
ＭＳ ゴシック
1071
        0
  0
ENDTAB
  0
TABLE
  2
VIEW
  5
5
100
AcDbSymbolTable
 70
               0
  0
ENDTAB
  0
TABLE
  2
UCS
  5
6
100
AcDbSymbolTable
 70
               0
  0
ENDTAB
  0
TABLE
  2
APPID
  5
8
100
AcDbSymbolTable
 70
               1
  0
APPID
  5
16
100
AcDbSymbolTableRecord
100
AcDbRegAppTableRecord
  2
ACAD
 70
               0
  0
ENDTAB
  0
TABLE
  2
DIMSTYLE
  5
9
100
AcDbSymbolTable
 70
               3
100
AcDbDimStyleTable
 71
               0
  0
DIMSTYLE
105
18
100
AcDbSymbolTableRecord
100
AcDbDimStyleTableRecord
  2
Standard
 70
               0
  3

  4

 40
1.0
 41
0.18
 42
0.0625
 43
0.38
 44
0.18
 45
0.0
 46
0.0
 47
0.0
 48
0.0
 71
               0
 72
               0
 73
               1
 74
               1
 75
               0
 76
               0
 77
               0
 78
               0
 79
               0
140
0.18
141
0.09
142
0.0
143
25.399999999999999
144
1.0
145
0.0
146
1.0
147
0.09
148
0.0
170
               0
171
               2
172
               0
173
               0
174
               0
175
               0
176
               0
177
               0
178
               0
179
               0
271
               4
272
               4
273
               2
274
               2
275
               0
276
               0
277
               2
278
              46
279
               0
280
               0
281
               0
282
               0
283
               1
284
               0
285
               0
286
               0
288
               0
289
               3
340
17
341
0
342
0
343
0
344
0
371
              -2
372
              -2
  0
DIMSTYLE
105
4A
100
AcDbSymbolTableRecord
100
AcDbDimStyleTableRecord
  2
tform線あり
 70
               0
  3
<>
  4
[]
 40
1.0
 41
3.999755859375
 42
24.999999999999996
 43
0.9999999999999999
 44
0.0
 45
0.0
 46
0.0
 47
0.0
 48
0.0
 71
               0
 72
               0
 73
               0
 74
               0
 75
               0
 76
               0
 77
               1
 78
              11
 79
               0
140
24.432617187500004
141
0.0
142
0.0
143
1.0
144
1.0
145
0.0
146
0.8
147
0.4999999999999999
148
0.0
170
               0
171
               1
172
               1
173
               0
174
               1
175
               0
176
               0
177
               0
178
               0
179
               2
271
               1
272
               1
273
               2
274
               2
275
               0
276
               2
277
               2
278
              46
279
               0
280
               0
281
               0
282
               0
283
               1
284
              11
285
              11
286
              11
288
               0
289
               0
340
33
341
42
342
42
343
0
344
0
371
              -2
372
              -2
  0
DIMSTYLE
105
54
100
AcDbSymbolTableRecord
100
AcDbDimStyleTableRecord
  2
Arch
 70
               0
  3
<>
  4
[]
 40
1.0
 41
22.4482421875
 42
15.875
 43
10.16
 44
31.75
 45
0.0
 46
1.5874999999999999
 47
0.0
 48
0.0
 71
               0
 72
               0
 73
               0
 74
               0
 75
               0
 76
               0
 77
               1
 78
              11
 79
               0
140
24.432617187500004
141
0.0
142
0.0
143
1.0
144
1.0
145
0.0
146
1.0
147
1.5874999999999999
148
0.0
170
               0
171
               1
172
               1
173
               0
174
               1
175
               0
176
               0
177
               0
178
               0
179
               2
271
               1
272
               1
273
               2
274
               2
275
               0
276
               2
277
               2
278
              46
279
               0
280
               0
281
               0
282
               0
283
               1
284
              11
285
              11
286
              11
288
               0
289
               0
340
33
341
50
342
4B
343
0
344
0
371
              -2
372
              -2
  0
ENDTAB
  0
TABLE
  2
BLOCK_RECORD
  5
1
100
AcDbSymbolTable
 70
              19
  0
BLOCK_RECORD
  5
A
100
AcDbSymbolTableRecord
100
AcDbBlockTableRecord
  2
*MODEL_SPACE
340
20
  0
BLOCK_RECORD
  5
B
100
AcDbSymbolTableRecord
100
AcDbBlockTableRecord
  2
*PAPER_SPACE
340
21
  0
BLOCK_RECORD
  5
42
100
AcDbSymbolTableRecord
100
AcDbBlockTableRecord
  2
_DOT
340
0
  0
BLOCK_RECORD
  5
4B
100
AcDbSymbolTableRecord
100
AcDbBlockTableRecord
  2
VW_SLASH
340
0
  0
BLOCK_RECORD
  5
50
100
AcDbSymbolTableRecord
100
AcDbBlockTableRecord
  2
VW_FILLEDARROW
340
0
  0
BLOCK_RECORD
  5
23
100
AcDbSymbolTableRecord
100
AcDbBlockTableRecord
  2
グループ
340
0
102
{BLKREFS
331
12A
102
}
  0
BLOCK_RECORD
  5
24
100
AcDbSymbolTableRecord
100
AcDbBlockTableRecord
  2
*D4
340
0
  0
BLOCK_RECORD
  5
25
100
AcDbSymbolTableRecord
100
AcDbBlockTableRecord
  2
*D5
340
0
  0
BLOCK_RECORD
  5
26
100
AcDbSymbolTableRecord
100
AcDbBlockTableRecord
  2
*D6
340
0
  0
BLOCK_RECORD
  5
27
100
AcDbSymbolTableRecord
100
AcDbBlockTableRecord
  2
*D7
340
0
  0
BLOCK_RECORD
  5
28
100
AcDbSymbolTableRecord
100
AcDbBlockTableRecord
  2
*D8
340
0
  0
BLOCK_RECORD
  5
29
100
AcDbSymbolTableRecord
100
AcDbBlockTableRecord
  2
*D9
340
0
  0
BLOCK_RECORD
  5
2A
100
AcDbSymbolTableRecord
100
AcDbBlockTableRecord
  2
*D10
340
0
  0
BLOCK_RECORD
  5
2B
100
AcDbSymbolTableRecord
100
AcDbBlockTableRecord
  2
*D11
340
0
  0
BLOCK_RECORD
  5
2C
100
AcDbSymbolTableRecord
100
AcDbBlockTableRecord
  2
*D12
340
0
  0
BLOCK_RECORD
  5
2D
100
AcDbSymbolTableRecord
100
AcDbBlockTableRecord
  2
*D13
340
0
  0
BLOCK_RECORD
  5
2E
100
AcDbSymbolTableRecord
100
AcDbBlockTableRecord
  2
*D14
340
0
  0
BLOCK_RECORD
  5
2F
100
AcDbSymbolTableRecord
100
AcDbBlockTableRecord
  2
*D15
340
0
  0
BLOCK_RECORD
  5
30
100
AcDbSymbolTableRecord
100
AcDbBlockTableRecord
  2
*D16
340
0
  0
BLOCK_RECORD
  5
31
100
AcDbSymbolTableRecord
100
AcDbBlockTableRecord
  2
*D17
340
0
  0
BLOCK_RECORD
  5
32
100
AcDbSymbolTableRecord
100
AcDbBlockTableRecord
  2
*D18
340
0
  0
ENDTAB
  0
ENDSEC
  0
SECTION
  2
BLOCKS
  0
BLOCK
  5
D
100
AcDbEntity
  8
0
390
0
100
AcDbBlockBegin
  2
*MODEL_SPACE
 70
               0
 10
0.0
 20
0.0
 30
0.0
  3
*MODEL_SPACE
  1

  0
ENDBLK
  5
E
100
AcDbEntity
  8
0
390
0
100
AcDbBlockEnd
  0
BLOCK
  5
F
100
AcDbEntity
 67
               1
  8
0
390
0
100
AcDbBlockBegin
  2
*PAPER_SPACE
 70
               0
 10
0.0
 20
0.0
 30
0.0
  3
*PAPER_SPACE
  1

  0
ENDBLK
  5
10
100
AcDbEntity
 67
               1
  8
0
390
0
100
AcDbBlockEnd
  0
BLOCK
  5
43
100
AcDbEntity
  8
0
390
0
100
AcDbBlockBegin
  2
_DOT
 70
               0
 10
0.0
 20
0.0
 30
0.0
  3
_DOT
  1

  0
POLYLINE
  5
44
100
AcDbEntity
  8
0
370
              -2
390
0
  6
ByBlock
 62
               0
100
AcDb2dPolyline
 66
               1
 10
0.0
 20
0.0
 30
0.0
 70
               1
 40
0.5
 41
0.5
  0
VERTEX
  5
45
100
AcDbEntity
  8
0
370
              -2
390
0
  6
ByBlock
 62
               0
100
AcDbVertex
100
AcDb2dVertex
 10
-0.25
 20
0.0
 30
0.0
 42
1.0
  0
VERTEX
  5
46
100
AcDbEntity
  8
0
370
              -2
390
0
  6
ByBlock
 62
               0
100
AcDbVertex
100
AcDb2dVertex
 10
0.25
 20
0.0
 30
0.0
 42
1.0
  0
SEQEND
  5
47
100
AcDbEntity
  8
0
390
0
  0
LINE
  5
48
100
AcDbEntity
  8
0
370
              -2
390
0
  6
ByBlock
 62
               0
100
AcDbLine
 10
-0.5
 20
0.0
 30
0.0
 11
-1.0
 21
0.0
 31
0.0
  0
ENDBLK
  5
49
100
AcDbEntity
  8
0
390
0
100
AcDbBlockEnd
  0
BLOCK
  5
4C
100
AcDbEntity
  8
0
370
              -2
390
0
  6
ByBlock
 62
               0
100
AcDbBlockBegin
  2
VW_SLASH
 70
               0
 10
0.0
 20
0.0
 30
0.0
  3
VW_SLASH
  1

  0
LINE
  5
4D
100
AcDbEntity
  8
0
370
              -2
390
0
  6
ByBlock
 62
               0
100
AcDbLine
 10
0.0
 20
0.0
 30
0.0
 11
-1.0
 21
0.0
 31
0.0
  0
LINE
  5
4E
100
AcDbEntity
  8
0
370
              20
390
0
  6
ByBlock
 62
               0
100
AcDbLine
 10
-0.4987813153181721
 20
-0.4987813153181719
 30
0.0
 11
0.4987813153181721
 21
0.4987813153181719
 31
0.0
  0
ENDBLK
  5
4F
100
AcDbEntity
  8
0
390
0
100
AcDbBlockEnd
  0
BLOCK
  5
51
100
AcDbEntity
  8
0
370
              -2
390
0
  6
ByBlock
 62
               0
100
AcDbBlockBegin
  2
VW_FILLEDARROW
 70
               0
 10
0.0
 20
0.0
 30
0.0
  3
VW_FILLEDARROW
  1

  0
SOLID
  5
52
100
AcDbEntity
  8
0
370
              -2
390
0
 62
               0
100
AcDbTrace
 10
0.0
 20
0.0
 30
0.0
 11
-1.4107666015625
 21
-0.3780137715974714
 31
0.0
 12
-1.4107666015625
 22
0.3780137715974717
 32
0.0
 13
-1.4107666015625
 23
0.3780137715974717
 33
0.0
  0
ENDBLK
  5
53
100
AcDbEntity
  8
0
390
0
100
AcDbBlockEnd
  0
BLOCK
  5
55
100
AcDbEntity
  8
template
390
0
100
AcDbBlockBegin
  2
グループ
 70
               0
 10
0.0
 20
0.0
 30
0.0
  3
グループ
  1

  0
LWPOLYLINE
  5
56
100
AcDbEntity
  8
0
370
              15
390
0
  6
Continuous
 62
               7
100
AcDbPolyline
 90
        8
 70
             129
 10
-17405.025300123405
 20
-91.408432107552471
 10
-17405.025300123405
 20
-97.405820801128357
 10
-17414.526497041406
 20
-97.405820801128357
 10
-17414.526497041406
 20
-121.85678406463717
 10
-17422.881874303188
 20
-121.85678406463717
 10
-17422.881874303188
 20
-97.405820801128357
 10
-17432.214831249497
 20
-97.405820801128357
 10
-17432.214831249497
 20
-91.408432107552471
  0
LWPOLYLINE
  5
57
100
AcDbEntity
  8
0
370
              15
390
0
  6
Continuous
 62
               7
100
AcDbPolyline
 90
      101
 70
             128
 10
-17392.297008292848
 20
-92.136680600488944
 10
-17392.281658264059
 20
-92.132319843803174
 42
-0.0222221607845454
 10
-17391.99165368739
 20
-92.06369537855926
 10
-17391.97585992339
 20
-92.060691955460896
 42
-0.0146883565519274
 10
-17391.713157218175
 20
-92.018688768512902
 42
-0.0127458844192527
 10
-17391.448518251011
 20
-91.991151800439738
 10
-17391.386063172708
 20
-91.986258377852209
 42
-0.0198099018529927
 10
-17390.995214063241
 20
-91.971173220455569
 10
-17390.943402593788
 20
-91.971226996120663
 42
-0.0147617382800032
 10
-17390.44877913281
 20
-91.986347021365788
 10
-17390.376087677949
 20
-91.990719628252592
 42
-0.0162624548986161
 10
-17389.985934048473
 20
-92.026952503525536
 10
-17389.864401657214
 20
-92.042239062521716
 42
-0.0080020874607165
 10
-17389.718822626121
 20
-92.062921909790475
 10
-17389.680503155509
 20
-92.068993187604292
 42
-0.0053821929675674
 10
-17389.612019050212
 20
-92.080600711423131
 10
-17390.33842474941
 20
-94.261529167137041
 42
0.0108667757536403
 10
-17390.405741819563
 20
-94.248342051912829
 10
-17390.443209842728
 20
-94.241844309322687
 42
0.0170663203430374
 10
-17390.586426629645
 20
-94.222014712030756
 10
-17390.654301962328
 20
-94.214967541443457
 42
0.0220162375340976
 10
-17390.934681370189
 20
-94.198285180673253
 10
-17391.01253693724
 20
-94.197085813406773
 42
0.0282606915768988
 10
-17391.348173260812
 20
-94.210889090375872
 10
-17391.39208653459
 20
-94.215189080379957
 42
0.0169677213722624
 10
-17391.638011029543
 20
-94.247726129931493
 42
0.0190576269876948
 10
-17391.880918992127
 20
-94.29787300203833
 10
-17391.887178180237
 20
-94.299415976147202
 42
0.0213685642927699
 10
-17392.137562664717
 20
-94.372616261253313
 10
-17392.14305255963
 20
-94.374479257311009
 42
0.0237595297640689
 10
-17392.396547444518
 20
-94.474163779201476
 10
-17392.401649518557
 20
-94.476455554684776
 42
0.0261857468746489
 10
-17392.653820294781
 20
-94.605991892054789
 10
-17392.664246483862
 20
-94.612057366519537
 42
0.0272553062018031
 10
-17392.900676259116
 20
-94.767429572471997
 10
-17392.935439272656
 20
-94.793090720586122
 42
0.0325996893205386
 10
-17393.085594616277
 20
-94.919838593535587
 10
-17393.109304045429
 20
-94.942656622075475
 42
0.0138050960694209
 10
-17393.201187201608
 20
-95.036106283600134
 42
0.0125280103917826
 10
-17393.288029734442
 20
-95.134269610200562
 10
-17393.31171017935
 20
-95.16242810838753
 42
0.020521802474037
 10
-17393.43681025484
 20
-95.324221422586632
 10
-17393.459276595349
 20
-95.355881152443544
 42
0.0163110129592483
 10
-17393.614986974586
 20
-95.591211587483897
 10
-17393.617710870654
 20
-95.595635349498934
 42
0.013189734186638
 10
-17393.764511391528
 20
-95.84876744180022
 10
-17393.766211486927
 20
-95.851885680999089
 42
0.0107895576080293
 10
-17393.903988189119
 20
-96.118100890597447
 10
-17393.904721078663
 20
-96.11959512328076
 42
0.0091371507235344
 10
-17394.033201027323
 20
-96.394120321065316
 10
-17394.06294665872
 20
-96.460826828199174
 42
0.0135418326382681
 10
-17394.234660597802
 20
-96.875764613488286
 10
-17394.268265406259
 20
-96.963630755831957
 42
0.0092834542420472
 10
-17394.439494466147
 20
-97.437529254054539
 10
-17394.465111593938
 20
-97.512770324062728
 42
0.0054261043587759
 10
-17394.572749742158
 20
-97.840534296913006
 10
-17394.590275728424
 20
-97.895922459422437
 42
0.0008225090817774
 10
-17394.658945780167
 20
-98.114191217292273
 10
-17395.6436349121
 20
-101.13908251054886
 10
-17392.411011072025
 20
-101.13908251054886
 10
-17392.915203501878
 20
-103.04356080890125
 10
-17396.171259783863
 20
-103.04356080890125
 10
-17402.000408816217
 20
-121.85678387490611
 10
-17403.825506426525
 20
-121.85678387490611
 10
-17397.990828391026
 20
-103.04356080890125
 10
-17400.395944760065
 20
-103.04356080890125
 10
-17399.891752330212
 20
-101.13908251054886
 10
-17397.463203519263
 20
-101.13908251054886
 10
-17396.603048601075
 20
-98.502669509849966
 42
-0.0005863560589909
 10
-17396.566313922958
 20
-98.385843089842481
 10
-17396.490226089212
 20
-98.144850790172768
 42
-0.0087522378924567
 10
-17396.290757945761
 20
-97.549574703046289
 10
-17396.198493670301
 20
-97.289434534414227
 42
-0.0077400953836893
 10
-17395.940560011208
 20
-96.596429856965074
 10
-17395.924795039682
 20
-96.555998973712789
 42
-0.0082369946311019
 10
-17395.67771056902
 20
-95.951919907383285
 42
-0.0085725238370448
 10
-17395.410464473014
 20
-95.35649386809466
 10
-17395.308834872012
 20
-95.140072766125769
 42
-0.0168109410593631
 10
-17395.021890443277
 20
-94.578865240006735
 10
-17394.896047053124
 20
-94.351901207559067
 42
-0.0007817726989745
 10
-17394.841762702759
 20
-94.25435696197826
 10
-17394.841634396838
 20
-94.254127253416726
 42
-0.003662614229293
 10
-17394.786746532722
 20
-94.157529373273292
 42
-0.0080221150653412
 10
-17394.729622277286
 20
-94.062250138473885
 10
-17394.698922325955
 20
-94.012859189398227
 42
-0.0202139325526989
 10
-17394.57126658615
 20
-93.824877588716873
 10
-17394.517199120961
 20
-93.751798724475975
 42
-0.0249323791806214
 10
-17394.258036327225
 20
-93.435753482306154
 10
-17394.233896513113
 20
-93.409139209409091
 42
-0.0242132121571389
 10
-17393.894215771583
 20
-93.069255723213359
 10
-17393.846304198807
 20
-93.025746587006239
 42
-0.0251017527819609
 10
-17393.562322498183
 20
-92.792753841254239
 10
-17393.560877021377
 20
-92.791684583681217
 42
-0.0130868069031036
 10
-17393.262616371409
 20
-92.582904115132806
 10
-17393.261054552277
 20
-92.58187067486503
 42
-0.0290329526398135
 10
-17392.949943410873
 20
-92.401045173228454
 10
-17392.920097848906
 20
-92.385942790398829
 42
-0.0160250190054481
 10
-17392.654193435123
 20
-92.261926680175634
 42
-0.026760037474512
 10
-17392.378917357652
 20
-92.161178359626319
 10
-17392.352181438135
 20
-92.152985800801389
 42
-0.0049981587856492
 10
-17392.297008292848
 20
-92.136680600488944
 42
-0.0049981587856492
  0
LWPOLYLINE
  5
58
100
AcDbEntity
  8
0
370
              15
390
0
  6
Continuous
 62
               7
100
AcDbPolyline
 90
      118
 70
             128
 10
-17372.482640728398
 20
-101.21306583837622
 10
-17370.607518803899
 20
-101.21306583837622
 10
-17371.4455577095
 20
-103.89463236477627
 42
-0.0010587229523919
 10
-17371.41410189377
 20
-103.85772783123829
 10
-17371.355907803296
 20
-103.78974557524521
 42
-0.0071874740443607
 10
-17371.205532585191
 20
-103.61910488320937
 10
-17371.063809811938
 20
-103.46286874190298
 42
-0.0148118053487156
 10
-17370.613680519255
 20
-102.99525489591782
 10
-17370.526458184278
 20
-102.90985757499419
 42
-0.008627335867682
 10
-17370.190909383316
 20
-102.59248194101997
 10
-17370.147075667082
 20
-102.55243229667894
 42
-0.0103138323044522
 10
-17369.889051964856
 20
-102.32626915934861
 10
-17369.843277558532
 20
-102.287787112091
 42
-0.0060206748570463
 10
-17369.670429494414
 20
-102.145992461334
 10
-17369.668398363476
 20
-102.14436675566198
 42
-0.0067069027257117
 10
-17369.496105548867
 20
-102.01021612190777
 10
-17369.493556782923
 20
-102.00828595201924
 42
-0.0076184352053843
 10
-17369.322651517068
 20
-101.88291107678867
 42
-0.00896528615829
 10
-17369.147690554277
 20
-101.76327781641643
 10
-17369.111338834191
 20
-101.73936660297389
 42
-0.0156916245885477
 10
-17368.915379337028
 20
-101.61910411649876
 42
-0.0023299011133041
 10
-17368.715117292868
 20
-101.50592617685686
 10
-17368.699733160669
 20
-101.49732618189319
 42
-0.0107669341463298
 10
-17368.465496335531
 20
-101.37292604852462
 10
-17368.443231534493
 20
-101.36170929859372
 42
-0.0078058045909574
 10
-17368.159641416565
 20
-101.22434784296603
 10
-17368.149734328832
 20
-101.21973871508681
 42
-0.0181829330499928
 10
-17367.839424924252
 20
-101.08887497400539
 10
-17367.785369481633
 20
-101.06835985404187
 42
-0.020841153603946
 10
-17367.436284514199
 20
-100.95226939155452
 10
-17367.421928414075
 20
-100.94815094660183
 42
-0.0222799817164382
 10
-17367.093208620154
 20
-100.86950938046073
 10
-17367.084319656915
 20
-100.86779736987513
 42
-0.0215509523923451
 10
-17366.767848688636
 20
-100.82088168134135
 10
-17366.725366727587
 20
-100.8164441545503
 42
-0.0182545924887605
 10
-17366.491257948284
 20
-100.80060032915958
 10
-17366.451856931937
 20
-100.79937578408038
 42
-0.0072962856588125
 10
-17366.295934052247
 20
-100.79680645555823
 10
-17366.266834381677
 20
-100.79675162015448
 42
-0.0059227516167756
 10
-17366.169084882531
 20
-100.79772533194489
 10
-17366.139842665063
 20
-100.79836309854811
 42
-0.0011833112018841
 10
-17366.100591381324
 20
-100.79931210285827
 10
-17366.895977976932
 20
-103.33804604795728
 42
0.0143932052153543
 10
-17366.922379359308
 20
-103.32784707790323
 10
-17366.929651331702
 20
-103.32527585905461
 42
0.0234388603241729
 10
-17366.971482197616
 20
-103.3126566233432
 10
-17366.980163860542
 20
-103.31047566133429
 42
0.0199162743361791
 10
-17367.040452694626
 20
-103.29785892599901
 10
-17367.06126663243
 20
-103.29436172657074
 42
0.0293643550791053
 10
-17367.164341491192
 20
-103.28321168091766
 10
-17367.189026671913
 20
-103.28200006389898
 42
0.0214606686951423
 10
-17367.342167587864
 20
-103.28106150348145
 10
-17367.351539498683
 20
-103.2814064150258
 42
0.0167564054161399
 10
-17367.523059689785
 20
-103.29348345739386
 10
-17367.531519482545
 20
-103.294364797821
 42
0.0137677553287632
 10
-17367.718872795816
 20
-103.31911410636499
 10
-17367.726224535319
 20
-103.32029202633248
 42
0.0118497261505186
 10
-17367.92672229942
 20
-103.35730937652137
 10
-17367.932872306668
 20
-103.35859623924171
 42
0.0106421143847604
 10
-17368.143753193952
 20
-103.40742861481581
 10
-17368.148662002342
 20
-103.4086759575016
 42
0.0099746379679159
 10
-17368.367120471474
 20
-103.46885048580747
 10
-17368.428668511675
 20
-103.48713236444701
 42
0.0191613675790493
 10
-17368.764652974194
 20
-103.60110974473481
 10
-17368.852712746932
 20
-103.63479665505587
 42
0.0205274080139289
 10
-17369.238019518838
 20
-103.80062506288459
 10
-17369.295668800813
 20
-103.82829302745262
 42
0.0181256912195707
 10
-17369.553945741485
 20
-103.96397684643478
 10
-17369.606901124804
 20
-103.9942944596517
 42
0.0140709242522677
 10
-17369.751856059429
 20
-104.08278913308391
 10
-17369.778104927969
 20
-104.09984595174963
 42
0.0086667884116796
 10
-17369.86703108959
 20
-104.15984861968218
 42
0.0036408191768439
 10
-17369.954464327464
 20
-104.22202947735963
 10
-17369.989691202092
 20
-104.24747042338731
 42
0.0052260781287977
 10
-17370.145919899576
 20
-104.36280281009142
 10
-17370.162126755742
 20
-104.37503092063969
 42
0.005002443589636
 10
-17370.348130098755
 20
-104.51831348886364
 10
-17370.363448255317
 20
-104.53035951134768
 42
0.0136138710284207
 10
-17370.573889523614
 20
-104.7053260162363
 10
-17370.607557399435
 20
-104.73490498897525
 42
0.0172815186878586
 10
-17370.871960941076
 20
-104.98390166157627
 10
-17370.874523286941
 20
-104.98648747874574
 42
0.0189403858029335
 10
-17371.125105085546
 20
-105.25929274358006
 10
-17371.157736579065
 20
-105.29763667505405
 42
0.0185044199452938
 10
-17371.349693018034
 20
-105.5408852561701
 42
0.0088565243867391
 10
-17371.528153124658
 20
-105.79440167630925
 10
-17371.537331104315
 20
-105.80794305608015
 42
0.0157195347213469
 10
-17371.720551710649
 20
-106.09746526539766
 10
-17371.766634652577
 20
-106.17561746241584
 42
0.0095451879728481
 10
-17371.931720202716
 20
-106.46821210477322
 10
-17371.942868121627
 20
-106.48888277686754
 42
0.0100351706165712
 10
-17372.074911870804
 20
-106.74593833739596
 42
0.0086935915466195
 10
-17372.197243022587
 20
-107.00777148277429
 10
-17372.200563764014
 20
-107.01521380577219
 42
0.0072580174919358
 10
-17372.320910215993
 20
-107.29580579744176
 10
-17372.324171849265
 20
-107.30372582337316
 42
0.006000512260013
 10
-17372.443372517617
 20
-107.60333549400367
 10
-17372.446583495948
 20
-107.61169702188306
 42
0.0049017786994825
 10
-17372.565483654758
 20
-107.93062600236077
 10
-17372.568649461195
 20
-107.93937893971781
 42
0.0039415167581438
 10
-17372.688085739239
 20
-108.27792100208639
 10
-17372.691216841908
 20
-108.28702420300715
 42
0.0031035838746518
 10
-17372.812021627502
 20
-108.64546406448889
 10
-17372.815131672127
 20
-108.65488468615547
 42
0.0025070747150328
 10
-17372.938033023562
 20
-109.03353190346492
 10
-17372.97532691987
 20
-109.15042356835238
 42
0.0029081910264506
 10
-17373.167345217826
 20
-109.7645872271129
 10
-17373.208148386198
 20
-109.89781046891994
 42
0.0009266453717364
 10
-17373.476565760393
 20
-110.78003492844104
 10
-17373.49745323346
 20
-110.84914680908834
 42
-0.0005809993676101
 10
-17373.774789913743
 20
-111.76295491471831
 10
-17373.841071712042
 20
-111.98043984695991
 42
-0.0012018708172824
 10
-17373.988056021444
 20
-112.45860251139868
 10
-17374.040375872828
 20
-112.62736165166928
 42
-0.0002691059661573
 10
-17374.083945354181
 20
-112.76762927260643
 10
-17376.916901252469
 20
-121.85678387490611
 10
-17378.734890144449
 20
-121.85678387490611
 10
-17372.482640728398
 20
-101.21306583837622
  0
SPLINE
  5
59
100
AcDbEntity
  8
0
370
              15
390
0
  6
Continuous
 62
               7
100
AcDbSpline
210
0.0
220
0.0
230
1.0
 70
              13
 71
               2
 72
             782
 73
             779
 74
               0
 42
0.000001
 43
0.000001
 40
0.0
 40
0.0
 40
0.0
 40
1.0
 40
1.0
 40
2.0
 40
2.0
 40
3.0
 40
3.0
 40
4.0
 40
4.0
 40
5.0
 40
5.0
 40
6.0
 40
6.0
 40
7.0
 40
7.0
 40
8.0
 40
8.0
 40
9.0
 40
9.0
 40
10.0
 40
10.0
 40
11.0
 40
11.0
 40
12.0
 40
12.0
 40
13.0
 40
13.0
 40
14.0
 40
14.0
 40
15.0
 40
15.0
 40
16.0
 40
16.0
 40
17.0
 40
17.0
 40
18.0
 40
18.0
 40
19.0
 40
19.0
 40
20.0
 40
20.0
 40
21.0
 40
21.0
 40
22.0
 40
22.0
 40
23.0
 40
23.0
 40
24.0
 40
24.0
 40
25.0
 40
25.0
 40
26.0
 40
26.0
 40
27.0
 40
27.0
 40
28.0
 40
28.0
 40
29.0
 40
29.0
 40
30.0
 40
30.0
 40
31.0
 40
31.0
 40
32.0
 40
32.0
 40
33.0
 40
33.0
 40
34.0
 40
34.0
 40
35.0
 40
35.0
 40
36.0
 40
36.0
 40
37.0
 40
37.0
 40
38.0
 40
38.0
 40
39.0
 40
39.0
 40
40.0
 40
40.0
 40
41.0
 40
41.0
 40
42.0
 40
42.0
 40
43.0
 40
43.0
 40
44.0
 40
44.0
 40
45.0
 40
45.0
 40
46.0
 40
46.0
 40
47.0
 40
47.0
 40
48.0
 40
48.0
 40
49.0
 40
49.0
 40
50.0
 40
50.0
 40
51.0
 40
51.0
 40
52.0
 40
52.0
 40
53.0
 40
53.0
 40
54.0
 40
54.0
 40
55.0
 40
55.0
 40
56.0
 40
56.0
 40
57.0
 40
57.0
 40
58.0
 40
58.0
 40
59.0
 40
59.0
 40
60.0
 40
60.0
 40
61.0
 40
61.0
 40
62.0
 40
62.0
 40
63.0
 40
63.0
 40
64.0
 40
64.0
 40
65.0
 40
65.0
 40
66.0
 40
66.0
 40
67.0
 40
67.0
 40
68.0
 40
68.0
 40
69.0
 40
69.0
 40
70.0
 40
70.0
 40
71.0
 40
71.0
 40
72.0
 40
72.0
 40
73.0
 40
73.0
 40
74.0
 40
74.0
 40
75.0
 40
75.0
 40
76.0
 40
76.0
 40
77.0
 40
77.0
 40
78.0
 40
78.0
 40
79.0
 40
79.0
 40
80.0
 40
80.0
 40
81.0
 40
81.0
 40
82.0
 40
82.0
 40
83.0
 40
83.0
 40
84.0
 40
84.0
 40
85.0
 40
85.0
 40
86.0
 40
86.0
 40
87.0
 40
87.0
 40
88.0
 40
88.0
 40
89.0
 40
89.0
 40
90.0
 40
90.0
 40
91.0
 40
91.0
 40
92.0
 40
92.0
 40
93.0
 40
93.0
 40
94.0
 40
94.0
 40
95.0
 40
95.0
 40
96.0
 40
96.0
 40
97.0
 40
97.0
 40
98.0
 40
98.0
 40
99.0
 40
99.0
 40
100.0
 40
100.0
 40
101.0
 40
101.0
 40
102.0
 40
102.0
 40
103.0
 40
103.0
 40
104.0
 40
104.0
 40
105.0
 40
105.0
 40
106.0
 40
106.0
 40
107.0
 40
107.0
 40
108.0
 40
108.0
 40
109.0
 40
109.0
 40
110.0
 40
110.0
 40
111.0
 40
111.0
 40
112.0
 40
112.0
 40
113.0
 40
113.0
 40
114.0
 40
114.0
 40
115.0
 40
115.0
 40
116.0
 40
116.0
 40
117.0
 40
117.0
 40
118.0
 40
118.0
 40
119.0
 40
119.0
 40
120.0
 40
120.0
 40
121.0
 40
121.0
 40
122.0
 40
122.0
 40
123.0
 40
123.0
 40
124.0
 40
124.0
 40
125.0
 40
125.0
 40
126.0
 40
126.0
 40
127.0
 40
127.0
 40
128.0
 40
128.0
 40
129.0
 40
129.0
 40
130.0
 40
130.0
 40
131.0
 40
131.0
 40
132.0
 40
132.0
 40
133.0
 40
133.0
 40
134.0
 40
134.0
 40
135.0
 40
135.0
 40
136.0
 40
136.0
 40
137.0
 40
137.0
 40
138.0
 40
138.0
 40
139.0
 40
139.0
 40
140.0
 40
140.0
 40
141.0
 40
141.0
 40
142.0
 40
142.0
 40
143.0
 40
143.0
 40
144.0
 40
144.0
 40
145.0
 40
145.0
 40
146.0
 40
146.0
 40
147.0
 40
147.0
 40
148.0
 40
148.0
 40
149.0
 40
149.0
 40
150.0
 40
150.0
 40
151.0
 40
151.0
 40
152.0
 40
152.0
 40
153.0
 40
153.0
 40
154.0
 40
154.0
 40
155.0
 40
155.0
 40
156.0
 40
156.0
 40
157.0
 40
157.0
 40
158.0
 40
158.0
 40
159.0
 40
159.0
 40
160.0
 40
160.0
 40
161.0
 40
161.0
 40
162.0
 40
162.0
 40
163.0
 40
163.0
 40
164.0
 40
164.0
 40
165.0
 40
165.0
 40
166.0
 40
166.0
 40
167.0
 40
167.0
 40
168.0
 40
168.0
 40
169.0
 40
169.0
 40
170.0
 40
170.0
 40
171.0
 40
171.0
 40
172.0
 40
172.0
 40
173.0
 40
173.0
 40
174.0
 40
174.0
 40
175.0
 40
175.0
 40
176.0
 40
176.0
 40
177.0
 40
177.0
 40
178.0
 40
178.0
 40
179.0
 40
179.0
 40
180.0
 40
180.0
 40
181.0
 40
181.0
 40
182.0
 40
182.0
 40
183.0
 40
183.0
 40
184.0
 40
184.0
 40
185.0
 40
185.0
 40
186.0
 40
186.0
 40
187.0
 40
187.0
 40
188.0
 40
188.0
 40
189.0
 40
189.0
 40
190.0
 40
190.0
 40
191.0
 40
191.0
 40
192.0
 40
192.0
 40
193.0
 40
193.0
 40
194.0
 40
194.0
 40
195.0
 40
195.0
 40
196.0
 40
196.0
 40
197.0
 40
197.0
 40
198.0
 40
198.0
 40
199.0
 40
199.0
 40
200.0
 40
200.0
 40
201.0
 40
201.0
 40
202.0
 40
202.0
 40
203.0
 40
203.0
 40
204.0
 40
204.0
 40
205.0
 40
205.0
 40
206.0
 40
206.0
 40
207.0
 40
207.0
 40
208.0
 40
208.0
 40
209.0
 40
209.0
 40
210.0
 40
210.0
 40
211.0
 40
211.0
 40
212.0
 40
212.0
 40
213.0
 40
213.0
 40
214.0
 40
214.0
 40
215.0
 40
215.0
 40
216.0
 40
216.0
 40
217.0
 40
217.0
 40
218.0
 40
218.0
 40
219.0
 40
219.0
 40
220.0
 40
220.0
 40
221.0
 40
221.0
 40
222.0
 40
222.0
 40
223.0
 40
223.0
 40
224.0
 40
224.0
 40
225.0
 40
225.0
 40
226.0
 40
226.0
 40
227.0
 40
227.0
 40
228.0
 40
228.0
 40
229.0
 40
229.0
 40
230.0
 40
230.0
 40
231.0
 40
231.0
 40
232.0
 40
232.0
 40
233.0
 40
233.0
 40
234.0
 40
234.0
 40
235.0
 40
235.0
 40
236.0
 40
236.0
 40
237.0
 40
237.0
 40
238.0
 40
238.0
 40
239.0
 40
239.0
 40
240.0
 40
240.0
 40
241.0
 40
241.0
 40
242.0
 40
242.0
 40
243.0
 40
243.0
 40
244.0
 40
244.0
 40
245.0
 40
245.0
 40
246.0
 40
246.0
 40
247.0
 40
247.0
 40
248.0
 40
248.0
 40
249.0
 40
249.0
 40
250.0
 40
250.0
 40
251.0
 40
251.0
 40
252.0
 40
252.0
 40
253.0
 40
253.0
 40
254.0
 40
254.0
 40
255.0
 40
255.0
 40
256.0
 40
256.0
 40
257.0
 40
257.0
 40
258.0
 40
258.0
 40
259.0
 40
259.0
 40
260.0
 40
260.0
 40
261.0
 40
261.0
 40
262.0
 40
262.0
 40
263.0
 40
263.0
 40
264.0
 40
264.0
 40
265.0
 40
265.0
 40
266.0
 40
266.0
 40
267.0
 40
267.0
 40
268.0
 40
268.0
 40
269.0
 40
269.0
 40
270.0
 40
270.0
 40
271.0
 40
271.0
 40
272.0
 40
272.0
 40
273.0
 40
273.0
 40
274.0
 40
274.0
 40
275.0
 40
275.0
 40
276.0
 40
276.0
 40
277.0
 40
277.0
 40
278.0
 40
278.0
 40
279.0
 40
279.0
 40
280.0
 40
280.0
 40
281.0
 40
281.0
 40
282.0
 40
282.0
 40
283.0
 40
283.0
 40
284.0
 40
284.0
 40
285.0
 40
285.0
 40
286.0
 40
286.0
 40
287.0
 40
287.0
 40
288.0
 40
288.0
 40
289.0
 40
289.0
 40
290.0
 40
290.0
 40
291.0
 40
291.0
 40
292.0
 40
292.0
 40
293.0
 40
293.0
 40
294.0
 40
294.0
 40
295.0
 40
295.0
 40
296.0
 40
296.0
 40
297.0
 40
297.0
 40
298.0
 40
298.0
 40
299.0
 40
299.0
 40
300.0
 40
300.0
 40
301.0
 40
301.0
 40
302.0
 40
302.0
 40
303.0
 40
303.0
 40
304.0
 40
304.0
 40
305.0
 40
305.0
 40
306.0
 40
306.0
 40
307.0
 40
307.0
 40
308.0
 40
308.0
 40
309.0
 40
309.0
 40
310.0
 40
310.0
 40
311.0
 40
311.0
 40
312.0
 40
312.0
 40
313.0
 40
313.0
 40
314.0
 40
314.0
 40
315.0
 40
315.0
 40
316.0
 40
316.0
 40
317.0
 40
317.0
 40
318.0
 40
318.0
 40
319.0
 40
319.0
 40
320.0
 40
320.0
 40
321.0
 40
321.0
 40
322.0
 40
322.0
 40
323.0
 40
323.0
 40
324.0
 40
324.0
 40
325.0
 40
325.0
 40
326.0
 40
326.0
 40
327.0
 40
327.0
 40
328.0
 40
328.0
 40
329.0
 40
329.0
 40
330.0
 40
330.0
 40
331.0
 40
331.0
 40
332.0
 40
332.0
 40
333.0
 40
333.0
 40
334.0
 40
334.0
 40
335.0
 40
335.0
 40
336.0
 40
336.0
 40
337.0
 40
337.0
 40
338.0
 40
338.0
 40
339.0
 40
339.0
 40
340.0
 40
340.0
 40
341.0
 40
341.0
 40
342.0
 40
342.0
 40
343.0
 40
343.0
 40
344.0
 40
344.0
 40
345.0
 40
345.0
 40
346.0
 40
346.0
 40
347.0
 40
347.0
 40
348.0
 40
348.0
 40
349.0
 40
349.0
 40
350.0
 40
350.0
 40
351.0
 40
351.0
 40
352.0
 40
352.0
 40
353.0
 40
353.0
 40
354.0
 40
354.0
 40
355.0
 40
355.0
 40
356.0
 40
356.0
 40
357.0
 40
357.0
 40
358.0
 40
358.0
 40
359.0
 40
359.0
 40
360.0
 40
360.0
 40
361.0
 40
361.0
 40
362.0
 40
362.0
 40
363.0
 40
363.0
 40
364.0
 40
364.0
 40
365.0
 40
365.0
 40
366.0
 40
366.0
 40
367.0
 40
367.0
 40
368.0
 40
368.0
 40
369.0
 40
369.0
 40
370.0
 40
370.0
 40
371.0
 40
371.0
 40
372.0
 40
372.0
 40
373.0
 40
373.0
 40
374.0
 40
374.0
 40
375.0
 40
375.0
 40
376.0
 40
376.0
 40
377.0
 40
377.0
 40
378.0
 40
378.0
 40
379.0
 40
379.0
 40
380.0
 40
380.0
 40
381.0
 40
381.0
 40
382.0
 40
382.0
 40
383.0
 40
383.0
 40
384.0
 40
384.0
 40
385.0
 40
385.0
 40
386.0
 40
386.0
 40
387.0
 40
387.0
 40
388.0
 40
388.0
 40
389.0
 40
389.0
 40
389.0
 10
-17362.153936277668
 20
-101.20213947501384
 30
0.0
 41
1.0
 10
-17361.335512168946
 20
-101.20213947501384
 30
0.0
 41
1.0
 10
-17360.517088060227
 20
-101.20213947501384
 30
0.0
 41
1.0
 10
-17360.930841795744
 20
-102.54476573926354
 30
0.0
 41
1.0
 10
-17361.34459553126
 20
-103.88739200351324
 30
0.0
 41
1.0
 10
-17361.326256036005
 20
-103.85869123046547
 30
0.0
 41
0.9999957264392069
 10
-17361.30774903921
 20
-103.83009818037033
 30
0.0
 41
1.0
 10
-17361.277319715096
 20
-103.78308530203486
 30
0.0
 41
1.0
 10
-17361.246890390987
 20
-103.7360724236994
 30
0.0
 41
1.0
 10
-17361.16752474587
 20
-103.61345361677797
 30
0.0
 41
0.9995394069084213
 10
-17361.080866354299
 20
-103.49587555501014
 30
0.0
 41
1.0
 10
-17361.045109492054
 20
-103.44736066243745
 30
0.0
 41
1.0
 10
-17361.009352629808
 20
-103.39884576986475
 30
0.0
 41
1.0
 10
-17360.875625961995
 20
-103.21740549474602
 30
0.0
 41
0.9994460617141743
 10
-17360.730125480703
 20
-103.04526309709092
 30
0.0
 41
1.0
 10
-17360.725737299737
 20
-103.04007141672037
 30
0.0
 41
1.0
 10
-17360.721349118772
 20
-103.03487973634979
 30
0.0
 41
1.0
 10
-17360.584624999432
 20
-102.87312069945797
 30
0.0
 41
0.9994359394932307
 10
-17360.437350769062
 20
-102.7209044982767
 30
0.0
 41
1.0
 10
-17360.434967415087
 20
-102.71844116788276
 30
0.0
 41
1.0
 10
-17360.432584061116
 20
-102.71597783748884
 30
0.0
 41
1.0
 10
-17360.290076538702
 20
-102.56868829710223
 30
0.0
 41
0.9995293688566427
 10
-17360.138804857728
 20
-102.43041508494787
 30
0.0
 41
1.0
 10
-17360.119511098485
 20
-102.41277919931667
 30
0.0
 41
1.0
 10
-17360.100217339244
 20
-102.39514331368547
 30
0.0
 41
1.0
 10
-17359.987533176783
 20
-102.2921418728132
 30
0.0
 41
0.9997087614798347
 10
-17359.870010287792
 20
-102.19469759198591
 30
0.0
 41
1.0
 10
-17359.850844214609
 20
-102.17880601347076
 30
0.0
 41
1.0
 10
-17359.831678141425
 20
-102.16291443495561
 30
0.0
 41
1.0
 10
-17359.7524873988
 20
-102.09725331115871
 30
0.0
 41
0.9999595338694169
 10
-17359.672128127982
 20
-102.03302758053303
 30
0.0
 41
1.0
 10
-17359.591768857113
 20
-101.96880184986733
 30
0.0
 41
0.9999749417505545
 10
-17359.510508322746
 20
-101.90572029590243
 30
0.0
 41
1.0
 10
-17359.489522176547
 20
-101.88942900857194
 30
0.0
 41
1.0
 10
-17359.468536030348
 20
-101.87313772124146
 30
0.0
 41
1.0
 10
-17359.383968145088
 20
-101.80748871143781
 30
0.0
 41
0.9999792037131913
 10
-17359.29856054538
 20
-101.74293592983906
 30
0.0
 41
1.0
 10
-17359.27773571913
 20
-101.72719610732332
 30
0.0
 41
1.0
 10
-17359.256910892876
 20
-101.71145628480757
 30
0.0
 41
1.0
 10
-17359.213152944831
 20
-101.67838314760334
 30
0.0
 41
0.999999337399312
 10
-17359.169471259469
 20
-101.64520935277142
 30
0.0
 41
1.0
 10
-17359.125789573383
 20
-101.61203555738771
 30
0.0
 41
0.9999160953812376
 10
-17359.081263162479
 20
-101.58000449220246
 30
0.0
 41
1.0
 10
-17359.048441275023
 20
-101.5563933365909
 30
0.0
 41
1.0
 10
-17359.015619387566
 20
-101.53278218097932
 30
0.0
 41
1.0
 10
-17358.905449201804
 20
-101.45352880460902
 30
0.0
 41
0.9980964527236543
 10
-17358.786360208309
 20
-101.38844133175532
 30
0.0
 41
1.0
 10
-17358.749327601381
 20
-101.3682013521626
 30
0.0
 41
1.0
 10
-17358.712294994453
 20
-101.34796137256988
 30
0.0
 41
1.0
 10
-17358.532967981169
 20
-101.249951121862
 30
0.0
 41
0.9984572810569421
 10
-17358.343879414821
 20
-101.17242886052156
 30
0.0
 41
1.0
 10
-17358.340233145424
 20
-101.17093396818325
 30
0.0
 41
1.0
 10
-17358.336586876027
 20
-101.16943907584493
 30
0.0
 41
1.0
 10
-17358.154790848464
 20
-101.09490659917705
 30
0.0
 41
0.99878385280376
 10
-17357.966538189903
 20
-101.0386409590094
 30
0.0
 41
1.0
 10
-17357.96230024071
 20
-101.03737430532128
 30
0.0
 41
1.0
 10
-17357.95806229152
 20
-101.03610765163316
 30
0.0
 41
1.0
 10
-17357.778285531345
 20
-100.9823753188452
 30
0.0
 41
0.9990652816209941
 10
-17357.594539599624
 20
-100.94437163930161
 30
0.0
 41
1.0
 10
-17357.5893511986
 20
-100.94329853619672
 30
0.0
 41
1.0
 10
-17357.584162797579
 20
-100.94222543309182
 30
0.0
 41
1.0
 10
-17357.410793667917
 20
-100.90636795975952
 30
0.0
 41
0.9992909934268301
 10
-17357.235217901452
 20
-100.88365752729305
 30
0.0
 41
1.0
 10
-17357.059642135016
 20
-100.8609470948261
 30
0.0
 41
0.9994553539443819
 10
-17356.882950701911
 20
-100.84986779062078
 30
0.0
 41
1.0
 10
-17356.84751629411
 20
-100.84764590257274
 30
0.0
 41
1.0
 10
-17356.81208188631
 20
-100.8454240145247
 30
0.0
 41
1.0
 10
-17356.645856119732
 20
-100.83500095211454
 30
0.0
 41
0.9990928098297368
 10
-17356.479346327837
 20
-100.8387605933475
 30
0.0
 41
1.0
 10
-17356.440784492559
 20
-100.83963128488057
 30
0.0
 41
1.0
 10
-17356.402222657285
 20
-100.84050197641362
 30
0.0
 41
1.0
 10
-17356.312836535923
 20
-100.84252023458235
 30
0.0
 41
0.9998382089204742
 10
-17356.223580853148
 20
-100.84775236111011
 30
0.0
 41
1.0
 10
-17356.223150946924
 20
-100.84777756201261
 30
0.0
 41
1.0
 10
-17356.2227210407
 20
-100.84780276291511
 30
0.0
 41
1.0
 10
-17356.134325170355
 20
-100.85298448763801
 30
0.0
 41
0.999755801675607
 10
-17356.046244593163
 20
-100.86206700300465
 30
0.0
 41
1.0
 10
-17356.045768454736
 20
-100.86211610048662
 30
0.0
 41
1.0
 10
-17356.045292316314
 20
-100.86216519796857
 30
0.0
 41
1.0
 10
-17355.958164015956
 20
-100.87114951837283
 30
0.0
 41
0.9996565144185317
 10
-17355.871626162618
 20
-100.88468682506016
 30
0.0
 41
1.0
 10
-17355.871160237235
 20
-100.88475971079214
 30
0.0
 41
1.0
 10
-17355.870694311856
 20
-100.88483259652412
 30
0.0
 41
1.0
 10
-17355.785088309272
 20
-100.89822413174834
 30
0.0
 41
0.9995321806861693
 10
-17355.700461228949
 20
-100.91682462017843
 30
0.0
 41
1.0
 10
-17355.700072034379
 20
-100.91691016264414
 30
0.0
 41
1.0
 10
-17355.699682839808
 20
-100.91699570510985
 30
0.0
 41
1.0
 10
-17355.615834148608
 20
-100.93542510861231
 30
0.0
 41
0.9993819199221443
 10
-17355.533487614426
 20
-100.95970049186838
 30
0.0
 41
1.0
 10
-17355.533249180928
 20
-100.95977078097761
 30
0.0
 41
1.0
 10
-17355.533010747429
 20
-100.95984107008685
 30
0.0
 41
1.0
 10
-17355.451141080222
 20
-100.9839758751328
 30
0.0
 41
0.9992088568516043
 10
-17355.37144856124
 20
-101.01454111092346
 30
0.0
 41
1.0
 10
-17355.291767570376
 20
-101.0451007116484
 30
0.0
 41
0.999022610176974
 10
-17355.215096900451
 20
-101.08257814327123
 30
0.0
 41
1.0
 10
-17355.138437758658
 20
-101.12004993982059
 30
0.0
 41
0.9988424273966389
 10
-17355.065734131473
 20
-101.16471471505946
 30
0.0
 41
1.0
 10
-17355.065466423079
 20
-101.16487917914074
 30
0.0
 41
1.0
 10
-17355.065198714685
 20
-101.16504364322202
 30
0.0
 41
1.0
 10
-17354.991959670715
 20
-101.2100373466204
 30
0.0
 41
0.9986928844496326
 10
-17354.92369680402
 20
-101.26227308088659
 30
0.0
 41
1.0
 10
-17354.923115511789
 20
-101.2627178941207
 30
0.0
 41
1.0
 10
-17354.922534219557
 20
-101.26316270735481
 30
0.0
 41
1.0
 10
-17354.853108768384
 20
-101.31628806810708
 30
0.0
 41
0.9986007262281984
 10
-17354.789682598617
 20
-101.37644883780385
 30
0.0
 41
1.0
 10
-17354.78878818317
 20
-101.37729720562889
 30
0.0
 41
1.0
 10
-17354.787893767723
 20
-101.37814557345393
 30
0.0
 41
1.0
 10
-17354.722678767022
 20
-101.44000307883719
 30
0.0
 41
0.998558149138204
 10
-17354.664471155313
 20
-101.50849556911952
 30
0.0
 41
1.0
 10
-17354.655212701728
 20
-101.51938992680613
 30
0.0
 41
1.0
 10
-17354.645954248146
 20
-101.53028428449272
 30
0.0
 41
1.0
 10
-17354.569229729255
 20
-101.62056549016626
 30
0.0
 41
0.9970460233523709
 10
-17354.507237828097
 20
-101.72153257434843
 30
0.0
 41
1.0
 10
-17354.492768463013
 20
-101.74509903343571
 30
0.0
 41
1.0
 10
-17354.478299097929
 20
-101.768665492523
 30
0.0
 41
1.0
 10
-17354.438562397921
 20
-101.83338521655355
 30
0.0
 41
0.9988468816639341
 10
-17354.405216027175
 20
-101.90161766897131
 30
0.0
 41
1.0
 10
-17354.398180004719
 20
-101.91601459003154
 30
0.0
 41
1.0
 10
-17354.391143982266
 20
-101.93041151109176
 30
0.0
 41
1.0
 10
-17354.371869656461
 20
-101.96985012130656
 30
0.0
 41
0.9998431189993856
 10
-17354.354004328925
 20
-102.00994667583973
 30
0.0
 41
1.0
 10
-17354.336139001571
 20
-102.05004322995941
 30
0.0
 41
0.9999989989774989
 10
-17354.318160278417
 20
-102.09008906695514
 30
0.0
 41
1.0
 10
-17354.311987966619
 20
-102.10383728422235
 30
0.0
 41
1.0
 10
-17354.305815654821
 20
-102.11758550148954
 30
0.0
 41
1.0
 10
-17354.275492308225
 20
-102.18512777266825
 30
0.0
 41
0.9998790356317511
 10
-17354.247284428082
 20
-102.25358052461854
 30
0.0
 41
1.0
 10
-17354.240449246783
 20
-102.27016762608358
 30
0.0
 41
1.0
 10
-17354.233614065481
 20
-102.2867547275486
 30
0.0
 41
1.0
 10
-17354.210056403117
 20
-102.34392268239323
 30
0.0
 41
0.9998227574561033
 10
-17354.188667654736
 20
-102.40193699065355
 30
0.0
 41
1.0
 10
-17354.167278906345
 20
-102.45995129892732
 30
0.0
 41
0.9996797971041851
 10
-17354.14885262138
 20
-102.51897341806276
 30
0.0
 41
1.0
 10
-17354.144948818655
 20
-102.53147787622488
 30
0.0
 41
1.0
 10
-17354.141045015935
 20
-102.54398233438701
 30
0.0
 41
1.0
 10
-17354.114811125524
 20
-102.62801336983638
 30
0.0
 41
0.9979274938734338
 10
-17354.099586602046
 20
-102.71471772849422
 30
0.0
 41
1.0
 10
-17354.097362914785
 20
-102.72738172930605
 30
0.0
 41
1.0
 10
-17354.095139227527
 20
-102.74004573011786
 30
0.0
 41
1.0
 10
-17354.084209287823
 20
-102.80229223742261
 30
0.0
 41
0.999498598213069
 10
-17354.077241122646
 20
-102.86510573857788
 30
0.0
 41
1.0
 10
-17354.07027295747
 20
-102.92791923970856
 30
0.0
 41
0.9996372611198432
 10
-17354.066697091705
 20
-102.99101681837932
 30
0.0
 41
1.0
 10
-17354.066528514217
 20
-102.99399143547288
 30
0.0
 41
1.0
 10
-17354.066359936725
 20
-102.99696605256645
 30
0.0
 41
1.0
 10
-17354.062446915977
 20
-103.06601286545556
 30
0.0
 41
0.9997730630740362
 10
-17354.061478602485
 20
-103.1351636895338
 30
0.0
 41
1.0
 10
-17354.061421496066
 20
-103.1392418686321
 30
0.0
 41
1.0
 10
-17354.06136438965
 20
-103.14332004773041
 30
0.0
 41
1.0
 10
-17354.060281863331
 20
-103.22062723024277
 30
0.0
 41
0.9998772614079912
 10
-17354.061621950063
 20
-103.29793037700146
 30
0.0
 41
1.0
 10
-17354.06171121326
 20
-103.30307954064202
 30
0.0
 41
1.0
 10
-17354.061800476455
 20
-103.30822870428256
 30
0.0
 41
1.0
 10
-17354.063319089582
 20
-103.39583017845735
 30
0.0
 41
0.9999415567327078
 10
-17354.066731399827
 20
-103.48337834007533
 30
0.0
 41
1.0
 10
-17354.066972720506
 20
-103.48956979987094
 30
0.0
 41
1.0
 10
-17354.067214041184
 20
-103.49576125966655
 30
0.0
 41
1.0
 10
-17354.071108992775
 20
-103.5956923407465
 30
0.0
 41
0.9999716810429968
 10
-17354.07650757589
 20
-103.69555347891121
 30
0.0
 41
1.0
 10
-17354.079720374677
 20
-103.75498272852209
 30
0.0
 41
1.0
 10
-17354.082933173464
 20
-103.81441197813297
 30
0.0
 41
1.0
 10
-17354.091007082621
 20
-103.96376037951826
 30
0.0
 41
0.9999819129886409
 10
-17354.100876874247
 20
-104.11300085735206
 30
0.0
 41
1.0
 10
-17354.110746665861
 20
-104.26224133506344
 30
0.0
 41
1.0
 10
-17354.113185986425
 20
-104.29943438091277
 30
0.0
 41
1.0
 10
-17354.090487752776
 20
-104.26069338388277
 30
0.0
 41
0.9999982128101881
 10
-17354.067643194139
 20
-104.22203849013192
 30
0.0
 41
1.0
 10
-17354.040733634105
 20
-104.17650527582333
 30
0.0
 41
1.0
 10
-17354.013824074071
 20
-104.13097206151474
 30
0.0
 41
1.0
 10
-17353.937160395544
 20
-104.00125073944665
 30
0.0
 41
0.9998609190060308
 10
-17353.856213082705
 20
-103.87415835754997
 30
0.0
 41
1.0
 10
-17353.82656476117
 20
-103.82760862450408
 30
0.0
 41
1.0
 10
-17353.796916439631
 20
-103.78105889145817
 30
0.0
 41
1.0
 10
-17353.714644219435
 20
-103.6518863215349
 30
0.0
 41
0.9999067609733664
 10
-17353.628875210019
 20
-103.52500863216494
 30
0.0
 41
1.0
 10
-17353.62647050681
 20
-103.52145136610017
 30
0.0
 41
1.0
 10
-17353.624065803604
 20
-103.51789410003538
 30
0.0
 41
1.0
 10
-17353.543106200552
 20
-103.39813094271955
 30
0.0
 41
0.9998784952147581
 10
-17353.458452590872
 20
-103.28094972601491
 30
0.0
 41
1.0
 10
-17353.373798981211
 20
-103.16376850932593
 30
0.0
 41
0.999853296828038
 10
-17353.28518136037
 20
-103.04955560083508
 30
0.0
 41
1.0
 10
-17353.265219571393
 20
-103.02382827983348
 30
0.0
 41
1.0
 10
-17353.245257782415
 20
-102.99810095883187
 30
0.0
 41
1.0
 10
-17353.126773732638
 20
-102.84539534783822
 30
0.0
 41
0.9991551975797556
 10
-17352.996149283004
 20
-102.70293578574342
 30
0.0
 41
1.0
 10
-17352.992639667034
 20
-102.69910818412903
 30
0.0
 41
1.0
 10
-17352.989130051064
 20
-102.69528058251464
 30
0.0
 41
1.0
 10
-17352.865524833374
 20
-102.56047622365359
 30
0.0
 41
0.9997418144182725
 10
-17352.735922693682
 20
-102.43142681304744
 30
0.0
 41
1.0
 10
-17352.606320553961
 20
-102.30237740241897
 30
0.0
 41
0.9989238204639581
 10
-17352.465318005707
 20
-102.18589244037723
 30
0.0
 41
1.0
 10
-17352.420070327593
 20
-102.14851244878925
 30
0.0
 41
1.0
 10
-17352.374822649475
 20
-102.11113245720126
 30
0.0
 41
1.0
 10
-17352.234582592231
 20
-101.99527740389085
 30
0.0
 41
0.9990825084098542
 10
-17352.084942659625
 20
-101.89184840605469
 30
0.0
 41
1.0
 10
-17352.074897295577
 20
-101.8849051929822
 30
0.0
 41
1.0
 10
-17352.064851931533
 20
-101.87796197990971
 30
0.0
 41
1.0
 10
-17351.935302727034
 20
-101.78841940823122
 30
0.0
 41
0.9998164899827591
 10
-17351.802418523643
 20
-101.70390516670534
 30
0.0
 41
1.0
 10
-17351.790572963117
 20
-101.69637140018013
 30
0.0
 41
1.0
 10
-17351.778727402594
 20
-101.68883763365491
 30
0.0
 41
1.0
 10
-17351.669534320295
 20
-101.61939092520454
 30
0.0
 41
0.9997473449128376
 10
-17351.557330363015
 20
-101.55492196737328
 30
0.0
 41
1.0
 10
-17351.445126405728
 20
-101.49045300953728
 30
0.0
 41
0.9999327861148435
 10
-17351.331457794931
 20
-101.42860301783655
 30
0.0
 41
1.0
 10
-17351.330905792405
 20
-101.42830265917721
 30
0.0
 41
1.0
 10
-17351.330353789883
 20
-101.42800230051785
 30
0.0
 41
1.0
 10
-17351.21558117403
 20
-101.36555159149452
 30
0.0
 41
0.9996956420483906
 10
-17351.097867848188
 20
-101.30883812451719
 30
0.0
 41
1.0
 10
-17351.067427443275
 20
-101.29417214777868
 30
0.0
 41
1.0
 10
-17351.036987038366
 20
-101.27950617104015
 30
0.0
 41
1.0
 10
-17350.934009931614
 20
-101.22989251259317
 30
0.0
 41
0.9998070570175216
 10
-17350.829163542687
 20
-101.18436192569891
 30
0.0
 41
1.0
 10
-17350.724317153705
 20
-101.13883133878089
 30
0.0
 41
0.9997827436147507
 10
-17350.617664217119
 20
-101.09771016747924
 30
0.0
 41
1.0
 10
-17350.598441367496
 20
-101.09029859385026
 30
0.0
 41
1.0
 10
-17350.579218517873
 20
-101.08288702022128
 30
0.0
 41
1.0
 10
-17350.434119882
 20
-101.02694270164307
 30
0.0
 41
0.9988031841972812
 10
-17350.284249519413
 20
-100.98544263748053
 30
0.0
 41
1.0
 10
-17350.259332271045
 20
-100.97854289167283
 30
0.0
 41
1.0
 10
-17350.234415022682
 20
-100.97164314586513
 30
0.0
 41
1.0
 10
-17350.067144997047
 20
-100.9253250034607
 30
0.0
 41
0.9984748040550548
 10
-17349.895788088375
 20
-100.89773077119139
 30
0.0
 41
1.0
 10
-17349.891048952129
 20
-100.89696761067864
 30
0.0
 41
1.0
 10
-17349.886309815887
 20
-100.89620445016591
 30
0.0
 41
1.0
 10
-17349.724431179744
 20
-100.87013653892861
 30
0.0
 41
0.9984436495480702
 10
-17349.560656435999
 20
-100.86225858510784
 30
0.0
 41
1.0
 10
-17349.538959227866
 20
-100.86121489790816
 30
0.0
 41
1.0
 10
-17349.517262019737
 20
-100.86017121070849
 30
0.0
 41
1.0
 10
-17349.396881692286
 20
-100.85438063128873
 30
0.0
 41
0.9987954789333725
 10
-17349.276513447367
 20
-100.86041715903139
 30
0.0
 41
1.0
 10
-17349.25654865487
 20
-100.86141840336995
 30
0.0
 41
1.0
 10
-17349.236583862377
 20
-100.86241964770853
 30
0.0
 41
1.0
 10
-17349.15614520248
 20
-100.86645368676972
 30
0.0
 41
0.9997941595872399
 10
-17349.075936424364
 20
-100.87374775269473
 30
0.0
 41
1.0
 10
-17348.995727646208
 20
-100.88104181862327
 30
0.0
 41
0.999858946623954
 10
-17348.915809099395
 20
-100.89102567306787
 30
0.0
 41
1.0
 10
-17348.883402897594
 20
-100.89507402998609
 30
0.0
 41
1.0
 10
-17348.850996695794
 20
-100.89912238690431
 30
0.0
 41
1.0
 10
-17348.706265745321
 20
-100.91720295519525
 30
0.0
 41
0.9993495063253053
 10
-17348.563214501562
 20
-100.94566866493423
 30
0.0
 41
1.0
 10
-17348.530280804411
 20
-100.95222212814873
 30
0.0
 41
1.0
 10
-17348.497347107259
 20
-100.95877559136323
 30
0.0
 41
1.0
 10
-17348.388053284034
 20
-100.98052392550271
 30
0.0
 41
0.9996788715559675
 10
-17348.280001712094
 20
-101.00778172486253
 30
0.0
 41
1.0
 10
-17348.277938709565
 20
-101.0083021514327
 30
0.0
 41
1.0
 10
-17348.275875707037
 20
-101.00882257800286
 30
0.0
 41
1.0
 10
-17348.171950140131
 20
-101.03503952422591
 30
0.0
 41
0.9995480654488416
 10
-17348.069787904911
 20
-101.06745448084996
 30
0.0
 41
1.0
 10
-17348.068098262782
 20
-101.06799058576391
 30
0.0
 41
1.0
 10
-17348.066408620653
 20
-101.06852669067786
 30
0.0
 41
1.0
 10
-17347.967625669688
 20
-101.09986943747082
 30
0.0
 41
0.9993867959453618
 10
-17347.871278511237
 20
-101.13804880676412
 30
0.0
 41
1.0
 10
-17347.870035562151
 20
-101.13854134866068
 30
0.0
 41
1.0
 10
-17347.868792613066
 20
-101.13903389055723
 30
0.0
 41
1.0
 10
-17347.774931352775
 20
-101.17622817606232
 30
0.0
 41
0.9992050256523306
 10
-17347.684331677759
 20
-101.22078207529262
 30
0.0
 41
1.0
 10
-17347.683596995059
 20
-101.22114336774769
 30
0.0
 41
1.0
 10
-17347.682862312358
 20
-101.22150466020275
 30
0.0
 41
1.0
 10
-17347.593732002741
 20
-101.26533597452212
 30
0.0
 41
0.9990222350739392
 10
-17347.50882194133
 20
-101.3168692422297
 30
0.0
 41
1.0
 10
-17347.508638056046
 20
-101.31698084513631
 30
0.0
 41
1.0
 10
-17347.508454170758
 20
-101.31709244804293
 30
0.0
 41
1.0
 10
-17347.423911879927
 20
-101.36840250993424
 30
0.0
 41
0.9988642743805953
 10
-17347.344637345319
 20
-101.42752669745323
 30
0.0
 41
1.0
 10
-17347.265362810711
 20
-101.48665088497171
 30
0.0
 41
0.9987681233311766
 10
-17347.192339026431
 20
-101.55334157637394
 30
0.0
 41
1.0
 10
-17347.192010098464
 20
-101.55364197759079
 30
0.0
 41
1.0
 10
-17347.191681170494
 20
-101.55394237880762
 30
0.0
 41
1.0
 10
-17347.117999530292
 20
-101.62123387262967
 30
0.0
 41
0.9987496570894608
 10
-17347.051405724971
 20
-101.69554668670862
 30
0.0
 41
1.0
 10
-17347.050633555205
 20
-101.69640836007395
 30
0.0
 41
1.0
 10
-17347.049861385436
 20
-101.69727003343928
 30
0.0
 41
1.0
 10
-17346.981723240588
 20
-101.77330619424673
 30
0.0
 41
0.9988147669842432
 10
-17346.921300986371
 20
-101.85560720107267
 30
0.0
 41
1.0
 10
-17346.920181660287
 20
-101.85713183243094
 30
0.0
 41
1.0
 10
-17346.919062334207
 20
-101.8586564637892
 30
0.0
 41
1.0
 10
-17346.856401427827
 20
-101.94400673333789
 30
0.0
 41
0.9989452636217406
 10
-17346.801834514874
 20
-102.03474542248284
 30
0.0
 41
1.0
 10
-17346.800485788786
 20
-102.03698820351485
 30
0.0
 41
1.0
 10
-17346.799137062695
 20
-102.03923098454686
 30
0.0
 41
1.0
 10
-17346.741872697552
 20
-102.1344552357786
 30
0.0
 41
0.9991046436080898
 10
-17346.692863484219
 20
-102.23417966882202
 30
0.0
 41
1.0
 10
-17346.691399622639
 20
-102.23715834887477
 30
0.0
 41
1.0
 10
-17346.68993576106
 20
-102.24013702892751
 30
0.0
 41
1.0
 10
-17346.637998824564
 20
-102.3458188220912
 30
0.0
 41
0.9992763831106905
 10
-17346.594245696011
 20
-102.45514288403609
 30
0.0
 41
1.0
 10
-17346.592766426344
 20
-102.45883907157858
 30
0.0
 41
1.0
 10
-17346.591287156676
 20
-102.46253525912107
 30
0.0
 41
1.0
 10
-17346.544575488799
 20
-102.57925169613674
 30
0.0
 41
0.9994163472883758
 10
-17346.50594245761
 20
-102.69888528459353
 30
0.0
 41
1.0
 10
-17346.504704305367
 20
-102.70271942836484
 30
0.0
 41
1.0
 10
-17346.503466153124
 20
-102.70655357213616
 30
0.0
 41
1.0
 10
-17346.463582592103
 20
-102.8300596336303
 30
0.0
 41
0.9997268055891163
 10
-17346.429514536183
 20
-102.95529466560288
 30
0.0
 41
1.0
 10
-17346.428584355919
 20
-102.95871403168829
 30
0.0
 41
1.0
 10
-17346.427654175655
 20
-102.9621333977737
 30
0.0
 41
1.0
 10
-17346.395446480277
 20
-103.08052969753541
 30
0.0
 41
0.999670131900698
 10
-17346.3693608635
 20
-103.20042365081702
 30
0.0
 41
1.0
 10
-17346.343275246734
 20
-103.32031760406684
 30
0.0
 41
0.9995785451108417
 10
-17346.324191669395
 20
-103.44152336509032
 30
0.0
 41
1.0
 10
-17346.31997188722
 20
-103.46832451986278
 30
0.0
 41
1.0
 10
-17346.315752105045
 20
-103.49512567463523
 30
0.0
 41
1.0
 10
-17346.289177129107
 20
-103.66391164834225
 30
0.0
 41
0.9979925101221242
 10
-17346.284151543179
 20
-103.8347029764368
 30
0.0
 41
1.0
 10
-17346.283326730751
 20
-103.8627336999734
 30
0.0
 41
1.0
 10
-17346.282501918326
 20
-103.89076442350999
 30
0.0
 41
1.0
 10
-17346.279125957251
 20
-104.00549430458338
 30
0.0
 41
0.99953149022666
 10
-17346.28277614939
 20
-104.12021578828046
 30
0.0
 41
1.0
 10
-17346.286426341525
 20
-104.23493727200415
 30
0.0
 41
0.9996245486938662
 10
-17346.296355436658
 20
-104.34928654310302
 30
0.0
 41
1.0
 10
-17346.296518484654
 20
-104.35116429926492
 30
0.0
 41
1.0
 10
-17346.296681532651
 20
-104.35304205542684
 30
0.0
 41
1.0
 10
-17346.306936723773
 20
-104.4711468388584
 30
0.0
 41
0.9997286095002269
 10
-17346.32268204735
 20
-104.5886457477837
 30
0.0
 41
1.0
 10
-17346.323075539996
 20
-104.59158217245172
 30
0.0
 41
1.0
 10
-17346.323469032643
 20
-104.59451859711976
 30
0.0
 41
1.0
 10
-17346.340001341508
 20
-104.71789035540476
 30
0.0
 41
0.9998265533966806
 10
-17346.361116800239
 20
-104.84056083017217
 30
0.0
 41
1.0
 10
-17346.361793342381
 20
-104.84449120869691
 30
0.0
 41
1.0
 10
-17346.36246988452
 20
-104.84842158722165
 30
0.0
 41
1.0
 10
-17346.384938427535
 20
-104.97895281905409
 30
0.0
 41
0.9999022530857146
 10
-17346.411047892143
 20
-105.10880478770179
 30
0.0
 41
1.0
 10
-17346.412026533304
 20
-105.11367193006996
 30
0.0
 41
1.0
 10
-17346.413005174465
 20
-105.11853907243813
 30
0.0
 41
1.0
 10
-17346.441071921428
 20
-105.25812532595432
 30
0.0
 41
0.9999524761937794
 10
-17346.471854890297
 20
-105.39713781925255
 30
0.0
 41
1.0
 10
-17346.473130997445
 20
-105.40290057843659
 30
0.0
 41
1.0
 10
-17346.474407104593
 20
-105.40866333762062
 30
0.0
 41
1.0
 10
-17346.507742287802
 20
-105.55920134948923
 30
0.0
 41
0.9999813588732696
 10
-17346.542913288617
 20
-105.70932106221925
 30
0.0
 41
1.0
 10
-17346.544467214051
 20
-105.71595365255484
 30
0.0
 41
1.0
 10
-17346.546021139489
 20
-105.72258624289043
 30
0.0
 41
1.0
 10
-17346.584299991213
 20
-105.88597113645022
 30
0.0
 41
0.999995523767086
 10
-17346.623555869206
 20
-106.04912404011792
 30
0.0
 41
1.0
 10
-17346.635837504826
 20
-106.10016823058083
 30
0.0
 41
1.0
 10
-17346.648119140445
 20
-106.15121242104374
 30
0.0
 41
1.0
 10
-17346.711938289489
 20
-106.41645370483384
 30
0.0
 41
0.9999993604314196
 10
-17346.77635723654
 20
-106.68154995506113
 30
0.0
 41
1.0
 10
-17346.78107607225
 20
-106.70096886376112
 30
0.0
 41
1.0
 10
-17346.785794907955
 20
-106.72038777246109
 30
0.0
 41
1.0
 10
-17346.859651526218
 20
-107.02432183922414
 30
0.0
 41
0.9999659914734825
 10
-17346.938511122098
 20
-107.3269963857651
 30
0.0
 41
1.0
 10
-17346.943463811032
 20
-107.34600552295464
 30
0.0
 41
1.0
 10
-17346.948416499963
 20
-107.3650146601442
 30
0.0
 41
1.0
 10
-17347.037181473712
 20
-107.70570748108302
 30
0.0
 41
0.9999441976030116
 10
-17347.133124506672
 20
-108.04444890636923
 30
0.0
 41
1.0
 10
-17347.149825025095
 20
-108.10341261889346
 30
0.0
 41
1.0
 10
-17347.166525543522
 20
-108.1623763314177
 30
0.0
 41
1.0
 10
-17347.295869613332
 20
-108.61904518175231
 30
0.0
 41
0.9999625120735299
 10
-17347.433102380641
 20
-109.07340571570094
 30
0.0
 41
1.0
 10
-17347.468892323748
 20
-109.19190174239941
 30
0.0
 41
1.0
 10
-17347.504682266852
 20
-109.31039776909789
 30
0.0
 41
1.0
 10
-17347.579202470875
 20
-109.55712484714834
 30
0.0
 41
0.9999793386323779
 10
-17347.656888494006
 20
-109.80287348636034
 30
0.0
 41
1.0
 10
-17347.734574517144
 20
-110.04862212559647
 30
0.0
 41
1.0
 10
-17347.745354076014
 20
-110.08264002997112
 30
0.0
 41
1.0
 10
-17349.595727129286
 20
-115.96971195243862
 30
0.0
 41
1.0
 10
-17351.446100182555
 20
-121.85678387490611
 30
0.0
 41
1.0
 10
-17352.40735687258
 20
-121.85678387490611
 30
0.0
 41
1.0
 10
-17353.368613562601
 20
-121.85678387490611
 30
0.0
 41
1.0
 10
-17351.749668783923
 20
-116.70875537311667
 30
0.0
 41
1.0
 10
-17350.130724005245
 20
-111.56072687132723
 30
0.0
 41
1.0
 10
-17350.085558182123
 20
-111.41669564922941
 30
0.0
 41
1.0
 10
-17350.040392359002
 20
-111.27266442713159
 30
0.0
 41
1.0
 10
-17349.870087941574
 20
-110.72957339775762
 30
0.0
 41
0.9999911657878418
 10
-17349.704355129852
 20
-110.1850698662613
 30
0.0
 41
1.0
 10
-17349.674659186352
 20
-110.08750592621222
 30
0.0
 41
1.0
 10
-17349.644963242852
 20
-109.98994198616313
 30
0.0
 41
1.0
 10
-17349.538622318189
 20
-109.64056633494717
 30
0.0
 41
0.9999952428141941
 10
-17349.434438728847
 20
-109.29054131054806
 30
0.0
 41
1.0
 10
-17349.429379258523
 20
-109.27354303629636
 30
0.0
 41
1.0
 10
-17349.424319788195
 20
-109.25654476204464
 30
0.0
 41
1.0
 10
-17349.330255139543
 20
-108.94051628627233
 30
0.0
 41
0.9999931687535987
 10
-17349.238529301649
 20
-108.62380107292802
 30
0.0
 41
1.0
 10
-17349.233594037178
 20
-108.60676036361167
 30
0.0
 41
1.0
 10
-17349.228658772703
 20
-108.58971965429534
 30
0.0
 41
1.0
 10
-17349.146803463758
 20
-108.30708585959965
 30
0.0
 41
0.9999893840804436
 10
-17349.067556237318
 20
-108.02370973041093
 30
0.0
 41
1.0
 10
-17348.988309010871
 20
-107.74033360120416
 30
0.0
 41
0.9999833980084296
 10
-17348.912332770153
 20
-107.45606301825593
 30
0.0
 41
1.0
 10
-17348.903328833403
 20
-107.42237413967266
 30
0.0
 41
1.0
 10
-17348.894324896653
 20
-107.38868526108938
 30
0.0
 41
1.0
 10
-17348.825360347797
 20
-107.13064942884193
 30
0.0
 41
0.9999233658066675
 10
-17348.762805376587
 20
-106.87098527015792
 30
0.0
 41
1.0
 10
-17348.700250405367
 20
-106.61132111143547
 30
0.0
 41
1.0
 10
-17348.660766986512
 20
-106.44751444700933
 30
0.0
 41
1.0
 10
-17348.655788382523
 20
-106.42685948509714
 30
0.0
 41
1.0
 10
-17348.650809778537
 20
-106.40620452318497
 30
0.0
 41
1.0
 10
-17348.621283567634
 20
-106.28370778250601
 30
0.0
 41
0.999986867083175
 10
-17348.593014483657
 20
-106.16091483693776
 30
0.0
 41
1.0
 10
-17348.589116996467
 20
-106.1439852493761
 30
0.0
 41
1.0
 10
-17348.585219509274
 20
-106.12705566181445
 30
0.0
 41
1.0
 10
-17348.564745399632
 20
-106.03812189117153
 30
0.0
 41
0.9999778173347774
 10
-17348.545457801545
 20
-105.94892327406183
 30
0.0
 41
1.0
 10
-17348.52617020344
 20
-105.85972465687213
 30
0.0
 41
0.9999602692866174
 10
-17348.508475844817
 20
-105.7701963685024
 30
0.0
 41
1.0
 10
-17348.505272012728
 20
-105.75398591356804
 30
0.0
 41
1.0
 10
-17348.502068180642
 20
-105.73777545863368
 30
0.0
 41
1.0
 10
-17348.477966157858
 20
-105.61582626043301
 30
0.0
 41
0.9995617985323285
 10
-17348.461122810637
 20
-105.49266451271822
 30
0.0
 41
1.0
 10
-17348.458658320727
 20
-105.47464369532597
 30
0.0
 41
1.0
 10
-17348.456193830814
 20
-105.45662287793371
 30
0.0
 41
1.0
 10
-17348.435910569773
 20
-105.30830782826713
 30
0.0
 41
0.9991121410639413
 10
-17348.428185216188
 20
-105.15881172949128
 30
0.0
 41
1.0
 10
-17348.427266426166
 20
-105.1410318929421
 30
0.0
 41
1.0
 10
-17348.426347636141
 20
-105.1232520563929
 30
0.0
 41
1.0
 10
-17348.420459862602
 20
-105.00931563071195
 30
0.0
 41
0.9989792494914207
 10
-17348.42487895472
 20
-104.89531279478672
 30
0.0
 41
1.0
 10
-17348.425526926589
 20
-104.87859654886779
 30
0.0
 41
1.0
 10
-17348.426174898457
 20
-104.86188030294886
 30
0.0
 41
1.0
 10
-17348.429298046834
 20
-104.78130995889768
 30
0.0
 41
0.9997820295391682
 10
-17348.435782044209
 20
-104.70094023714432
 30
0.0
 41
1.0
 10
-17348.442266041588
 20
-104.62057051539691
 30
0.0
 41
0.9998335105975834
 10
-17348.451678237099
 20
-104.54049089894708
 30
0.0
 41
1.0
 10
-17348.453273161776
 20
-104.52692116846563
 30
0.0
 41
1.0
 10
-17348.454868086454
 20
-104.51335143798417
 30
0.0
 41
1.0
 10
-17348.467470131316
 20
-104.40613236056771
 30
0.0
 41
0.9996876457876843
 10
-17348.485414044113
 20
-104.29967693285809
 30
0.0
 41
1.0
 10
-17348.487645707257
 20
-104.28643719762951
 30
0.0
 41
1.0
 10
-17348.489877370401
 20
-104.27319746240092
 30
0.0
 41
1.0
 10
-17348.503673191823
 20
-104.19135131842195
 30
0.0
 41
0.9995547496496057
 10
-17348.522326513717
 20
-104.11047382121887
 30
0.0
 41
1.0
 10
-17348.522700470585
 20
-104.10885241052785
 30
0.0
 41
1.0
 10
-17348.523074427452
 20
-104.1072309998368
 30
0.0
 41
1.0
 10
-17348.540979835609
 20
-104.02959632403692
 30
0.0
 41
0.9994899427181597
 10
-17348.563804744292
 20
-103.95326304119328
 30
0.0
 41
1.0
 10
-17348.56426327103
 20
-103.95172959140956
 30
0.0
 41
1.0
 10
-17348.564721797771
 20
-103.95019614162584
 30
0.0
 41
1.0
 10
-17348.586629652971
 20
-103.87692975836075
 30
0.0
 41
0.9993784877595406
 10
-17348.613645288075
 20
-103.80538905319986
 30
0.0
 41
1.0
 10
-17348.614176979048
 20
-103.80398107048069
 30
0.0
 41
1.0
 10
-17348.614708670026
 20
-103.80257308776152
 30
0.0
 41
1.0
 10
-17348.640660923178
 20
-103.73384834804463
 30
0.0
 41
0.9992430832255806
 10
-17348.671877458342
 20
-103.66734919597252
 30
0.0
 41
1.0
 10
-17348.672459574394
 20
-103.66610914086331
 30
0.0
 41
1.0
 10
-17348.673041690447
 20
-103.66486908575412
 30
0.0
 41
1.0
 10
-17348.703093993499
 20
-103.60085004390977
 30
0.0
 41
0.9990789632810313
 10
-17348.738524620279
 20
-103.53964343215466
 30
0.0
 41
1.0
 10
-17348.739120326456
 20
-103.53861434630088
 30
0.0
 41
1.0
 10
-17348.739716032636
 20
-103.53758526044709
 30
0.0
 41
1.0
 10
-17348.773955247056
 20
-103.4784368204039
 30
0.0
 41
0.9988874801114768
 10
-17348.813614523089
 20
-103.42277710798714
 30
0.0
 41
1.0
 10
-17348.814170049151
 20
-103.42199745631757
 30
0.0
 41
1.0
 10
-17348.814725575212
 20
-103.42121780464801
 30
0.0
 41
1.0
 10
-17348.853273799115
 20
-103.36711739557684
 30
0.0
 41
0.9986762060690951
 10
-17348.897176270395
 20
-103.31726368113016
 30
0.0
 41
1.0
 10
-17348.897620230731
 20
-103.31675953930915
 30
0.0
 41
1.0
 10
-17348.898064191068
 20
-103.31625539748815
 30
0.0
 41
1.0
 10
-17348.941078741671
 20
-103.26740996669029
 30
0.0
 41
0.9984621642498298
 10
-17348.989236298446
 20
-103.22362666621984
 30
0.0
 41
1.0
 10
-17348.989482932957
 20
-103.22340243406194
 30
0.0
 41
1.0
 10
-17348.989729567467
 20
-103.22317820190405
 30
0.0
 41
1.0
 10
-17349.037393855222
 20
-103.17984336575077
 30
0.0
 41
0.9982724693864131
 10
-17349.089812487066
 20
-103.14239901523104
 30
0.0
 41
1.0
 10
-17349.142231118905
 20
-103.10495466471761
 30
0.0
 41
0.9981399180173581
 10
-17349.198817182296
 20
-103.07416814527326
 30
0.0
 41
1.0
 10
-17349.19886284438
 20
-103.07414330211442
 30
0.0
 41
1.0
 10
-17349.19890850646
 20
-103.07411845895558
 30
0.0
 41
1.0
 10
-17349.25558589401
 20
-103.04328225319739
 30
0.0
 41
0.998092708683335
 10
-17349.315631245063
 20
-103.01966544435078
 30
0.0
 41
1.0
 10
-17349.316071414782
 20
-103.01949231847303
 30
0.0
 41
1.0
 10
-17349.3165115845
 20
-103.01931919259528
 30
0.0
 41
1.0
 10
-17349.377437274979
 20
-102.99535613199815
 30
0.0
 41
0.9981411356577071
 10
-17349.440825796391
 20
-102.97898349048741
 30
0.0
 41
1.0
 10
-17349.441707913094
 20
-102.97875564828183
 30
0.0
 41
1.0
 10
-17349.442590029794
 20
-102.97852780607627
 30
0.0
 41
1.0
 10
-17349.50774278459
 20
-102.96169948016134
 30
0.0
 41
0.9983031812941585
 10
-17349.574410213601
 20
-102.95256011898206
 30
0.0
 41
1.0
 10
-17349.583281239
 20
-102.95134400031149
 30
0.0
 41
1.0
 10
-17349.592152264398
 20
-102.95012788164092
 30
0.0
 41
1.0
 10
-17349.646501906911
 20
-102.94267715164901
 30
0.0
 41
0.998388770826189
 10
-17349.701345756192
 20
-102.94143247801651
 30
0.0
 41
1.0
 10
-17349.709409161409
 20
-102.94124948014166
 30
0.0
 41
1.0
 10
-17349.717472566626
 20
-102.94106648226681
 30
0.0
 41
1.0
 10
-17349.756189605516
 20
-102.94018780438073
 30
0.0
 41
0.9998869563069301
 10
-17349.79491555869
 20
-102.94047367374287
 30
0.0
 41
1.0
 10
-17349.833641511861
 20
-102.94075954310142
 30
0.0
 41
0.9999972320060609
 10
-17349.872365691106
 20
-102.94122764263163
 30
0.0
 41
1.0
 10
-17349.891718707684
 20
-102.94146158272102
 30
0.0
 41
1.0
 10
-17349.911071724262
 20
-102.94169552281039
 30
0.0
 41
1.0
 10
-17349.988501936612
 20
-102.94263150251786
 30
0.0
 41
0.9997304945087876
 10
-17350.065805242873
 20
-102.94716059630431
 30
0.0
 41
1.0
 10
-17350.074854884577
 20
-102.94769080229422
 30
0.0
 41
1.0
 10
-17350.08390452628
 20
-102.94822100828412
 30
0.0
 41
1.0
 10
-17350.179307115919
 20
-102.95381051405028
 30
0.0
 41
0.9997888306417923
 10
-17350.27439945177
 20
-102.96331547853904
 30
0.0
 41
1.0
 10
-17350.283120513341
 20
-102.96418719317121
 30
0.0
 41
1.0
 10
-17350.291841574915
 20
-102.96505890780338
 30
0.0
 41
1.0
 10
-17350.404376033912
 20
-102.97630730155612
 30
0.0
 41
0.9984170238183054
 10
-17350.514935181265
 20
-103.00012338349384
 30
0.0
 41
1.0
 10
-17350.551316312245
 20
-103.00796041929908
 30
0.0
 41
1.0
 10
-17350.587697443229
 20
-103.01579745510433
 30
0.0
 41
1.0
 10
-17350.702888511645
 20
-103.04061132161155
 30
0.0
 41
0.997659285419277
 10
-17350.813616678053
 20
-103.08090999876151
 30
0.0
 41
1.0
 10
-17350.924344844476
 20
-103.12120867591554
 30
0.0
 41
0.9993255074353555
 10
-17351.03181664327
 20
-103.16952557440986
 30
0.0
 41
1.0
 10
-17351.036441822183
 20
-103.1716049506052
 30
0.0
 41
1.0
 10
-17351.041067001097
 20
-103.17368432680053
 30
0.0
 41
1.0
 10
-17351.157789157733
 20
-103.2261599776941
 30
0.0
 41
0.9976475078279464
 10
-17351.266236502041
 20
-103.29410796735007
 30
0.0
 41
1.0
 10
-17351.284578896164
 20
-103.30560044615854
 30
0.0
 41
1.0
 10
-17351.302921290291
 20
-103.31709292496699
 30
0.0
 41
1.0
 10
-17351.387123481873
 20
-103.36985004575466
 30
0.0
 41
0.999513133640658
 10
-17351.467871196823
 20
-103.4277562577015
 30
0.0
 41
1.0
 10
-17351.548618911762
 20
-103.48566246964327
 30
0.0
 41
0.999581010761033
 10
-17351.625880559495
 20
-103.54814415210944
 30
0.0
 41
1.0
 10
-17351.628850590714
 20
-103.55054602357956
 30
0.0
 41
1.0
 10
-17351.631820621929
 20
-103.55294789504967
 30
0.0
 41
1.0
 10
-17351.715022332079
 20
-103.62023332044203
 30
0.0
 41
0.9996617837951903
 10
-17351.794613019221
 20
-103.69175377601107
 30
0.0
 41
1.0
 10
-17351.806743770092
 20
-103.70265450899629
 30
0.0
 41
1.0
 10
-17351.818874520963
 20
-103.71355524198152
 30
0.0
 41
1.0
 10
-17351.887150048358
 20
-103.77490785745343
 30
0.0
 41
0.9997267750051543
 10
-17351.952483556648
 20
-103.83938439398446
 30
0.0
 41
1.0
 10
-17352.017817065062
 20
-103.90386093063965
 30
0.0
 41
0.9999667288961038
 10
-17352.082090008229
 20
-103.96939473755786
 30
0.0
 41
1.0
 10
-17352.150917455929
 20
-104.03957239623929
 30
0.0
 41
1.0
 10
-17352.219744903628
 20
-104.10975005492071
 30
0.0
 41
1.0
 10
-17352.421672742334
 20
-104.31563917933863
 30
0.0
 41
0.9988205335175278
 10
-17352.602678359322
 20
-104.54014341141271
 30
0.0
 41
1.0
 10
-17352.633318324217
 20
-104.57814666183236
 30
0.0
 41
1.0
 10
-17352.663958289115
 20
-104.61614991225201
 30
0.0
 41
1.0
 10
-17352.906243835929
 20
-104.91666064520058
 30
0.0
 41
0.9997077826755197
 10
-17353.133721787042
 20
-105.22853043943333
 30
0.0
 41
1.0
 10
-17353.135445202155
 20
-105.23089322279063
 30
0.0
 41
1.0
 10
-17353.137168617272
 20
-105.23325600614794
 30
0.0
 41
1.0
 10
-17353.36809339864
 20
-105.54985136712712
 30
0.0
 41
0.9989147567080636
 10
-17353.56855690153
 20
-105.88656082832048
 30
0.0
 41
1.0
 10
-17353.593298046813
 20
-105.92811740883126
 30
0.0
 41
1.0
 10
-17353.618039192093
 20
-105.96967398934203
 30
0.0
 41
1.0
 10
-17353.773250490747
 20
-106.23037537382987
 30
0.0
 41
0.9997476598184583
 10
-17353.91659547828
 20
-106.49778512244825
 30
0.0
 41
1.0
 10
-17354.059940465755
 20
-106.76519487096661
 30
0.0
 41
0.9996258967110354
 10
-17354.188448717661
 20
-107.04004280752817
 30
0.0
 41
1.0
 10
-17354.201648627175
 20
-107.06827420775679
 30
0.0
 41
1.0
 10
-17354.214848536685
 20
-107.09650560798541
 30
0.0
 41
1.0
 10
-17354.35505725765
 20
-107.39637800586172
 30
0.0
 41
0.9998735413942567
 10
-17354.485658604339
 20
-107.70055760526714
 30
0.0
 41
1.0
 10
-17354.489101432406
 20
-107.7085761907459
 30
0.0
 41
1.0
 10
-17354.492544260473
 20
-107.71659477622465
 30
0.0
 41
1.0
 10
-17354.616259951079
 20
-108.00473720477085
 30
0.0
 41
0.9999377418857447
 10
-17354.733514753236
 20
-108.29556867240979
 30
0.0
 41
1.0
 10
-17354.850769555436
 20
-108.58640014014426
 30
0.0
 41
0.9999508299508664
 10
-17354.962233498831
 20
-108.87949981701669
 30
0.0
 41
1.0
 10
-17354.965314267472
 20
-108.88760084292578
 30
0.0
 41
1.0
 10
-17354.968395036114
 20
-108.89570186883486
 30
0.0
 41
1.0
 10
-17355.086020516883
 20
-109.20500359776091
 30
0.0
 41
0.9999609228428147
 10
-17355.198159119802
 20
-109.51633661390873
 30
0.0
 41
1.0
 10
-17355.201115130098
 20
-109.52454345416356
 30
0.0
 41
1.0
 10
-17355.20407114039
 20
-109.53275029441841
 30
0.0
 41
1.0
 10
-17355.322121763911
 20
-109.86049699110879
 30
0.0
 41
0.9999674607399302
 10
-17355.434869289918
 20
-110.19010561092088
 30
0.0
 41
1.0
 10
-17355.486267680528
 20
-110.34036480675252
 30
0.0
 41
1.0
 10
-17355.537666071141
 20
-110.49062400258414
 30
0.0
 41
1.0
 10
-17355.653676677914
 20
-110.82977198513262
 30
0.0
 41
0.9999287532308809
 10
-17355.761558081882
 20
-111.17159272411061
 30
0.0
 41
1.0
 10
-17355.808035337821
 20
-111.31885526784322
 30
0.0
 41
1.0
 10
-17355.85451259376
 20
-111.46611781157584
 30
0.0
 41
1.0
 10
-17355.869439485548
 20
-111.51341346211159
 30
0.0
 41
0.9999998225076243
 10
-17355.884309994584
 20
-111.56072687132723
 30
0.0
 41
1.0
 10
-17357.504966131382
 20
-116.70875537311667
 30
0.0
 41
1.0
 10
-17359.125622268177
 20
-121.85678387490611
 30
0.0
 41
1.0
 10
-17360.03093071207
 20
-121.85678387490611
 30
0.0
 41
1.0
 10
-17360.936239155959
 20
-121.85678387490611
 30
0.0
 41
1.0
 10
-17359.084154744574
 20
-115.96971195243862
 30
0.0
 41
1.0
 10
-17357.232070333186
 20
-110.08264002997112
 30
0.0
 41
1.0
 10
-17357.221948574883
 20
-110.05059681652142
 30
0.0
 41
1.0
 10
-17357.149340906035
 20
-109.82029727469558
 30
0.0
 41
1.0
 10
-17357.076733237198
 20
-109.58999773291882
 30
0.0
 41
0.9999825681970448
 10
-17357.006850198002
 20
-109.3588568378988
 30
0.0
 41
1.0
 10
-17356.958559135826
 20
-109.19913225435411
 30
0.0
 41
1.0
 10
-17356.910268073651
 20
-109.03940767080941
 30
0.0
 41
1.0
 10
-17356.813115720339
 20
-108.71807244904863
 30
0.0
 41
0.9999672528959065
 10
-17356.721176914711
 20
-108.39520690345478
 30
0.0
 41
1.0
 10
-17356.718388031099
 20
-108.3854130582622
 30
0.0
 41
1.0
 10
-17356.715599147483
 20
-108.37561921306961
 30
0.0
 41
1.0
 10
-17356.629238109148
 20
-108.07234135807789
 30
0.0
 41
0.9999899749150937
 10
-17356.545596499556
 20
-107.76830226941604
 30
0.0
 41
1.0
 10
-17356.535490580522
 20
-107.73156703166833
 30
0.0
 41
1.0
 10
-17356.525384661483
 20
-107.69483179392061
 30
0.0
 41
1.0
 10
-17356.461954890005
 20
-107.46426318091096
 30
0.0
 41
0.9999214200501336
 10
-17356.404325461641
 20
-107.2321768387543
 30
0.0
 41
1.0
 10
-17356.391559609438
 20
-107.18076595326596
 30
0.0
 41
1.0
 10
-17356.378793757234
 20
-107.12935506777764
 30
0.0
 41
1.0
 10
-17356.346696033241
 20
-107.00009049646303
 30
0.0
 41
0.9999828681644977
 10
-17356.316113781268
 20
-106.87045902207751
 30
0.0
 41
1.0
 10
-17356.285531529265
 20
-106.74082754757796
 30
0.0
 41
0.9999389844475757
 10
-17356.257820540475
 20
-106.61055209167
 30
0.0
 41
1.0
 10
-17356.250682796759
 20
-106.57699598785257
 30
0.0
 41
1.0
 10
-17356.243545053043
 20
-106.54343988403514
 30
0.0
 41
1.0
 10
-17356.201558576828
 20
-106.34605222052535
 30
0.0
 41
0.9998933699442216
 10
-17356.165354312438
 20
-106.14752261283708
 30
0.0
 41
1.0
 10
-17356.163981487211
 20
-106.13999459207275
 30
0.0
 41
1.0
 10
-17356.16260866198
 20
-106.13246657130844
 30
0.0
 41
1.0
 10
-17356.123658747143
 20
-105.91888092214987
 30
0.0
 41
0.9996850305191037
 10
-17356.095475070884
 20
-105.70360991671093
 30
0.0
 41
1.0
 10
-17356.093480037522
 20
-105.68837156263936
 30
0.0
 41
1.0
 10
-17356.091485004159
 20
-105.67313320856779
 30
0.0
 41
1.0
 10
-17356.064077141695
 20
-105.4637879813657
 30
0.0
 41
0.9994697936708149
 10
-17356.050352582468
 20
-105.25310278599079
 30
0.0
 41
1.0
 10
-17356.049875513221
 20
-105.24577931380048
 30
0.0
 41
1.0
 10
-17356.049398443971
 20
-105.23845584161019
 30
0.0
 41
1.0
 10
-17356.036628023248
 20
-105.04241759068123
 30
0.0
 41
0.9991804893140202
 10
-17356.03975633952
 20
-104.84598874068661
 30
0.0
 41
1.0
 10
-17356.039840218342
 20
-104.84072193926673
 30
0.0
 41
1.0
 10
-17356.039924097164
 20
-104.83545513784684
 30
0.0
 41
1.0
 10
-17356.042884655792
 20
-104.64955989070616
 30
0.0
 41
0.998844832931632
 10
-17356.063676201418
 20
-104.46480730087978
 30
0.0
 41
1.0
 10
-17356.065270275121
 20
-104.45064244511491
 30
0.0
 41
1.0
 10
-17356.066864348824
 20
-104.43647758935005
 30
0.0
 41
1.0
 10
-17356.084467747041
 20
-104.28005471105412
 30
0.0
 41
0.9985503209455913
 10
-17356.118784019342
 20
-104.12643052695717
 30
0.0
 41
1.0
 10
-17356.126370011421
 20
-104.09247019952973
 30
0.0
 41
1.0
 10
-17356.133956003498
 20
-104.05850987210229
 30
0.0
 41
1.0
 10
-17356.153100291649
 20
-103.97280634283669
 30
0.0
 41
0.9991036781362948
 10
-17356.179425153292
 20
-103.88902925554294
 30
0.0
 41
1.0
 10
-17356.18340737874
 20
-103.87635609305497
 30
0.0
 41
1.0
 10
-17356.187389604191
 20
-103.86368293056699
 30
0.0
 41
1.0
 10
-17356.205750014935
 20
-103.80525216824108
 30
0.0
 41
0.999887450436712
 10
-17356.225855222619
 20
-103.74739856599467
 30
0.0
 41
1.0
 10
-17356.2459604303
 20
-103.68954496377009
 30
0.0
 41
0.9994041637549858
 10
-17356.270009043234
 20
-103.63321625988587
 30
0.0
 41
1.0
 10
-17356.274205827453
 20
-103.62338619541964
 30
0.0
 41
1.0
 10
-17356.278402611668
 20
-103.61355613095341
 30
0.0
 41
1.0
 10
-17356.306281442667
 20
-103.54825596497214
 30
0.0
 41
0.9991846840707058
 10
-17356.339337799371
 20
-103.48541793367031
 30
0.0
 41
1.0
 10
-17356.340474405748
 20
-103.4832573172544
 30
0.0
 41
1.0
 10
-17356.341611012122
 20
-103.48109670083849
 30
0.0
 41
1.0
 10
-17356.372394156042
 20
-103.42257990243104
 30
0.0
 41
0.9989253167926876
 10
-17356.408463580119
 20
-103.36716497399982
 30
0.0
 41
1.0
 10
-17356.409517704793
 20
-103.36554547923933
 30
0.0
 41
1.0
 10
-17356.410571829467
 20
-103.36392598447883
 30
0.0
 41
1.0
 10
-17356.444533004178
 20
-103.31175004560156
 30
0.0
 41
0.9986467172807937
 10
-17356.483730156811
 20
-103.26338401198007
 30
0.0
 41
1.0
 10
-17356.484604285521
 20
-103.26230540969337
 30
0.0
 41
1.0
 10
-17356.485478414226
 20
-103.26122680740667
 30
0.0
 41
1.0
 10
-17356.522927309452
 20
-103.21501797834821
 30
0.0
 41
0.9984001104271275
 10
-17356.565354039965
 20
-103.17333287098165
 30
0.0
 41
1.0
 10
-17356.565941178065
 20
-103.17275599610795
 30
0.0
 41
1.0
 10
-17356.566528316169
 20
-103.17217912123427
 30
0.0
 41
1.0
 10
-17356.607780770482
 20
-103.13164776361091
 30
0.0
 41
0.9982442159069127
 10
-17356.653536871818
 20
-103.09627920235266
 30
0.0
 41
1.0
 10
-17356.653751667276
 20
-103.09611316971194
 30
0.0
 41
1.0
 10
-17356.653966462734
 20
-103.09594713707122
 30
0.0
 41
1.0
 10
-17356.699292973153
 20
-103.0609106410935
 30
0.0
 41
0.9982450060849949
 10
-17356.748443952223
 20
-103.0314788580589
 30
0.0
 41
1.0
 10
-17356.797594931293
 20
-103.00204707502742
 30
0.0
 41
0.9983922639639314
 10
-17356.849761237449
 20
-102.97836744037714
 30
0.0
 41
1.0
 10
-17356.84998811478
 20
-102.97826445489278
 30
0.0
 41
1.0
 10
-17356.850214992111
 20
-102.97816146940841
 30
0.0
 41
1.0
 10
-17356.902835052926
 20
-102.95427586379077
 30
0.0
 41
0.9986517147142812
 10
-17356.957648025775
 20
-102.93597474467593
 30
0.0
 41
1.0
 10
-17356.958325947213
 20
-102.9357483982414
 30
0.0
 41
1.0
 10
-17356.959003868647
 20
-102.93552205180686
 30
0.0
 41
1.0
 10
-17357.015172684376
 20
-102.91676823981896
 30
0.0
 41
0.9989435598944307
 10
-17357.072826071533
 20
-102.90325053758558
 30
0.0
 41
1.0
 10
-17357.073906191108
 20
-102.90299728733362
 30
0.0
 41
1.0
 10
-17357.074986310687
 20
-102.90274403708167
 30
0.0
 41
1.0
 10
-17357.134799937001
 20
-102.88871983434096
 30
0.0
 41
0.9992249241238301
 10
-17357.195531445905
 20
-102.87944449162477
 30
0.0
 41
1.0
 10
-17357.196945134194
 20
-102.87922858321753
 30
0.0
 41
1.0
 10
-17357.198358822479
 20
-102.87901267481027
 30
0.0
 41
1.0
 10
-17357.261917707954
 20
-102.86930551528053
 30
0.0
 41
0.9994396597838366
 10
-17357.325983644485
 20
-102.86387259293441
 30
0.0
 41
1.0
 10
-17357.345124311967
 20
-102.8622494252154
 30
0.0
 41
1.0
 10
-17357.364264979449
 20
-102.86062625749639
 30
0.0
 41
1.0
 10
-17357.466612250955
 20
-102.85194699971325
 30
0.0
 41
0.998769340312318
 10
-17357.569315874534
 20
-102.85345006316606
 30
0.0
 41
1.0
 10
-17357.57957020876
 20
-102.85360013494025
 30
0.0
 41
1.0
 10
-17357.589824542985
 20
-102.85375020671442
 30
0.0
 41
1.0
 10
-17357.699380309165
 20
-102.85535355100238
 30
0.0
 41
0.9989753644968218
 10
-17357.808342309181
 20
-102.86685655792701
 30
0.0
 41
1.0
 10
-17357.917304309201
 20
-102.87835956485199
 30
0.0
 41
0.9983190067302313
 10
-17358.024203120163
 20
-102.90239455663878
 30
0.0
 41
1.0
 10
-17358.033104071772
 20
-102.90439583520157
 30
0.0
 41
1.0
 10
-17358.042005023377
 20
-102.90639711376434
 30
0.0
 41
1.0
 10
-17358.166705737538
 20
-102.93443466267303
 30
0.0
 41
0.9985539388310351
 10
-17358.287675491229
 20
-102.97569833871978
 30
0.0
 41
1.0
 10
-17358.290020922192
 20
-102.97649838253676
 30
0.0
 41
1.0
 10
-17358.292366353155
 20
-102.97729842635374
 30
0.0
 41
1.0
 10
-17358.418026968757
 20
-103.02016219003093
 30
0.0
 41
0.9988468746490019
 10
-17358.538997311061
 20
-103.07488027509619
 30
0.0
 41
1.0
 10
-17358.542180133045
 20
-103.07631994965473
 30
0.0
 41
1.0
 10
-17358.545362955032
 20
-103.07775962421329
 30
0.0
 41
1.0
 10
-17358.672698941326
 20
-103.13535705840189
 30
0.0
 41
0.9991322885914469
 10
-17358.794799525363
 20
-103.20335239057769
 30
0.0
 41
1.0
 10
-17358.812401536394
 20
-103.21315459256108
 30
0.0
 41
1.0
 10
-17358.830003547428
 20
-103.22295679454447
 30
0.0
 41
1.0
 10
-17358.932180228487
 20
-103.2798569103245
 30
0.0
 41
0.9993860037851083
 10
-17359.030121232583
 20
-103.34377292592626
 30
0.0
 41
1.0
 10
-17359.035739545398
 20
-103.34743942059576
 30
0.0
 41
1.0
 10
-17359.041357858208
 20
-103.35110591526526
 30
0.0
 41
1.0
 10
-17359.128062236578
 20
-103.40768894146322
 30
0.0
 41
0.999882149495413
 10
-17359.212988612468
 20
-103.46690717159152
 30
0.0
 41
1.0
 10
-17359.297914988296
 20
-103.52612540167694
 30
0.0
 41
0.9997976482742863
 10
-17359.380390618666
 20
-103.58871180969369
 30
0.0
 41
1.0
 10
-17359.395026883481
 20
-103.59981849948167
 30
0.0
 41
1.0
 10
-17359.409663148297
 20
-103.61092518926966
 30
0.0
 41
1.0
 10
-17359.521411308328
 20
-103.69572497688499
 30
0.0
 41
0.9998091630797491
 10
-17359.62976158637
 20
-103.78482532760172
 30
0.0
 41
1.0
 10
-17359.642767338832
 20
-103.79552042803314
 30
0.0
 41
1.0
 10
-17359.65577309129
 20
-103.80621552846458
 30
0.0
 41
1.0
 10
-17359.790134874282
 20
-103.9167060800628
 30
0.0
 41
0.9995035112314611
 10
-17359.917270752037
 20
-104.03543989707377
 30
0.0
 41
1.0
 10
-17359.926918062411
 20
-104.04444964321732
 30
0.0
 41
1.0
 10
-17359.93656537278
 20
-104.05345938936087
 30
0.0
 41
1.0
 10
-17360.059988435547
 20
-104.16872576111929
 30
0.0
 41
0.9994630424301402
 10
-17360.17559684136
 20
-104.29182850437974
 30
0.0
 41
1.0
 10
-17360.179279680109
 20
-104.29575008386801
 30
0.0
 41
1.0
 10
-17360.182962518855
 20
-104.29967166335629
 30
0.0
 41
1.0
 10
-17360.291205247118
 20
-104.4149312475875
 30
0.0
 41
0.9995160693751609
 10
-17360.392071276678
 20
-104.53669866548751
 30
0.0
 41
1.0
 10
-17360.394004996771
 20
-104.53903308971312
 30
0.0
 41
1.0
 10
-17360.395938716869
 20
-104.54136751393874
 30
0.0
 41
1.0
 10
-17360.492937306219
 20
-104.65846608337232
 30
0.0
 41
0.9996561470516842
 10
-17360.583663524874
 20
-104.78048884580926
 30
0.0
 41
1.0
 10
-17360.589821190748
 20
-104.78877063481271
 30
0.0
 41
1.0
 10
-17360.595978856622
 20
-104.79705242381615
 30
0.0
 41
1.0
 10
-17360.674389743497
 20
-104.90251160819602
 30
0.0
 41
0.9998349055173046
 10
-17360.74891702547
 20
-105.01075019192183
 30
0.0
 41
1.0
 10
-17360.823444307443
 20
-105.11898877564161
 30
0.0
 41
0.9999728109560748
 10
-17360.896367203361
 20
-105.22831470120413
 30
0.0
 41
1.0
 10
-17360.897682418748
 20
-105.2302864706748
 30
0.0
 41
1.0
 10
-17360.89899763414
 20
-105.23225824014548
 30
0.0
 41
1.0
 10
-17360.974550961084
 20
-105.3455277050227
 30
0.0
 41
0.9999972147302678
 10
-17361.049568771658
 20
-105.45915254816893
 30
0.0
 41
1.0
 10
-17361.054540314071
 20
-105.46668263632755
 30
0.0
 41
1.0
 10
-17361.059511856489
 20
-105.47421272448616
 30
0.0
 41
1.0
 10
-17361.144472752145
 20
-105.60289774432198
 30
0.0
 41
0.999937197900252
 10
-17361.226528101575
 20
-105.7334546581437
 30
0.0
 41
1.0
 10
-17361.230036985908
 20
-105.73903758615926
 30
0.0
 41
1.0
 10
-17361.233545870236
 20
-105.74462051417481
 30
0.0
 41
1.0
 10
-17361.322618988346
 20
-105.8863432840532
 30
0.0
 41
0.9998272025612229
 10
-17361.406362379232
 20
-106.03127916079892
 30
0.0
 41
1.0
 10
-17361.421577551264
 20
-106.05761227526904
 30
0.0
 41
1.0
 10
-17361.436792723296
 20
-106.08394538973914
 30
0.0
 41
1.0
 10
-17361.550966458224
 20
-106.28154749539198
 30
0.0
 41
0.9995217214837231
 10
-17361.652706147775
 20
-106.48582982324668
 30
0.0
 41
1.0
 10
-17361.660349710426
 20
-106.50117727298006
 30
0.0
 41
1.0
 10
-17361.667993273077
 20
-106.51652472271344
 30
0.0
 41
1.0
 10
-17361.754898565654
 20
-106.69102118076479
 30
0.0
 41
0.9998269762606422
 10
-17361.835253031917
 20
-106.86862946746783
 30
0.0
 41
1.0
 10
-17361.915607498217
 20
-107.04623775425492
 30
0.0
 41
0.9998944747386968
 10
-17361.990768292784
 20
-107.22610547990914
 30
0.0
 41
1.0
 10
-17361.99572196239
 20
-107.23796013486614
 30
0.0
 41
1.0
 10
-17362.000675632
 20
-107.24981478982315
 30
0.0
 41
1.0
 10
-17362.081322692513
 20
-107.44281172974715
 30
0.0
 41
0.9999506734410639
 10
-17362.158120221389
 20
-107.63737253453075
 30
0.0
 41
1.0
 10
-17362.172720186682
 20
-107.67436045639724
 30
0.0
 41
1.0
 10
-17362.187320151977
 20
-107.71134837826374
 30
0.0
 41
1.0
 10
-17362.234917750306
 20
-107.83193333942032
 30
0.0
 41
0.9999912393932741
 10
-17362.281504194318
 20
-107.95291254208269
 30
0.0
 41
1.0
 10
-17362.328090638381
 20
-108.0738917448908
 30
0.0
 41
0.9999927113954612
 10
-17362.373751932828
 20
-108.19522315253
 30
0.0
 41
1.0
 10
-17362.387720364179
 20
-108.23234013440415
 30
0.0
 41
1.0
 10
-17362.401688795529
 20
-108.26945711627832
 30
0.0
 41
1.0
 10
-17362.475286952755
 20
-108.46502248787473
 30
0.0
 41
0.9999487550955036
 10
-17362.544910577748
 20
-108.66203785311684
 30
0.0
 41
1.0
 10
-17362.568504187693
 20
-108.72880116343717
 30
0.0
 41
1.0
 10
-17362.592097797638
 20
-108.79556447375749
 30
0.0
 41
1.0
 10
-17362.686783431967
 20
-109.06349830845998
 30
0.0
 41
0.9999808436941872
 10
-17362.778145020573
 20
-109.33258373963554
 30
0.0
 41
1.0
 10
-17362.869506609204
 20
-109.60166917086298
 30
0.0
 41
0.9999873932926487
 10
-17362.958161317878
 20
-109.87165852573949
 30
0.0
 41
1.0
 10
-17362.978253674773
 20
-109.93284785857936
 30
0.0
 41
1.0
 10
-17362.998346031673
 20
-109.99403719141924
 30
0.0
 41
1.0
 10
-17363.127185454134
 20
-110.38640521195161
 30
0.0
 41
0.9999794883033315
 10
-17363.250988239113
 20
-110.78039141829535
 30
0.0
 41
1.0
 10
-17363.262140498522
 20
-110.81588202844202
 30
0.0
 41
1.0
 10
-17363.273292757931
 20
-110.8513726385887
 30
0.0
 41
1.0
 10
-17363.415850921832
 20
-111.30504539068173
 30
0.0
 41
0.9999982761799779
 10
-17363.556723361875
 20
-111.75924441289953
 30
0.0
 41
1.0
 10
-17365.144863694448
 20
-116.80801414390282
 30
0.0
 41
1.0
 10
-17366.733004027021
 20
-121.85678387490611
 30
0.0
 41
1.0
 10
-17367.681754638499
 20
-121.85678387490611
 30
0.0
 41
1.0
 10
-17368.630505249974
 20
-121.85678387490611
 30
0.0
 41
1.0
 10
-17365.392220763821
 20
-111.52946167495998
 30
0.0
 41
1.0
 10
-17362.153936277668
 20
-101.20213947501384
 30
0.0
 41
1.0
  0
LWPOLYLINE
  5
5A
100
AcDbEntity
  8
0
370
              15
390
0
  6
Continuous
 62
               7
100
AcDbPolyline
 90
      232
 70
             128
 10
-17387.857482051495
 20
-102.28648230652902
 42
0.0004370800630838
 10
-17387.910359225461
 20
-102.355148945648
 10
-17387.949643456694
 20
-102.40625605868183
 42
0.0030481992165632
 10
-17388.079982174091
 20
-102.57797775139673
 10
-17388.118493845563
 20
-102.62936453481416
 42
0.0042058245716713
 10
-17388.322478895967
 20
-102.90637027952255
 10
-17388.374884018733
 20
-102.97880312666859
 42
0.0120948898737515
 10
-17388.67092793548
 20
-103.40955273119414
 10
-17388.767120434633
 20
-103.55703346646949
 42
0.0141601263974707
 10
-17389.070764481537
 20
-104.05270280317791
 10
-17389.110301748973
 20
-104.12154677062649
 42
0.0071131081303369
 10
-17389.315574072203
 20
-104.4910495694478
 42
0.0068458791000214
 10
-17389.510453598999
 20
-104.86614113283208
 10
-17389.517265461505
 20
-104.87970284664755
 42
0.0064120880314528
 10
-17389.715407711592
 20
-105.28712732165904
 10
-17389.722942397064
 20
-105.30313917828767
 42
0.0058857236436138
 10
-17389.92569778888
 20
-105.74751528918925
 10
-17389.933872715232
 20
-105.76600544295661
 42
0.0053189741890286
 10
-17390.142577027902
 20
-106.25196891687646
 10
-17390.151324833583
 20
-106.27295079507064
 42
0.0047503650393862
 10
-17390.367298559715
 20
-106.80515022823631
 10
-17390.376566808081
 20
-106.82862660438821
 42
0.0042071762163209
 10
-17390.601114191846
 20
-107.41172019855776
 10
-17390.610863594156
 20
-107.43768637332767
 42
0.0036680086467364
 10
-17390.845318237414
 20
-108.0763217577035
 10
-17390.855526017316
 20
-108.1047702922034
 42
0.0032573142622588
 10
-17391.101158303129
 20
-108.80362295152015
 10
-17391.169808823954
 20
-109.00308603552668
 42
0.0026133366647545
 10
-17391.518254022882
 20
-110.03294931968162
 10
-17391.581510810502
 20
-110.2231801554379
 42
0.0020592950758771
 10
-17391.795373879351
 20
-110.87528380768777
 10
-17391.798425670582
 20
-110.8847202963058
 42
0.0025609928520515
 10
-17392.000246172
 20
-111.51986551846335
 10
-17392.002837539076
 20
-111.52816785924739
 42
0.0031362356216113
 10
-17392.192328324803
 20
-112.14893071558345
 10
-17392.194459367733
 20
-112.15607202179494
 42
0.0037229918009471
 10
-17392.371259754655
 20
-112.7650573237687
 10
-17392.37293834388
 20
-112.7710042140158
 42
0.0043077623710102
 10
-17392.536679145924
 20
-113.37082294571212
 42
0.0047654161832005
 10
-17392.68950786837
 20
-113.97350903432601
 10
-17392.723972477281
 20
-114.11507081176421
 42
0.0112969368437496
 10
-17392.919836835448
 20
-115.00676297249639
 10
-17392.947843224523
 20
-115.14959101848626
 42
0.0130056762565194
 10
-17393.14868046817
 20
-116.33653209013119
 10
-17393.169220218329
 20
-116.48061020369214
 42
0.0138721532138563
 10
-17393.272923222852
 20
-117.3874396894339
 10
-17393.292218710758
 20
-117.61093741132609
 42
0.007125469700981
 10
-17393.325565356681
 20
-118.0741244202062
 10
-17393.330526330832
 20
-118.16012841451526
 42
0.0028881799133378
 10
-17393.345664624139
 20
-118.45187012460894
 42
0.0060297297172138
 10
-17393.355596823916
 20
-118.7438190608744
 10
-17393.356659105579
 20
-118.79221143264849
 42
0.0229523164153122
 10
-17393.348928077794
 20
-119.11496627894041
 10
-17393.344702304279
 20
-119.1753698129025
 42
0.0123673300630217
 10
-17393.325623657754
 20
-119.37649053813141
 42
0.0128577674455714
 10
-17393.296428267338
 20
-119.57638838811539
 10
-17393.289302393961
 20
-119.61771720265517
 42
0.02857178537706
 10
-17393.224808392275
 20
-119.89583335393813
 10
-17393.211139868607
 20
-119.94248812342826
 42
0.031628309914862
 10
-17393.095329288684
 20
-120.26150262527153
 10
-17393.092280596917
 20
-120.26848899762095
 42
0.0338984824335801
 10
-17392.942848885963
 20
-120.55605496178623
 10
-17392.9405401566
 20
-120.55984599105138
 42
0.0350228718282036
 10
-17392.758179865919
 20
-120.81689797573904
 10
-17392.757294614152
 20
-120.8179770534946
 42
0.0347476747585439
 10
-17392.542869926903
 20
-121.04516210072313
 42
0.0331337701977008
 10
-17392.299626601165
 20
-121.24129076279588
 10
-17392.298526502644
 20
-121.24206346597305
 42
0.0305233319027807
 10
-17392.029981807082
 20
-121.40719163605868
 10
-17392.026751762569
 20
-121.40891564792707
 42
0.0273744481166141
 10
-17391.734198051006
 20
-121.54505379181239
 10
-17391.729093515856
 20
-121.54709737628718
 42
0.0240964406234532
 10
-17391.413616440212
 20
-121.65608110256743
 10
-17391.407033110998
 20
-121.6580058422436
 42
0.0209636179819908
 10
-17391.069632958337
 20
-121.74147399017764
 10
-17391.062000497899
 20
-121.74302590317711
 42
0.0181388704696812
 10
-17390.703678105889
 20
-121.80244199639232
 10
-17390.695397257521
 20
-121.80350818020815
 42
0.0156086547627968
 10
-17390.317209893339
 20
-121.8402443667845
 10
-17390.274014641011
 20
-121.84308286926344
 42
0.013714832899058
 10
-17389.946341495706
 20
-121.85560312451514
 10
-17389.900405305762
 20
-121.85609755763038
 42
0.005105782393236
 10
-17389.664259719189
 20
-121.85622781203949
 42
0.0052256693223081
 10
-17389.428162435401
 20
-121.85147898757513
 10
-17389.35793565166
 20
-121.84933202156117
 42
0.016150717903887
 10
-17388.982198573551
 20
-121.82568165123398
 10
-17388.962185613185
 20
-121.82377145594705
 42
0.0101216737852979
 10
-17388.548158391684
 20
-121.7757785255799
 10
-17388.514105102269
 20
-121.7711308287719
 42
0.0245291776358365
 10
-17388.037315446716
 20
-121.68205575069564
 10
-17387.952492131222
 20
-121.66185983035747
 42
0.0143509212556327
 10
-17387.595861027254
 20
-121.56605519657103
 42
0.0156557856989085
 10
-17387.245644962546
 20
-121.44904398076037
 10
-17387.238143748029
 20
-121.44627381899807
 42
0.017013733360372
 10
-17386.881547752357
 20
-121.3006162041295
 10
-17386.874443829944
 20
-121.29742836856326
 42
0.0183105364419501
 10
-17386.515094161776
 20
-121.12009332673857
 10
-17386.508147397137
 20
-121.11634289186679
 42
0.0194899958153454
 10
-17386.149666656129
 20
-120.90436390996143
 10
-17386.142652776816
 20
-120.89983856768106
 42
0.0204869852963734
 10
-17385.788638474707
 20
-120.65031855258482
 10
-17385.781372866135
 20
-120.64473848724685
 42
0.0212516938517469
 10
-17385.43538293504
 20
-120.3548344903615
 10
-17385.388866240959
 20
-120.31236718026274
 42
0.0215248918255379
 10
-17385.128840072066
 20
-120.05360290126407
 10
-17385.083810337776
 20
-120.00475878001116
 42
0.0114578554818808
 10
-17384.929018184008
 20
-119.82893584645592
 10
-17384.917823648095
 20
-119.81561708299985
 42
0.006153130506778
 10
-17384.791349002026
 20
-119.66132754960483
 42
0.0006325587163849
 10
-17384.666970517355
 20
-119.50532417327811
 10
-17384.643930382823
 20
-119.47635065326972
 42
0.0041897761543987
 10
-17384.475474978834
 20
-119.26083127718933
 10
-17384.417012858958
 20
-119.18472993022272
 42
0.0092993880044359
 10
-17384.140400931796
 20
-118.81045116642454
 10
-17384.05800643855
 20
-118.69451416279468
 42
0.0159321727087438
 10
-17383.711399955893
 20
-118.1723399420141
 10
-17383.667043820482
 20
-118.10066037772808
 42
0.0085547317037131
 10
-17383.43253205518
 20
-117.70678542853943
 42
0.0084601156907353
 10
-17383.211555877715
 20
-117.30515857946354
 10
-17383.203440403908
 20
-117.28979889723428
 42
0.0081429654306762
 10
-17382.980191133385
 20
-116.85007738453203
 10
-17382.971330969282
 20
-116.83189854267414
 42
0.0076574581298123
 10
-17382.744923458707
 20
-116.34871566740237
 10
-17382.735443817994
 20
-116.327651189118
 42
0.0070682724164948
 10
-17382.504998910204
 20
-115.79561388438603
 10
-17382.495008626203
 20
-115.77162469532516
 42
0.0064559514450231
 10
-17382.259675418009
 20
-115.18531242876708
 10
-17382.249266059858
 20
-115.15837750336402
 42
0.0058311413903173
 10
-17382.008219323096
 20
-114.51234540898176
 10
-17381.997464245709
 20
-114.48246106781983
 42
0.0052312425838067
 10
-17381.749882967688
 20
-113.77125865405024
 10
-17381.738839131285
 20
-113.73843194191556
 42
0.0046680544775167
 10
-17381.483910703504
 20
-112.95660562600769
 10
-17381.441918553581
 20
-112.82362238909418
 42
0.0041666856404004
 10
-17381.238632541113
 20
-112.16065361386313
 10
-17381.200970100483
 20
-112.03407250631474
 42
0.0015170975150368
 10
-17381.079783522036
 20
-111.62220415471575
 42
-0.0004887993130372
 10
-17380.959443748932
 20
-111.21008574272579
 10
-17380.882966491423
 20
-110.94912835673267
 42
0.0002583378936714
 10
-17380.60975192078
 20
-110.01507165157274
 10
-17380.527979071881
 20
-109.73497239431956
 42
0.0006636169692123
 10
-17380.334111311768
 20
-109.06761947038353
 10
-17380.329014657182
 20
-109.04998788667687
 42
0.0010589131315202
 10
-17380.147565956504
 20
-108.41725654445463
 10
-17380.142583885987
 20
-108.39974363730178
 42
0.0015655524483556
 10
-17379.974313678838
 20
-107.80112695823368
 10
-17379.969483478428
 20
-107.78373479931552
 42
0.0021640440427842
 10
-17379.815193506438
 20
-107.2187077812797
 10
-17379.81055928702
 20
-107.20144305133115
 42
0.0028763871841773
 10
-17379.671043568957
 20
-106.66947510043883
 10
-17379.666657704725
 20
-106.65235112203608
 42
0.0037310511956669
 10
-17379.542701012953
 20
-106.15290352826048
 10
-17379.538625792658
 20
-106.1359432569937
 42
0.0047652197721295
 10
-17379.431001892153
 20
-105.6684654887099
 10
-17379.427311292795
 20
-105.65170593339664
 42
0.0060276699334099
 10
-17379.336781193677
 20
-105.21563013841569
 10
-17379.333562503369
 20
-105.19912892401604
 42
0.0075824337756981
 10
-17379.260873193973
 20
-104.79386175968034
 10
-17379.258227816579
 20
-104.77770681214666
 42
0.0095130624648363
 10
-17379.204112580963
 20
-104.40261745915802
 10
-17379.197126357078
 20
-104.34668390102789
 42
0.0121054653248106
 10
-17379.1705350265
 20
-104.08178807256763
 10
-17379.169668536746
 20
-104.07038462970529
 42
0.0069050827372679
 10
-17379.154579718703
 20
-103.8274434027943
 10
-17379.153444419029
 20
-103.80391714564173
 42
0.0169063976807289
 10
-17379.150617140054
 20
-103.60772441844881
 10
-17379.151787791579
 20
-103.54738865735011
 42
0.0052007732752273
 10
-17379.154041240181
 20
-103.47179526694754
 42
0.0054038123343881
 10
-17379.174004752018
 20
-103.35177697093629
 10
-17379.17909060789
 20
-103.32311848435643
 42
0.0112050460389585
 10
-17379.214474969933
 20
-103.14679204608831
 10
-17379.232299931988
 20
-103.06725045929659
 42
0.0240764467989526
 10
-17379.323197298141
 20
-102.73701342377413
 10
-17379.341756060963
 20
-102.68039325876383
 42
0.0256812331870285
 10
-17379.485118981138
 20
-102.30866905254425
 10
-17379.490528406965
 20
-102.29653771754343
 42
0.0268360501292894
 10
-17379.65995564781
 20
-101.96554458353353
 10
-17379.665492055454
 20
-101.95602491320871
 42
0.0274670231792467
 10
-17379.85769303186
 20
-101.66373753830396
 10
-17379.863074331821
 20
-101.65645839076178
 42
0.0275035967100769
 10
-17380.074647211382
 20
-101.40094250045854
 10
-17380.079716712342
 20
-101.39546341283496
 42
0.0269557673451939
 10
-17380.307120255788
 20
-101.17482112686582
 10
-17380.311863313549
 20
-101.17069117242217
 42
0.0259124802150224
 10
-17380.551418144998
 20
-100.98300064525267
 10
-17380.555948990186
 20
-100.97981514291753
 42
0.0245162152978421
 10
-17380.803865343278
 20
-100.82308213381191
 10
-17380.808391889597
 20
-100.8205219366145
 42
0.022928258883637
 10
-17381.06081144643
 20
-100.69265374411214
 10
-17381.065591940267
 20
-100.6905014443504
 42
0.021298413564147
 10
-17381.318629892728
 20
-100.58930252710786
 10
-17381.323934177686
 20
-100.58743896435251
 42
0.0197555462407538
 10
-17381.573712515419
 20
-100.51062354638304
 42
0.0183511896764221
 10
-17381.828641240885
 20
-100.4530406394169
 10
-17381.915006437604
 20
-100.43683784903286
 42
0.0338057877150601
 10
-17382.200513786865
 20
-100.40302944389225
 10
-17382.291519191909
 20
-100.39844978863066
 42
0.0091990524398329
 10
-17382.397366300542
 20
-100.39507393270878
 42
0.0028333980875199
 10
-17382.503280216533
 20
-100.39424582519204
 10
-17382.504195669586
 20
-100.39424385536802
 42
-0.0023619827906276
 10
-17382.6119416847
 20
-100.39350301428941
 10
-17382.648346854869
 20
-100.39308070782647
 42
0.0008824598439299
 10
-17382.828902844707
 20
-100.39130492958832
 10
-17382.872764277123
 20
-100.39095096806261
 42
0.0038132665734226
 10
-17383.141047173005
 20
-100.39083203199606
 10
-17383.157580827792
 20
-100.39095079813956
 42
0.0060665569383706
 10
-17383.458861319385
 20
-100.39677109756039
 10
-17383.473111651409
 20
-100.39721940552795
 42
0.0080356953339477
 10
-17383.802570367752
 20
-100.41288712759503
 10
-17383.814640382836
 20
-100.41365571053529
 42
0.0098996399120362
 10
-17384.167403467498
 20
-100.44314093973405
 10
-17384.177449176867
 20
-100.44418123593164
 42
0.0117740981366666
 10
-17384.548606035205
 20
-100.4914734834602
 10
-17384.556828731696
 20
-100.49271860003228
 42
0.0137435215178639
 10
-17384.941417551181
 20
-100.56181557359396
 10
-17384.948074590306
 20
-100.5632014698275
 42
0.0158359869411279
 10
-17385.341071684117
 20
-100.65809355831252
 10
-17385.34648487097
 20
-100.65958349917878
 42
0.0180554124018968
 10
-17385.742799915577
 20
-100.78422151541463
 10
-17385.747356703669
 20
-100.78583755168381
 42
0.0203657431271703
 10
-17386.141834221486
 20
-100.94409789320007
 10
-17386.14597776049
 20
-100.94595951464146
 42
0.0226819684611732
 10
-17386.533413816684
 20
-101.14160209330738
 10
-17386.53761360771
 20
-101.14396768523227
 42
0.024863498459869
 10
-17386.912795548884
 20
-101.38059433117301
 10
-17386.960990477644
 20
-101.41445137298167
 42
0.0267044190770727
 10
-17387.235283174592
 20
-101.62989174887332
 42
0.0139303002217281
 10
-17387.491450340545
 20
-101.86713058980162
 10
-17387.49630372625
 20
-101.87188325264538
 42
0.0283460963456883
 10
-17387.740376320493
 20
-102.1396139131061
 10
-17387.780044825635
 20
-102.18841549056356
 42
0.0070695364836279
 10
-17387.857482051495
 20
-102.28648230652902
 42
0.0070695364836279
  0
LWPOLYLINE
  5
5B
100
AcDbEntity
  8
0
370
              15
390
0
  6
Continuous
 62
               7
100
AcDbPolyline
 90
      226
 70
             128
 10
-17391.38630248874
 20
-118.00807111271297
 42
-0.0026277637048817
 10
-17391.38638037254
 20
-117.94129918721164
 10
-17391.386163014307
 20
-117.88814396952682
 42
-0.0088680296817432
 10
-17391.382386398014
 20
-117.7151281871174
 10
-17391.380040038901
 20
-117.65584816167018
 42
-0.0077381705682738
 10
-17391.363993928146
 20
-117.36458766598244
 10
-17391.363126016964
 20
-117.3522994321869
 42
-0.006887253053785
 10
-17391.336493937219
 20
-117.03707768011068
 10
-17391.335289713032
 20
-117.02483670109916
 42
-0.0062130021515357
 10
-17391.2976959962
 20
-116.68596700984475
 10
-17391.296192092668
 20
-116.67379313794413
 42
-0.0056726929715545
 10
-17391.247270233154
 20
-116.31159791574052
 10
-17391.245496787524
 20
-116.29950411558536
 42
-0.005234188448851
 10
-17391.184886201259
 20
-115.91431086004945
 10
-17391.182868212487
 20
-115.90230593007504
 42
-0.0049768450178589
 10
-17391.110129531018
 20
-115.49446136242165
 10
-17391.085880516337
 20
-115.36591337963648
 42
-0.0089029805672122
 10
-17390.94879966458
 20
-114.70413793239011
 10
-17390.916054289224
 20
-114.55910650169062
 42
-0.0080318257089343
 10
-17390.686505674847
 20
-113.6133968696986
 10
-17390.674520748435
 20
-113.56726623464681
 42
-0.0074265721307992
 10
-17390.390509209585
 20
-112.53720165626045
 10
-17390.37062966645
 20
-112.46906759560029
 42
-0.0069711922677028
 10
-17390.043325087965
 20
-111.40279985534892
 10
-17389.98337314084
 20
-111.21677849691737
 42
-0.0052070422901767
 10
-17389.753947915597
 20
-110.52950641994698
 10
-17389.736666723482
 20
-110.47947913950041
 42
-0.0009167004494188
 10
-17389.533574836136
 20
-109.89502329117579
 42
-0.0025162726944786
 10
-17389.32647720601
 20
-109.31198202739378
 10
-17389.289252594157
 20
-109.208832481355
 42
-0.0028212681454163
 10
-17389.041076675108
 20
-108.53310184893678
 10
-17389.031245912505
 20
-108.5067944046521
 42
-0.0031964916827689
 10
-17388.794953654695
 20
-107.886589642133
 10
-17388.785319200655
 20
-107.86177965188553
 42
-0.0036281836412011
 10
-17388.560213239594
 20
-107.29433897109664
 10
-17388.550774829335
 20
-107.27104153934592
 42
-0.0041269166821819
 10
-17388.336157132777
 20
-106.75360064361553
 10
-17388.303524176397
 20
-106.67672219734871
 42
-0.0047472213090069
 10
-17388.1464793708
 20
-106.31630072937105
 10
-17388.139585289595
 20
-106.3008801320466
 42
-0.0025651660043953
 10
-17387.991227255741
 20
-105.97355207629062
 42
-0.0057144635048956
 10
-17387.837477561978
 20
-105.64874240294033
 10
-17387.809446856627
 20
-105.59123402065113
 42
-0.0065388068371759
 10
-17387.62597982883
 20
-105.22700152386892
 10
-17387.617521372984
 20
-105.21074194436653
 42
-0.0074510843007434
 10
-17387.441339127174
 20
-104.88405366337668
 10
-17387.433159456683
 20
-104.86941288618134
 42
-0.008464897984489
 10
-17387.263525603543
 20
-104.5775038751467
 10
-17387.255669477108
 20
-104.56449688358666
 42
-0.0095638542847487
 10
-17387.091834029459
 20
-104.3046080115173
 10
-17387.084359085802
 20
-104.29323865008324
 42
-0.0107191626824757
 10
-17386.925557505401
 20
-104.0626274155178
 10
-17386.918540771647
 20
-104.05289132312303
 42
-0.0118458573861395
 10
-17386.763992673157
 20
-103.84881912784249
 42
-0.0129184518196219
 10
-17386.599540049585
 20
-103.6526586117029
 10
-17386.569395277173
 20
-103.6185325327492
 42
-0.0217742579564051
 10
-17386.392782954856
 20
-103.43532576252244
 10
-17386.382037410382
 20
-103.42510892930753
 42
-0.0097266568649599
 10
-17386.215979791545
 20
-103.27326135488215
 42
-0.0187720905630968
 10
-17386.041632215645
 20
-103.13119250148721
 10
-17386.010926224972
 20
-103.10803341909244
 42
-0.0179428207477557
 10
-17385.778505504983
 20
-102.94548124198514
 10
-17385.774853178085
 20
-102.9431173071092
 42
-0.0170047877681118
 10
-17385.539089540536
 20
-102.80165679294589
 10
-17385.535306551781
 20
-102.79955848790559
 42
-0.0160190788283319
 10
-17385.298398004154
 20
-102.67790718592153
 42
-0.015110286154914
 10
-17385.054366221706
 20
-102.57122440986649
 10
-17385.001979719495
 20
-102.55018427697223
 42
-0.0271945441869204
 10
-17384.643317160433
 20
-102.42831946626539
 10
-17384.574252359951
 20
-102.40896992499994
 42
-0.0237596594054786
 10
-17384.158455512927
 20
-102.31351921301837
 10
-17384.090392659193
 20
-102.30126452489121
 42
-0.0213715440589198
 10
-17383.804517727753
 20
-102.26231749338172
 10
-17383.744370561533
 20
-102.2567277786807
 42
-0.0101465655867463
 10
-17383.57687802954
 20
-102.24458423541671
 10
-17383.567537643332
 20
-102.24409732041897
 42
-0.0100375910887988
 10
-17383.418383542776
 20
-102.23932150249425
 10
-17383.408124273101
 20
-102.23919906347984
 42
-0.010362563339289
 10
-17383.279416278441
 20
-102.24033049700643
 10
-17383.257150627178
 20
-102.24098785547123
 42
-0.0115689250471235
 10
-17383.173099889646
 20
-102.24541736171648
 42
-0.0072438037272397
 10
-17383.089261610221
 20
-102.25300656146432
 10
-17383.072461100735
 20
-102.25477310419001
 42
-0.0217917313176049
 10
-17382.95589133742
 20
-102.2721929969111
 10
-17382.890291246844
 20
-102.28493960532795
 42
-0.0332943556783145
 10
-17382.685899081829
 20
-102.33897989663262
 10
-17382.655726513272
 20
-102.34914797375325
 42
-0.0184824084698076
 10
-17382.517221456812
 20
-102.4015989891376
 42
-0.0198002050568656
 10
-17382.38314711631
 20
-102.46448304933719
 10
-17382.381260478935
 20
-102.46546083621683
 42
-0.0212242342931758
 10
-17382.249121536541
 20
-102.54122357500621
 10
-17382.247306240992
 20
-102.54236937721828
 42
-0.0226090605830015
 10
-17382.118802339755
 20
-102.63184902079497
 10
-17382.116957898033
 20
-102.63326127377024
 42
-0.0238457052215578
 10
-17381.993775816751
 20
-102.73725716962254
 10
-17381.991823088181
 20
-102.73907204739874
 42
-0.0248160564259908
 10
-17381.87562158089
 20
-102.85834664859536
 10
-17381.873517947475
 20
-102.8607319823119
 42
-0.0254109591382615
 10
-17381.76591272961
 20
-102.99602036827572
 10
-17381.763664707694
 20
-102.99916191667683
 42
-0.025552848819114
 10
-17381.666218028891
 20
-103.15118897091946
 10
-17381.663886928982
 20
-103.15527058251871
 42
-0.0252146793207536
 10
-17381.578105902983
 20
-103.32477282848933
 10
-17381.575803663814
 20
-103.32995491042857
 42
-0.0244265635952698
 10
-17381.50314897007
 20
-103.51770148243297
 10
-17381.493902568589
 20
-103.54556690080894
 42
-0.0231319612980596
 10
-17381.447979789595
 20
-103.70886794761464
 42
-0.0112130424272081
 10
-17381.413343767053
 20
-103.87507154782261
 10
-17381.412141241944
 20
-103.88156813469061
 42
-0.0210527881253532
 10
-17381.386454766573
 20
-104.06262378013766
 10
-17381.382944171753
 20
-104.0980293286791
 42
-0.0190029892478611
 10
-17381.367502698209
 20
-104.3515651749386
 10
-17381.366692721764
 20
-104.38704078932039
 42
-0.0137974553494198
 10
-17381.368241574608
 20
-104.71207219637883
 10
-17381.369087029543
 20
-104.73819094038092
 42
-0.0081336634278978
 10
-17381.383946364775
 20
-105.04353840824592
 42
-0.0073526923600703
 10
-17381.408254898131
 20
-105.34828665235307
 10
-17381.409516321932
 20
-105.36162332719709
 42
-0.0066886138698853
 10
-17381.445251907982
 20
-105.69220937072453
 10
-17381.446908997448
 20
-105.70583098968575
 42
-0.0061359187428107
 10
-17381.494759599474
 20
-106.06259496959414
 10
-17381.496797100575
 20
-106.07648977261499
 42
-0.0056698610094709
 10
-17381.557447431354
 20
-106.45976834151089
 10
-17381.559852864666
 20
-106.47392746068374
 42
-0.0052721077279945
 10
-17381.633985065437
 20
-106.88405480024035
 10
-17381.636748214303
 20
-106.89847143574764
 42
-0.004928927213832
 10
-17381.725042332411
 20
-107.33577994690785
 10
-17381.728154827088
 20
-107.35044879968586
 42
-0.0047415956682608
 10
-17381.831392818687
 20
-107.81524555739199
 10
-17381.866161028978
 20
-107.9650526524797
 42
-0.0084404470884457
 10
-17382.056177472528
 20
-108.72527667692647
 10
-17382.062304160536
 20
-108.74814080116425
 42
-0.0039635940256924
 10
-17382.283757844871
 20
-109.54912966557937
 10
-17382.297134640001
 20
-109.59606128200346
 42
-0.0072475040842719
 10
-17382.564581527855
 20
-110.48528099836497
 10
-17382.634793854773
 20
-110.70702134862401
 42
-0.0051345458815476
 10
-17382.921553226748
 20
-111.58134653617685
 10
-17382.943079493431
 20
-111.64477280305447
 42
-0.001915001659359
 10
-17383.198612900385
 20
-112.38832192353289
 10
-17383.205080504791
 20
-112.40690938847729
 42
-0.0021524362761069
 10
-17383.453558555844
 20
-113.11123521016236
 10
-17383.462768976569
 20
-113.13698878854646
 42
-0.0024331286815879
 10
-17383.699024235575
 20
-113.787588096582
 10
-17383.708072188088
 20
-113.81213140283151
 42
-0.0027449721778186
 10
-17383.932686758963
 20
-114.41126128186079
 10
-17383.94157676656
 20
-114.43458387224811
 42
-0.0031083229772463
 10
-17384.155119252966
 20
-114.98450790929269
 10
-17384.163855384551
 20
-115.00659762492533
 42
-0.0035311343288162
 10
-17384.366896570231
 20
-115.50958075088056
 10
-17384.375481909407
 20
-115.53042347445407
 42
-0.0040245640929204
 10
-17384.568593713175
 20
-115.9887327969833
 10
-17384.577029826727
 20
-116.00831216493827
 42
-0.0046015135883358
 10
-17384.760786119943
 20
-116.42421719469758
 10
-17384.769072297691
 20
-116.44251433397025
 42
-0.0052768638332099
 10
-17384.944049816724
 20
-116.81828721841998
 10
-17384.952182027391
 20
-116.83528055704572
 42
-0.0060672675654819
 10
-17385.118961640117
 20
-117.17319618007741
 10
-17385.126931120605
 20
-117.18886143908625
 42
-0.0069904648863601
 10
-17385.2860995146
 20
-117.49119724573836
 10
-17385.293890914203
 20
-117.50550779494843
 42
-0.0080637022875504
 10
-17385.446042774558
 20
-117.77454309811878
 10
-17385.453631807122
 20
-117.78747096360769
 42
-0.0093006455703837
 10
-17385.599372483717
 20
-118.02548536222264
 10
-17385.606723150497
 20
-118.03700333145134
 42
-0.0107060778002133
 10
-17385.746671693902
 20
-118.24627364877483
 10
-17385.753733462174
 20
-118.2563591913312
 42
-0.0122723111430163
 10
-17385.888527180381
 20
-118.43915252082968
 10
-17385.888853403936
 20
-118.43957290863847
 42
-0.0141836319681887
 10
-17386.032435006906
 20
-118.61414266646887
 10
-17386.039382762563
 20
-118.62211766674096
 42
-0.0175957477176506
 10
-17386.179288930594
 20
-118.77173855513843
 42
-0.0080466359634415
 10
-17386.326752695659
 20
-118.91406108332225
 10
-17386.372787240143
 20
-118.95708152138081
 42
-0.0269600260405902
 10
-17386.626067486122
 20
-119.1694047798895
 10
-17386.692634622399
 20
-119.219356194497
 42
-0.0178362839786725
 10
-17386.932579112079
 20
-119.38637412076628
 10
-17386.939824083063
 20
-119.39104263296002
 42
-0.0174650732742567
 10
-17387.17616028052
 20
-119.5319035979303
 42
-0.0169240130119629
 10
-17387.421626526364
 20
-119.6561958577017
 10
-17387.467612681936
 20
-119.67755781327492
 42
-0.0318883036911757
 10
-17387.817963537571
 20
-119.81389612278898
 10
-17387.886329072731
 20
-119.83559674326304
 42
-0.0284435909894196
 10
-17388.262379199012
 20
-119.93181417873518
 10
-17388.297537359511
 20
-119.93870777456374
 42
-0.0243909340973042
 10
-17388.610980820427
 20
-119.98442880559378
 10
-17388.661261547193
 20
-119.98927435249503
 42
-0.0196639293007968
 10
-17388.876857124727
 20
-120.00152263800896
 10
-17388.928681195892
 20
-120.0024258987457
 42
-0.0100501510543201
 10
-17389.041104477554
 20
-120.00212550039259
 10
-17389.072764338893
 20
-120.00140442850741
 42
-0.0019752030838639
 10
-17389.121856675578
 20
-120.00009226829764
 10
-17389.124616978803
 20
-120.00000757647125
 42
0.0065378751623577
 10
-17389.16819355356
 20
-119.99924068525638
 42
-0.0167974694486902
 10
-17389.211724376488
 20
-119.99758078673031
 10
-17389.21580371575
 20
-119.99728777583539
 42
-0.0081283276468482
 10
-17389.267363513503
 20
-119.99274078219634
 10
-17389.27910308737
 20
-119.99151286461915
 42
-0.0126703439954677
 10
-17389.353821383171
 20
-119.98177807354661
 10
-17389.376609250838
 20
-119.97821981763241
 42
-0.0117852088552954
 10
-17389.496148236663
 20
-119.95665682247625
 10
-17389.551528688433
 20
-119.9453132822407
 42
-0.0251774592309369
 10
-17389.778372727458
 20
-119.88681527280278
 10
-17389.823091917282
 20
-119.87284845347661
 42
-0.0146525199909436
 10
-17390.009484904833
 20
-119.80858192627431
 42
-0.0166929435857751
 10
-17390.191462560968
 20
-119.73277479321597
 10
-17390.196119192231
 20
-119.7306498926057
 42
-0.0191684358372995
 10
-17390.381302823505
 20
-119.63741380880242
 10
-17390.384635409238
 20
-119.63557256126239
 42
-0.0221181781904088
 10
-17390.567945713112
 20
-119.52343906290974
 10
-17390.570295517147
 20
-119.52185476490058
 42
-0.0254984685391013
 10
-17390.746585667544
 20
-119.38944361492119
 10
-17390.769067815243
 20
-119.37069130598857
 42
-0.0292492648925361
 10
-17390.893836754076
 20
-119.25359850635164
 42
-0.0159048957670989
 10
-17391.007676751491
 20
-119.12557851479421
 10
-17391.008995542106
 20
-119.12399690173254
 42
-0.0343813379648864
 10
-17391.111632803724
 20
-118.98212557597661
 10
-17391.143124335096
 20
-118.93162218386674
 42
-0.0369117275688497
 10
-17391.229016836995
 20
-118.76814494292057
 42
-0.0191751379898912
 10
-17391.296210222547
 20
-118.59574033692586
 10
-17391.297973546309
 20
-118.59064699223973
 42
-0.0378178042296523
 10
-17391.347768265088
 20
-118.40170621616885
 10
-17391.353763560823
 20
-118.36914559794729
 42
-0.0184846046405923
 10
-17391.374480760118
 20
-118.22739277741653
 42
-0.0179866351358708
 10
-17391.384813765188
 20
-118.08450196442961
 10
-17391.384870207636
 20
-118.08294427772285
 42
-0.0085497186019083
 10
-17391.38630248874
 20
-118.00807111271297
 42
-0.0085497186019083
  0
ENDBLK
  5
5C
100
AcDbEntity
  8
template
390
0
100
AcDbBlockEnd
  0
BLOCK
  5
5D
100
AcDbEntity
  8
notes
390
0
100
AcDbBlockBegin
  2
*D4
 70
               1
 10
0.0
 20
0.0
 30
0.0
  3
*D4
  1

  0
LINE
  5
5E
100
AcDbEntity
  8
0
370
              -2
390
0
  6
Continuous
 62
               0
100
AcDbLine
 10
696.93233307994524
 20
43.986293722678965
 30
0.0
 11
817.93233307994524
 21
43.986293722678965
 31
0.0
  0
LINE
  5
5F
100
AcDbEntity
  8
0
370
              -2
390
0
  6
Continuous
 62
               0
100
AcDbLine
 10
696.93233307994524
 20
-936.01370627732149
 30
0.0
 11
817.93233307994524
 21
-936.01370627732149
 31
0.0
  0
LINE
  5
60
100
AcDbEntity
  8
0
370
              -2
390
0
  6
Continuous
 62
               0
100
AcDbLine
 10
817.93233307994524
 20
43.986293722678965
 30
0.0
 11
817.93233307994524
 21
-936.01370627732149
 31
0.0
  0
CIRCLE
  5
61
102
{ACAD_REACTORS
330
62
102
}
100
AcDbEntity
  8
0
370
              -2
390
0
  6
Continuous
 62
               0
100
AcDbCircle
 10
817.93233307994524
 20
43.986293722678965
 30
0.0
 40
1.9998779296875
  0
HATCH
  5
62
100
AcDbEntity
  8
0
370
              -2
390
0
  6
Continuous
 62
               0
100
AcDbHatch
 10
0.0
 20
0.0
 30
0.0
210
0.0
220
0.0
230
1.0
  2
SOLID
 70
               1
 71
               1
 91
        1
 92
        1
 93
        1
 72
               2
 10
817.93233307994524
 20
43.986293722678965
 40
1.9998779296875
 50
0.0
 51
360.0
 73
               0
 97
        1
330
61
 75
               0
 76
               1
 98
        1
 10
0.0
 20
0.0
  0
CIRCLE
  5
63
102
{ACAD_REACTORS
330
64
102
}
100
AcDbEntity
  8
0
370
              -2
390
0
  6
Continuous
 62
               0
100
AcDbCircle
 10
817.93233307994524
 20
-936.01370627732149
 30
0.0
 40
1.9998779296875
  0
HATCH
  5
64
100
AcDbEntity
  8
0
370
              -2
390
0
  6
Continuous
 62
               0
100
AcDbHatch
 10
0.0
 20
0.0
 30
0.0
210
0.0
220
0.0
230
1.0
  2
SOLID
 70
               1
 71
               1
 91
        1
 92
        1
 93
        1
 72
               2
 10
817.93233307994524
 20
-936.01370627732149
 40
1.9998779296875
 50
0.0
 51
360.0
 73
               0
 97
        1
330
63
 75
               0
 76
               1
 98
        1
 10
0.0
 20
0.0
  0
MTEXT
  5
65
100
AcDbEntity
  8
0
390
0
 62
               0
100
AcDbMText
 10
784.05471589244553
 20
-469.82620795949674
 30
0.0
 40
24.432617187500004
 41
0.0
 71
               1
 72
               1
  1
980
  7
ＭＳ ゴシック
 11
0.0
 21
1.0
 31
0.0
 73
               1
 44
0.7828267384257843
  0
POINT
  5
66
100
AcDbEntity
  8
Defpoints
370
               0
390
0
 62
               0
100
AcDbPoint
 10
671.93233307994524
 20
-936.01370627732149
 30
0.0
  0
POINT
  5
67
100
AcDbEntity
  8
Defpoints
370
               0
390
0
 62
               0
100
AcDbPoint
 10
671.93233307994524
 20
43.986293722678965
 30
0.0
  0
POINT
  5
68
100
AcDbEntity
  8
Defpoints
370
               0
390
0
 62
               0
100
AcDbPoint
 10
817.93233307994524
 20
43.986293722678965
 30
0.0
  0
ENDBLK
  5
69
100
AcDbEntity
  8
notes
390
0
100
AcDbBlockEnd
  0
BLOCK
  5
6A
100
AcDbEntity
  8
notes
390
0
100
AcDbBlockBegin
  2
*D5
 70
               1
 10
0.0
 20
0.0
 30
0.0
  3
*D5
  1

  0
LINE
  5
6B
100
AcDbEntity
  8
0
370
              -2
390
0
  6
Continuous
 62
               0
100
AcDbLine
 10
696.53035364074094
 20
913.39293422502897
 30
0.0
 11
771.93233307994524
 21
913.39293422502897
 31
0.0
  0
LINE
  5
6C
100
AcDbEntity
  8
0
370
              -2
390
0
  6
Continuous
 62
               0
100
AcDbLine
 10
696.53035364074094
 20
668.39293422502897
 30
0.0
 11
771.93233307994524
 21
668.39293422502897
 31
0.0
  0
LINE
  5
6D
100
AcDbEntity
  8
0
370
              -2
390
0
  6
Continuous
 62
               0
100
AcDbLine
 10
771.93233307994524
 20
913.39293422502897
 30
0.0
 11
771.93233307994524
 21
668.39293422502897
 31
0.0
  0
CIRCLE
  5
6E
102
{ACAD_REACTORS
330
6F
102
}
100
AcDbEntity
  8
0
370
              -2
390
0
  6
Continuous
 62
               0
100
AcDbCircle
 10
771.93233307994524
 20
913.39293422502897
 30
0.0
 40
1.9998779296875
  0
HATCH
  5
6F
100
AcDbEntity
  8
0
370
              -2
390
0
  6
Continuous
 62
               0
100
AcDbHatch
 10
0.0
 20
0.0
 30
0.0
210
0.0
220
0.0
230
1.0
  2
SOLID
 70
               1
 71
               1
 91
        1
 92
        1
 93
        1
 72
               2
 10
771.93233307994524
 20
913.39293422502897
 40
1.9998779296875
 50
0.0
 51
360.0
 73
               0
 97
        1
330
6E
 75
               0
 76
               1
 98
        1
 10
0.0
 20
0.0
  0
CIRCLE
  5
70
102
{ACAD_REACTORS
330
71
102
}
100
AcDbEntity
  8
0
370
              -2
390
0
  6
Continuous
 62
               0
100
AcDbCircle
 10
771.93233307994524
 20
668.39293422502897
 30
0.0
 40
1.9998779296875
  0
HATCH
  5
71
100
AcDbEntity
  8
0
370
              -2
390
0
  6
Continuous
 62
               0
100
AcDbHatch
 10
0.0
 20
0.0
 30
0.0
210
0.0
220
0.0
230
1.0
  2
SOLID
 70
               1
 71
               1
 91
        1
 92
        1
 93
        1
 72
               2
 10
771.93233307994524
 20
668.39293422502897
 40
1.9998779296875
 50
0.0
 51
360.0
 73
               0
 97
        1
330
70
 75
               0
 76
               1
 98
        1
 10
0.0
 20
0.0
  0
MTEXT
  5
72
100
AcDbEntity
  8
0
390
0
 62
               0
100
AcDbMText
 10
738.05471589244553
 20
767.08043254285349
 30
0.0
 40
24.432617187500004
 41
0.0
 71
               1
 72
               1
  1
245
  7
ＭＳ ゴシック
 11
0.0
 21
1.0
 31
0.0
 73
               1
 44
0.7828267384257843
  0
POINT
  5
73
100
AcDbEntity
  8
Defpoints
370
               0
390
0
 62
               0
100
AcDbPoint
 10
671.53035364074094
 20
668.39293422502897
 30
0.0
  0
POINT
  5
74
100
AcDbEntity
  8
Defpoints
370
               0
390
0
 62
               0
100
AcDbPoint
 10
671.53035364074094
 20
913.39293422502897
 30
0.0
  0
POINT
  5
75
100
AcDbEntity
  8
Defpoints
370
               0
390
0
 62
               0
100
AcDbPoint
 10
771.93233307994524
 20
913.39293422502897
 30
0.0
  0
ENDBLK
  5
76
100
AcDbEntity
  8
notes
390
0
100
AcDbBlockEnd
  0
BLOCK
  5
77
100
AcDbEntity
  8
notes
390
0
100
AcDbBlockBegin
  2
*D6
 70
               1
 10
0.0
 20
0.0
 30
0.0
  3
*D6
  1

  0
LINE
  5
78
100
AcDbEntity
  8
0
370
              -2
390
0
  6
Continuous
 62
               0
100
AcDbLine
 10
521.53035364074094
 20
765.99470350898605
 30
0.0
 11
521.53035364074094
 21
788.03637017565279
 31
0.0
  0
LINE
  5
79
100
AcDbEntity
  8
0
370
              -2
390
0
  6
Continuous
 62
               0
100
AcDbLine
 10
641.53035364074094
 20
765.99470350898605
 30
0.0
 11
641.53035364074094
 21
788.03637017565279
 31
0.0
  0
LINE
  5
7A
100
AcDbEntity
  8
0
370
              -2
390
0
  6
Continuous
 62
               0
100
AcDbLine
 10
521.53035364074094
 20
788.03637017565279
 30
0.0
 11
361.62177886463178
 21
788.03637017565279
 31
0.0
  0
LINE
  5
7B
100
AcDbEntity
  8
0
370
              -2
390
0
  6
Continuous
 62
               0
100
AcDbLine
 10
521.53035364074094
 20
788.03637017565279
 30
0.0
 11
641.53035364074094
 21
788.03637017565279
 31
0.0
  0
CIRCLE
  5
7C
102
{ACAD_REACTORS
330
7D
102
}
100
AcDbEntity
  8
0
370
              -2
390
0
  6
Continuous
 62
               0
100
AcDbCircle
 10
521.53035364074094
 20
788.03637017565279
 30
0.0
 40
1.9998779296875
  0
HATCH
  5
7D
100
AcDbEntity
  8
0
370
              -2
390
0
  6
Continuous
 62
               0
100
AcDbHatch
 10
0.0
 20
0.0
 30
0.0
210
0.0
220
0.0
230
1.0
  2
SOLID
 70
               1
 71
               1
 91
        1
 92
        1
 93
        1
 72
               2
 10
521.53035364074094
 20
788.03637017565279
 40
1.9998779296875
 50
0.0
 51
360.0
 73
               0
 97
        1
330
7C
 75
               0
 76
               1
 98
        1
 10
0.0
 20
0.0
  0
CIRCLE
  5
7E
102
{ACAD_REACTORS
330
7F
102
}
100
AcDbEntity
  8
0
370
              -2
390
0
  6
Continuous
 62
               0
100
AcDbCircle
 10
641.53035364074094
 20
788.03637017565279
 30
0.0
 40
1.9998779296875
  0
HATCH
  5
7F
100
AcDbEntity
  8
0
370
              -2
390
0
  6
Continuous
 62
               0
100
AcDbHatch
 10
0.0
 20
0.0
 30
0.0
210
0.0
220
0.0
230
1.0
  2
SOLID
 70
               1
 71
               1
 91
        1
 92
        1
 93
        1
 72
               2
 10
641.53035364074094
 20
788.03637017565279
 40
1.9998779296875
 50
0.0
 51
360.0
 73
               0
 97
        1
330
7E
 75
               0
 76
               1
 98
        1
 10
0.0
 20
0.0
  0
MTEXT
  5
80
100
AcDbEntity
  8
0
390
0
 62
               0
100
AcDbMText
 10
361.62177886463178
 20
821.91398736315296
 30
0.0
 40
24.432617187500004
 41
0.0
 71
               1
 72
               1
  1
120(深さ)
  7
ＭＳ ゴシック
 73
               1
 44
0.7828267384257843
  0
POINT
  5
81
100
AcDbEntity
  8
Defpoints
370
               0
390
0
 62
               0
100
AcDbPoint
 10
641.53035364074094
 20
790.99470350898605
 30
0.0
  0
POINT
  5
82
100
AcDbEntity
  8
Defpoints
370
               0
390
0
 62
               0
100
AcDbPoint
 10
521.53035364074094
 20
790.99470350898605
 30
0.0
  0
POINT
  5
83
100
AcDbEntity
  8
Defpoints
370
               0
390
0
 62
               0
100
AcDbPoint
 10
521.53035364074094
 20
788.03637017565279
 30
0.0
  0
ENDBLK
  5
84
100
AcDbEntity
  8
notes
390
0
100
AcDbBlockEnd
  0
BLOCK
  5
85
100
AcDbEntity
  8
notes
390
0
100
AcDbBlockBegin
  2
*D7
 70
               1
 10
0.0
 20
0.0
 30
0.0
  3
*D7
  1

  0
LINE
  5
86
100
AcDbEntity
  8
0
370
              -2
390
0
  6
Continuous
 62
               0
100
AcDbLine
 10
-442.66011420297946
 20
972.03324302977444
 30
0.0
 11
-442.66011420297946
 21
1047.0332430297744
 31
0.0
  0
LINE
  5
87
100
AcDbEntity
  8
0
370
              -2
390
0
  6
Continuous
 62
               0
100
AcDbLine
 10
-577.69945886061032
 20
972.03324302977444
 30
0.0
 11
-577.69945886061032
 21
1047.0332430297744
 31
0.0
  0
LINE
  5
88
100
AcDbEntity
  8
0
370
              -2
390
0
  6
Continuous
 62
               0
100
AcDbLine
 10
-442.66011420297946
 20
1047.0332430297744
 30
0.0
 11
-577.69945886061032
 21
1047.0332430297744
 31
0.0
  0
CIRCLE
  5
89
102
{ACAD_REACTORS
330
8A
102
}
100
AcDbEntity
  8
0
370
              -2
390
0
  6
Continuous
 62
               0
100
AcDbCircle
 10
-442.66011420297946
 20
1047.0332430297744
 30
0.0
 40
1.9998779296875
  0
HATCH
  5
8A
100
AcDbEntity
  8
0
370
              -2
390
0
  6
Continuous
 62
               0
100
AcDbHatch
 10
0.0
 20
0.0
 30
0.0
210
0.0
220
0.0
230
1.0
  2
SOLID
 70
               1
 71
               1
 91
        1
 92
        1
 93
        1
 72
               2
 10
-442.66011420297946
 20
1047.0332430297744
 40
1.9998779296875
 50
0.0
 51
360.0
 73
               0
 97
        1
330
89
 75
               0
 76
               1
 98
        1
 10
0.0
 20
0.0
  0
CIRCLE
  5
8B
102
{ACAD_REACTORS
330
8C
102
}
100
AcDbEntity
  8
0
370
              -2
390
0
  6
Continuous
 62
               0
100
AcDbCircle
 10
-577.69945886061032
 20
1047.0332430297744
 30
0.0
 40
1.9998779296875
  0
HATCH
  5
8C
100
AcDbEntity
  8
0
370
              -2
390
0
  6
Continuous
 62
               0
100
AcDbHatch
 10
0.0
 20
0.0
 30
0.0
210
0.0
220
0.0
230
1.0
  2
SOLID
 70
               1
 71
               1
 91
        1
 92
        1
 93
        1
 72
               2
 10
-577.69945886061032
 20
1047.0332430297744
 40
1.9998779296875
 50
0.0
 51
360.0
 73
               0
 97
        1
330
8B
 75
               0
 76
               1
 98
        1
 10
0.0
 20
0.0
  0
MTEXT
  5
8D
100
AcDbEntity
  8
0
390
0
 62
               0
100
AcDbMText
 10
-533.99228821397264
 20
1080.9108602172746
 30
0.0
 40
24.432617187500004
 41
0.0
 71
               1
 72
               1
  1
135
  7
ＭＳ ゴシック
 73
               1
 44
0.7828267384257843
  0
POINT
  5
8E
100
AcDbEntity
  8
Defpoints
370
               0
390
0
 62
               0
100
AcDbPoint
 10
-577.69945886061032
 20
947.03324302977444
 30
0.0
  0
POINT
  5
8F
100
AcDbEntity
  8
Defpoints
370
               0
390
0
 62
               0
100
AcDbPoint
 10
-442.66011420297946
 20
947.03324302977444
 30
0.0
  0
POINT
  5
90
100
AcDbEntity
  8
Defpoints
370
               0
390
0
 62
               0
100
AcDbPoint
 10
-442.66011420297946
 20
1047.0332430297744
 30
0.0
  0
ENDBLK
  5
91
100
AcDbEntity
  8
notes
390
0
100
AcDbBlockEnd
  0
BLOCK
  5
92
100
AcDbEntity
  8
notes
390
0
100
AcDbBlockBegin
  2
*D8
 70
               1
 10
0.0
 20
0.0
 30
0.0
  3
*D8
  1

  0
LINE
  5
93
100
AcDbEntity
  8
0
370
              -2
390
0
  6
Continuous
 62
               0
100
AcDbLine
 10
-577.69945886061032
 20
-31.013453587533832
 30
0.0
 11
-577.69945886061032
 21
183.32038187048033
 31
0.0
  0
LINE
  5
94
100
AcDbEntity
  8
0
370
              -2
390
0
  6
Continuous
 62
               0
100
AcDbLine
 10
-207.69945886061032
 20
-31.013453587533832
 30
0.0
 11
-207.69945886061032
 21
183.32038187048033
 31
0.0
  0
LINE
  5
95
100
AcDbEntity
  8
0
370
              -2
390
0
  6
Continuous
 62
               0
100
AcDbLine
 10
-577.69945886061032
 20
183.32038187048033
 30
0.0
 11
-207.69945886061032
 21
183.32038187048033
 31
0.0
  0
CIRCLE
  5
96
102
{ACAD_REACTORS
330
97
102
}
100
AcDbEntity
  8
0
370
              -2
390
0
  6
Continuous
 62
               0
100
AcDbCircle
 10
-577.69945886061032
 20
183.32038187048033
 30
0.0
 40
1.9998779296875
  0
HATCH
  5
97
100
AcDbEntity
  8
0
370
              -2
390
0
  6
Continuous
 62
               0
100
AcDbHatch
 10
0.0
 20
0.0
 30
0.0
210
0.0
220
0.0
230
1.0
  2
SOLID
 70
               1
 71
               1
 91
        1
 92
        1
 93
        1
 72
               2
 10
-577.69945886061032
 20
183.32038187048033
 40
1.9998779296875
 50
0.0
 51
360.0
 73
               0
 97
        1
330
96
 75
               0
 76
               1
 98
        1
 10
0.0
 20
0.0
  0
CIRCLE
  5
98
102
{ACAD_REACTORS
330
99
102
}
100
AcDbEntity
  8
0
370
              -2
390
0
  6
Continuous
 62
               0
100
AcDbCircle
 10
-207.69945886061032
 20
183.32038187048033
 30
0.0
 40
1.9998779296875
  0
HATCH
  5
99
100
AcDbEntity
  8
0
370
              -2
390
0
  6
Continuous
 62
               0
100
AcDbHatch
 10
0.0
 20
0.0
 30
0.0
210
0.0
220
0.0
230
1.0
  2
SOLID
 70
               1
 71
               1
 91
        1
 92
        1
 93
        1
 72
               2
 10
-207.69945886061032
 20
183.32038187048033
 40
1.9998779296875
 50
0.0
 51
360.0
 73
               0
 97
        1
330
98
 75
               0
 76
               1
 98
        1
 10
0.0
 20
0.0
  0
MTEXT
  5
9A
100
AcDbEntity
  8
0
390
0
 62
               0
100
AcDbMText
 10
-418.817730321196
 20
217.19799905798027
 30
0.0
 40
24.432617187500004
 41
0.0
 71
               1
 72
               1
  1
370
  7
ＭＳ ゴシック
 73
               1
 44
0.7828267384257843
  0
POINT
  5
9B
100
AcDbEntity
  8
Defpoints
370
               0
390
0
 62
               0
100
AcDbPoint
 10
-207.69945886061032
 20
-56.013453587533832
 30
0.0
  0
POINT
  5
9C
100
AcDbEntity
  8
Defpoints
370
               0
390
0
 62
               0
100
AcDbPoint
 10
-577.69945886061032
 20
-56.013453587533832
 30
0.0
  0
POINT
  5
9D
100
AcDbEntity
  8
Defpoints
370
               0
390
0
 62
               0
100
AcDbPoint
 10
-577.69945886061032
 20
183.32038187048033
 30
0.0
  0
ENDBLK
  5
9E
100
AcDbEntity
  8
notes
390
0
100
AcDbBlockEnd
  0
BLOCK
  5
9F
100
AcDbEntity
  8
notes
390
0
100
AcDbBlockBegin
  2
*D9
 70
               1
 10
0.0
 20
0.0
 30
0.0
  3
*D9
  1

  0
LINE
  5
A0
100
AcDbEntity
  8
0
370
              -2
390
0
  6
Continuous
 62
               0
100
AcDbLine
 10
-332.96011420297873
 20
-996.05360774212659
 30
0.0
 11
-107.69945886061396
 21
-996.05360774212659
 31
0.0
  0
LINE
  5
A1
100
AcDbEntity
  8
0
370
              -2
390
0
  6
Continuous
 62
               0
100
AcDbLine
 10
-172.91996004838438
 20
-811.01345358753292
 30
0.0
 11
-107.69945886061396
 21
-811.01345358753292
 31
0.0
  0
LINE
  5
A2
100
AcDbEntity
  8
0
370
              -2
390
0
  6
Continuous
 62
               0
100
AcDbLine
 10
-107.69945886061396
 20
-996.05360774212659
 30
0.0
 11
-107.69945886061396
 21
-811.01345358753292
 31
0.0
  0
CIRCLE
  5
A3
102
{ACAD_REACTORS
330
A4
102
}
100
AcDbEntity
  8
0
370
              -2
390
0
  6
Continuous
 62
               0
100
AcDbCircle
 10
-107.69945886061396
 20
-996.05360774212659
 30
0.0
 40
1.9998779296875
  0
HATCH
  5
A4
100
AcDbEntity
  8
0
370
              -2
390
0
  6
Continuous
 62
               0
100
AcDbHatch
 10
0.0
 20
0.0
 30
0.0
210
0.0
220
0.0
230
1.0
  2
SOLID
 70
               1
 71
               1
 91
        1
 92
        1
 93
        1
 72
               2
 10
-107.69945886061396
 20
-996.05360774212659
 40
1.9998779296875
 50
0.0
 51
360.0
 73
               0
 97
        1
330
A3
 75
               0
 76
               1
 98
        1
 10
0.0
 20
0.0
  0
CIRCLE
  5
A5
102
{ACAD_REACTORS
330
A6
102
}
100
AcDbEntity
  8
0
370
              -2
390
0
  6
Continuous
 62
               0
100
AcDbCircle
 10
-107.69945886061396
 20
-811.01345358753292
 30
0.0
 40
1.9998779296875
  0
HATCH
  5
A6
100
AcDbEntity
  8
0
370
              -2
390
0
  6
Continuous
 62
               0
100
AcDbHatch
 10
0.0
 20
0.0
 30
0.0
210
0.0
220
0.0
230
1.0
  2
SOLID
 70
               1
 71
               1
 91
        1
 92
        1
 93
        1
 72
               2
 10
-107.69945886061396
 20
-811.01345358753292
 40
1.9998779296875
 50
0.0
 51
360.0
 73
               0
 97
        1
330
A5
 75
               0
 76
               1
 98
        1
 10
0.0
 20
0.0
  0
MTEXT
  5
A7
100
AcDbEntity
  8
0
390
0
 62
               0
100
AcDbMText
 10
-141.57707604811367
 20
-927.34603234700523
 30
0.0
 40
24.432617187500004
 41
0.0
 71
               1
 72
               1
  1
185
  7
ＭＳ ゴシック
 11
0.0
 21
1.0
 31
0.0
 73
               1
 44
0.7828267384257843
  0
POINT
  5
A8
100
AcDbEntity
  8
Defpoints
370
               0
390
0
 62
               0
100
AcDbPoint
 10
-197.91996004838438
 20
-811.01345358753292
 30
0.0
  0
POINT
  5
A9
100
AcDbEntity
  8
Defpoints
370
               0
390
0
 62
               0
100
AcDbPoint
 10
-357.96011420297873
 20
-996.05360774212659
 30
0.0
  0
POINT
  5
AA
100
AcDbEntity
  8
Defpoints
370
               0
390
0
 62
               0
100
AcDbPoint
 10
-107.69945886061396
 20
-996.05360774212659
 30
0.0
  0
ENDBLK
  5
AB
100
AcDbEntity
  8
notes
390
0
100
AcDbBlockEnd
  0
BLOCK
  5
AC
100
AcDbEntity
  8
notes
390
0
100
AcDbBlockBegin
  2
*D10
 70
               1
 10
0.0
 20
0.0
 30
0.0
  3
*D10
  1

  0
LINE
  5
AD
100
AcDbEntity
  8
0
370
              -2
390
0
  6
Continuous
 62
               0
100
AcDbLine
 10
-552.69945886061032
 20
-928.8843937061788
 30
0.0
 11
-552.69945886061032
 21
-1076.0137062773215
 31
0.0
  0
LINE
  5
AE
100
AcDbEntity
  8
0
370
              -2
390
0
  6
Continuous
 62
               0
100
AcDbLine
 10
-232.69945886061032
 20
-928.88439370617834
 30
0.0
 11
-232.69945886061032
 21
-1076.0137062773215
 31
0.0
  0
LINE
  5
AF
100
AcDbEntity
  8
0
370
              -2
390
0
  6
Continuous
 62
               0
100
AcDbLine
 10
-552.69945886061032
 20
-1076.0137062773215
 30
0.0
 11
-232.69945886061032
 21
-1076.0137062773215
 31
0.0
  0
CIRCLE
  5
B0
102
{ACAD_REACTORS
330
B1
102
}
100
AcDbEntity
  8
0
370
              -2
390
0
  6
Continuous
 62
               0
100
AcDbCircle
 10
-552.69945886061032
 20
-1076.0137062773215
 30
0.0
 40
1.9998779296875
  0
HATCH
  5
B1
100
AcDbEntity
  8
0
370
              -2
390
0
  6
Continuous
 62
               0
100
AcDbHatch
 10
0.0
 20
0.0
 30
0.0
210
0.0
220
0.0
230
1.0
  2
SOLID
 70
               1
 71
               1
 91
        1
 92
        1
 93
        1
 72
               2
 10
-552.69945886061032
 20
-1076.0137062773215
 40
1.9998779296875
 50
0.0
 51
360.0
 73
               0
 97
        1
330
B0
 75
               0
 76
               1
 98
        1
 10
0.0
 20
0.0
  0
CIRCLE
  5
B2
102
{ACAD_REACTORS
330
B3
102
}
100
AcDbEntity
  8
0
370
              -2
390
0
  6
Continuous
 62
               0
100
AcDbCircle
 10
-232.69945886061032
 20
-1076.0137062773215
 30
0.0
 40
1.9998779296875
  0
HATCH
  5
B3
100
AcDbEntity
  8
0
370
              -2
390
0
  6
Continuous
 62
               0
100
AcDbHatch
 10
0.0
 20
0.0
 30
0.0
210
0.0
220
0.0
230
1.0
  2
SOLID
 70
               1
 71
               1
 91
        1
 92
        1
 93
        1
 72
               2
 10
-232.69945886061032
 20
-1076.0137062773215
 40
1.9998779296875
 50
0.0
 51
360.0
 73
               0
 97
        1
330
B2
 75
               0
 76
               1
 98
        1
 10
0.0
 20
0.0
  0
MTEXT
  5
B4
100
AcDbEntity
  8
0
390
0
 62
               0
100
AcDbMText
 10
-416.51196054278626
 20
-1042.1360890898213
 30
0.0
 40
24.432617187500004
 41
0.0
 71
               1
 72
               1
  1
320
  7
ＭＳ ゴシック
 73
               1
 44
0.7828267384257843
  0
POINT
  5
B5
100
AcDbEntity
  8
Defpoints
370
               0
390
0
 62
               0
100
AcDbPoint
 10
-232.69945886061032
 20
-903.88439370617834
 30
0.0
  0
POINT
  5
B6
100
AcDbEntity
  8
Defpoints
370
               0
390
0
 62
               0
100
AcDbPoint
 10
-552.69945886061032
 20
-903.8843937061788
 30
0.0
  0
POINT
  5
B7
100
AcDbEntity
  8
Defpoints
370
               0
390
0
 62
               0
100
AcDbPoint
 10
-552.69945886061032
 20
-1076.0137062773215
 30
0.0
  0
ENDBLK
  5
B8
100
AcDbEntity
  8
notes
390
0
100
AcDbBlockEnd
  0
BLOCK
  5
B9
100
AcDbEntity
  8
notes
390
0
100
AcDbBlockBegin
  2
*D11
 70
               1
 10
0.0
 20
0.0
 30
0.0
  3
*D11
  1

  0
LINE
  5
BA
100
AcDbEntity
  8
0
370
              -2
390
0
  6
Continuous
 62
               0
100
AcDbLine
 10
496.93233307994524
 20
-856.00691838594594
 30
0.0
 11
421.93233307994524
 21
-856.00691838594594
 31
0.0
  0
LINE
  5
BB
100
AcDbEntity
  8
0
370
              -2
390
0
  6
Continuous
 62
               0
100
AcDbLine
 10
496.93233307994524
 20
-996.00691838594616
 30
0.0
 11
421.93233307994524
 21
-996.00691838594616
 31
0.0
  0
LINE
  5
BC
100
AcDbEntity
  8
0
370
              -2
390
0
  6
Continuous
 62
               0
100
AcDbLine
 10
421.93233307994524
 20
-856.00691838594594
 30
0.0
 11
421.93233307994524
 21
-996.00691838594616
 31
0.0
  0
CIRCLE
  5
BD
102
{ACAD_REACTORS
330
BE
102
}
100
AcDbEntity
  8
0
370
              -2
390
0
  6
Continuous
 62
               0
100
AcDbCircle
 10
421.93233307994524
 20
-856.00691838594594
 30
0.0
 40
1.9998779296875
  0
HATCH
  5
BE
100
AcDbEntity
  8
0
370
              -2
390
0
  6
Continuous
 62
               0
100
AcDbHatch
 10
0.0
 20
0.0
 30
0.0
210
0.0
220
0.0
230
1.0
  2
SOLID
 70
               1
 71
               1
 91
        1
 92
        1
 93
        1
 72
               2
 10
421.93233307994524
 20
-856.00691838594594
 40
1.9998779296875
 50
0.0
 51
360.0
 73
               0
 97
        1
330
BD
 75
               0
 76
               1
 98
        1
 10
0.0
 20
0.0
  0
CIRCLE
  5
BF
102
{ACAD_REACTORS
330
C0
102
}
100
AcDbEntity
  8
0
370
              -2
390
0
  6
Continuous
 62
               0
100
AcDbCircle
 10
421.93233307994524
 20
-996.00691838594616
 30
0.0
 40
1.9998779296875
  0
HATCH
  5
C0
100
AcDbEntity
  8
0
370
              -2
390
0
  6
Continuous
 62
               0
100
AcDbHatch
 10
0.0
 20
0.0
 30
0.0
210
0.0
220
0.0
230
1.0
  2
SOLID
 70
               1
 71
               1
 91
        1
 92
        1
 93
        1
 72
               2
 10
421.93233307994524
 20
-996.00691838594616
 40
1.9998779296875
 50
0.0
 51
360.0
 73
               0
 97
        1
330
BF
 75
               0
 76
               1
 98
        1
 10
0.0
 20
0.0
  0
MTEXT
  5
C1
100
AcDbEntity
  8
0
390
0
 62
               0
100
AcDbMText
 10
388.05471589244553
 20
-949.81942006812153
 30
0.0
 40
24.432617187500004
 41
0.0
 71
               1
 72
               1
  1
140
  7
ＭＳ ゴシック
 11
0.0
 21
1.0
 31
0.0
 73
               1
 44
0.7828267384257843
  0
POINT
  5
C2
100
AcDbEntity
  8
Defpoints
370
               0
390
0
 62
               0
100
AcDbPoint
 10
521.93233307994524
 20
-996.00691838594616
 30
0.0
  0
POINT
  5
C3
100
AcDbEntity
  8
Defpoints
370
               0
390
0
 62
               0
100
AcDbPoint
 10
521.93233307994524
 20
-856.00691838594594
 30
0.0
  0
POINT
  5
C4
100
AcDbEntity
  8
Defpoints
370
               0
390
0
 62
               0
100
AcDbPoint
 10
421.93233307994524
 20
-856.00691838594594
 30
0.0
  0
ENDBLK
  5
C5
100
AcDbEntity
  8
notes
390
0
100
AcDbBlockEnd
  0
BLOCK
  5
C6
100
AcDbEntity
  8
notes
390
0
100
AcDbBlockBegin
  2
*D12
 70
               1
 10
0.0
 20
0.0
 30
0.0
  3
*D12
  1

  0
LINE
  5
C7
100
AcDbEntity
  8
0
370
              -2
390
0
  6
Continuous
 62
               0
100
AcDbLine
 10
551.27428586007591
 20
-995.67909011014808
 30
0.0
 11
771.93233307994524
 21
-995.67909011014808
 31
0.0
  0
LINE
  5
C8
100
AcDbEntity
  8
0
370
              -2
390
0
  6
Continuous
 62
               0
100
AcDbLine
 10
696.93233307994524
 20
-365.67909011014979
 30
0.0
 11
771.93233307994524
 21
-365.67909011014979
 31
0.0
  0
LINE
  5
C9
100
AcDbEntity
  8
0
370
              -2
390
0
  6
Continuous
 62
               0
100
AcDbLine
 10
771.93233307994524
 20
-995.67909011014808
 30
0.0
 11
771.93233307994524
 21
-365.67909011014979
 31
0.0
  0
CIRCLE
  5
CA
102
{ACAD_REACTORS
330
CB
102
}
100
AcDbEntity
  8
0
370
              -2
390
0
  6
Continuous
 62
               0
100
AcDbCircle
 10
771.93233307994524
 20
-995.67909011014808
 30
0.0
 40
1.9998779296875
  0
HATCH
  5
CB
100
AcDbEntity
  8
0
370
              -2
390
0
  6
Continuous
 62
               0
100
AcDbHatch
 10
0.0
 20
0.0
 30
0.0
210
0.0
220
0.0
230
1.0
  2
SOLID
 70
               1
 71
               1
 91
        1
 92
        1
 93
        1
 72
               2
 10
771.93233307994524
 20
-995.67909011014808
 40
1.9998779296875
 50
0.0
 51
360.0
 73
               0
 97
        1
330
CA
 75
               0
 76
               1
 98
        1
 10
0.0
 20
0.0
  0
CIRCLE
  5
CC
102
{ACAD_REACTORS
330
CD
102
}
100
AcDbEntity
  8
0
370
              -2
390
0
  6
Continuous
 62
               0
100
AcDbCircle
 10
771.93233307994524
 20
-365.67909011014979
 30
0.0
 40
1.9998779296875
  0
HATCH
  5
CD
100
AcDbEntity
  8
0
370
              -2
390
0
  6
Continuous
 62
               0
100
AcDbHatch
 10
0.0
 20
0.0
 30
0.0
210
0.0
220
0.0
230
1.0
  2
SOLID
 70
               1
 71
               1
 91
        1
 92
        1
 93
        1
 72
               2
 10
771.93233307994524
 20
-365.67909011014979
 40
1.9998779296875
 50
0.0
 51
360.0
 73
               0
 97
        1
330
CC
 75
               0
 76
               1
 98
        1
 10
0.0
 20
0.0
  0
MTEXT
  5
CE
100
AcDbEntity
  8
0
390
0
 62
               0
100
AcDbMText
 10
738.05471589244553
 20
-704.49159179232493
 30
0.0
 40
24.432617187500004
 41
0.0
 71
               1
 72
               1
  1
630
  7
ＭＳ ゴシック
 11
0.0
 21
1.0
 31
0.0
 73
               1
 44
0.7828267384257843
  0
POINT
  5
CF
100
AcDbEntity
  8
Defpoints
370
               0
390
0
 62
               0
100
AcDbPoint
 10
671.93233307994524
 20
-365.67909011014979
 30
0.0
  0
POINT
  5
D0
100
AcDbEntity
  8
Defpoints
370
               0
390
0
 62
               0
100
AcDbPoint
 10
526.27428586007591
 20
-995.67909011014808
 30
0.0
  0
POINT
  5
D1
100
AcDbEntity
  8
Defpoints
370
               0
390
0
 62
               0
100
AcDbPoint
 10
771.93233307994524
 20
-995.67909011014808
 30
0.0
  0
ENDBLK
  5
D2
100
AcDbEntity
  8
notes
390
0
100
AcDbBlockEnd
  0
BLOCK
  5
D3
100
AcDbEntity
  8
notes
390
0
100
AcDbBlockBegin
  2
*D13
 70
               1
 10
0.0
 20
0.0
 30
0.0
  3
*D13
  1

  0
LINE
  5
D4
100
AcDbEntity
  8
0
370
              -2
390
0
  6
Continuous
 62
               0
100
AcDbLine
 10
521.93233307994524
 20
124.66670217399519
 30
0.0
 11
521.93233307994524
 21
183.32038187048033
 31
0.0
  0
LINE
  5
D5
100
AcDbEntity
  8
0
370
              -2
390
0
  6
Continuous
 62
               0
100
AcDbLine
 10
671.93233307994524
 20
61.008243103496397
 30
0.0
 11
671.93233307994524
 21
183.32038187048033
 31
0.0
  0
LINE
  5
D6
100
AcDbEntity
  8
0
370
              -2
390
0
  6
Continuous
 62
               0
100
AcDbLine
 10
521.93233307994524
 20
183.32038187048033
 30
0.0
 11
671.93233307994524
 21
183.32038187048033
 31
0.0
  0
CIRCLE
  5
D7
102
{ACAD_REACTORS
330
D8
102
}
100
AcDbEntity
  8
0
370
              -2
390
0
  6
Continuous
 62
               0
100
AcDbCircle
 10
521.93233307994524
 20
183.32038187048033
 30
0.0
 40
1.9998779296875
  0
HATCH
  5
D8
100
AcDbEntity
  8
0
370
              -2
390
0
  6
Continuous
 62
               0
100
AcDbHatch
 10
0.0
 20
0.0
 30
0.0
210
0.0
220
0.0
230
1.0
  2
SOLID
 70
               1
 71
               1
 91
        1
 92
        1
 93
        1
 72
               2
 10
521.93233307994524
 20
183.32038187048033
 40
1.9998779296875
 50
0.0
 51
360.0
 73
               0
 97
        1
330
D7
 75
               0
 76
               1
 98
        1
 10
0.0
 20
0.0
  0
CIRCLE
  5
D9
102
{ACAD_REACTORS
330
DA
102
}
100
AcDbEntity
  8
0
370
              -2
390
0
  6
Continuous
 62
               0
100
AcDbCircle
 10
671.93233307994524
 20
183.32038187048033
 30
0.0
 40
1.9998779296875
  0
HATCH
  5
DA
100
AcDbEntity
  8
0
370
              -2
390
0
  6
Continuous
 62
               0
100
AcDbHatch
 10
0.0
 20
0.0
 30
0.0
210
0.0
220
0.0
230
1.0
  2
SOLID
 70
               1
 71
               1
 91
        1
 92
        1
 93
        1
 72
               2
 10
671.93233307994524
 20
183.32038187048033
 40
1.9998779296875
 50
0.0
 51
360.0
 73
               0
 97
        1
330
D9
 75
               0
 76
               1
 98
        1
 10
0.0
 20
0.0
  0
MTEXT
  5
DB
100
AcDbEntity
  8
0
390
0
 62
               0
100
AcDbMText
 10
573.1198313977693
 20
217.19799905798027
 30
0.0
 40
24.432617187500004
 41
0.0
 71
               1
 72
               1
  1
150
  7
ＭＳ ゴシック
 73
               1
 44
0.7828267384257843
  0
POINT
  5
DC
100
AcDbEntity
  8
Defpoints
370
               0
390
0
 62
               0
100
AcDbPoint
 10
671.93233307994524
 20
36.008243103496397
 30
0.0
  0
POINT
  5
DD
100
AcDbEntity
  8
Defpoints
370
               0
390
0
 62
               0
100
AcDbPoint
 10
521.93233307994524
 20
99.666702173995191
 30
0.0
  0
POINT
  5
DE
100
AcDbEntity
  8
Defpoints
370
               0
390
0
 62
               0
100
AcDbPoint
 10
521.93233307994524
 20
183.32038187048033
 30
0.0
  0
ENDBLK
  5
DF
100
AcDbEntity
  8
notes
390
0
100
AcDbBlockEnd
  0
BLOCK
  5
E0
100
AcDbEntity
  8
notes
390
0
100
AcDbBlockBegin
  2
*D14
 70
               1
 10
0.0
 20
0.0
 30
0.0
  3
*D14
  1

  0
LINE
  5
E1
100
AcDbEntity
  8
0
370
              -2
390
0
  6
Continuous
 62
               0
100
AcDbLine
 10
-317.66011420297946
 20
947.03324302977444
 30
0.0
 11
-107.69945886061396
 21
947.03324302977444
 31
0.0
  0
LINE
  5
E2
100
AcDbEntity
  8
0
370
              -2
390
0
  6
Continuous
 62
               0
100
AcDbLine
 10
-317.66011420297946
 20
347.03324302977444
 30
0.0
 11
-107.69945886061396
 21
347.03324302977444
 31
0.0
  0
LINE
  5
E3
100
AcDbEntity
  8
0
370
              -2
390
0
  6
Continuous
 62
               0
100
AcDbLine
 10
-107.69945886061396
 20
947.03324302977444
 30
0.0
 11
-107.69945886061396
 21
347.03324302977444
 31
0.0
  0
CIRCLE
  5
E4
102
{ACAD_REACTORS
330
E5
102
}
100
AcDbEntity
  8
0
370
              -2
390
0
  6
Continuous
 62
               0
100
AcDbCircle
 10
-107.69945886061396
 20
947.03324302977444
 30
0.0
 40
1.9998779296875
  0
HATCH
  5
E5
100
AcDbEntity
  8
0
370
              -2
390
0
  6
Continuous
 62
               0
100
AcDbHatch
 10
0.0
 20
0.0
 30
0.0
210
0.0
220
0.0
230
1.0
  2
SOLID
 70
               1
 71
               1
 91
        1
 92
        1
 93
        1
 72
               2
 10
-107.69945886061396
 20
947.03324302977444
 40
1.9998779296875
 50
0.0
 51
360.0
 73
               0
 97
        1
330
E4
 75
               0
 76
               1
 98
        1
 10
0.0
 20
0.0
  0
CIRCLE
  5
E6
102
{ACAD_REACTORS
330
E7
102
}
100
AcDbEntity
  8
0
370
              -2
390
0
  6
Continuous
 62
               0
100
AcDbCircle
 10
-107.69945886061396
 20
347.03324302977444
 30
0.0
 40
1.9998779296875
  0
HATCH
  5
E7
100
AcDbEntity
  8
0
370
              -2
390
0
  6
Continuous
 62
               0
100
AcDbHatch
 10
0.0
 20
0.0
 30
0.0
210
0.0
220
0.0
230
1.0
  2
SOLID
 70
               1
 71
               1
 91
        1
 92
        1
 93
        1
 72
               2
 10
-107.69945886061396
 20
347.03324302977444
 40
1.9998779296875
 50
0.0
 51
360.0
 73
               0
 97
        1
330
E6
 75
               0
 76
               1
 98
        1
 10
0.0
 20
0.0
  0
MTEXT
  5
E8
100
AcDbEntity
  8
0
390
0
 62
               0
100
AcDbMText
 10
-141.57707604811367
 20
623.22074134759896
 30
0.0
 40
24.432617187500004
 41
0.0
 71
               1
 72
               1
  1
600
  7
ＭＳ ゴシック
 11
0.0
 21
1.0
 31
0.0
 73
               1
 44
0.7828267384257843
  0
POINT
  5
E9
100
AcDbEntity
  8
Defpoints
370
               0
390
0
 62
               0
100
AcDbPoint
 10
-342.66011420297946
 20
347.03324302977444
 30
0.0
  0
POINT
  5
EA
100
AcDbEntity
  8
Defpoints
370
               0
390
0
 62
               0
100
AcDbPoint
 10
-342.66011420297946
 20
947.03324302977444
 30
0.0
  0
POINT
  5
EB
100
AcDbEntity
  8
Defpoints
370
               0
390
0
 62
               0
100
AcDbPoint
 10
-107.69945886061396
 20
947.03324302977444
 30
0.0
  0
ENDBLK
  5
EC
100
AcDbEntity
  8
notes
390
0
100
AcDbBlockEnd
  0
BLOCK
  5
ED
100
AcDbEntity
  8
notes
390
0
100
AcDbBlockBegin
  2
*D15
 70
               1
 10
0.0
 20
0.0
 30
0.0
  3
*D15
  1

  0
LINE
  5
EE
100
AcDbEntity
  8
0
370
              -2
390
0
  6
Continuous
 62
               0
100
AcDbLine
 10
-317.66011420297946
 20
347.03324302977444
 30
0.0
 11
-107.69945886061396
 21
347.03324302977444
 31
0.0
  0
LINE
  5
EF
100
AcDbEntity
  8
0
370
              -2
390
0
  6
Continuous
 62
               0
100
AcDbLine
 10
-370.00522863902006
 20
247.03324302977421
 30
0.0
 11
-107.69945886061396
 21
247.03324302977421
 31
0.0
  0
LINE
  5
F0
100
AcDbEntity
  8
0
370
              -2
390
0
  6
Continuous
 62
               0
100
AcDbLine
 10
-107.69945886061396
 20
347.03324302977444
 30
0.0
 11
-107.69945886061396
 21
247.03324302977421
 31
0.0
  0
CIRCLE
  5
F1
102
{ACAD_REACTORS
330
F2
102
}
100
AcDbEntity
  8
0
370
              -2
390
0
  6
Continuous
 62
               0
100
AcDbCircle
 10
-107.69945886061396
 20
347.03324302977444
 30
0.0
 40
1.9998779296875
  0
HATCH
  5
F2
100
AcDbEntity
  8
0
370
              -2
390
0
  6
Continuous
 62
               0
100
AcDbHatch
 10
0.0
 20
0.0
 30
0.0
210
0.0
220
0.0
230
1.0
  2
SOLID
 70
               1
 71
               1
 91
        1
 92
        1
 93
        1
 72
               2
 10
-107.69945886061396
 20
347.03324302977444
 40
1.9998779296875
 50
0.0
 51
360.0
 73
               0
 97
        1
330
F1
 75
               0
 76
               1
 98
        1
 10
0.0
 20
0.0
  0
CIRCLE
  5
F3
102
{ACAD_REACTORS
330
F4
102
}
100
AcDbEntity
  8
0
370
              -2
390
0
  6
Continuous
 62
               0
100
AcDbCircle
 10
-107.69945886061396
 20
247.03324302977421
 30
0.0
 40
1.9998779296875
  0
HATCH
  5
F4
100
AcDbEntity
  8
0
370
              -2
390
0
  6
Continuous
 62
               0
100
AcDbHatch
 10
0.0
 20
0.0
 30
0.0
210
0.0
220
0.0
230
1.0
  2
SOLID
 70
               1
 71
               1
 91
        1
 92
        1
 93
        1
 72
               2
 10
-107.69945886061396
 20
247.03324302977421
 40
1.9998779296875
 50
0.0
 51
360.0
 73
               0
 97
        1
330
F3
 75
               0
 76
               1
 98
        1
 10
0.0
 20
0.0
  0
MTEXT
  5
F5
100
AcDbEntity
  8
0
390
0
 62
               0
100
AcDbMText
 10
-141.57707604811367
 20
273.22074134759896
 30
0.0
 40
24.432617187500004
 41
0.0
 71
               1
 72
               1
  1
100
  7
ＭＳ ゴシック
 11
0.0
 21
1.0
 31
0.0
 73
               1
 44
0.7828267384257843
  0
POINT
  5
F6
100
AcDbEntity
  8
Defpoints
370
               0
390
0
 62
               0
100
AcDbPoint
 10
-395.00522863902006
 20
247.03324302977421
 30
0.0
  0
POINT
  5
F7
100
AcDbEntity
  8
Defpoints
370
               0
390
0
 62
               0
100
AcDbPoint
 10
-342.66011420297946
 20
347.03324302977444
 30
0.0
  0
POINT
  5
F8
100
AcDbEntity
  8
Defpoints
370
               0
390
0
 62
               0
100
AcDbPoint
 10
-107.69945886061396
 20
347.03324302977444
 30
0.0
  0
ENDBLK
  5
F9
100
AcDbEntity
  8
notes
390
0
100
AcDbBlockEnd
  0
BLOCK
  5
FA
100
AcDbEntity
  8
notes
390
0
100
AcDbBlockBegin
  2
*D16
 70
               1
 10
0.0
 20
0.0
 30
0.0
  3
*D16
  1

  0
LINE
  5
FB
100
AcDbEntity
  8
0
370
              -2
390
0
  6
Continuous
 62
               0
100
AcDbLine
 10
-442.66011420297946
 20
972.03324302977444
 30
0.0
 11
-442.66011420297946
 21
1047.0332430297744
 31
0.0
  0
LINE
  5
FC
100
AcDbEntity
  8
0
370
              -2
390
0
  6
Continuous
 62
               0
100
AcDbLine
 10
-342.66011420297946
 20
972.03324302977444
 30
0.0
 11
-342.66011420297946
 21
1047.0332430297744
 31
0.0
  0
LINE
  5
FD
100
AcDbEntity
  8
0
370
              -2
390
0
  6
Continuous
 62
               0
100
AcDbLine
 10
-442.66011420297946
 20
1047.0332430297744
 30
0.0
 11
-342.66011420297946
 21
1047.0332430297744
 31
0.0
  0
CIRCLE
  5
FE
102
{ACAD_REACTORS
330
FF
102
}
100
AcDbEntity
  8
0
370
              -2
390
0
  6
Continuous
 62
               0
100
AcDbCircle
 10
-442.66011420297946
 20
1047.0332430297744
 30
0.0
 40
1.9998779296875
  0
HATCH
  5
FF
100
AcDbEntity
  8
0
370
              -2
390
0
  6
Continuous
 62
               0
100
AcDbHatch
 10
0.0
 20
0.0
 30
0.0
210
0.0
220
0.0
230
1.0
  2
SOLID
 70
               1
 71
               1
 91
        1
 92
        1
 93
        1
 72
               2
 10
-442.66011420297946
 20
1047.0332430297744
 40
1.9998779296875
 50
0.0
 51
360.0
 73
               0
 97
        1
330
FE
 75
               0
 76
               1
 98
        1
 10
0.0
 20
0.0
  0
CIRCLE
  5
100
102
{ACAD_REACTORS
330
101
102
}
100
AcDbEntity
  8
0
370
              -2
390
0
  6
Continuous
 62
               0
100
AcDbCircle
 10
-342.66011420297946
 20
1047.0332430297744
 30
0.0
 40
1.9998779296875
  0
HATCH
  5
101
100
AcDbEntity
  8
0
370
              -2
390
0
  6
Continuous
 62
               0
100
AcDbHatch
 10
0.0
 20
0.0
 30
0.0
210
0.0
220
0.0
230
1.0
  2
SOLID
 70
               1
 71
               1
 91
        1
 92
        1
 93
        1
 72
               2
 10
-342.66011420297946
 20
1047.0332430297744
 40
1.9998779296875
 50
0.0
 51
360.0
 73
               0
 97
        1
330
100
 75
               0
 76
               1
 98
        1
 10
0.0
 20
0.0
  0
MTEXT
  5
102
100
AcDbEntity
  8
0
390
0
 62
               0
100
AcDbMText
 10
-416.47261588515539
 20
1080.9108602172746
 30
0.0
 40
24.432617187500004
 41
0.0
 71
               1
 72
               1
  1
100
  7
ＭＳ ゴシック
 73
               1
 44
0.7828267384257843
  0
POINT
  5
103
100
AcDbEntity
  8
Defpoints
370
               0
390
0
 62
               0
100
AcDbPoint
 10
-342.66011420297946
 20
947.03324302977444
 30
0.0
  0
POINT
  5
104
100
AcDbEntity
  8
Defpoints
370
               0
390
0
 62
               0
100
AcDbPoint
 10
-442.66011420297946
 20
947.03324302977444
 30
0.0
  0
POINT
  5
105
100
AcDbEntity
  8
Defpoints
370
               0
390
0
 62
               0
100
AcDbPoint
 10
-442.66011420297946
 20
1047.0332430297744
 30
0.0
  0
ENDBLK
  5
106
100
AcDbEntity
  8
notes
390
0
100
AcDbBlockEnd
  0
BLOCK
  5
107
100
AcDbEntity
  8
notes
390
0
100
AcDbBlockBegin
  2
*D17
 70
               1
 10
0.0
 20
0.0
 30
0.0
  3
*D17
  1

  0
LINE
  5
108
100
AcDbEntity
  8
0
370
              -2
390
0
  6
Continuous
 62
               0
100
AcDbLine
 10
-442.39368908220422
 20
103.98629372267897
 30
0.0
 11
-677.69945886061032
 21
103.98629372267897
 31
0.0
  0
LINE
  5
109
100
AcDbEntity
  8
0
370
              -2
390
0
  6
Continuous
 62
               0
100
AcDbLine
 10
-442.39368908220422
 20
-996.01370627732172
 30
0.0
 11
-677.69945886061032
 21
-996.01370627732172
 31
0.0
  0
LINE
  5
10A
100
AcDbEntity
  8
0
370
              -2
390
0
  6
Continuous
 62
               0
100
AcDbLine
 10
-677.69945886061032
 20
103.98629372267897
 30
0.0
 11
-677.69945886061032
 21
-996.01370627732172
 31
0.0
  0
CIRCLE
  5
10B
102
{ACAD_REACTORS
330
10C
102
}
100
AcDbEntity
  8
0
370
              -2
390
0
  6
Continuous
 62
               0
100
AcDbCircle
 10
-677.69945886061032
 20
103.98629372267897
 30
0.0
 40
1.9998779296875
  0
HATCH
  5
10C
100
AcDbEntity
  8
0
370
              -2
390
0
  6
Continuous
 62
               0
100
AcDbHatch
 10
0.0
 20
0.0
 30
0.0
210
0.0
220
0.0
230
1.0
  2
SOLID
 70
               1
 71
               1
 91
        1
 92
        1
 93
        1
 72
               2
 10
-677.69945886061032
 20
103.98629372267897
 40
1.9998779296875
 50
0.0
 51
360.0
 73
               0
 97
        1
330
10B
 75
               0
 76
               1
 98
        1
 10
0.0
 20
0.0
  0
CIRCLE
  5
10D
102
{ACAD_REACTORS
330
10E
102
}
100
AcDbEntity
  8
0
370
              -2
390
0
  6
Continuous
 62
               0
100
AcDbCircle
 10
-677.69945886061032
 20
-996.01370627732172
 30
0.0
 40
1.9998779296875
  0
HATCH
  5
10E
100
AcDbEntity
  8
0
370
              -2
390
0
  6
Continuous
 62
               0
100
AcDbHatch
 10
0.0
 20
0.0
 30
0.0
210
0.0
220
0.0
230
1.0
  2
SOLID
 70
               1
 71
               1
 91
        1
 92
        1
 93
        1
 72
               2
 10
-677.69945886061032
 20
-996.01370627732172
 40
1.9998779296875
 50
0.0
 51
360.0
 73
               0
 97
        1
330
10D
 75
               0
 76
               1
 98
        1
 10
0.0
 20
0.0
  0
MTEXT
  5
10F
100
AcDbEntity
  8
0
390
0
 62
               0
100
AcDbMText
 10
-711.57707604811003
 20
-426.96370627732131
 30
0.0
 40
24.432617187500004
 41
0.0
 71
               1
 72
               1
  1
1100
  7
ＭＳ ゴシック
 11
0.0
 21
1.0
 31
0.0
 73
               1
 44
0.7828267384257843
  0
POINT
  5
110
100
AcDbEntity
  8
Defpoints
370
               0
390
0
 62
               0
100
AcDbPoint
 10
-417.39368908220422
 20
-996.01370627732172
 30
0.0
  0
POINT
  5
111
100
AcDbEntity
  8
Defpoints
370
               0
390
0
 62
               0
100
AcDbPoint
 10
-417.39368908220422
 20
103.98629372267897
 30
0.0
  0
POINT
  5
112
100
AcDbEntity
  8
Defpoints
370
               0
390
0
 62
               0
100
AcDbPoint
 10
-677.69945886061032
 20
103.98629372267897
 30
0.0
  0
ENDBLK
  5
113
100
AcDbEntity
  8
notes
390
0
100
AcDbBlockEnd
  0
BLOCK
  5
114
100
AcDbEntity
  8
notes
390
0
100
AcDbBlockBegin
  2
*D18
 70
               1
 10
0.0
 20
0.0
 30
0.0
  3
*D18
  1

  0
LINE
  5
115
100
AcDbEntity
  8
0
370
              -2
390
0
  6
Continuous
 62
               0
100
AcDbLine
 10
-182.69945886061032
 20
-811.01345358753292
 30
0.0
 11
-107.69945886061032
 21
-811.01345358753292
 31
0.0
  0
LINE
  5
116
100
AcDbEntity
  8
0
370
              -2
390
0
  6
Continuous
 62
               0
100
AcDbLine
 10
-274.82847391724135
 20
78.986484398855055
 30
0.0
 11
-107.69945886061032
 21
78.986484398855055
 31
0.0
  0
LINE
  5
117
100
AcDbEntity
  8
0
370
              -2
390
0
  6
Continuous
 62
               0
100
AcDbLine
 10
-107.69945886061032
 20
-811.01345358753292
 30
0.0
 11
-107.69945886061032
 21
78.986484398855055
 31
0.0
  0
CIRCLE
  5
118
102
{ACAD_REACTORS
330
119
102
}
100
AcDbEntity
  8
0
370
              -2
390
0
  6
Continuous
 62
               0
100
AcDbCircle
 10
-107.69945886061032
 20
-811.01345358753292
 30
0.0
 40
1.9998779296875
  0
HATCH
  5
119
100
AcDbEntity
  8
0
370
              -2
390
0
  6
Continuous
 62
               0
100
AcDbHatch
 10
0.0
 20
0.0
 30
0.0
210
0.0
220
0.0
230
1.0
  2
SOLID
 70
               1
 71
               1
 91
        1
 92
        1
 93
        1
 72
               2
 10
-107.69945886061032
 20
-811.01345358753292
 40
1.9998779296875
 50
0.0
 51
360.0
 73
               0
 97
        1
330
118
 75
               0
 76
               1
 98
        1
 10
0.0
 20
0.0
  0
CIRCLE
  5
11A
102
{ACAD_REACTORS
330
11B
102
}
100
AcDbEntity
  8
0
370
              -2
390
0
  6
Continuous
 62
               0
100
AcDbCircle
 10
-107.69945886061032
 20
78.986484398855055
 30
0.0
 40
1.9998779296875
  0
HATCH
  5
11B
100
AcDbEntity
  8
0
370
              -2
390
0
  6
Continuous
 62
               0
100
AcDbHatch
 10
0.0
 20
0.0
 30
0.0
210
0.0
220
0.0
230
1.0
  2
SOLID
 70
               1
 71
               1
 91
        1
 92
        1
 93
        1
 72
               2
 10
-107.69945886061032
 20
78.986484398855055
 40
1.9998779296875
 50
0.0
 51
360.0
 73
               0
 97
        1
330
11A
 75
               0
 76
               1
 98
        1
 10
0.0
 20
0.0
  0
MTEXT
  5
11C
100
AcDbEntity
  8
0
390
0
 62
               0
100
AcDbMText
 10
-141.57707604811003
 20
-389.82598627651441
 30
0.0
 40
24.432617187500004
 41
0.0
 71
               1
 72
               1
  1
890
  7
ＭＳ ゴシック
 11
0.0
 21
1.0
 31
0.0
 73
               1
 44
0.7828267384257843
  0
POINT
  5
11D
100
AcDbEntity
  8
Defpoints
370
               0
390
0
 62
               0
100
AcDbPoint
 10
-299.82847391724135
 20
78.986484398855055
 30
0.0
  0
POINT
  5
11E
100
AcDbEntity
  8
Defpoints
370
               0
390
0
 62
               0
100
AcDbPoint
 10
-207.69945886061032
 20
-811.01345358753292
 30
0.0
  0
POINT
  5
11F
100
AcDbEntity
  8
Defpoints
370
               0
390
0
 62
               0
100
AcDbPoint
 10
-107.69945886061032
 20
-811.01345358753292
 30
0.0
  0
ENDBLK
  5
120
100
AcDbEntity
  8
notes
390
0
100
AcDbBlockEnd
  0
ENDSEC
  0
SECTION
  2
ENTITIES
  0
MTEXT
  5
121
100
AcDbEntity
  8
template
390
0
 62
               7
100
AcDbMText
 10
-967.99999999975989
 20
-1147.4176292337006
 30
0.0
 40
16.288411458333332
 41
0.0
 71
               1
 72
               1
  1
品名
  7
ＭＳ ゴシック
 73
               1
 44
0.7828267384257843
  0
MTEXT
  5
122
100
AcDbEntity
  8
template
390
0
 62
               7
100
AcDbMText
 10
-967.99999999975989
 20
-1232.4176292337004
 30
0.0
 40
16.288411458333332
 41
0.0
 71
               1
 72
               1
  1
仕様
  7
ＭＳ ゴシック
 73
               1
 44
0.7828267384257843
  0
MTEXT
  5
123
100
AcDbEntity
  8
template
390
0
 62
               7
100
AcDbMText
 10
-914.99999999975989
 20
-1176.0000901712006
 30
0.0
 40
24.432617187500004
 41
0.0
 71
               1
 72
               1
  1
洗面器･手洗器 -CATALANO,C-
  7
ＭＳ ゴシック
 73
               1
 44
0.7828267384257843
  0
LINE
  5
124
100
AcDbEntity
  8
template
370
               5
390
0
  6
Continuous
 62
               7
100
AcDbLine
 10
974.99999999975989
 20
-1224.0027073587005
 30
0.0
 11
-975.00000000024011
 21
-1224.0027073587005
 31
0.0
  0
LWPOLYLINE
  5
125
100
AcDbEntity
  8
template
370
               5
390
0
  6
Continuous
 62
               7
100
AcDbPolyline
 90
        5
 70
             128
 10
975.00000000024011
 20
1405.9972926412993
 10
-974.99999999975989
 20
1405.9972926412993
 10
-974.99999999975989
 20
-1394.0027073587005
 10
975.00000000024011
 20
-1394.0027073587005
 10
975.00000000024011
 20
1405.9972926412993
  0
LINE
  5
126
100
AcDbEntity
  8
template
370
               5
390
0
  6
Continuous
 62
               7
100
AcDbLine
 10
974.99999999975989
 20
-1139.0027073587005
 30
0.0
 11
-975.00000000024011
 21
-1139.0027073587005
 31
0.0
  0
LINE
  5
127
100
AcDbEntity
  8
template
370
               5
390
0
  6
Continuous
 62
               7
100
AcDbLine
 10
975.00000000024011
 20
-1309.0027073587005
 30
0.0
 11
222.00000000024011
 21
-1309.0027073587005
 31
0.0
  0
MTEXT
  5
128
100
AcDbEntity
  8
template
390
0
 62
               7
100
AcDbMText
 10
-974.99999999955617
 20
-1405.8565294155574
 30
0.0
 40
21.717881944444446
 41
0.0
 71
               1
 72
               1
  1
100707SH
  7
ＭＳ ゴシック
 73
               1
 44
0.7828267384257843
  0
MTEXT
  5
129
100
AcDbEntity
  8
template
390
0
 62
               7
100
AcDbMText
 10
251.87140625249958
 20
-1338.9131018320081
 30
0.0
 40
24.432617187500004
 41
0.0
 71
               1
 72
               1
  1
大洋金物株式会社 ティーフォルム事業部
  7
ＭＳ ゴシック
 73
               1
 44
0.7828267384257843
  0
INSERT
  5
12A
100
AcDbEntity
  8
template
390
0
 62
               7
100
AcDbBlockReference
  2
グループ
 10
18292.453807926478
 20
-1243.0812889161334
 30
0.0
  0
MTEXT
  5
12B
100
AcDbEntity
  8
template
390
0
 62
               7
100
AcDbMText
 10
784.0000000004984
 20
-1261.0000901712006
 30
0.0
 40
24.432617187500004
 41
0.0
 71
               1
 72
               1
  1
1:10
  7
ＭＳ ゴシック
 73
               1
 44
0.7828267384257843
  0
MTEXT
  5
12C
100
AcDbEntity
  8
template
390
0
 62
               7
100
AcDbMText
 10
731.0000000004984
 20
-1232.4176292337004
 30
0.0
 40
16.288411458333332
 41
0.0
 71
               1
 72
               1
  1
縮尺
  7
ＭＳ ゴシック
 73
               1
 44
0.7828267384257843
  0
LINE
  5
12D
100
AcDbEntity
  8
template
370
               5
390
0
  6
Continuous
 62
               7
100
AcDbLine
 10
724.0000000004984
 20
-1309.0027073587005
 30
0.0
 11
724.0000000004984
 21
-1224.0027073587005
 31
0.0
  0
MTEXT
  5
12E
100
AcDbEntity
  8
template
390
0
 62
               7
100
AcDbMText
 10
480.0000000004984
 20
-1232.4176292337004
 30
0.0
 40
16.288411458333332
 41
0.0
 71
               1
 72
               1
  1
容量
  7
ＭＳ ゴシック
 73
               1
 44
0.7828267384257843
  0
MTEXT
  5
12F
100
AcDbEntity
  8
template
390
0
 62
               7
100
AcDbMText
 10
533.0000000004984
 20
-1261.0000901712006
 30
0.0
 40
24.432617187500004
 41
0.0
 71
               1
 72
               1
  1
22.4L
  7
ＭＳ ゴシック
 73
               1
 44
0.7828267384257843
  0
LINE
  5
130
100
AcDbEntity
  8
template
370
               5
390
0
  6
Continuous
 62
               7
100
AcDbLine
 10
473.0000000004984
 20
-1309.0027073587005
 30
0.0
 11
473.0000000004984
 21
-1224.0027073587005
 31
0.0
  0
MTEXT
  5
131
100
AcDbEntity
  8
template
390
0
 62
               7
100
AcDbMText
 10
229.0000000004984
 20
-1147.4176292337006
 30
0.0
 40
16.288411458333332
 41
0.0
 71
               1
 72
               1
  1
品番
  7
ＭＳ ゴシック
 73
               1
 44
0.7828267384257843
  0
MTEXT
  5
132
100
AcDbEntity
  8
template
390
0
 62
               7
100
AcDbMText
 10
229.0000000004984
 20
-1232.4176292337004
 30
0.0
 40
16.288411458333332
 41
0.0
 71
               1
 72
               1
  1
重量
  7
ＭＳ ゴシック
 73
               1
 44
0.7828267384257843
  0
MTEXT
  5
133
100
AcDbEntity
  8
template
390
0
 62
               7
100
AcDbMText
 10
282.0000000004984
 20
-1176.0000901712006
 30
0.0
 40
24.432617187500004
 41
0.0
 71
               1
 72
               1
  1
ADF70-1304
  7
ＭＳ ゴシック
 73
               1
 44
0.7828267384257843
  0
MTEXT
  5
134
100
AcDbEntity
  8
template
390
0
 62
               7
100
AcDbMText
 10
282.0000000004984
 20
-1261.0000901712006
 30
0.0
 40
24.432617187500004
 41
0.0
 71
               1
 72
               1
  1
24kg
  7
ＭＳ ゴシック
 73
               1
 44
0.7828267384257843
  0
LINE
  5
135
100
AcDbEntity
  8
template
370
               5
390
0
  6
Continuous
 62
               7
100
AcDbLine
 10
222.0000000004984
 20
-1394.0027073587005
 30
0.0
 11
222.0000000004984
 21
-1139.0027073587005
 31
0.0
  0
MTEXT
  5
136
100
AcDbEntity
  8
template
390
0
 62
               7
100
AcDbMText
 10
-914.99999999975989
 20
-1261.0000901712006
 30
0.0
 40
24.432617187500004
 41
0.0
 71
               1
 72
               1
  1
カウンター置き/オーバーフローなし/\P陶器/ホワイト
  7
ＭＳ ゴシック
 73
               1
 44
1.3047112307096407
  0
MTEXT
  5
137
100
AcDbEntity
  8
notes
390
0
 62
               7
100
AcDbMText
 10
84.664049479164532
 20
-807.81792637035142
 30
0.0
 40
24.432617187500004
 41
834.88315656391501
 71
               1
 72
               1
  1
＝φ30もしくはφ35の水栓取付用穴あけ加工を承ります。\P   必要な場合、ご注文の際にご指示ください。
  7
ＭＳ ゴシック
 11
0.0
 21
1.0
 31
0.0
 73
               1
 44
1.0437689845677123
  0
MTEXT
  5
138
100
AcDbEntity
  8
notes
390
0
 62
               7
100
AcDbMText
 10
-791.37613882022924
 20
654.95567335690339
 30
0.0
 40
24.432617187500004
 41
0.0
 71
               1
 72
               1
  1
カウンター切込寸法
  7
ＭＳ ゴシック
 11
0.0
 21
1.0
 31
0.0
 73
               1
 44
0.7828267384257843
  0
CIRCLE
  5
139
100
AcDbEntity
  8
notes
370
              15
390
0
  6
STYLE_01
 62
               7
100
AcDbCircle
 10
94.777377900605643
 20
-833.87963337035171
 30
0.0
 40
17.499999999999886
  0
DIMENSION
  5
13A
100
AcDbEntity
  8
notes
370
               5
390
0
  6
Continuous
 62
               7
100
AcDbDimension
  2
*D4
 10
817.93233307994524
 20
43.986293722678965
 30
0.0
 11
817.93233307994524
 21
-446.01370627732126
 31
0.0
 71
               5
 72
               1
 41
1.0
 42
0.0
  3
tform線あり
100
AcDbAlignedDimension
 13
671.93233307994524
 23
-936.01370627732149
 33
0.0
 14
671.93233307994524
 24
43.986293722678965
 34
0.0
 50
90.0
100
AcDbRotatedDimension
1001
ACAD
1000
DSTYLE
1002
{
1070
             279
1070
               2
1070
             340
1005
33
1070
             147
1040
5.0
1002
}
  0
DIMENSION
  5
13B
100
AcDbEntity
  8
notes
370
               5
390
0
  6
Continuous
 62
               7
100
AcDbDimension
  2
*D5
 10
771.93233307994524
 20
913.39293422502897
 30
0.0
 11
771.93233307994524
 21
790.89293422502897
 31
0.0
 71
               5
 72
               1
 41
1.0
 42
0.0
  3
tform線あり
100
AcDbAlignedDimension
 13
671.53035364074094
 23
668.39293422502897
 33
0.0
 14
671.53035364074094
 24
913.39293422502897
 34
0.0
 50
90.0
100
AcDbRotatedDimension
1001
ACAD
1000
DSTYLE
1002
{
1070
             279
1070
               2
1070
             340
1005
33
1070
             147
1040
5.0
1002
}
  0
DIMENSION
  5
13C
100
AcDbEntity
  8
notes
370
               5
390
0
  6
Continuous
 62
               7
100
AcDbDimension
  2
*D6
 10
521.53035364074094
 20
788.03637017565279
 30
0.0
 11
504.49677886463178
 21
793.03637017565279
 31
0.0
 70
             128
 71
               5
 72
               1
 41
1.0
 42
0.0
  3
tform線あり
100
AcDbAlignedDimension
 13
641.53035364074094
 23
790.99470350898605
 33
0.0
 14
521.53035364074094
 24
790.99470350898605
 34
0.0
100
AcDbRotatedDimension
1001
ACAD
1000
DSTYLE
1002
{
1070
             279
1070
               2
1070
             340
1005
33
1070
               3
1000
<>(深さ)
1070
             174
1070
               0
1070
             147
1040
5.0
1002
}
  0
MTEXT
  5
13D
100
AcDbEntity
  8
notes
390
0
 62
               7
100
AcDbMText
 10
84.664049479164532
 20
369.42121876401779
 30
0.0
 40
24.432617187500004
 41
764.7717154610109
 71
               1
 72
               1
  1
※陶器製品には寸法公差があります。\P  洗面器の収め方をご確認の上、必ず現物を合わせて\P  カウンターに切込を行ってください。
  7
ＭＳ ゴシック
 11
0.0
 21
1.0
 31
0.0
 73
               1
 44
1.0437689845677123
  0
DIMENSION
  5
13E
100
AcDbEntity
  8
notes
370
               5
390
0
  6
Continuous
 62
               7
100
AcDbDimension
  2
*D7
 10
-442.66011420297946
 20
1047.0332430297744
 30
0.0
 11
-510.17978653179671
 21
1047.0332430297744
 31
0.0
 71
               5
 72
               1
 41
1.0
 42
0.0
  3
tform線あり
100
AcDbAlignedDimension
 13
-577.69945886061032
 23
947.03324302977444
 33
0.0
 14
-442.66011420297946
 24
947.03324302977444
 34
0.0
100
AcDbRotatedDimension
1001
ACAD
1000
DSTYLE
1002
{
1070
             279
1070
               2
1070
             340
1005
33
1070
             147
1040
5.0
1002
}
  0
DIMENSION
  5
13F
100
AcDbEntity
  8
notes
370
               5
390
0
  6
Continuous
 62
               7
100
AcDbDimension
  2
*D8
 10
-577.69945886061032
 20
183.32038187048033
 30
0.0
 11
-395.00522863902006
 21
188.32038187048033
 31
0.0
 70
             128
 71
               5
 72
               1
 41
1.0
 42
0.0
  3
tform線あり
100
AcDbAlignedDimension
 13
-207.69945886061032
 23
-56.013453587533832
 33
0.0
 14
-577.69945886061032
 24
-56.013453587533832
 34
0.0
100
AcDbRotatedDimension
1001
ACAD
1000
DSTYLE
1002
{
1070
             279
1070
               2
1070
             340
1005
33
1070
             147
1040
5.0
1002
}
  0
DIMENSION
  5
140
100
AcDbEntity
  8
notes
370
               5
390
0
  6
Continuous
 62
               7
100
AcDbDimension
  2
*D9
 10
-107.69945886061396
 20
-996.05360774212659
 30
0.0
 11
-107.69945886061396
 21
-903.53353066482964
 31
0.0
 71
               5
 72
               1
 41
1.0
 42
0.0
  3
tform線あり
100
AcDbAlignedDimension
 13
-197.91996004838438
 23
-811.01345358753292
 33
0.0
 14
-357.96011420297873
 24
-996.05360774212659
 34
0.0
 50
90.0
100
AcDbRotatedDimension
1001
ACAD
1000
DSTYLE
1002
{
1070
             279
1070
               2
1070
             340
1005
33
1070
             147
1040
5.0
1002
}
  0
DIMENSION
  5
141
100
AcDbEntity
  8
notes
370
               5
390
0
  6
Continuous
 62
               7
100
AcDbDimension
  2
*D10
 10
-552.69945886061032
 20
-1076.0137062773215
 30
0.0
 11
-392.69945886061032
 21
-1076.0137062773215
 31
0.0
 71
               5
 72
               1
 41
1.0
 42
0.0
  3
tform線あり
100
AcDbAlignedDimension
 13
-232.69945886061032
 23
-903.88439370617834
 33
0.0
 14
-552.69945886061032
 24
-903.8843937061788
 34
0.0
100
AcDbRotatedDimension
1001
ACAD
1000
DSTYLE
1002
{
1070
             279
1070
               2
1070
             340
1005
33
1070
             147
1040
5.0
1002
}
  0
DIMENSION
  5
142
100
AcDbEntity
  8
notes
370
               5
390
0
  6
Continuous
 62
               7
100
AcDbDimension
  2
*D11
 10
421.93233307994524
 20
-856.00691838594594
 30
0.0
 11
421.93233307994524
 21
-926.00691838594594
 31
0.0
 71
               5
 72
               1
 41
1.0
 42
0.0
  3
tform線あり
100
AcDbAlignedDimension
 13
521.93233307994524
 23
-996.00691838594616
 33
0.0
 14
521.93233307994524
 24
-856.00691838594594
 34
0.0
 50
90.0
100
AcDbRotatedDimension
1001
ACAD
1000
DSTYLE
1002
{
1070
             279
1070
               2
1070
             340
1005
33
1070
             147
1040
5.0
1002
}
  0
DIMENSION
  5
143
100
AcDbEntity
  8
notes
370
               5
390
0
  6
Continuous
 62
               7
100
AcDbDimension
  2
*D12
 10
771.93233307994524
 20
-995.67909011014808
 30
0.0
 11
776.93233307994524
 21
-680.67909011014945
 31
0.0
 70
             128
 71
               5
 72
               1
 41
1.0
 42
0.0
  3
tform線あり
100
AcDbAlignedDimension
 13
671.93233307994524
 23
-365.67909011014979
 33
0.0
 14
526.27428586007591
 24
-995.67909011014808
 34
0.0
 50
90.0
100
AcDbRotatedDimension
1001
ACAD
1000
DSTYLE
1002
{
1070
             279
1070
               2
1070
             340
1005
33
1070
             147
1040
5.0
1002
}
  0
DIMENSION
  5
144
100
AcDbEntity
  8
notes
370
               5
390
0
  6
Continuous
 62
               7
100
AcDbDimension
  2
*D13
 10
521.93233307994524
 20
183.32038187048033
 30
0.0
 11
596.93233307994524
 21
183.32038187048033
 31
0.0
 71
               5
 72
               1
 41
1.0
 42
0.0
  3
tform線あり
100
AcDbAlignedDimension
 13
671.93233307994524
 23
36.008243103496397
 33
0.0
 14
521.93233307994524
 24
99.666702173995191
 34
0.0
100
AcDbRotatedDimension
1001
ACAD
1000
DSTYLE
1002
{
1070
             279
1070
               2
1070
             340
1005
33
1070
             147
1040
5.0
1002
}
  0
DIMENSION
  5
145
100
AcDbEntity
  8
notes
370
               5
390
0
  6
Continuous
 62
               7
100
AcDbDimension
  2
*D14
 10
-107.69945886061396
 20
947.03324302977444
 30
0.0
 11
-107.69945886061396
 21
647.03324302977444
 31
0.0
 71
               5
 72
               1
 41
1.0
 42
0.0
  3
tform線あり
100
AcDbAlignedDimension
 13
-342.66011420297946
 23
347.03324302977444
 33
0.0
 14
-342.66011420297946
 24
947.03324302977444
 34
0.0
 50
90.0
100
AcDbRotatedDimension
1001
ACAD
1000
DSTYLE
1002
{
1070
             279
1070
               2
1070
             340
1005
33
1070
             147
1040
5.0
1002
}
  0
DIMENSION
  5
146
100
AcDbEntity
  8
notes
370
               5
390
0
  6
Continuous
 62
               7
100
AcDbDimension
  2
*D15
 10
-107.69945886061396
 20
347.03324302977444
 30
0.0
 11
-107.69945886061396
 21
297.03324302977444
 31
0.0
 71
               5
 72
               1
 41
1.0
 42
0.0
  3
tform線あり
100
AcDbAlignedDimension
 13
-395.00522863902006
 23
247.03324302977421
 33
0.0
 14
-342.66011420297946
 24
347.03324302977444
 34
0.0
 50
90.0
100
AcDbRotatedDimension
1001
ACAD
1000
DSTYLE
1002
{
1070
             279
1070
               2
1070
             340
1005
33
1070
             147
1040
5.0
1002
}
  0
DIMENSION
  5
147
100
AcDbEntity
  8
notes
370
               5
390
0
  6
Continuous
 62
               7
100
AcDbDimension
  2
*D16
 10
-442.66011420297946
 20
1047.0332430297744
 30
0.0
 11
-392.66011420297946
 21
1047.0332430297744
 31
0.0
 71
               5
 72
               1
 41
1.0
 42
0.0
  3
tform線あり
100
AcDbAlignedDimension
 13
-342.66011420297946
 23
947.03324302977444
 33
0.0
 14
-442.66011420297946
 24
947.03324302977444
 34
0.0
100
AcDbRotatedDimension
1001
ACAD
1000
DSTYLE
1002
{
1070
             279
1070
               2
1070
             340
1005
33
1070
             147
1040
5.0
1002
}
  0
DIMENSION
  5
148
100
AcDbEntity
  8
notes
370
               5
390
0
  6
Continuous
 62
               7
100
AcDbDimension
  2
*D17
 10
-677.69945886061032
 20
103.98629372267897
 30
0.0
 11
-682.69945886061032
 21
-395.21370627732131
 31
0.0
 70
             128
 71
               5
 72
               1
 41
1.0
 42
0.0
  3
tform線あり
100
AcDbAlignedDimension
 13
-417.39368908220422
 23
-996.01370627732172
 33
0.0
 14
-417.39368908220422
 24
103.98629372267897
 34
0.0
 50
90.0
100
AcDbRotatedDimension
1001
ACAD
1000
DSTYLE
1002
{
1070
             279
1070
               2
1070
             340
1005
33
1070
             147
1040
5.0
1002
}
  0
DIMENSION
  5
149
100
AcDbEntity
  8
notes
370
               5
390
0
  6
Continuous
 62
               7
100
AcDbDimension
  2
*D18
 10
-107.69945886061032
 20
-811.01345358753292
 30
0.0
 11
-107.69945886061032
 21
-366.01348459433893
 31
0.0
 71
               5
 72
               1
 41
1.0
 42
0.0
  3
tform線あり
100
AcDbAlignedDimension
 13
-299.82847391724135
 23
78.986484398855055
 33
0.0
 14
-207.69945886061032
 24
-811.01345358753292
 34
0.0
 50
90.0
100
AcDbRotatedDimension
1001
ACAD
1000
DSTYLE
1002
{
1070
             279
1070
               2
1070
             340
1005
33
1070
             147
1040
5.0
1002
}
  0
CIRCLE
  5
14A
100
AcDbEntity
  8
ADF70-1304
370
              15
390
0
  6
Continuous
 62
               7
100
AcDbCircle
 10
-392.69945886061032
 20
-365.99061816519736
 30
0.0
 40
37.5
  0
CIRCLE
  5
14B
100
AcDbEntity
  8
ADF70-1304
370
              15
390
0
  6
Continuous
 62
               7
100
AcDbCircle
 10
-392.69945886061032
 20
-365.99061816519736
 30
0.0
 40
23.0
  0
LINE
  5
14C
100
AcDbEntity
  8
ADF70-1304
370
              15
390
0
  6
Continuous
 62
               7
100
AcDbLine
 10
-552.69945886061032
 20
-651.01351560114585
 30
0.0
 11
-552.69945886061032
 21
-81.013453587533832
 31
0.0
  0
LINE
  5
14D
100
AcDbEntity
  8
ADF70-1304
370
              15
390
0
  6
Continuous
 62
               7
100
AcDbLine
 10
-232.69945886061032
 20
-81.013453587533832
 30
0.0
 11
-232.69945886061032
 21
-651.01351560114585
 31
0.0
  0
LINE
  5
14E
100
AcDbEntity
  8
ADF70-1304
370
              15
390
0
  6
Continuous
 62
               7
100
AcDbLine
 10
-207.69945886061032
 20
-81.013453587533832
 30
0.0
 11
-207.69945886061032
 21
-811.01345358753292
 31
0.0
  0
LINE
  5
14F
100
AcDbEntity
  8
ADF70-1304
370
              15
390
0
  6
Continuous
 62
               7
100
AcDbLine
 10
-577.69945886061032
 20
-811.01345358753292
 30
0.0
 11
-577.69945886061032
 21
-81.013453587533832
 31
0.0
  0
ARC
  5
150
100
AcDbEntity
  8
ADF70-1304
370
              15
390
0
  6
Continuous
 62
               7
100
AcDbCircle
 10
-392.69945886061032
 20
-81.013453587533832
 30
0.0
 40
185.0
100
AcDbArc
 50
0.0
 51
180.0
  0
ARC
  5
151
100
AcDbEntity
  8
ADF70-1304
370
              15
390
0
  6
Continuous
 62
               7
100
AcDbCircle
 10
-392.69945886061032
 20
-81.013453587533832
 30
0.0
 40
160.0
100
AcDbArc
 50
0.0
 51
180.0
  0
ARC
  5
152
100
AcDbEntity
  8
ADF70-1304
370
              15
390
0
  6
Continuous
 62
               7
100
AcDbCircle
 10
-392.69945886061032
 20
-811.0135156011454
 30
0.0
 40
185.0
100
AcDbArc
 50
180.0
 51
0.0
  0
LINE
  5
153
100
AcDbEntity
  8
ADF70-1304
370
              15
390
0
  6
Continuous
 62
               7
100
AcDbLine
 10
671.93233307994888
 20
39.697193495095462
 30
0.0
 11
671.93233307994888
 21
-931.72422469738308
 31
0.0
  0
LINE
  5
154
100
AcDbEntity
  8
ADF70-1304
370
              15
390
0
  6
STYLE_01
 62
               7
100
AcDbLine
 10
641.93233307994524
 20
-329.14681792767567
 30
0.0
 11
641.93233307994524
 21
-366.01348459434064
 31
0.0
  0
LINE
  5
155
100
AcDbEntity
  8
ADF70-1304
370
              15
390
0
  6
STYLE_01
 62
               7
100
AcDbLine
 10
654.93233307994524
 20
-343.01348459434064
 30
0.0
 11
654.93233307994524
 21
-366.01348459434064
 31
0.0
  0
ARC
  5
156
100
AcDbEntity
  8
ADF70-1304
370
              15
390
0
  6
Continuous
 62
               7
100
AcDbCircle
 10
504.89875830383608
 20
-145.47328130389428
 30
0.0
 40
250.04069331596597
100
AcDbArc
 50
48.29091094649943
 51
85.09590142962
  0
LINE
  5
157
100
AcDbEntity
  8
ADF70-1304
370
              15
390
0
  6
Continuous
 62
               7
100
AcDbLine
 10
521.93233307994524
 20
99.666702173995191
 30
0.0
 11
521.93233307994524
 21
81.734007095600873
 31
0.0
  0
ARC
  5
158
100
AcDbEntity
  8
ADF70-1304
370
              15
390
0
  6
STYLE_01
 62
               7
100
AcDbCircle
 10
524.93233307994524
 20
81.734007095600873
 30
0.0
 40
3.0
100
AcDbArc
 50
180.0
 51
274.65146486525998
  0
ARC
  5
159
100
AcDbEntity
  8
ADF70-1304
370
              15
390
0
  6
STYLE_01
 62
               7
100
AcDbCircle
 10
521.53035364074458
 20
-46.227553331846821
 30
0.0
 40
125.02459369693635
100
AcDbArc
 50
58.134477450309163
 51
88.329226819794883
  0
LINE
  5
15A
100
AcDbEntity
  8
ADF70-1304
370
              15
390
0
  6
Continuous
 62
               7
100
AcDbLine
 10
521.93233307994524
 20
81.734007095600873
 30
0.0
 11
521.93233307994524
 21
-814.9390479867177
 31
0.0
  0
ARC
  5
15B
100
AcDbEntity
  8
ADF70-1304
370
              15
390
0
  6
Continuous
 62
               7
100
AcDbCircle
 10
-392.69945886061032
 20
-651.01351560114585
 30
0.0
 40
160.0
100
AcDbArc
 50
180.0
 51
0.0
  0
ARC
  5
15C
100
AcDbEntity
  8
ADF70-1304
370
              15
390
0
  6
Continuous
 62
               7
100
AcDbCircle
 10
525.93233307994524
 20
99.666702173995191
 30
0.0
 40
4.0000000000003206
100
AcDbArc
 50
85.095901429616077
 51
180.0
  0
ARC
  5
15D
100
AcDbEntity
  8
ADF70-1304
370
              15
390
0
  6
Continuous
 62
               7
100
AcDbCircle
 10
525.93233307994524
 20
-991.69373337628303
 30
0.0
 40
4.0
100
AcDbArc
 50
180.0
 51
274.90409857038429
  0
LINE
  5
15E
100
AcDbEntity
  8
ADF70-1304
370
              15
390
0
  6
STYLE_01
 62
               7
100
AcDbLine
 10
641.93233307994524
 20
-402.88015126100561
 30
0.0
 11
634.67381684390784
 21
-710.73686065432798
 31
0.0
  0
LINE
  5
15F
100
AcDbEntity
  8
ADF70-1304
370
              15
390
0
  6
Continuous
 62
               7
100
AcDbLine
 10
521.93233307994524
 20
-991.69373337628303
 30
0.0
 11
521.93233307994524
 21
-847.67670815483802
 31
0.0
  0
ARC
  5
160
100
AcDbEntity
  8
ADF70-1304
370
              15
390
0
  6
STYLE_01
 62
               7
100
AcDbCircle
 10
521.53035364074458
 20
-685.98956812861104
 30
0.0
 40
125.0245936969397
100
AcDbArc
 50
271.95516057246806
 51
301.84722597727688
  0
LINE
  5
161
100
AcDbEntity
  8
ADF70-1304
370
              15
390
0
  6
STYLE_01
 62
               7
100
AcDbLine
 10
654.93233307994524
 20
-389.01348459434064
 30
0.0
 11
666.93233307994524
 21
-389.01348459434064
 31
0.0
  0
LINE
  5
162
100
AcDbEntity
  8
ADF70-1304
370
              15
390
0
  6
STYLE_01
 62
               7
100
AcDbLine
 10
654.93233307994524
 20
-389.01348459434064
 30
0.0
 11
641.93233307994524
 21
-402.88015126100561
 31
0.0
  0
LINE
  5
163
100
AcDbEntity
  8
ADF70-1304
370
              15
390
0
  6
STYLE_01
 62
               7
100
AcDbLine
 10
654.93233307994524
 20
-389.01348459434064
 30
0.0
 11
654.93233307994524
 21
-366.01348459434064
 31
0.0
  0
LINE
  5
164
100
AcDbEntity
  8
ADF70-1304
370
              15
390
0
  6
STYLE_01
 62
               7
100
AcDbLine
 10
641.93233307994524
 20
-402.88015126100561
 30
0.0
 11
641.93233307994524
 21
-366.01348459434064
 31
0.0
  0
LINE
  5
165
100
AcDbEntity
  8
ADF70-1304
370
              15
390
0
  6
STYLE_01
 62
               7
100
AcDbLine
 10
666.93233307994524
 20
-389.01348459434064
 30
0.0
 11
666.93233307994524
 21
-343.01348459434064
 31
0.0
  0
ARC
  5
166
100
AcDbEntity
  8
ADF70-1304
370
              15
390
0
  6
STYLE_01
 62
               7
100
AcDbCircle
 10
534.73473414199907
 20
-707.24691098407891
 30
0.0
 40
100.00000000000006
100
AcDbArc
 50
301.84722597727858
 51
357.99999999999631
  0
ARC
  5
167
100
AcDbEntity
  8
ADF70-1304
370
              15
390
0
  6
STYLE_01
 62
               7
100
AcDbCircle
 10
534.74152169133959
 20
-24.974428186688783
 30
0.0
 40
99.999999999999417
100
AcDbArc
 50
2.000000000003662
 51
58.134477450307628
  0
ARC
  5
168
100
AcDbEntity
  8
ADF70-1304
370
              15
390
0
  6
Continuous
 62
               7
100
AcDbCircle
 10
525.93233307994524
 20
-814.9390479867177
 30
0.0
 40
3.9999999999996834
100
AcDbArc
 50
91.955160572455867
 51
180.0
  0
CIRCLE
  5
169
100
AcDbEntity
  8
ADF70-1304
370
              15
390
0
  6
STYLE_01
 62
               7
100
AcDbCircle
 10
-392.69945886061032
 20
-856.00691838594594
 30
0.0
 40
17.499999999999886
  0
LINE
  5
16A
100
AcDbEntity
  8
ADF70-1304
370
              15
390
0
  6
Continuous
 62
               7
100
AcDbLine
 10
529.93233307994524
 20
-838.5069183859423
 30
0.0
 11
521.93233307994524
 21
-838.5069183859423
 31
0.0
  0
LINE
  5
16B
100
AcDbEntity
  8
ADF70-1304
370
              15
390
0
  6
Continuous
 62
               7
100
AcDbLine
 10
529.93233307994524
 20
-873.50691838594594
 30
0.0
 11
521.93233307994524
 21
-873.50691838594594
 31
0.0
  0
LINE
  5
16C
100
AcDbEntity
  8
ADF70-1304
370
              15
390
0
  6
Continuous
 62
               7
100
AcDbLine
 10
521.93233307994524
 20
-847.67670815483802
 30
0.0
 11
521.93233307994524
 21
-814.9390479867177
 31
0.0
  0
LINE
  5
16D
100
AcDbEntity
  8
ADF70-1304
370
              15
390
0
  6
STYLE_01
 62
               7
100
AcDbLine
 10
654.93233307994524
 20
-343.01348459434064
 30
0.0
 11
641.93233307994524
 21
-329.14681792767567
 31
0.0
  0
LINE
  5
16E
100
AcDbEntity
  8
ADF70-1304
370
              15
390
0
  6
STYLE_01
 62
               7
100
AcDbLine
 10
666.93233307994524
 20
-343.01348459434064
 30
0.0
 11
654.93233307994524
 21
-343.01348459434064
 31
0.0
  0
ARC
  5
16F
100
AcDbEntity
  8
ADF70-1304
370
              15
390
0
  6
Continuous
 62
               7
100
AcDbCircle
 10
669.93233307994888
 20
39.697193495095462
 30
0.0
 40
2.0
100
AcDbArc
 50
0.0
 51
48.290910946573767
  0
ARC
  5
170
100
AcDbEntity
  8
ADF70-1304
370
              15
390
0
  6
Continuous
 62
               7
100
AcDbCircle
 10
669.93233307994888
 20
-931.72422469738467
 30
0.0
 40
1.9999999999998728
100
AcDbArc
 50
311.70908905352246
 51
0.0000000000472369
  0
ARC
  5
171
100
AcDbEntity
  8
ADF70-1304
370
              15
390
0
  6
Continuous
 62
               7
100
AcDbCircle
 10
504.89875830383971
 20
-746.55374989839947
 30
0.0
 40
250.0406933159619
100
AcDbArc
 50
274.90409857037002
 51
311.70908905353025
  0
ARC
  5
172
100
AcDbEntity
  8
ADF70-1304
370
              15
390
0
  6
Continuous
 62
               7
100
AcDbCircle
 10
504.49677886463178
 20
726.73171399298235
 30
0.0
 40
250.04069331596662
100
AcDbArc
 50
48.290910946499565
 51
85.09590142962
  0
LWPOLYLINE
  5
173
100
AcDbEntity
  8
ADF70-1304
370
              15
390
0
  6
STYLE_01
 62
               7
100
AcDbPolyline
 90
        5
 70
             128
 10
641.88250279165732
 20
827.66511135276187
 42
0.2592138526296677
 10
587.13227971116794
 20
932.15951901460039
 42
0.1325170772132291
 10
524.7736363304175
 20
950.94888307497422
 42
-0.2094835047192786
 10
522.49686502127588
 20
951.73334511300163
 42
-0.2094835047170747
 10
521.53035364074094
 20
953.93900239247841
 42
-0.2094835047170747
  0
ARC
  5
174
100
AcDbEntity
  8
ADF70-1304
370
              15
390
0
  6
Continuous
 62
               7
100
AcDbCircle
 10
525.53035364074094
 20
971.87169747087273
 30
0.0
 40
4.0000000000003206
100
AcDbArc
 50
85.095901429616077
 51
180.0
  0
ARC
  5
175
100
AcDbEntity
  8
ADF70-1304
370
              15
390
0
  6
Continuous
 62
               7
100
AcDbCircle
 10
669.53035364074094
 20
911.902188791973
 30
0.0
 40
2.0
100
AcDbArc
 50
0.0
 51
48.290910946500283
  0
LINE
  5
176
100
AcDbEntity
  8
ADF70-1304
370
              15
390
0
  6
STYLE_01
 62
               7
100
AcDbLine
 10
641.88250279165732
 20
827.7237208713982
 30
0.0
 11
641.88250279165732
 21
790.85705420473323
 31
0.0
  0
LINE
  5
177
100
AcDbEntity
  8
ADF70-1304
370
              15
390
0
  6
STYLE_01
 62
               7
100
AcDbLine
 10
654.88250279165732
 20
813.85705420473323
 30
0.0
 11
654.88250279165732
 21
790.85705420473323
 31
0.0
  0
LINE
  5
178
100
AcDbEntity
  8
ADF70-1304
370
              15
390
0
  6
STYLE_01
 62
               7
100
AcDbLine
 10
666.88250279165732
 20
790.85705420473323
 30
0.0
 11
666.88250279165732
 21
813.85705420473323
 31
0.0
  0
LINE
  5
179
100
AcDbEntity
  8
ADF70-1304
370
              15
390
0
  6
STYLE_01
 62
               7
100
AcDbLine
 10
654.88250279165732
 20
813.7984446860969
 30
0.0
 11
666.88250279165732
 21
813.7984446860969
 31
0.0
  0
LINE
  5
17A
100
AcDbEntity
  8
ADF70-1304
370
              15
390
0
  6
STYLE_01
 62
               7
100
AcDbLine
 10
654.88250279165732
 20
813.7984446860969
 30
0.0
 11
641.88250279165732
 21
827.66511135276187
 31
0.0
  0
ARC
  5
17B
100
AcDbEntity
  8
ADF70-1304
370
              15
390
0
  6
Continuous
 62
               7
100
AcDbCircle
 10
504.49677886463178
 20
855.25769302498975
 30
0.0
 40
250.04069331596924
100
AcDbArc
 50
274.90409857037997
 51
311.70908905350092
  0
LWPOLYLINE
  5
17C
100
AcDbEntity
  8
ADF70-1304
370
              15
390
0
  6
STYLE_01
 62
               7
100
AcDbPolyline
 90
        4
 70
             128
 10
521.53035364074094
 20
628.05040462549368
 42
-0.2094835047166972
 10
522.49686502127588
 20
630.25606190496887
 42
-0.2094835047162886
 10
524.77363633041023
 20
631.04052394299651
 42
0.1325170772131605
 10
587.13227971118249
 20
649.82988800338308
 42
0.1325170772131605
  0
ARC
  5
17D
100
AcDbEntity
  8
ADF70-1304
370
              15
390
0
  6
Continuous
 62
               7
100
AcDbCircle
 10
525.53035364074094
 20
610.11770954709891
 30
0.0
 40
4.0
100
AcDbArc
 50
180.0
 51
274.90409857038452
  0
ARC
  5
17E
100
AcDbEntity
  8
ADF70-1304
370
              15
390
0
  6
Continuous
 62
               7
100
AcDbCircle
 10
669.53035364074094
 20
670.08721822599955
 30
0.0
 40
2.0000000000011031
100
AcDbArc
 50
311.70908905349114
 51
0.0
  0
LINE
  5
17F
100
AcDbEntity
  8
ADF70-1304
370
              15
390
0
  6
STYLE_01
 62
               7
100
AcDbLine
 10
641.88250279165732
 20
754.26568614657344
 30
0.0
 11
641.88250279165732
 21
791.13235281323841
 31
0.0
  0
LINE
  5
180
100
AcDbEntity
  8
ADF70-1304
370
              15
390
0
  6
STYLE_01
 62
               7
100
AcDbLine
 10
654.88250279165732
 20
768.13235281323841
 30
0.0
 11
654.88250279165732
 21
791.13235281323841
 31
0.0
  0
LINE
  5
181
100
AcDbEntity
  8
ADF70-1304
370
              15
390
0
  6
STYLE_01
 62
               7
100
AcDbLine
 10
666.88250279165732
 20
791.13235281323841
 30
0.0
 11
666.88250279165732
 21
768.13235281323841
 31
0.0
  0
LINE
  5
182
100
AcDbEntity
  8
ADF70-1304
370
              15
390
0
  6
STYLE_01
 62
               7
100
AcDbLine
 10
654.88250279165732
 20
768.19096233187474
 30
0.0
 11
666.88250279165732
 21
768.19096233187474
 31
0.0
  0
LINE
  5
183
100
AcDbEntity
  8
ADF70-1304
370
              15
390
0
  6
STYLE_01
 62
               7
100
AcDbLine
 10
654.88250279165732
 20
768.19096233187474
 30
0.0
 11
641.88250279165732
 21
754.32429566520977
 31
0.0
  0
LINE
  5
184
100
AcDbEntity
  8
ADF70-1304
370
              15
390
0
  6
Continuous
 62
               7
100
AcDbLine
 10
521.53035364074094
 20
971.87169747087273
 30
0.0
 11
521.53035364074094
 21
610.11770954709891
 31
0.0
  0
LINE
  5
185
100
AcDbEntity
  8
ADF70-1304
370
              15
390
0
  6
Continuous
 62
               7
100
AcDbLine
 10
671.53035364074094
 20
911.902188791973
 30
0.0
 11
671.53035364074458
 21
670.08721822599955
 31
0.0
  0
POLYLINE
  5
186
100
AcDbEntity
  8
ADF70-1304
370
              15
390
0
  6
Continuous
 62
               7
100
AcDb2dPolyline
 66
               1
 10
0.0
 20
0.0
 30
0.0
 70
               1
 75
               5
  0
VERTEX
  5
187
100
AcDbEntity
  8
ADF70-1304
370
              15
390
0
  6
Continuous
 62
               7
100
AcDbVertex
100
AcDb2dVertex
 10
-442.66011420297946
 20
947.03324302977444
 30
0.0
  0
VERTEX
  5
188
100
AcDbEntity
  8
ADF70-1304
370
              15
390
0
  6
Continuous
 62
               7
100
AcDbVertex
100
AcDb2dVertex
 10
-342.66011420297946
 20
947.03324302977444
 30
0.0
  0
VERTEX
  5
189
100
AcDbEntity
  8
ADF70-1304
370
              15
390
0
  6
Continuous
 62
               7
100
AcDbVertex
100
AcDb2dVertex
 10
-342.66011420297946
 20
347.03324302977444
 30
0.0
  0
VERTEX
  5
18A
100
AcDbEntity
  8
ADF70-1304
370
              15
390
0
  6
Continuous
 62
               7
100
AcDbVertex
100
AcDb2dVertex
 10
-442.66011420297946
 20
347.03324302977444
 30
0.0
  0
SEQEND
  5
18B
100
AcDbEntity
  8
ADF70-1304
370
              15
390
0
  6
Continuous
 62
               7
  0
LINE
  5
18C
100
AcDbEntity
  8
ADF70-1304
370
              15
390
0
  6
STYLE_01
 62
               7
100
AcDbLine
 10
641.93233307994524
 20
-329.16107113228782
 30
0.0
 11
634.67381684390784
 21
-21.304361738963507
 31
0.0
  0
CIRCLE
  5
18D
100
AcDbEntity
  8
ADF70-1304
370
              15
390
0
  6
Continuous
 62
               7
100
AcDbCircle
 10
-392.69945886061032
 20
-365.99061816519736
 30
0.0
 40
37.5
  0
CIRCLE
  5
18E
100
AcDbEntity
  8
ADF70-1304
370
              15
390
0
  6
Continuous
 62
               7
100
AcDbCircle
 10
-392.69945886061032
 20
-365.99061816519736
 30
0.0
 40
23.0
  0
LINE
  5
18F
100
AcDbEntity
  8
ADF70-1304
370
              15
390
0
  6
Continuous
 62
               7
100
AcDbLine
 10
-552.69945886061032
 20
-651.01351560114585
 30
0.0
 11
-552.69945886061032
 21
-81.013453587533832
 31
0.0
  0
LINE
  5
190
100
AcDbEntity
  8
ADF70-1304
370
              15
390
0
  6
Continuous
 62
               7
100
AcDbLine
 10
-232.69945886061032
 20
-81.013453587533832
 30
0.0
 11
-232.69945886061032
 21
-651.01351560114585
 31
0.0
  0
LINE
  5
191
100
AcDbEntity
  8
ADF70-1304
370
              15
390
0
  6
Continuous
 62
               7
100
AcDbLine
 10
-207.69945886061032
 20
-81.013453587533832
 30
0.0
 11
-207.69945886061032
 21
-811.01345358753292
 31
0.0
  0
LINE
  5
192
100
AcDbEntity
  8
ADF70-1304
370
              15
390
0
  6
Continuous
 62
               7
100
AcDbLine
 10
-577.69945886061032
 20
-811.01345358753292
 30
0.0
 11
-577.69945886061032
 21
-81.013453587533832
 31
0.0
  0
ARC
  5
193
100
AcDbEntity
  8
ADF70-1304
370
              15
390
0
  6
Continuous
 62
               7
100
AcDbCircle
 10
-392.69945886061032
 20
-81.013453587533832
 30
0.0
 40
185.0
100
AcDbArc
 50
0.0
 51
180.0
  0
ARC
  5
194
100
AcDbEntity
  8
ADF70-1304
370
              15
390
0
  6
Continuous
 62
               7
100
AcDbCircle
 10
-392.69945886061032
 20
-81.013453587533832
 30
0.0
 40
160.0
100
AcDbArc
 50
0.0
 51
180.0
  0
ARC
  5
195
100
AcDbEntity
  8
ADF70-1304
370
              15
390
0
  6
Continuous
 62
               7
100
AcDbCircle
 10
-392.69945886061032
 20
-811.0135156011454
 30
0.0
 40
185.0
100
AcDbArc
 50
180.0
 51
0.0
  0
ARC
  5
196
100
AcDbEntity
  8
ADF70-1304
370
              15
390
0
  6
Continuous
 62
               7
100
AcDbCircle
 10
-392.69945886061032
 20
-651.01351560114585
 30
0.0
 40
160.0
100
AcDbArc
 50
180.0
 51
0.0
  0
CIRCLE
  5
197
100
AcDbEntity
  8
ADF70-1304
370
              15
390
0
  6
STYLE_01
 62
               7
100
AcDbCircle
 10
-392.69945886061032
 20
-856.00691838594594
 30
0.0
 40
17.499999999999886
  0
CIRCLE
  5
198
100
AcDbEntity
  8
ADF70-1304
370
               5
390
0
  6
STYLE_01
 62
               7
100
AcDbCircle
 10
-392.69945886061032
 20
877.04177078799648
 30
0.0
 40
23.0
  0
LINE
  5
199
100
AcDbEntity
  8
ADF70-1304
370
               5
390
0
  6
STYLE_01
 62
               7
100
AcDbLine
 10
-207.69945886061032
 20
1162.0189353656588
 30
0.0
 11
-207.69945886061032
 21
432.01893536566081
 31
0.0
  0
LINE
  5
19A
100
AcDbEntity
  8
ADF70-1304
370
               5
390
0
  6
STYLE_01
 62
               7
100
AcDbLine
 10
-577.69945886061032
 20
432.01893536566081
 30
0.0
 11
-577.69945886061032
 21
1162.0189353656588
 31
0.0
  0
ARC
  5
19B
100
AcDbEntity
  8
ADF70-1304
370
               5
390
0
  6
STYLE_01
 62
               7
100
AcDbCircle
 10
-392.69945886061032
 20
1162.0189353656588
 30
0.0
 40
185.0
100
AcDbArc
 50
0.0
 51
180.0
  0
ARC
  5
19C
100
AcDbEntity
  8
ADF70-1304
370
               5
390
0
  6
STYLE_01
 62
               7
100
AcDbCircle
 10
-392.69945886061032
 20
432.01887335204833
 30
0.0
 40
185.0
100
AcDbArc
 50
180.0
 51
0.0
  0
CIRCLE
  5
19D
100
AcDbEntity
  8
ADF70-1304
370
               5
390
0
  6
STYLE_01
 62
               7
100
AcDbCircle
 10
-392.69945886061032
 20
387.02547056724779
 30
0.0
 40
17.499999999999773
  0
ARC
  5
19E
100
AcDbEntity
  8
ADF70-1304
370
              15
390
0
  6
STYLE_01
 62
               7
100
AcDbCircle
 10
520.49887560247953
 20
751.24680020659071
 30
0.0
 40
121.42047454900703
100
AcDbArc
 50
303.2835119122484
 51
1.4115811119216346
  0
ENDSEC
  0
SECTION
  2
OBJECTS
  0
DICTIONARY
  5
19
100
AcDbDictionary
280
               0
281
               1
  3
ACAD_GROUP
350
1A
  3
ACAD_MLINESTYLE
350
1B
  3
ACAD_LAYOUT
350
1E
  3
ACAD_PLOTSETTINGS
350
22
  3
ACAD_PLOTSTYLENAME
350
1F
  0
DICTIONARY
  5
1A
102
{ACAD_REACTORS
330
19
102
}
100
AcDbDictionary
280
               0
281
               1
  0
DICTIONARY
  5
1B
102
{ACAD_REACTORS
330
19
102
}
100
AcDbDictionary
280
               0
281
               1
  3
Standard
350
1C
  0
MLINESTYLE
  5
1C
102
{ACAD_REACTORS
330
1B
102
}
100
AcDbMlineStyle
  2
Standard
 70
               0
  3

 62
               0
 51
90.0
 52
90.0
 71
               2
 49
0.5
 62
             256
  6
ByLayer
 49
-0.5
 62
             256
  6
ByLayer
  0
ACDBDICTIONARYWDFLT
  5
1F
102
{ACAD_REACTORS
330
19
102
}
100
AcDbDictionary
281
               1
  3
Normal
350
1D
100
AcDbDictionaryWithDefault
340
1D
  0
ACDBPLACEHOLDER
  5
1D
102
{ACAD_REACTORS
330
1F
102
}
  0
LAYOUT
  5
20
102
{ACAD_REACTORS
330
1E
102
}
100
AcDbPlotSettings
  1

  2

  4

  6

 40
0.0
 41
0.0
 42
0.0
 43
0.0
 44
0.0
 45
0.0
 46
0.0
 47
0.0
 48
0.0
 49
0.0
140
0.0
141
0.0
142
1.0
143
1.0
 70
            1024
 72
               0
 73
               0
 74
               0
  7

 75
               0
147
1.0
148
0.0
149
0.0
100
AcDbLayout
  1
Model
 70
               0
 71
               0
 10
0.0
 20
0.0
 11
0.0
 21
0.0
 12
0.0
 22
0.0
 32
0.0
 14
0.0
 24
0.0
 34
0.0
 15
0.0
 25
0.0
 35
0.0
146
0.0
 13
0.0
 23
0.0
 33
0.0
 16
0.0
 26
0.0
 36
0.0
 17
0.0
 27
0.0
 37
0.0
 76
               0
330
A
331
0
345
0
346
0
  0
LAYOUT
  5
21
102
{ACAD_REACTORS
330
1E
102
}
100
AcDbPlotSettings
  1

  2

  4

  6

 40
0.0
 41
0.0
 42
0.0
 43
0.0
 44
0.0
 45
0.0
 46
0.0
 47
0.0
 48
0.0
 49
0.0
140
0.0
141
0.0
142
1.0
143
1.0
 70
               0
 72
               0
 73
               0
 74
               0
  7

 75
               0
147
1.0
148
0.0
149
0.0
100
AcDbLayout
  1
Layout1
 70
               0
 71
               0
 10
0.0
 20
0.0
 11
0.0
 21
0.0
 12
0.0
 22
0.0
 32
0.0
 14
0.0
 24
0.0
 34
0.0
 15
0.0
 25
0.0
 35
0.0
146
0.0
 13
0.0
 23
0.0
 33
0.0
 16
0.0
 26
0.0
 36
0.0
 17
0.0
 27
0.0
 37
0.0
 76
               0
330
B
331
0
345
0
346
0
  0
DICTIONARY
  5
1E
102
{ACAD_REACTORS
330
19
102
}
100
AcDbDictionary
280
               0
281
               1
  3
Layout1
350
21
  3
Model
350
20
  0
DICTIONARY
  5
22
102
{ACAD_REACTORS
330
19
102
}
100
AcDbDictionary
280
               0
281
               1
  0
ENDSEC
  0
EOF
