  0
SECTION
  2
HEADER
  9
$ACADVER
  1
AC1015
  9
$ACADMAINTVER
 70
               6
  9
$DWGCODEPAGE
  3
ANSI_932
  9
$INSBASE
 10
0.0
 20
0.0
 30
0.0
  9
$EXTMIN
 10
-1050.0
 20
-1485.0
 30
-14.834305555555552
  9
$EXTMAX
 10
1050.0
 20
1485.0
 30
14.834305555555552
  9
$LIMMIN
 10
0.0
 20
0.0
  9
$LIMMAX
 10
0.0
 20
0.0
  9
$ORTHOMODE
 70
               0
  9
$REGENMODE
 70
               1
  9
$FILLMODE
 70
               1
  9
$QTEXTMODE
 70
               0
  9
$MIRRTEXT
 70
               1
  9
$LTSCALE
 40
50.799999999999997
  9
$ATTMODE
 70
               1
  9
$TEXTSIZE
 40
0.2
  9
$TRACEWID
 40
1.0
  9
$TEXTSTYLE
  7
Standard
  9
$CLAYER
  8
template
  9
$CELTYPE
  6
Continuous
  9
$CECOLOR
 62
             256
  9
$CELTSCALE
 40
1.0
  9
$DISPSILH
 70
               0
  9
$DIMSCALE
 40
1.0
  9
$DIMASZ
 40
31.75
  9
$DIMEXO
 40
0.0
  9
$DIMDLI
 40
6.9999999999999396
  9
$DIMRND
 40
0.0
  9
$DIMDLE
 40
0.0
  9
$DIMEXE
 40
19.999999999996199
  9
$DIMTP
 40
0.0
  9
$DIMTM
 40
0.0
  9
$DIMTXT
 40
24.432617187500004
  9
$DIMCEN
 40
0.0
  9
$DIMTSZ
 40
0.0
  9
$DIMTOL
 70
               0
  9
$DIMLIM
 70
               0
  9
$DIMTIH
 70
               0
  9
$DIMTOH
 70
               0
  9
$DIMSE1
 70
               0
  9
$DIMSE2
 70
               0
  9
$DIMTAD
 70
               1
  9
$DIMZIN
 70
              11
  9
$DIMBLK
  1
VW_FILLEDARROW
  9
$DIMASO
 70
               1
  9
$DIMSHO
 70
               1
  9
$DIMPOST
  1
<>
  9
$DIMAPOST
  1
[]
  9
$DIMALT
 70
               0
  9
$DIMALTD
 70
               1
  9
$DIMALTF
 40
1.0
  9
$DIMLFAC
 40
1.0
  9
$DIMTOFL
 70
               0
  9
$DIMTVP
 40
0.0
  9
$DIMTIX
 70
               1
  9
$DIMSOXD
 70
               0
  9
$DIMSAH
 70
               0
  9
$DIMBLK1
  1

  9
$DIMBLK2
  1

  9
$DIMSTYLE
  2
JIS
  9
$DIMCLRD
 70
               0
  9
$DIMCLRE
 70
               0
  9
$DIMCLRT
 70
               0
  9
$DIMTFAC
 40
1.0
  9
$DIMGAP
 40
1.00000000000108
  9
$DIMJUST
 70
               0
  9
$DIMSD1
 70
               0
  9
$DIMSD2
 70
               0
  9
$DIMTOLJ
 70
               1
  9
$DIMTZIN
 70
              11
  9
$DIMALTZ
 70
              11
  9
$DIMALTTZ
 70
              11
  9
$DIMUPT
 70
               0
  9
$DIMDEC
 70
               1
  9
$DIMTDEC
 70
               1
  9
$DIMALTU
 70
               2
  9
$DIMALTTD
 70
               2
  9
$DIMTXSTY
  7
ＭＳ ゴシック
  9
$DIMAUNIT
 70
               0
  9
$DIMADEC
 70
               2
  9
$DIMALTRND
 40
0.0
  9
$DIMAZIN
 70
               0
  9
$DIMDSEP
 70
              46
  9
$DIMATFIT
 70
               0
  9
$DIMFRAC
 70
               2
  9
$DIMLDRBLK
  1

  9
$DIMLUNIT
 70
               2
  9
$DIMLWD
 70
              -2
  9
$DIMLWE
 70
              -2
  9
$DIMTMOVE
 70
               0
  9
$LUNITS
 70
               2
  9
$LUPREC
 70
               4
  9
$SKETCHINC
 40
0.1
  9
$FILLETRAD
 40
0.0
  9
$AUNITS
 70
               0
  9
$AUPREC
 70
               0
  9
$MENU
  1
acad
  9
$ELEVATION
 40
0.0
  9
$PELEVATION
 40
0.0
  9
$THICKNESS
 40
0.0
  9
$LIMCHECK
 70
               0
  9
$CHAMFERA
 40
0.0
  9
$CHAMFERB
 40
0.0
  9
$CHAMFERC
 40
0.0
  9
$CHAMFERD
 40
0.0
  9
$SKPOLY
 70
               0
  9
$TDCREATE
 40
2455985.507916667
  9
$TDUCREATE
 40
0.000000000
  9
$TDUPDATE
 40
2455985.507916667
  9
$TDUUPDATE
 40
0.000000000
  9
$TDINDWG
 40
0.0000000000
  9
$TDUSRTIMER
 40
0.0000000000
  9
$USRTIMER
 70
               1
  9
$ANGBASE
 50
0.0
  9
$ANGDIR
 70
               0
  9
$PDMODE
 70
               1
  9
$PDSIZE
 40
-2.0
  9
$PLINEWID
 40
0.0
  9
$SPLFRAME
 70
               0
  9
$SPLINETYPE
 70
               6
  9
$SPLINESEGS
 70
               8
  9
$HANDSEED
  5
1A4
  9
$SURFTAB1
 70
               6
  9
$SURFTAB2
 70
               6
  9
$SURFTYPE
 70
               6
  9
$SURFU
 70
               6
  9
$SURFV
 70
               6
  9
$UCSBASE
  2

  9
$UCSNAME
  2

  9
$UCSORG
 10
0.0
 20
0.0
 30
0.0
  9
$UCSXDIR
 10
1.0
 20
0.0
 30
0.0
  9
$UCSYDIR
 10
0.0
 20
1.0
 30
0.0
  9
$UCSORTHOREF
  2

  9
$UCSORTHOVIEW
 70
               0
  9
$UCSORGTOP
 10
0.0
 20
0.0
 30
0.0
  9
$UCSORGBOTTOM
 10
0.0
 20
0.0
 30
0.0
  9
$UCSORGLEFT
 10
0.0
 20
0.0
 30
0.0
  9
$UCSORGRIGHT
 10
0.0
 20
0.0
 30
0.0
  9
$UCSORGFRONT
 10
0.0
 20
0.0
 30
0.0
  9
$UCSORGBACK
 10
0.0
 20
0.0
 30
0.0
  9
$PUCSBASE
  2

  9
$PUCSNAME
  2

  9
$PUCSORG
 10
0.0
 20
0.0
 30
0.0
  9
$PUCSXDIR
 10
1.0
 20
0.0
 30
0.0
  9
$PUCSYDIR
 10
0.0
 20
1.0
 30
0.0
  9
$PUCSORTHOREF
  2

  9
$PUCSORTHOVIEW
 70
               0
  9
$PUCSORGTOP
 10
0.0
 20
0.0
 30
0.0
  9
$PUCSORGBOTTOM
 10
0.0
 20
0.0
 30
0.0
  9
$PUCSORGLEFT
 10
0.0
 20
0.0
 30
0.0
  9
$PUCSORGRIGHT
 10
0.0
 20
0.0
 30
0.0
  9
$PUCSORGFRONT
 10
0.0
 20
0.0
 30
0.0
  9
$PUCSORGBACK
 10
0.0
 20
0.0
 30
0.0
  9
$USERI1
 70
               0
  9
$USERI2
 70
               0
  9
$USERI3
 70
               0
  9
$USERI4
 70
               0
  9
$USERI5
 70
               0
  9
$USERR1
 40
0.0
  9
$USERR2
 40
0.0
  9
$USERR3
 40
0.0
  9
$USERR4
 40
0.0
  9
$USERR5
 40
0.0
  9
$WORLDVIEW
 70
               1
  9
$SHADEDGE
 70
               3
  9
$SHADEDIF
 70
              70
  9
$TILEMODE
 70
               1
  9
$MAXACTVP
 70
              64
  9
$PINSBASE
 10
0.0
 20
0.0
 30
0.0
  9
$PLIMCHECK
 70
               0
  9
$PEXTMIN
 10
1.0000000000000000E+20
 20
1.0000000000000000E+20
 30
1.0000000000000000E+20
  9
$PEXTMAX
 10
-1.0000000000000000E+20
 20
-1.0000000000000000E+20
 30
-1.0000000000000000E+20
  9
$PLIMMIN
 10
0.0
 20
0.0
  9
$PLIMMAX
 10
12.0
 20
9.0
  9
$UNITMODE
 70
               0
  9
$VISRETAIN
 70
               0
  9
$PLINEGEN
 70
               1
  9
$PSLTSCALE
 70
               0
  9
$TREEDEPTH
 70
            3020
  9
$CMLSTYLE
  2
Standard
  9
$CMLJUST
 70
               0
  9
$CMLSCALE
 40
1.0
  9
$PROXYGRAPHICS
 70
               0
  9
$MEASUREMENT
 70
               1
  9
$CELWEIGHT
370
               0
  9
$ENDCAPS
280
               0
  9
$JOINSTYLE
280
               0
  9
$LWDISPLAY
290
               1
  9
$INSUNITS
 70
               4
  9
$HYPERLINKBASE
  1

  9
$STYLESHEET
  1

  9
$XEDIT
290
               1
  9
$CEPSNTYPE
380
               0
  9
$PSTYLEMODE
290
               1
  9
$FINGERPRINTGUID
  2

  9
$VERSIONGUID
  2

  9
$EXTNAMES
290
               1
  9
$PSVPSCALE
 40
0.0
  0
ENDSEC
  0
SECTION
  2
CLASSES
  0
CLASS
  1
LWPOLYLINE
  2
AcDbPolyline
  3
AutoCAD 2000
 90
        0
280
               0
281
               1
  0
CLASS
  1
IMAGE
  2
AcDbRasterImage
  3
ISM
 90
      127
280
               0
281
               1
  0
CLASS
  1
OLE2FRAME
  2
AcDbOle2Frame
  3
AutoCAD 2000
 90
        0
280
               0
281
               1
  0
CLASS
  1
HATCH
  2
AcDbHatch
  3
AutoCAD 2000
 90
        0
280
               0
281
               1
  0
CLASS
  1
DICTIONARYVAR
  2
AcDbDictionaryVar
  3
AutoCAD 2000
 90
        0
280
               0
281
               0
  0
CLASS
  1
RASTERVARIABLES
  2
AcDbRasterVariables
  3
ISM
 90
        0
280
               0
281
               0
  0
CLASS
  1
IMAGEDEF
  2
AcDbRasterImageDef
  3
ISM
 90
        0
280
               0
281
               0
  0
CLASS
  1
IMAGEDEF_REACTOR
  2
AcDbRasterImageDefReactor
  3
ISM
 90
        1
280
               0
281
               0
  0
CLASS
  1
IDBUFFER
  2
AcDbIdBuffer
  3
AutoCAD 2000
 90
        0
280
               0
281
               0
  0
CLASS
  1
SPATIAL_FILTER
  2
AcDbSpatialFilter
  3
AutoCAD 2000
 90
        0
280
               0
281
               0
  0
CLASS
  1
XRECORD
  2
AcDbXrecord
  3
AutoCAD 2000
 90
        0
280
               0
281
               0
  0
CLASS
  1
SORTENTSTABLE
  2
AcDbSortentsTable
  3
AutoCAD 2000
 90
        0
280
               0
281
               0
  0
CLASS
  1
LAYER_INDEX
  2
AcDbLayerIndex
  3
AutoCAD 2000
 90
        0
280
               0
281
               0
  0
CLASS
  1
SPATIAL_INDEX
  2
AcDbSpatialIndex
  3
AutoCAD 2000
 90
        0
280
               0
281
               0
  0
CLASS
  1
OBJECT_PTR
  2
CAseDLPNTableRecord
  3
"ASE-LPNTableRecord"
 90
        1
280
               0
281
               0
  0
CLASS
  1
LAYOUT
  2
AcDbLayout
  3
AutoCAD 2000
 90
        0
280
               0
281
               0
  0
CLASS
  1
PLOTSETTINGS
  2
AcDbPlotSettings
  3
AutoCAD 2000
 90
        0
280
               0
281
               0
  0
CLASS
  1
ACDBDICTIONARYWDFLT
  2
AcDbDictionaryWithDefault
  3
AutoCAD 2000
 90
        0
280
               0
281
               0
  0
CLASS
  1
ACDBPLACEHOLDER
  2
AcDbPlaceHolder
  3
AutoCAD 2000
 90
        0
280
               0
281
               0
  0
ENDSEC
  0
SECTION
  2
TABLES
  0
TABLE
  2
VPORT
  5
7
100
AcDbSymbolTable
 70
               1
  0
VPORT
  5
15
100
AcDbSymbolTableRecord
100
AcDbViewportTableRecord
  2
*ACTIVE
 70
               0
 10
0.0
 20
0.0
 11
1.0
 21
1.0
 12
0.0
 22
0.0
 13
0.0
 23
0.0
 14
1.0
 24
1.0
 15
0.0
 25
0.0
 16
0.0
 26
0.0
 36
1.0
 17
0.0
 27
0.0
 37
0.0
 40
2970.0
 41
0.688564
 42
50.0
 43
0.0
 44
0.0
 50
0.0
 51
0.0
 71
               0
 72
            2000
 73
               1
 74
               1
 75
               0
 76
               0
 77
               0
 78
               0
281
               0
 65
               0
110
0.0
120
0.0
130
0.0
111
1.0
121
0.0
131
0.0
112
0.0
122
1.0
132
0.0
345
0
346
0
 79
               0
146
0.0
  0
ENDTAB
  0
TABLE
  2
LTYPE
  5
4
100
AcDbSymbolTable
 70
              16
  0
LTYPE
  5
11
100
AcDbSymbolTableRecord
100
AcDbLinetypeTableRecord
  2
ByBlock
 70
              64
  3

 72
              65
 73
               0
 40
0.0
  0
LTYPE
  5
12
100
AcDbSymbolTableRecord
100
AcDbLinetypeTableRecord
  2
ByLayer
 70
              64
  3

 72
              65
 73
               0
 40
0.0
  0
LTYPE
  5
13
100
AcDbSymbolTableRecord
100
AcDbLinetypeTableRecord
  2
Continuous
 70
              64
  3
Solid line
 72
              65
 73
               0
 40
0.0
  0
LTYPE
  5
33
100
AcDbSymbolTableRecord
100
AcDbLinetypeTableRecord
  2
STYLE_01
 70
               0
  3

 72
              65
 73
               2
 40
0.1875
 49
0.125
 74
               0
 49
-0.0625
 74
               0
  0
LTYPE
  5
34
100
AcDbSymbolTableRecord
100
AcDbLinetypeTableRecord
  2
STYLE_02
 70
               0
  3

 72
              65
 73
               2
 40
0.6944250000000001
 49
0.48607
 74
               0
 49
-0.2083550000000001
 74
               0
  0
LTYPE
  5
35
100
AcDbSymbolTableRecord
100
AcDbLinetypeTableRecord
  2
STYLE_03
 70
               0
  3

 72
              65
 73
               2
 40
1.25
 49
1.0416400000000001
 74
               0
 49
-0.2083599999999999
 74
               0
  0
LTYPE
  5
36
100
AcDbSymbolTableRecord
100
AcDbLinetypeTableRecord
  2
STYLE_04
 70
               0
  3

 72
              65
 73
               2
 40
1.5277099999999999
 49
1.3194249999999998
 74
               0
 49
-0.208285
 74
               0
  0
LTYPE
  5
37
100
AcDbSymbolTableRecord
100
AcDbLinetypeTableRecord
  2
STYLE_05
 70
               0
  3

 72
              65
 73
               2
 40
0.20828
 49
0.069425
 74
               0
 49
-0.138855
 74
               0
  0
LTYPE
  5
38
100
AcDbSymbolTableRecord
100
AcDbLinetypeTableRecord
  2
STYLE_06
 70
               0
  3

 72
              65
 73
               4
 40
1.0416400000000001
 49
0.625
 74
               0
 49
-0.20828
 74
               0
 49
0.06943
 74
               0
 49
-0.13893
 74
               0
  0
LTYPE
  5
39
100
AcDbSymbolTableRecord
100
AcDbLinetypeTableRecord
  2
STYLE_07
 70
               0
  3

 72
              65
 73
               6
 40
1.875
 49
0.625
 74
               0
 49
-0.20828
 74
               0
 49
0.6250000000000001
 74
               0
 49
-0.2083599999999999
 74
               0
 49
0.06943
 74
               0
 49
-0.1389299999999999
 74
               0
  0
LTYPE
  5
3A
100
AcDbSymbolTableRecord
100
AcDbLinetypeTableRecord
  2
STYLE_08
 70
               0
  3

 72
              65
 73
               6
 40
1.25
 49
0.625
 74
               0
 49
-0.20828
 74
               0
 49
0.06943
 74
               0
 49
-0.13893
 74
               0
 49
0.0694299999999999
 74
               0
 49
-0.13893
 74
               0
  0
LTYPE
  5
3B
100
AcDbSymbolTableRecord
100
AcDbLinetypeTableRecord
  2
STYLE_09
 70
               0
  3

 72
              65
 73
               4
 40
5.0
 49
3.75
 74
               0
 49
-0.2777849999999998
 74
               0
 49
0.6944300000000003
 74
               0
 49
-0.2777849999999998
 74
               0
  0
LTYPE
  5
3C
100
AcDbSymbolTableRecord
100
AcDbLinetypeTableRecord
  2
STYLE_10
 70
               0
  3

 72
              65
 73
               6
 40
5.9375
 49
3.75
 74
               0
 49
-0.2777849999999998
 74
               0
 49
0.6944300000000003
 74
               0
 49
-0.2777849999999998
 74
               0
 49
0.625
 74
               0
 49
-0.3125
 74
               0
  0
LTYPE
  5
3D
100
AcDbSymbolTableRecord
100
AcDbLinetypeTableRecord
  2
STYLE_11
 70
               0
  3

 72
              65
 73
               2
 40
0.0694444881889764
 49
0.0347222440944882
 74
               0
 49
-0.0347222440944882
 74
               0
  0
LTYPE
  5
3E
100
AcDbSymbolTableRecord
100
AcDbLinetypeTableRecord
  2
STYLE_12
 70
               0
  3

 72
              65
 73
               2
 40
0.3937007874015748
 49
0.1968503937007874
 74
               0
 49
-0.1968503937007874
 74
               0
  0
LTYPE
  5
3F
100
AcDbSymbolTableRecord
100
AcDbLinetypeTableRecord
  2
STYLE_13
 70
               0
  3

 72
              65
 73
               2
 40
3.9370078740157477
 49
1.9685039370078738
 74
               0
 49
-1.9685039370078738
 74
               0
  0
ENDTAB
  0
TABLE
  2
LAYER
  5
2
100
AcDbSymbolTable
 70
               5
  0
LAYER
  5
14
100
AcDbSymbolTableRecord
100
AcDbLayerTableRecord
  2
0
 70
               0
 62
               7
  6
Continuous
290
               1
370
              -3
390
1D
  0
LAYER
  5
40
100
AcDbSymbolTableRecord
100
AcDbLayerTableRecord
  2
Defpoints
 70
               0
 62
               7
  6
Continuous
290
               0
370
              -3
390
1D
  0
LAYER
  5
41
100
AcDbSymbolTableRecord
100
AcDbLayerTableRecord
  2
template
 70
               0
 62
               7
  6
Continuous
290
               1
370
              -3
390
1D
  0
LAYER
  5
42
100
AcDbSymbolTableRecord
100
AcDbLayerTableRecord
  2
notes
 70
               0
 62
               7
  6
Continuous
290
               1
370
              -3
390
1D
  0
LAYER
  5
43
100
AcDbSymbolTableRecord
100
AcDbLayerTableRecord
  2
ADF70-1501
 70
               0
 62
               7
  6
Continuous
290
               1
370
              -3
390
1D
  0
ENDTAB
  0
TABLE
  2
STYLE
  5
3
100
AcDbSymbolTable
 70
               2
  0
STYLE
  5
17
100
AcDbSymbolTableRecord
100
AcDbTextStyleTableRecord
  2
Standard
 70
               0
 40
0.0
 41
1.0
 50
0.0
 71
               0
 42
0.0
  3
txt
  4
BIGFONT.SHX
  0
STYLE
  5
32
100
AcDbSymbolTableRecord
100
AcDbTextStyleTableRecord
  2
ＭＳ ゴシック
 70
               0
 40
0.0
 41
1.0
 50
0.0
 71
               0
 42
0.0
  3

  4
ＭＳ ゴシック
1001
ACAD
1000
ＭＳ ゴシック
1071
        0
  0
ENDTAB
  0
TABLE
  2
VIEW
  5
5
100
AcDbSymbolTable
 70
               0
  0
ENDTAB
  0
TABLE
  2
UCS
  5
6
100
AcDbSymbolTable
 70
               0
  0
ENDTAB
  0
TABLE
  2
APPID
  5
8
100
AcDbSymbolTable
 70
               1
  0
APPID
  5
16
100
AcDbSymbolTableRecord
100
AcDbRegAppTableRecord
  2
ACAD
 70
               0
  0
ENDTAB
  0
TABLE
  2
DIMSTYLE
  5
9
100
AcDbSymbolTable
 70
               3
100
AcDbDimStyleTable
 71
               0
  0
DIMSTYLE
105
18
100
AcDbSymbolTableRecord
100
AcDbDimStyleTableRecord
  2
Standard
 70
               0
  3

  4

 40
1.0
 41
0.18
 42
0.0625
 43
0.38
 44
0.18
 45
0.0
 46
0.0
 47
0.0
 48
0.0
 71
               0
 72
               0
 73
               1
 74
               1
 75
               0
 76
               0
 77
               0
 78
               0
 79
               0
140
0.18
141
0.09
142
0.0
143
25.399999999999999
144
1.0
145
0.0
146
1.0
147
0.09
148
0.0
170
               0
171
               2
172
               0
173
               0
174
               0
175
               0
176
               0
177
               0
178
               0
179
               0
271
               4
272
               4
273
               2
274
               2
275
               0
276
               0
277
               2
278
              46
279
               0
280
               0
281
               0
282
               0
283
               1
284
               0
285
               0
286
               0
288
               0
289
               3
340
17
341
0
342
0
343
0
344
0
371
              -2
372
              -2
  0
DIMSTYLE
105
4C
100
AcDbSymbolTableRecord
100
AcDbDimStyleTableRecord
  2
Tform線あり
 70
               0
  3
<>
  4
[]
 40
1.0
 41
3.999755859375
 42
24.999999999999996
 43
0.9999999999999999
 44
0.0
 45
0.0
 46
0.0
 47
0.0
 48
0.0
 71
               0
 72
               0
 73
               0
 74
               0
 75
               0
 76
               0
 77
               1
 78
              11
 79
               0
140
24.432617187500004
141
0.0
142
0.0
143
1.0
144
1.0
145
0.0
146
1.0
147
0.4999999999999999
148
0.0
170
               0
171
               1
172
               0
173
               0
174
               1
175
               0
176
               0
177
               0
178
               0
179
               2
271
               1
272
               1
273
               2
274
               2
275
               0
276
               2
277
               2
278
              46
279
               0
280
               0
281
               0
282
               0
283
               1
284
              11
285
              11
286
              11
288
               0
289
               0
340
32
341
44
342
44
343
0
344
0
371
              -2
372
              -2
  0
DIMSTYLE
105
51
100
AcDbSymbolTableRecord
100
AcDbDimStyleTableRecord
  2
JIS
 70
               0
  3
<>
  4
[]
 40
1.0
 41
31.75
 42
0.0
 43
6.9999999999999396
 44
19.999999999996199
 45
0.0
 46
0.0
 47
0.0
 48
0.0
 71
               0
 72
               0
 73
               0
 74
               0
 75
               0
 76
               0
 77
               1
 78
              11
 79
               0
140
24.432617187500004
141
0.0
142
0.0
143
1.0
144
1.0
145
0.0
146
1.0
147
1.00000000000108
148
0.0
170
               0
171
               1
172
               0
173
               0
174
               1
175
               0
176
               0
177
               0
178
               0
179
               2
271
               1
272
               1
273
               2
274
               2
275
               0
276
               2
277
               2
278
              46
279
               0
280
               0
281
               0
282
               0
283
               1
284
              11
285
              11
286
              11
288
               0
289
               0
340
32
341
4D
342
4D
343
0
344
0
371
              -2
372
              -2
  0
ENDTAB
  0
TABLE
  2
BLOCK_RECORD
  5
1
100
AcDbSymbolTable
 70
              17
  0
BLOCK_RECORD
  5
A
100
AcDbSymbolTableRecord
100
AcDbBlockTableRecord
  2
*MODEL_SPACE
340
20
  0
BLOCK_RECORD
  5
B
100
AcDbSymbolTableRecord
100
AcDbBlockTableRecord
  2
*PAPER_SPACE
340
21
  0
BLOCK_RECORD
  5
44
100
AcDbSymbolTableRecord
100
AcDbBlockTableRecord
  2
_DOT
340
0
  0
BLOCK_RECORD
  5
4D
100
AcDbSymbolTableRecord
100
AcDbBlockTableRecord
  2
VW_FILLEDARROW
340
0
  0
BLOCK_RECORD
  5
23
100
AcDbSymbolTableRecord
100
AcDbBlockTableRecord
  2
グループ
340
0
102
{BLKREFS
331
11B
102
}
  0
BLOCK_RECORD
  5
24
100
AcDbSymbolTableRecord
100
AcDbBlockTableRecord
  2
*D3
340
0
  0
BLOCK_RECORD
  5
25
100
AcDbSymbolTableRecord
100
AcDbBlockTableRecord
  2
*D4
340
0
  0
BLOCK_RECORD
  5
26
100
AcDbSymbolTableRecord
100
AcDbBlockTableRecord
  2
*D5
340
0
  0
BLOCK_RECORD
  5
27
100
AcDbSymbolTableRecord
100
AcDbBlockTableRecord
  2
*D6
340
0
  0
BLOCK_RECORD
  5
28
100
AcDbSymbolTableRecord
100
AcDbBlockTableRecord
  2
*D7
340
0
  0
BLOCK_RECORD
  5
29
100
AcDbSymbolTableRecord
100
AcDbBlockTableRecord
  2
*D8
340
0
  0
BLOCK_RECORD
  5
2A
100
AcDbSymbolTableRecord
100
AcDbBlockTableRecord
  2
*D9
340
0
  0
BLOCK_RECORD
  5
2B
100
AcDbSymbolTableRecord
100
AcDbBlockTableRecord
  2
*D10
340
0
  0
BLOCK_RECORD
  5
2C
100
AcDbSymbolTableRecord
100
AcDbBlockTableRecord
  2
*D11
340
0
  0
BLOCK_RECORD
  5
2D
100
AcDbSymbolTableRecord
100
AcDbBlockTableRecord
  2
*D12
340
0
  0
BLOCK_RECORD
  5
2E
100
AcDbSymbolTableRecord
100
AcDbBlockTableRecord
  2
*D13
340
0
  0
BLOCK_RECORD
  5
2F
100
AcDbSymbolTableRecord
100
AcDbBlockTableRecord
  2
*D14
340
0
  0
BLOCK_RECORD
  5
30
100
AcDbSymbolTableRecord
100
AcDbBlockTableRecord
  2
*D15
340
0
  0
BLOCK_RECORD
  5
31
100
AcDbSymbolTableRecord
100
AcDbBlockTableRecord
  2
*D16
340
0
  0
ENDTAB
  0
ENDSEC
  0
SECTION
  2
BLOCKS
  0
BLOCK
  5
D
100
AcDbEntity
  8
0
390
0
100
AcDbBlockBegin
  2
*MODEL_SPACE
 70
               0
 10
0.0
 20
0.0
 30
0.0
  3
*MODEL_SPACE
  1

  0
ENDBLK
  5
E
100
AcDbEntity
  8
0
390
0
100
AcDbBlockEnd
  0
BLOCK
  5
F
100
AcDbEntity
 67
               1
  8
0
390
0
100
AcDbBlockBegin
  2
*PAPER_SPACE
 70
               0
 10
0.0
 20
0.0
 30
0.0
  3
*PAPER_SPACE
  1

  0
ENDBLK
  5
10
100
AcDbEntity
 67
               1
  8
0
390
0
100
AcDbBlockEnd
  0
BLOCK
  5
45
100
AcDbEntity
  8
0
390
0
100
AcDbBlockBegin
  2
_DOT
 70
               0
 10
0.0
 20
0.0
 30
0.0
  3
_DOT
  1

  0
POLYLINE
  5
46
100
AcDbEntity
  8
0
370
              -2
390
0
  6
ByBlock
 62
               0
100
AcDb2dPolyline
 66
               1
 10
0.0
 20
0.0
 30
0.0
 70
               1
 40
0.5
 41
0.5
  0
VERTEX
  5
47
100
AcDbEntity
  8
0
370
              -2
390
0
  6
ByBlock
 62
               0
100
AcDbVertex
100
AcDb2dVertex
 10
-0.25
 20
0.0
 30
0.0
 42
1.0
  0
VERTEX
  5
48
100
AcDbEntity
  8
0
370
              -2
390
0
  6
ByBlock
 62
               0
100
AcDbVertex
100
AcDb2dVertex
 10
0.25
 20
0.0
 30
0.0
 42
1.0
  0
SEQEND
  5
49
100
AcDbEntity
  8
0
390
0
  0
LINE
  5
4A
100
AcDbEntity
  8
0
370
              -2
390
0
  6
ByBlock
 62
               0
100
AcDbLine
 10
-0.5
 20
0.0
 30
0.0
 11
-1.0
 21
0.0
 31
0.0
  0
ENDBLK
  5
4B
100
AcDbEntity
  8
0
390
0
100
AcDbBlockEnd
  0
BLOCK
  5
4E
100
AcDbEntity
  8
0
370
              -2
390
0
  6
ByBlock
 62
               0
100
AcDbBlockBegin
  2
VW_FILLEDARROW
 70
               0
 10
0.0
 20
0.0
 30
0.0
  3
VW_FILLEDARROW
  1

  0
SOLID
  5
4F
100
AcDbEntity
  8
0
370
              -2
390
0
 62
               0
100
AcDbTrace
 10
0.0
 20
0.0
 30
0.0
 11
-0.9921874999999999
 21
-0.2658558393652545
 31
0.0
 12
-0.9921874999999999
 22
0.2658558393652548
 32
0.0
 13
-0.9921874999999999
 23
0.2658558393652548
 33
0.0
  0
ENDBLK
  5
50
100
AcDbEntity
  8
0
390
0
100
AcDbBlockEnd
  0
BLOCK
  5
52
100
AcDbEntity
  8
template
390
0
100
AcDbBlockBegin
  2
グループ
 70
               0
 10
0.0
 20
0.0
 30
0.0
  3
グループ
  1

  0
LWPOLYLINE
  5
53
100
AcDbEntity
  8
0
370
              15
390
0
  6
Continuous
 62
               7
100
AcDbPolyline
 90
        8
 70
             129
 10
-11834.323892247801
 20
7145.0020717238995
 10
-11834.323892247801
 20
7139.0046830303236
 10
-11843.825089165803
 20
7139.0046830303236
 10
-11843.825089165803
 20
7114.5537197668145
 10
-11852.180466427586
 20
7114.5537197668145
 10
-11852.180466427586
 20
7139.0046830303236
 10
-11861.513423373895
 20
7139.0046830303236
 10
-11861.513423373895
 20
7145.0020717238995
  0
LWPOLYLINE
  5
54
100
AcDbEntity
  8
0
370
              15
390
0
  6
Continuous
 62
               7
100
AcDbPolyline
 90
      101
 70
             128
 10
-11821.595600417244
 20
7144.273823230963
 10
-11821.580250388453
 20
7144.2781839876498
 42
-0.0222221607802184
 10
-11821.290245811786
 20
7144.3468084528922
 10
-11821.274452047819
 20
7144.3498118759844
 42
-0.0146883565628235
 10
-11821.01174934257
 20
7144.3918150629388
 42
-0.012745884414814
 10
-11820.747110375385
 20
7144.4193520310146
 10
-11820.684655297104
 20
7144.4242454535997
 42
-0.0198099018576029
 10
-11820.293806187639
 20
7144.4393306109969
 10
-11820.241994718182
 20
7144.4392768353318
 42
-0.0147617382749259
 10
-11819.747371257212
 20
7144.4241568100861
 10
-11819.674679802338
 20
7144.4197842031981
 42
-0.0162624548995989
 10
-11819.284526172869
 20
7144.3835513279264
 10
-11819.162993781621
 20
7144.3682647689311
 42
-0.0080020874671193
 10
-11819.017414750519
 20
7144.3475819216619
 10
-11818.979095279978
 20
7144.3415106438597
 42
-0.0053821929649887
 10
-11818.910611174608
 20
7144.3299031200286
 10
-11819.637016873807
 20
7142.1489746643147
 42
0.0108667757375146
 10
-11819.704333943951
 20
7142.1621617795372
 10
-11819.741801967128
 20
7142.168659522129
 42
0.0170663203327677
 10
-11819.885018754017
 20
7142.1884891194177
 10
-11819.952894086726
 20
7142.195536290008
 42
0.022016237525628
 10
-11820.233273494579
 20
7142.2122186507786
 10
-11820.311129061622
 20
7142.2134180180446
 42
0.0282606915751734
 10
-11820.646765385212
 20
7142.1996147410764
 10
-11820.690678658962
 20
7142.1953147510749
 42
0.0169677213742395
 10
-11820.936603153943
 20
7142.1627777015201
 42
0.0190576269842665
 10
-11821.179511116514
 20
7142.112630829416
 10
-11821.185770304633
 20
7142.1110878553045
 42
0.021368564285961
 10
-11821.436154789104
 20
7142.0378875702027
 10
-11821.441644684026
 20
7142.0360245741413
 42
0.0237595297593493
 10
-11821.695139568912
 20
7141.9363400522516
 10
-11821.700241642955
 20
7141.9340482767675
 42
0.0261857468785515
 10
-11821.95241241917
 20
7141.8045119394019
 10
-11821.962838608248
 20
7141.798446464938
 42
0.0272553061958142
 10
-11822.199268383512
 20
7141.6430742589801
 10
-11822.234031397
 20
7141.6174131109046
 42
0.0325996893147817
 10
-11822.384186740674
 20
7141.4906652379159
 10
-11822.407896169712
 20
7141.4678472094838
 42
0.0138050960512772
 10
-11822.499779326005
 20
7141.3743975478519
 42
0.0125280103786959
 10
-11822.586621858794
 20
7141.2762342213045
 10
-11822.610302303747
 20
7141.2480757230642
 42
0.02052180247355
 10
-11822.7354023793
 20
7141.0862824087817
 10
-11822.757868719747
 20
7141.0546226790084
 42
0.0163110129586666
 10
-11822.913579099024
 20
7140.8192922439002
 10
-11822.916302995051
 20
7140.8148684819535
 42
0.0131897341867402
 10
-11823.063103515939
 20
7140.5617363896226
 10
-11823.064803611323
 20
7140.5586181504532
 42
0.0107895576085595
 10
-11823.202580313528
 20
7140.2924029408305
 10
-11823.203313203059
 20
7140.2909087081716
 42
0.009137150722872
 10
-11823.331793151739
 20
7140.0163835103431
 10
-11823.361538783118
 20
7139.9496770032529
 42
0.0135418326330633
 10
-11823.533252722173
 20
7139.5347392180302
 10
-11823.566857530654
 20
7139.4468730756262
 42
0.0092834542422805
 10
-11823.738086590543
 20
7138.9729745773975
 10
-11823.763703718314
 20
7138.8977335074469
 42
0.0054261043639646
 10
-11823.871341866554
 20
7138.5699695345393
 10
-11823.888867852824
 20
7138.5145813720155
 42
0.0008225090876322
 10
-11823.957537904562
 20
7138.2963126141594
 10
-11824.942227036496
 20
7135.2714213209028
 10
-11821.709603196421
 20
7135.2714213209028
 10
-11822.213795626274
 20
7133.3669430225509
 10
-11825.469851908259
 20
7133.3669430225509
 10
-11831.299000940613
 20
7114.553719956546
 10
-11833.124098550923
 20
7114.553719956546
 10
-11827.289420515423
 20
7133.3669430225509
 10
-11829.694536884463
 20
7133.3669430225509
 10
-11829.190344454608
 20
7135.2714213209028
 10
-11826.761795643659
 20
7135.2714213209028
 10
-11825.901640725469
 20
7137.9078343216024
 42
-0.0005863560518787
 10
-11825.864906046934
 20
7138.0246607429463
 10
-11825.788818213605
 20
7138.2656530412787
 42
-0.0087522378942966
 10
-11825.589350070139
 20
7138.8609291284502
 10
-11825.497085794705
 20
7139.1210692970235
 42
-0.0077400953820878
 10
-11825.239152135604
 20
7139.8140739744867
 10
-11825.223387164018
 20
7139.8545048578908
 42
-0.0082369946335262
 10
-11824.976302693412
 20
7140.4585839240681
 42
-0.0085725238368877
 10
-11824.70905659743
 20
7141.0540099633145
 10
-11824.607426996386
 20
7141.2704310653753
 42
-0.0168109410595549
 10
-11824.320482567673
 20
7141.8316385914459
 10
-11824.19463917678
 20
7142.0586026252267
 42
-0.0007817726822168
 10
-11824.140354827159
 20
7142.1561468694736
 10
-11824.140226521195
 20
7142.1563765781148
 42
-0.0036626142221427
 10
-11824.085338657118
 20
7142.2529744581789
 42
-0.0080221150636454
 10
-11824.028214401696
 20
7142.348253692956
 10
-11823.997514450351
 20
7142.3976446420538
 42
-0.0202139325562294
 10
-11823.869858710535
 20
7142.5856262427496
 10
-11823.815791245357
 20
7142.6587051069764
 42
-0.0249323791760623
 10
-11823.556628451637
 20
7142.9747503491317
 10
-11823.532488637511
 20
7143.0013646220432
 42
-0.0242132121525314
 10
-11823.192807895954
 20
7143.3412481082623
 10
-11823.144896323209
 20
7143.3847572444411
 42
-0.0251017527883814
 10
-11822.860914622577
 20
7143.6177499901978
 10
-11822.859469145784
 20
7143.6188192477612
 42
-0.01308680690147
 10
-11822.561208495807
 20
7143.8275997163191
 10
-11822.559646676651
 20
7143.8286331566023
 42
-0.0290329526408087
 10
-11822.248535535271
 20
7144.0094586582236
 10
-11822.218689973333
 20
7144.0245610410393
 42
-0.0160250190057133
 10
-11821.952785559519
 20
7144.1485771512762
 42
-0.0267600374809239
 10
-11821.677509482075
 20
7144.2493254718174
 10
-11821.650773562531
 20
7144.2575180306503
 42
-0.0049981587550454
 10
-11821.595600417244
 20
7144.273823230963
 42
-0.0049981587550454
  0
LWPOLYLINE
  5
55
100
AcDbEntity
  8
0
370
              15
390
0
  6
Continuous
 62
               7
100
AcDbPolyline
 90
      118
 70
             128
 10
-11801.781232852796
 20
7135.1974379930762
 10
-11799.906110928296
 20
7135.1974379930762
 10
-11800.744149833896
 20
7132.5158714666759
 42
-0.0010587229564751
 10
-11800.712694018865
 20
7132.5527759993984
 10
-11800.654499927692
 20
7132.6207582562065
 42
-0.007187474033066
 10
-11800.504124709512
 20
7132.7913989483277
 10
-11800.362401936332
 20
7132.9476350895493
 42
-0.0148118053542817
 10
-11799.912272643665
 20
7133.4152489355183
 10
-11799.825050308735
 20
7133.5006462563997
 42
-0.0086273358714167
 10
-11799.489501507709
 20
7133.8180218904326
 10
-11799.445667791453
 20
7133.8580715347935
 42
-0.0103138323113929
 10
-11799.18764408925
 20
7134.0842346721038
 10
-11799.141869683079
 20
7134.1227167192346
 42
-0.0060206748616974
 10
-11798.96902161881
 20
7134.2645113701183
 10
-11798.96699048789
 20
7134.266137075776
 42
-0.0067069027320808
 10
-11798.794697673262
 20
7134.4002877095445
 10
-11798.79214890736
 20
7134.4022178794021
 42
-0.0076184352049807
 10
-11798.621243641464
 20
7134.5275927546627
 42
-0.0089652861638915
 10
-11798.44628267874
 20
7134.6472260149894
 10
-11798.409930958602
 20
7134.6711372284699
 42
-0.0156916245942215
 10
-11798.213971461426
 20
7134.7913997149535
 42
-0.0023299011055785
 10
-11798.013709417424
 20
7134.9045776545063
 10
-11797.998325285065
 20
7134.9131776495587
 42
-0.0107669341528406
 10
-11797.76408845998
 20
7135.0375777829004
 10
-11797.741823658889
 20
7135.0487945328587
 42
-0.0078058045908071
 10
-11797.458233540876
 20
7135.1861559885256
 10
-11797.448326453228
 20
7135.1907651163656
 42
-0.0181829330475487
 10
-11797.138017048632
 20
7135.3216288574531
 10
-11797.083961606026
 20
7135.3421439774111
 42
-0.020841153604601
 10
-11796.734876638595
 20
7135.4582344398968
 10
-11796.720520538456
 20
7135.4623528848533
 42
-0.0222799817164566
 10
-11796.39180074455
 20
7135.5409944509911
 10
-11796.382911781331
 20
7135.5427064615724
 42
-0.0215509523939357
 10
-11796.066440813032
 20
7135.5896221501098
 10
-11796.023958852009
 20
7135.5940596768978
 42
-0.0182545924891084
 10
-11795.789850072679
 20
7135.6099035022926
 10
-11795.75044905637
 20
7135.6111280473706
 42
-0.0072962856624329
 10
-11795.594526176643
 20
7135.613697375893
 10
-11795.565426506028
 20
7135.6137522112967
 42
-0.0059227516427201
 10
-11795.467677006925
 20
7135.6127784995069
 10
-11795.438434789501
 20
7135.6121407329047
 42
-0.001183311167093
 10
-11795.39918350572
 20
7135.6111917285934
 10
-11796.194570101328
 20
7133.0724577834944
 42
0.0143932051796907
 10
-11796.220971483675
 20
7133.0826567535387
 10
-11796.228243456095
 20
7133.0852279723968
 42
0.0234388603292594
 10
-11796.27007432203
 20
7133.0978472081133
 10
-11796.27875598494
 20
7133.1000281701181
 42
0.019916274288072
 10
-11796.339044819035
 20
7133.1126449054564
 10
-11796.359858756827
 20
7133.1161421048819
 42
0.0293643550720095
 10
-11796.46293361559
 20
7133.1272921505351
 10
-11796.487618796305
 20
7133.1285037675534
 42
0.0214606686830155
 10
-11796.640759712269
 20
7133.1294423279696
 10
-11796.650131623077
 20
7133.1290974164258
 42
0.0167564054211367
 10
-11796.821651814207
 20
7133.1170203740558
 10
-11796.830111606945
 20
7133.116139033631
 42
0.0137677553295682
 10
-11797.017464920236
 20
7133.091389725083
 10
-11797.024816659716
 20
7133.0902118051199
 42
0.0118497261472774
 10
-11797.225314423828
 20
7133.0531944549284
 10
-11797.231464431065
 20
7133.0519075922102
 42
0.0106421143828172
 10
-11797.442345318335
 20
7133.0030752166385
 10
-11797.447254126739
 20
7133.0018278739499
 42
0.0099746379709439
 10
-11797.665712595934
 20
7132.941653345626
 10
-11797.727260636071
 20
7132.9233714670045
 42
0.0191613675865825
 10
-11798.063245098596
 20
7132.8093940867147
 10
-11798.151304871342
 20
7132.7757071763908
 42
0.0205274080187073
 10
-11798.536611643234
 20
7132.6098787685678
 10
-11798.594260925202
 20
7132.582210804002
 42
0.0181256912177384
 10
-11798.852537865883
 20
7132.446526985017
 10
-11798.905493249169
 20
7132.4162093718187
 42
0.0140709242391926
 10
-11799.050448183825
 20
7132.3277146983683
 10
-11799.076697052455
 20
7132.310657879646
 42
0.0086667884443423
 10
-11799.165623213987
 20
7132.2506552117702
 42
0.0036408192000318
 10
-11799.253056451998
 20
7132.1884743539931
 10
-11799.288283326488
 20
7132.1630334080646
 42
0.0052260781338596
 10
-11799.444512023923
 20
7132.0477010213963
 10
-11799.460718880138
 20
7132.0354729108121
 42
0.0050024435936368
 10
-11799.646722223233
 20
7131.8921903425226
 10
-11799.662040379713
 20
7131.8801443201046
 42
0.0136138710284631
 10
-11799.87248164801
 20
7131.7051778152154
 10
-11799.906149523831
 20
7131.6755988424775
 42
0.0172815186923771
 10
-11800.170553065491
 20
7131.4266021698568
 10
-11800.173115411337
 20
7131.4240163527065
 42
0.0189403857997883
 10
-11800.423697209921
 20
7131.1512110878984
 10
-11800.456328703418
 20
7131.1128671564456
 42
0.0185044199454587
 10
-11800.648285142432
 20
7130.8696185752815
 42
0.0088565243850729
 10
-11800.826745248993
 20
7130.6161021552316
 10
-11800.835923228709
 20
7130.6025607753718
 42
0.0157195347244496
 10
-11801.019143835034
 20
7130.3130385660743
 10
-11801.065226776942
 20
7130.2348863690922
 42
0.0095451879741709
 10
-11801.230312327112
 20
7129.9422917266784
 10
-11801.241460246069
 20
7129.9216210544964
 42
0.0100351706252449
 10
-11801.373503995201
 20
7129.6645654940567
 42
0.0086935915468071
 10
-11801.495835147032
 20
7129.4027323485698
 10
-11801.49915588841
 20
7129.39529002568
 42
0.0072580174851408
 10
-11801.619502340322
 20
7129.1146980341791
 10
-11801.622763973661
 20
7129.1067780080793
 42
0.0060005122591977
 10
-11801.741964641988
 20
7128.8071683375138
 10
-11801.745175620345
 20
7128.7988068095692
 42
0.0049017787000884
 10
-11801.864075779222
 20
7128.4798778289087
 10
-11801.867241585593
 20
7128.4711248917338
 42
0.0039415167604237
 10
-11801.986677863684
 20
7128.1325828292211
 10
-11801.989808966302
 20
7128.1234796284443
 42
0.0031035838756557
 10
-11802.110613751976
 20
7127.7650397667321
 10
-11802.113723796527
 20
7127.7556191452968
 42
0.0025070747143159
 10
-11802.236625147869
 20
7127.3769719282645
 10
-11802.273919044266
 20
7127.2600802630996
 42
0.0029081910277295
 10
-11802.465937342069
 20
7126.6459166048344
 10
-11802.506740510595
 20
7126.5126933625324
 42
0.0009266453734287
 10
-11802.77515788498
 20
7125.6304689023691
 10
-11802.796045357263
 20
7125.561357024314
 42
-0.0005809993670368
 10
-11803.073382038139
 20
7124.6475489167333
 10
-11803.139663836353
 20
7124.4300639847688
 42
-0.0012018708180156
 10
-11803.286648145842
 20
7123.9519013200534
 10
-11803.338967998316
 20
7123.7831421762612
 42
-0.0002691059562816
 10
-11803.382537478577
 20
7123.6428745588455
 10
-11806.215493376865
 20
7114.553719956546
 10
-11808.033482268844
 20
7114.553719956546
 10
-11801.781232852796
 20
7135.1974379930762
  0
SPLINE
  5
56
100
AcDbEntity
  8
0
370
              15
390
0
  6
Continuous
 62
               7
100
AcDbSpline
210
0.0
220
0.0
230
1.0
 70
              13
 71
               2
 72
             782
 73
             779
 74
               0
 42
0.000001
 43
0.000001
 40
0.0
 40
0.0
 40
0.0
 40
1.0
 40
1.0
 40
2.0
 40
2.0
 40
3.0
 40
3.0
 40
4.0
 40
4.0
 40
5.0
 40
5.0
 40
6.0
 40
6.0
 40
7.0
 40
7.0
 40
8.0
 40
8.0
 40
9.0
 40
9.0
 40
10.0
 40
10.0
 40
11.0
 40
11.0
 40
12.0
 40
12.0
 40
13.0
 40
13.0
 40
14.0
 40
14.0
 40
15.0
 40
15.0
 40
16.0
 40
16.0
 40
17.0
 40
17.0
 40
18.0
 40
18.0
 40
19.0
 40
19.0
 40
20.0
 40
20.0
 40
21.0
 40
21.0
 40
22.0
 40
22.0
 40
23.0
 40
23.0
 40
24.0
 40
24.0
 40
25.0
 40
25.0
 40
26.0
 40
26.0
 40
27.0
 40
27.0
 40
28.0
 40
28.0
 40
29.0
 40
29.0
 40
30.0
 40
30.0
 40
31.0
 40
31.0
 40
32.0
 40
32.0
 40
33.0
 40
33.0
 40
34.0
 40
34.0
 40
35.0
 40
35.0
 40
36.0
 40
36.0
 40
37.0
 40
37.0
 40
38.0
 40
38.0
 40
39.0
 40
39.0
 40
40.0
 40
40.0
 40
41.0
 40
41.0
 40
42.0
 40
42.0
 40
43.0
 40
43.0
 40
44.0
 40
44.0
 40
45.0
 40
45.0
 40
46.0
 40
46.0
 40
47.0
 40
47.0
 40
48.0
 40
48.0
 40
49.0
 40
49.0
 40
50.0
 40
50.0
 40
51.0
 40
51.0
 40
52.0
 40
52.0
 40
53.0
 40
53.0
 40
54.0
 40
54.0
 40
55.0
 40
55.0
 40
56.0
 40
56.0
 40
57.0
 40
57.0
 40
58.0
 40
58.0
 40
59.0
 40
59.0
 40
60.0
 40
60.0
 40
61.0
 40
61.0
 40
62.0
 40
62.0
 40
63.0
 40
63.0
 40
64.0
 40
64.0
 40
65.0
 40
65.0
 40
66.0
 40
66.0
 40
67.0
 40
67.0
 40
68.0
 40
68.0
 40
69.0
 40
69.0
 40
70.0
 40
70.0
 40
71.0
 40
71.0
 40
72.0
 40
72.0
 40
73.0
 40
73.0
 40
74.0
 40
74.0
 40
75.0
 40
75.0
 40
76.0
 40
76.0
 40
77.0
 40
77.0
 40
78.0
 40
78.0
 40
79.0
 40
79.0
 40
80.0
 40
80.0
 40
81.0
 40
81.0
 40
82.0
 40
82.0
 40
83.0
 40
83.0
 40
84.0
 40
84.0
 40
85.0
 40
85.0
 40
86.0
 40
86.0
 40
87.0
 40
87.0
 40
88.0
 40
88.0
 40
89.0
 40
89.0
 40
90.0
 40
90.0
 40
91.0
 40
91.0
 40
92.0
 40
92.0
 40
93.0
 40
93.0
 40
94.0
 40
94.0
 40
95.0
 40
95.0
 40
96.0
 40
96.0
 40
97.0
 40
97.0
 40
98.0
 40
98.0
 40
99.0
 40
99.0
 40
100.0
 40
100.0
 40
101.0
 40
101.0
 40
102.0
 40
102.0
 40
103.0
 40
103.0
 40
104.0
 40
104.0
 40
105.0
 40
105.0
 40
106.0
 40
106.0
 40
107.0
 40
107.0
 40
108.0
 40
108.0
 40
109.0
 40
109.0
 40
110.0
 40
110.0
 40
111.0
 40
111.0
 40
112.0
 40
112.0
 40
113.0
 40
113.0
 40
114.0
 40
114.0
 40
115.0
 40
115.0
 40
116.0
 40
116.0
 40
117.0
 40
117.0
 40
118.0
 40
118.0
 40
119.0
 40
119.0
 40
120.0
 40
120.0
 40
121.0
 40
121.0
 40
122.0
 40
122.0
 40
123.0
 40
123.0
 40
124.0
 40
124.0
 40
125.0
 40
125.0
 40
126.0
 40
126.0
 40
127.0
 40
127.0
 40
128.0
 40
128.0
 40
129.0
 40
129.0
 40
130.0
 40
130.0
 40
131.0
 40
131.0
 40
132.0
 40
132.0
 40
133.0
 40
133.0
 40
134.0
 40
134.0
 40
135.0
 40
135.0
 40
136.0
 40
136.0
 40
137.0
 40
137.0
 40
138.0
 40
138.0
 40
139.0
 40
139.0
 40
140.0
 40
140.0
 40
141.0
 40
141.0
 40
142.0
 40
142.0
 40
143.0
 40
143.0
 40
144.0
 40
144.0
 40
145.0
 40
145.0
 40
146.0
 40
146.0
 40
147.0
 40
147.0
 40
148.0
 40
148.0
 40
149.0
 40
149.0
 40
150.0
 40
150.0
 40
151.0
 40
151.0
 40
152.0
 40
152.0
 40
153.0
 40
153.0
 40
154.0
 40
154.0
 40
155.0
 40
155.0
 40
156.0
 40
156.0
 40
157.0
 40
157.0
 40
158.0
 40
158.0
 40
159.0
 40
159.0
 40
160.0
 40
160.0
 40
161.0
 40
161.0
 40
162.0
 40
162.0
 40
163.0
 40
163.0
 40
164.0
 40
164.0
 40
165.0
 40
165.0
 40
166.0
 40
166.0
 40
167.0
 40
167.0
 40
168.0
 40
168.0
 40
169.0
 40
169.0
 40
170.0
 40
170.0
 40
171.0
 40
171.0
 40
172.0
 40
172.0
 40
173.0
 40
173.0
 40
174.0
 40
174.0
 40
175.0
 40
175.0
 40
176.0
 40
176.0
 40
177.0
 40
177.0
 40
178.0
 40
178.0
 40
179.0
 40
179.0
 40
180.0
 40
180.0
 40
181.0
 40
181.0
 40
182.0
 40
182.0
 40
183.0
 40
183.0
 40
184.0
 40
184.0
 40
185.0
 40
185.0
 40
186.0
 40
186.0
 40
187.0
 40
187.0
 40
188.0
 40
188.0
 40
189.0
 40
189.0
 40
190.0
 40
190.0
 40
191.0
 40
191.0
 40
192.0
 40
192.0
 40
193.0
 40
193.0
 40
194.0
 40
194.0
 40
195.0
 40
195.0
 40
196.0
 40
196.0
 40
197.0
 40
197.0
 40
198.0
 40
198.0
 40
199.0
 40
199.0
 40
200.0
 40
200.0
 40
201.0
 40
201.0
 40
202.0
 40
202.0
 40
203.0
 40
203.0
 40
204.0
 40
204.0
 40
205.0
 40
205.0
 40
206.0
 40
206.0
 40
207.0
 40
207.0
 40
208.0
 40
208.0
 40
209.0
 40
209.0
 40
210.0
 40
210.0
 40
211.0
 40
211.0
 40
212.0
 40
212.0
 40
213.0
 40
213.0
 40
214.0
 40
214.0
 40
215.0
 40
215.0
 40
216.0
 40
216.0
 40
217.0
 40
217.0
 40
218.0
 40
218.0
 40
219.0
 40
219.0
 40
220.0
 40
220.0
 40
221.0
 40
221.0
 40
222.0
 40
222.0
 40
223.0
 40
223.0
 40
224.0
 40
224.0
 40
225.0
 40
225.0
 40
226.0
 40
226.0
 40
227.0
 40
227.0
 40
228.0
 40
228.0
 40
229.0
 40
229.0
 40
230.0
 40
230.0
 40
231.0
 40
231.0
 40
232.0
 40
232.0
 40
233.0
 40
233.0
 40
234.0
 40
234.0
 40
235.0
 40
235.0
 40
236.0
 40
236.0
 40
237.0
 40
237.0
 40
238.0
 40
238.0
 40
239.0
 40
239.0
 40
240.0
 40
240.0
 40
241.0
 40
241.0
 40
242.0
 40
242.0
 40
243.0
 40
243.0
 40
244.0
 40
244.0
 40
245.0
 40
245.0
 40
246.0
 40
246.0
 40
247.0
 40
247.0
 40
248.0
 40
248.0
 40
249.0
 40
249.0
 40
250.0
 40
250.0
 40
251.0
 40
251.0
 40
252.0
 40
252.0
 40
253.0
 40
253.0
 40
254.0
 40
254.0
 40
255.0
 40
255.0
 40
256.0
 40
256.0
 40
257.0
 40
257.0
 40
258.0
 40
258.0
 40
259.0
 40
259.0
 40
260.0
 40
260.0
 40
261.0
 40
261.0
 40
262.0
 40
262.0
 40
263.0
 40
263.0
 40
264.0
 40
264.0
 40
265.0
 40
265.0
 40
266.0
 40
266.0
 40
267.0
 40
267.0
 40
268.0
 40
268.0
 40
269.0
 40
269.0
 40
270.0
 40
270.0
 40
271.0
 40
271.0
 40
272.0
 40
272.0
 40
273.0
 40
273.0
 40
274.0
 40
274.0
 40
275.0
 40
275.0
 40
276.0
 40
276.0
 40
277.0
 40
277.0
 40
278.0
 40
278.0
 40
279.0
 40
279.0
 40
280.0
 40
280.0
 40
281.0
 40
281.0
 40
282.0
 40
282.0
 40
283.0
 40
283.0
 40
284.0
 40
284.0
 40
285.0
 40
285.0
 40
286.0
 40
286.0
 40
287.0
 40
287.0
 40
288.0
 40
288.0
 40
289.0
 40
289.0
 40
290.0
 40
290.0
 40
291.0
 40
291.0
 40
292.0
 40
292.0
 40
293.0
 40
293.0
 40
294.0
 40
294.0
 40
295.0
 40
295.0
 40
296.0
 40
296.0
 40
297.0
 40
297.0
 40
298.0
 40
298.0
 40
299.0
 40
299.0
 40
300.0
 40
300.0
 40
301.0
 40
301.0
 40
302.0
 40
302.0
 40
303.0
 40
303.0
 40
304.0
 40
304.0
 40
305.0
 40
305.0
 40
306.0
 40
306.0
 40
307.0
 40
307.0
 40
308.0
 40
308.0
 40
309.0
 40
309.0
 40
310.0
 40
310.0
 40
311.0
 40
311.0
 40
312.0
 40
312.0
 40
313.0
 40
313.0
 40
314.0
 40
314.0
 40
315.0
 40
315.0
 40
316.0
 40
316.0
 40
317.0
 40
317.0
 40
318.0
 40
318.0
 40
319.0
 40
319.0
 40
320.0
 40
320.0
 40
321.0
 40
321.0
 40
322.0
 40
322.0
 40
323.0
 40
323.0
 40
324.0
 40
324.0
 40
325.0
 40
325.0
 40
326.0
 40
326.0
 40
327.0
 40
327.0
 40
328.0
 40
328.0
 40
329.0
 40
329.0
 40
330.0
 40
330.0
 40
331.0
 40
331.0
 40
332.0
 40
332.0
 40
333.0
 40
333.0
 40
334.0
 40
334.0
 40
335.0
 40
335.0
 40
336.0
 40
336.0
 40
337.0
 40
337.0
 40
338.0
 40
338.0
 40
339.0
 40
339.0
 40
340.0
 40
340.0
 40
341.0
 40
341.0
 40
342.0
 40
342.0
 40
343.0
 40
343.0
 40
344.0
 40
344.0
 40
345.0
 40
345.0
 40
346.0
 40
346.0
 40
347.0
 40
347.0
 40
348.0
 40
348.0
 40
349.0
 40
349.0
 40
350.0
 40
350.0
 40
351.0
 40
351.0
 40
352.0
 40
352.0
 40
353.0
 40
353.0
 40
354.0
 40
354.0
 40
355.0
 40
355.0
 40
356.0
 40
356.0
 40
357.0
 40
357.0
 40
358.0
 40
358.0
 40
359.0
 40
359.0
 40
360.0
 40
360.0
 40
361.0
 40
361.0
 40
362.0
 40
362.0
 40
363.0
 40
363.0
 40
364.0
 40
364.0
 40
365.0
 40
365.0
 40
366.0
 40
366.0
 40
367.0
 40
367.0
 40
368.0
 40
368.0
 40
369.0
 40
369.0
 40
370.0
 40
370.0
 40
371.0
 40
371.0
 40
372.0
 40
372.0
 40
373.0
 40
373.0
 40
374.0
 40
374.0
 40
375.0
 40
375.0
 40
376.0
 40
376.0
 40
377.0
 40
377.0
 40
378.0
 40
378.0
 40
379.0
 40
379.0
 40
380.0
 40
380.0
 40
381.0
 40
381.0
 40
382.0
 40
382.0
 40
383.0
 40
383.0
 40
384.0
 40
384.0
 40
385.0
 40
385.0
 40
386.0
 40
386.0
 40
387.0
 40
387.0
 40
388.0
 40
388.0
 40
389.0
 40
389.0
 40
389.0
 10
-11791.452528402064
 20
7135.2083643564383
 30
0.0
 41
1.0
 10
-11790.634104293344
 20
7135.2083643564383
 30
0.0
 41
1.0
 10
-11789.815680184623
 20
7135.2083643564383
 30
0.0
 41
1.0
 10
-11790.22943392014
 20
7133.8657380921886
 30
0.0
 41
1.0
 10
-11790.643187655656
 20
7132.5231118279389
 30
0.0
 41
1.0
 10
-11790.624848160387
 20
7132.5518126010047
 30
0.0
 41
0.9999957264362782
 10
-11790.606341163366
 20
7132.5804056514526
 30
0.0
 41
1.0
 10
-11790.575911839374
 20
7132.6274185296024
 30
0.0
 41
1.0
 10
-11790.545482515383
 20
7132.6744314077532
 30
0.0
 41
1.0
 10
-11790.466116870277
 20
7132.7970502146563
 30
0.0
 41
0.9995394069082523
 10
-11790.379458478714
 20
7132.9146282764132
 30
0.0
 41
1.0
 10
-11790.343701616472
 20
7132.9631431689841
 30
0.0
 41
1.0
 10
-11790.307944754228
 20
7133.011658061555
 30
0.0
 41
1.0
 10
-11790.1742180864
 20
7133.1930983366974
 30
0.0
 41
0.9994460617141271
 10
-11790.028717605099
 20
7133.3652407343607
 30
0.0
 41
1.0
 10
-11790.024329424117
 20
7133.3704324147511
 30
0.0
 41
1.0
 10
-11790.019941243136
 20
7133.3756240951416
 30
0.0
 41
1.0
 10
-11789.88321712381
 20
7133.5373831320112
 30
0.0
 41
0.9994359394934151
 10
-11789.735942893461
 20
7133.6895993331746
 30
0.0
 41
1.0
 10
-11789.733559539509
 20
7133.6920626635474
 30
0.0
 41
1.0
 10
-11789.731176185554
 20
7133.6945259939212
 30
0.0
 41
1.0
 10
-11789.588668663117
 20
7133.8418155343315
 30
0.0
 41
0.9995293688568299
 10
-11789.437396982126
 20
7133.9800887465044
 30
0.0
 41
1.0
 10
-11789.418103222833
 20
7133.9977246321823
 30
0.0
 41
1.0
 10
-11789.398809463541
 20
7134.0153605178602
 30
0.0
 41
1.0
 10
-11789.286125301111
 20
7134.1183619586945
 30
0.0
 41
0.9997087614805196
 10
-11789.168602412188
 20
7134.2158062394665
 30
0.0
 41
1.0
 10
-11789.149436339074
 20
7134.2316978179242
 30
0.0
 41
1.0
 10
-11789.130270265958
 20
7134.2475893963829
 30
0.0
 41
1.0
 10
-11789.051079523264
 20
7134.3132505202402
 30
0.0
 41
0.9999595338692157
 10
-11788.970720252379
 20
7134.3774762509183
 30
0.0
 41
1.0
 10
-11788.890360981497
 20
7134.4417019815955
 30
0.0
 41
0.9999749417504967
 10
-11788.809100447123
 20
7134.5047835355654
 30
0.0
 41
1.0
 10
-11788.788114301038
 20
7134.5210748228064
 30
0.0
 41
1.0
 10
-11788.767128154954
 20
7134.5373661100475
 30
0.0
 41
1.0
 10
-11788.682560269603
 20
7134.6030151199284
 30
0.0
 41
0.9999792037120188
 10
-11788.597152669778
 20
7134.6675679016134
 30
0.0
 41
1.0
 10
-11788.576327843701
 20
7134.6833077239953
 30
0.0
 41
1.0
 10
-11788.555503017626
 20
7134.6990475463772
 30
0.0
 41
1.0
 10
-11788.511745069847
 20
7134.7321206833785
 30
0.0
 41
0.9999993373908862
 10
-11788.468063383865
 20
7134.7652944786805
 30
0.0
 41
1.0
 10
-11788.424381697698
 20
7134.7984682741217
 30
0.0
 41
0.9999160953814538
 10
-11788.379855286799
 20
7134.830499339304
 30
0.0
 41
1.0
 10
-11788.347033399381
 20
7134.8541104948881
 30
0.0
 41
1.0
 10
-11788.314211511963
 20
7134.8777216504723
 30
0.0
 41
1.0
 10
-11788.204041326204
 20
7134.956975026842
 30
0.0
 41
0.9980964527227189
 10
-11788.0849523327
 20
7135.0220624996991
 30
0.0
 41
1.0
 10
-11788.04791972577
 20
7135.0423024792926
 30
0.0
 41
1.0
 10
-11788.01088711884
 20
7135.062542458887
 30
0.0
 41
1.0
 10
-11787.831560105573
 20
7135.1605527095844
 30
0.0
 41
0.9984572810574782
 10
-11787.642471539217
 20
7135.23807497093
 30
0.0
 41
1.0
 10
-11787.63882526982
 20
7135.2395698632681
 30
0.0
 41
1.0
 10
-11787.635179000425
 20
7135.2410647556062
 30
0.0
 41
1.0
 10
-11787.453382972857
 20
7135.3155972322766
 30
0.0
 41
0.998783852803355
 10
-11787.265130314297
 20
7135.3718628724419
 30
0.0
 41
1.0
 10
-11787.260892365101
 20
7135.3731295261314
 30
0.0
 41
1.0
 10
-11787.256654415904
 20
7135.3743961798209
 30
0.0
 41
1.0
 10
-11787.07687765574
 20
7135.428128512609
 30
0.0
 41
0.9990652816204304
 10
-11786.893131724022
 20
7135.4661321921503
 30
0.0
 41
1.0
 10
-11786.887943322983
 20
7135.4672052952583
 30
0.0
 41
1.0
 10
-11786.882754921944
 20
7135.4682783983662
 30
0.0
 41
1.0
 10
-11786.709385792297
 20
7135.5041358716944
 30
0.0
 41
0.9992909934268429
 10
-11786.533810025849
 20
7135.5268463041593
 30
0.0
 41
1.0
 10
-11786.358234259398
 20
7135.5495567366261
 30
0.0
 41
0.9994553539446767
 10
-11786.181542826287
 20
7135.5606360408319
 30
0.0
 41
1.0
 10
-11786.146108418496
 20
7135.5628579288796
 30
0.0
 41
1.0
 10
-11786.110674010706
 20
7135.5650798169272
 30
0.0
 41
1.0
 10
-11785.944448244147
 20
7135.5755028793392
 30
0.0
 41
0.9990928098291065
 10
-11785.777938452233
 20
7135.5717432381043
 30
0.0
 41
1.0
 10
-11785.739376616972
 20
7135.570872546572
 30
0.0
 41
1.0
 10
-11785.700814781711
 20
7135.5700018550388
 30
0.0
 41
1.0
 10
-11785.611428660364
 20
7135.5679835968713
 30
0.0
 41
0.9998382089204785
 10
-11785.522172977544
 20
7135.562751470341
 30
0.0
 41
1.0
 10
-11785.521743071324
 20
7135.5627262694388
 30
0.0
 41
1.0
 10
-11785.521313165103
 20
7135.5627010685366
 30
0.0
 41
1.0
 10
-11785.432917294758
 20
7135.5575193438144
 30
0.0
 41
0.9997558016754767
 10
-11785.344836717559
 20
7135.5484368284469
 30
0.0
 41
1.0
 10
-11785.344360579125
 20
7135.5483877309634
 30
0.0
 41
1.0
 10
-11785.343884440694
 20
7135.5483386334809
 30
0.0
 41
1.0
 10
-11785.25675614037
 20
7135.5393543130831
 30
0.0
 41
0.9996565144178151
 10
-11785.170218287014
 20
7135.5258170063917
 30
0.0
 41
1.0
 10
-11785.169752361646
 20
7135.5257441206613
 30
0.0
 41
1.0
 10
-11785.169286436279
 20
7135.5256712349319
 30
0.0
 41
1.0
 10
-11785.083680433696
 20
7135.5122796997093
 30
0.0
 41
0.9995321806859324
 10
-11784.999053353346
 20
7135.493679211273
 30
0.0
 41
1.0
 10
-11784.998664158769
 20
7135.4935936688062
 30
0.0
 41
1.0
 10
-11784.998274964193
 20
7135.4935081263393
 30
0.0
 41
1.0
 10
-11784.914426273011
 20
7135.4750787228422
 30
0.0
 41
0.999381919921898
 10
-11784.832079738821
 20
7135.4508033395832
 30
0.0
 41
1.0
 10
-11784.831841305318
 20
7135.450733050473
 30
0.0
 41
1.0
 10
-11784.831602871816
 20
7135.4506627613619
 30
0.0
 41
1.0
 10
-11784.749733204631
 20
7135.4265279563251
 30
0.0
 41
0.9992088568503244
 10
-11784.670040685636
 20
7135.3959627205277
 30
0.0
 41
1.0
 10
-11784.590359694765
 20
7135.3654031197993
 30
0.0
 41
0.9990226101769654
 10
-11784.51368902485
 20
7135.3279256881806
 30
0.0
 41
1.0
 10
-11784.437029883051
 20
7135.2904538916264
 30
0.0
 41
0.9988424273975015
 10
-11784.36432625584
 20
7135.2457891163749
 30
0.0
 41
1.0
 10
-11784.36405854746
 20
7135.2456246523025
 30
0.0
 41
1.0
 10
-11784.363790839081
 20
7135.24546018823
 30
0.0
 41
1.0
 10
-11784.290551795115
 20
7135.2004664848346
 30
0.0
 41
0.9986928844489685
 10
-11784.222288928409
 20
7135.1482307505585
 30
0.0
 41
1.0
 10
-11784.221707636183
 20
7135.1477859373281
 30
0.0
 41
1.0
 10
-11784.221126343957
 20
7135.1473411240968
 30
0.0
 41
1.0
 10
-11784.1517008928
 20
7135.0942157633617
 30
0.0
 41
0.9986007262275314
 10
-11784.088274723037
 20
7135.0340549936718
 30
0.0
 41
1.0
 10
-11784.087380307577
 20
7135.0332066258352
 30
0.0
 41
1.0
 10
-11784.08648589212
 20
7135.0323582579986
 30
0.0
 41
1.0
 10
-11784.021270891439
 20
7134.9705007526372
 30
0.0
 41
0.998558149137453
 10
-11783.963063279734
 20
7134.9020082623601
 30
0.0
 41
1.0
 10
-11783.953804826138
 20
7134.8911139046595
 30
0.0
 41
1.0
 10
-11783.944546372544
 20
7134.8802195469598
 30
0.0
 41
1.0
 10
-11783.867821853646
 20
7134.789938341276
 30
0.0
 41
0.9970460233523956
 10
-11783.805829952484
 20
7134.6889712570865
 30
0.0
 41
1.0
 10
-11783.791360587411
 20
7134.6654047980173
 30
0.0
 41
1.0
 10
-11783.776891222338
 20
7134.6418383389482
 30
0.0
 41
1.0
 10
-11783.737154522321
 20
7134.5771186149132
 30
0.0
 41
0.9988468816631556
 10
-11783.703808151568
 20
7134.5088861624808
 30
0.0
 41
1.0
 10
-11783.696772129057
 20
7134.4944892413059
 30
0.0
 41
1.0
 10
-11783.689736106548
 20
7134.4800923201301
 30
0.0
 41
1.0
 10
-11783.670461780805
 20
7134.4406537100258
 30
0.0
 41
0.9998431190004505
 10
-11783.652596453321
 20
7134.4005571556118
 30
0.0
 41
1.0
 10
-11783.634731125952
 20
7134.3604606014542
 30
0.0
 41
0.9999989989958229
 10
-11783.616752402653
 20
7134.3204147641409
 30
0.0
 41
1.0
 10
-11783.610580090935
 20
7134.3066665470515
 30
0.0
 41
1.0
 10
-11783.604407779218
 20
7134.292918329962
 30
0.0
 41
1.0
 10
-11783.574084432594
 20
7134.2253760587228
 30
0.0
 41
0.9998790356321405
 10
-11783.545876552433
 20
7134.1569233067321
 30
0.0
 41
1.0
 10
-11783.539041371172
 20
7134.1403362053643
 30
0.0
 41
1.0
 10
-11783.532206189913
 20
7134.1237491039974
 30
0.0
 41
1.0
 10
-11783.508648527526
 20
7134.0665811490944
 30
0.0
 41
0.9998227574562293
 10
-11783.487259779129
 20
7134.0085668407992
 30
0.0
 41
1.0
 10
-11783.465871030736
 20
7133.9505525325021
 30
0.0
 41
0.9996797971046612
 10
-11783.447444745771
 20
7133.8915304133679
 30
0.0
 41
1.0
 10
-11783.443540943052
 20
7133.879025955217
 30
0.0
 41
1.0
 10
-11783.439637140331
 20
7133.8665214970652
 30
0.0
 41
1.0
 10
-11783.413403249922
 20
7133.7824904616173
 30
0.0
 41
0.99792749387314
 10
-11783.398178726444
 20
7133.695786102965
 30
0.0
 41
1.0
 10
-11783.395955039179
 20
7133.6831221021275
 30
0.0
 41
1.0
 10
-11783.393731351915
 20
7133.67045810129
 30
0.0
 41
1.0
 10
-11783.382801412217
 20
7133.6082115940053
 30
0.0
 41
0.9994985982138392
 10
-11783.375833247042
 20
7133.5453980928742
 30
0.0
 41
1.0
 10
-11783.368865081866
 20
7133.4825845917239
 30
0.0
 41
0.999637261120283
 10
-11783.365289216097
 20
7133.4194870130295
 30
0.0
 41
1.0
 10
-11783.365120638609
 20
7133.4165123959574
 30
0.0
 41
1.0
 10
-11783.36495206112
 20
7133.4135377788862
 30
0.0
 41
1.0
 10
-11783.361039040374
 20
7133.3444909660029
 30
0.0
 41
0.9997730630738445
 10
-11783.360070726885
 20
7133.2753401419322
 30
0.0
 41
1.0
 10
-11783.360013620468
 20
7133.2712619628273
 30
0.0
 41
1.0
 10
-11783.35995651405
 20
7133.2671837837215
 30
0.0
 41
1.0
 10
-11783.358873987725
 20
7133.1898766014492
 30
0.0
 41
0.9998772614068636
 10
-11783.360214074455
 20
7133.1125734549305
 30
0.0
 41
1.0
 10
-11783.360303337655
 20
7133.1074242910499
 30
0.0
 41
1.0
 10
-11783.360392600855
 20
7133.1022751271694
 30
0.0
 41
1.0
 10
-11783.361911213988
 20
7133.0146736528241
 30
0.0
 41
0.9999415567327495
 10
-11783.365323524238
 20
7132.9271254910418
 30
0.0
 41
1.0
 10
-11783.365564844909
 20
7132.9209340314137
 30
0.0
 41
1.0
 10
-11783.365806165581
 20
7132.9147425717856
 30
0.0
 41
1.0
 10
-11783.369701117172
 20
7132.8148114907417
 30
0.0
 41
0.9999716810431202
 10
-11783.375099700284
 20
7132.7149503526134
 30
0.0
 41
1.0
 10
-11783.378312499082
 20
7132.6555211027699
 30
0.0
 41
1.0
 10
-11783.38152529788
 20
7132.5960918529263
 30
0.0
 41
1.0
 10
-11783.38959920703
 20
7132.4467434517237
 30
0.0
 41
0.9999819129901202
 10
-11783.399468998641
 20
7132.2975029740992
 30
0.0
 41
1.0
 10
-11783.409338790258
 20
7132.1482624963883
 30
0.0
 41
1.0
 10
-11783.411778110822
 20
7132.1110694505387
 30
0.0
 41
1.0
 10
-11783.38907987681
 20
7132.1498104481798
 30
0.0
 41
0.9999982128162661
 10
-11783.366235317984
 20
7132.1884653422521
 30
0.0
 41
1.0
 10
-11783.339325758225
 20
7132.2339985560939
 30
0.0
 41
1.0
 10
-11783.312416198467
 20
7132.2795317699365
 30
0.0
 41
1.0
 10
-11783.235752519926
 20
7132.4092530920316
 30
0.0
 41
0.9998609190058938
 10
-11783.154805207045
 20
7132.5363454739891
 30
0.0
 41
1.0
 10
-11783.125156885577
 20
7132.5828952069251
 30
0.0
 41
1.0
 10
-11783.095508564109
 20
7132.6294449398611
 30
0.0
 41
1.0
 10
-11783.013236343875
 20
7132.7586175098513
 30
0.0
 41
0.9999067609733784
 10
-11782.927467334415
 20
7132.8854951992871
 30
0.0
 41
1.0
 10
-11782.92506263121
 20
7132.889052465347
 30
0.0
 41
1.0
 10
-11782.922657928006
 20
7132.8926097314079
 30
0.0
 41
1.0
 10
-11782.841698324937
 20
7133.0123728887465
 30
0.0
 41
0.9998784952151011
 10
-11782.757044715268
 20
7133.1295541054369
 30
0.0
 41
1.0
 10
-11782.672391105583
 20
7133.2467353221491
 30
0.0
 41
0.9998532968284086
 10
-11782.583773484777
 20
7133.3609482305992
 30
0.0
 41
1.0
 10
-11782.563811695774
 20
7133.3866755516356
 30
0.0
 41
1.0
 10
-11782.543849906771
 20
7133.412402872671
 30
0.0
 41
1.0
 10
-11782.425365857021
 20
7133.5651084836254
 30
0.0
 41
0.9991551975798637
 10
-11782.294741407401
 20
7133.7075680457083
 30
0.0
 41
1.0
 10
-11782.291231791416
 20
7133.7113956473386
 30
0.0
 41
1.0
 10
-11782.28772217543
 20
7133.7152232489689
 30
0.0
 41
1.0
 10
-11782.16411695778
 20
7133.8500276077875
 30
0.0
 41
0.9997418144180593
 10
-11782.034514818075
 20
7133.9790770184045
 30
0.0
 41
1.0
 10
-11781.904912678387
 20
7134.1081264290078
 30
0.0
 41
0.998923820462898
 10
-11781.763910130148
 20
7134.2246113910351
 30
0.0
 41
1.0
 10
-11781.718662451996
 20
7134.2619913826538
 30
0.0
 41
1.0
 10
-11781.673414773846
 20
7134.2993713742726
 30
0.0
 41
1.0
 10
-11781.533174716624
 20
7134.4152264275654
 30
0.0
 41
0.9990825084095043
 10
-11781.38353478402
 20
7134.5186554253978
 30
0.0
 41
1.0
 10
-11781.373489419944
 20
7134.5255986384909
 30
0.0
 41
1.0
 10
-11781.363444055867
 20
7134.5325418515831
 30
0.0
 41
1.0
 10
-11781.233894851412
 20
7134.6220844232321
 30
0.0
 41
0.9998164899826222
 10
-11781.101010648039
 20
7134.7065986647467
 30
0.0
 41
1.0
 10
-11781.089165087522
 20
7134.714132431267
 30
0.0
 41
1.0
 10
-11781.077319527005
 20
7134.7216661977864
 30
0.0
 41
1.0
 10
-11780.96812644467
 20
7134.7911129062577
 30
0.0
 41
0.9997473449131415
 10
-11780.855922487413
 20
7134.8555818640789
 30
0.0
 41
1.0
 10
-11780.743718530171
 20
7134.9200508218919
 30
0.0
 41
0.9999327861146593
 10
-11780.630049919411
 20
7134.9819008135701
 30
0.0
 41
1.0
 10
-11780.629497916845
 20
7134.9822011722517
 30
0.0
 41
1.0
 10
-11780.628945914279
 20
7134.9825015309343
 30
0.0
 41
1.0
 10
-11780.514173298383
 20
7135.0449522399795
 30
0.0
 41
0.999695642048423
 10
-11780.396459972535
 20
7135.1016657069576
 30
0.0
 41
1.0
 10
-11780.36601956766
 20
7135.1163316836792
 30
0.0
 41
1.0
 10
-11780.335579162787
 20
7135.1309976603998
 30
0.0
 41
1.0
 10
-11780.232602056034
 20
7135.1806113188477
 30
0.0
 41
0.9998070570178228
 10
-11780.127755667085
 20
7135.2261419057531
 30
0.0
 41
1.0
 10
-11780.022909278139
 20
7135.2716724926559
 30
0.0
 41
0.9997827436148515
 10
-11779.916256341525
 20
7135.3127936639694
 30
0.0
 41
1.0
 10
-11779.897033491898
 20
7135.3202052376
 30
0.0
 41
1.0
 10
-11779.877810642271
 20
7135.3276168112307
 30
0.0
 41
1.0
 10
-11779.7327120064
 20
7135.3835611298073
 30
0.0
 41
0.9988031841974173
 10
-11779.582841643794
 20
7135.4250611939742
 30
0.0
 41
1.0
 10
-11779.55792439542
 20
7135.4319609397844
 30
0.0
 41
1.0
 10
-11779.533007147047
 20
7135.4388606855937
 30
0.0
 41
1.0
 10
-11779.365737121418
 20
7135.4851788279948
 30
0.0
 41
0.9984748040552691
 10
-11779.194380212772
 20
7135.5127730602608
 30
0.0
 41
1.0
 10
-11779.189641076515
 20
7135.5135362207748
 30
0.0
 41
1.0
 10
-11779.18490194026
 20
7135.5142993812897
 30
0.0
 41
1.0
 10
-11779.023023304115
 20
7135.5403672925258
 30
0.0
 41
0.998443649547944
 10
-11778.859248560397
 20
7135.5482452463439
 30
0.0
 41
1.0
 10
-11778.83755135227
 20
7135.5492889335437
 30
0.0
 41
1.0
 10
-11778.815854144143
 20
7135.5503326207427
 30
0.0
 41
1.0
 10
-11778.695473816675
 20
7135.5561232001628
 30
0.0
 41
0.9987954789333904
 10
-11778.575105571763
 20
7135.5500866724205
 30
0.0
 41
1.0
 10
-11778.555140779277
 20
7135.5490854280824
 30
0.0
 41
1.0
 10
-11778.53517598679
 20
7135.5480841837443
 30
0.0
 41
1.0
 10
-11778.454737326862
 20
7135.5440501446792
 30
0.0
 41
0.9997941595877328
 10
-11778.374528548757
 20
7135.5367560787572
 30
0.0
 41
1.0
 10
-11778.294319770637
 20
7135.5294620128343
 30
0.0
 41
0.9998589466237521
 10
-11778.214401223811
 20
7135.5194781583868
 30
0.0
 41
1.0
 10
-11778.181995022002
 20
7135.5154298014677
 30
0.0
 41
1.0
 10
-11778.149588820192
 20
7135.5113814445476
 30
0.0
 41
1.0
 10
-11778.004857869711
 20
7135.4933008762573
 30
0.0
 41
0.9993495063250154
 10
-11777.861806625937
 20
7135.4648351665137
 30
0.0
 41
1.0
 10
-11777.828872928802
 20
7135.4582817033024
 30
0.0
 41
1.0
 10
-11777.795939231666
 20
7135.4517282400902
 30
0.0
 41
1.0
 10
-11777.686645408454
 20
7135.4299799059554
 30
0.0
 41
0.9996788715557572
 10
-11777.57859383649
 20
7135.4027221065899
 30
0.0
 41
1.0
 10
-11777.57653083396
 20
7135.4022016800191
 30
0.0
 41
1.0
 10
-11777.57446783143
 20
7135.4016812534483
 30
0.0
 41
1.0
 10
-11777.47054226454
 20
7135.375464307228
 30
0.0
 41
0.9995480654493928
 10
-11777.368380029304
 20
7135.3430493506021
 30
0.0
 41
1.0
 10
-11777.366690387176
 20
7135.3425132456887
 30
0.0
 41
1.0
 10
-11777.365000745049
 20
7135.3419771407753
 30
0.0
 41
1.0
 10
-11777.266217794077
 20
7135.3106343939789
 30
0.0
 41
0.9993867959454005
 10
-11777.169870635633
 20
7135.2724550246876
 30
0.0
 41
1.0
 10
-11777.168627686542
 20
7135.2719624827887
 30
0.0
 41
1.0
 10
-11777.167384737451
 20
7135.2714699408898
 30
0.0
 41
1.0
 10
-11777.073523477184
 20
7135.2342756553962
 30
0.0
 41
0.9992050256518616
 10
-11776.982923802156
 20
7135.18972175616
 30
0.0
 41
1.0
 10
-11776.982189119442
 20
7135.1893604636989
 30
0.0
 41
1.0
 10
-11776.981454436729
 20
7135.1889991712378
 30
0.0
 41
1.0
 10
-11776.892324127122
 20
7135.1451678569219
 30
0.0
 41
0.999022235073998
 10
-11776.80741406573
 20
7135.0936345892223
 30
0.0
 41
1.0
 10
-11776.807230180457
 20
7135.0935229863226
 30
0.0
 41
1.0
 10
-11776.807046295182
 20
7135.0934113834237
 30
0.0
 41
1.0
 10
-11776.72250400435
 20
7135.0421013215346
 30
0.0
 41
0.9988642743803847
 10
-11776.643229469717
 20
7134.9829771339992
 30
0.0
 41
1.0
 10
-11776.563954935102
 20
7134.9238529464783
 30
0.0
 41
0.9987681233305737
 10
-11776.490931150829
 20
7134.8571622550789
 30
0.0
 41
1.0
 10
-11776.490602222861
 20
7134.856861853862
 30
0.0
 41
1.0
 10
-11776.49027329489
 20
7134.8565614526451
 30
0.0
 41
1.0
 10
-11776.416591654679
 20
7134.789269958811
 30
0.0
 41
0.9987496570902326
 10
-11776.349997849347
 20
7134.7149571447208
 30
0.0
 41
1.0
 10
-11776.349225679591
 20
7134.7140954713668
 30
0.0
 41
1.0
 10
-11776.348453509834
 20
7134.7132337980129
 30
0.0
 41
1.0
 10
-11776.280315364989
 20
7134.6371976372147
 30
0.0
 41
0.9988147669824907
 10
-11776.219893110767
 20
7134.5548966303759
 30
0.0
 41
1.0
 10
-11776.218773784687
 20
7134.5533719990199
 30
0.0
 41
1.0
 10
-11776.217654458605
 20
7134.551847367663
 30
0.0
 41
1.0
 10
-11776.15499355222
 20
7134.4664970981057
 30
0.0
 41
0.9989452636222256
 10
-11776.100426639256
 20
7134.3757584089471
 30
0.0
 41
1.0
 10
-11776.099077913173
 20
7134.3735156279263
 30
0.0
 41
1.0
 10
-11776.097729187091
 20
7134.3712728469054
 30
0.0
 41
1.0
 10
-11776.040464821966
 20
7134.2760485957106
 30
0.0
 41
0.9991046436065003
 10
-11775.99145560865
 20
7134.1763241626913
 30
0.0
 41
1.0
 10
-11775.989991747054
 20
7134.1733454826081
 30
0.0
 41
1.0
 10
-11775.988527885458
 20
7134.1703668025248
 30
0.0
 41
1.0
 10
-11775.936590948959
 20
7134.0646850093599
 30
0.0
 41
0.9992763831102292
 10
-11775.892837820407
 20
7133.9553609474124
 30
0.0
 41
1.0
 10
-11775.891358550742
 20
7133.9516647598721
 30
0.0
 41
1.0
 10
-11775.889879281076
 20
7133.9479685723309
 30
0.0
 41
1.0
 10
-11775.843167613188
 20
7133.8312521352918
 30
0.0
 41
0.9994163472886291
 10
-11775.804534581992
 20
7133.711618546813
 30
0.0
 41
1.0
 10
-11775.803296429753
 20
7133.70778440305
 30
0.0
 41
1.0
 10
-11775.802058277512
 20
7133.7039502592861
 30
0.0
 41
1.0
 10
-11775.762174716494
 20
7133.5804441978044
 30
0.0
 41
0.999726805589215
 10
-11775.728106660579
 20
7133.4552091658488
 30
0.0
 41
1.0
 10
-11775.72717648031
 20
7133.4517897997412
 30
0.0
 41
1.0
 10
-11775.726246300041
 20
7133.4483704336335
 30
0.0
 41
1.0
 10
-11775.694038604668
 20
7133.3299741338997
 30
0.0
 41
0.9996701319002698
 10
-11775.667952987897
 20
7133.2100801806346
 30
0.0
 41
1.0
 10
-11775.641867371129
 20
7133.0901862273849
 30
0.0
 41
0.9995785451108112
 10
-11775.622783793791
 20
7132.9689804663612
 30
0.0
 41
1.0
 10
-11775.618564011616
 20
7132.9421793115816
 30
0.0
 41
1.0
 10
-11775.61434422944
 20
7132.9153781568029
 30
0.0
 41
1.0
 10
-11775.587769253501
 20
7132.7465921831026
 30
0.0
 41
0.9979925101215429
 10
-11775.582743667575
 20
7132.5758008550147
 30
0.0
 41
1.0
 10
-11775.58191885515
 20
7132.547770131544
 30
0.0
 41
1.0
 10
-11775.581094042727
 20
7132.5197394080733
 30
0.0
 41
1.0
 10
-11775.577718081649
 20
7132.405009526934
 30
0.0
 41
0.9995314902261953
 10
-11775.581368273788
 20
7132.2902880431711
 30
0.0
 41
1.0
 10
-11775.585018465927
 20
7132.1755665594246
 30
0.0
 41
0.9996245486942708
 10
-11775.594947561058
 20
7132.0612172883057
 30
0.0
 41
1.0
 10
-11775.595110609052
 20
7132.0593395321648
 30
0.0
 41
1.0
 10
-11775.595273657047
 20
7132.0574617760249
 30
0.0
 41
1.0
 10
-11775.605528848162
 20
7131.9393569926633
 30
0.0
 41
0.9997286094999479
 10
-11775.621274171728
 20
7131.8218580837993
 30
0.0
 41
1.0
 10
-11775.621667664382
 20
7131.8189216590654
 30
0.0
 41
1.0
 10
-11775.622061157037
 20
7131.8159852343324
 30
0.0
 41
1.0
 10
-11775.638593465919
 20
7131.6926134759742
 30
0.0
 41
0.999826553397021
 10
-11775.659708924662
 20
7131.56994300112
 30
0.0
 41
1.0
 10
-11775.660385466788
 20
7131.5660126226758
 30
0.0
 41
1.0
 10
-11775.661062008916
 20
7131.5620822442306
 30
0.0
 41
1.0
 10
-11775.68353055192
 20
7131.4315510124434
 30
0.0
 41
0.9999022530855711
 10
-11775.709640016526
 20
7131.3016990438227
 30
0.0
 41
1.0
 10
-11775.710618657697
 20
7131.296831901418
 30
0.0
 41
1.0
 10
-11775.711597298865
 20
7131.2919647590134
 30
0.0
 41
1.0
 10
-11775.739664045808
 20
7131.1523785055879
 30
0.0
 41
0.9999524761932889
 10
-11775.77044701464
 20
7131.0133660124329
 30
0.0
 41
1.0
 10
-11775.771723121816
 20
7131.0076032531324
 30
0.0
 41
1.0
 10
-11775.77299922899
 20
7131.001840493831
 30
0.0
 41
1.0
 10
-11775.806334412171
 20
7130.8513024820859
 30
0.0
 41
0.9999813588712572
 10
-11775.841505412955
 20
7130.7011827694814
 30
0.0
 41
1.0
 10
-11775.84305933842
 20
7130.6945501790215
 30
0.0
 41
1.0
 10
-11775.844613263886
 20
7130.6879175885615
 30
0.0
 41
1.0
 10
-11775.882892115584
 20
7130.5245326951044
 30
0.0
 41
0.9999955237662713
 10
-11775.922147993571
 20
7130.3613797914659
 30
0.0
 41
1.0
 10
-11775.934429629207
 20
7130.3103356009369
 30
0.0
 41
1.0
 10
-11775.946711264844
 20
7130.259291410408
 30
0.0
 41
1.0
 10
-11776.010530414158
 20
7129.9940501254896
 30
0.0
 41
0.9999993604546695
 10
-11776.074949361408
 20
7129.7289538744717
 30
0.0
 41
1.0
 10
-11776.079668196882
 20
7129.7095349667316
 30
0.0
 41
1.0
 10
-11776.084387032355
 20
7129.6901160589914
 30
0.0
 41
1.0
 10
-11776.158243650643
 20
7129.386181992124
 30
0.0
 41
0.9999659914735137
 10
-11776.237103246549
 20
7129.0835074454835
 30
0.0
 41
1.0
 10
-11776.242055935454
 20
7129.0644983083957
 30
0.0
 41
1.0
 10
-11776.247008624361
 20
7129.045489171308
 30
0.0
 41
1.0
 10
-11776.335773598124
 20
7128.7047963503246
 30
0.0
 41
0.9999441976026082
 10
-11776.431716631114
 20
7128.366054924938
 30
0.0
 41
1.0
 10
-11776.448417149517
 20
7128.3070912124858
 30
0.0
 41
1.0
 10
-11776.465117667922
 20
7128.2481275000337
 30
0.0
 41
1.0
 10
-11776.59446173775
 20
7127.7914586496336
 30
0.0
 41
0.9999625120731697
 10
-11776.731694505086
 20
7127.3370981155931
 30
0.0
 41
1.0
 10
-11776.767484448184
 20
7127.2186020889221
 30
0.0
 41
1.0
 10
-11776.803274391281
 20
7127.1001060622502
 30
0.0
 41
1.0
 10
-11776.877794595288
 20
7126.8533789842595
 30
0.0
 41
0.9999793386310163
 10
-11776.955480618402
 20
7126.6076303450918
 30
0.0
 41
1.0
 10
-11777.03316664154
 20
7126.3618817058559
 30
0.0
 41
1.0
 10
-11777.043946200412
 20
7126.3278638014808
 30
0.0
 41
1.0
 10
-11778.894319253683
 20
7120.440791879013
 30
0.0
 41
1.0
 10
-11780.744692306951
 20
7114.553719956546
 30
0.0
 41
1.0
 10
-11781.705948996974
 20
7114.553719956546
 30
0.0
 41
1.0
 10
-11782.667205686997
 20
7114.553719956546
 30
0.0
 41
1.0
 10
-11781.048260908319
 20
7119.7017484583357
 30
0.0
 41
1.0
 10
-11779.429316129641
 20
7124.8497769601245
 30
0.0
 41
1.0
 10
-11779.384150306443
 20
7124.9938081824694
 30
0.0
 41
1.0
 10
-11779.338984483245
 20
7125.1378394048152
 30
0.0
 41
1.0
 10
-11779.168680065904
 20
7125.6809304339022
 30
0.0
 41
0.999991165789578
 10
-11779.002947254248
 20
7126.2254339651899
 30
0.0
 41
1.0
 10
-11778.973251310723
 20
7126.3229979053194
 30
0.0
 41
1.0
 10
-11778.943555367199
 20
7126.4205618454498
 30
0.0
 41
1.0
 10
-11778.837214442547
 20
7126.7699374966269
 30
0.0
 41
0.9999952428136304
 10
-11778.733030853244
 20
7127.1199625209038
 30
0.0
 41
1.0
 10
-11778.727971382934
 20
7127.1369607951056
 30
0.0
 41
1.0
 10
-11778.722911912622
 20
7127.1539590693073
 30
0.0
 41
1.0
 10
-11778.62884726393
 20
7127.4699875452161
 30
0.0
 41
0.9999931687516581
 10
-11778.537121426045
 20
7127.7867027585235
 30
0.0
 41
1.0
 10
-11778.532186161578
 20
7127.8037434678172
 30
0.0
 41
1.0
 10
-11778.527250897112
 20
7127.8207841771118
 30
0.0
 41
1.0
 10
-11778.445395588173
 20
7128.1034179717935
 30
0.0
 41
0.9999893840785338
 10
-11778.366148361714
 20
7128.3867941010412
 30
0.0
 41
1.0
 10
-11778.28690113523
 20
7128.6701702303835
 30
0.0
 41
0.9999833980075531
 10
-11778.210924894465
 20
7128.9544408135007
 30
0.0
 41
1.0
 10
-11778.201920957763
 20
7128.9881296919102
 30
0.0
 41
1.0
 10
-11778.192917021059
 20
7129.0218185703188
 30
0.0
 41
1.0
 10
-11778.1239524722
 20
7129.2798544025836
 30
0.0
 41
0.9999233658067807
 10
-11778.061397500984
 20
7129.5395185612942
 30
0.0
 41
1.0
 10
-11777.998842529763
 20
7129.7991827200167
 30
0.0
 41
1.0
 10
-11777.959359110906
 20
7129.9629893844431
 30
0.0
 41
1.0
 10
-11777.954380506912
 20
7129.9836443463837
 30
0.0
 41
1.0
 10
-11777.949401902917
 20
7130.0042993083243
 30
0.0
 41
1.0
 10
-11777.919875692027
 20
7130.1267960489613
 30
0.0
 41
0.9999868670845957
 10
-11777.891606608053
 20
7130.2495889945139
 30
0.0
 41
1.0
 10
-11777.887709120889
 20
7130.2665185819596
 30
0.0
 41
1.0
 10
-11777.883811633725
 20
7130.2834481694053
 30
0.0
 41
1.0
 10
-11777.863337524053
 20
7130.3723819401721
 30
0.0
 41
0.9999778173346776
 10
-11777.844049925941
 20
7130.4615805573903
 30
0.0
 41
1.0
 10
-11777.824762327826
 20
7130.550779174624
 30
0.0
 41
0.9999602692863733
 10
-11777.807067969188
 20
7130.6403074630807
 30
0.0
 41
1.0
 10
-11777.803864137113
 20
7130.6565179179488
 30
0.0
 41
1.0
 10
-11777.80066030504
 20
7130.6727283728178
 30
0.0
 41
1.0
 10
-11777.776558282247
 20
7130.7946775710534
 30
0.0
 41
0.9995617985320123
 10
-11777.759714935024
 20
7130.9178393187931
 30
0.0
 41
1.0
 10
-11777.757250445122
 20
7130.9358601361346
 30
0.0
 41
1.0
 10
-11777.75478595522
 20
7130.9538809534752
 30
0.0
 41
1.0
 10
-11777.734502694171
 20
7131.1021960031649
 30
0.0
 41
0.9991121410634869
 10
-11777.726777340586
 20
7131.2516921019605
 30
0.0
 41
1.0
 10
-11777.725858550561
 20
7131.2694719385454
 30
0.0
 41
1.0
 10
-11777.724939760536
 20
7131.2872517751312
 30
0.0
 41
1.0
 10
-11777.719051986998
 20
7131.4011882007753
 30
0.0
 41
0.9989792494904203
 10
-11777.723471079116
 20
7131.5151910366658
 30
0.0
 41
1.0
 10
-11777.724119050985
 20
7131.5319072825914
 30
0.0
 41
1.0
 10
-11777.724767022853
 20
7131.5486235285171
 30
0.0
 41
1.0
 10
-11777.727890171233
 20
7131.6291938725626
 30
0.0
 41
0.9997820295392719
 10
-11777.734374168609
 20
7131.7095635943078
 30
0.0
 41
1.0
 10
-11777.740858165978
 20
7131.7899333159758
 30
0.0
 41
0.9998335105976836
 10
-11777.750270361477
 20
7131.8700129323452
 30
0.0
 41
1.0
 10
-11777.751865286162
 20
7131.8835826629056
 30
0.0
 41
1.0
 10
-11777.753460210848
 20
7131.897152393467
 30
0.0
 41
1.0
 10
-11777.766062255714
 20
7132.0043714708927
 30
0.0
 41
0.9996876457878734
 10
-11777.784006168515
 20
7132.1108268986236
 30
0.0
 41
1.0
 10
-11777.78623783166
 20
7132.124066633859
 30
0.0
 41
1.0
 10
-11777.788469494804
 20
7132.1373063690944
 30
0.0
 41
1.0
 10
-11777.802265316222
 20
7132.2191525130474
 30
0.0
 41
0.9995547496491676
 10
-11777.820918638115
 20
7132.3000300102331
 30
0.0
 41
1.0
 10
-11777.821292594987
 20
7132.3016514209385
 30
0.0
 41
1.0
 10
-11777.821666551858
 20
7132.3032728316439
 30
0.0
 41
1.0
 10
-11777.839571960008
 20
7132.3809075074241
 30
0.0
 41
0.999489942717724
 10
-11777.862396868688
 20
7132.4572407902588
 30
0.0
 41
1.0
 10
-11777.86285539543
 20
7132.4587742400454
 30
0.0
 41
1.0
 10
-11777.863313922169
 20
7132.4603076898329
 30
0.0
 41
1.0
 10
-11777.885221777367
 20
7132.5335740730916
 30
0.0
 41
0.9993784877588752
 10
-11777.912237412474
 20
7132.6051147782528
 30
0.0
 41
1.0
 10
-11777.912769103445
 20
7132.606522760957
 30
0.0
 41
1.0
 10
-11777.913300794417
 20
7132.6079307436612
 30
0.0
 41
1.0
 10
-11777.939253047574
 20
7132.6766554833948
 30
0.0
 41
0.9992430832257776
 10
-11777.970469582739
 20
7132.7431546354801
 30
0.0
 41
1.0
 10
-11777.971051698798
 20
7132.7443946906051
 30
0.0
 41
1.0
 10
-11777.971633814859
 20
7132.7456347457301
 30
0.0
 41
1.0
 10
-11778.001686117905
 20
7132.8096537875608
 30
0.0
 41
0.999078963279848
 10
-11778.037116744676
 20
7132.8708603992973
 30
0.0
 41
1.0
 10
-11778.03771245086
 20
7132.8718894851609
 30
0.0
 41
1.0
 10
-11778.038308157044
 20
7132.8729185710235
 30
0.0
 41
1.0
 10
-11778.072547371454
 20
7132.932067011051
 30
0.0
 41
0.9988874801121331
 10
-11778.112206647484
 20
7132.9877267234642
 30
0.0
 41
1.0
 10
-11778.112762173541
 20
7132.9885063751299
 30
0.0
 41
1.0
 10
-11778.113317699599
 20
7132.9892860267955
 30
0.0
 41
1.0
 10
-11778.151865923508
 20
7133.0433864358729
 30
0.0
 41
0.998676206069847
 10
-11778.195768394791
 20
7133.0932401503214
 30
0.0
 41
1.0
 10
-11778.196212355124
 20
7133.0937442921377
 30
0.0
 41
1.0
 10
-11778.196656315455
 20
7133.0942484339539
 30
0.0
 41
1.0
 10
-11778.239670866067
 20
7133.1430938647609
 30
0.0
 41
0.9984621642483114
 10
-11778.287828422846
 20
7133.1868771652316
 30
0.0
 41
1.0
 10
-11778.288075057362
 20
7133.1871013973941
 30
0.0
 41
1.0
 10
-11778.288321691878
 20
7133.1873256295567
 30
0.0
 41
1.0
 10
-11778.335985979622
 20
7133.2306604657033
 30
0.0
 41
0.9982724693840647
 10
-11778.388404611465
 20
7133.2681048162212
 30
0.0
 41
1.0
 10
-11778.440823243309
 20
7133.3055491667401
 30
0.0
 41
0.9981399180165085
 10
-11778.497409306707
 20
7133.3363356861864
 30
0.0
 41
1.0
 10
-11778.497454968781
 20
7133.3363605293416
 30
0.0
 41
1.0
 10
-11778.497500630856
 20
7133.3363853724968
 30
0.0
 41
1.0
 10
-11778.554178018399
 20
7133.3672215782517
 30
0.0
 41
0.9980927086833979
 10
-11778.614223369474
 20
7133.3908383871067
 30
0.0
 41
1.0
 10
-11778.614663539185
 20
7133.391011512982
 30
0.0
 41
1.0
 10
-11778.615103708897
 20
7133.3911846388564
 30
0.0
 41
1.0
 10
-11778.676029399387
 20
7133.4151476994593
 30
0.0
 41
0.9981411356556886
 10
-11778.739417920786
 20
7133.4315203409642
 30
0.0
 41
1.0
 10
-11778.740300037487
 20
7133.4317481831695
 30
0.0
 41
1.0
 10
-11778.74118215419
 20
7133.4319760253757
 30
0.0
 41
1.0
 10
-11778.806334909001
 20
7133.4488043512938
 30
0.0
 41
0.9983031812937622
 10
-11778.873002337989
 20
7133.4579437124685
 30
0.0
 41
1.0
 10
-11778.881873363389
 20
7133.4591598311399
 30
0.0
 41
1.0
 10
-11778.890744388791
 20
7133.4603759498104
 30
0.0
 41
1.0
 10
-11778.945094031296
 20
7133.467826679801
 30
0.0
 41
0.9983887708274015
 10
-11778.99993788059
 20
7133.4690713534355
 30
0.0
 41
1.0
 10
-11779.008001285789
 20
7133.4692543513102
 30
0.0
 41
1.0
 10
-11779.016064690988
 20
7133.4694373491848
 30
0.0
 41
1.0
 10
-11779.054781729867
 20
7133.4703160270683
 30
0.0
 41
0.9998869563083368
 10
-11779.093507683087
 20
7133.4700301577095
 30
0.0
 41
1.0
 10
-11779.132233636445
 20
7133.4697442883498
 30
0.0
 41
0.9999972320075968
 10
-11779.170957815419
 20
7133.4692761888218
 30
0.0
 41
1.0
 10
-11779.190310832038
 20
7133.469042248732
 30
0.0
 41
1.0
 10
-11779.209663848658
 20
7133.4688083086421
 30
0.0
 41
1.0
 10
-11779.287094061032
 20
7133.4678723289344
 30
0.0
 41
0.9997304945086911
 10
-11779.364397367273
 20
7133.4633432351475
 30
0.0
 41
1.0
 10
-11779.373447008975
 20
7133.4628130291576
 30
0.0
 41
1.0
 10
-11779.382496650676
 20
7133.4622828231677
 30
0.0
 41
1.0
 10
-11779.477899240335
 20
7133.4566933174001
 30
0.0
 41
0.9997888306417337
 10
-11779.572991576188
 20
7133.4471883529113
 30
0.0
 41
1.0
 10
-11779.58171263775
 20
7133.4463166382802
 30
0.0
 41
1.0
 10
-11779.590433699312
 20
7133.4454449236491
 30
0.0
 41
1.0
 10
-11779.702968158314
 20
7133.4341965298936
 30
0.0
 41
0.9984170238186516
 10
-11779.813527305667
 20
7133.4103804479555
 30
0.0
 41
1.0
 10
-11779.849908436656
 20
7133.4025434121495
 30
0.0
 41
1.0
 10
-11779.886289567643
 20
7133.3947063763435
 30
0.0
 41
1.0
 10
-11780.00148063605
 20
7133.369892509837
 30
0.0
 41
0.9976592854190108
 10
-11780.112208802449
 20
7133.3295938326901
 30
0.0
 41
1.0
 10
-11780.222936968847
 20
7133.289295155545
 30
0.0
 41
0.9993255074355428
 10
-11780.330408767652
 20
7133.2409782570476
 30
0.0
 41
1.0
 10
-11780.335033946572
 20
7133.2388988808489
 30
0.0
 41
1.0
 10
-11780.339659125491
 20
7133.2368195046511
 30
0.0
 41
1.0
 10
-11780.456381282129
 20
7133.1843438537599
 30
0.0
 41
0.9976475078273357
 10
-11780.564828626433
 20
7133.1163958641055
 30
0.0
 41
1.0
 10
-11780.583171020578
 20
7133.1049033852842
 30
0.0
 41
1.0
 10
-11780.601513414722
 20
7133.0934109064629
 30
0.0
 41
1.0
 10
-11780.685715606267
 20
7133.0406537857007
 30
0.0
 41
0.9995131336402605
 10
-11780.766463321219
 20
7132.9827475737502
 30
0.0
 41
1.0
 10
-11780.847211036209
 20
7132.9248413617725
 30
0.0
 41
0.9995810107605334
 10
-11780.924472683948
 20
7132.8623596792968
 30
0.0
 41
1.0
 10
-11780.927442715136
 20
7132.8599578078492
 30
0.0
 41
1.0
 10
-11780.930412746326
 20
7132.8575559364017
 30
0.0
 41
1.0
 10
-11781.013614456491
 20
7132.7902705109946
 30
0.0
 41
0.9996617837951879
 10
-11781.093205143643
 20
7132.7187500554192
 30
0.0
 41
1.0
 10
-11781.105335894492
 20
7132.7078493224544
 30
0.0
 41
1.0
 10
-11781.117466645339
 20
7132.6969485894897
 30
0.0
 41
1.0
 10
-11781.185742172749
 20
7132.6355959740031
 30
0.0
 41
0.9997267750055044
 10
-11781.251075681044
 20
7132.5711194374671
 30
0.0
 41
1.0
 10
-11781.316409189323
 20
7132.5066429009485
 30
0.0
 41
0.9999667288962754
 10
-11781.380682132463
 20
7132.4411090940594
 30
0.0
 41
1.0
 10
-11781.449509580245
 20
7132.3709314352955
 30
0.0
 41
1.0
 10
-11781.518337028025
 20
7132.3007537765316
 30
0.0
 41
1.0
 10
-11781.72026486673
 20
7132.0948646521128
 30
0.0
 41
0.9988205335175397
 10
-11781.901270483717
 20
7131.8703604200418
 30
0.0
 41
1.0
 10
-11781.931910448613
 20
7131.832357169621
 30
0.0
 41
1.0
 10
-11781.962550413511
 20
7131.7943539192001
 30
0.0
 41
1.0
 10
-11782.204835960289
 20
7131.493843186292
 30
0.0
 41
0.9997077826755899
 10
-11782.432313911371
 20
7131.1819733921102
 30
0.0
 41
1.0
 10
-11782.434037326519
 20
7131.1796106087077
 30
0.0
 41
1.0
 10
-11782.435760741666
 20
7131.1772478253042
 30
0.0
 41
1.0
 10
-11782.666685523023
 20
7130.8606524643401
 30
0.0
 41
0.9989147567080537
 10
-11782.867149025902
 20
7130.523943003167
 30
0.0
 41
1.0
 10
-11782.891890171235
 20
7130.4823864225727
 30
0.0
 41
1.0
 10
-11782.916631316566
 20
7130.4408298419794
 30
0.0
 41
1.0
 10
-11783.071842615191
 20
7130.1801284575486
 30
0.0
 41
0.9997476598180362
 10
-11783.215187602676
 20
7129.9127187090035
 30
0.0
 41
1.0
 10
-11783.358532590197
 20
7129.6453089604001
 30
0.0
 41
0.9996258967110338
 10
-11783.487040842138
 20
7129.3704610237546
 30
0.0
 41
1.0
 10
-11783.500240751549
 20
7129.3422296237404
 30
0.0
 41
1.0
 10
-11783.513440660961
 20
7129.3139982237271
 30
0.0
 41
1.0
 10
-11783.653649381993
 20
7129.0141258257026
 30
0.0
 41
0.9998735413945811
 10
-11783.784250728737
 20
7128.7099462261849
 30
0.0
 41
1.0
 10
-11783.787693556773
 20
7128.7019276407773
 30
0.0
 41
1.0
 10
-11783.791136384809
 20
7128.6939090553697
 30
0.0
 41
1.0
 10
-11783.914852075432
 20
7128.4057666267754
 30
0.0
 41
0.9999377418858302
 10
-11784.032106877632
 20
7128.1149351590429
 30
0.0
 41
1.0
 10
-11784.149361679811
 20
7127.8241036913578
 30
0.0
 41
0.9999508299500057
 10
-11784.260825623203
 20
7127.5310040145005
 30
0.0
 41
1.0
 10
-11784.263906391858
 20
7127.5229029885595
 30
0.0
 41
1.0
 10
-11784.26698716051
 20
7127.5148019626176
 30
0.0
 41
1.0
 10
-11784.384612641194
 20
7127.2055002339212
 30
0.0
 41
0.9999609228428293
 10
-11784.496751244049
 20
7126.8941672179571
 30
0.0
 41
1.0
 10
-11784.499707254417
 20
7126.8859603774954
 30
0.0
 41
1.0
 10
-11784.502663264786
 20
7126.8777535370336
 30
0.0
 41
1.0
 10
-11784.620713888356
 20
7126.5500068402071
 30
0.0
 41
0.9999674607404555
 10
-11784.733461414422
 20
7126.2203982202172
 30
0.0
 41
1.0
 10
-11784.784859804979
 20
7126.0701390245431
 30
0.0
 41
1.0
 10
-11784.836258195537
 20
7125.919879828868
 30
0.0
 41
1.0
 10
-11784.952268802299
 20
7125.5807318463512
 30
0.0
 41
0.9999287532307128
 10
-11785.060150206282
 20
7125.2389111073408
 30
0.0
 41
1.0
 10
-11785.106627462083
 20
7125.0916485640446
 30
0.0
 41
1.0
 10
-11785.153104717881
 20
7124.9443860207493
 30
0.0
 41
1.0
 10
-11785.168031609915
 20
7124.897090369428
 30
0.0
 41
0.999999822486443
 10
-11785.182902118982
 20
7124.8497769601245
 30
0.0
 41
1.0
 10
-11786.803558255779
 20
7119.7017484583357
 30
0.0
 41
1.0
 10
-11788.424214392573
 20
7114.553719956546
 30
0.0
 41
1.0
 10
-11789.329522836464
 20
7114.553719956546
 30
0.0
 41
1.0
 10
-11790.234831280355
 20
7114.553719956546
 30
0.0
 41
1.0
 10
-11788.382746868969
 20
7120.440791879013
 30
0.0
 41
1.0
 10
-11786.530662457582
 20
7126.3278638014808
 30
0.0
 41
1.0
 10
-11786.520540699279
 20
7126.3599070149303
 30
0.0
 41
1.0
 10
-11786.447933030429
 20
7126.5902065567561
 30
0.0
 41
1.0
 10
-11786.375325361589
 20
7126.8205060985565
 30
0.0
 41
0.9999825681978503
 10
-11786.305442322398
 20
7127.0516469935519
 30
0.0
 41
1.0
 10
-11786.257151260255
 20
7127.2113715769883
 30
0.0
 41
1.0
 10
-11786.208860198112
 20
7127.3710961604238
 30
0.0
 41
1.0
 10
-11786.111707844759
 20
7127.6924313823183
 30
0.0
 41
0.9999672528960916
 10
-11786.019769039107
 20
7128.015296927997
 30
0.0
 41
1.0
 10
-11786.016980155513
 20
7128.0250907731242
 30
0.0
 41
1.0
 10
-11786.014191271917
 20
7128.0348846182515
 30
0.0
 41
1.0
 10
-11785.927830233559
 20
7128.3381624733229
 30
0.0
 41
0.9999899749149446
 10
-11785.844188623949
 20
7128.6422015620356
 30
0.0
 41
1.0
 10
-11785.834082704954
 20
7128.6789367996307
 30
0.0
 41
1.0
 10
-11785.82397678596
 20
7128.7156720372259
 30
0.0
 41
1.0
 10
-11785.760547014435
 20
7128.9462406504126
 30
0.0
 41
0.9999214200506702
 10
-11785.702917586037
 20
7129.1783269926973
 30
0.0
 41
1.0
 10
-11785.690151733907
 20
7129.2297378778949
 30
0.0
 41
1.0
 10
-11785.677385881774
 20
7129.2811487630925
 30
0.0
 41
1.0
 10
-11785.64528815771
 20
7129.4104133347064
 30
0.0
 41
0.9999828681662536
 10
-11785.614705905664
 20
7129.5400448093742
 30
0.0
 41
1.0
 10
-11785.584123653669
 20
7129.6696762838428
 30
0.0
 41
0.999938984447853
 10
-11785.556412664884
 20
7129.7999517397238
 30
0.0
 41
1.0
 10
-11785.549274921163
 20
7129.8335078435703
 30
0.0
 41
1.0
 10
-11785.542137177439
 20
7129.8670639474167
 30
0.0
 41
1.0
 10
-11785.500150701217
 20
7130.0644516109533
 30
0.0
 41
0.9998933699440358
 10
-11785.463946436821
 20
7130.2629812186733
 30
0.0
 41
1.0
 10
-11785.462573611598
 20
7130.2705092394081
 30
0.0
 41
1.0
 10
-11785.461200786374
 20
7130.2780372601437
 30
0.0
 41
1.0
 10
-11785.422250871536
 20
7130.4916229093214
 30
0.0
 41
0.9996850305193262
 10
-11785.394067195273
 20
7130.7068939147839
 30
0.0
 41
1.0
 10
-11785.392072161907
 20
7130.7221322688856
 30
0.0
 41
1.0
 10
-11785.390077128541
 20
7130.7373706229864
 30
0.0
 41
1.0
 10
-11785.362669266084
 20
7130.9467158501357
 30
0.0
 41
0.9994697936707198
 10
-11785.348944706864
 20
7131.1574010454606
 30
0.0
 41
1.0
 10
-11785.348467637616
 20
7131.1647245176582
 30
0.0
 41
1.0
 10
-11785.347990568367
 20
7131.1720479898559
 30
0.0
 41
1.0
 10
-11785.335220147645
 20
7131.3680862407773
 30
0.0
 41
0.9991804893138541
 10
-11785.338348463916
 20
7131.5645150907658
 30
0.0
 41
1.0
 10
-11785.338432342738
 20
7131.5697818921635
 30
0.0
 41
1.0
 10
-11785.33851622156
 20
7131.5750486935613
 30
0.0
 41
1.0
 10
-11785.34147678019
 20
7131.7609439407242
 30
0.0
 41
0.9988448329322683
 10
-11785.362268325815
 20
7131.9456965305726
 30
0.0
 41
1.0
 10
-11785.363862399518
 20
7131.9598613863527
 30
0.0
 41
1.0
 10
-11785.365456473222
 20
7131.9740262421319
 30
0.0
 41
1.0
 10
-11785.383059871438
 20
7132.1304491204155
 30
0.0
 41
0.9985503209454617
 10
-11785.417376143738
 20
7132.2840733044941
 30
0.0
 41
1.0
 10
-11785.424962135809
 20
7132.3180336318928
 30
0.0
 41
1.0
 10
-11785.432548127879
 20
7132.3519939592907
 30
0.0
 41
1.0
 10
-11785.451692416036
 20
7132.4376974885818
 30
0.0
 41
0.9991036781364927
 10
-11785.478017277688
 20
7132.5214745759085
 30
0.0
 41
1.0
 10
-11785.481999503147
 20
7132.5341477384263
 30
0.0
 41
1.0
 10
-11785.485981728605
 20
7132.5468209009432
 30
0.0
 41
1.0
 10
-11785.50434213934
 20
7132.6052516632408
 30
0.0
 41
0.9998874504365218
 10
-11785.524447347017
 20
7132.6631052654575
 30
0.0
 41
1.0
 10
-11785.544552554698
 20
7132.7209588676842
 30
0.0
 41
0.9994041637547246
 10
-11785.568601167633
 20
7132.77728757158
 30
0.0
 41
1.0
 10
-11785.572797951854
 20
7132.7871176360541
 30
0.0
 41
1.0
 10
-11785.576994736075
 20
7132.7969477005281
 30
0.0
 41
1.0
 10
-11785.60487356707
 20
7132.8622478664975
 30
0.0
 41
0.9991846840700313
 10
-11785.637929923765
 20
7132.9250858977812
 30
0.0
 41
1.0
 10
-11785.639066530162
 20
7132.9272465142403
 30
0.0
 41
1.0
 10
-11785.64020313656
 20
7132.9294071306986
 30
0.0
 41
1.0
 10
-11785.67098628046
 20
7132.9879239290667
 30
0.0
 41
0.9989253167914646
 10
-11785.707055704514
 20
7133.043338857452
 30
0.0
 41
1.0
 10
-11785.708109829186
 20
7133.0449583522095
 30
0.0
 41
1.0
 10
-11785.709163953856
 20
7133.046577846967
 30
0.0
 41
1.0
 10
-11785.743125128567
 20
7133.0987537858418
 30
0.0
 41
0.9986467172832105
 10
-11785.782322281208
 20
7133.1471198194722
 30
0.0
 41
1.0
 10
-11785.783196409908
 20
7133.1481984217498
 30
0.0
 41
1.0
 10
-11785.784070538608
 20
7133.1492770240284
 30
0.0
 41
1.0
 10
-11785.821519433839
 20
7133.1954858530953
 30
0.0
 41
0.9984001104273519
 10
-11785.863946164362
 20
7133.2371709604704
 30
0.0
 41
1.0
 10
-11785.864533302471
 20
7133.2377478353519
 30
0.0
 41
1.0
 10
-11785.86512044058
 20
7133.2383247102334
 30
0.0
 41
1.0
 10
-11785.906372894879
 20
7133.2788560678382
 30
0.0
 41
0.9982442159092806
 10
-11785.952128996214
 20
7133.314224629099
 30
0.0
 41
1.0
 10
-11785.95234379168
 20
7133.3143906617443
 30
0.0
 41
1.0
 10
-11785.952558587143
 20
7133.3145566943904
 30
0.0
 41
1.0
 10
-11785.997885097548
 20
7133.3495931903581
 30
0.0
 41
0.9982450060846019
 10
-11786.047036076621
 20
7133.3790249733938
 30
0.0
 41
1.0
 10
-11786.096187055695
 20
7133.4084567564269
 30
0.0
 41
0.9983922639642363
 10
-11786.148353361858
 20
7133.4321363910803
 30
0.0
 41
1.0
 10
-11786.148580239184
 20
7133.4322393765615
 30
0.0
 41
1.0
 10
-11786.148807116508
 20
7133.4323423620435
 30
0.0
 41
1.0
 10
-11786.201427177322
 20
7133.4562279676611
 30
0.0
 41
0.9986517147154435
 10
-11786.256240150191
 20
7133.4745290867841
 30
0.0
 41
1.0
 10
-11786.256918071616
 20
7133.4747554332153
 30
0.0
 41
1.0
 10
-11786.257595993044
 20
7133.4749817796455
 30
0.0
 41
1.0
 10
-11786.313764808763
 20
7133.4937355916281
 30
0.0
 41
0.998943559896066
 10
-11786.371418195909
 20
7133.507253293863
 30
0.0
 41
1.0
 10
-11786.372498315497
 20
7133.5075065441169
 30
0.0
 41
1.0
 10
-11786.373578435083
 20
7133.5077597943709
 30
0.0
 41
1.0
 10
-11786.433392061406
 20
7133.5217839971137
 30
0.0
 41
0.9992249241232785
 10
-11786.49412357029
 20
7133.5310593398253
 30
0.0
 41
1.0
 10
-11786.495537258583
 20
7133.5312752482332
 30
0.0
 41
1.0
 10
-11786.496950946876
 20
7133.531491156642
 30
0.0
 41
1.0
 10
-11786.560509832358
 20
7133.5411983161721
 30
0.0
 41
0.9994396597835006
 10
-11786.624575768898
 20
7133.5466312385179
 30
0.0
 41
1.0
 10
-11786.643716436374
 20
7133.5482544062361
 30
0.0
 41
1.0
 10
-11786.662857103849
 20
7133.5498775739552
 30
0.0
 41
1.0
 10
-11786.765204375339
 20
7133.5585568317374
 30
0.0
 41
0.9987693403126177
 10
-11786.867907998923
 20
7133.5570537682861
 30
0.0
 41
1.0
 10
-11786.878162333147
 20
7133.5569036965117
 30
0.0
 41
1.0
 10
-11786.888416667371
 20
7133.5567536247372
 30
0.0
 41
1.0
 10
-11786.997972433544
 20
7133.5551502804492
 30
0.0
 41
0.9989753644973162
 10
-11787.106934433577
 20
7133.5436472735255
 30
0.0
 41
1.0
 10
-11787.215896433596
 20
7133.5321442666009
 30
0.0
 41
0.9983190067302139
 10
-11787.32279524456
 20
7133.5081092748133
 30
0.0
 41
1.0
 10
-11787.331696196166
 20
7133.5061079962506
 30
0.0
 41
1.0
 10
-11787.340597147773
 20
7133.504106717688
 30
0.0
 41
1.0
 10
-11787.465297861962
 20
7133.4760691687734
 30
0.0
 41
0.9985539388302693
 10
-11787.586267615645
 20
7133.434805492725
 30
0.0
 41
1.0
 10
-11787.588613046599
 20
7133.4340054489112
 30
0.0
 41
1.0
 10
-11787.590958477551
 20
7133.4332054050983
 30
0.0
 41
1.0
 10
-11787.716619093148
 20
7133.3903416414232
 30
0.0
 41
0.9988468746488307
 10
-11787.837589435441
 20
7133.3356235563615
 30
0.0
 41
1.0
 10
-11787.840772257434
 20
7133.3341838817996
 30
0.0
 41
1.0
 10
-11787.843955079426
 20
7133.3327442072386
 30
0.0
 41
1.0
 10
-11787.971291065702
 20
7133.2751467730568
 30
0.0
 41
0.9991322885920432
 10
-11788.09339164976
 20
7133.2071514408744
 30
0.0
 41
1.0
 10
-11788.110993660808
 20
7133.1973492388825
 30
0.0
 41
1.0
 10
-11788.128595671855
 20
7133.1875470368905
 30
0.0
 41
1.0
 10
-11788.23077235291
 20
7133.1306469211104
 30
0.0
 41
0.9993860037850114
 10
-11788.328713356979
 20
7133.0667309055261
 30
0.0
 41
1.0
 10
-11788.334331669845
 20
7133.0630644108223
 30
0.0
 41
1.0
 10
-11788.33994998271
 20
7133.0593979161185
 30
0.0
 41
1.0
 10
-11788.426654361067
 20
7133.0028148899291
 30
0.0
 41
0.9998821494951024
 10
-11788.511580736864
 20
7132.9435966598612
 30
0.0
 41
1.0
 10
-11788.596507112663
 20
7132.8843784297951
 30
0.0
 41
0.9997976482745307
 10
-11788.678982743049
 20
7132.8217920217667
 30
0.0
 41
1.0
 10
-11788.69361900787
 20
7132.810685331975
 30
0.0
 41
1.0
 10
-11788.708255272692
 20
7132.7995786421825
 30
0.0
 41
1.0
 10
-11788.820003432722
 20
7132.7147788545672
 30
0.0
 41
0.9998091630800107
 10
-11788.928353710766
 20
7132.6256785038522
 30
0.0
 41
1.0
 10
-11788.941359463226
 20
7132.6149834034204
 30
0.0
 41
1.0
 10
-11788.954365215686
 20
7132.6042883029877
 30
0.0
 41
1.0
 10
-11789.088726998667
 20
7132.4937977513964
 30
0.0
 41
0.9995035112317319
 10
-11789.215862876412
 20
7132.3750639343989
 30
0.0
 41
1.0
 10
-11789.225510186814
 20
7132.3660541882273
 30
0.0
 41
1.0
 10
-11789.235157497216
 20
7132.3570444420557
 30
0.0
 41
1.0
 10
-11789.358580559985
 20
7132.2417780702963
 30
0.0
 41
0.9994630424297687
 10
-11789.474188965756
 20
7132.1186753270722
 30
0.0
 41
1.0
 10
-11789.477871804535
 20
7132.1147537475517
 30
0.0
 41
1.0
 10
-11789.481554643313
 20
7132.1108321680313
 30
0.0
 41
1.0
 10
-11789.589797371547
 20
7131.995572583829
 30
0.0
 41
0.9995160693749047
 10
-11789.690663401072
 20
7131.8738051659639
 30
0.0
 41
1.0
 10
-11789.692597121137
 20
7131.8714707417748
 30
0.0
 41
1.0
 10
-11789.694530841201
 20
7131.8691363175858
 30
0.0
 41
1.0
 10
-11789.791529430582
 20
7131.7520377481178
 30
0.0
 41
0.9996561470515468
 10
-11789.882255649271
 20
7131.6300149856424
 30
0.0
 41
1.0
 10
-11789.888413315177
 20
7131.6217331965927
 30
0.0
 41
1.0
 10
-11789.894570981085
 20
7131.6134514075438
 30
0.0
 41
1.0
 10
-11789.972981867933
 20
7131.5079922231962
 30
0.0
 41
0.9998349055174437
 10
-11790.04750914987
 20
7131.39975363953
 30
0.0
 41
1.0
 10
-11790.122036431783
 20
7131.2915150558929
 30
0.0
 41
0.9999728109558438
 10
-11790.194959327675
 20
7131.1821891303653
 30
0.0
 41
1.0
 10
-11790.196274543105
 20
7131.1802173608357
 30
0.0
 41
1.0
 10
-11790.197589758534
 20
7131.1782455913071
 30
0.0
 41
1.0
 10
-11790.273143085102
 20
7131.064976126996
 30
0.0
 41
0.999997214739365
 10
-11790.348160895308
 20
7130.9513512844132
 30
0.0
 41
1.0
 10
-11790.353132438097
 20
7130.9438211956895
 30
0.0
 41
1.0
 10
-11790.358103980885
 20
7130.9362911069657
 30
0.0
 41
1.0
 10
-11790.443064876526
 20
7130.8076060871545
 30
0.0
 41
0.9999371979007865
 10
-11790.525120225971
 20
7130.6770491733087
 30
0.0
 41
1.0
 10
-11790.528629110302
 20
7130.6714662452923
 30
0.0
 41
1.0
 10
-11790.532137994633
 20
7130.6658833172769
 30
0.0
 41
1.0
 10
-11790.62121111275
 20
7130.5241605473884
 30
0.0
 41
0.9998272025609934
 10
-11790.704954503621
 20
7130.3792246706671
 30
0.0
 41
1.0
 10
-11790.720169675657
 20
7130.3528915561901
 30
0.0
 41
1.0
 10
-11790.735384847692
 20
7130.3265584417131
 30
0.0
 41
1.0
 10
-11790.849558582619
 20
7130.128956336066
 30
0.0
 41
0.9995217214837293
 10
-11790.95129827217
 20
7129.9246740082126
 30
0.0
 41
1.0
 10
-11790.958941834815
 20
7129.9093265584861
 30
0.0
 41
1.0
 10
-11790.966585397462
 20
7129.8939791087596
 30
0.0
 41
1.0
 10
-11791.053490690045
 20
7129.719482650693
 30
0.0
 41
0.9998269762606314
 10
-11791.13384515631
 20
7129.5418743639839
 30
0.0
 41
1.0
 10
-11791.214199622573
 20
7129.3642660772812
 30
0.0
 41
0.9998944747387911
 10
-11791.289360417119
 20
7129.1843983516965
 30
0.0
 41
1.0
 10
-11791.294314086745
 20
7129.1725436966963
 30
0.0
 41
1.0
 10
-11791.299267756371
 20
7129.1606890416961
 30
0.0
 41
1.0
 10
-11791.379914816909
 20
7128.9676921017126
 30
0.0
 41
0.9999506734408989
 10
-11791.456712345785
 20
7128.7731312969208
 30
0.0
 41
1.0
 10
-11791.471312310987
 20
7128.736143375294
 30
0.0
 41
1.0
 10
-11791.485912276186
 20
7128.699155453668
 30
0.0
 41
1.0
 10
-11791.533509874607
 20
7128.5785704922764
 30
0.0
 41
0.999991239391874
 10
-11791.580096318712
 20
7128.4575912893688
 30
0.0
 41
1.0
 10
-11791.626682762697
 20
7128.3366120867704
 30
0.0
 41
0.9999927113996439
 10
-11791.672344057082
 20
7128.2152806792919
 30
0.0
 41
1.0
 10
-11791.686312488502
 20
7128.1781636972328
 30
0.0
 41
1.0
 10
-11791.700280919924
 20
7128.1410467151736
 30
0.0
 41
1.0
 10
-11791.773879077127
 20
7127.9454813436378
 30
0.0
 41
0.9999487550949762
 10
-11791.843502702101
 20
7127.7484659784513
 30
0.0
 41
1.0
 10
-11791.867096311929
 20
7127.6817026684657
 30
0.0
 41
1.0
 10
-11791.890689921758
 20
7127.6149393584792
 30
0.0
 41
1.0
 10
-11791.985375556236
 20
7127.3470055233465
 30
0.0
 41
0.9999808436933579
 10
-11792.076737144973
 20
7127.0779200918168
 30
0.0
 41
1.0
 10
-11792.168098733579
 20
7126.8088346606546
 30
0.0
 41
0.9999873932889639
 10
-11792.256753442245
 20
7126.5388453057994
 30
0.0
 41
1.0
 10
-11792.276845799157
 20
7126.4776559729162
 30
0.0
 41
1.0
 10
-11792.296938156069
 20
7126.416466640032
 30
0.0
 41
1.0
 10
-11792.425777578528
 20
7126.0240986195085
 30
0.0
 41
0.9999794883034083
 10
-11792.549580363477
 20
7125.6301124132597
 30
0.0
 41
1.0
 10
-11792.560732622918
 20
7125.5946218030103
 30
0.0
 41
1.0
 10
-11792.57188488236
 20
7125.559131192761
 30
0.0
 41
1.0
 10
-11792.714443046256
 20
7125.1054584406811
 30
0.0
 41
0.9999982761799269
 10
-11792.855315486271
 20
7124.6512594185524
 30
0.0
 41
1.0
 10
-11794.443455818844
 20
7119.6024896875497
 30
0.0
 41
1.0
 10
-11796.031596151417
 20
7114.553719956546
 30
0.0
 41
1.0
 10
-11796.980346762894
 20
7114.553719956546
 30
0.0
 41
1.0
 10
-11797.92909737437
 20
7114.553719956546
 30
0.0
 41
1.0
 10
-11794.690812888217
 20
7124.8810421564922
 30
0.0
 41
1.0
 10
-11791.452528402064
 20
7135.2083643564383
 30
0.0
 41
1.0
  0
LWPOLYLINE
  5
57
100
AcDbEntity
  8
0
370
              15
390
0
  6
Continuous
 62
               7
100
AcDbPolyline
 90
      232
 70
             128
 10
-11817.156074175891
 20
7134.1240215249227
 42
0.0004370800614962
 10
-11817.208951350316
 20
7134.0553548852076
 10
-11817.24823558109
 20
7134.0042477727702
 42
0.0030481992193382
 10
-11817.378574298384
 20
7133.8325260801912
 10
-11817.417085969959
 20
7133.7811392966378
 42
0.0042058245727998
 10
-11817.621071020436
 20
7133.5041335518281
 10
-11817.673476143129
 20
7133.431700704783
 42
0.0120948898763261
 10
-11817.969520059882
 20
7133.0009511002499
 10
-11818.065712558971
 20
7132.8534703650739
 42
0.0141601263918377
 10
-11818.369356605936
 20
7132.3578010282736
 10
-11818.408893873404
 20
7132.2889570607667
 42
0.0071131081319585
 10
-11818.614166196599
 20
7131.9194542620044
 42
0.0068458791022142
 10
-11818.809045723472
 20
7131.5443626984716
 10
-11818.815857585902
 20
7131.530800984805
 42
0.0064120880298445
 10
-11819.013999835919
 20
7131.1233765099387
 10
-11819.021534521462
 20
7131.107364653164
 42
0.0058857236433533
 10
-11819.224289913382
 20
7130.6629885420225
 10
-11819.232464839628
 20
7130.6444983884958
 42
0.0053189741885719
 10
-11819.441169152287
 20
7130.1585349145962
 10
-11819.449916957976
 20
7130.1375530363812
 42
0.004750365042603
 10
-11819.665890684062
 20
7129.605353603336
 10
-11819.675158932476
 20
7129.5818772270632
 42
0.0042071762154104
 10
-11819.899706316173
 20
7128.9987836330765
 10
-11819.909455718553
 20
7128.9728174581242
 42
0.0036680086459816
 10
-11820.143910361776
 20
7128.3341820738378
 10
-11820.154118141712
 20
7128.3057335392486
 42
0.0032573142608698
 10
-11820.399750427614
 20
7127.6068808796845
 10
-11820.468400948477
 20
7127.4074177955627
 42
0.0026133366650333
 10
-11820.816846147278
 20
7126.3775545117705
 10
-11820.880102934809
 20
7126.1873236762885
 42
0.002059295074745
 10
-11821.093966003746
 20
7125.5352200237649
 10
-11821.097017795
 20
7125.5257835350712
 42
0.0025609928544332
 10
-11821.298838296394
 20
7124.8906383129888
 10
-11821.301429663559
 20
7124.8823359719272
 42
0.0031362356236092
 10
-11821.490920449198
 20
7124.2615731158685
 10
-11821.493051492153
 20
7124.2544318095688
 42
0.0037229918041176
 10
-11821.669851879051
 20
7123.645446507684
 10
-11821.671530468217
 20
7123.6394996176541
 42
0.0043077623689788
 10
-11821.835271270324
 20
7123.0396808857404
 42
0.0047654161820049
 10
-11821.988099992846
 20
7122.4369947968053
 10
-11822.022564601677
 20
7122.2954330196881
 42
0.0112969368448865
 10
-11822.218428959834
 20
7121.4037408590129
 10
-11822.246435348919
 20
7121.2609128129661
 42
0.0130056762565007
 10
-11822.447272592566
 20
7120.0739717413207
 10
-11822.467812342711
 20
7119.9298936278601
 42
0.013872153213623
 10
-11822.57151534725
 20
7119.0230641420185
 10
-11822.59081083516
 20
7118.7995664200816
 42
0.0071254696998775
 10
-11822.624157481081
 20
7118.3363794112465
 10
-11822.629118455232
 20
7118.2503754168929
 42
0.0028881799179244
 10
-11822.644256748532
 20
7117.9586337068431
 42
0.0060297297195974
 10
-11822.654188948312
 20
7117.6666847705337
 10
-11822.655251229975
 20
7117.6182923988181
 42
0.0229523164138038
 10
-11822.64752020219
 20
7117.2955375525116
 10
-11822.64329442867
 20
7117.2351340185051
 42
0.0123673300709342
 10
-11822.624215782151
 20
7117.0340132933206
 42
0.0128577674500709
 10
-11822.595020391749
 20
7116.8341154434238
 10
-11822.587894518358
 20
7116.7927866287973
 42
0.028571785376589
 10
-11822.523400516668
 20
7116.5146704774988
 10
-11822.509731993006
 20
7116.4680157080384
 42
0.0316283099134417
 10
-11822.393921413081
 20
7116.1490012061804
 10
-11822.390872721324
 20
7116.142014833853
 42
0.03389848242386
 10
-11822.241441010359
 20
7115.8544488696662
 10
-11822.239132280984
 20
7115.8506578403812
 42
0.0350228718342647
 10
-11822.056771990316
 20
7115.5936058557127
 10
-11822.055886738537
 20
7115.5925267779439
 42
0.0347476747551251
 10
-11821.841462051301
 20
7115.3653417307287
 42
0.0331337701903582
 10
-11821.598218725559
 20
7115.1692130686542
 10
-11821.597118627038
 20
7115.168440365479
 42
0.0305233319066771
 10
-11821.328573931452
 20
7115.0033121953811
 10
-11821.325343886963
 20
7115.0015881835243
 42
0.0273744481114431
 10
-11821.032790175397
 20
7114.8654500396369
 10
-11821.027685640252
 20
7114.8634064551643
 42
0.0240964406203155
 10
-11820.712208564601
 20
7114.7544227288827
 10
-11820.705625235396
 20
7114.7524979892087
 42
0.0209636179763304
 10
-11820.368225082751
 20
7114.6690298412777
 10
-11820.360592622295
 20
7114.6674779282748
 42
0.0181388704694831
 10
-11820.002270230296
 20
7114.6080618350607
 10
-11819.993989381917
 20
7114.6069956512438
 42
0.0156086547585391
 10
-11819.615802017714
 20
7114.5702594646664
 10
-11819.572606765387
 20
7114.5674209621875
 42
0.0137148329018747
 10
-11819.244933620103
 20
7114.5549007069367
 10
-11819.198997430198
 20
7114.5544062738218
 42
0.005105782391321
 10
-11818.962851843586
 20
7114.554276019413
 42
0.0052256693345668
 10
-11818.726754559722
 20
7114.5590248438793
 10
-11818.656527776056
 20
7114.5611718098908
 42
0.0161507179024686
 10
-11818.280790697991
 20
7114.5848221802135
 10
-11818.260777737583
 20
7114.5867323755047
 42
0.0101216737842006
 10
-11817.846750516072
 20
7114.6347253058739
 10
-11817.812697226665
 20
7114.6393730026803
 42
0.0245291776385
 10
-11817.335907571109
 20
7114.7284480807575
 10
-11817.251084255606
 20
7114.748644001098
 42
0.0143509212520265
 10
-11816.89445315165
 20
7114.8444486348817
 42
0.0156557857024075
 10
-11816.544237086953
 20
7114.9614598506896
 10
-11816.536735872429
 20
7114.9642300124542
 42
0.0170137333618864
 10
-11816.180139876738
 20
7115.109887627329
 10
-11816.17303595434
 20
7115.1130754628884
 42
0.0183105364434645
 10
-11815.813686286176
 20
7115.2904105047128
 10
-11815.806739521535
 20
7115.2941609395857
 42
0.0194899958149186
 10
-11815.448258780572
 20
7115.5061399214628
 10
-11815.441244901214
 20
7115.5106652637714
 42
0.0204869852930676
 10
-11815.087230599142
 20
7115.7601852788412
 10
-11815.079964990533
 20
7115.7657653442056
 42
0.0212516938557552
 10
-11814.733975059413
 20
7116.0556693411099
 10
-11814.687458365355
 20
7116.0981366511869
 42
0.0215248918293905
 10
-11814.427432196462
 20
7116.3569009301882
 10
-11814.382402462123
 20
7116.4057450514929
 42
0.0114578554930503
 10
-11814.227610308404
 20
7116.5815679849966
 10
-11814.216415772384
 20
7116.5948867485831
 42
0.00615313052306
 10
-11814.089941126422
 20
7116.7491762818472
 42
0.0006325587170979
 10
-11813.965562642605
 20
7116.9051796571039
 10
-11813.942522507219
 20
7116.9341531781829
 42
0.0041897761560053
 10
-11813.774067103248
 20
7117.149672554242
 10
-11813.715604983354
 20
7117.2257739012293
 42
0.0092993880062347
 10
-11813.438993056116
 20
7117.600052665136
 10
-11813.356598562961
 20
7117.7159896686398
 42
0.0159321727068482
 10
-11813.00999208029
 20
7118.2381638894376
 10
-11812.965635944922
 20
7118.3098434536532
 42
0.0085547317008498
 10
-11812.731124179576
 20
7118.7037184029123
 42
0.0084601156910208
 10
-11812.510148002104
 20
7119.1053452519982
 10
-11812.502032528302
 20
7119.1207049342174
 42
0.0081429654319496
 10
-11812.27878325782
 20
7119.5604264468539
 10
-11812.269923093681
 20
7119.5786052887779
 42
0.0076574581351155
 10
-11812.043515583078
 20
7120.0617881641101
 10
-11812.03403594239
 20
7120.0828526423338
 42
0.0070682724179313
 10
-11811.803591034626
 20
7120.6148899470109
 10
-11811.793600750601
 20
7120.6388791361269
 42
0.0064559514463668
 10
-11811.558267542379
 20
7121.225191402752
 10
-11811.547858184254
 20
7121.2521263280887
 42
0.0058311413930558
 10
-11811.306811447441
 20
7121.8981584226158
 10
-11811.296056370105
 20
7121.9280427636322
 42
0.0052312425822811
 10
-11811.0484750921
 20
7122.639245177359
 10
-11811.037431255685
 20
7122.6720718895358
 42
0.0046680544793274
 10
-11810.78250282796
 20
7123.4538982052563
 10
-11810.740510677928
 20
7123.5868814425185
 42
0.0041666856440527
 10
-11810.537224665512
 20
7124.2498502175886
 10
-11810.499562224795
 20
7124.3764313254142
 42
0.0015170975165142
 10
-11810.378375646435
 20
7124.7882996767366
 42
-0.00048879931484
 10
-11810.258035873518
 20
7125.2004180880713
 10
-11810.181558615815
 20
7125.4613754747188
 42
0.0002583378923822
 10
-11809.908344045445
 20
7126.3954321789479
 10
-11809.826571196272
 20
7126.6755314371458
 42
0.0006636169658664
 10
-11809.632703436164
 20
7127.3428843610691
 10
-11809.627606781838
 20
7127.3605159438748
 42
0.0010589131321624
 10
-11809.4461580809
 20
7127.9932472869968
 10
-11809.441176010478
 20
7128.0107601938162
 42
0.0015655524466004
 10
-11809.272905803238
 20
7128.609376873218
 10
-11809.26807560282
 20
7128.6267690321665
 42
0.0021640440480332
 10
-11809.113785630836
 20
7129.1917960501723
 10
-11809.109151411294
 20
7129.2090607805867
 42
0.0028763871890312
 10
-11808.969635693353
 20
7129.7410287310131
 10
-11808.965249829171
 20
7129.758152709227
 42
0.0037310511957264
 10
-11808.84129313735
 20
7130.2576003031918
 10
-11808.837217916993
 20
7130.2745605747205
 42
0.0047652197800648
 10
-11808.729594016553
 20
7130.7420383427416
 10
-11808.725903417277
 20
7130.7587978976781
 42
0.0060276699294447
 10
-11808.635373318075
 20
7131.1948736930362
 10
-11808.632154627769
 20
7131.2113749074351
 42
0.0075824337756935
 10
-11808.559465318369
 20
7131.6166420717718
 10
-11808.556819940983
 20
7131.6327970192615
 42
0.0095130624642708
 10
-11808.502704705359
 20
7132.0078863722938
 10
-11808.495718481472
 20
7132.0638199304394
 42
0.0121054653229042
 10
-11808.469127150898
 20
7132.3287157588838
 10
-11808.468260661139
 20
7132.3401192018191
 42
0.0069050827394852
 10
-11808.453171843101
 20
7132.5830604286584
 10
-11808.452036543435
 20
7132.6065866856507
 42
0.0169063976615505
 10
-11808.44920926445
 20
7132.802779413003
 10
-11808.450379915987
 20
7132.8631151744657
 42
0.0052007733258124
 10
-11808.452633364577
 20
7132.9387085645049
 42
0.0054038123429655
 10
-11808.472596876416
 20
7133.0587268605159
 10
-11808.477682732286
 20
7133.0873853470957
 42
0.0112050460459721
 10
-11808.513067094322
 20
7133.2637117853337
 10
-11808.530892056384
 20
7133.3432533721552
 42
0.0240764467996531
 10
-11808.621789422532
 20
7133.6734904076557
 10
-11808.64034818535
 20
7133.7301105726638
 42
0.0256812331873075
 10
-11808.783711105534
 20
7134.1018347789077
 10
-11808.789120531366
 20
7134.1139661139196
 42
0.0268360501253339
 10
-11808.958547772205
 20
7134.4449592479186
 10
-11808.964084179839
 20
7134.454478918231
 42
0.0274670231715289
 10
-11809.156285156254
 20
7134.7467662931485
 10
-11809.161666456217
 20
7134.7540454406899
 42
0.0275035967083164
 10
-11809.373239335779
 20
7135.0095613309932
 10
-11809.378308836733
 20
7135.0150404186097
 42
0.0269557673519336
 10
-11809.605712380184
 20
7135.235682704586
 10
-11809.610455437969
 20
7135.2398126590488
 42
0.0259124802215376
 10
-11809.850010269398
 20
7135.4275031861998
 10
-11809.854541114584
 20
7135.4306886885324
 42
0.024516215298788
 10
-11810.102457467674
 20
7135.5874216976399
 10
-11810.106984014001
 20
7135.5899818948419
 42
0.0229282588858182
 10
-11810.359403570827
 20
7135.7178500873397
 10
-11810.36418406466
 20
7135.7200023871001
 42
0.0212984135730241
 10
-11810.617222017125
 20
7135.821201304344
 10
-11810.62252630209
 20
7135.8230648671024
 42
0.0197555462338025
 10
-11810.872304639817
 20
7135.8998802850692
 42
0.0183511896729936
 10
-11811.127233365271
 20
7135.9574631920332
 10
-11811.213598561997
 20
7135.9736659824184
 42
0.0338057877094235
 10
-11811.499105911262
 20
7136.0074743875593
 10
-11811.590111316267
 20
7136.0120540428197
 42
0.0091990524358254
 10
-11811.695958424938
 20
7136.0154298987436
 42
0.0028333980702394
 10
-11811.801872340931
 20
7136.0162580062606
 10
-11811.80278779398
 20
7136.0162599760843
 42
-0.0023619827769375
 10
-11811.910533809056
 20
7136.0170008171617
 10
-11811.946938979263
 20
7136.0174231236251
 42
0.0008824598459821
 10
-11812.127494968996
 20
7136.0191989018631
 10
-11812.171356401519
 20
7136.0195528633894
 42
0.0038132665734972
 10
-11812.439639297478
 20
7136.019671799455
 10
-11812.456172952192
 20
7136.0195530333121
 42
0.0060665569326771
 10
-11812.75745344377
 20
7136.0137327338925
 10
-11812.771703775808
 20
7136.0132844259242
 42
0.0080356953376592
 10
-11813.10116249217
 20
7135.9976167038549
 10
-11813.113232507234
 20
7135.9968481209162
 42
0.0098996399126981
 10
-11813.465995591934
 20
7135.9673628917135
 10
-11813.476041301259
 20
7135.9663225955201
 42
0.0117740981376926
 10
-11813.847198159609
 20
7135.9190303479909
 10
-11813.855420856093
 20
7135.9177852314197
 42
0.0137435215189078
 10
-11814.240009675594
 20
7135.8486882578545
 10
-11814.2466667147
 20
7135.8473023616243
 42
0.0158359869360119
 10
-11814.639663808495
 20
7135.7524102731459
 10
-11814.64507699537
 20
7135.7509203322734
 42
0.0180554124016355
 10
-11815.041392039991
 20
7135.6262823160305
 10
-11815.045948828065
 20
7135.6246662797676
 42
0.0203657431296077
 10
-11815.440426345873
 20
7135.466405938253
 10
-11815.444569884883
 20
7135.4645443168101
 42
0.0226819684652883
 10
-11815.832005941082
 20
7135.2689017381426
 10
-11815.836205732106
 20
7135.2665361462196
 42
0.0248634984625872
 10
-11816.211387673298
 20
7135.0299095002656
 10
-11816.259582602082
 20
7134.9960524584394
 42
0.026704419089786
 10
-11816.533875298988
 20
7134.780612082579
 42
0.0139303002252351
 10
-11816.790042465005
 20
7134.5433732415868
 10
-11816.794895850646
 20
7134.5386205788063
 42
0.0283460963456642
 10
-11817.038968444871
 20
7134.2708899183654
 10
-11817.078636950031
 20
7134.2220883408881
 42
0.0070695364837084
 10
-11817.156074175891
 20
7134.1240215249227
 42
0.0070695364837084
  0
LWPOLYLINE
  5
58
100
AcDbEntity
  8
0
370
              15
390
0
  6
Continuous
 62
               7
100
AcDbPolyline
 90
      226
 70
             128
 10
-11820.684894613138
 20
7118.402432718739
 42
-0.0026277636576372
 10
-11820.684972496936
 20
7118.4692046447208
 10
-11820.684755138705
 20
7118.522359861925
 42
-0.0088680296683683
 10
-11820.680978522412
 20
7118.695375644349
 10
-11820.678632163301
 20
7118.7546556697816
 42
-0.0077381705591915
 10
-11820.662586052531
 20
7119.045916165659
 10
-11820.661718141364
 20
7119.0582043992654
 42
-0.0068872530529043
 10
-11820.63508606162
 20
7119.3734261512682
 10
-11820.633881837428
 20
7119.3856671303529
 42
-0.0062130021496323
 10
-11820.596288120587
 20
7119.7245368217082
 10
-11820.594784217066
 20
7119.7367106935071
 42
-0.0056726929693023
 10
-11820.5458623576
 20
7120.0989059153781
 10
-11820.54408891192
 20
7120.1109997158665
 42
-0.0052341884437466
 10
-11820.483478325636
 20
7120.4961929715337
 10
-11820.481460336883
 20
7120.5081979013776
 42
-0.0049768450213434
 10
-11820.408721655484
 20
7120.9160424686661
 10
-11820.384472640735
 20
7121.0445904518156
 42
-0.008902980561414
 10
-11820.247391788937
 20
7121.7063658992511
 10
-11820.21464641362
 20
7121.8513973297613
 42
-0.0080318257096948
 10
-11819.985097799265
 20
7122.7971069616797
 10
-11819.973112872833
 20
7122.843237596805
 42
-0.0074265721310179
 10
-11819.689101333961
 20
7123.8733021752641
 10
-11819.669221790891
 20
7123.9414362356902
 42
-0.006971192270789
 10
-11819.341917212359
 20
7125.0077039761027
 10
-11819.281965265202
 20
7125.1937253346368
 42
-0.0052070422881456
 10
-11819.052540039995
 20
7125.8809974115047
 10
-11819.035258847902
 20
7125.9310246918931
 42
-0.000916700445846
 10
-11818.832166960532
 20
7126.5154805402763
 42
-0.0025162726926778
 10
-11818.625069330139
 20
7127.0985218048063
 10
-11818.587844718428
 20
7127.2016713504481
 42
-0.002821268145987
 10
-11818.339668799501
 20
7127.8774019825159
 10
-11818.329838036678
 20
7127.903709427389
 42
-0.0031964916821914
 10
-11818.093545779087
 20
7128.5239141893189
 10
-11818.083911325066
 20
7128.5487241795199
 42
-0.0036281836446724
 10
-11817.858805363989
 20
7129.1161648603556
 10
-11817.849366953847
 20
7129.1394622918206
 42
-0.0041269166838785
 10
-11817.634749257173
 20
7129.6569031878371
 10
-11817.60211630073
 20
7129.7337816342515
 42
-0.0047472213041625
 10
-11817.445071495196
 20
7130.0942031020804
 10
-11817.438177414031
 20
7130.1096236993171
 42
-0.0025651660004512
 10
-11817.289819380139
 20
7130.4369517551613
 42
-0.0057144635002031
 10
-11817.136069686338
 20
7130.7617614285855
 10
-11817.108038980959
 20
7130.8192698109324
 42
-0.0065388068347029
 10
-11816.924571953226
 20
7131.1835023075828
 10
-11816.916113497497
 20
7131.1997618868591
 42
-0.0074510843057398
 10
-11816.73993125157
 20
7131.5264501680749
 10
-11816.731751581039
 20
7131.5410909453449
 42
-0.0084648979829696
 10
-11816.562117727939
 20
7131.8329999563048
 10
-11816.554261601461
 20
7131.8460069479406
 42
-0.0095638542823616
 10
-11816.390426153857
 20
7132.1058958199346
 10
-11816.382951210184
 20
7132.1172651813931
 42
-0.0107191626799137
 10
-11816.224149629797
 20
7132.3478764159345
 10
-11816.217132896047
 20
7132.3576125083255
 42
-0.0118458573893548
 10
-11816.062584797553
 20
7132.561684703609
 42
-0.0129184518184427
 10
-11815.898132173943
 20
7132.7578452197922
 10
-11815.867987401627
 20
7132.7919712986377
 42
-0.0217742579692624
 10
-11815.691375079256
 20
7132.9751780689294
 10
-11815.680629534878
 20
7132.9853949020535
 42
-0.0097266568693589
 10
-11815.514571915937
 20
7133.1372424765705
 42
-0.0187720905744004
 10
-11815.340224340056
 20
7133.2793113299531
 10
-11815.309518349324
 20
7133.3024704123918
 42
-0.0179428207467663
 10
-11815.077097629379
 20
7133.4650225894675
 10
-11815.073445302502
 20
7133.4673865243303
 42
-0.0170047877759278
 10
-11814.837681664932
 20
7133.6088470385057
 10
-11814.833898676161
 20
7133.6109453435556
 42
-0.0160190788365562
 10
-11814.59699012855
 20
7133.7325966455301
 42
-0.015110286147358
 10
-11814.352958346099
 20
7133.839279421587
 10
-11814.300571843891
 20
7133.8603195544802
 42
-0.0271945441899604
 10
-11813.941909284857
 20
7133.9821843651789
 10
-11813.872844484347
 20
7134.0015339064521
 42
-0.0237596594059083
 10
-11813.457047637323
 20
7134.0969846184335
 10
-11813.388984783585
 20
7134.109239306561
 42
-0.0213715440538066
 10
-11813.103109852147
 20
7134.1481863380704
 10
-11813.04296268594
 20
7134.1537760527699
 42
-0.0101465655902136
 10
-11812.875470153936
 20
7134.1659195960347
 10
-11812.866129767761
 20
7134.1664065110308
 42
-0.0100375910915658
 10
-11812.716975667176
 20
7134.171182328957
 10
-11812.706716397497
 20
7134.1713047679714
 42
-0.0103625633327615
 10
-11812.578008402839
 20
7134.1701733344453
 10
-11812.555742751563
 20
7134.1695159759802
 42
-0.0115689250353343
 10
-11812.471692014045
 20
7134.1650864697349
 42
-0.0072438037433934
 10
-11812.387853734564
 20
7134.1574972699818
 10
-11812.371053225132
 20
7134.1557307272615
 42
-0.0217917313190271
 10
-11812.254483461818
 20
7134.1383108345408
 10
-11812.188883371253
 20
7134.1255642261267
 42
-0.0332943556745998
 10
-11811.984491206222
 20
7134.0715239348192
 10
-11811.954318637672
 20
7134.0613558577015
 42
-0.0184824084781754
 10
-11811.815813581208
 20
7134.0089048423142
 42
-0.0198002050627792
 10
-11811.681739240707
 20
7133.9460207821157
 10
-11811.679852603331
 20
7133.9450429952358
 42
-0.0212242342983978
 10
-11811.547713660937
 20
7133.8692802564465
 10
-11811.545898365386
 20
7133.8681344542338
 42
-0.0226090605787996
 10
-11811.417394464155
 20
7133.7786548106624
 10
-11811.415550022428
 20
7133.7772425576823
 42
-0.0238457052253919
 10
-11811.292367941132
 20
7133.6732466618168
 10
-11811.290415212576
 20
7133.6714317840533
 42
-0.0248160564146559
 10
-11811.174213705272
 20
7133.5521571828403
 10
-11811.172110071873
 20
7133.5497718491406
 42
-0.0254109591424489
 10
-11811.064504854005
 20
7133.4144834631716
 10
-11811.062256832094
 20
7133.4113419147752
 42
-0.0255528488293714
 10
-11810.964810153304
 20
7133.2593148605565
 10
-11810.962479053378
 20
7133.2552332489331
 42
-0.0252146793175643
 10
-11810.876698027361
 20
7133.0857310029178
 10
-11810.874395788212
 20
7133.0805489210234
 42
-0.0244265635889574
 10
-11810.80174109445
 20
7132.8928023489743
 10
-11810.792494692982
 20
7132.8649369306358
 42
-0.023131961295691
 10
-11810.746571913991
 20
7132.7016358838373
 42
-0.0112130424419838
 10
-11810.711935891455
 20
7132.5354322836583
 10
-11810.710733366341
 20
7132.5289356967605
 42
-0.0210527881211219
 10
-11810.685046890967
 20
7132.3478800513158
 10
-11810.681536296146
 20
7132.3124745027726
 42
-0.0190029892394736
 10
-11810.666094822602
 20
7132.0589386564698
 10
-11810.665284846158
 20
7132.023463042131
 42
-0.0137974553691474
 10
-11810.666833698993
 20
7131.6984316354374
 10
-11810.66767915395
 20
7131.6723128907952
 42
-0.0081336634210541
 10
-11810.682538489173
 20
7131.3669654232053
 42
-0.0073526923562795
 10
-11810.706847022548
 20
7131.0622171789109
 10
-11810.70810844633
 20
7131.0488805042551
 42
-0.0066886138705826
 10
-11810.743844032375
 20
7130.7182944607712
 10
-11810.745501121846
 20
7130.7046728417663
 42
-0.006135918736262
 10
-11810.793351723889
 20
7130.347908861726
 10
-11810.79538922497
 20
7130.3340140588371
 42
-0.0056698610056791
 10
-11810.856039555738
 20
7129.9507354899833
 10
-11810.858444989059
 20
7129.9365763707683
 42
-0.0052721077269362
 10
-11810.932577189848
 20
7129.5264490311529
 10
-11810.935340338701
 20
7129.5120323957044
 42
-0.0049289272179121
 10
-11811.023634456787
 20
7129.0747238846452
 10
-11811.026746951484
 20
7129.0600550317658
 42
-0.0047415956721626
 10
-11811.129984943022
 20
7128.5952582743357
 10
-11811.164753153376
 20
7128.4454511789718
 42
-0.0084404470882352
 10
-11811.354769596976
 20
7127.6852271543385
 10
-11811.360896284934
 20
7127.6623630302875
 42
-0.0039635940260688
 10
-11811.582349969194
 20
7126.8613741661193
 10
-11811.595726764397
 20
7126.8144425494484
 42
-0.0072475040846052
 10
-11811.863173652238
 20
7125.9252228331306
 10
-11811.933385979133
 20
7125.7034824829443
 42
-0.0051345458821761
 10
-11812.220145351146
 20
7124.8291572952749
 10
-11812.241671617867
 20
7124.765731028283
 42
-0.0019150016619281
 10
-11812.497205024782
 20
7124.0221819079188
 10
-11812.503672629146
 20
7124.0035944430911
 42
-0.0021524362752139
 10
-11812.75215068024
 20
7123.2992686212892
 10
-11812.761361100956
 20
7123.2735150429344
 42
-0.0024331286825946
 10
-11812.997616359971
 20
7122.6229157348698
 10
-11813.006664312628
 20
7122.5983724282287
 42
-0.0027449721773131
 10
-11813.231278883359
 20
7121.9992425495911
 10
-11813.240168890645
 20
7121.9759199600194
 42
-0.0031083229786528
 10
-11813.453711377362
 20
7121.425995922159
 10
-11813.462447508904
 20
7121.4039062066377
 42
-0.0035311343307244
 10
-11813.665488694629
 20
7120.9009230805714
 10
-11813.674074033863
 20
7120.880080356852
 42
-0.0040245640924738
 10
-11813.867185837571
 20
7120.4217710344692
 10
-11813.875621951234
 20
7120.4021916662568
 42
-0.0046015135850226
 10
-11814.059378244337
 20
7119.9862866367548
 10
-11814.067664422137
 20
7119.9679894973651
 42
-0.0052768638276838
 10
-11814.24264194112
 20
7119.5922166130322
 10
-11814.250774151689
 20
7119.5752232746099
 42
-0.0060672675629266
 10
-11814.417553764513
 20
7119.237307651375
 10
-11814.425523245001
 20
7119.2216423923655
 42
-0.0069904648851082
 10
-11814.584691638996
 20
7118.9193065857144
 10
-11814.59248303855
 20
7118.904996036591
 42
-0.0080637022784215
 10
-11814.744634898954
 20
7118.6359607333334
 10
-11814.752223931571
 20
7118.6230328677575
 42
-0.0093006455692993
 10
-11814.897964608117
 20
7118.3850184692292
 10
-11814.905315274849
 20
7118.3735005000744
 42
-0.0107060778045655
 10
-11815.045263818298
 20
7118.1642301826778
 10
-11815.052325586577
 20
7118.1541446401116
 42
-0.0122723111439979
 10
-11815.187119304777
 20
7117.9713513106217
 10
-11815.187445528351
 20
7117.9709309227865
 42
-0.0141836319632985
 10
-11815.331027131306
 20
7117.796361164983
 10
-11815.337974886939
 20
7117.7883861647397
 42
-0.0175957477239463
 10
-11815.477881054991
 20
7117.6387652763133
 42
-0.0080466359650027
 10
-11815.625344820066
 20
7117.4964427481209
 10
-11815.671379364539
 20
7117.4534223100709
 42
-0.0269600260420416
 10
-11815.924659610504
 20
7117.2410990515746
 10
-11815.991226746839
 20
7117.1911476369223
 42
-0.0178362839756151
 10
-11816.231171236475
 20
7117.0241297106859
 10
-11816.238416207438
 20
7117.0194611985053
 42
-0.0174650732678467
 10
-11816.474752404916
 20
7116.8786002335219
 42
-0.0169240130174263
 10
-11816.720218650773
 20
7116.7543079737461
 10
-11816.766204806332
 20
7116.7329460181772
 42
-0.0318883036799704
 10
-11817.116555661962
 20
7116.5966077086641
 10
-11817.184921197109
 20
7116.5749070881948
 42
-0.0284435909902679
 10
-11817.560971323408
 20
7116.4786896527166
 10
-11817.596129483931
 20
7116.4717960568832
 42
-0.0243909340997367
 10
-11817.909572944825
 20
7116.4260750258582
 10
-11817.959853671584
 20
7116.4212294789577
 42
-0.0196639292926894
 10
-11818.175449249124
 20
7116.4089811934427
 10
-11818.227273320286
 20
7116.408077932706
 42
-0.0100501510550868
 10
-11818.33969660195
 20
7116.4083783310598
 10
-11818.371356463327
 20
7116.4090994029457
 42
-0.0019752031102504
 10
-11818.420448799978
 20
7116.4104115631544
 10
-11818.423209103204
 20
7116.4104962549809
 42
0.0065378752069669
 10
-11818.466785677954
 20
7116.4112631461958
 42
-0.0167974694546657
 10
-11818.510316500879
 20
7116.4129230447206
 10
-11818.514395840148
 20
7116.4132160556164
 42
-0.0081283276582204
 10
-11818.565955637889
 20
7116.417763049255
 10
-11818.577695211763
 20
7116.418990966833
 42
-0.0126703440114704
 10
-11818.652413507572
 20
7116.4287257579062
 10
-11818.675201375234
 20
7116.4322840138193
 42
-0.011785208833968
 10
-11818.794740361083
 20
7116.4538470089792
 10
-11818.850120812831
 20
7116.465190549211
 42
-0.0251774592279783
 10
-11819.076964851833
 20
7116.523688558641
 10
-11819.121684041693
 20
7116.5376553779797
 42
-0.0146525199862171
 10
-11819.308077029227
 20
7116.6019219051777
 42
-0.0166929435805904
 10
-11819.490054685361
 20
7116.6777290382342
 10
-11819.494711316627
 20
7116.6798539388456
 42
-0.0191684358422071
 10
-11819.679894947883
 20
7116.7730900226388
 10
-11819.683227533635
 20
7116.774931270189
 42
-0.022118178179772
 10
-11819.86653783753
 20
7116.8870647685571
 10
-11819.868887641544
 20
7116.8886490665518
 42
-0.0254984685433999
 10
-11820.045177791933
 20
7117.0210602165234
 10
-11820.067659939636
 20
7117.0398125254596
 42
-0.0292492648794491
 10
-11820.192428878476
 20
7117.1569053251005
 42
-0.0159048957501049
 10
-11820.306268875915
 20
7117.284925316686
 10
-11820.307587666504
 20
7117.2865069297195
 42
-0.0343813379568803
 10
-11820.410224928126
 20
7117.4283782554839
 10
-11820.441716459492
 20
7117.4788816475857
 42
-0.0369117275740693
 10
-11820.527608961389
 20
7117.6423588885318
 42
-0.019175137989369
 10
-11820.59480234695
 20
7117.8147634945508
 10
-11820.596565670705
 20
7117.8198568392127
 42
-0.0378178042244442
 10
-11820.646360389484
 20
7118.0087976152663
 10
-11820.652355685212
 20
7118.0413582334468
 42
-0.0184846046487899
 10
-11820.673072884514
 20
7118.1831110540352
 42
-0.0179866351289811
 10
-11820.683405889586
 20
7118.3260018670662
 10
-11820.683462332034
 20
7118.3275595537289
 42
-0.0085497186015649
 10
-11820.684894613138
 20
7118.402432718739
 42
-0.0085497186015649
  0
ENDBLK
  5
59
100
AcDbEntity
  8
template
390
0
100
AcDbBlockEnd
  0
BLOCK
  5
5A
100
AcDbEntity
  8
notes
390
0
100
AcDbBlockBegin
  2
*D3
 70
               1
 10
0.0
 20
0.0
 30
0.0
  3
*D3
  1

  0
LINE
  5
5B
100
AcDbEntity
  8
0
370
              -2
390
0
  6
Continuous
 62
               0
100
AcDbLine
 10
863.67589470572057
 20
-485.0
 30
0.0
 11
863.67589470572057
 21
-610.0
 31
0.0
  0
LINE
  5
5C
100
AcDbEntity
  8
0
370
              -2
390
0
  6
Continuous
 62
               0
100
AcDbLine
 10
528.6758947057242
 20
-485.0
 30
0.0
 11
528.6758947057242
 21
-610.0
 31
0.0
  0
LINE
  5
5D
100
AcDbEntity
  8
0
370
              -2
390
0
  6
Continuous
 62
               0
100
AcDbLine
 10
863.67589470572057
 20
-610.0
 30
0.0
 11
528.6758947057242
 21
-610.0
 31
0.0
  0
CIRCLE
  5
5E
102
{ACAD_REACTORS
330
5F
102
}
100
AcDbEntity
  8
0
370
              -2
390
0
  6
Continuous
 62
               0
100
AcDbCircle
 10
863.67589470572057
 20
-610.0
 30
0.0
 40
1.9998779296875
  0
HATCH
  5
5F
100
AcDbEntity
  8
0
370
              -2
390
0
  6
Continuous
 62
               0
100
AcDbHatch
 10
0.0
 20
0.0
 30
0.0
210
0.0
220
0.0
230
1.0
  2
SOLID
 70
               1
 71
               1
 91
        1
 92
        1
 93
        1
 72
               2
 10
863.67589470572057
 20
-610.0
 40
1.9998779296875
 50
0.0
 51
360.0
 73
               0
 97
        1
330
5E
 75
               0
 76
               1
 98
        1
 10
0.0
 20
0.0
  0
CIRCLE
  5
60
102
{ACAD_REACTORS
330
61
102
}
100
AcDbEntity
  8
0
370
              -2
390
0
  6
Continuous
 62
               0
100
AcDbCircle
 10
528.6758947057242
 20
-610.0
 30
0.0
 40
1.9998779296875
  0
HATCH
  5
61
100
AcDbEntity
  8
0
370
              -2
390
0
  6
Continuous
 62
               0
100
AcDbHatch
 10
0.0
 20
0.0
 30
0.0
210
0.0
220
0.0
230
1.0
  2
SOLID
 70
               1
 71
               1
 91
        1
 92
        1
 93
        1
 72
               2
 10
528.6758947057242
 20
-610.0
 40
1.9998779296875
 50
0.0
 51
360.0
 73
               0
 97
        1
330
60
 75
               0
 76
               1
 98
        1
 10
0.0
 20
0.0
  0
MTEXT
  5
62
100
AcDbEntity
  8
0
390
0
 62
               0
100
AcDbMText
 10
672.36339302354645
 20
-576.12238281250029
 30
0.0
 40
24.432617187500004
 41
0.0
 71
               1
 72
               1
  1
335
  7
ＭＳ ゴシック
 73
               1
 44
0.7828267384257843
  0
POINT
  5
63
100
AcDbEntity
  8
Defpoints
370
               0
390
0
 62
               0
100
AcDbPoint
 10
528.6758947057242
 20
-460.0
 30
0.0
  0
POINT
  5
64
100
AcDbEntity
  8
Defpoints
370
               0
390
0
 62
               0
100
AcDbPoint
 10
863.67589470572057
 20
-460.0
 30
0.0
  0
POINT
  5
65
100
AcDbEntity
  8
Defpoints
370
               0
390
0
 62
               0
100
AcDbPoint
 10
863.67589470572057
 20
-610.0
 30
0.0
  0
ENDBLK
  5
66
100
AcDbEntity
  8
notes
390
0
100
AcDbBlockEnd
  0
BLOCK
  5
67
100
AcDbEntity
  8
notes
390
0
100
AcDbBlockBegin
  2
*D4
 70
               1
 10
0.0
 20
0.0
 30
0.0
  3
*D4
  1

  0
LINE
  5
68
100
AcDbEntity
  8
0
370
              -2
390
0
  6
Continuous
 62
               0
100
AcDbLine
 10
-811.2320996227063
 20
811.49112315878665
 30
0.0
 11
-811.2320996227063
 21
939.49112315878665
 31
0.0
  0
LINE
  5
69
100
AcDbEntity
  8
0
370
              -2
390
0
  6
Continuous
 62
               0
100
AcDbLine
 10
68.76790037729188
 20
811.49112315878665
 30
0.0
 11
68.76790037729188
 21
939.49112315878665
 31
0.0
  0
LINE
  5
6A
100
AcDbEntity
  8
0
370
              -2
390
0
  6
Continuous
 62
               0
100
AcDbLine
 10
-811.2320996227063
 20
939.49112315878665
 30
0.0
 11
68.76790037729188
 21
939.49112315878665
 31
0.0
  0
CIRCLE
  5
6B
102
{ACAD_REACTORS
330
6C
102
}
100
AcDbEntity
  8
0
370
              -2
390
0
  6
Continuous
 62
               0
100
AcDbCircle
 10
-811.2320996227063
 20
939.49112315878665
 30
0.0
 40
1.9998779296875
  0
HATCH
  5
6C
100
AcDbEntity
  8
0
370
              -2
390
0
  6
Continuous
 62
               0
100
AcDbHatch
 10
0.0
 20
0.0
 30
0.0
210
0.0
220
0.0
230
1.0
  2
SOLID
 70
               1
 71
               1
 91
        1
 92
        1
 93
        1
 72
               2
 10
-811.2320996227063
 20
939.49112315878665
 40
1.9998779296875
 50
0.0
 51
360.0
 73
               0
 97
        1
330
6B
 75
               0
 76
               1
 98
        1
 10
0.0
 20
0.0
  0
CIRCLE
  5
6D
102
{ACAD_REACTORS
330
6E
102
}
100
AcDbEntity
  8
0
370
              -2
390
0
  6
Continuous
 62
               0
100
AcDbCircle
 10
68.76790037729188
 20
939.49112315878665
 30
0.0
 40
1.9998779296875
  0
HATCH
  5
6E
100
AcDbEntity
  8
0
370
              -2
390
0
  6
Continuous
 62
               0
100
AcDbHatch
 10
0.0
 20
0.0
 30
0.0
210
0.0
220
0.0
230
1.0
  2
SOLID
 70
               1
 71
               1
 91
        1
 92
        1
 93
        1
 72
               2
 10
68.76790037729188
 20
939.49112315878665
 40
1.9998779296875
 50
0.0
 51
360.0
 73
               0
 97
        1
330
6D
 75
               0
 76
               1
 98
        1
 10
0.0
 20
0.0
  0
MTEXT
  5
6F
100
AcDbEntity
  8
0
390
0
 62
               0
100
AcDbMText
 10
-395.04460130488224
 20
973.36874034628636
 30
0.0
 40
24.432617187500004
 41
0.0
 71
               1
 72
               1
  1
880
  7
ＭＳ ゴシック
 73
               1
 44
0.7828267384257843
  0
POINT
  5
70
100
AcDbEntity
  8
Defpoints
370
               0
390
0
 62
               0
100
AcDbPoint
 10
68.76790037729188
 20
786.49112315878665
 30
0.0
  0
POINT
  5
71
100
AcDbEntity
  8
Defpoints
370
               0
390
0
 62
               0
100
AcDbPoint
 10
-811.2320996227063
 20
786.49112315878665
 30
0.0
  0
POINT
  5
72
100
AcDbEntity
  8
Defpoints
370
               0
390
0
 62
               0
100
AcDbPoint
 10
-811.2320996227063
 20
939.49112315878665
 30
0.0
  0
ENDBLK
  5
73
100
AcDbEntity
  8
notes
390
0
100
AcDbBlockEnd
  0
BLOCK
  5
74
100
AcDbEntity
  8
notes
390
0
100
AcDbBlockBegin
  2
*D5
 70
               1
 10
0.0
 20
0.0
 30
0.0
  3
*D5
  1

  0
LINE
  5
75
100
AcDbEntity
  8
0
370
              -2
390
0
  6
Continuous
 62
               0
100
AcDbLine
 10
-471.23209962270994
 20
749.14418624248356
 30
0.0
 11
-471.23209962270994
 21
889.49112315878847
 31
0.0
  0
LINE
  5
76
100
AcDbEntity
  8
0
370
              -2
390
0
  6
Continuous
 62
               0
100
AcDbLine
 10
-371.23209962270994
 20
751.64418624248356
 30
0.0
 11
-371.23209962270994
 21
889.49112315878847
 31
0.0
  0
LINE
  5
77
100
AcDbEntity
  8
0
370
              -2
390
0
  6
Continuous
 62
               0
100
AcDbLine
 10
-471.23209962270994
 20
889.49112315878847
 30
0.0
 11
-371.23209962270994
 21
889.49112315878847
 31
0.0
  0
CIRCLE
  5
78
102
{ACAD_REACTORS
330
79
102
}
100
AcDbEntity
  8
0
370
              -2
390
0
  6
Continuous
 62
               0
100
AcDbCircle
 10
-471.23209962270994
 20
889.49112315878847
 30
0.0
 40
1.9998779296875
  0
HATCH
  5
79
100
AcDbEntity
  8
0
370
              -2
390
0
  6
Continuous
 62
               0
100
AcDbHatch
 10
0.0
 20
0.0
 30
0.0
210
0.0
220
0.0
230
1.0
  2
SOLID
 70
               1
 71
               1
 91
        1
 92
        1
 93
        1
 72
               2
 10
-471.23209962270994
 20
889.49112315878847
 40
1.9998779296875
 50
0.0
 51
360.0
 73
               0
 97
        1
330
78
 75
               0
 76
               1
 98
        1
 10
0.0
 20
0.0
  0
CIRCLE
  5
7A
102
{ACAD_REACTORS
330
7B
102
}
100
AcDbEntity
  8
0
370
              -2
390
0
  6
Continuous
 62
               0
100
AcDbCircle
 10
-371.23209962270994
 20
889.49112315878847
 30
0.0
 40
1.9998779296875
  0
HATCH
  5
7B
100
AcDbEntity
  8
0
370
              -2
390
0
  6
Continuous
 62
               0
100
AcDbHatch
 10
0.0
 20
0.0
 30
0.0
210
0.0
220
0.0
230
1.0
  2
SOLID
 70
               1
 71
               1
 91
        1
 92
        1
 93
        1
 72
               2
 10
-371.23209962270994
 20
889.49112315878847
 40
1.9998779296875
 50
0.0
 51
360.0
 73
               0
 97
        1
330
7A
 75
               0
 76
               1
 98
        1
 10
0.0
 20
0.0
  0
MTEXT
  5
7C
100
AcDbEntity
  8
0
390
0
 62
               0
100
AcDbMText
 10
-445.04460130488587
 20
923.36874034628818
 30
0.0
 40
24.432617187500004
 41
0.0
 71
               1
 72
               1
  1
100
  7
ＭＳ ゴシック
 73
               1
 44
0.7828267384257843
  0
POINT
  5
7D
100
AcDbEntity
  8
Defpoints
370
               0
390
0
 62
               0
100
AcDbPoint
 10
-371.23209962270994
 20
726.64418624248356
 30
0.0
  0
POINT
  5
7E
100
AcDbEntity
  8
Defpoints
370
               0
390
0
 62
               0
100
AcDbPoint
 10
-471.23209962270994
 20
724.14418624248356
 30
0.0
  0
POINT
  5
7F
100
AcDbEntity
  8
Defpoints
370
               0
390
0
 62
               0
100
AcDbPoint
 10
-471.23209962270994
 20
889.49112315878847
 30
0.0
  0
ENDBLK
  5
80
100
AcDbEntity
  8
notes
390
0
100
AcDbBlockEnd
  0
BLOCK
  5
81
100
AcDbEntity
  8
notes
390
0
100
AcDbBlockBegin
  2
*D6
 70
               1
 10
0.0
 20
0.0
 30
0.0
  3
*D6
  1

  0
LINE
  5
82
100
AcDbEntity
  8
0
370
              -2
390
0
  6
Continuous
 62
               0
100
AcDbLine
 10
-371.23209962270994
 20
751.64418624248356
 30
0.0
 11
-371.23209962270994
 21
889.49112315878847
 31
0.0
  0
LINE
  5
83
100
AcDbEntity
  8
0
370
              -2
390
0
  6
Continuous
 62
               0
100
AcDbLine
 10
-271.23209962270994
 20
749.14418624248356
 30
0.0
 11
-271.23209962270994
 21
889.49112315878847
 31
0.0
  0
LINE
  5
84
100
AcDbEntity
  8
0
370
              -2
390
0
  6
Continuous
 62
               0
100
AcDbLine
 10
-371.23209962270994
 20
889.49112315878847
 30
0.0
 11
-271.23209962270994
 21
889.49112315878847
 31
0.0
  0
CIRCLE
  5
85
102
{ACAD_REACTORS
330
86
102
}
100
AcDbEntity
  8
0
370
              -2
390
0
  6
Continuous
 62
               0
100
AcDbCircle
 10
-371.23209962270994
 20
889.49112315878847
 30
0.0
 40
1.9998779296875
  0
HATCH
  5
86
100
AcDbEntity
  8
0
370
              -2
390
0
  6
Continuous
 62
               0
100
AcDbHatch
 10
0.0
 20
0.0
 30
0.0
210
0.0
220
0.0
230
1.0
  2
SOLID
 70
               1
 71
               1
 91
        1
 92
        1
 93
        1
 72
               2
 10
-371.23209962270994
 20
889.49112315878847
 40
1.9998779296875
 50
0.0
 51
360.0
 73
               0
 97
        1
330
85
 75
               0
 76
               1
 98
        1
 10
0.0
 20
0.0
  0
CIRCLE
  5
87
102
{ACAD_REACTORS
330
88
102
}
100
AcDbEntity
  8
0
370
              -2
390
0
  6
Continuous
 62
               0
100
AcDbCircle
 10
-271.23209962270994
 20
889.49112315878847
 30
0.0
 40
1.9998779296875
  0
HATCH
  5
88
100
AcDbEntity
  8
0
370
              -2
390
0
  6
Continuous
 62
               0
100
AcDbHatch
 10
0.0
 20
0.0
 30
0.0
210
0.0
220
0.0
230
1.0
  2
SOLID
 70
               1
 71
               1
 91
        1
 92
        1
 93
        1
 72
               2
 10
-271.23209962270994
 20
889.49112315878847
 40
1.9998779296875
 50
0.0
 51
360.0
 73
               0
 97
        1
330
87
 75
               0
 76
               1
 98
        1
 10
0.0
 20
0.0
  0
MTEXT
  5
89
100
AcDbEntity
  8
0
390
0
 62
               0
100
AcDbMText
 10
-345.04460130488587
 20
923.36874034628818
 30
0.0
 40
24.432617187500004
 41
0.0
 71
               1
 72
               1
  1
100
  7
ＭＳ ゴシック
 73
               1
 44
0.7828267384257843
  0
POINT
  5
8A
100
AcDbEntity
  8
Defpoints
370
               0
390
0
 62
               0
100
AcDbPoint
 10
-271.23209962270994
 20
724.14418624248356
 30
0.0
  0
POINT
  5
8B
100
AcDbEntity
  8
Defpoints
370
               0
390
0
 62
               0
100
AcDbPoint
 10
-371.23209962270994
 20
726.64418624248356
 30
0.0
  0
POINT
  5
8C
100
AcDbEntity
  8
Defpoints
370
               0
390
0
 62
               0
100
AcDbPoint
 10
-371.23209962270994
 20
889.49112315878847
 30
0.0
  0
ENDBLK
  5
8D
100
AcDbEntity
  8
notes
390
0
100
AcDbBlockEnd
  0
BLOCK
  5
8E
100
AcDbEntity
  8
notes
390
0
100
AcDbBlockBegin
  2
*D7
 70
               1
 10
0.0
 20
0.0
 30
0.0
  3
*D7
  1

  0
LINE
  5
8F
100
AcDbEntity
  8
0
370
              -2
390
0
  6
Continuous
 62
               0
100
AcDbLine
 10
-511.23209962270812
 20
-305.0
 30
0.0
 11
-511.23209962270812
 21
-210.0
 31
0.0
  0
LINE
  5
90
100
AcDbEntity
  8
0
370
              -2
390
0
  6
Continuous
 62
               0
100
AcDbLine
 10
-231.23209962270994
 20
-305.0
 30
0.0
 11
-231.23209962270994
 21
-210.0
 31
0.0
  0
LINE
  5
91
100
AcDbEntity
  8
0
370
              -2
390
0
  6
Continuous
 62
               0
100
AcDbLine
 10
-511.23209962270812
 20
-210.0
 30
0.0
 11
-231.23209962270994
 21
-210.0
 31
0.0
  0
CIRCLE
  5
92
102
{ACAD_REACTORS
330
93
102
}
100
AcDbEntity
  8
0
370
              -2
390
0
  6
Continuous
 62
               0
100
AcDbCircle
 10
-511.23209962270812
 20
-210.0
 30
0.0
 40
1.9998779296875
  0
HATCH
  5
93
100
AcDbEntity
  8
0
370
              -2
390
0
  6
Continuous
 62
               0
100
AcDbHatch
 10
0.0
 20
0.0
 30
0.0
210
0.0
220
0.0
230
1.0
  2
SOLID
 70
               1
 71
               1
 91
        1
 92
        1
 93
        1
 72
               2
 10
-511.23209962270812
 20
-210.0
 40
1.9998779296875
 50
0.0
 51
360.0
 73
               0
 97
        1
330
92
 75
               0
 76
               1
 98
        1
 10
0.0
 20
0.0
  0
CIRCLE
  5
94
102
{ACAD_REACTORS
330
95
102
}
100
AcDbEntity
  8
0
370
              -2
390
0
  6
Continuous
 62
               0
100
AcDbCircle
 10
-231.23209962270994
 20
-210.0
 30
0.0
 40
1.9998779296875
  0
HATCH
  5
95
100
AcDbEntity
  8
0
370
              -2
390
0
  6
Continuous
 62
               0
100
AcDbHatch
 10
0.0
 20
0.0
 30
0.0
210
0.0
220
0.0
230
1.0
  2
SOLID
 70
               1
 71
               1
 91
        1
 92
        1
 93
        1
 72
               2
 10
-231.23209962270994
 20
-210.0
 40
1.9998779296875
 50
0.0
 51
360.0
 73
               0
 97
        1
330
94
 75
               0
 76
               1
 98
        1
 10
0.0
 20
0.0
  0
MTEXT
  5
96
100
AcDbEntity
  8
0
390
0
 62
               0
100
AcDbMText
 10
-395.04460130488587
 20
-176.12238281250029
 30
0.0
 40
24.432617187500004
 41
0.0
 71
               1
 72
               1
  1
280
  7
ＭＳ ゴシック
 73
               1
 44
0.7828267384257843
  0
POINT
  5
97
100
AcDbEntity
  8
Defpoints
370
               0
390
0
 62
               0
100
AcDbPoint
 10
-231.23209962270994
 20
-330.0
 30
0.0
  0
POINT
  5
98
100
AcDbEntity
  8
Defpoints
370
               0
390
0
 62
               0
100
AcDbPoint
 10
-511.23209962270812
 20
-330.0
 30
0.0
  0
POINT
  5
99
100
AcDbEntity
  8
Defpoints
370
               0
390
0
 62
               0
100
AcDbPoint
 10
-511.23209962270812
 20
-210.0
 30
0.0
  0
ENDBLK
  5
9A
100
AcDbEntity
  8
notes
390
0
100
AcDbBlockEnd
  0
BLOCK
  5
9B
100
AcDbEntity
  8
notes
390
0
100
AcDbBlockBegin
  2
*D8
 70
               1
 10
0.0
 20
0.0
 30
0.0
  3
*D8
  1

  0
LINE
  5
9C
100
AcDbEntity
  8
0
370
              -2
390
0
  6
Continuous
 62
               0
100
AcDbLine
 10
863.67589470572057
 20
-485.0
 30
0.0
 11
863.67589470572057
 21
-560.0
 31
0.0
  0
LINE
  5
9D
100
AcDbEntity
  8
0
370
              -2
390
0
  6
Continuous
 62
               0
100
AcDbLine
 10
698.6758947057242
 20
-485.00000000000364
 30
0.0
 11
698.6758947057242
 21
-560.0
 31
0.0
  0
LINE
  5
9E
100
AcDbEntity
  8
0
370
              -2
390
0
  6
Continuous
 62
               0
100
AcDbLine
 10
863.67589470572057
 20
-560.0
 30
0.0
 11
698.6758947057242
 21
-560.0
 31
0.0
  0
CIRCLE
  5
9F
102
{ACAD_REACTORS
330
A0
102
}
100
AcDbEntity
  8
0
370
              -2
390
0
  6
Continuous
 62
               0
100
AcDbCircle
 10
863.67589470572057
 20
-560.0
 30
0.0
 40
1.9998779296875
  0
HATCH
  5
A0
100
AcDbEntity
  8
0
370
              -2
390
0
  6
Continuous
 62
               0
100
AcDbHatch
 10
0.0
 20
0.0
 30
0.0
210
0.0
220
0.0
230
1.0
  2
SOLID
 70
               1
 71
               1
 91
        1
 92
        1
 93
        1
 72
               2
 10
863.67589470572057
 20
-560.0
 40
1.9998779296875
 50
0.0
 51
360.0
 73
               0
 97
        1
330
9F
 75
               0
 76
               1
 98
        1
 10
0.0
 20
0.0
  0
CIRCLE
  5
A1
102
{ACAD_REACTORS
330
A2
102
}
100
AcDbEntity
  8
0
370
              -2
390
0
  6
Continuous
 62
               0
100
AcDbCircle
 10
698.6758947057242
 20
-560.0
 30
0.0
 40
1.9998779296875
  0
HATCH
  5
A2
100
AcDbEntity
  8
0
370
              -2
390
0
  6
Continuous
 62
               0
100
AcDbHatch
 10
0.0
 20
0.0
 30
0.0
210
0.0
220
0.0
230
1.0
  2
SOLID
 70
               1
 71
               1
 91
        1
 92
        1
 93
        1
 72
               2
 10
698.6758947057242
 20
-560.0
 40
1.9998779296875
 50
0.0
 51
360.0
 73
               0
 97
        1
330
A1
 75
               0
 76
               1
 98
        1
 10
0.0
 20
0.0
  0
MTEXT
  5
A3
100
AcDbEntity
  8
0
390
0
 62
               0
100
AcDbMText
 10
745.72834060966852
 20
-526.12238281250029
 30
0.0
 40
24.432617187500004
 41
0.0
 71
               1
 72
               1
  1
165
  7
ＭＳ ゴシック
 73
               1
 44
0.7828267384257843
  0
POINT
  5
A4
100
AcDbEntity
  8
Defpoints
370
               0
390
0
 62
               0
100
AcDbPoint
 10
698.6758947057242
 20
-460.00000000000364
 30
0.0
  0
POINT
  5
A5
100
AcDbEntity
  8
Defpoints
370
               0
390
0
 62
               0
100
AcDbPoint
 10
863.67589470572057
 20
-460.0
 30
0.0
  0
POINT
  5
A6
100
AcDbEntity
  8
Defpoints
370
               0
390
0
 62
               0
100
AcDbPoint
 10
863.67589470572057
 20
-560.0
 30
0.0
  0
ENDBLK
  5
A7
100
AcDbEntity
  8
notes
390
0
100
AcDbBlockEnd
  0
BLOCK
  5
A8
100
AcDbEntity
  8
notes
390
0
100
AcDbBlockBegin
  2
*D9
 70
               1
 10
0.0
 20
0.0
 30
0.0
  3
*D9
  1

  0
LINE
  5
A9
100
AcDbEntity
  8
0
370
              -2
390
0
  6
Continuous
 62
               0
100
AcDbLine
 10
863.67589470572057
 20
-287.0
 30
0.0
 11
863.67589470572057
 21
-210.0
 31
0.0
  0
LINE
  5
AA
100
AcDbEntity
  8
0
370
              -2
390
0
  6
Continuous
 62
               0
100
AcDbLine
 10
783.6758947057242
 20
-285.0
 30
0.0
 11
783.6758947057242
 21
-210.0
 31
0.0
  0
LINE
  5
AB
100
AcDbEntity
  8
0
370
              -2
390
0
  6
Continuous
 62
               0
100
AcDbLine
 10
863.67589470572057
 20
-210.0
 30
0.0
 11
783.6758947057242
 21
-210.0
 31
0.0
  0
CIRCLE
  5
AC
102
{ACAD_REACTORS
330
AD
102
}
100
AcDbEntity
  8
0
370
              -2
390
0
  6
Continuous
 62
               0
100
AcDbCircle
 10
863.67589470572057
 20
-210.0
 30
0.0
 40
1.9998779296875
  0
HATCH
  5
AD
100
AcDbEntity
  8
0
370
              -2
390
0
  6
Continuous
 62
               0
100
AcDbHatch
 10
0.0
 20
0.0
 30
0.0
210
0.0
220
0.0
230
1.0
  2
SOLID
 70
               1
 71
               1
 91
        1
 92
        1
 93
        1
 72
               2
 10
863.67589470572057
 20
-210.0
 40
1.9998779296875
 50
0.0
 51
360.0
 73
               0
 97
        1
330
AC
 75
               0
 76
               1
 98
        1
 10
0.0
 20
0.0
  0
CIRCLE
  5
AE
102
{ACAD_REACTORS
330
AF
102
}
100
AcDbEntity
  8
0
370
              -2
390
0
  6
Continuous
 62
               0
100
AcDbCircle
 10
783.6758947057242
 20
-210.0
 30
0.0
 40
1.9998779296875
  0
HATCH
  5
AF
100
AcDbEntity
  8
0
370
              -2
390
0
  6
Continuous
 62
               0
100
AcDbHatch
 10
0.0
 20
0.0
 30
0.0
210
0.0
220
0.0
230
1.0
  2
SOLID
 70
               1
 71
               1
 91
        1
 92
        1
 93
        1
 72
               2
 10
783.6758947057242
 20
-210.0
 40
1.9998779296875
 50
0.0
 51
360.0
 73
               0
 97
        1
330
AE
 75
               0
 76
               1
 98
        1
 10
0.0
 20
0.0
  0
MTEXT
  5
B0
100
AcDbEntity
  8
0
390
0
 62
               0
100
AcDbMText
 10
807.80089470572238
 20
-176.12238281250029
 30
0.0
 40
24.432617187500004
 41
0.0
 71
               1
 72
               1
  1
80
  7
ＭＳ ゴシック
 73
               1
 44
0.7828267384257843
  0
POINT
  5
B1
100
AcDbEntity
  8
Defpoints
370
               0
390
0
 62
               0
100
AcDbPoint
 10
783.6758947057242
 20
-310.0
 30
0.0
  0
POINT
  5
B2
100
AcDbEntity
  8
Defpoints
370
               0
390
0
 62
               0
100
AcDbPoint
 10
863.67589470572057
 20
-312.0
 30
0.0
  0
POINT
  5
B3
100
AcDbEntity
  8
Defpoints
370
               0
390
0
 62
               0
100
AcDbPoint
 10
863.67589470572057
 20
-210.0
 30
0.0
  0
ENDBLK
  5
B4
100
AcDbEntity
  8
notes
390
0
100
AcDbBlockEnd
  0
BLOCK
  5
B5
100
AcDbEntity
  8
notes
390
0
100
AcDbBlockBegin
  2
*D10
 70
               1
 10
0.0
 20
0.0
 30
0.0
  3
*D10
  1

  0
LINE
  5
B6
100
AcDbEntity
  8
0
370
              -2
390
0
  6
Continuous
 62
               0
100
AcDbLine
 10
512.76135434560638
 20
-310.0
 30
0.0
 11
506.76135434560638
 21
-310.0
 31
0.0
  0
LINE
  5
B7
100
AcDbEntity
  8
0
370
              -2
390
0
  6
Continuous
 62
               0
100
AcDbLine
 10
512.76135434560638
 20
-380.0
 30
0.0
 11
506.76135434560638
 21
-380.0
 31
0.0
  0
LINE
  5
B8
100
AcDbEntity
  8
0
370
              -2
390
0
  6
Continuous
 62
               0
100
AcDbLine
 10
506.76135434560638
 20
-310.0
 30
0.0
 11
506.76135434560638
 21
-171.29274434651052
 31
0.0
  0
LINE
  5
B9
100
AcDbEntity
  8
0
370
              -2
390
0
  6
Continuous
 62
               0
100
AcDbLine
 10
506.76135434560638
 20
-310.0
 30
0.0
 11
506.76135434560638
 21
-380.0
 31
0.0
  0
CIRCLE
  5
BA
102
{ACAD_REACTORS
330
BB
102
}
100
AcDbEntity
  8
0
370
              -2
390
0
  6
Continuous
 62
               0
100
AcDbCircle
 10
506.76135434560638
 20
-310.0
 30
0.0
 40
1.9998779296875
  0
HATCH
  5
BB
100
AcDbEntity
  8
0
370
              -2
390
0
  6
Continuous
 62
               0
100
AcDbHatch
 10
0.0
 20
0.0
 30
0.0
210
0.0
220
0.0
230
1.0
  2
SOLID
 70
               1
 71
               1
 91
        1
 92
        1
 93
        1
 72
               2
 10
506.76135434560638
 20
-310.0
 40
1.9998779296875
 50
0.0
 51
360.0
 73
               0
 97
        1
330
BA
 75
               0
 76
               1
 98
        1
 10
0.0
 20
0.0
  0
CIRCLE
  5
BC
102
{ACAD_REACTORS
330
BD
102
}
100
AcDbEntity
  8
0
370
              -2
390
0
  6
Continuous
 62
               0
100
AcDbCircle
 10
506.76135434560638
 20
-380.0
 30
0.0
 40
1.9998779296875
  0
HATCH
  5
BD
100
AcDbEntity
  8
0
370
              -2
390
0
  6
Continuous
 62
               0
100
AcDbHatch
 10
0.0
 20
0.0
 30
0.0
210
0.0
220
0.0
230
1.0
  2
SOLID
 70
               1
 71
               1
 91
        1
 92
        1
 93
        1
 72
               2
 10
506.76135434560638
 20
-380.0
 40
1.9998779296875
 50
0.0
 51
360.0
 73
               0
 97
        1
330
BC
 75
               0
 76
               1
 98
        1
 10
0.0
 20
0.0
  0
MTEXT
  5
BE
100
AcDbEntity
  8
0
390
0
 62
               0
100
AcDbMText
 10
472.88373715810667
 20
-298.29274434651052
 30
0.0
 40
24.432617187500004
 41
0.0
 71
               1
 72
               1
  1
70(深さ)
  7
ＭＳ ゴシック
 11
0.0
 21
1.0
 31
0.0
 73
               1
 44
0.7828267384257843
  0
POINT
  5
BF
100
AcDbEntity
  8
Defpoints
370
               0
390
0
 62
               0
100
AcDbPoint
 10
487.76135434560638
 20
-380.0
 30
0.0
  0
POINT
  5
C0
100
AcDbEntity
  8
Defpoints
370
               0
390
0
 62
               0
100
AcDbPoint
 10
487.76135434560638
 20
-310.0
 30
0.0
  0
POINT
  5
C1
100
AcDbEntity
  8
Defpoints
370
               0
390
0
 62
               0
100
AcDbPoint
 10
506.76135434560638
 20
-310.0
 30
0.0
  0
ENDBLK
  5
C2
100
AcDbEntity
  8
notes
390
0
100
AcDbBlockEnd
  0
BLOCK
  5
C3
100
AcDbEntity
  8
notes
390
0
100
AcDbBlockBegin
  2
*D11
 70
               1
 10
0.0
 20
0.0
 30
0.0
  3
*D11
  1

  0
LINE
  5
C4
100
AcDbEntity
  8
0
370
              -2
390
0
  6
Continuous
 62
               0
100
AcDbLine
 10
363.6758947057242
 20
-310.00000000000364
 30
0.0
 11
319.61954819057974
 21
-310.00000000000364
 31
0.0
  0
LINE
  5
C5
100
AcDbEntity
  8
0
370
              -2
390
0
  6
Continuous
 62
               0
100
AcDbLine
 10
504.08512288492238
 20
-460.0
 30
0.0
 11
319.61954819057974
 21
-460.0
 31
0.0
  0
LINE
  5
C6
100
AcDbEntity
  8
0
370
              -2
390
0
  6
Continuous
 62
               0
100
AcDbLine
 10
319.61954819057974
 20
-310.00000000000364
 30
0.0
 11
319.61954819057974
 21
-460.0
 31
0.0
  0
CIRCLE
  5
C7
102
{ACAD_REACTORS
330
C8
102
}
100
AcDbEntity
  8
0
370
              -2
390
0
  6
Continuous
 62
               0
100
AcDbCircle
 10
319.61954819057974
 20
-310.00000000000364
 30
0.0
 40
1.9998779296875
  0
HATCH
  5
C8
100
AcDbEntity
  8
0
370
              -2
390
0
  6
Continuous
 62
               0
100
AcDbHatch
 10
0.0
 20
0.0
 30
0.0
210
0.0
220
0.0
230
1.0
  2
SOLID
 70
               1
 71
               1
 91
        1
 92
        1
 93
        1
 72
               2
 10
319.61954819057974
 20
-310.00000000000364
 40
1.9998779296875
 50
0.0
 51
360.0
 73
               0
 97
        1
330
C7
 75
               0
 76
               1
 98
        1
 10
0.0
 20
0.0
  0
CIRCLE
  5
C9
102
{ACAD_REACTORS
330
CA
102
}
100
AcDbEntity
  8
0
370
              -2
390
0
  6
Continuous
 62
               0
100
AcDbCircle
 10
319.61954819057974
 20
-460.0
 30
0.0
 40
1.9998779296875
  0
HATCH
  5
CA
100
AcDbEntity
  8
0
370
              -2
390
0
  6
Continuous
 62
               0
100
AcDbHatch
 10
0.0
 20
0.0
 30
0.0
210
0.0
220
0.0
230
1.0
  2
SOLID
 70
               1
 71
               1
 91
        1
 92
        1
 93
        1
 72
               2
 10
319.61954819057974
 20
-460.0
 40
1.9998779296875
 50
0.0
 51
360.0
 73
               0
 97
        1
330
C9
 75
               0
 76
               1
 98
        1
 10
0.0
 20
0.0
  0
MTEXT
  5
CB
100
AcDbEntity
  8
0
390
0
 62
               0
100
AcDbMText
 10
285.74193100308003
 20
-408.81250168217775
 30
0.0
 40
24.432617187500004
 41
0.0
 71
               1
 72
               1
  1
150
  7
ＭＳ ゴシック
 11
0.0
 21
1.0
 31
0.0
 73
               1
 44
0.7828267384257843
  0
POINT
  5
CC
100
AcDbEntity
  8
Defpoints
370
               0
390
0
 62
               0
100
AcDbPoint
 10
529.08512288492238
 20
-460.0
 30
0.0
  0
POINT
  5
CD
100
AcDbEntity
  8
Defpoints
370
               0
390
0
 62
               0
100
AcDbPoint
 10
388.6758947057242
 20
-310.00000000000364
 30
0.0
  0
POINT
  5
CE
100
AcDbEntity
  8
Defpoints
370
               0
390
0
 62
               0
100
AcDbPoint
 10
319.61954819057974
 20
-310.00000000000364
 30
0.0
  0
ENDBLK
  5
CF
100
AcDbEntity
  8
notes
390
0
100
AcDbBlockEnd
  0
BLOCK
  5
D0
100
AcDbEntity
  8
notes
390
0
100
AcDbBlockBegin
  2
*D12
 70
               1
 10
0.0
 20
0.0
 30
0.0
  3
*D12
  1

  0
LINE
  5
D1
100
AcDbEntity
  8
0
370
              -2
390
0
  6
Continuous
 62
               0
100
AcDbLine
 10
93.76790037729188
 20
-310.0
 30
0.0
 11
168.76790037729188
 21
-310.0
 31
0.0
  0
LINE
  5
D2
100
AcDbEntity
  8
0
370
              -2
390
0
  6
Continuous
 62
               0
100
AcDbLine
 10
93.76790037729188
 20
-355.0
 30
0.0
 11
168.76790037729188
 21
-355.0
 31
0.0
  0
LINE
  5
D3
100
AcDbEntity
  8
0
370
              -2
390
0
  6
Continuous
 62
               0
100
AcDbLine
 10
168.76790037729188
 20
-310.0
 30
0.0
 11
168.76790037729188
 21
-355.0
 31
0.0
  0
CIRCLE
  5
D4
102
{ACAD_REACTORS
330
D5
102
}
100
AcDbEntity
  8
0
370
              -2
390
0
  6
Continuous
 62
               0
100
AcDbCircle
 10
168.76790037729188
 20
-310.0
 30
0.0
 40
1.9998779296875
  0
HATCH
  5
D5
100
AcDbEntity
  8
0
370
              -2
390
0
  6
Continuous
 62
               0
100
AcDbHatch
 10
0.0
 20
0.0
 30
0.0
210
0.0
220
0.0
230
1.0
  2
SOLID
 70
               1
 71
               1
 91
        1
 92
        1
 93
        1
 72
               2
 10
168.76790037729188
 20
-310.0
 40
1.9998779296875
 50
0.0
 51
360.0
 73
               0
 97
        1
330
D4
 75
               0
 76
               1
 98
        1
 10
0.0
 20
0.0
  0
CIRCLE
  5
D6
102
{ACAD_REACTORS
330
D7
102
}
100
AcDbEntity
  8
0
370
              -2
390
0
  6
Continuous
 62
               0
100
AcDbCircle
 10
168.76790037729188
 20
-355.0
 30
0.0
 40
1.9998779296875
  0
HATCH
  5
D7
100
AcDbEntity
  8
0
370
              -2
390
0
  6
Continuous
 62
               0
100
AcDbHatch
 10
0.0
 20
0.0
 30
0.0
210
0.0
220
0.0
230
1.0
  2
SOLID
 70
               1
 71
               1
 91
        1
 92
        1
 93
        1
 72
               2
 10
168.76790037729188
 20
-355.0
 40
1.9998779296875
 50
0.0
 51
360.0
 73
               0
 97
        1
330
D6
 75
               0
 76
               1
 98
        1
 10
0.0
 20
0.0
  0
MTEXT
  5
D8
100
AcDbEntity
  8
0
390
0
 62
               0
100
AcDbMText
 10
134.89028318979217
 20
-348.375
 30
0.0
 40
24.432617187500004
 41
0.0
 71
               1
 72
               1
  1
45
  7
ＭＳ ゴシック
 11
0.0
 21
1.0
 31
0.0
 73
               1
 44
0.7828267384257843
  0
POINT
  5
D9
100
AcDbEntity
  8
Defpoints
370
               0
390
0
 62
               0
100
AcDbPoint
 10
68.76790037729188
 20
-355.0
 30
0.0
  0
POINT
  5
DA
100
AcDbEntity
  8
Defpoints
370
               0
390
0
 62
               0
100
AcDbPoint
 10
68.76790037729188
 20
-310.0
 30
0.0
  0
POINT
  5
DB
100
AcDbEntity
  8
Defpoints
370
               0
390
0
 62
               0
100
AcDbPoint
 10
168.76790037729188
 20
-310.0
 30
0.0
  0
ENDBLK
  5
DC
100
AcDbEntity
  8
notes
390
0
100
AcDbBlockEnd
  0
BLOCK
  5
DD
100
AcDbEntity
  8
notes
390
0
100
AcDbBlockBegin
  2
*D13
 70
               1
 10
0.0
 20
0.0
 30
0.0
  3
*D13
  1

  0
LINE
  5
DE
100
AcDbEntity
  8
0
370
              -2
390
0
  6
Continuous
 62
               0
100
AcDbLine
 10
93.76790037729188
 20
-355.0
 30
0.0
 11
168.76790037729188
 21
-355.0
 31
0.0
  0
LINE
  5
DF
100
AcDbEntity
  8
0
370
              -2
390
0
  6
Continuous
 62
               0
100
AcDbLine
 10
-71.247887940671717
 20
-460.0
 30
0.0
 11
168.76790037729188
 21
-460.0
 31
0.0
  0
LINE
  5
E0
100
AcDbEntity
  8
0
370
              -2
390
0
  6
Continuous
 62
               0
100
AcDbLine
 10
168.76790037729188
 20
-355.0
 30
0.0
 11
168.76790037729188
 21
-460.0
 31
0.0
  0
CIRCLE
  5
E1
102
{ACAD_REACTORS
330
E2
102
}
100
AcDbEntity
  8
0
370
              -2
390
0
  6
Continuous
 62
               0
100
AcDbCircle
 10
168.76790037729188
 20
-355.0
 30
0.0
 40
1.9998779296875
  0
HATCH
  5
E2
100
AcDbEntity
  8
0
370
              -2
390
0
  6
Continuous
 62
               0
100
AcDbHatch
 10
0.0
 20
0.0
 30
0.0
210
0.0
220
0.0
230
1.0
  2
SOLID
 70
               1
 71
               1
 91
        1
 92
        1
 93
        1
 72
               2
 10
168.76790037729188
 20
-355.0
 40
1.9998779296875
 50
0.0
 51
360.0
 73
               0
 97
        1
330
E1
 75
               0
 76
               1
 98
        1
 10
0.0
 20
0.0
  0
CIRCLE
  5
E3
102
{ACAD_REACTORS
330
E4
102
}
100
AcDbEntity
  8
0
370
              -2
390
0
  6
Continuous
 62
               0
100
AcDbCircle
 10
168.76790037729188
 20
-460.0
 30
0.0
 40
1.9998779296875
  0
HATCH
  5
E4
100
AcDbEntity
  8
0
370
              -2
390
0
  6
Continuous
 62
               0
100
AcDbHatch
 10
0.0
 20
0.0
 30
0.0
210
0.0
220
0.0
230
1.0
  2
SOLID
 70
               1
 71
               1
 91
        1
 92
        1
 93
        1
 72
               2
 10
168.76790037729188
 20
-460.0
 40
1.9998779296875
 50
0.0
 51
360.0
 73
               0
 97
        1
330
E3
 75
               0
 76
               1
 98
        1
 10
0.0
 20
0.0
  0
MTEXT
  5
E5
100
AcDbEntity
  8
0
390
0
 62
               0
100
AcDbMText
 10
134.89028318979217
 20
-431.31250168217593
 30
0.0
 40
24.432617187500004
 41
0.0
 71
               1
 72
               1
  1
105
  7
ＭＳ ゴシック
 11
0.0
 21
1.0
 31
0.0
 73
               1
 44
0.7828267384257843
  0
POINT
  5
E6
100
AcDbEntity
  8
Defpoints
370
               0
390
0
 62
               0
100
AcDbPoint
 10
-96.247887940671717
 20
-460.0
 30
0.0
  0
POINT
  5
E7
100
AcDbEntity
  8
Defpoints
370
               0
390
0
 62
               0
100
AcDbPoint
 10
68.76790037729188
 20
-355.0
 30
0.0
  0
POINT
  5
E8
100
AcDbEntity
  8
Defpoints
370
               0
390
0
 62
               0
100
AcDbPoint
 10
168.76790037729188
 20
-355.0
 30
0.0
  0
ENDBLK
  5
E9
100
AcDbEntity
  8
notes
390
0
100
AcDbBlockEnd
  0
BLOCK
  5
EA
100
AcDbEntity
  8
notes
390
0
100
AcDbBlockBegin
  2
*D14
 70
               1
 10
0.0
 20
0.0
 30
0.0
  3
*D14
  1

  0
LINE
  5
EB
100
AcDbEntity
  8
0
370
              -2
390
0
  6
Continuous
 62
               0
100
AcDbLine
 10
-646.24788794067172
 20
-485.0
 30
0.0
 11
-646.24788794067172
 21
-565.29274434651052
 31
0.0
  0
LINE
  5
EC
100
AcDbEntity
  8
0
370
              -2
390
0
  6
Continuous
 62
               0
100
AcDbLine
 10
-96.247887940671717
 20
-485.0
 30
0.0
 11
-96.247887940671717
 21
-565.29274434651052
 31
0.0
  0
LINE
  5
ED
100
AcDbEntity
  8
0
370
              -2
390
0
  6
Continuous
 62
               0
100
AcDbLine
 10
-646.24788794067172
 20
-565.29274434651052
 30
0.0
 11
-96.247887940671717
 21
-565.29274434651052
 31
0.0
  0
CIRCLE
  5
EE
102
{ACAD_REACTORS
330
EF
102
}
100
AcDbEntity
  8
0
370
              -2
390
0
  6
Continuous
 62
               0
100
AcDbCircle
 10
-646.24788794067172
 20
-565.29274434651052
 30
0.0
 40
1.9998779296875
  0
HATCH
  5
EF
100
AcDbEntity
  8
0
370
              -2
390
0
  6
Continuous
 62
               0
100
AcDbHatch
 10
0.0
 20
0.0
 30
0.0
210
0.0
220
0.0
230
1.0
  2
SOLID
 70
               1
 71
               1
 91
        1
 92
        1
 93
        1
 72
               2
 10
-646.24788794067172
 20
-565.29274434651052
 40
1.9998779296875
 50
0.0
 51
360.0
 73
               0
 97
        1
330
EE
 75
               0
 76
               1
 98
        1
 10
0.0
 20
0.0
  0
CIRCLE
  5
F0
102
{ACAD_REACTORS
330
F1
102
}
100
AcDbEntity
  8
0
370
              -2
390
0
  6
Continuous
 62
               0
100
AcDbCircle
 10
-96.247887940671717
 20
-565.29274434651052
 30
0.0
 40
1.9998779296875
  0
HATCH
  5
F1
100
AcDbEntity
  8
0
370
              -2
390
0
  6
Continuous
 62
               0
100
AcDbHatch
 10
0.0
 20
0.0
 30
0.0
210
0.0
220
0.0
230
1.0
  2
SOLID
 70
               1
 71
               1
 91
        1
 92
        1
 93
        1
 72
               2
 10
-96.247887940671717
 20
-565.29274434651052
 40
1.9998779296875
 50
0.0
 51
360.0
 73
               0
 97
        1
330
F0
 75
               0
 76
               1
 98
        1
 10
0.0
 20
0.0
  0
MTEXT
  5
F2
100
AcDbEntity
  8
0
390
0
 62
               0
100
AcDbMText
 10
-395.06038962284765
 20
-531.41512715901081
 30
0.0
 40
24.432617187500004
 41
0.0
 71
               1
 72
               1
  1
550
  7
ＭＳ ゴシック
 73
               1
 44
0.7828267384257843
  0
POINT
  5
F3
100
AcDbEntity
  8
Defpoints
370
               0
390
0
 62
               0
100
AcDbPoint
 10
-96.247887940671717
 20
-460.0
 30
0.0
  0
POINT
  5
F4
100
AcDbEntity
  8
Defpoints
370
               0
390
0
 62
               0
100
AcDbPoint
 10
-646.24788794067172
 20
-460.0
 30
0.0
  0
POINT
  5
F5
100
AcDbEntity
  8
Defpoints
370
               0
390
0
 62
               0
100
AcDbPoint
 10
-646.24788794067172
 20
-565.29274434651052
 30
0.0
  0
ENDBLK
  5
F6
100
AcDbEntity
  8
notes
390
0
100
AcDbBlockEnd
  0
BLOCK
  5
F7
100
AcDbEntity
  8
notes
390
0
100
AcDbBlockBegin
  2
*D15
 70
               1
 10
0.0
 20
0.0
 30
0.0
  3
*D15
  1

  0
LINE
  5
F8
100
AcDbEntity
  8
0
370
              -2
390
0
  6
Continuous
 62
               0
100
AcDbLine
 10
90.76790037729188
 20
789.49112315878665
 30
0.0
 11
168.76790037729188
 21
789.49112315878665
 31
0.0
  0
LINE
  5
F9
100
AcDbEntity
  8
0
370
              -2
390
0
  6
Continuous
 62
               0
100
AcDbLine
 10
90.76790037729188
 20
309.49112315878665
 30
0.0
 11
168.76790037729188
 21
309.49112315878665
 31
0.0
  0
LINE
  5
FA
100
AcDbEntity
  8
0
370
              -2
390
0
  6
Continuous
 62
               0
100
AcDbLine
 10
168.76790037729188
 20
789.49112315878665
 30
0.0
 11
168.76790037729188
 21
309.49112315878665
 31
0.0
  0
CIRCLE
  5
FB
102
{ACAD_REACTORS
330
FC
102
}
100
AcDbEntity
  8
0
370
              -2
390
0
  6
Continuous
 62
               0
100
AcDbCircle
 10
168.76790037729188
 20
789.49112315878665
 30
0.0
 40
1.9998779296875
  0
HATCH
  5
FC
100
AcDbEntity
  8
0
370
              -2
390
0
  6
Continuous
 62
               0
100
AcDbHatch
 10
0.0
 20
0.0
 30
0.0
210
0.0
220
0.0
230
1.0
  2
SOLID
 70
               1
 71
               1
 91
        1
 92
        1
 93
        1
 72
               2
 10
168.76790037729188
 20
789.49112315878665
 40
1.9998779296875
 50
0.0
 51
360.0
 73
               0
 97
        1
330
FB
 75
               0
 76
               1
 98
        1
 10
0.0
 20
0.0
  0
CIRCLE
  5
FD
102
{ACAD_REACTORS
330
FE
102
}
100
AcDbEntity
  8
0
370
              -2
390
0
  6
Continuous
 62
               0
100
AcDbCircle
 10
168.76790037729188
 20
309.49112315878665
 30
0.0
 40
1.9998779296875
  0
HATCH
  5
FE
100
AcDbEntity
  8
0
370
              -2
390
0
  6
Continuous
 62
               0
100
AcDbHatch
 10
0.0
 20
0.0
 30
0.0
210
0.0
220
0.0
230
1.0
  2
SOLID
 70
               1
 71
               1
 91
        1
 92
        1
 93
        1
 72
               2
 10
168.76790037729188
 20
309.49112315878665
 40
1.9998779296875
 50
0.0
 51
360.0
 73
               0
 97
        1
330
FD
 75
               0
 76
               1
 98
        1
 10
0.0
 20
0.0
  0
MTEXT
  5
FF
100
AcDbEntity
  8
0
390
0
 62
               0
100
AcDbMText
 10
134.89028318979217
 20
525.67862147661072
 30
0.0
 40
24.432617187500004
 41
0.0
 71
               1
 72
               1
  1
480
  7
ＭＳ ゴシック
 11
0.0
 21
1.0
 31
0.0
 73
               1
 44
0.7828267384257843
  0
POINT
  5
100
100
AcDbEntity
  8
Defpoints
370
               0
390
0
 62
               0
100
AcDbPoint
 10
65.76790037729188
 20
309.49112315878665
 30
0.0
  0
POINT
  5
101
100
AcDbEntity
  8
Defpoints
370
               0
390
0
 62
               0
100
AcDbPoint
 10
65.76790037729188
 20
789.49112315878665
 30
0.0
  0
POINT
  5
102
100
AcDbEntity
  8
Defpoints
370
               0
390
0
 62
               0
100
AcDbPoint
 10
168.76790037729188
 20
789.49112315878665
 30
0.0
  0
ENDBLK
  5
103
100
AcDbEntity
  8
notes
390
0
100
AcDbBlockEnd
  0
BLOCK
  5
104
100
AcDbEntity
  8
notes
390
0
100
AcDbBlockBegin
  2
*D16
 70
               1
 10
0.0
 20
0.0
 30
0.0
  3
*D16
  1

  0
LINE
  5
105
100
AcDbEntity
  8
0
370
              -2
390
0
  6
Continuous
 62
               0
100
AcDbLine
 10
-586.23209962270812
 20
-350.0
 30
0.0
 11
-911.23209962270812
 21
-350.0
 31
0.0
  0
LINE
  5
106
100
AcDbEntity
  8
0
370
              -2
390
0
  6
Continuous
 62
               0
100
AcDbLine
 10
-836.2320996227063
 20
-310.0
 30
0.0
 11
-911.23209962270812
 21
-310.0
 31
0.0
  0
LINE
  5
107
100
AcDbEntity
  8
0
370
              -2
390
0
  6
Continuous
 62
               0
100
AcDbLine
 10
-911.23209962270812
 20
-350.0
 30
0.0
 11
-911.23209962270812
 21
-310.0
 31
0.0
  0
CIRCLE
  5
108
102
{ACAD_REACTORS
330
109
102
}
100
AcDbEntity
  8
0
370
              -2
390
0
  6
Continuous
 62
               0
100
AcDbCircle
 10
-911.23209962270812
 20
-350.0
 30
0.0
 40
1.9998779296875
  0
HATCH
  5
109
100
AcDbEntity
  8
0
370
              -2
390
0
  6
Continuous
 62
               0
100
AcDbHatch
 10
0.0
 20
0.0
 30
0.0
210
0.0
220
0.0
230
1.0
  2
SOLID
 70
               1
 71
               1
 91
        1
 92
        1
 93
        1
 72
               2
 10
-911.23209962270812
 20
-350.0
 40
1.9998779296875
 50
0.0
 51
360.0
 73
               0
 97
        1
330
108
 75
               0
 76
               1
 98
        1
 10
0.0
 20
0.0
  0
CIRCLE
  5
10A
102
{ACAD_REACTORS
330
10B
102
}
100
AcDbEntity
  8
0
370
              -2
390
0
  6
Continuous
 62
               0
100
AcDbCircle
 10
-911.23209962270812
 20
-310.0
 30
0.0
 40
1.9998779296875
  0
HATCH
  5
10B
100
AcDbEntity
  8
0
370
              -2
390
0
  6
Continuous
 62
               0
100
AcDbHatch
 10
0.0
 20
0.0
 30
0.0
210
0.0
220
0.0
230
1.0
  2
SOLID
 70
               1
 71
               1
 91
        1
 92
        1
 93
        1
 72
               2
 10
-911.23209962270812
 20
-310.0
 40
1.9998779296875
 50
0.0
 51
360.0
 73
               0
 97
        1
330
10A
 75
               0
 76
               1
 98
        1
 10
0.0
 20
0.0
  0
MTEXT
  5
10C
100
AcDbEntity
  8
0
390
0
 62
               0
100
AcDbMText
 10
-945.10971681020783
 20
-345.875
 30
0.0
 40
24.432617187500004
 41
0.0
 71
               1
 72
               1
  1
40
  7
ＭＳ ゴシック
 11
0.0
 21
1.0
 31
0.0
 73
               1
 44
0.7828267384257843
  0
POINT
  5
10D
100
AcDbEntity
  8
Defpoints
370
               0
390
0
 62
               0
100
AcDbPoint
 10
-811.2320996227063
 20
-310.0
 30
0.0
  0
POINT
  5
10E
100
AcDbEntity
  8
Defpoints
370
               0
390
0
 62
               0
100
AcDbPoint
 10
-561.23209962270812
 20
-350.0
 30
0.0
  0
POINT
  5
10F
100
AcDbEntity
  8
Defpoints
370
               0
390
0
 62
               0
100
AcDbPoint
 10
-911.23209962270812
 20
-350.0
 30
0.0
  0
ENDBLK
  5
110
100
AcDbEntity
  8
notes
390
0
100
AcDbBlockEnd
  0
ENDSEC
  0
SECTION
  2
ENTITIES
  0
MTEXT
  5
111
100
AcDbEntity
  8
template
390
0
 62
               7
100
AcDbMText
 10
-967.99999999975989
 20
-1147.4176292337006
 30
0.0
 40
16.288411458333332
 41
0.0
 71
               1
 72
               1
  1
品名
  7
ＭＳ ゴシック
 73
               1
 44
0.7828267384257843
  0
MTEXT
  5
112
100
AcDbEntity
  8
template
390
0
 62
               7
100
AcDbMText
 10
-967.99999999975989
 20
-1232.4176292337006
 30
0.0
 40
16.288411458333332
 41
0.0
 71
               1
 72
               1
  1
仕様
  7
ＭＳ ゴシック
 73
               1
 44
0.7828267384257843
  0
MTEXT
  5
113
100
AcDbEntity
  8
template
390
0
 62
               7
100
AcDbMText
 10
-914.99999999975989
 20
-1176.000090171201
 30
0.0
 40
24.432617187500004
 41
0.0
 71
               1
 72
               1
  1
洗面器･手洗器 -CATALANO,Thun-
  7
ＭＳ ゴシック
 73
               1
 44
0.7828267384257843
  0
LINE
  5
114
100
AcDbEntity
  8
template
370
               5
390
0
  6
Continuous
 62
               7
100
AcDbLine
 10
974.99999999975807
 20
-1224.0027073587007
 30
0.0
 11
-975.00000000024193
 21
-1224.0027073587007
 31
0.0
  0
LWPOLYLINE
  5
115
100
AcDbEntity
  8
template
370
               5
390
0
  6
Continuous
 62
               7
100
AcDbPolyline
 90
        5
 70
             128
 10
975.00000000024011
 20
1405.9972926412993
 10
-974.99999999975989
 20
1405.9972926412993
 10
-974.99999999975989
 20
-1394.0027073587007
 10
975.00000000024011
 20
-1394.0027073587007
 10
975.00000000024011
 20
1405.9972926412993
  0
LINE
  5
116
100
AcDbEntity
  8
template
370
               5
390
0
  6
Continuous
 62
               7
100
AcDbLine
 10
974.99999999975807
 20
-1139.0027073587007
 30
0.0
 11
-975.00000000024193
 21
-1139.0027073587007
 31
0.0
  0
LINE
  5
117
100
AcDbEntity
  8
template
370
               5
390
0
  6
Continuous
 62
               7
100
AcDbLine
 10
975.00000000024011
 20
-1309.0027073587007
 30
0.0
 11
222.00000000024011
 21
-1309.0027073587007
 31
0.0
  0
MTEXT
  5
118
100
AcDbEntity
  8
template
390
0
 62
               7
100
AcDbMText
 10
-914.99999999975989
 20
-1261.000090171201
 30
0.0
 40
24.432617187500004
 41
0.0
 71
               1
 72
               1
  1
壁掛け/オーバーフローなし/専用排水金具,壁取付ボルト付属\P陶器/ホワイト
  7
ＭＳ ゴシック
 73
               1
 44
1.1307497332816883
  0
MTEXT
  5
119
100
AcDbEntity
  8
template
390
0
 62
               7
100
AcDbMText
 10
-974.99999999955617
 20
-1405.8565294155578
 30
0.0
 40
21.717881944444446
 41
0.0
 71
               1
 72
               1
  1
120126HO
  7
ＭＳ ゴシック
 73
               1
 44
0.7828267384257843
  0
MTEXT
  5
11A
100
AcDbEntity
  8
template
390
0
 62
               7
100
AcDbMText
 10
251.8714062525014
 20
-1338.9131018320086
 30
0.0
 40
24.432617187500004
 41
0.0
 71
               1
 72
               1
  1
大洋金物株式会社 ティーフォルム事業部
  7
ＭＳ ゴシック
 73
               1
 44
0.7828267384257843
  0
INSERT
  5
11B
100
AcDbEntity
  8
template
390
0
 62
               7
100
AcDbBlockReference
  2
グループ
 10
12721.752400050875
 20
-8479.4917927475854
 30
0.0
  0
MTEXT
  5
11C
100
AcDbEntity
  8
template
390
0
 62
               7
100
AcDbMText
 10
784.00000000050022
 20
-1261.000090171201
 30
0.0
 40
24.432617187500004
 41
0.0
 71
               1
 72
               1
  1
1:10
  7
ＭＳ ゴシック
 73
               1
 44
0.7828267384257843
  0
MTEXT
  5
11D
100
AcDbEntity
  8
template
390
0
 62
               7
100
AcDbMText
 10
731.00000000050022
 20
-1232.4176292337006
 30
0.0
 40
16.288411458333332
 41
0.0
 71
               1
 72
               1
  1
縮尺
  7
ＭＳ ゴシック
 73
               1
 44
0.7828267384257843
  0
LINE
  5
11E
100
AcDbEntity
  8
template
370
               5
390
0
  6
Continuous
 62
               7
100
AcDbLine
 10
724.00000000050022
 20
-1309.0027073587007
 30
0.0
 11
724.00000000050022
 21
-1224.0027073587007
 31
0.0
  0
MTEXT
  5
11F
100
AcDbEntity
  8
template
390
0
 62
               7
100
AcDbMText
 10
480.00000000050022
 20
-1232.4176292337006
 30
0.0
 40
16.288411458333332
 41
0.0
 71
               1
 72
               1
  1
容量
  7
ＭＳ ゴシック
 73
               1
 44
0.7828267384257843
  0
LINE
  5
120
100
AcDbEntity
  8
template
370
               5
390
0
  6
Continuous
 62
               7
100
AcDbLine
 10
473.00000000050022
 20
-1309.0027073587007
 30
0.0
 11
473.00000000050022
 21
-1224.0027073587007
 31
0.0
  0
MTEXT
  5
121
100
AcDbEntity
  8
template
390
0
 62
               7
100
AcDbMText
 10
229.00000000050022
 20
-1147.4176292337006
 30
0.0
 40
16.288411458333332
 41
0.0
 71
               1
 72
               1
  1
品番
  7
ＭＳ ゴシック
 73
               1
 44
0.7828267384257843
  0
MTEXT
  5
122
100
AcDbEntity
  8
template
390
0
 62
               7
100
AcDbMText
 10
229.00000000050022
 20
-1232.4176292337006
 30
0.0
 40
16.288411458333332
 41
0.0
 71
               1
 72
               1
  1
重量
  7
ＭＳ ゴシック
 73
               1
 44
0.7828267384257843
  0
MTEXT
  5
123
100
AcDbEntity
  8
template
390
0
 62
               7
100
AcDbMText
 10
282.00000000050022
 20
-1176.000090171201
 30
0.0
 40
24.432617187500004
 41
0.0
 71
               1
 72
               1
  1
ADF70-1501
  7
ＭＳ ゴシック
 73
               1
 44
0.7828267384257843
  0
MTEXT
  5
124
100
AcDbEntity
  8
template
390
0
 62
               7
100
AcDbMText
 10
282.00000000050022
 20
-1261.000090171201
 30
0.0
 40
24.432617187500004
 41
0.0
 71
               1
 72
               1
  1
24kg
  7
ＭＳ ゴシック
 73
               1
 44
0.7828267384257843
  0
LINE
  5
125
100
AcDbEntity
  8
template
370
               5
390
0
  6
Continuous
 62
               7
100
AcDbLine
 10
222.00000000050022
 20
-1394.0027073587007
 30
0.0
 11
222.00000000050022
 21
-1139.0027073587007
 31
0.0
  0
MTEXT
  5
126
100
AcDbEntity
  8
template
390
0
 62
               7
100
AcDbMText
 10
220.00000000000182
 20
-522.87238281250029
 30
0.0
 40
24.432617187500004
 41
0.0
 71
               1
 72
               1
  1
専用排水金具付属\P接続:G1 1/4"
  7
ＭＳ ゴシック
 73
               1
 44
0.7828267384257843
  0
LINE
  5
127
100
AcDbEntity
  8
template
370
               5
390
0
  6
Continuous
 62
               7
100
AcDbLine
 10
694.0879473528621
 20
-460.00000000000364
 30
0.0
 11
488.0
 21
-590.0
 31
0.0
  0
LINE
  5
128
100
AcDbEntity
  8
template
370
               5
390
0
  6
Continuous
 62
               7
100
AcDbLine
 10
488.0
 20
-590.0
 30
0.0
 11
210.0
 21
-590.0
 31
0.0
  0
MTEXT
  5
129
100
AcDbEntity
  8
notes
390
0
 62
               7
100
AcDbMText
 10
-751.54299455200635
 20
145.01456521613363
 30
0.0
 40
24.432617187500004
 41
850.10959213053002
 71
               1
 72
               1
  1
＝φ30もしくはφ35の水栓取付用穴あけ加工を承ります。\P   必要な場合、ご注文の際にご指示ください。
  7
ＭＳ ゴシック
 73
               1
 44
1.0437689845677123
  0
MTEXT
  5
12A
100
AcDbEntity
  8
notes
390
0
 62
               7
100
AcDbMText
 10
-164.85739047878451
 20
-228.35827708234865
 30
0.0
 40
24.432617187500004
 41
0.0
 71
               1
 72
               1
  1
壁取付ボルト穴(2ヶ所)
  7
ＭＳ ゴシック
 73
               1
 44
0.7828267384257843
  0
LINE
  5
12B
100
AcDbEntity
  8
notes
370
               5
390
0
  6
Continuous
 62
               7
100
AcDbLine
 10
-231.09636979132301
 20
-350.0
 30
0.0
 11
-151.13435460241453
 21
-265.6705121881605
 31
0.0
  0
DIMENSION
  5
12C
100
AcDbEntity
  8
notes
370
               5
390
0
  6
Continuous
 62
               7
100
AcDbDimension
  2
*D3
 10
863.67589470572057
 20
-610.0
 30
0.0
 11
696.17589470572238
 21
-610.0
 31
0.0
 71
               5
 72
               1
 41
1.0
 42
0.0
  3
Tform線あり
100
AcDbAlignedDimension
 13
528.6758947057242
 23
-460.0
 33
0.0
 14
863.67589470572057
 24
-460.0
 34
0.0
100
AcDbRotatedDimension
1001
ACAD
1000
DSTYLE
1002
{
1070
             279
1070
               2
1070
             340
1005
32
1070
             147
1040
5.0
1002
}
  0
DIMENSION
  5
12D
100
AcDbEntity
  8
notes
370
               5
390
0
  6
Continuous
 62
               7
100
AcDbDimension
  2
*D4
 10
-811.2320996227063
 20
939.49112315878665
 30
0.0
 11
-371.2320996227063
 21
939.49112315878665
 31
0.0
 71
               5
 72
               1
 41
1.0
 42
0.0
  3
Tform線あり
100
AcDbAlignedDimension
 13
68.76790037729188
 23
786.49112315878665
 33
0.0
 14
-811.2320996227063
 24
786.49112315878665
 34
0.0
100
AcDbRotatedDimension
1001
ACAD
1000
DSTYLE
1002
{
1070
             279
1070
               2
1070
             340
1005
32
1070
             147
1040
5.0
1002
}
  0
DIMENSION
  5
12E
100
AcDbEntity
  8
notes
370
               5
390
0
  6
Continuous
 62
               7
100
AcDbDimension
  2
*D5
 10
-471.23209962270994
 20
889.49112315878847
 30
0.0
 11
-421.23209962270994
 21
889.49112315878847
 31
0.0
 71
               5
 72
               1
 41
1.0
 42
0.0
  3
Tform線あり
100
AcDbAlignedDimension
 13
-371.23209962270994
 23
726.64418624248356
 33
0.0
 14
-471.23209962270994
 24
724.14418624248356
 34
0.0
100
AcDbRotatedDimension
1001
ACAD
1000
DSTYLE
1002
{
1070
             279
1070
               2
1070
             340
1005
32
1070
             147
1040
5.0
1002
}
  0
DIMENSION
  5
12F
100
AcDbEntity
  8
notes
370
               5
390
0
  6
Continuous
 62
               7
100
AcDbDimension
  2
*D6
 10
-371.23209962270994
 20
889.49112315878847
 30
0.0
 11
-321.23209962270994
 21
889.49112315878847
 31
0.0
 71
               5
 72
               1
 41
1.0
 42
0.0
  3
Tform線あり
100
AcDbAlignedDimension
 13
-271.23209962270994
 23
724.14418624248356
 33
0.0
 14
-371.23209962270994
 24
726.64418624248356
 34
0.0
100
AcDbRotatedDimension
1001
ACAD
1000
DSTYLE
1002
{
1070
             279
1070
               2
1070
             340
1005
32
1070
             147
1040
5.0
1002
}
  0
DIMENSION
  5
130
100
AcDbEntity
  8
notes
370
               5
390
0
  6
Continuous
 62
               7
100
AcDbDimension
  2
*D7
 10
-511.23209962270812
 20
-210.0
 30
0.0
 11
-371.23209962270994
 21
-210.0
 31
0.0
 71
               5
 72
               1
 41
1.0
 42
0.0
  3
Tform線あり
100
AcDbAlignedDimension
 13
-231.23209962270994
 23
-330.0
 33
0.0
 14
-511.23209962270812
 24
-330.0
 34
0.0
100
AcDbRotatedDimension
1001
ACAD
1000
DSTYLE
1002
{
1070
             279
1070
               2
1070
             340
1005
32
1070
             147
1040
5.0
1002
}
  0
DIMENSION
  5
131
100
AcDbEntity
  8
notes
370
               5
390
0
  6
Continuous
 62
               7
100
AcDbDimension
  2
*D8
 10
863.67589470572057
 20
-560.0
 30
0.0
 11
769.54084229184446
 21
-555.0
 31
0.0
 70
             128
 71
               5
 72
               1
 41
1.0
 42
0.0
  3
Tform線あり
100
AcDbAlignedDimension
 13
698.6758947057242
 23
-460.00000000000364
 33
0.0
 14
863.67589470572057
 24
-460.0
 34
0.0
100
AcDbRotatedDimension
1001
ACAD
1000
DSTYLE
1002
{
1070
             279
1070
               2
1070
             340
1005
32
1070
             147
1040
5.0
1002
}
  0
DIMENSION
  5
132
100
AcDbEntity
  8
notes
370
               5
390
0
  6
Continuous
 62
               7
100
AcDbDimension
  2
*D9
 10
863.67589470572057
 20
-210.0
 30
0.0
 11
823.67589470572238
 21
-210.0
 31
0.0
 71
               5
 72
               1
 41
1.0
 42
0.0
  3
Tform線あり
100
AcDbAlignedDimension
 13
783.6758947057242
 23
-310.0
 33
0.0
 14
863.67589470572057
 24
-312.0
 34
0.0
100
AcDbRotatedDimension
1001
ACAD
1000
DSTYLE
1002
{
1070
             279
1070
               2
1070
             340
1005
32
1070
             147
1040
5.0
1002
}
  0
DIMENSION
  5
133
100
AcDbEntity
  8
notes
370
               5
390
0
  6
Continuous
 62
               7
100
AcDbDimension
  2
*D10
 10
506.76135434560638
 20
-310.0
 30
0.0
 11
511.76135434560638
 21
-298.29274434651052
 31
0.0
 70
             128
 71
               5
 72
               1
 41
1.0
 42
0.0
  3
Tform線あり
100
AcDbAlignedDimension
 13
487.76135434560638
 23
-380.0
 33
0.0
 14
487.76135434560638
 24
-310.0
 34
0.0
 50
90.0
100
AcDbRotatedDimension
1001
ACAD
1000
DSTYLE
1002
{
1070
             279
1070
               2
1070
             340
1005
32
1070
               3
1000
<>(深さ)
1070
             174
1070
               0
1070
             147
1040
5.0
1002
}
  0
CIRCLE
  5
134
100
AcDbEntity
  8
notes
370
               5
390
0
  6
STYLE_12
 62
               7
100
AcDbCircle
 10
-772.83670571478069
 20
134.40401632491921
 30
0.0
 40
17.5
  0
DIMENSION
  5
135
100
AcDbEntity
  8
notes
370
               5
390
0
  6
Continuous
 62
               7
100
AcDbDimension
  2
*D11
 10
319.61954819057974
 20
-310.00000000000364
 30
0.0
 11
319.61954819057974
 21
-385.00000000000182
 31
0.0
 71
               5
 72
               1
 41
1.0
 42
0.0
  3
Tform線あり
100
AcDbAlignedDimension
 13
529.08512288492238
 23
-460.0
 33
0.0
 14
388.6758947057242
 24
-310.00000000000364
 34
0.0
 50
90.0
100
AcDbRotatedDimension
1001
ACAD
1000
DSTYLE
1002
{
1070
             279
1070
               2
1070
             340
1005
32
1070
             147
1040
5.0
1002
}
  0
DIMENSION
  5
136
100
AcDbEntity
  8
notes
370
               5
390
0
  6
Continuous
 62
               7
100
AcDbDimension
  2
*D12
 10
168.76790037729188
 20
-310.0
 30
0.0
 11
168.76790037729188
 21
-332.5
 31
0.0
 71
               5
 72
               1
 41
1.0
 42
0.0
  3
Tform線あり
100
AcDbAlignedDimension
 13
68.76790037729188
 23
-355.0
 33
0.0
 14
68.76790037729188
 24
-310.0
 34
0.0
 50
90.0
100
AcDbRotatedDimension
1001
ACAD
1000
DSTYLE
1002
{
1070
             279
1070
               2
1070
             340
1005
32
1070
             147
1040
5.0
1002
}
  0
DIMENSION
  5
137
100
AcDbEntity
  8
notes
370
               5
390
0
  6
Continuous
 62
               7
100
AcDbDimension
  2
*D13
 10
168.76790037729188
 20
-355.0
 30
0.0
 11
168.76790037729188
 21
-407.5
 31
0.0
 71
               5
 72
               1
 41
1.0
 42
0.0
  3
Tform線あり
100
AcDbAlignedDimension
 13
-96.247887940671717
 23
-460.0
 33
0.0
 14
68.76790037729188
 24
-355.0
 34
0.0
 50
90.0
100
AcDbRotatedDimension
1001
ACAD
1000
DSTYLE
1002
{
1070
             279
1070
               2
1070
             340
1005
32
1070
             147
1040
5.0
1002
}
  0
DIMENSION
  5
138
100
AcDbEntity
  8
notes
370
               5
390
0
  6
Continuous
 62
               7
100
AcDbDimension
  2
*D14
 10
-646.24788794067172
 20
-565.29274434651052
 30
0.0
 11
-371.24788794067172
 21
-565.29274434651052
 31
0.0
 71
               5
 72
               1
 41
1.0
 42
0.0
  3
Tform線あり
100
AcDbAlignedDimension
 13
-96.247887940671717
 23
-460.0
 33
0.0
 14
-646.24788794067172
 24
-460.0
 34
0.0
100
AcDbRotatedDimension
1001
ACAD
1000
DSTYLE
1002
{
1070
             279
1070
               2
1070
             340
1005
32
1070
             147
1040
5.0
1002
}
  0
DIMENSION
  5
139
100
AcDbEntity
  8
notes
370
               5
390
0
  6
Continuous
 62
               7
100
AcDbDimension
  2
*D15
 10
168.76790037729188
 20
789.49112315878665
 30
0.0
 11
168.76790037729188
 21
549.49112315878665
 31
0.0
 71
               5
 72
               1
 41
1.0
 42
0.0
  3
Tform線あり
100
AcDbAlignedDimension
 13
65.76790037729188
 23
309.49112315878665
 33
0.0
 14
65.76790037729188
 24
789.49112315878665
 34
0.0
 50
90.0
100
AcDbRotatedDimension
1001
ACAD
1000
DSTYLE
1002
{
1070
             279
1070
               2
1070
             340
1005
32
1070
             147
1040
5.0
1002
}
  0
DIMENSION
  5
13A
100
AcDbEntity
  8
notes
370
               5
390
0
  6
Continuous
 62
               7
100
AcDbDimension
  2
*D16
 10
-911.23209962270812
 20
-350.0
 30
0.0
 11
-911.23209962270812
 21
-330.0
 31
0.0
 71
               5
 72
               1
 41
1.0
 42
0.0
  3
Tform線あり
100
AcDbAlignedDimension
 13
-811.2320996227063
 23
-310.0
 33
0.0
 14
-561.23209962270812
 24
-350.0
 34
0.0
 50
90.0
100
AcDbRotatedDimension
1001
ACAD
1000
DSTYLE
1002
{
1070
             279
1070
               2
1070
             340
1005
32
1070
             147
1040
5.0
1002
}
  0
ARC
  5
13B
100
AcDbEntity
  8
ADF70-1501
370
              15
390
0
  6
Continuous
 62
               7
100
AcDbCircle
 10
-664.68303754168483
 20
194.2129150837427
 30
0.0
 40
510.31998984711328
100
AcDbArc
 50
66.637445281125039
 51
89.266816418675759
  0
ARC
  5
13C
100
AcDbEntity
  8
ADF70-1501
370
              15
390
0
  6
Continuous
 62
               7
100
AcDbCircle
 10
-594.03035204196749
 20
450.72996800472902
 30
0.0
 40
47.230276316627887
100
AcDbArc
 50
155.75557205570141
 51
283.60442605534502
  0
ARC
  5
13D
100
AcDbEntity
  8
ADF70-1501
370
              15
390
0
  6
Continuous
 62
               7
100
AcDbCircle
 10
-370.89242588847628
 20
579.26375982086392
 30
0.0
 40
217.77290156720122
100
AcDbArc
 50
243.69871591572866
 51
311.04524957474553
  0
ARC
  5
13E
100
AcDbEntity
  8
ADF70-1501
370
              15
390
0
  6
Continuous
 62
               7
100
AcDbCircle
 10
-72.197296135776924
 20
559.9774508497685
 30
0.0
 40
45.246426964237344
100
AcDbArc
 50
295.16608684666767
 51
90.544567052149986
  0
ARC
  5
13F
100
AcDbEntity
  8
ADF70-1501
370
              15
390
0
  6
Continuous
 62
               7
100
AcDbCircle
 10
-365.69952149577148
 20
911.73278883331295
 30
0.0
 40
267.12410691798743
100
AcDbArc
 50
248.79574436908962
 51
297.8387709897782
  0
ARC
  5
140
100
AcDbEntity
  8
ADF70-1501
370
              15
390
0
  6
Continuous
 62
               7
100
AcDbCircle
 10
-208.05825062472286
 20
627.16257192593548
 30
0.0
 40
58.490586325473636
100
AcDbArc
 50
30.323957021843803
 51
124.2257087126745
  0
ARC
  5
141
100
AcDbEntity
  8
ADF70-1501
370
              15
390
0
  6
Continuous
 62
               7
100
AcDbCircle
 10
-73.360082341843736
 20
699.83790434053481
 30
0.0
 40
94.618907507141145
100
AcDbArc
 50
207.12785264637225
 51
270.5089662228163
  0
ARC
  5
142
100
AcDbEntity
  8
ADF70-1501
370
              15
390
0
  6
Continuous
 62
               7
100
AcDbCircle
 10
-134.85784389689979
 20
670.33343012727528
 30
0.0
 40
172.05174543863731
100
AcDbArc
 50
290.50252676370252
 51
298.42624936689481
  0
ARC
  5
143
100
AcDbEntity
  8
ADF70-1501
370
              15
390
0
  6
Continuous
 62
               7
100
AcDbCircle
 10
-663.05340036836242
 20
657.69131527294485
 30
0.0
 40
47.178699254346114
100
AcDbArc
 50
82.574953631190169
 51
242.33771800105569
  0
ARC
  5
144
100
AcDbEntity
  8
ADF70-1501
370
              15
390
0
  6
Continuous
 62
               7
100
AcDbCircle
 10
-370.91892533701321
 20
555.738426016007
 30
0.0
 40
126.24769129317099
100
AcDbArc
 50
241.7853830731853
 51
298.21461692681476
  0
ARC
  5
145
100
AcDbEntity
  8
ADF70-1501
370
              15
390
0
  6
Continuous
 62
               7
100
AcDbCircle
 10
-752.9336626050972
 20
512.84027651267388
 30
0.0
 40
123.46360178347608
100
AcDbArc
 50
339.75827364002214
 51
56.592891477040261
  0
ARC
  5
146
100
AcDbEntity
  8
ADF70-1501
370
              15
390
0
  6
Continuous
 62
               7
100
AcDbCircle
 10
-559.58969403326955
 20
203.05282376993273
 30
0.0
 40
203.11645713176222
100
AcDbArc
 50
63.002832789903557
 51
96.62703459979295
  0
ARC
  5
147
100
AcDbEntity
  8
ADF70-1501
370
              15
390
0
  6
Continuous
 62
               7
100
AcDbCircle
 10
98.566597578521396
 20
55.399793641492579
 30
0.0
 40
485.69752996432243
100
AcDbArc
 50
110.88696630682936
 51
132.2325504800892
  0
LINE
  5
148
100
AcDbEntity
  8
ADF70-1501
370
              15
390
0
  6
Continuous
 62
               7
100
AcDbLine
 10
-808.2320996227063
 20
789.49112315878665
 30
0.0
 11
65.76790037729188
 21
789.49112315878665
 31
0.0
  0
LINE
  5
149
100
AcDbEntity
  8
ADF70-1501
370
              15
390
0
  6
Continuous
 62
               7
100
AcDbLine
 10
68.76790037729188
 20
786.49112315878665
 30
0.0
 11
68.76790037729188
 21
312.49112315878665
 31
0.0
  0
LINE
  5
14A
100
AcDbEntity
  8
ADF70-1501
370
              15
390
0
  6
Continuous
 62
               7
100
AcDbLine
 10
65.76790037729188
 20
309.49112315878665
 30
0.0
 11
-808.2320996227063
 21
309.49112315878665
 31
0.0
  0
LINE
  5
14B
100
AcDbEntity
  8
ADF70-1501
370
              15
390
0
  6
Continuous
 62
               7
100
AcDbLine
 10
-811.2320996227063
 20
312.49112315878665
 30
0.0
 11
-811.2320996227063
 21
786.49112315878665
 31
0.0
  0
ARC
  5
14C
100
AcDbEntity
  8
ADF70-1501
370
              15
390
0
  6
Continuous
 62
               7
100
AcDbCircle
 10
65.76790037729188
 20
786.49112315878665
 30
0.0
 40
3.0
100
AcDbArc
 50
0.0
 51
90.0
  0
ARC
  5
14D
100
AcDbEntity
  8
ADF70-1501
370
              15
390
0
  6
Continuous
 62
               7
100
AcDbCircle
 10
-808.2320996227063
 20
786.49112315878665
 30
0.0
 40
3.0
100
AcDbArc
 50
90.0
 51
180.0
  0
ARC
  5
14E
100
AcDbEntity
  8
ADF70-1501
370
              15
390
0
  6
Continuous
 62
               7
100
AcDbCircle
 10
-808.2320996227063
 20
312.49112315878665
 30
0.0
 40
3.0
100
AcDbArc
 50
180.0
 51
270.0
  0
ARC
  5
14F
100
AcDbEntity
  8
ADF70-1501
370
              15
390
0
  6
Continuous
 62
               7
100
AcDbCircle
 10
65.76790037729188
 20
312.49112315878665
 30
0.0
 40
3.0
100
AcDbArc
 50
270.0
 51
0.0
  0
CIRCLE
  5
150
100
AcDbEntity
  8
ADF70-1501
370
              15
390
0
  6
STYLE_12
 62
               7
100
AcDbCircle
 10
-371.24788794067172
 20
709.4761809287229
 30
0.0
 40
17.500000000000927
  0
CIRCLE
  5
151
100
AcDbEntity
  8
ADF70-1501
370
              15
390
0
  6
STYLE_12
 62
               7
100
AcDbCircle
 10
-471.23209962270994
 20
709.4761809287229
 30
0.0
 40
15.000000000001185
  0
CIRCLE
  5
152
100
AcDbEntity
  8
ADF70-1501
370
              15
390
0
  6
STYLE_12
 62
               7
100
AcDbCircle
 10
-271.23209962270994
 20
709.4761809287229
 30
0.0
 40
15.000000000001185
  0
LINE
  5
153
100
AcDbEntity
  8
ADF70-1501
370
              15
390
0
  6
Continuous
 62
               7
100
AcDbLine
 10
863.67589470572057
 20
-379.0
 30
0.0
 11
863.67589470572057
 21
-460.0
 31
0.0
  0
ARC
  5
154
100
AcDbEntity
  8
ADF70-1501
370
              15
390
0
  6
Continuous
 62
               7
100
AcDbCircle
 10
388.67589470572602
 20
-350.00584615267871
 30
0.0
 40
5.0
100
AcDbArc
 50
180.0
 51
270.0
  0
LINE
  5
155
100
AcDbEntity
  8
ADF70-1501
370
              15
390
0
  6
Continuous
 62
               7
100
AcDbLine
 10
388.6758947057242
 20
-355.00584615268235
 30
0.0
 11
863.67589470572238
 21
-355.00584615268235
 31
0.0
  0
LINE
  5
156
100
AcDbEntity
  8
ADF70-1501
370
              15
390
0
  6
Continuous
 62
               7
100
AcDbLine
 10
732.84015692047251
 20
-310.0
 30
0.0
 11
427.45256555352717
 21
-310.0
 31
0.0
  0
LINE
  5
157
100
AcDbEntity
  8
ADF70-1501
370
              15
390
0
  6
Continuous
 62
               7
100
AcDbLine
 10
383.6758947057242
 20
-350.00584615267871
 30
0.0
 11
383.6758947057242
 21
-315.00000000000364
 31
0.0
  0
LINE
  5
158
100
AcDbEntity
  8
ADF70-1501
370
              15
390
0
  6
Continuous
 62
               7
100
AcDbLine
 10
427.45256555352717
 20
-310.0
 30
0.0
 11
388.6758947057242
 21
-310.00000000000364
 31
0.0
  0
LINE
  5
159
100
AcDbEntity
  8
ADF70-1501
370
              15
390
0
  6
Continuous
 62
               7
100
AcDbLine
 10
539.31655853011944
 20
-460.0
 30
0.0
 11
668.99999999999636
 21
-460.0
 31
0.0
  0
ARC
  5
15A
100
AcDbEntity
  8
ADF70-1501
370
              15
390
0
  6
STYLE_12
 62
               7
100
AcDbCircle
 10
581.51779199766133
 20
-198.35941091767381
 30
0.0
 40
182.65367620307802
100
AcDbArc
 50
220.67879625456811
 51
239.39569924271612
  0
LINE
  5
15B
100
AcDbEntity
  8
ADF70-1501
370
              15
390
0
  6
STYLE_12
 62
               7
100
AcDbLine
 10
489.35438736105607
 20
-357.18979505158859
 30
0.0
 11
489.35438736105971
 21
-364.23580851572478
 31
0.0
  0
LINE
  5
15C
100
AcDbEntity
  8
ADF70-1501
370
              15
390
0
  6
STYLE_12
 62
               7
100
AcDbLine
 10
664.21007004491366
 20
-431.07076871967365
 30
0.0
 11
664.258847807645
 21
-428.27629256423461
 31
0.0
  0
LINE
  5
15D
100
AcDbEntity
  8
ADF70-1501
370
              15
390
0
  6
STYLE_12
 62
               7
100
AcDbLine
 10
674.49999999999818
 20
-416.73580283281626
 30
0.0
 11
674.49999999999818
 21
-424.75533801746496
 31
0.0
  0
LINE
  5
15E
100
AcDbEntity
  8
ADF70-1501
370
              15
390
0
  6
STYLE_12
 62
               7
100
AcDbLine
 10
673.56975647373656
 20
-415.73823878255644
 30
0.0
 11
487.83332792948386
 21
-402.75028247268347
 31
0.0
  0
LINE
  5
15F
100
AcDbEntity
  8
ADF70-1501
370
              15
390
0
  6
STYLE_12
 62
               7
100
AcDbLine
 10
438.41029902967239
 20
-345.00584615267871
 30
0.0
 11
456.04096777624181
 21
-345.00584615267871
 31
0.0
  0
ARC
  5
160
100
AcDbEntity
  8
ADF70-1501
370
              15
390
0
  6
STYLE_12
 62
               7
100
AcDbCircle
 10
487.35438736105607
 20
-357.18979505158859
 30
0.0
 40
2.0
100
AcDbArc
 50
0.0
 51
54.079728295679331
  0
ARC
  5
161
100
AcDbEntity
  8
ADF70-1501
370
              15
390
0
  6
STYLE_12
 62
               7
100
AcDbCircle
 10
427.45256555352717
 20
-330.0
 30
0.0
 40
19.999999999999972
100
AcDbArc
 50
38.989919619749976
 51
90.0
  0
ARC
  5
162
100
AcDbEntity
  8
ADF70-1501
370
              15
390
0
  6
Continuous
 62
               7
100
AcDbCircle
 10
388.67589470572602
 20
-315.00000000000364
 30
0.0
 40
5.0
100
AcDbArc
 50
90.0
 51
180.0
  0
ARC
  5
163
100
AcDbEntity
  8
ADF70-1501
370
              15
390
0
  6
STYLE_12
 62
               7
100
AcDbCircle
 10
608.30411766232464
 20
-165.1040969043861
 30
0.0
 40
234.98555737332609
100
AcDbArc
 50
230.22564745286601
 51
238.72784845437434
  0
ARC
  5
164
100
AcDbEntity
  8
ADF70-1501
370
              15
390
0
  6
STYLE_12
 62
               7
100
AcDbCircle
 10
487.35438736105971
 20
-364.23580851572478
 30
0.0
 40
1.9999999999997904
100
AcDbArc
 50
238.93059227869117
 51
0.0
  0
ARC
  5
165
100
AcDbEntity
  8
ADF70-1501
370
              15
390
0
  6
STYLE_12
 62
               7
100
AcDbCircle
 10
456.04096777624181
 20
-348.00584615267871
 30
0.0
 40
3.0000000000006968
100
AcDbArc
 50
50.022903628577254
 51
90.0
  0
ARC
  5
166
100
AcDbEntity
  8
ADF70-1501
370
              15
390
0
  6
STYLE_12
 62
               7
100
AcDbCircle
 10
673.49999999999818
 20
-416.73580283281626
 30
0.0
 40
1.0
100
AcDbArc
 50
0.0
 51
86.000000000016485
  0
LINE
  5
167
100
AcDbEntity
  8
ADF70-1501
370
              15
390
0
  6
STYLE_12
 62
               7
100
AcDbLine
 10
714.60613823198219
 20
-415.73823878255644
 30
0.0
 11
673.5697564737402
 21
-415.73823878255644
 31
0.0
  0
LINE
  5
168
100
AcDbEntity
  8
ADF70-1501
370
              15
390
0
  6
STYLE_12
 62
               7
100
AcDbLine
 10
673.43024352625253
 20
-425.75290206772479
 30
0.0
 11
667.46766031434709
 21
-425.33595763276753
 31
0.0
  0
LINE
  5
169
100
AcDbEntity
  8
ADF70-1501
370
              15
390
0
  6
STYLE_12
 62
               7
100
AcDbLine
 10
714.74565117990278
 20
-425.75290206772479
 30
0.0
 11
673.5697564737402
 21
-425.75290206772479
 31
0.0
  0
ARC
  5
16A
100
AcDbEntity
  8
ADF70-1501
370
              15
390
0
  6
STYLE_12
 62
               7
100
AcDbCircle
 10
667.25839089311376
 20
-428.32864978354701
 30
0.0
 40
2.9999999999999427
100
AcDbArc
 50
86.000000000016485
 51
178.9999999999894
  0
ARC
  5
16B
100
AcDbEntity
  8
ADF70-1501
370
              15
390
0
  6
Continuous
 62
               7
100
AcDbCircle
 10
673.49999999999818
 20
-424.75533801746496
 30
0.0
 40
0.9999999999999809
100
AcDbArc
 50
266.00000000001648
 51
0.0
  0
LINE
  5
16C
100
AcDbEntity
  8
ADF70-1501
370
              15
390
0
  6
STYLE_12
 62
               7
100
AcDbLine
 10
436.24510529334475
 20
-350.08236633899287
 30
0.0
 11
485.87740361438591
 21
-401.83411050821815
 31
0.0
  0
LINE
  5
16D
100
AcDbEntity
  8
ADF70-1501
370
              15
390
0
  6
Continuous
 62
               7
100
AcDbLine
 10
420.4731147838811
 20
-358.08411219830668
 30
0.0
 11
526.91992914859475
 21
-459.07652018631416
 31
0.0
  0
ARC
  5
16E
100
AcDbEntity
  8
ADF70-1501
370
              15
390
0
  6
Continuous
 62
               7
100
AcDbCircle
 10
413.2558023294514
 20
-365.00584615267871
 30
0.0
 40
9.9999999999986375
100
AcDbArc
 50
43.802399138844379
 51
90.0
  0
ARC
  5
16F
100
AcDbEntity
  8
ADF70-1501
370
              15
390
0
  6
STYLE_12
 62
               7
100
AcDbCircle
 10
438.41029902967239
 20
-348.00584615267871
 30
0.0
 40
3.0
100
AcDbArc
 50
90.0
 51
223.8023991388221
  0
LINE
  5
170
100
AcDbEntity
  8
ADF70-1501
370
              15
390
0
  6
Continuous
 62
               7
100
AcDbLine
 10
539.31655853011944
 20
-460.0
 30
0.0
 11
529.08512288492238
 21
-460.0
 31
0.0
  0
ARC
  5
171
100
AcDbEntity
  8
ADF70-1501
370
              15
390
0
  6
STYLE_12
 62
               7
100
AcDbCircle
 10
488.04259735071537
 20
-399.75759032190399
 30
0.0
 40
2.9999999999979168
100
AcDbArc
 50
223.80239913884614
 51
266.00000000001648
  0
ARC
  5
172
100
AcDbEntity
  8
ADF70-1501
370
              15
390
0
  6
Continuous
 62
               7
100
AcDbCircle
 10
529.08512288492238
 20
-457.0
 30
0.0
 40
3.0000000000017479
100
AcDbArc
 50
223.80239913887226
 51
270.0
  0
LINE
  5
173
100
AcDbEntity
  8
ADF70-1501
370
              15
390
0
  6
STYLE_12
 62
               7
100
AcDbLine
 10
679.0
 20
-435.10567353255101
 30
0.0
 11
678.99999999999818
 21
-460.00000000000364
 31
0.0
  0
LINE
  5
174
100
AcDbEntity
  8
ADF70-1501
370
              15
390
0
  6
STYLE_12
 62
               7
100
AcDbLine
 10
709.17589470572238
 20
-435.10567353255101
 30
0.0
 11
709.17589470572602
 21
-460.00000000000364
 31
0.0
  0
LINE
  5
175
100
AcDbEntity
  8
ADF70-1501
370
              15
390
0
  6
STYLE_12
 62
               7
100
AcDbLine
 10
677.0
 20
-433.10567353255101
 30
0.0
 11
666.20976543522556
 21
-433.10567353255101
 31
0.0
  0
LINE
  5
176
100
AcDbEntity
  8
ADF70-1501
370
              15
390
0
  6
STYLE_12
 62
               7
100
AcDbLine
 10
711.17589470572238
 20
-433.10567353255101
 30
0.0
 11
721.95919611644422
 21
-433.10567353255101
 31
0.0
  0
LINE
  5
177
100
AcDbEntity
  8
ADF70-1501
370
              15
390
0
  6
Continuous
 62
               7
100
AcDbLine
 10
766.17589470572238
 20
-310.0
 30
0.0
 11
766.17589470572238
 21
-325.0
 31
0.0
  0
LINE
  5
178
100
AcDbEntity
  8
ADF70-1501
370
              15
390
0
  6
Continuous
 62
               7
100
AcDbLine
 10
801.1758947057242
 20
-325.0
 30
0.0
 11
801.1758947057242
 21
-310.0
 31
0.0
  0
LINE
  5
179
100
AcDbEntity
  8
ADF70-1501
370
              15
390
0
  6
Continuous
 62
               7
100
AcDbLine
 10
863.67589470572238
 20
-379.0
 30
0.0
 11
863.67589470572057
 21
-312.0
 31
0.0
  0
ARC
  5
17A
100
AcDbEntity
  8
ADF70-1501
370
              15
390
0
  6
Continuous
 62
               7
100
AcDbCircle
 10
861.67589470572057
 20
-312.0
 30
0.0
 40
2.0
100
AcDbArc
 50
0.0
 51
89.999999999947875
  0
LINE
  5
17B
100
AcDbEntity
  8
ADF70-1501
370
              15
390
0
  6
Continuous
 62
               7
100
AcDbLine
 10
861.67589470572238
 20
-310.0
 30
0.0
 11
732.84015692047251
 21
-310.0
 31
0.0
  0
ARC
  5
17C
100
AcDbEntity
  8
ADF70-1501
370
              15
390
0
  6
STYLE_12
 62
               7
100
AcDbCircle
 10
732.84015692047797
 20
-369.99999999999636
 30
0.0
 40
59.999999999996362
100
AcDbArc
 50
90.000000000005215
 51
116.05329674840613
  0
ARC
  5
17D
100
AcDbEntity
  8
ADF70-1501
370
              15
390
0
  6
STYLE_12
 62
               7
100
AcDbCircle
 10
490.25165471818582
 20
38.298306563348888
 30
0.0
 40
415.1553536280457
100
AcDbArc
 50
269.43361930947538
 51
301.38967556435932
  0
ARC
  5
17E
100
AcDbEntity
  8
ADF70-1501
370
              15
390
0
  6
STYLE_12
 62
               7
100
AcDbCircle
 10
486.3578266684508
 20
-378.82570751637468
 30
0.0
 40
1.9999999999994178
100
AcDbArc
 50
96.027226545482677
 51
180.10922083523988
  0
LINE
  5
17F
100
AcDbEntity
  8
ADF70-1501
370
              15
390
0
  6
STYLE_12
 62
               7
100
AcDbLine
 10
484.35783030228959
 20
-378.82952004043909
 30
0.0
 11
484.36929368554593
 21
-384.84304925919423
 31
0.0
  0
ARC
  5
180
100
AcDbEntity
  8
ADF70-1501
370
              15
390
0
  6
STYLE_12
 62
               7
100
AcDbCircle
 10
486.36929005170896
 20
-384.83923673512982
 30
0.0
 40
2.0000000000012683
100
AcDbArc
 50
180.10922083523994
 51
269.47431545201846
  0
ARC
  5
181
100
AcDbEntity
  8
ADF70-1501
370
              15
390
0
  6
STYLE_12
 62
               7
100
AcDbCircle
 10
490.25165471818582
 20
38.298306563352526
 30
0.0
 40
425.15535362804957
100
AcDbArc
 50
269.474315452013
 51
302.47657525827793
  0
LINE
  5
182
100
AcDbEntity
  8
ADF70-1501
370
              15
390
0
  6
STYLE_12
 62
               7
100
AcDbLine
 10
723.82664869476685
 20
-322.91374801687562
 30
0.0
 11
723.82664869476685
 21
-410.43090245071289
 31
0.0
  0
ARC
  5
183
100
AcDbEntity
  8
ADF70-1501
370
              15
390
0
  6
STYLE_12
 62
               7
100
AcDbCircle
 10
718.82664869476503
 20
-410.43090245070925
 30
0.0
 40
5.0000000000035332
100
AcDbArc
 50
273.99999999998062
 51
359.99999999995833
  0
LINE
  5
184
100
AcDbEntity
  8
ADF70-1501
370
              15
390
0
  6
STYLE_12
 62
               7
100
AcDbLine
 10
719.17543106348421
 20
-415.41872270201202
 30
0.0
 11
714.60613823198219
 21
-415.73823878255644
 31
0.0
  0
ARC
  5
185
100
AcDbEntity
  8
ADF70-1501
370
              15
390
0
  6
Continuous
 62
               7
100
AcDbCircle
 10
714.67589470572602
 20
-416.73580283281626
 30
0.0
 40
0.9999999999999809
100
AcDbArc
 50
93.99999999998353
 51
180.0
  0
LINE
  5
186
100
AcDbEntity
  8
ADF70-1501
370
              15
390
0
  6
STYLE_12
 62
               7
100
AcDbLine
 10
713.67589470572602
 20
-416.73580283281626
 30
0.0
 11
713.67589470572602
 21
-424.75533801746496
 31
0.0
  0
ARC
  5
187
100
AcDbEntity
  8
ADF70-1501
370
              15
390
0
  6
Continuous
 62
               7
100
AcDbCircle
 10
714.67589470572602
 20
-424.75533801746496
 30
0.0
 40
1.0
100
AcDbArc
 50
180.0
 51
273.99999999987955
  0
LINE
  5
188
100
AcDbEntity
  8
ADF70-1501
370
              15
390
0
  6
STYLE_12
 62
               7
100
AcDbLine
 10
714.74565117946804
 20
-425.75290206772479
 30
0.0
 11
720.69963362912495
 21
-425.33655905665364
 31
0.0
  0
ARC
  5
189
100
AcDbEntity
  8
ADF70-1501
370
              15
390
0
  6
STYLE_12
 62
               7
100
AcDbCircle
 10
720.90890305035464
 20
-428.32925120743312
 30
0.0
 40
2.9999999999991007
100
AcDbArc
 50
1.034399454732138
 51
93.999999999948869
  0
LINE
  5
18A
100
AcDbEntity
  8
ADF70-1501
370
              15
390
0
  6
STYLE_12
 62
               7
100
AcDbLine
 10
723.90841416079456
 20
-428.27509312075199
 30
0.0
 11
723.95887019007023
 21
-431.06956814142904
 31
0.0
  0
LINE
  5
18B
100
AcDbEntity
  8
ADF70-1501
370
              15
390
0
  6
Continuous
 62
               7
100
AcDbLine
 10
710.0
 20
-460.0
 30
0.0
 11
863.67589470572057
 21
-460.0
 31
0.0
  0
LINE
  5
18C
100
AcDbEntity
  8
ADF70-1501
370
              15
390
0
  6
Continuous
 62
               7
100
AcDbLine
 10
709.17589470572602
 20
-460.00000000000364
 30
0.0
 11
719.17589470572602
 21
-460.00000000000364
 31
0.0
  0
LINE
  5
18D
100
AcDbEntity
  8
ADF70-1501
370
              15
390
0
  6
Continuous
 62
               7
100
AcDbLine
 10
678.99999999999818
 20
-460.00000000000364
 30
0.0
 11
668.99999999999818
 21
-460.0
 31
0.0
  0
LINE
  5
18E
100
AcDbEntity
  8
ADF70-1501
370
              15
390
0
  6
Continuous
 62
               7
100
AcDbLine
 10
709.17589470572602
 20
-460.00000000000364
 30
0.0
 11
678.99999999999818
 21
-460.00000000000364
 31
0.0
  0
ARC
  5
18F
100
AcDbEntity
  8
ADF70-1501
370
              15
390
0
  6
STYLE_12
 62
               7
100
AcDbCircle
 10
711.17589470572238
 20
-435.10567353255101
 30
0.0
 40
2.0
100
AcDbArc
 50
90.0
 51
180.0
  0
ARC
  5
190
100
AcDbEntity
  8
ADF70-1501
370
              15
390
0
  6
STYLE_12
 62
               7
100
AcDbCircle
 10
677.0
 20
-435.10567353255101
 30
0.0
 40
2.0
100
AcDbArc
 50
0.0
 51
90.0
  0
ARC
  5
191
100
AcDbEntity
  8
ADF70-1501
370
              15
390
0
  6
STYLE_12
 62
               7
100
AcDbCircle
 10
721.95919611644422
 20
-431.10567353255101
 30
0.0
 40
2.0
100
AcDbArc
 50
270.0
 51
1.0343994547665716
  0
ARC
  5
192
100
AcDbEntity
  8
ADF70-1501
370
              15
390
0
  6
STYLE_12
 62
               7
100
AcDbCircle
 10
666.20976543522556
 20
-431.10567353255101
 30
0.0
 40
2.0000000000009841
100
AcDbArc
 50
178.99999999992059
 51
270.0
  0
POLYLINE
  5
193
100
AcDbEntity
  8
ADF70-1501
370
              15
390
0
  6
Continuous
 62
               7
100
AcDb2dPolyline
 66
               1
 10
0.0
 20
0.0
 30
0.0
 70
               1
 75
               5
  0
VERTEX
  5
194
100
AcDbEntity
  8
ADF70-1501
370
              15
390
0
  6
Continuous
 62
               7
100
AcDbVertex
100
AcDb2dVertex
 10
-811.2320996227063
 20
-310.0
 30
0.0
  0
VERTEX
  5
195
100
AcDbEntity
  8
ADF70-1501
370
              15
390
0
  6
Continuous
 62
               7
100
AcDbVertex
100
AcDb2dVertex
 10
68.76790037729188
 20
-310.0
 30
0.0
  0
VERTEX
  5
196
100
AcDbEntity
  8
ADF70-1501
370
              15
390
0
  6
Continuous
 62
               7
100
AcDbVertex
100
AcDb2dVertex
 10
68.76790037729188
 20
-355.0
 30
0.0
  0
VERTEX
  5
197
100
AcDbEntity
  8
ADF70-1501
370
              15
390
0
  6
Continuous
 62
               7
100
AcDbVertex
100
AcDb2dVertex
 10
-811.2320996227063
 20
-355.0
 30
0.0
  0
SEQEND
  5
198
100
AcDbEntity
  8
ADF70-1501
370
              15
390
0
  6
Continuous
 62
               7
  0
LINE
  5
199
100
AcDbEntity
  8
ADF70-1501
370
              15
390
0
  6
Continuous
 62
               7
100
AcDbLine
 10
-96.247887940671717
 20
-460.0
 30
0.0
 11
-646.24788794067172
 21
-460.0
 31
0.0
  0
LINE
  5
19A
100
AcDbEntity
  8
ADF70-1501
370
              15
390
0
  6
Continuous
 62
               7
100
AcDbLine
 10
-96.247887940671717
 20
-460.0
 30
0.0
 11
23.752112059328283
 21
-355.0
 31
0.0
  0
LINE
  5
19B
100
AcDbEntity
  8
ADF70-1501
370
              15
390
0
  6
Continuous
 62
               7
100
AcDbLine
 10
-646.24788794067172
 20
-460.0
 30
0.0
 11
-766.24788794067172
 21
-355.0
 31
0.0
  0
LINE
  5
19C
100
AcDbEntity
  8
ADF70-1501
370
              15
390
0
  6
Continuous
 62
               7
100
AcDbLine
 10
-808.2320996227063
 20
789.49112315878665
 30
0.0
 11
65.76790037729188
 21
789.49112315878665
 31
0.0
  0
LINE
  5
19D
100
AcDbEntity
  8
ADF70-1501
370
              15
390
0
  6
STYLE_12
 62
               7
100
AcDbLine
 10
-511.23209962270812
 20
-370.0
 30
0.0
 11
-511.23209962270812
 21
-330.0
 31
0.0
  0
ARC
  5
19E
100
AcDbEntity
  8
ADF70-1501
370
              15
390
0
  6
STYLE_12
 62
               7
100
AcDbCircle
 10
720.15443869385854
 20
-323.77730900425559
 30
0.0
 40
3.7723817237516757
100
AcDbArc
 50
13.233298812327675
 51
115.32418390165405
  0
LINE
  5
19F
100
AcDbEntity
  8
ADF70-1501
370
              15
390
0
  6
STYLE_12
 62
               7
100
AcDbLine
 10
-491.23209962270812
 20
-350.0
 30
0.0
 11
-531.23209962270812
 21
-350.0
 31
0.0
  0
CIRCLE
  5
1A0
100
AcDbEntity
  8
ADF70-1501
370
              15
390
0
  6
STYLE_12
 62
               7
100
AcDbCircle
 10
-511.23209962270812
 20
-350.0
 30
0.0
 40
10.0
  0
LINE
  5
1A1
100
AcDbEntity
  8
ADF70-1501
370
              15
390
0
  6
STYLE_12
 62
               7
100
AcDbLine
 10
-231.23209962270812
 20
-370.0
 30
0.0
 11
-231.23209962270812
 21
-330.0
 31
0.0
  0
LINE
  5
1A2
100
AcDbEntity
  8
ADF70-1501
370
              15
390
0
  6
STYLE_12
 62
               7
100
AcDbLine
 10
-211.23209962270812
 20
-350.0
 30
0.0
 11
-251.23209962270812
 21
-350.0
 31
0.0
  0
CIRCLE
  5
1A3
100
AcDbEntity
  8
ADF70-1501
370
              15
390
0
  6
STYLE_12
 62
               7
100
AcDbCircle
 10
-231.23209962270812
 20
-350.0
 30
0.0
 40
10.0
  0
ENDSEC
  0
SECTION
  2
OBJECTS
  0
DICTIONARY
  5
19
100
AcDbDictionary
280
               0
281
               1
  3
ACAD_GROUP
350
1A
  3
ACAD_MLINESTYLE
350
1B
  3
ACAD_LAYOUT
350
1E
  3
ACAD_PLOTSETTINGS
350
22
  3
ACAD_PLOTSTYLENAME
350
1F
  0
DICTIONARY
  5
1A
102
{ACAD_REACTORS
330
19
102
}
100
AcDbDictionary
280
               0
281
               1
  0
DICTIONARY
  5
1B
102
{ACAD_REACTORS
330
19
102
}
100
AcDbDictionary
280
               0
281
               1
  3
Standard
350
1C
  0
MLINESTYLE
  5
1C
102
{ACAD_REACTORS
330
1B
102
}
100
AcDbMlineStyle
  2
Standard
 70
               0
  3

 62
               0
 51
90.0
 52
90.0
 71
               2
 49
0.5
 62
             256
  6
ByLayer
 49
-0.5
 62
             256
  6
ByLayer
  0
ACDBDICTIONARYWDFLT
  5
1F
102
{ACAD_REACTORS
330
19
102
}
100
AcDbDictionary
281
               1
  3
Normal
350
1D
100
AcDbDictionaryWithDefault
340
1D
  0
ACDBPLACEHOLDER
  5
1D
102
{ACAD_REACTORS
330
1F
102
}
  0
LAYOUT
  5
20
102
{ACAD_REACTORS
330
1E
102
}
100
AcDbPlotSettings
  1

  2

  4

  6

 40
0.0
 41
0.0
 42
0.0
 43
0.0
 44
0.0
 45
0.0
 46
0.0
 47
0.0
 48
0.0
 49
0.0
140
0.0
141
0.0
142
1.0
143
1.0
 70
            1024
 72
               0
 73
               0
 74
               0
  7

 75
               0
147
1.0
148
0.0
149
0.0
100
AcDbLayout
  1
Model
 70
               0
 71
               0
 10
0.0
 20
0.0
 11
0.0
 21
0.0
 12
0.0
 22
0.0
 32
0.0
 14
0.0
 24
0.0
 34
0.0
 15
0.0
 25
0.0
 35
0.0
146
0.0
 13
0.0
 23
0.0
 33
0.0
 16
0.0
 26
0.0
 36
0.0
 17
0.0
 27
0.0
 37
0.0
 76
               0
330
A
331
0
345
0
346
0
  0
LAYOUT
  5
21
102
{ACAD_REACTORS
330
1E
102
}
100
AcDbPlotSettings
  1

  2

  4

  6

 40
0.0
 41
0.0
 42
0.0
 43
0.0
 44
0.0
 45
0.0
 46
0.0
 47
0.0
 48
0.0
 49
0.0
140
0.0
141
0.0
142
1.0
143
1.0
 70
               0
 72
               0
 73
               0
 74
               0
  7

 75
               0
147
1.0
148
0.0
149
0.0
100
AcDbLayout
  1
Layout1
 70
               0
 71
               0
 10
0.0
 20
0.0
 11
0.0
 21
0.0
 12
0.0
 22
0.0
 32
0.0
 14
0.0
 24
0.0
 34
0.0
 15
0.0
 25
0.0
 35
0.0
146
0.0
 13
0.0
 23
0.0
 33
0.0
 16
0.0
 26
0.0
 36
0.0
 17
0.0
 27
0.0
 37
0.0
 76
               0
330
B
331
0
345
0
346
0
  0
DICTIONARY
  5
1E
102
{ACAD_REACTORS
330
19
102
}
100
AcDbDictionary
280
               0
281
               1
  3
Layout1
350
21
  3
Model
350
20
  0
DICTIONARY
  5
22
102
{ACAD_REACTORS
330
19
102
}
100
AcDbDictionary
280
               0
281
               1
  0
ENDSEC
  0
EOF
