  0
SECTION
  2
HEADER
  9
$ACADVER
  1
AC1015
  9
$ACADMAINTVER
 70
               6
  9
$DWGCODEPAGE
  3
ANSI_932
  9
$INSBASE
 10
0.0
 20
0.0
 30
0.0
  9
$EXTMIN
 10
-975.00000000024124
 20
-1431.5255224711132
 30
-14.834305555555554
  9
$EXTMAX
 10
975.00000000024124
 20
1405.9972926412993
 30
14.834305555555554
  9
$LIMMIN
 10
0.0
 20
0.0
  9
$LIMMAX
 10
0.0
 20
0.0
  9
$ORTHOMODE
 70
               0
  9
$REGENMODE
 70
               1
  9
$FILLMODE
 70
               1
  9
$QTEXTMODE
 70
               0
  9
$MIRRTEXT
 70
               1
  9
$LTSCALE
 40
25.399999999999999
  9
$ATTMODE
 70
               1
  9
$TEXTSIZE
 40
0.2
  9
$TRACEWID
 40
1.0
  9
$TEXTSTYLE
  7
Standard
  9
$CLAYER
  8
notes
  9
$CELTYPE
  6
Continuous
  9
$CECOLOR
 62
             256
  9
$CELTSCALE
 40
1.0
  9
$DISPSILH
 70
               0
  9
$DIMSCALE
 40
1.0
  9
$DIMASZ
 40
31.75
  9
$DIMEXO
 40
0.0
  9
$DIMDLI
 40
6.9999999999999396
  9
$DIMRND
 40
0.0
  9
$DIMDLE
 40
0.0
  9
$DIMEXE
 40
19.999999999996199
  9
$DIMTP
 40
0.0
  9
$DIMTM
 40
0.0
  9
$DIMTXT
 40
24.432617187500004
  9
$DIMCEN
 40
0.0
  9
$DIMTSZ
 40
0.0
  9
$DIMTOL
 70
               0
  9
$DIMLIM
 70
               0
  9
$DIMTIH
 70
               0
  9
$DIMTOH
 70
               0
  9
$DIMSE1
 70
               0
  9
$DIMSE2
 70
               0
  9
$DIMTAD
 70
               1
  9
$DIMZIN
 70
              11
  9
$DIMBLK
  1
VW_FILLEDARROW
  9
$DIMASO
 70
               1
  9
$DIMSHO
 70
               1
  9
$DIMPOST
  1
<>
  9
$DIMAPOST
  1
[]
  9
$DIMALT
 70
               0
  9
$DIMALTD
 70
               1
  9
$DIMALTF
 40
1.0
  9
$DIMLFAC
 40
1.0
  9
$DIMTOFL
 70
               0
  9
$DIMTVP
 40
0.0
  9
$DIMTIX
 70
               1
  9
$DIMSOXD
 70
               0
  9
$DIMSAH
 70
               0
  9
$DIMBLK1
  1

  9
$DIMBLK2
  1

  9
$DIMSTYLE
  2
JIS
  9
$DIMCLRD
 70
               0
  9
$DIMCLRE
 70
               0
  9
$DIMCLRT
 70
               0
  9
$DIMTFAC
 40
1.0
  9
$DIMGAP
 40
1.00000000000108
  9
$DIMJUST
 70
               0
  9
$DIMSD1
 70
               0
  9
$DIMSD2
 70
               0
  9
$DIMTOLJ
 70
               1
  9
$DIMTZIN
 70
              11
  9
$DIMALTZ
 70
              11
  9
$DIMALTTZ
 70
              11
  9
$DIMUPT
 70
               0
  9
$DIMDEC
 70
               1
  9
$DIMTDEC
 70
               1
  9
$DIMALTU
 70
               2
  9
$DIMALTTD
 70
               2
  9
$DIMTXSTY
  7
ＭＳ ゴシック
  9
$DIMAUNIT
 70
               0
  9
$DIMADEC
 70
               2
  9
$DIMALTRND
 40
0.0
  9
$DIMAZIN
 70
               0
  9
$DIMDSEP
 70
              46
  9
$DIMATFIT
 70
               0
  9
$DIMFRAC
 70
               2
  9
$DIMLDRBLK
  1

  9
$DIMLUNIT
 70
               2
  9
$DIMLWD
 70
              -2
  9
$DIMLWE
 70
              -2
  9
$DIMTMOVE
 70
               0
  9
$LUNITS
 70
               2
  9
$LUPREC
 70
               4
  9
$SKETCHINC
 40
0.1
  9
$FILLETRAD
 40
0.0
  9
$AUNITS
 70
               0
  9
$AUPREC
 70
               0
  9
$MENU
  1
acad
  9
$ELEVATION
 40
0.0
  9
$PELEVATION
 40
0.0
  9
$THICKNESS
 40
0.0
  9
$LIMCHECK
 70
               0
  9
$CHAMFERA
 40
0.0
  9
$CHAMFERB
 40
0.0
  9
$CHAMFERC
 40
0.0
  9
$CHAMFERD
 40
0.0
  9
$SKPOLY
 70
               0
  9
$TDCREATE
 40
2456043.476365741
  9
$TDUCREATE
 40
0.000000000
  9
$TDUPDATE
 40
2456043.476365741
  9
$TDUUPDATE
 40
0.000000000
  9
$TDINDWG
 40
0.0000000000
  9
$TDUSRTIMER
 40
0.0000000000
  9
$USRTIMER
 70
               1
  9
$ANGBASE
 50
0.0
  9
$ANGDIR
 70
               0
  9
$PDMODE
 70
               1
  9
$PDSIZE
 40
-2.0
  9
$PLINEWID
 40
0.0
  9
$SPLFRAME
 70
               0
  9
$SPLINETYPE
 70
               6
  9
$SPLINESEGS
 70
               8
  9
$HANDSEED
  5
277
  9
$SURFTAB1
 70
               6
  9
$SURFTAB2
 70
               6
  9
$SURFTYPE
 70
               6
  9
$SURFU
 70
               6
  9
$SURFV
 70
               6
  9
$UCSBASE
  2

  9
$UCSNAME
  2

  9
$UCSORG
 10
0.0
 20
0.0
 30
0.0
  9
$UCSXDIR
 10
1.0
 20
0.0
 30
0.0
  9
$UCSYDIR
 10
0.0
 20
1.0
 30
0.0
  9
$UCSORTHOREF
  2

  9
$UCSORTHOVIEW
 70
               0
  9
$UCSORGTOP
 10
0.0
 20
0.0
 30
0.0
  9
$UCSORGBOTTOM
 10
0.0
 20
0.0
 30
0.0
  9
$UCSORGLEFT
 10
0.0
 20
0.0
 30
0.0
  9
$UCSORGRIGHT
 10
0.0
 20
0.0
 30
0.0
  9
$UCSORGFRONT
 10
0.0
 20
0.0
 30
0.0
  9
$UCSORGBACK
 10
0.0
 20
0.0
 30
0.0
  9
$PUCSBASE
  2

  9
$PUCSNAME
  2

  9
$PUCSORG
 10
0.0
 20
0.0
 30
0.0
  9
$PUCSXDIR
 10
1.0
 20
0.0
 30
0.0
  9
$PUCSYDIR
 10
0.0
 20
1.0
 30
0.0
  9
$PUCSORTHOREF
  2

  9
$PUCSORTHOVIEW
 70
               0
  9
$PUCSORGTOP
 10
0.0
 20
0.0
 30
0.0
  9
$PUCSORGBOTTOM
 10
0.0
 20
0.0
 30
0.0
  9
$PUCSORGLEFT
 10
0.0
 20
0.0
 30
0.0
  9
$PUCSORGRIGHT
 10
0.0
 20
0.0
 30
0.0
  9
$PUCSORGFRONT
 10
0.0
 20
0.0
 30
0.0
  9
$PUCSORGBACK
 10
0.0
 20
0.0
 30
0.0
  9
$USERI1
 70
               0
  9
$USERI2
 70
               0
  9
$USERI3
 70
               0
  9
$USERI4
 70
               0
  9
$USERI5
 70
               0
  9
$USERR1
 40
0.0
  9
$USERR2
 40
0.0
  9
$USERR3
 40
0.0
  9
$USERR4
 40
0.0
  9
$USERR5
 40
0.0
  9
$WORLDVIEW
 70
               1
  9
$SHADEDGE
 70
               3
  9
$SHADEDIF
 70
              70
  9
$TILEMODE
 70
               1
  9
$MAXACTVP
 70
              64
  9
$PINSBASE
 10
0.0
 20
0.0
 30
0.0
  9
$PLIMCHECK
 70
               0
  9
$PEXTMIN
 10
1.0000000000000000E+20
 20
1.0000000000000000E+20
 30
1.0000000000000000E+20
  9
$PEXTMAX
 10
-1.0000000000000000E+20
 20
-1.0000000000000000E+20
 30
-1.0000000000000000E+20
  9
$PLIMMIN
 10
0.0
 20
0.0
  9
$PLIMMAX
 10
12.0
 20
9.0
  9
$UNITMODE
 70
               0
  9
$VISRETAIN
 70
               0
  9
$PLINEGEN
 70
               1
  9
$PSLTSCALE
 70
               0
  9
$TREEDEPTH
 70
            3020
  9
$CMLSTYLE
  2
Standard
  9
$CMLJUST
 70
               0
  9
$CMLSCALE
 40
1.0
  9
$PROXYGRAPHICS
 70
               0
  9
$MEASUREMENT
 70
               1
  9
$CELWEIGHT
370
               0
  9
$ENDCAPS
280
               0
  9
$JOINSTYLE
280
               0
  9
$LWDISPLAY
290
               1
  9
$INSUNITS
 70
               4
  9
$HYPERLINKBASE
  1

  9
$STYLESHEET
  1

  9
$XEDIT
290
               1
  9
$CEPSNTYPE
380
               0
  9
$PSTYLEMODE
290
               1
  9
$FINGERPRINTGUID
  2

  9
$VERSIONGUID
  2

  9
$EXTNAMES
290
               1
  9
$PSVPSCALE
 40
0.0
  0
ENDSEC
  0
SECTION
  2
CLASSES
  0
CLASS
  1
LWPOLYLINE
  2
AcDbPolyline
  3
AutoCAD 2000
 90
        0
280
               0
281
               1
  0
CLASS
  1
IMAGE
  2
AcDbRasterImage
  3
ISM
 90
      127
280
               0
281
               1
  0
CLASS
  1
OLE2FRAME
  2
AcDbOle2Frame
  3
AutoCAD 2000
 90
        0
280
               0
281
               1
  0
CLASS
  1
HATCH
  2
AcDbHatch
  3
AutoCAD 2000
 90
        0
280
               0
281
               1
  0
CLASS
  1
DICTIONARYVAR
  2
AcDbDictionaryVar
  3
AutoCAD 2000
 90
        0
280
               0
281
               0
  0
CLASS
  1
RASTERVARIABLES
  2
AcDbRasterVariables
  3
ISM
 90
        0
280
               0
281
               0
  0
CLASS
  1
IMAGEDEF
  2
AcDbRasterImageDef
  3
ISM
 90
        0
280
               0
281
               0
  0
CLASS
  1
IMAGEDEF_REACTOR
  2
AcDbRasterImageDefReactor
  3
ISM
 90
        1
280
               0
281
               0
  0
CLASS
  1
IDBUFFER
  2
AcDbIdBuffer
  3
AutoCAD 2000
 90
        0
280
               0
281
               0
  0
CLASS
  1
SPATIAL_FILTER
  2
AcDbSpatialFilter
  3
AutoCAD 2000
 90
        0
280
               0
281
               0
  0
CLASS
  1
XRECORD
  2
AcDbXrecord
  3
AutoCAD 2000
 90
        0
280
               0
281
               0
  0
CLASS
  1
SORTENTSTABLE
  2
AcDbSortentsTable
  3
AutoCAD 2000
 90
        0
280
               0
281
               0
  0
CLASS
  1
LAYER_INDEX
  2
AcDbLayerIndex
  3
AutoCAD 2000
 90
        0
280
               0
281
               0
  0
CLASS
  1
SPATIAL_INDEX
  2
AcDbSpatialIndex
  3
AutoCAD 2000
 90
        0
280
               0
281
               0
  0
CLASS
  1
OBJECT_PTR
  2
CAseDLPNTableRecord
  3
"ASE-LPNTableRecord"
 90
        1
280
               0
281
               0
  0
CLASS
  1
LAYOUT
  2
AcDbLayout
  3
AutoCAD 2000
 90
        0
280
               0
281
               0
  0
CLASS
  1
PLOTSETTINGS
  2
AcDbPlotSettings
  3
AutoCAD 2000
 90
        0
280
               0
281
               0
  0
CLASS
  1
ACDBDICTIONARYWDFLT
  2
AcDbDictionaryWithDefault
  3
AutoCAD 2000
 90
        0
280
               0
281
               0
  0
CLASS
  1
ACDBPLACEHOLDER
  2
AcDbPlaceHolder
  3
AutoCAD 2000
 90
        0
280
               0
281
               0
  0
ENDSEC
  0
SECTION
  2
TABLES
  0
TABLE
  2
VPORT
  5
7
100
AcDbSymbolTable
 70
               1
  0
VPORT
  5
15
100
AcDbSymbolTableRecord
100
AcDbViewportTableRecord
  2
*ACTIVE
 70
               0
 10
0.0
 20
0.0
 11
1.0
 21
1.0
 12
0.0
 22
-12.764114914906941
 13
0.0
 23
0.0
 14
1.0
 24
1.0
 15
0.0
 25
0.0
 16
0.0
 26
0.0
 36
1.0
 17
0.0
 27
0.0
 37
0.0
 40
2837.5228151124124
 41
0.688564
 42
50.0
 43
0.0
 44
0.0
 50
0.0
 51
0.0
 71
               0
 72
            2000
 73
               1
 74
               1
 75
               0
 76
               0
 77
               0
 78
               0
281
               0
 65
               0
110
0.0
120
0.0
130
0.0
111
1.0
121
0.0
131
0.0
112
0.0
122
1.0
132
0.0
345
0
346
0
 79
               0
146
0.0
  0
ENDTAB
  0
TABLE
  2
LTYPE
  5
4
100
AcDbSymbolTable
 70
              15
  0
LTYPE
  5
11
100
AcDbSymbolTableRecord
100
AcDbLinetypeTableRecord
  2
ByBlock
 70
              64
  3

 72
              65
 73
               0
 40
0.0
  0
LTYPE
  5
12
100
AcDbSymbolTableRecord
100
AcDbLinetypeTableRecord
  2
ByLayer
 70
              64
  3

 72
              65
 73
               0
 40
0.0
  0
LTYPE
  5
13
100
AcDbSymbolTableRecord
100
AcDbLinetypeTableRecord
  2
Continuous
 70
              64
  3
Solid line
 72
              65
 73
               0
 40
0.0
  0
LTYPE
  5
42
100
AcDbSymbolTableRecord
100
AcDbLinetypeTableRecord
  2
STYLE_01
 70
               0
  3

 72
              65
 73
               2
 40
0.7944425196850393
 49
0.4766653543307087
 74
               0
 49
-0.3177771653543307
 74
               0
  0
LTYPE
  5
43
100
AcDbSymbolTableRecord
100
AcDbLinetypeTableRecord
  2
STYLE_02
 70
               0
  3

 72
              65
 73
               2
 40
0.8724976377952755
 49
0.4362488188976377
 74
               0
 49
-0.4362488188976377
 74
               0
  0
LTYPE
  5
44
100
AcDbSymbolTableRecord
100
AcDbLinetypeTableRecord
  2
STYLE_03
 70
               0
  3

 72
              65
 73
               2
 40
0.8724976377952755
 49
0.4362488188976377
 74
               0
 49
-0.4362488188976377
 74
               0
  0
LTYPE
  5
45
100
AcDbSymbolTableRecord
100
AcDbLinetypeTableRecord
  2
STYLE_04
 70
               0
  3

 72
              65
 73
               2
 40
0.8724976377952755
 49
0.4362488188976377
 74
               0
 49
-0.4362488188976377
 74
               0
  0
LTYPE
  5
46
100
AcDbSymbolTableRecord
100
AcDbLinetypeTableRecord
  2
STYLE_05
 70
               0
  3

 72
              65
 73
               2
 40
1.1916645669291339
 49
0.595832283464567
 74
               0
 49
-0.595832283464567
 74
               0
  0
LTYPE
  5
47
100
AcDbSymbolTableRecord
100
AcDbLinetypeTableRecord
  2
STYLE_06
 70
               0
  3

 72
              65
 73
               2
 40
0.2777779527559055
 49
0.2777779527559055
 74
               0
 49
-0.001
 74
               0
  0
LTYPE
  5
48
100
AcDbSymbolTableRecord
100
AcDbLinetypeTableRecord
  2
STYLE_07
 70
               0
  3

 72
              65
 73
               6
 40
3.75
 49
1.25
 74
               0
 49
-0.41656
 74
               0
 49
1.2500000000000002
 74
               0
 49
-0.4167199999999999
 74
               0
 49
0.1388600000000001
 74
               0
 49
-0.2778599999999998
 74
               0
  0
LTYPE
  5
49
100
AcDbSymbolTableRecord
100
AcDbLinetypeTableRecord
  2
STYLE_08
 70
               0
  3

 72
              65
 73
               6
 40
2.5
 49
1.25
 74
               0
 49
-0.41656
 74
               0
 49
0.1388600000000001
 74
               0
 49
-0.2778600000000001
 74
               0
 49
0.1388599999999998
 74
               0
 49
-0.2778600000000001
 74
               0
  0
LTYPE
  5
4A
100
AcDbSymbolTableRecord
100
AcDbLinetypeTableRecord
  2
STYLE_09
 70
               0
  3

 72
              65
 73
               4
 40
10.0
 49
7.5
 74
               0
 49
-0.5555699999999997
 74
               0
 49
1.3888600000000006
 74
               0
 49
-0.5555699999999997
 74
               0
  0
LTYPE
  5
4B
100
AcDbSymbolTableRecord
100
AcDbLinetypeTableRecord
  2
STYLE_10
 70
               0
  3

 72
              65
 73
               6
 40
11.875
 49
7.5
 74
               0
 49
-0.5555699999999997
 74
               0
 49
1.3888600000000006
 74
               0
 49
-0.5555699999999997
 74
               0
 49
1.25
 74
               0
 49
-0.625
 74
               0
  0
LTYPE
  5
4C
100
AcDbSymbolTableRecord
100
AcDbLinetypeTableRecord
  2
STYLE_11
 70
               0
  3

 72
              65
 73
               2
 40
0.1388889763779528
 49
0.0694444881889764
 74
               0
 49
-0.0694444881889764
 74
               0
  0
LTYPE
  5
4D
100
AcDbSymbolTableRecord
100
AcDbLinetypeTableRecord
  2
STYLE_12
 70
               0
  3

 72
              65
 73
               2
 40
0.7874015748031495
 49
0.3937007874015748
 74
               0
 49
-0.3937007874015748
 74
               0
  0
ENDTAB
  0
TABLE
  2
LAYER
  5
2
100
AcDbSymbolTable
 70
               5
  0
LAYER
  5
14
100
AcDbSymbolTableRecord
100
AcDbLayerTableRecord
  2
0
 70
               0
 62
               7
  6
Continuous
290
               1
370
              -3
390
1D
  0
LAYER
  5
4E
100
AcDbSymbolTableRecord
100
AcDbLayerTableRecord
  2
Defpoints
 70
               0
 62
               7
  6
Continuous
290
               0
370
              -3
390
1D
  0
LAYER
  5
4F
100
AcDbSymbolTableRecord
100
AcDbLayerTableRecord
  2
template
 70
               0
 62
               7
  6
Continuous
290
               1
370
              -3
390
1D
  0
LAYER
  5
50
100
AcDbSymbolTableRecord
100
AcDbLayerTableRecord
  2
notes
 70
               0
 62
               7
  6
Continuous
290
               1
370
              -3
390
1D
  0
LAYER
  5
51
100
AcDbSymbolTableRecord
100
AcDbLayerTableRecord
  2
ADF70-1601
 70
               0
 62
               7
  6
Continuous
290
               1
370
              -3
390
1D
  0
ENDTAB
  0
TABLE
  2
STYLE
  5
3
100
AcDbSymbolTable
 70
               2
  0
STYLE
  5
17
100
AcDbSymbolTableRecord
100
AcDbTextStyleTableRecord
  2
Standard
 70
               0
 40
0.0
 41
1.0
 50
0.0
 71
               0
 42
0.0
  3
txt
  4
BIGFONT.SHX
  0
STYLE
  5
41
100
AcDbSymbolTableRecord
100
AcDbTextStyleTableRecord
  2
ＭＳ ゴシック
 70
               0
 40
0.0
 41
1.0
 50
0.0
 71
               0
 42
0.0
  3

  4
ＭＳ ゴシック
1001
ACAD
1000
ＭＳ ゴシック
1071
        0
  0
ENDTAB
  0
TABLE
  2
VIEW
  5
5
100
AcDbSymbolTable
 70
               0
  0
ENDTAB
  0
TABLE
  2
UCS
  5
6
100
AcDbSymbolTable
 70
               0
  0
ENDTAB
  0
TABLE
  2
APPID
  5
8
100
AcDbSymbolTable
 70
               1
  0
APPID
  5
16
100
AcDbSymbolTableRecord
100
AcDbRegAppTableRecord
  2
ACAD
 70
               0
  0
ENDTAB
  0
TABLE
  2
DIMSTYLE
  5
9
100
AcDbSymbolTable
 70
               3
100
AcDbDimStyleTable
 71
               0
  0
DIMSTYLE
105
18
100
AcDbSymbolTableRecord
100
AcDbDimStyleTableRecord
  2
Standard
 70
               0
  3

  4

 40
1.0
 41
0.18
 42
0.0625
 43
0.38
 44
0.18
 45
0.0
 46
0.0
 47
0.0
 48
0.0
 71
               0
 72
               0
 73
               1
 74
               1
 75
               0
 76
               0
 77
               0
 78
               0
 79
               0
140
0.18
141
0.09
142
0.0
143
25.399999999999999
144
1.0
145
0.0
146
1.0
147
0.09
148
0.0
170
               0
171
               2
172
               0
173
               0
174
               0
175
               0
176
               0
177
               0
178
               0
179
               0
271
               4
272
               4
273
               2
274
               2
275
               0
276
               0
277
               2
278
              46
279
               0
280
               0
281
               0
282
               0
283
               1
284
               0
285
               0
286
               0
288
               0
289
               3
340
17
341
0
342
0
343
0
344
0
371
              -2
372
              -2
  0
DIMSTYLE
105
5A
100
AcDbSymbolTableRecord
100
AcDbDimStyleTableRecord
  2
Tform線あり
 70
               0
  3
<>
  4
[]
 40
1.0
 41
9.9993896484374982
 42
24.999999999999996
 43
0.9999999999999999
 44
0.0
 45
0.0
 46
0.0
 47
0.0
 48
0.0
 71
               0
 72
               0
 73
               0
 74
               0
 75
               0
 76
               0
 77
               1
 78
              11
 79
               0
140
24.432617187500004
141
0.0
142
0.0
143
1.0
144
1.0
145
0.0
146
1.0
147
0.4999999999999999
148
0.0
170
               0
171
               1
172
               0
173
               0
174
               1
175
               0
176
               0
177
               0
178
               0
179
               2
271
               1
272
               1
273
               2
274
               2
275
               0
276
               2
277
               2
278
              46
279
               0
280
               0
281
               0
282
               0
283
               1
284
              11
285
              11
286
              11
288
               0
289
               0
340
41
341
52
342
52
343
0
344
0
371
              -2
372
              -2
  0
DIMSTYLE
105
5F
100
AcDbSymbolTableRecord
100
AcDbDimStyleTableRecord
  2
JIS
 70
               0
  3
<>
  4
[]
 40
1.0
 41
31.75
 42
0.0
 43
6.9999999999999396
 44
19.999999999996199
 45
0.0
 46
0.0
 47
0.0
 48
0.0
 71
               0
 72
               0
 73
               0
 74
               0
 75
               0
 76
               0
 77
               1
 78
              11
 79
               0
140
24.432617187500004
141
0.0
142
0.0
143
1.0
144
1.0
145
0.0
146
1.0
147
1.00000000000108
148
0.0
170
               0
171
               1
172
               0
173
               0
174
               1
175
               0
176
               0
177
               0
178
               0
179
               2
271
               1
272
               1
273
               2
274
               2
275
               0
276
               2
277
               2
278
              46
279
               0
280
               0
281
               0
282
               0
283
               1
284
              11
285
              11
286
              11
288
               0
289
               0
340
41
341
5B
342
5B
343
0
344
0
371
              -2
372
              -2
  0
ENDTAB
  0
TABLE
  2
BLOCK_RECORD
  5
1
100
AcDbSymbolTable
 70
              32
  0
BLOCK_RECORD
  5
A
100
AcDbSymbolTableRecord
100
AcDbBlockTableRecord
  2
*MODEL_SPACE
340
20
  0
BLOCK_RECORD
  5
B
100
AcDbSymbolTableRecord
100
AcDbBlockTableRecord
  2
*PAPER_SPACE
340
21
  0
BLOCK_RECORD
  5
52
100
AcDbSymbolTableRecord
100
AcDbBlockTableRecord
  2
_DOT
340
0
  0
BLOCK_RECORD
  5
5B
100
AcDbSymbolTableRecord
100
AcDbBlockTableRecord
  2
VW_FILLEDARROW
340
0
  0
BLOCK_RECORD
  5
23
100
AcDbSymbolTableRecord
100
AcDbBlockTableRecord
  2
グループ
340
0
102
{BLKREFS
331
1D5
102
}
  0
BLOCK_RECORD
  5
24
100
AcDbSymbolTableRecord
100
AcDbBlockTableRecord
  2
*D3
340
0
  0
BLOCK_RECORD
  5
25
100
AcDbSymbolTableRecord
100
AcDbBlockTableRecord
  2
*D4
340
0
  0
BLOCK_RECORD
  5
26
100
AcDbSymbolTableRecord
100
AcDbBlockTableRecord
  2
*D5
340
0
  0
BLOCK_RECORD
  5
27
100
AcDbSymbolTableRecord
100
AcDbBlockTableRecord
  2
*D6
340
0
  0
BLOCK_RECORD
  5
28
100
AcDbSymbolTableRecord
100
AcDbBlockTableRecord
  2
*D7
340
0
  0
BLOCK_RECORD
  5
29
100
AcDbSymbolTableRecord
100
AcDbBlockTableRecord
  2
*D8
340
0
  0
BLOCK_RECORD
  5
2A
100
AcDbSymbolTableRecord
100
AcDbBlockTableRecord
  2
*D9
340
0
  0
BLOCK_RECORD
  5
2B
100
AcDbSymbolTableRecord
100
AcDbBlockTableRecord
  2
*D10
340
0
  0
BLOCK_RECORD
  5
2C
100
AcDbSymbolTableRecord
100
AcDbBlockTableRecord
  2
*D11
340
0
  0
BLOCK_RECORD
  5
2D
100
AcDbSymbolTableRecord
100
AcDbBlockTableRecord
  2
*D12
340
0
  0
BLOCK_RECORD
  5
2E
100
AcDbSymbolTableRecord
100
AcDbBlockTableRecord
  2
*D13
340
0
  0
BLOCK_RECORD
  5
2F
100
AcDbSymbolTableRecord
100
AcDbBlockTableRecord
  2
*D14
340
0
  0
BLOCK_RECORD
  5
30
100
AcDbSymbolTableRecord
100
AcDbBlockTableRecord
  2
*D15
340
0
  0
BLOCK_RECORD
  5
31
100
AcDbSymbolTableRecord
100
AcDbBlockTableRecord
  2
グループ-1
340
0
102
{BLKREFS
331
1F4
102
}
  0
BLOCK_RECORD
  5
32
100
AcDbSymbolTableRecord
100
AcDbBlockTableRecord
  2
*D17
340
0
  0
BLOCK_RECORD
  5
33
100
AcDbSymbolTableRecord
100
AcDbBlockTableRecord
  2
*D18
340
0
  0
BLOCK_RECORD
  5
34
100
AcDbSymbolTableRecord
100
AcDbBlockTableRecord
  2
*D19
340
0
  0
BLOCK_RECORD
  5
35
100
AcDbSymbolTableRecord
100
AcDbBlockTableRecord
  2
*D20
340
0
  0
BLOCK_RECORD
  5
36
100
AcDbSymbolTableRecord
100
AcDbBlockTableRecord
  2
*D21
340
0
  0
BLOCK_RECORD
  5
37
100
AcDbSymbolTableRecord
100
AcDbBlockTableRecord
  2
*D22
340
0
  0
BLOCK_RECORD
  5
38
100
AcDbSymbolTableRecord
100
AcDbBlockTableRecord
  2
*D23
340
0
  0
BLOCK_RECORD
  5
39
100
AcDbSymbolTableRecord
100
AcDbBlockTableRecord
  2
*D24
340
0
  0
BLOCK_RECORD
  5
3A
100
AcDbSymbolTableRecord
100
AcDbBlockTableRecord
  2
*D25
340
0
  0
BLOCK_RECORD
  5
3B
100
AcDbSymbolTableRecord
100
AcDbBlockTableRecord
  2
*D26
340
0
  0
BLOCK_RECORD
  5
3C
100
AcDbSymbolTableRecord
100
AcDbBlockTableRecord
  2
*D27
340
0
  0
BLOCK_RECORD
  5
3D
100
AcDbSymbolTableRecord
100
AcDbBlockTableRecord
  2
*D28
340
0
  0
BLOCK_RECORD
  5
3E
100
AcDbSymbolTableRecord
100
AcDbBlockTableRecord
  2
グループ-2
340
0
102
{BLKREFS
331
256
102
}
  0
BLOCK_RECORD
  5
3F
100
AcDbSymbolTableRecord
100
AcDbBlockTableRecord
  2
グループ-3
340
0
102
{BLKREFS
331
1CA
102
}
  0
BLOCK_RECORD
  5
40
100
AcDbSymbolTableRecord
100
AcDbBlockTableRecord
  2
グループ-4
340
0
102
{BLKREFS
331
257
102
}
  0
ENDTAB
  0
ENDSEC
  0
SECTION
  2
BLOCKS
  0
BLOCK
  5
D
100
AcDbEntity
  8
0
390
0
100
AcDbBlockBegin
  2
*MODEL_SPACE
 70
               0
 10
0.0
 20
0.0
 30
0.0
  3
*MODEL_SPACE
  1

  0
ENDBLK
  5
E
100
AcDbEntity
  8
0
390
0
100
AcDbBlockEnd
  0
BLOCK
  5
F
100
AcDbEntity
 67
               1
  8
0
390
0
100
AcDbBlockBegin
  2
*PAPER_SPACE
 70
               0
 10
0.0
 20
0.0
 30
0.0
  3
*PAPER_SPACE
  1

  0
ENDBLK
  5
10
100
AcDbEntity
 67
               1
  8
0
390
0
100
AcDbBlockEnd
  0
BLOCK
  5
53
100
AcDbEntity
  8
0
390
0
100
AcDbBlockBegin
  2
_DOT
 70
               0
 10
0.0
 20
0.0
 30
0.0
  3
_DOT
  1

  0
POLYLINE
  5
54
100
AcDbEntity
  8
0
370
              -2
390
0
  6
ByBlock
 62
               0
100
AcDb2dPolyline
 66
               1
 10
0.0
 20
0.0
 30
0.0
 70
               1
 40
0.5
 41
0.5
  0
VERTEX
  5
55
100
AcDbEntity
  8
0
370
              -2
390
0
  6
ByBlock
 62
               0
100
AcDbVertex
100
AcDb2dVertex
 10
-0.25
 20
0.0
 30
0.0
 42
1.0
  0
VERTEX
  5
56
100
AcDbEntity
  8
0
370
              -2
390
0
  6
ByBlock
 62
               0
100
AcDbVertex
100
AcDb2dVertex
 10
0.25
 20
0.0
 30
0.0
 42
1.0
  0
SEQEND
  5
57
100
AcDbEntity
  8
0
390
0
  0
LINE
  5
58
100
AcDbEntity
  8
0
370
              -2
390
0
  6
ByBlock
 62
               0
100
AcDbLine
 10
-0.5
 20
0.0
 30
0.0
 11
-1.0
 21
0.0
 31
0.0
  0
ENDBLK
  5
59
100
AcDbEntity
  8
0
390
0
100
AcDbBlockEnd
  0
BLOCK
  5
5C
100
AcDbEntity
  8
0
370
              -2
390
0
  6
ByBlock
 62
               0
100
AcDbBlockBegin
  2
VW_FILLEDARROW
 70
               0
 10
0.0
 20
0.0
 30
0.0
  3
VW_FILLEDARROW
  1

  0
SOLID
  5
5D
100
AcDbEntity
  8
0
370
              -2
390
0
 62
               0
100
AcDbTrace
 10
0.0
 20
0.0
 30
0.0
 11
-0.9921874999999999
 21
-0.2658558393652545
 31
0.0
 12
-0.9921874999999999
 22
0.2658558393652548
 32
0.0
 13
-0.9921874999999999
 23
0.2658558393652548
 33
0.0
  0
ENDBLK
  5
5E
100
AcDbEntity
  8
0
390
0
100
AcDbBlockEnd
  0
BLOCK
  5
60
100
AcDbEntity
  8
template
390
0
100
AcDbBlockBegin
  2
グループ
 70
               0
 10
0.0
 20
0.0
 30
0.0
  3
グループ
  1

  0
LWPOLYLINE
  5
61
100
AcDbEntity
  8
0
370
              15
390
0
  6
Continuous
 62
               7
100
AcDbPolyline
 90
        8
 70
             129
 10
779.24749977807483
 20
-1482.7746566486858
 10
779.24749977807483
 20
-1488.7720453422617
 10
769.74630286007152
 20
-1488.7720453422617
 10
769.74630286007152
 20
-1513.2230086057707
 10
761.39092559828873
 20
-1513.2230086057707
 10
761.39092559828873
 20
-1488.7720453422617
 10
752.05796865197931
 20
-1488.7720453422617
 10
752.05796865197931
 20
-1482.7746566486858
  0
LWPOLYLINE
  5
62
100
AcDbEntity
  8
0
370
              15
390
0
  6
Continuous
 62
               7
100
AcDbPolyline
 90
      101
 70
             128
 10
791.97579160863177
 20
-1483.5029051416223
 10
791.99114163741615
 20
-1483.4985443849373
 42
-0.0222221607813494
 10
792.28114621408781
 20
-1483.4299199196926
 10
792.29693997808135
 20
-1483.4269164965956
 42
-0.0146883565586107
 10
792.55964268330558
 20
-1483.3849133096462
 42
-0.0127458844185423
 10
792.82428165045974
 20
-1483.3573763415736
 10
792.88673672877144
 20
-1483.3524829189855
 42
-0.0198099018567985
 10
793.27758583824584
 20
-1483.337397761589
 10
793.32939730769203
 20
-1483.3374515372541
 42
-0.0147617382760541
 10
793.82402076866595
 20
-1483.352571562499
 10
793.89671222354025
 20
-1483.3569441693867
 42
-0.0162624549003285
 10
794.28686585300579
 20
-1483.3931770446591
 10
794.40839824427201
 20
-1483.4084636036566
 42
-0.0080020874666145
 10
794.5539772753566
 20
-1483.429146450924
 10
794.59229674593632
 20
-1483.4352177287326
 42
-0.0053821929680612
 10
794.6607808512664
 20
-1483.4468252525567
 10
793.93437515206779
 20
-1485.6277537082706
 42
0.0108667757391571
 10
793.86705808193437
 20
-1485.6145665930501
 10
793.8295900587475
 20
-1485.6080688504562
 42
0.0170663203312767
 10
793.6863732718308
 20
-1485.5882392531644
 10
793.61849793914894
 20
-1485.581192082577
 42
0.022016237527589
 10
793.33811853129316
 20
-1485.5645097218069
 10
793.26026296424175
 20
-1485.5633103545404
 42
0.0282606915783777
 10
792.92462664066363
 20
-1485.5771136315093
 10
792.8807133668912
 20
-1485.5814136215129
 42
0.0169677213689199
 10
792.63478887193241
 20
-1485.6139506710649
 42
0.0190576269861848
 10
792.39188090935488
 20
-1485.6640975431708
 10
792.38562172124148
 20
-1485.6656405172807
 42
0.0213685642841822
 10
792.13523723676235
 20
-1485.7388408023858
 10
792.12974734184752
 20
-1485.7407037984444
 42
0.0237595297599508
 10
791.87625245694881
 20
-1485.84038832034
 10
791.87115038291915
 20
-1485.8426800958182
 42
0.0261857468813083
 10
791.61897960668978
 20
-1485.9722164331924
 10
791.60855341760089
 20
-1485.9782819076618
 42
0.0272553062024154
 10
791.3721236423637
 20
-1486.1336541136054
 10
791.337360628851
 20
-1486.1593152617002
 42
0.032599689318496
 10
791.18720528520271
 20
-1486.2860631346691
 10
791.16349585607315
 20
-1486.3088811631883
 42
0.0138050960642736
 10
791.07161269986955
 20
-1486.4023308247336
 42
0.0125280103799938
 10
790.9847701670393
 20
-1486.5004941513296
 10
790.96108972212767
 20
-1486.5286526495208
 42
0.0205218024738765
 10
790.83598964661371
 20
-1486.6904459637501
 10
790.81352330612685
 20
-1486.7221056935769
 42
0.0163110129584179
 10
790.65781292687439
 20
-1486.9574361286486
 10
790.65508903082457
 20
-1486.9618598906322
 42
0.0131897341894387
 10
790.50828850992036
 20
-1487.2149919829938
 10
790.5065884145522
 20
-1487.2181102221325
 42
0.0107895576061557
 10
790.36881171234177
 20
-1487.484325431767
 10
790.36807882281641
 20
-1487.4858196644143
 42
0.0091371507216041
 10
790.2395988741639
 20
-1487.7603448621803
 10
790.20985324275762
 20
-1487.8270513693326
 42
0.0135418326351591
 10
790.03813930368472
 20
-1488.2419891546047
 10
790.00453449525503
 20
-1488.329855296874
 42
0.0092834542409877
 10
789.83330543533089
 20
-1488.803753795188
 10
789.80768830761781
 20
-1488.8789948649676
 42
0.0054261043576798
 10
789.7000501593202
 20
-1489.2067588380464
 10
789.6825241731359
 20
-1489.2621470002982
 42
0.0008225090811194
 10
789.61385412131278
 20
-1489.4804157584258
 10
788.62916498937932
 20
-1492.5053070516824
 10
791.86178882945319
 20
-1492.5053070516824
 10
791.35759639959974
 20
-1494.4097853500348
 10
788.10154011761642
 20
-1494.4097853500348
 10
782.2723910852626
 20
-1513.2230084160396
 10
780.44729347495229
 20
-1513.2230084160396
 10
786.28197151045322
 20
-1494.4097853500348
 10
783.87685514141288
 20
-1494.4097853500348
 10
784.38104757126632
 20
-1492.5053070516824
 10
786.80959638221634
 20
-1492.5053070516824
 10
787.66975130040498
 20
-1489.8688940509833
 42
-0.0005863560640558
 10
787.7064859785819
 20
-1489.7520676307759
 10
787.78257381226888
 20
-1489.5110753313061
 42
-0.0087522378926907
 10
787.98204195572498
 20
-1488.9157992441617
 10
788.07430623113703
 20
-1488.6556590756525
 42
-0.007740095383024
 10
788.33223989027033
 20
-1487.9626543980985
 10
788.34800486185031
 20
-1487.9222235147097
 42
-0.0082369946329667
 10
788.59508933246116
 20
-1487.3181444485167
 42
-0.0085725238365047
 10
788.86233542846344
 20
-1486.7227184092308
 10
788.96396502947141
 20
-1486.5062973072445
 42
-0.016810941059616
 10
789.25090945820148
 20
-1485.94508978114
 10
789.37675284867851
 20
-1485.71812574811
 42
-0.0007817726860068
 10
789.43103719871715
 20
-1485.6205815031117
 10
789.43116550472291
 20
-1485.6203517943959
 42
-0.0036626142163471
 10
789.48605336875562
 20
-1485.5237539144068
 42
-0.008022115067107
 10
789.54317762416349
 20
-1485.428474679652
 10
789.57387757552351
 20
-1485.3790837305316
 42
-0.0202139325572052
 10
789.70153331533083
 20
-1485.1911021298492
 10
789.75560078051785
 20
-1485.1180232656093
 42
-0.0249323791796115
 10
790.01476357423746
 20
-1484.8019780234545
 10
790.03890338836402
 20
-1484.7753637505425
 42
-0.0242132121537565
 10
790.37858412990568
 20
-1484.4354802643388
 10
790.42649570265633
 20
-1484.3919711281528
 42
-0.0251017527861395
 10
790.71047740329732
 20
-1484.1589783823877
 10
790.71192288010752
 20
-1484.1579091248113
 42
-0.0130868069039245
 10
791.01018353006839
 20
-1483.9491286562663
 10
791.0117453492104
 20
-1483.9480952159918
 42
-0.0290329526387386
 10
791.32285649060441
 20
-1483.7672697143619
 10
791.3527020525886
 20
-1483.7521673315232
 42
-0.0160250190050922
 10
791.61860646635523
 20
-1483.6281512213091
 42
-0.0267600374780801
 10
791.89388254382311
 20
-1483.5274029007608
 10
791.92061846334479
 20
-1483.5192103419349
 42
-0.004998158765074
 10
791.97579160863177
 20
-1483.5029051416223
 42
-0.004998158765074
  0
LWPOLYLINE
  5
63
100
AcDbEntity
  8
0
370
              15
390
0
  6
Continuous
 62
               7
100
AcDbPolyline
 90
      118
 70
             128
 10
811.79015917307868
 20
-1492.5792903795095
 10
813.66528109757814
 20
-1492.5792903795095
 10
812.82724219197826
 20
-1495.2608569059098
 42
-0.0010587229225055
 10
812.85869800758303
 20
-1495.2239523725157
 10
812.91689209818219
 20
-1495.1559701163785
 42
-0.0071874740412051
 10
813.06726731627339
 20
-1494.9853294243571
 10
813.20899008954245
 20
-1494.8290932830364
 42
-0.0148118053512785
 10
813.65911938225656
 20
-1494.3614794370221
 10
813.74634171714433
 20
-1494.2760821161821
 42
-0.0086273358696459
 10
814.08189051816544
 20
-1493.9587064821533
 10
814.12572423438337
 20
-1493.9186568378275
 42
-0.0103138323118889
 10
814.38374793662479
 20
-1493.6924937004819
 10
814.42952234295819
 20
-1493.6540116532165
 42
-0.0060206748567466
 10
814.60237040706409
 20
-1493.5122170024674
 10
814.60440153796503
 20
-1493.5105912968243
 42
-0.006706902728309
 10
814.77669435261259
 20
-1493.3764406630412
 10
814.77924311853474
 20
-1493.3745104931688
 42
-0.0076184352053989
 10
814.95014838440989
 20
-1493.2491356179221
 42
-0.0089652861669086
 10
815.12510934713987
 20
-1493.1295023575924
 10
815.16146106728866
 20
-1493.1055911441069
 42
-0.0156916245941852
 10
815.35742056444951
 20
-1492.9853286576322
 42
-0.0023299011060609
 10
815.55768260843547
 20
-1492.8721507180878
 10
815.57306674080917
 20
-1492.8635507230267
 42
-0.010766934148818
 10
815.80730356590857
 20
-1492.739150589678
 10
815.82956836698531
 20
-1492.7279338397273
 42
-0.0078058045894992
 10
816.11315848494235
 20
-1492.5905723840867
 10
816.12306557264719
 20
-1492.5859632562203
 42
-0.0181829330475843
 10
816.4333749772577
 20
-1492.4550995151267
 10
816.48743041983118
 20
-1492.4345843951805
 42
-0.0208411536025806
 10
816.83651538727986
 20
-1492.3184939326879
 10
816.85087148740377
 20
-1492.3143754877356
 42
-0.0222799817144395
 10
817.17959128132452
 20
-1492.2357339215941
 10
817.18848024456361
 20
-1492.2340219110088
 42
-0.0215509523879813
 10
817.50495121284143
 20
-1492.1871062224748
 10
817.54743317389284
 20
-1492.1826686956836
 42
-0.0182545924870534
 10
817.78154195319553
 20
-1492.1668248702929
 10
817.82094296953505
 20
-1492.165600325214
 42
-0.0072962856538053
 10
817.97686584923258
 20
-1492.1630309966915
 10
818.00596551980334
 20
-1492.1629761612878
 42
-0.0059227516321499
 10
818.10371501894952
 20
-1492.1639498730783
 10
818.13295723647491
 20
-1492.1645876396828
 42
-0.0011833111888074
 10
818.17220852015384
 20
-1492.1655366439918
 10
817.37682192454668
 20
-1494.7042705890908
 42
0.0143932051594457
 10
817.35042054219264
 20
-1494.6940716190441
 10
817.3431485697788
 20
-1494.691500400188
 42
0.0234388603506299
 10
817.30131770384412
 20
-1494.6788811644722
 10
817.29263604093398
 20
-1494.6767002024678
 42
0.019916274297907
 10
817.23234720685207
 20
-1494.6640834671323
 10
817.21153326904778
 20
-1494.6605862677043
 42
0.0293643550664957
 10
817.1084584102905
 20
-1494.6494362220512
 10
817.08377322956835
 20
-1494.6482246050325
 42
0.0214606686862117
 10
816.93063231361816
 20
-1494.6472860446149
 10
816.92126040279788
 20
-1494.6476309561592
 42
0.0167564054192346
 10
816.74974021168589
 20
-1494.6597079985277
 10
816.7412804189305
 20
-1494.6605893389544
 42
0.0137677553241618
 10
816.55392710566616
 20
-1494.6853386474979
 10
816.54657536615787
 20
-1494.686516567466
 42
0.0118497261483724
 10
816.34607760205199
 20
-1494.7235339176559
 10
816.3399275948093
 20
-1494.7248207803752
 42
0.0106421143887904
 10
816.12904670752539
 20
-1494.7736531559497
 10
816.12413789913523
 20
-1494.7749004986351
 42
0.0099746379706043
 10
815.90567942997234
 20
-1494.8350750269501
 10
815.84413138980244
 20
-1494.8533569055805
 42
0.019161367586065
 10
815.5081469272842
 20
-1494.9673342858684
 10
815.42008715454392
 20
-1495.0010211961905
 42
0.0205274080143959
 10
815.03478038264075
 20
-1495.1668496040179
 10
814.97713110065843
 20
-1495.1945175685903
 42
0.0181256912193837
 10
814.71885415999179
 20
-1495.3302013875682
 10
814.66589877667673
 20
-1495.3605190007836
 42
0.0140709242407581
 10
814.52094384204952
 20
-1495.4490136742174
 10
814.49469497343841
 20
-1495.4660704929281
 42
0.0086667884392584
 10
814.40576881188849
 20
-1495.5260731608157
 42
0.0036408192028603
 10
814.31833557385721
 20
-1495.5882540186067
 10
814.2831086993865
 20
-1495.6136949645208
 42
0.0052260781277354
 10
814.12688000199637
 20
-1495.7290273511542
 10
814.11067314573575
 20
-1495.7412554617731
 42
0.0050024435899107
 10
813.92466980267943
 20
-1495.8845380300334
 10
813.90935164616178
 20
-1495.8965840524811
 42
0.0136138710275077
 10
813.69891037783771
 20
-1496.0715505573935
 10
813.66524250204293
 20
-1496.1011295301087
 42
0.0172815186917966
 10
813.40083896038004
 20
-1496.3501262027326
 10
813.39827661453774
 20
-1496.3527120198792
 42
0.0189403857989122
 10
813.14769481596159
 20
-1496.6255172846802
 10
813.11506332242004
 20
-1496.6638612161839
 42
0.0185044199503556
 10
812.92310688344264
 20
-1496.9071097973035
 42
0.0088565243902227
 10
812.74464677681226
 20
-1497.1606262174564
 10
812.73546879716571
 20
-1497.1741675972135
 42
0.0157195347236415
 10
812.55224819082753
 20
-1497.4636898065362
 10
812.50616524890529
 20
-1497.5418420035423
 42
0.0095451879779393
 10
812.34107969876311
 20
-1497.8344366459066
 10
812.32993177983224
 20
-1497.8551073180408
 42
0.0100351706259685
 10
812.19788803067422
 20
-1498.1121628785293
 42
0.0086935915419888
 10
812.07555687887861
 20
-1498.373996023937
 10
812.07223613746567
 20
-1498.3814383469055
 42
0.0072580174868084
 10
811.951889685521
 20
-1498.6620303384882
 10
811.94862805221442
 20
-1498.6699503645066
 42
0.006000512261483
 10
811.82942738386805
 20
-1498.9695600351213
 10
811.82621640553009
 20
-1498.9779215630165
 42
0.0049017786979634
 10
811.70731624666848
 20
-1499.2968505436322
 10
811.70415044028221
 20
-1499.3056034808512
 42
0.0039415167607195
 10
811.58471416222051
 20
-1499.6441455432794
 10
811.5815830595734
 20
-1499.6532487441407
 42
0.0031035838763198
 10
811.46077827388115
 20
-1500.0116886059116
 10
811.45766822934991
 20
-1500.0211092272889
 42
0.0025070747154009
 10
811.33476687803943
 20
-1500.3997564442177
 10
811.29747298160919
 20
-1500.5166481094857
 42
0.0029081910284429
 10
811.1054546837961
 20
-1501.1308117677843
 10
811.0646515152813
 20
-1501.2640350100532
 42
0.000926645373279
 10
810.79623414095909
 20
-1502.146259470002
 10
810.77534666840677
 20
-1502.2153713489454
 42
-0.0005809993666308
 10
810.4980099877348
 20
-1503.1291794558517
 10
810.43172818947414
 20
-1503.346664387971
 42
-0.0012018708171265
 10
810.28474388003269
 20
-1503.8248270525321
 10
810.23242402842584
 20
-1503.9935861935307
 42
-0.0002691059607166
 10
810.18885454729855
 20
-1504.1338538137397
 10
807.3558986490093
 20
-1513.2230084160396
 10
805.53790975703077
 20
-1513.2230084160396
 10
811.79015917307868
 20
-1492.5792903795095
  0
SPLINE
  5
64
100
AcDbEntity
  8
0
370
              15
390
0
  6
Continuous
 62
               7
100
AcDbSpline
210
0.0
220
0.0
230
1.0
 70
              13
 71
               2
 72
             782
 73
             779
 74
               0
 42
0.000001
 43
0.000001
 40
0.0
 40
0.0
 40
0.0
 40
1.0
 40
1.0
 40
2.0
 40
2.0
 40
3.0
 40
3.0
 40
4.0
 40
4.0
 40
5.0
 40
5.0
 40
6.0
 40
6.0
 40
7.0
 40
7.0
 40
8.0
 40
8.0
 40
9.0
 40
9.0
 40
10.0
 40
10.0
 40
11.0
 40
11.0
 40
12.0
 40
12.0
 40
13.0
 40
13.0
 40
14.0
 40
14.0
 40
15.0
 40
15.0
 40
16.0
 40
16.0
 40
17.0
 40
17.0
 40
18.0
 40
18.0
 40
19.0
 40
19.0
 40
20.0
 40
20.0
 40
21.0
 40
21.0
 40
22.0
 40
22.0
 40
23.0
 40
23.0
 40
24.0
 40
24.0
 40
25.0
 40
25.0
 40
26.0
 40
26.0
 40
27.0
 40
27.0
 40
28.0
 40
28.0
 40
29.0
 40
29.0
 40
30.0
 40
30.0
 40
31.0
 40
31.0
 40
32.0
 40
32.0
 40
33.0
 40
33.0
 40
34.0
 40
34.0
 40
35.0
 40
35.0
 40
36.0
 40
36.0
 40
37.0
 40
37.0
 40
38.0
 40
38.0
 40
39.0
 40
39.0
 40
40.0
 40
40.0
 40
41.0
 40
41.0
 40
42.0
 40
42.0
 40
43.0
 40
43.0
 40
44.0
 40
44.0
 40
45.0
 40
45.0
 40
46.0
 40
46.0
 40
47.0
 40
47.0
 40
48.0
 40
48.0
 40
49.0
 40
49.0
 40
50.0
 40
50.0
 40
51.0
 40
51.0
 40
52.0
 40
52.0
 40
53.0
 40
53.0
 40
54.0
 40
54.0
 40
55.0
 40
55.0
 40
56.0
 40
56.0
 40
57.0
 40
57.0
 40
58.0
 40
58.0
 40
59.0
 40
59.0
 40
60.0
 40
60.0
 40
61.0
 40
61.0
 40
62.0
 40
62.0
 40
63.0
 40
63.0
 40
64.0
 40
64.0
 40
65.0
 40
65.0
 40
66.0
 40
66.0
 40
67.0
 40
67.0
 40
68.0
 40
68.0
 40
69.0
 40
69.0
 40
70.0
 40
70.0
 40
71.0
 40
71.0
 40
72.0
 40
72.0
 40
73.0
 40
73.0
 40
74.0
 40
74.0
 40
75.0
 40
75.0
 40
76.0
 40
76.0
 40
77.0
 40
77.0
 40
78.0
 40
78.0
 40
79.0
 40
79.0
 40
80.0
 40
80.0
 40
81.0
 40
81.0
 40
82.0
 40
82.0
 40
83.0
 40
83.0
 40
84.0
 40
84.0
 40
85.0
 40
85.0
 40
86.0
 40
86.0
 40
87.0
 40
87.0
 40
88.0
 40
88.0
 40
89.0
 40
89.0
 40
90.0
 40
90.0
 40
91.0
 40
91.0
 40
92.0
 40
92.0
 40
93.0
 40
93.0
 40
94.0
 40
94.0
 40
95.0
 40
95.0
 40
96.0
 40
96.0
 40
97.0
 40
97.0
 40
98.0
 40
98.0
 40
99.0
 40
99.0
 40
100.0
 40
100.0
 40
101.0
 40
101.0
 40
102.0
 40
102.0
 40
103.0
 40
103.0
 40
104.0
 40
104.0
 40
105.0
 40
105.0
 40
106.0
 40
106.0
 40
107.0
 40
107.0
 40
108.0
 40
108.0
 40
109.0
 40
109.0
 40
110.0
 40
110.0
 40
111.0
 40
111.0
 40
112.0
 40
112.0
 40
113.0
 40
113.0
 40
114.0
 40
114.0
 40
115.0
 40
115.0
 40
116.0
 40
116.0
 40
117.0
 40
117.0
 40
118.0
 40
118.0
 40
119.0
 40
119.0
 40
120.0
 40
120.0
 40
121.0
 40
121.0
 40
122.0
 40
122.0
 40
123.0
 40
123.0
 40
124.0
 40
124.0
 40
125.0
 40
125.0
 40
126.0
 40
126.0
 40
127.0
 40
127.0
 40
128.0
 40
128.0
 40
129.0
 40
129.0
 40
130.0
 40
130.0
 40
131.0
 40
131.0
 40
132.0
 40
132.0
 40
133.0
 40
133.0
 40
134.0
 40
134.0
 40
135.0
 40
135.0
 40
136.0
 40
136.0
 40
137.0
 40
137.0
 40
138.0
 40
138.0
 40
139.0
 40
139.0
 40
140.0
 40
140.0
 40
141.0
 40
141.0
 40
142.0
 40
142.0
 40
143.0
 40
143.0
 40
144.0
 40
144.0
 40
145.0
 40
145.0
 40
146.0
 40
146.0
 40
147.0
 40
147.0
 40
148.0
 40
148.0
 40
149.0
 40
149.0
 40
150.0
 40
150.0
 40
151.0
 40
151.0
 40
152.0
 40
152.0
 40
153.0
 40
153.0
 40
154.0
 40
154.0
 40
155.0
 40
155.0
 40
156.0
 40
156.0
 40
157.0
 40
157.0
 40
158.0
 40
158.0
 40
159.0
 40
159.0
 40
160.0
 40
160.0
 40
161.0
 40
161.0
 40
162.0
 40
162.0
 40
163.0
 40
163.0
 40
164.0
 40
164.0
 40
165.0
 40
165.0
 40
166.0
 40
166.0
 40
167.0
 40
167.0
 40
168.0
 40
168.0
 40
169.0
 40
169.0
 40
170.0
 40
170.0
 40
171.0
 40
171.0
 40
172.0
 40
172.0
 40
173.0
 40
173.0
 40
174.0
 40
174.0
 40
175.0
 40
175.0
 40
176.0
 40
176.0
 40
177.0
 40
177.0
 40
178.0
 40
178.0
 40
179.0
 40
179.0
 40
180.0
 40
180.0
 40
181.0
 40
181.0
 40
182.0
 40
182.0
 40
183.0
 40
183.0
 40
184.0
 40
184.0
 40
185.0
 40
185.0
 40
186.0
 40
186.0
 40
187.0
 40
187.0
 40
188.0
 40
188.0
 40
189.0
 40
189.0
 40
190.0
 40
190.0
 40
191.0
 40
191.0
 40
192.0
 40
192.0
 40
193.0
 40
193.0
 40
194.0
 40
194.0
 40
195.0
 40
195.0
 40
196.0
 40
196.0
 40
197.0
 40
197.0
 40
198.0
 40
198.0
 40
199.0
 40
199.0
 40
200.0
 40
200.0
 40
201.0
 40
201.0
 40
202.0
 40
202.0
 40
203.0
 40
203.0
 40
204.0
 40
204.0
 40
205.0
 40
205.0
 40
206.0
 40
206.0
 40
207.0
 40
207.0
 40
208.0
 40
208.0
 40
209.0
 40
209.0
 40
210.0
 40
210.0
 40
211.0
 40
211.0
 40
212.0
 40
212.0
 40
213.0
 40
213.0
 40
214.0
 40
214.0
 40
215.0
 40
215.0
 40
216.0
 40
216.0
 40
217.0
 40
217.0
 40
218.0
 40
218.0
 40
219.0
 40
219.0
 40
220.0
 40
220.0
 40
221.0
 40
221.0
 40
222.0
 40
222.0
 40
223.0
 40
223.0
 40
224.0
 40
224.0
 40
225.0
 40
225.0
 40
226.0
 40
226.0
 40
227.0
 40
227.0
 40
228.0
 40
228.0
 40
229.0
 40
229.0
 40
230.0
 40
230.0
 40
231.0
 40
231.0
 40
232.0
 40
232.0
 40
233.0
 40
233.0
 40
234.0
 40
234.0
 40
235.0
 40
235.0
 40
236.0
 40
236.0
 40
237.0
 40
237.0
 40
238.0
 40
238.0
 40
239.0
 40
239.0
 40
240.0
 40
240.0
 40
241.0
 40
241.0
 40
242.0
 40
242.0
 40
243.0
 40
243.0
 40
244.0
 40
244.0
 40
245.0
 40
245.0
 40
246.0
 40
246.0
 40
247.0
 40
247.0
 40
248.0
 40
248.0
 40
249.0
 40
249.0
 40
250.0
 40
250.0
 40
251.0
 40
251.0
 40
252.0
 40
252.0
 40
253.0
 40
253.0
 40
254.0
 40
254.0
 40
255.0
 40
255.0
 40
256.0
 40
256.0
 40
257.0
 40
257.0
 40
258.0
 40
258.0
 40
259.0
 40
259.0
 40
260.0
 40
260.0
 40
261.0
 40
261.0
 40
262.0
 40
262.0
 40
263.0
 40
263.0
 40
264.0
 40
264.0
 40
265.0
 40
265.0
 40
266.0
 40
266.0
 40
267.0
 40
267.0
 40
268.0
 40
268.0
 40
269.0
 40
269.0
 40
270.0
 40
270.0
 40
271.0
 40
271.0
 40
272.0
 40
272.0
 40
273.0
 40
273.0
 40
274.0
 40
274.0
 40
275.0
 40
275.0
 40
276.0
 40
276.0
 40
277.0
 40
277.0
 40
278.0
 40
278.0
 40
279.0
 40
279.0
 40
280.0
 40
280.0
 40
281.0
 40
281.0
 40
282.0
 40
282.0
 40
283.0
 40
283.0
 40
284.0
 40
284.0
 40
285.0
 40
285.0
 40
286.0
 40
286.0
 40
287.0
 40
287.0
 40
288.0
 40
288.0
 40
289.0
 40
289.0
 40
290.0
 40
290.0
 40
291.0
 40
291.0
 40
292.0
 40
292.0
 40
293.0
 40
293.0
 40
294.0
 40
294.0
 40
295.0
 40
295.0
 40
296.0
 40
296.0
 40
297.0
 40
297.0
 40
298.0
 40
298.0
 40
299.0
 40
299.0
 40
300.0
 40
300.0
 40
301.0
 40
301.0
 40
302.0
 40
302.0
 40
303.0
 40
303.0
 40
304.0
 40
304.0
 40
305.0
 40
305.0
 40
306.0
 40
306.0
 40
307.0
 40
307.0
 40
308.0
 40
308.0
 40
309.0
 40
309.0
 40
310.0
 40
310.0
 40
311.0
 40
311.0
 40
312.0
 40
312.0
 40
313.0
 40
313.0
 40
314.0
 40
314.0
 40
315.0
 40
315.0
 40
316.0
 40
316.0
 40
317.0
 40
317.0
 40
318.0
 40
318.0
 40
319.0
 40
319.0
 40
320.0
 40
320.0
 40
321.0
 40
321.0
 40
322.0
 40
322.0
 40
323.0
 40
323.0
 40
324.0
 40
324.0
 40
325.0
 40
325.0
 40
326.0
 40
326.0
 40
327.0
 40
327.0
 40
328.0
 40
328.0
 40
329.0
 40
329.0
 40
330.0
 40
330.0
 40
331.0
 40
331.0
 40
332.0
 40
332.0
 40
333.0
 40
333.0
 40
334.0
 40
334.0
 40
335.0
 40
335.0
 40
336.0
 40
336.0
 40
337.0
 40
337.0
 40
338.0
 40
338.0
 40
339.0
 40
339.0
 40
340.0
 40
340.0
 40
341.0
 40
341.0
 40
342.0
 40
342.0
 40
343.0
 40
343.0
 40
344.0
 40
344.0
 40
345.0
 40
345.0
 40
346.0
 40
346.0
 40
347.0
 40
347.0
 40
348.0
 40
348.0
 40
349.0
 40
349.0
 40
350.0
 40
350.0
 40
351.0
 40
351.0
 40
352.0
 40
352.0
 40
353.0
 40
353.0
 40
354.0
 40
354.0
 40
355.0
 40
355.0
 40
356.0
 40
356.0
 40
357.0
 40
357.0
 40
358.0
 40
358.0
 40
359.0
 40
359.0
 40
360.0
 40
360.0
 40
361.0
 40
361.0
 40
362.0
 40
362.0
 40
363.0
 40
363.0
 40
364.0
 40
364.0
 40
365.0
 40
365.0
 40
366.0
 40
366.0
 40
367.0
 40
367.0
 40
368.0
 40
368.0
 40
369.0
 40
369.0
 40
370.0
 40
370.0
 40
371.0
 40
371.0
 40
372.0
 40
372.0
 40
373.0
 40
373.0
 40
374.0
 40
374.0
 40
375.0
 40
375.0
 40
376.0
 40
376.0
 40
377.0
 40
377.0
 40
378.0
 40
378.0
 40
379.0
 40
379.0
 40
380.0
 40
380.0
 40
381.0
 40
381.0
 40
382.0
 40
382.0
 40
383.0
 40
383.0
 40
384.0
 40
384.0
 40
385.0
 40
385.0
 40
386.0
 40
386.0
 40
387.0
 40
387.0
 40
388.0
 40
388.0
 40
389.0
 40
389.0
 40
389.0
 10
822.11886362381131
 20
-1492.5683640161474
 30
0.0
 41
1.0
 10
822.93728773253179
 20
-1492.5683640161474
 30
0.0
 41
1.0
 10
823.75571184125226
 20
-1492.5683640161474
 30
0.0
 41
1.0
 10
823.34195810573556
 20
-1493.9109902803971
 30
0.0
 41
1.0
 10
822.92820437021874
 20
-1495.2536165446468
 30
0.0
 41
1.0
 10
822.94654386539673
 20
-1495.2249157717197
 30
0.0
 41
0.9999957264354652
 10
822.96505086223897
 20
-1495.196322721551
 30
0.0
 41
1.0
 10
822.99548018636551
 20
-1495.149309843192
 30
0.0
 41
1.0
 10
823.02590951049206
 20
-1495.1022969648327
 30
0.0
 41
1.0
 10
823.10527515559693
 20
-1494.9796781579307
 30
0.0
 41
0.9995394069081366
 10
823.19193354714821
 20
-1494.86210009619
 30
0.0
 41
1.0
 10
823.22769040940989
 20
-1494.8135852035939
 30
0.0
 41
1.0
 10
823.26344727167157
 20
-1494.765070310998
 30
0.0
 41
1.0
 10
823.39717393948854
 20
-1494.5836300358728
 30
0.0
 41
0.9994460617143409
 10
823.54267442077571
 20
-1494.4114876382243
 30
0.0
 41
1.0
 10
823.54706260175021
 20
-1494.4062959578423
 30
0.0
 41
1.0
 10
823.5514507827246
 20
-1494.4011042774605
 30
0.0
 41
1.0
 10
823.68817490206402
 20
-1494.2393452405745
 30
0.0
 41
0.9994359394934201
 10
823.83544913241508
 20
-1494.0871290394102
 30
0.0
 41
1.0
 10
823.83783248637064
 20
-1494.0846657090347
 30
0.0
 41
1.0
 10
823.84021584032621
 20
-1494.0822023786593
 30
0.0
 41
1.0
 10
823.98272336276841
 20
-1493.9349128382439
 30
0.0
 41
0.9995293688567984
 10
824.13399504374866
 20
-1493.7966396260813
 30
0.0
 41
1.0
 10
824.15328880301081
 20
-1493.7790037404311
 30
0.0
 41
1.0
 10
824.17258256227285
 20
-1493.7613678547812
 30
0.0
 41
1.0
 10
824.28526672472901
 20
-1493.6583664139184
 30
0.0
 41
0.999708761480279
 10
824.40278961368585
 20
-1493.5609221331192
 30
0.0
 41
1.0
 10
824.42195568685634
 20
-1493.5450305546156
 30
0.0
 41
1.0
 10
824.4411217600267
 20
-1493.5291389761117
 30
0.0
 41
1.0
 10
824.52031250263894
 20
-1493.4634778523227
 30
0.0
 41
0.9999595338698746
 10
824.60067177349606
 20
-1493.3992521216664
 30
0.0
 41
1.0
 10
824.68103104434272
 20
-1493.3350263910181
 30
0.0
 41
0.9999749417513901
 10
824.7622915786875
 20
-1493.2719448370708
 30
0.0
 41
1.0
 10
824.78327772487012
 20
-1493.2556535497536
 30
0.0
 41
1.0
 10
824.80426387105274
 20
-1493.2393622624363
 30
0.0
 41
1.0
 10
824.88883175633441
 20
-1493.1737132526109
 30
0.0
 41
0.999979203711398
 10
824.97423935609709
 20
-1493.1091604709725
 30
0.0
 41
1.0
 10
824.99506418208261
 20
-1493.0934206486586
 30
0.0
 41
1.0
 10
825.01588900806826
 20
-1493.0776808263449
 30
0.0
 41
1.0
 10
825.05964695591251
 20
-1493.044607689294
 30
0.0
 41
0.9999993374038102
 10
825.10332864200973
 20
-1493.0114338939047
 30
0.0
 41
1.0
 10
825.14701032816174
 20
-1492.9782600984743
 30
0.0
 41
0.9999160953816463
 10
825.19153673908647
 20
-1492.9462290332724
 30
0.0
 41
1.0
 10
825.224358626499
 20
-1492.9226178776926
 30
0.0
 41
1.0
 10
825.25718051391152
 20
-1492.8990067221127
 30
0.0
 41
1.0
 10
825.36735069966892
 20
-1492.8197533457455
 30
0.0
 41
0.9980964527231666
 10
825.48643969316856
 20
-1492.75466587289
 30
0.0
 41
1.0
 10
825.52347230009718
 20
-1492.7344258932967
 30
0.0
 41
1.0
 10
825.56050490702569
 20
-1492.7141859137032
 30
0.0
 41
1.0
 10
825.73983192029925
 20
-1492.6161756630015
 30
0.0
 41
0.9984572810572331
 10
825.92892048665885
 20
-1492.538653401655
 30
0.0
 41
1.0
 10
825.93256675605562
 20
-1492.5371585093167
 30
0.0
 41
1.0
 10
825.93621302545228
 20
-1492.5356636169784
 30
0.0
 41
1.0
 10
826.11800905301914
 20
-1492.4611311403082
 30
0.0
 41
0.9987838528034322
 10
826.30626171157701
 20
-1492.4048655001429
 30
0.0
 41
1.0
 10
826.31049966077569
 20
-1492.4035988464527
 30
0.0
 41
1.0
 10
826.31473760997437
 20
-1492.4023321927625
 30
0.0
 41
1.0
 10
826.49451437013624
 20
-1492.3485998599772
 30
0.0
 41
0.9990652816207296
 10
826.67826030185211
 20
-1492.3105961804351
 30
0.0
 41
1.0
 10
826.68344870288468
 20
-1492.3095230773283
 30
0.0
 41
1.0
 10
826.68863710391724
 20
-1492.3084499742217
 30
0.0
 41
1.0
 10
826.86200623356922
 20
-1492.2725925008929
 30
0.0
 41
0.9992909934270323
 10
827.0375820000263
 20
-1492.2498820684266
 30
0.0
 41
1.0
 10
827.21315776648487
 20
-1492.2271716359601
 30
0.0
 41
0.999455353944866
 10
827.38984919957818
 20
-1492.2160923317538
 30
0.0
 41
1.0
 10
827.42528360737469
 20
-1492.2138704437059
 30
0.0
 41
1.0
 10
827.4607180151711
 20
-1492.211648555658
 30
0.0
 41
1.0
 10
827.62694378173944
 20
-1492.2012254932465
 30
0.0
 41
0.9990928098293274
 10
827.79345357364105
 20
-1492.2049851344809
 30
0.0
 41
1.0
 10
827.83201540890911
 20
-1492.2058558260137
 30
0.0
 41
1.0
 10
827.87057724417718
 20
-1492.2067265175465
 30
0.0
 41
1.0
 10
827.95996336553992
 20
-1492.2087447757151
 30
0.0
 41
0.9998382089204605
 10
828.04921904832986
 20
-1492.2139769022435
 30
0.0
 41
1.0
 10
828.04964895455225
 20
-1492.214002103146
 30
0.0
 41
1.0
 10
828.05007886077465
 20
-1492.2140273040484
 30
0.0
 41
1.0
 10
828.13847473111855
 20
-1492.219209028772
 30
0.0
 41
0.9997558016759316
 10
828.22655530831685
 20
-1492.2282915441381
 30
0.0
 41
1.0
 10
828.22703144674767
 20
-1492.2283406416209
 30
0.0
 41
1.0
 10
828.2275075851785
 20
-1492.2283897391035
 30
0.0
 41
1.0
 10
828.31463588551878
 20
-1492.2373740595046
 30
0.0
 41
0.9996565144181526
 10
828.40117373885982
 20
-1492.2509113661936
 30
0.0
 41
1.0
 10
828.40163966424029
 20
-1492.2509842519253
 30
0.0
 41
1.0
 10
828.40210558962065
 20
-1492.2510571376572
 30
0.0
 41
1.0
 10
828.48771159220462
 20
-1492.2644486728834
 30
0.0
 41
0.9995321806868036
 10
828.57233867252978
 20
-1492.283049161312
 30
0.0
 41
1.0
 10
828.57272786709859
 20
-1492.2831347037773
 30
0.0
 41
1.0
 10
828.57311706166752
 20
-1492.2832202462423
 30
0.0
 41
1.0
 10
828.65696575285472
 20
-1492.3016496497403
 30
0.0
 41
0.9993819199219121
 10
828.73931228705396
 20
-1492.3259250330018
 30
0.0
 41
1.0
 10
828.73955072055332
 20
-1492.3259953221116
 30
0.0
 41
1.0
 10
828.73978915405257
 20
-1492.3260656112213
 30
0.0
 41
1.0
 10
828.82165882125139
 20
-1492.3502004162629
 30
0.0
 41
0.9992088568505373
 10
828.90135134023842
 20
-1492.3807656520569
 30
0.0
 41
1.0
 10
828.98103233111738
 20
-1492.4113252527902
 30
0.0
 41
0.9990226101773966
 10
829.05770300102461
 20
-1492.4488026844047
 30
0.0
 41
1.0
 10
829.13436214282262
 20
-1492.4862744809579
 30
0.0
 41
0.9988424273972149
 10
829.2070657700333
 20
-1492.5309392562099
 30
0.0
 41
1.0
 10
829.20733347841349
 20
-1492.5311037202828
 30
0.0
 41
1.0
 10
829.20760118679368
 20
-1492.5312681843554
 30
0.0
 41
1.0
 10
829.28084023076428
 20
-1492.5762618877527
 30
0.0
 41
0.998692884449138
 10
829.34910309747374
 20
-1492.628497622032
 30
0.0
 41
1.0
 10
829.34968438969679
 20
-1492.6289424352601
 30
0.0
 41
1.0
 10
829.35026568191984
 20
-1492.6293872484882
 30
0.0
 41
1.0
 10
829.41969113307505
 20
-1492.6825126092233
 30
0.0
 41
0.9986007262277002
 10
829.48311730284126
 20
-1492.7426733789166
 30
0.0
 41
1.0
 10
829.4840117182988
 20
-1492.7435217467519
 30
0.0
 41
1.0
 10
829.48490613375634
 20
-1492.7443701145874
 30
0.0
 41
1.0
 10
829.55012113443752
 20
-1492.806227619951
 30
0.0
 41
0.9985581491381004
 10
829.60832874613902
 20
-1492.8747201102226
 30
0.0
 41
1.0
 10
829.61758719973488
 20
-1492.8856144679244
 30
0.0
 41
1.0
 10
829.62684565333075
 20
-1492.8965088256261
 30
0.0
 41
1.0
 10
829.70357017222398
 20
-1492.9867900313009
 30
0.0
 41
0.9970460233519565
 10
829.76556207338353
 20
-1493.0877571154831
 30
0.0
 41
1.0
 10
829.78003143846308
 20
-1493.1113235745643
 30
0.0
 41
1.0
 10
829.79450080354275
 20
-1493.1348900336457
 30
0.0
 41
1.0
 10
829.8342375035553
 20
-1493.1996097576782
 30
0.0
 41
0.9988468816636998
 10
829.86758387430632
 20
-1493.2678422101048
 30
0.0
 41
1.0
 10
829.87461989679764
 20
-1493.282239131242
 30
0.0
 41
1.0
 10
829.88165591928896
 20
-1493.296636052379
 30
0.0
 41
1.0
 10
829.90093024505745
 20
-1493.3360746625317
 30
0.0
 41
0.99984311899995
 10
829.91879557255288
 20
-1493.3761712169733
 30
0.0
 41
1.0
 10
829.93666090004922
 20
-1493.4162677714173
 30
0.0
 41
0.9999989989755646
 10
829.95463962347822
 20
-1493.4563136090164
 30
0.0
 41
1.0
 10
829.96081193506825
 20
-1493.4700618258198
 30
0.0
 41
1.0
 10
829.96698424665828
 20
-1493.483810042623
 30
0.0
 41
1.0
 10
829.99730759326826
 20
-1493.5513523138306
 30
0.0
 41
0.9998790356322213
 10
830.02551547340829
 20
-1493.6198050657729
 30
0.0
 41
1.0
 10
830.03235065469107
 20
-1493.6363921671968
 30
0.0
 41
1.0
 10
830.03918583597397
 20
-1493.6529792686206
 30
0.0
 41
1.0
 10
830.06274349835508
 20
-1493.7101472235076
 30
0.0
 41
0.9998227574560712
 10
830.08413224674496
 20
-1493.768161531787
 30
0.0
 41
1.0
 10
830.10552099513461
 20
-1493.8261758400654
 30
0.0
 41
0.9996797971040945
 10
830.12394728009394
 20
-1493.8851979591843
 30
0.0
 41
1.0
 10
830.12785108281923
 20
-1493.8977024173523
 30
0.0
 41
1.0
 10
830.13175488554452
 20
-1493.9102068755205
 30
0.0
 41
1.0
 10
830.157988775955
 20
-1493.9942379109771
 30
0.0
 41
0.997927493873404
 10
830.173213299434
 20
-1494.0809422696361
 30
0.0
 41
1.0
 10
830.1754369866951
 20
-1494.0936062704573
 30
0.0
 41
1.0
 10
830.17766067395632
 20
-1494.1062702712784
 30
0.0
 41
1.0
 10
830.1885906136547
 20
-1494.1685167785688
 30
0.0
 41
0.9994985982137089
 10
830.19555877883158
 20
-1494.2313302797113
 30
0.0
 41
1.0
 10
830.2025269440087
 20
-1494.2941437808552
 30
0.0
 41
0.9996372611201649
 10
830.20610280977633
 20
-1494.3572413595359
 30
0.0
 41
1.0
 10
830.20627138726559
 20
-1494.3602159766178
 30
0.0
 41
1.0
 10
830.20643996475496
 20
-1494.3631905937
 30
0.0
 41
1.0
 10
830.21035298550134
 20
-1494.4322374065459
 30
0.0
 41
0.9997730630737232
 10
830.21132129898945
 20
-1494.501388230585
 30
0.0
 41
1.0
 10
830.21137840540746
 20
-1494.5054664097245
 30
0.0
 41
1.0
 10
830.21143551182558
 20
-1494.5095445888639
 30
0.0
 41
1.0
 10
830.21251803814982
 20
-1494.586851771186
 30
0.0
 41
0.9998772614071944
 10
830.21117795141799
 20
-1494.6641549177546
 30
0.0
 41
1.0
 10
830.21108868821932
 20
-1494.6693040815853
 30
0.0
 41
1.0
 10
830.21099942502065
 20
-1494.6744532454161
 30
0.0
 41
1.0
 10
830.20948081189113
 20
-1494.7620547196584
 30
0.0
 41
0.9999415567326858
 10
830.20606850164529
 20
-1494.8496028813304
 30
0.0
 41
1.0
 10
830.20582718097012
 20
-1494.8557943410651
 30
0.0
 41
1.0
 10
830.20558586029483
 20
-1494.8619858008001
 30
0.0
 41
1.0
 10
830.20169090869808
 20
-1494.9619168819538
 30
0.0
 41
0.9999716810429822
 10
830.19629232557941
 20
-1495.0617780201844
 30
0.0
 41
1.0
 10
830.19307952679117
 20
-1495.1212072698318
 30
0.0
 41
1.0
 10
830.18986672800293
 20
-1495.1806365194791
 30
0.0
 41
1.0
 10
830.18179281885
 20
-1495.3299849207674
 30
0.0
 41
0.9999819129896499
 10
830.17192302723288
 20
-1495.4792253984856
 30
0.0
 41
1.0
 10
830.16205323561633
 20
-1495.628465876197
 30
0.0
 41
1.0
 10
830.15961391505243
 20
-1495.6656589220461
 30
0.0
 41
1.0
 10
830.18231214887783
 20
-1495.6269179247261
 30
0.0
 41
0.9999982128211542
 10
830.20515670763507
 20
-1495.5882630307651
 30
0.0
 41
1.0
 10
830.23206626752176
 20
-1495.5427298167067
 30
0.0
 41
1.0
 10
830.25897582740856
 20
-1495.4971966026483
 30
0.0
 41
1.0
 10
830.33563950592963
 20
-1495.3674752805862
 30
0.0
 41
0.999860919005793
 10
830.41658681879085
 20
-1495.2403828986576
 30
0.0
 41
1.0
 10
830.44623514027649
 20
-1495.1938331656941
 30
0.0
 41
1.0
 10
830.47588346176224
 20
-1495.1472834327305
 30
0.0
 41
1.0
 10
830.55815568200035
 20
-1495.0181108627341
 30
0.0
 41
0.9999067609735183
 10
830.64392469146082
 20
-1494.8912331732984
 30
0.0
 41
1.0
 10
830.64632939466389
 20
-1494.8876759072405
 30
0.0
 41
1.0
 10
830.64873409786696
 20
-1494.8841186411823
 30
0.0
 41
1.0
 10
830.72969370092824
 20
-1494.7643554838523
 30
0.0
 41
0.999878495215043
 10
830.81434731060619
 20
-1494.6471742671483
 30
0.0
 41
1.0
 10
830.89900092028824
 20
-1494.5299930504386
 30
0.0
 41
0.9998532968283209
 10
830.98761854111137
 20
-1494.4157801419676
 30
0.0
 41
1.0
 10
831.007580330103
 20
-1494.3900528209467
 30
0.0
 41
1.0
 10
831.02754211909462
 20
-1494.3643254999258
 30
0.0
 41
1.0
 10
831.14602616885179
 20
-1494.2116198889596
 30
0.0
 41
0.9991551975795213
 10
831.27665061847483
 20
-1494.0691603268767
 30
0.0
 41
1.0
 10
831.28016023445502
 20
-1494.0653327252519
 30
0.0
 41
1.0
 10
831.28366985043522
 20
-1494.0615051236271
 30
0.0
 41
1.0
 10
831.40727506809856
 20
-1493.9267007647929
 30
0.0
 41
0.9997418144181497
 10
831.53687720779885
 20
-1493.7976513541807
 30
0.0
 41
1.0
 10
831.6664793475004
 20
-1493.6686019435676
 30
0.0
 41
0.9989238204633487
 10
831.80748189575229
 20
-1493.5521169815279
 30
0.0
 41
1.0
 10
831.8527295738877
 20
-1493.5147369899228
 30
0.0
 41
1.0
 10
831.89797725202311
 20
-1493.4773569983174
 30
0.0
 41
1.0
 10
832.03821730924744
 20
-1493.3615019450237
 30
0.0
 41
0.9990825084096315
 10
832.187857241855
 20
-1493.2580729471881
 30
0.0
 41
1.0
 10
832.19790260591492
 20
-1493.2511297341066
 30
0.0
 41
1.0
 10
832.20794796997484
 20
-1493.2441865210249
 30
0.0
 41
1.0
 10
832.33749717446346
 20
-1493.1546439493522
 30
0.0
 41
0.9998164899826654
 10
832.47038137783522
 20
-1493.0701297078388
 30
0.0
 41
1.0
 10
832.48222693836226
 20
-1493.0625959413123
 30
0.0
 41
1.0
 10
832.4940724988893
 20
-1493.0550621747861
 30
0.0
 41
1.0
 10
832.60326558121392
 20
-1492.9856154663212
 30
0.0
 41
0.9997473449130376
 10
832.71546953846087
 20
-1492.9211465085068
 30
0.0
 41
1.0
 10
832.82767349571384
 20
-1492.8566775506893
 30
0.0
 41
0.9999327861146914
 10
832.94134210648213
 20
-1492.7948275590052
 30
0.0
 41
1.0
 10
832.94189410903869
 20
-1492.7945272003283
 30
0.0
 41
1.0
 10
832.94244611159525
 20
-1492.7942268416514
 30
0.0
 41
1.0
 10
833.05721872747893
 20
-1492.7317761326121
 30
0.0
 41
0.9996956420483038
 10
833.17493205331789
 20
-1492.6750626656381
 30
0.0
 41
1.0
 10
833.20537245821129
 20
-1492.6603966889077
 30
0.0
 41
1.0
 10
833.23581286310457
 20
-1492.6457307121773
 30
0.0
 41
1.0
 10
833.3387899698489
 20
-1492.5961170537335
 30
0.0
 41
0.9998070570177644
 10
833.44363635879051
 20
-1492.5505864668323
 30
0.0
 41
1.0
 10
833.54848274772917
 20
-1492.5050558799323
 30
0.0
 41
0.9997827436147729
 10
833.65513568433835
 20
-1492.4639347086209
 30
0.0
 41
1.0
 10
833.67435853397126
 20
-1492.4565231349879
 30
0.0
 41
1.0
 10
833.69358138360417
 20
-1492.4491115613548
 30
0.0
 41
1.0
 10
833.83868001947769
 20
-1492.393167242778
 30
0.0
 41
0.9988031841976853
 10
833.98855038208308
 20
-1492.3516671786099
 30
0.0
 41
1.0
 10
834.01346763044558
 20
-1492.3447674328031
 30
0.0
 41
1.0
 10
834.03838487880807
 20
-1492.3378676869966
 30
0.0
 41
1.0
 10
834.20565490445506
 20
-1492.2915495445895
 30
0.0
 41
0.9984748040549609
 10
834.3770118131041
 20
-1492.2639553123247
 30
0.0
 41
1.0
 10
834.38175094935309
 20
-1492.2631921518114
 30
0.0
 41
1.0
 10
834.38649008560219
 20
-1492.2624289912978
 30
0.0
 41
1.0
 10
834.54836872175315
 20
-1492.2363610800599
 30
0.0
 41
0.9984436495479947
 10
834.71214346547777
 20
-1492.2284831262411
 30
0.0
 41
1.0
 10
834.73384067361042
 20
-1492.2274394390415
 30
0.0
 41
1.0
 10
834.75553788174307
 20
-1492.2263957518417
 30
0.0
 41
1.0
 10
834.87591820920375
 20
-1492.2206051724224
 30
0.0
 41
0.9987954789335601
 10
834.99628645411235
 20
-1492.2266417001647
 30
0.0
 41
1.0
 10
835.01625124660609
 20
-1492.2276429445033
 30
0.0
 41
1.0
 10
835.03621603909971
 20
-1492.2286441888418
 30
0.0
 41
1.0
 10
835.11665469902141
 20
-1492.2326782279069
 30
0.0
 41
0.9997941595878257
 10
835.19686347711661
 20
-1492.239972293828
 30
0.0
 41
1.0
 10
835.2770722552084
 20
-1492.2472663597487
 30
0.0
 41
0.9998589466237033
 10
835.3569908020603
 20
-1492.2572502141986
 30
0.0
 41
1.0
 10
835.38939700387141
 20
-1492.261298571118
 30
0.0
 41
1.0
 10
835.42180320568252
 20
-1492.2653469280376
 30
0.0
 41
1.0
 10
835.56653415615438
 20
-1492.2834274963261
 30
0.0
 41
0.99934950632489
 10
835.70958539992046
 20
-1492.3118932060681
 30
0.0
 41
1.0
 10
835.74251909707027
 20
-1492.3184466692824
 30
0.0
 41
1.0
 10
835.77545279421997
 20
-1492.3250001324968
 30
0.0
 41
1.0
 10
835.88474661742691
 20
-1492.3467484666328
 30
0.0
 41
0.9996788715561158
 10
835.99279818938464
 20
-1492.3740062659961
 30
0.0
 41
1.0
 10
835.99486119192466
 20
-1492.3745266925694
 30
0.0
 41
1.0
 10
835.99692419446478
 20
-1492.3750471191424
 30
0.0
 41
1.0
 10
836.10084976134215
 20
-1492.4012640653593
 30
0.0
 41
0.9995480654492859
 10
836.20301199657047
 20
-1492.4336790219834
 30
0.0
 41
1.0
 10
836.20470163870141
 20
-1492.4342151268979
 30
0.0
 41
1.0
 10
836.20639128083235
 20
-1492.4347512318125
 30
0.0
 41
1.0
 10
836.30517423180106
 20
-1492.4660939786081
 30
0.0
 41
0.9993867959456112
 10
836.40152139024246
 20
-1492.5042733478974
 30
0.0
 41
1.0
 10
836.40276433932718
 20
-1492.5047658897936
 30
0.0
 41
1.0
 10
836.40400728841189
 20
-1492.5052584316898
 30
0.0
 41
1.0
 10
836.49786854868512
 20
-1492.5424527171872
 30
0.0
 41
0.9992050256521844
 10
836.58846822371834
 20
-1492.5870066164259
 30
0.0
 41
1.0
 10
836.58920290643027
 20
-1492.5873679088863
 30
0.0
 41
1.0
 10
836.5899375891421
 20
-1492.587729201347
 30
0.0
 41
1.0
 10
836.67906789875144
 20
-1492.6315605156647
 30
0.0
 41
0.9990222350741921
 10
836.76397796014544
 20
-1492.6830937833631
 30
0.0
 41
1.0
 10
836.76416184542882
 20
-1492.6832053862684
 30
0.0
 41
1.0
 10
836.76434573071231
 20
-1492.6833169891736
 30
0.0
 41
1.0
 10
836.84888802153944
 20
-1492.7346270510618
 30
0.0
 41
0.9988642743805534
 10
836.92816255615799
 20
-1492.7937512385868
 30
0.0
 41
1.0
 10
837.00743709077676
 20
-1492.852875426112
 30
0.0
 41
0.9987681233311231
 10
837.08046087505295
 20
-1492.9195661175124
 30
0.0
 41
1.0
 10
837.08078980301889
 20
-1492.9198665187268
 30
0.0
 41
1.0
 10
837.08111873098483
 20
-1492.920166919941
 30
0.0
 41
1.0
 10
837.15480037119255
 20
-1492.9874584137701
 30
0.0
 41
0.9987496570898328
 10
837.22139417651988
 20
-1493.061771227857
 30
0.0
 41
1.0
 10
837.22216634628023
 20
-1493.0626329012148
 30
0.0
 41
1.0
 10
837.22293851604059
 20
-1493.0634945745726
 30
0.0
 41
1.0
 10
837.29107666088828
 20
-1493.1395307353744
 30
0.0
 41
0.998814766982643
 10
837.35149891511367
 20
-1493.2218317422175
 30
0.0
 41
1.0
 10
837.35261824119141
 20
-1493.2233563735699
 30
0.0
 41
1.0
 10
837.35373756726915
 20
-1493.2248810049225
 30
0.0
 41
1.0
 10
837.41639847364956
 20
-1493.31023127447
 30
0.0
 41
0.9989452636215878
 10
837.4709653866106
 20
-1493.4009699636274
 30
0.0
 41
1.0
 10
837.47231411269649
 20
-1493.403212744654
 30
0.0
 41
1.0
 10
837.47366283878227
 20
-1493.4054555256803
 30
0.0
 41
1.0
 10
837.53092720391487
 20
-1493.5006797768904
 30
0.0
 41
0.999104643607057
 10
837.57993641723749
 20
-1493.6004042099178
 30
0.0
 41
1.0
 10
837.581400278827
 20
-1493.6033828899895
 30
0.0
 41
1.0
 10
837.58286414041663
 20
-1493.6063615700609
 30
0.0
 41
1.0
 10
837.63480107691726
 20
-1493.7120433632288
 30
0.0
 41
0.9992763831100986
 10
837.67855420547255
 20
-1493.8213674251847
 30
0.0
 41
1.0
 10
837.68003347513627
 20
-1493.8250636127195
 30
0.0
 41
1.0
 10
837.6815127448001
 20
-1493.8287598002544
 30
0.0
 41
1.0
 10
837.7282244126817
 20
-1493.9454762372773
 30
0.0
 41
0.9994163472883741
 10
837.76685744387123
 20
-1494.0651098257406
 30
0.0
 41
1.0
 10
837.76809559611888
 20
-1494.0689439695259
 30
0.0
 41
1.0
 10
837.76933374836642
 20
-1494.0727781133112
 30
0.0
 41
1.0
 10
837.8092173093836
 20
-1494.19628417479
 30
0.0
 41
0.9997268055891627
 10
837.84328536529438
 20
-1494.3215192067362
 30
0.0
 41
1.0
 10
837.84421554556411
 20
-1494.3249385728459
 30
0.0
 41
1.0
 10
837.84514572583396
 20
-1494.3283579389554
 30
0.0
 41
1.0
 10
837.87735342120686
 20
-1494.4467542386892
 30
0.0
 41
0.999670131900074
 10
837.9034390379768
 20
-1494.5666481919504
 30
0.0
 41
1.0
 10
837.9295246547473
 20
-1494.686542145213
 30
0.0
 41
0.9995785451108843
 10
837.94860823208683
 20
-1494.8077479062442
 30
0.0
 41
1.0
 10
837.9528280142606
 20
-1494.83454906101
 30
0.0
 41
1.0
 10
837.95704779643449
 20
-1494.8613502157757
 30
0.0
 41
1.0
 10
837.98362277237322
 20
-1495.030136189479
 30
0.0
 41
0.9979925101216195
 10
837.98864835829943
 20
-1495.2009275175703
 30
0.0
 41
1.0
 10
837.98947317072407
 20
-1495.2289582410476
 30
0.0
 41
1.0
 10
837.99029798314859
 20
-1495.2569889645249
 30
0.0
 41
1.0
 10
837.99367394422586
 20
-1495.3717188456556
 30
0.0
 41
0.9995314902263336
 10
837.99002375208727
 20
-1495.4864403294139
 30
0.0
 41
1.0
 10
837.9863735599489
 20
-1495.6011618131652
 30
0.0
 41
0.9996245486943903
 10
837.97644446481797
 20
-1495.7155110842893
 30
0.0
 41
1.0
 10
837.97628141682367
 20
-1495.7173888404247
 30
0.0
 41
1.0
 10
837.97611836882948
 20
-1495.7192665965601
 30
0.0
 41
1.0
 10
837.96586317770959
 20
-1495.8373713799581
 30
0.0
 41
0.9997286095001079
 10
837.95011785413851
 20
-1495.9548702888501
 30
0.0
 41
1.0
 10
837.94972436148828
 20
-1495.9578067135517
 30
0.0
 41
1.0
 10
837.94933086883793
 20
-1495.9607431382531
 30
0.0
 41
1.0
 10
837.93279855996639
 20
-1496.0841148965483
 30
0.0
 41
0.9998265533969051
 10
837.91168310123328
 20
-1496.2067853713388
 30
0.0
 41
1.0
 10
837.91100655909599
 20
-1496.2107157498469
 30
0.0
 41
1.0
 10
837.91033001695882
 20
-1496.2146461283551
 30
0.0
 41
1.0
 10
837.8878614739524
 20
-1496.3451773601564
 30
0.0
 41
0.9999022530852135
 10
837.86175200934326
 20
-1496.4750293287909
 30
0.0
 41
1.0
 10
837.86077336817721
 20
-1496.4798964711813
 30
0.0
 41
1.0
 10
837.85979472701126
 20
-1496.4847636135717
 30
0.0
 41
1.0
 10
837.83172798007206
 20
-1496.6243498669774
 30
0.0
 41
0.9999524761936443
 10
837.80094501123915
 20
-1496.7633623601341
 30
0.0
 41
1.0
 10
837.79966890406195
 20
-1496.7691251194442
 30
0.0
 41
1.0
 10
837.79839279688485
 20
-1496.774887878754
 30
0.0
 41
1.0
 10
837.76505761369742
 20
-1496.9254258905305
 30
0.0
 41
0.9999813588719022
 10
837.72988661289946
 20
-1497.0755456031959
 30
0.0
 41
1.0
 10
837.72833268744489
 20
-1497.0821781936097
 30
0.0
 41
1.0
 10
837.72677876199032
 20
-1497.0888107840237
 30
0.0
 41
1.0
 10
837.68849991027787
 20
-1497.2521956775399
 30
0.0
 41
0.9999955237656361
 10
837.649244032301
 20
-1497.4153485811305
 30
0.0
 41
1.0
 10
837.6369623966666
 20
-1497.4663927716538
 30
0.0
 41
1.0
 10
837.6246807610321
 20
-1497.517436962177
 30
0.0
 41
1.0
 10
837.56086161180554
 20
-1497.7826782467359
 30
0.0
 41
0.9999993604407087
 10
837.4964426646543
 20
-1498.0477744973514
 30
0.0
 41
1.0
 10
837.4917238290875
 20
-1498.0671934054731
 30
0.0
 41
1.0
 10
837.48700499352083
 20
-1498.0866123135945
 30
0.0
 41
1.0
 10
837.4131483752617
 20
-1498.3905463803483
 30
0.0
 41
0.9999659914729754
 10
837.3342887793782
 20
-1498.6932209269012
 30
0.0
 41
1.0
 10
837.32933609044608
 20
-1498.7122300640895
 30
0.0
 41
1.0
 10
837.32438340151384
 20
-1498.7312392012777
 30
0.0
 41
1.0
 10
837.23561842776951
 20
-1499.0719320221938
 30
0.0
 41
0.9999441976026333
 10
837.13967539480586
 20
-1499.4106734474924
 30
0.0
 41
1.0
 10
837.12297487637989
 20
-1499.4696371600216
 30
0.0
 41
1.0
 10
837.10627435795391
 20
-1499.5286008725511
 30
0.0
 41
1.0
 10
836.9769302881391
 20
-1499.9852697229057
 30
0.0
 41
0.9999625120732698
 10
836.83969752081214
 20
-1500.4396302569135
 30
0.0
 41
1.0
 10
836.8039075777283
 20
-1500.5581262835435
 30
0.0
 41
1.0
 10
836.76811763464434
 20
-1500.6766223101733
 30
0.0
 41
1.0
 10
836.69359743060636
 20
-1500.9233493882653
 30
0.0
 41
0.9999793386303501
 10
836.61591140747123
 20
-1501.1690980274936
 30
0.0
 41
1.0
 10
836.53822538433371
 20
-1501.4148466667298
 30
0.0
 41
1.0
 10
836.52744582546302
 20
-1501.4488645711044
 30
0.0
 41
1.0
 10
834.67707277219392
 20
-1507.335936493572
 30
0.0
 41
1.0
 10
832.82669971892471
 20
-1513.2230084160396
 30
0.0
 41
1.0
 10
831.86544302890115
 20
-1513.2230084160396
 30
0.0
 41
1.0
 10
830.90418633887759
 20
-1513.2230084160396
 30
0.0
 41
1.0
 10
832.52313111755598
 20
-1508.0749799142502
 30
0.0
 41
1.0
 10
834.14207589623447
 20
-1502.9269514124608
 30
0.0
 41
1.0
 10
834.18724171940869
 20
-1502.7829201901914
 30
0.0
 41
1.0
 10
834.23240754258291
 20
-1502.6388889679217
 30
0.0
 41
1.0
 10
834.40271195994683
 20
-1502.0957979387554
 30
0.0
 41
0.999991165790631
 10
834.56844477162599
 20
-1501.5512944073946
 30
0.0
 41
1.0
 10
834.59814071513154
 20
-1501.4537304673274
 30
0.0
 41
1.0
 10
834.62783665863708
 20
-1501.3561665272603
 30
0.0
 41
1.0
 10
834.73417758331107
 20
-1501.0067908760152
 30
0.0
 41
0.9999952428145831
 10
834.83836117263127
 20
-1500.6567658516815
 30
0.0
 41
1.0
 10
834.8434206429672
 20
-1500.6397675773947
 30
0.0
 41
1.0
 10
834.84848011330325
 20
-1500.6227693031076
 30
0.0
 41
1.0
 10
834.94254476195692
 20
-1500.3067408273296
 30
0.0
 41
0.9999931687499716
 10
835.03427059982982
 20
-1499.9900256140616
 30
0.0
 41
1.0
 10
835.03920586428785
 20
-1499.9729849047958
 30
0.0
 41
1.0
 10
835.04414112874588
 20
-1499.95594419553
 30
0.0
 41
1.0
 10
835.12599643769909
 20
-1499.6733104008067
 30
0.0
 41
0.9999893840813789
 10
835.20524366416032
 20
-1499.3899342715445
 30
0.0
 41
1.0
 10
835.28449089061769
 20
-1499.1065581422959
 30
0.0
 41
0.999983398007429
 10
835.36046713135795
 20
-1498.822287559273
 30
0.0
 41
1.0
 10
835.36947106807838
 20
-1498.7885986808019
 30
0.0
 41
1.0
 10
835.3784750047987
 20
-1498.7549098023305
 30
0.0
 41
1.0
 10
835.44743955366903
 20
-1498.4968739700194
 30
0.0
 41
0.9999233658064967
 10
835.50999452489066
 20
-1498.2372098112915
 30
0.0
 41
1.0
 10
835.57254949611092
 20
-1497.977545652569
 30
0.0
 41
1.0
 10
835.61203291496849
 20
-1497.8137389881429
 30
0.0
 41
1.0
 10
835.61701151894044
 20
-1497.7930840262948
 30
0.0
 41
1.0
 10
835.62199012291228
 20
-1497.7724290644467
 30
0.0
 41
1.0
 10
835.65151633382118
 20
-1497.6499323237365
 30
0.0
 41
0.9999868670859224
 10
835.67978541782225
 20
-1497.5271393780713
 30
0.0
 41
1.0
 10
835.68368290498324
 20
-1497.5102097906401
 30
0.0
 41
1.0
 10
835.68758039214413
 20
-1497.493280203209
 30
0.0
 41
1.0
 10
835.70805450182104
 20
-1497.4043464324145
 30
0.0
 41
0.9999778173354499
 10
835.72734209993382
 20
-1497.3151478151954
 30
0.0
 41
1.0
 10
835.74662969804956
 20
-1497.2259491979642
 30
0.0
 41
0.9999602692862961
 10
835.76432405668152
 20
-1497.1364209095314
 30
0.0
 41
1.0
 10
835.76752788875842
 20
-1497.1202104546492
 30
0.0
 41
1.0
 10
835.77073172083533
 20
-1497.1039999997672
 30
0.0
 41
1.0
 10
835.79483374362121
 20
-1496.9820508015709
 30
0.0
 41
0.9995617985320414
 10
835.81167709083957
 20
-1496.8588890538667
 30
0.0
 41
1.0
 10
835.81414158074585
 20
-1496.8408682365002
 30
0.0
 41
1.0
 10
835.81660607065226
 20
-1496.8228474191337
 30
0.0
 41
1.0
 10
835.83688933170072
 20
-1496.6745323694311
 30
0.0
 41
0.9991121410640025
 10
835.84461468528912
 20
-1496.5250362706247
 30
0.0
 41
1.0
 10
835.84553347531369
 20
-1496.5072564340489
 30
0.0
 41
1.0
 10
835.84645226533814
 20
-1496.4894765974734
 30
0.0
 41
1.0
 10
835.8523400388774
 20
-1496.3755401718204
 30
0.0
 41
0.9989792494905164
 10
835.84792094676004
 20
-1496.2615373359201
 30
0.0
 41
1.0
 10
835.84727297489155
 20
-1496.2448210899965
 30
0.0
 41
1.0
 10
835.84662500302306
 20
-1496.2281048440732
 30
0.0
 41
1.0
 10
835.8435018546428
 20
-1496.1475345000254
 30
0.0
 41
0.9997820295395113
 10
835.83701785726703
 20
-1496.0671647782776
 30
0.0
 41
1.0
 10
835.8305338598916
 20
-1495.9867950565369
 30
0.0
 41
0.999833510597351
 10
835.82112166437958
 20
-1495.9067154400841
 30
0.0
 41
1.0
 10
835.81952673970318
 20
-1495.893145709601
 30
0.0
 41
1.0
 10
835.8179318150269
 20
-1495.8795759791176
 30
0.0
 41
1.0
 10
835.8053297701623
 20
-1495.7723569017007
 30
0.0
 41
0.9996876457879221
 10
835.78738585736392
 20
-1495.6659014739839
 30
0.0
 41
1.0
 10
835.78515419421888
 20
-1495.652661738744
 30
0.0
 41
1.0
 10
835.78292253107395
 20
-1495.639422003504
 30
0.0
 41
1.0
 10
835.76912670965305
 20
-1495.5575758595464
 30
0.0
 41
0.9995547496494934
 10
835.75047338775994
 20
-1495.4766983623524
 30
0.0
 41
1.0
 10
835.75009943088844
 20
-1495.4750769516459
 30
0.0
 41
1.0
 10
835.74972547401683
 20
-1495.4734555409393
 30
0.0
 41
1.0
 10
835.7318200658666
 20
-1495.3958208651584
 30
0.0
 41
0.9994899427175097
 10
835.70899515718793
 20
-1495.3194875823267
 30
0.0
 41
1.0
 10
835.70853663044682
 20
-1495.3179541325369
 30
0.0
 41
1.0
 10
835.7080781037057
 20
-1495.3164206827471
 30
0.0
 41
1.0
 10
835.68617024850835
 20
-1495.2431542994914
 30
0.0
 41
0.9993784877590402
 10
835.65915461340205
 20
-1495.1716135943332
 30
0.0
 41
1.0
 10
835.65862292242514
 20
-1495.1702056116126
 30
0.0
 41
1.0
 10
835.65809123144822
 20
-1495.168797628892
 30
0.0
 41
1.0
 10
835.63213897829519
 20
-1495.1000728891734
 30
0.0
 41
0.9992430832254557
 10
835.60092244313614
 20
-1495.0335737371058
 30
0.0
 41
1.0
 10
835.60034032707949
 20
-1495.0323336819883
 30
0.0
 41
1.0
 10
835.59975821102296
 20
-1495.0310936268711
 30
0.0
 41
1.0
 10
835.56970590797619
 20
-1494.9670745850365
 30
0.0
 41
0.9990789632798673
 10
835.53427528120005
 20
-1494.905867973288
 30
0.0
 41
1.0
 10
835.53367957501791
 20
-1494.9048388874285
 30
0.0
 41
1.0
 10
835.53308386883577
 20
-1494.9038098015692
 30
0.0
 41
1.0
 10
835.49884465442312
 20
-1494.8446613615379
 30
0.0
 41
0.9988874801119718
 10
835.45918537839134
 20
-1494.7890016491206
 30
0.0
 41
1.0
 10
835.45862985232748
 20
-1494.7882219974465
 30
0.0
 41
1.0
 10
835.45807432626373
 20
-1494.7874423457724
 30
0.0
 41
1.0
 10
835.41952610235899
 20
-1494.7333419367023
 30
0.0
 41
0.9986762060692622
 10
835.37562363108304
 20
-1494.6834882222636
 30
0.0
 41
1.0
 10
835.37517967075087
 20
-1494.6829840804471
 30
0.0
 41
1.0
 10
835.37473571041869
 20
-1494.6824799386304
 30
0.0
 41
1.0
 10
835.33172115980688
 20
-1494.6336345078241
 30
0.0
 41
0.9984621642486554
 10
835.28356360302905
 20
-1494.5898512073531
 30
0.0
 41
1.0
 10
835.28331696851228
 20
-1494.5896269751895
 30
0.0
 41
1.0
 10
835.28307033399562
 20
-1494.5894027430259
 30
0.0
 41
1.0
 10
835.23540604625168
 20
-1494.5460679068822
 30
0.0
 41
0.9982724693850484
 10
835.18298741440981
 20
-1494.5086235563645
 30
0.0
 41
1.0
 10
835.13056878256884
 20
-1494.4711792058472
 30
0.0
 41
0.99813991801586
 10
835.07398271917521
 20
-1494.4403926864036
 30
0.0
 41
1.0
 10
835.0739370570966
 20
-1494.4403678432463
 30
0.0
 41
1.0
 10
835.07389139501811
 20
-1494.4403430000891
 30
0.0
 41
1.0
 10
835.01721400746681
 20
-1494.4095067943308
 30
0.0
 41
0.9980927086835935
 10
834.95716865640031
 20
-1494.3858899854783
 30
0.0
 41
1.0
 10
834.95672848668914
 20
-1494.3857168596037
 30
0.0
 41
1.0
 10
834.95628831697809
 20
-1494.3855437337288
 30
0.0
 41
1.0
 10
834.89536262648915
 20
-1494.3615806731266
 30
0.0
 41
0.9981411356561591
 10
834.83197410509081
 20
-1494.3452080316213
 30
0.0
 41
1.0
 10
834.83109198838838
 20
-1494.3449801894155
 30
0.0
 41
1.0
 10
834.83020987168607
 20
-1494.3447523472098
 30
0.0
 41
1.0
 10
834.76505711688412
 20
-1494.3279240212933
 30
0.0
 41
0.998303181293502
 10
834.69838968788997
 20
-1494.3187846601172
 30
0.0
 41
1.0
 10
834.68951866248608
 20
-1494.3175685414458
 30
0.0
 41
1.0
 10
834.68064763708207
 20
-1494.3163524227746
 30
0.0
 41
1.0
 10
834.6262979945775
 20
-1494.3089016927834
 30
0.0
 41
0.9983887708263931
 10
834.57145414528429
 20
-1494.3076570191499
 30
0.0
 41
1.0
 10
834.56339074006394
 20
-1494.3074740212751
 30
0.0
 41
1.0
 10
834.55532733484358
 20
-1494.3072910234
 30
0.0
 41
1.0
 10
834.51661029598858
 20
-1494.3064123455165
 30
0.0
 41
0.9998869563077996
 10
834.4778843427888
 20
-1494.3066982148762
 30
0.0
 41
1.0
 10
834.4391583895615
 20
-1494.3069840842361
 30
0.0
 41
0.9999972320159167
 10
834.40043421032499
 20
-1494.3074521837655
 30
0.0
 41
1.0
 10
834.38108119377011
 20
-1494.3076861238546
 30
0.0
 41
1.0
 10
834.36172817721535
 20
-1494.3079200639438
 30
0.0
 41
1.0
 10
834.28429796484477
 20
-1494.3088560436518
 30
0.0
 41
0.9997304945086618
 10
834.20699465860707
 20
-1494.3133851374378
 30
0.0
 41
1.0
 10
834.19794501690285
 20
-1494.3139153434277
 30
0.0
 41
1.0
 10
834.18889537519851
 20
-1494.3144455494175
 30
0.0
 41
1.0
 10
834.09349278555317
 20
-1494.3200350551833
 30
0.0
 41
0.9997888306414946
 10
833.99840044971074
 20
-1494.3295400196725
 30
0.0
 41
1.0
 10
833.98967938813757
 20
-1494.3304117343046
 30
0.0
 41
1.0
 10
833.98095832656429
 20
-1494.3312834489368
 30
0.0
 41
1.0
 10
833.86842386757746
 20
-1494.3425318426901
 30
0.0
 41
0.9984170238191497
 10
833.75786472022776
 20
-1494.3663479246254
 30
0.0
 41
1.0
 10
833.72148358923971
 20
-1494.3741849604319
 30
0.0
 41
1.0
 10
833.68510245825166
 20
-1494.3820219962383
 30
0.0
 41
1.0
 10
833.56991138983017
 20
-1494.406835862748
 30
0.0
 41
0.9976592854199092
 10
833.4591832234255
 20
-1494.4471345398949
 30
0.0
 41
1.0
 10
833.34845505701992
 20
-1494.4874332170423
 30
0.0
 41
0.9993255074351828
 10
833.24098325822945
 20
-1494.5357501155347
 30
0.0
 41
1.0
 10
833.23635807930623
 20
-1494.5378294917343
 30
0.0
 41
1.0
 10
833.23173290038312
 20
-1494.5399088679339
 30
0.0
 41
1.0
 10
833.11501074374655
 20
-1494.5923845188256
 30
0.0
 41
0.9976475078275257
 10
833.0065633994376
 20
-1494.660332508483
 30
0.0
 41
1.0
 10
832.98822100530083
 20
-1494.6718249872988
 30
0.0
 41
1.0
 10
832.96987861116406
 20
-1494.6833174661144
 30
0.0
 41
1.0
 10
832.88567641961333
 20
-1494.7360745868816
 30
0.0
 41
0.9995131336406526
 10
832.80492870465616
 20
-1494.7939807988348
 30
0.0
 41
1.0
 10
832.72418098969456
 20
-1494.8518870107912
 30
0.0
 41
0.9995810107605828
 10
832.64691934196344
 20
-1494.9143686932593
 30
0.0
 41
1.0
 10
832.64394931075662
 20
-1494.9167705647212
 30
0.0
 41
1.0
 10
832.64097927954981
 20
-1494.9191724361831
 30
0.0
 41
1.0
 10
832.55777756940086
 20
-1494.9864578615782
 30
0.0
 41
0.9996617837954103
 10
832.47818688226494
 20
-1495.0579783171388
 30
0.0
 41
1.0
 10
832.46605613138684
 20
-1495.0688790501304
 30
0.0
 41
1.0
 10
832.45392538050874
 20
-1495.0797797831221
 30
0.0
 41
1.0
 10
832.38564985311245
 20
-1495.1411323985942
 30
0.0
 41
0.9997267750053822
 10
832.32031634483042
 20
-1495.2056089351179
 30
0.0
 41
1.0
 10
832.25498283655475
 20
-1495.270085471635
 30
0.0
 41
0.9999667288961739
 10
832.19070989342219
 20
-1495.335619278515
 30
0.0
 41
1.0
 10
832.12188244563595
 20
-1495.4057969372845
 30
0.0
 41
1.0
 10
832.05305499784981
 20
-1495.4759745960541
 30
0.0
 41
1.0
 10
831.85112715915523
 20
-1495.6818637204626
 30
0.0
 41
0.9988205335175335
 10
831.67012154217741
 20
-1495.9063679525209
 30
0.0
 41
1.0
 10
831.63948157727077
 20
-1495.9443712029533
 30
0.0
 41
1.0
 10
831.60884161236413
 20
-1495.9823744533855
 30
0.0
 41
1.0
 10
831.36655606557702
 20
-1496.2828851863037
 30
0.0
 41
0.9997077826754581
 10
831.13907811447609
 20
-1496.5947549805139
 30
0.0
 41
1.0
 10
831.1373546993425
 20
-1496.5971177638976
 30
0.0
 41
1.0
 10
831.13563128420901
 20
-1496.5994805472815
 30
0.0
 41
1.0
 10
830.90470650284203
 20
-1496.9160759082581
 30
0.0
 41
0.9989147567078784
 10
830.70424299995761
 20
-1497.2527853694446
 30
0.0
 41
1.0
 10
830.67950185465349
 20
-1497.2943419499925
 30
0.0
 41
1.0
 10
830.65476070934938
 20
-1497.3358985305401
 30
0.0
 41
1.0
 10
830.49954941070973
 20
-1497.5965999149967
 30
0.0
 41
0.9997476598182047
 10
830.35620442319851
 20
-1497.8640096635818
 30
0.0
 41
1.0
 10
830.2128594356866
 20
-1498.1314194121683
 30
0.0
 41
0.9996258967109911
 10
830.08435118375314
 20
-1498.406267348797
 30
0.0
 41
1.0
 10
830.0711512743062
 20
-1498.4344987488869
 30
0.0
 41
1.0
 10
830.05795136485915
 20
-1498.4627301489768
 30
0.0
 41
1.0
 10
829.91774264386015
 20
-1498.7626025469276
 30
0.0
 41
0.9998735413945785
 10
829.7871412971374
 20
-1499.0667821464006
 30
0.0
 41
1.0
 10
829.78369846907606
 20
-1499.0748007318671
 30
0.0
 41
1.0
 10
829.78025564101472
 20
-1499.0828193173338
 30
0.0
 41
1.0
 10
829.65653995041657
 20
-1499.3709617458692
 30
0.0
 41
0.9999377418857678
 10
829.53928514824224
 20
-1499.6617932135432
 30
0.0
 41
1.0
 10
829.42203034606632
 20
-1499.9526246812211
 30
0.0
 41
0.9999508299510053
 10
829.31056640268935
 20
-1500.2457243580418
 30
0.0
 41
1.0
 10
829.3074856340271
 20
-1500.253825384005
 30
0.0
 41
1.0
 10
829.30440486536486
 20
-1500.2619264099683
 30
0.0
 41
1.0
 10
829.18677938466112
 20
-1500.5712281387205
 30
0.0
 41
0.9999609228433124
 10
829.0746407817893
 20
-1500.8825611547309
 30
0.0
 41
1.0
 10
829.07168477143932
 20
-1500.8907679951412
 30
0.0
 41
1.0
 10
829.06872876108923
 20
-1500.8989748355518
 30
0.0
 41
1.0
 10
828.9506781375178
 20
-1501.2267215323816
 30
0.0
 41
0.9999674607406802
 10
828.83793061144581
 20
-1501.5563301523873
 30
0.0
 41
1.0
 10
828.78653222088519
 20
-1501.7065893480735
 30
0.0
 41
1.0
 10
828.73513383032468
 20
-1501.85684854376
 30
0.0
 41
1.0
 10
828.61912322356579
 20
-1502.1959965262658
 30
0.0
 41
0.999928753230991
 10
828.51124181959426
 20
-1502.537817265244
 30
0.0
 41
1.0
 10
828.46476456351797
 20
-1502.6850798094156
 30
0.0
 41
1.0
 10
828.41828730744157
 20
-1502.8323423535871
 30
0.0
 41
1.0
 10
828.40336041570731
 20
-1502.8796380039539
 30
0.0
 41
0.9999998224595555
 10
828.38848990689303
 20
-1502.9269514124608
 30
0.0
 41
1.0
 10
826.76783377009758
 20
-1508.0749799142502
 30
0.0
 41
1.0
 10
825.14717763330214
 20
-1513.2230084160396
 30
0.0
 41
1.0
 10
824.2418691894112
 20
-1513.2230084160396
 30
0.0
 41
1.0
 10
823.33656074552027
 20
-1513.2230084160396
 30
0.0
 41
1.0
 10
825.18864515690632
 20
-1507.335936493572
 30
0.0
 41
1.0
 10
827.04072956829236
 20
-1501.4488645711044
 30
0.0
 41
1.0
 10
827.05085132659508
 20
-1501.416821357655
 30
0.0
 41
1.0
 10
827.12345899544482
 20
-1501.1865218158291
 30
0.0
 41
1.0
 10
827.1960666642949
 20
-1500.9562222740024
 30
0.0
 41
0.9999825681975507
 10
827.26594970350686
 20
-1500.7250813789353
 30
0.0
 41
1.0
 10
827.31424076567055
 20
-1500.56535679543
 30
0.0
 41
1.0
 10
827.36253182783412
 20
-1500.405632211925
 30
0.0
 41
1.0
 10
827.45968418114683
 20
-1500.0842969901632
 30
0.0
 41
0.999967252896088
 10
827.55162298676692
 20
-1499.7614314445882
 30
0.0
 41
1.0
 10
827.55441187043198
 20
-1499.751637599215
 30
0.0
 41
1.0
 10
827.55720075409693
 20
-1499.7418437538417
 30
0.0
 41
1.0
 10
827.64356179238939
 20
-1499.438565899005
 30
0.0
 41
0.9999899749139393
 10
827.72720340192495
 20
-1499.1345268105495
 30
0.0
 41
1.0
 10
827.73730932094224
 20
-1499.0977915728718
 30
0.0
 41
1.0
 10
827.74741523995954
 20
-1499.0610563351941
 30
0.0
 41
1.0
 10
827.81084501145892
 20
-1498.8304877220999
 30
0.0
 41
0.9999214200505585
 10
827.86847443983743
 20
-1498.5984013798877
 30
0.0
 41
1.0
 10
827.88124029201617
 20
-1498.5469904944989
 30
0.0
 41
1.0
 10
827.89400614419492
 20
-1498.4955796091099
 30
0.0
 41
1.0
 10
827.9261038682107
 20
-1498.3663150376965
 30
0.0
 41
0.999982868167574
 10
827.95668612021052
 20
-1498.236683563211
 30
0.0
 41
1.0
 10
827.98726837220772
 20
-1498.1070520887354
 30
0.0
 41
0.9999389844477921
 10
828.01497936099861
 20
-1497.9767766328273
 30
0.0
 41
1.0
 10
828.02211710471715
 20
-1497.9432205289979
 30
0.0
 41
1.0
 10
828.02925484843558
 20
-1497.9096644251686
 30
0.0
 41
1.0
 10
828.07124132466538
 20
-1497.7122767615929
 30
0.0
 41
0.9998933699440599
 10
828.10744558906777
 20
-1497.5137471538333
 30
0.0
 41
1.0
 10
828.10881841428397
 20
-1497.5062191331376
 30
0.0
 41
1.0
 10
828.11019123950018
 20
-1497.4986911124417
 30
0.0
 41
1.0
 10
828.14914115433544
 20
-1497.2851054632886
 30
0.0
 41
0.9996850305193742
 10
828.17732483059478
 20
-1497.0698344578464
 30
0.0
 41
1.0
 10
828.17931986396343
 20
-1497.0545961037292
 30
0.0
 41
1.0
 10
828.18131489733207
 20
-1497.0393577496122
 30
0.0
 41
1.0
 10
828.20872275979173
 20
-1496.8300125224544
 30
0.0
 41
0.9994697936706444
 10
828.22244731901105
 20
-1496.6193273271242
 30
0.0
 41
1.0
 10
828.22292438826071
 20
-1496.6120038549129
 30
0.0
 41
1.0
 10
828.22340145751036
 20
-1496.6046803827019
 30
0.0
 41
1.0
 10
828.23617187823083
 20
-1496.4086421317934
 30
0.0
 41
0.999180489313656
 10
828.23304356195786
 20
-1496.2122132818199
 30
0.0
 41
1.0
 10
828.23295968313573
 20
-1496.2069464804081
 30
0.0
 41
1.0
 10
828.23287580431361
 20
-1496.201679678996
 30
0.0
 41
1.0
 10
828.22991524568511
 20
-1496.0157844318471
 30
0.0
 41
0.9988448329321682
 10
828.20912370006135
 20
-1495.8310318420131
 30
0.0
 41
1.0
 10
828.20752962635845
 20
-1495.8168669862428
 30
0.0
 41
1.0
 10
828.20593555265555
 20
-1495.8027021304724
 30
0.0
 41
1.0
 10
828.18833215443772
 20
-1495.6462792521806
 30
0.0
 41
0.9985503209458864
 10
828.15401588213808
 20
-1495.4926550680905
 30
0.0
 41
1.0
 10
828.14642989006677
 20
-1495.4586947406897
 30
0.0
 41
1.0
 10
828.13884389799546
 20
-1495.4247344132891
 30
0.0
 41
1.0
 10
828.11969960983845
 20
-1495.3390308840005
 30
0.0
 41
0.999103678136978
 10
828.09337474818722
 20
-1495.2552537966762
 30
0.0
 41
1.0
 10
828.08939252273058
 20
-1495.2425806341637
 30
0.0
 41
1.0
 10
828.08541029727405
 20
-1495.2299074716511
 30
0.0
 41
1.0
 10
828.06704988653439
 20
-1495.1714767093454
 30
0.0
 41
0.9998874504367914
 10
828.0469446788577
 20
-1495.113623107128
 30
0.0
 41
1.0
 10
828.02683947117941
 20
-1495.0557695049051
 30
0.0
 41
0.9994041637543654
 10
828.00279085824513
 20
-1494.9994408010155
 30
0.0
 41
1.0
 10
827.99859407402118
 20
-1494.9896107365335
 30
0.0
 41
1.0
 10
827.99439728979712
 20
-1494.9797806720517
 30
0.0
 41
1.0
 10
827.9665184588024
 20
-1494.9144805060841
 30
0.0
 41
0.999184684070208
 10
827.93346210210927
 20
-1494.8516424748038
 30
0.0
 41
1.0
 10
827.93232549571405
 20
-1494.8494818583488
 30
0.0
 41
1.0
 10
827.93118888931883
 20
-1494.8473212418937
 30
0.0
 41
1.0
 10
827.90040574541638
 20
-1494.788804443524
 30
0.0
 41
0.9989253167923382
 10
827.86433632136118
 20
-1494.7333895151332
 30
0.0
 41
1.0
 10
827.86328219668724
 20
-1494.7317700203714
 30
0.0
 41
1.0
 10
827.86222807201329
 20
-1494.7301505256096
 30
0.0
 41
1.0
 10
827.82826689730678
 20
-1494.6779745867436
 30
0.0
 41
0.9986467172835924
 10
827.78906974466895
 20
-1494.6296085531135
 30
0.0
 41
1.0
 10
827.78819561596811
 20
-1494.6285299508352
 30
0.0
 41
1.0
 10
827.78732148726726
 20
-1494.6274513485569
 30
0.0
 41
1.0
 10
827.74987259203147
 20
-1494.5812425194838
 30
0.0
 41
0.9984001104267288
 10
827.70744586151432
 20
-1494.5395574121151
 30
0.0
 41
1.0
 10
827.70685872340493
 20
-1494.5389805372338
 30
0.0
 41
1.0
 10
827.70627158529555
 20
-1494.5384036623525
 30
0.0
 41
1.0
 10
827.66501913099739
 20
-1494.4978723047464
 30
0.0
 41
0.9982442159081534
 10
827.61926302966162
 20
-1494.462503743486
 30
0.0
 41
1.0
 10
827.61904823420014
 20
-1494.462337710843
 30
0.0
 41
1.0
 10
827.61883343873876
 20
-1494.4621716782001
 30
0.0
 41
1.0
 10
827.57350692832586
 20
-1494.4271351822256
 30
0.0
 41
0.9982450060835204
 10
827.52435594925419
 20
-1494.3977033991923
 30
0.0
 41
1.0
 10
827.4752049701824
 20
-1494.3682716161588
 30
0.0
 41
0.9983922639635456
 10
827.42303866401744
 20
-1494.3445919815047
 30
0.0
 41
1.0
 10
827.42281178669305
 20
-1494.3444889960233
 30
0.0
 41
1.0
 10
827.42258490936865
 20
-1494.3443860105419
 30
0.0
 41
1.0
 10
827.36996484855501
 20
-1494.320500404925
 30
0.0
 41
0.9986517147150447
 10
827.31515187568698
 20
-1494.3021992858032
 30
0.0
 41
1.0
 10
827.31447395425914
 20
-1494.3019729393718
 30
0.0
 41
1.0
 10
827.31379603283131
 20
-1494.3017465929404
 30
0.0
 41
1.0
 10
827.25762721710635
 20
-1494.2829927809553
 30
0.0
 41
0.9989435598956492
 10
827.19997382995314
 20
-1494.2694750787205
 30
0.0
 41
1.0
 10
827.19889371037289
 20
-1494.2692218284678
 30
0.0
 41
1.0
 10
827.19781359079275
 20
-1494.2689685782152
 30
0.0
 41
1.0
 10
827.13799996447824
 20
-1494.2549443754747
 30
0.0
 41
0.9992249241240461
 10
827.07726845558136
 20
-1494.2456690327595
 30
0.0
 41
1.0
 10
827.07585476728991
 20
-1494.2454531243516
 30
0.0
 41
1.0
 10
827.07444107899857
 20
-1494.2452372159437
 30
0.0
 41
1.0
 10
827.0108821935205
 20
-1494.2355300564129
 30
0.0
 41
0.9994396597833044
 10
826.9468162569849
 20
-1494.2300971340674
 30
0.0
 41
1.0
 10
826.92767558950572
 20
-1494.2284739663487
 30
0.0
 41
1.0
 10
826.90853492202655
 20
-1494.2268507986298
 30
0.0
 41
1.0
 10
826.8061876505343
 20
-1494.2181715408469
 30
0.0
 41
0.9987693403122118
 10
826.70348402694742
 20
-1494.2196746042994
 30
0.0
 41
1.0
 10
826.69322969272105
 20
-1494.2198246760736
 30
0.0
 41
1.0
 10
826.68297535849467
 20
-1494.2199747478478
 30
0.0
 41
1.0
 10
826.57341959231462
 20
-1494.2215780921351
 30
0.0
 41
0.9989753644966103
 10
826.46445759229709
 20
-1494.2330810990604
 30
0.0
 41
1.0
 10
826.35549559228036
 20
-1494.2445841059857
 30
0.0
 41
0.998319006730613
 10
826.24859678131577
 20
-1494.2686190977724
 30
0.0
 41
1.0
 10
826.23969582970904
 20
-1494.270620376335
 30
0.0
 41
1.0
 10
826.23079487810219
 20
-1494.2726216548979
 30
0.0
 41
1.0
 10
826.10609416392322
 20
-1494.30065920381
 30
0.0
 41
0.9985539388303381
 10
825.98512441024434
 20
-1494.3419228798559
 30
0.0
 41
1.0
 10
825.98277897928483
 20
-1494.3427229236715
 30
0.0
 41
1.0
 10
825.98043354832521
 20
-1494.3435229674872
 30
0.0
 41
1.0
 10
825.85477293272618
 20
-1494.3863867311645
 30
0.0
 41
0.9988468746493132
 10
825.73380259042608
 20
-1494.4411048162269
 30
0.0
 41
1.0
 10
825.73061976843746
 20
-1494.4425444907868
 30
0.0
 41
1.0
 10
825.72743694644896
 20
-1494.4439841653466
 30
0.0
 41
1.0
 10
825.60010096017345
 20
-1494.5015815995278
 30
0.0
 41
0.9991322885919554
 10
825.47800037611717
 20
-1494.5695769317092
 30
0.0
 41
1.0
 10
825.46039836507157
 20
-1494.5793791337001
 30
0.0
 41
1.0
 10
825.44279635402609
 20
-1494.5891813356909
 30
0.0
 41
1.0
 10
825.34061967296998
 20
-1494.646081451471
 30
0.0
 41
0.999386003784942
 10
825.24267866889602
 20
-1494.7099974670598
 30
0.0
 41
1.0
 10
825.23706035604721
 20
-1494.7136639617524
 30
0.0
 41
1.0
 10
825.2314420431984
 20
-1494.7173304564451
 30
0.0
 41
1.0
 10
825.14473766482774
 20
-1494.773913482645
 30
0.0
 41
0.9998821494955243
 10
825.05981128900976
 20
-1494.8331317127249
 30
0.0
 41
1.0
 10
824.97488491319882
 20
-1494.8923499428004
 30
0.0
 41
0.9997976482744806
 10
824.89240928279651
 20
-1494.9549363508411
 30
0.0
 41
1.0
 10
824.87777301798997
 20
-1494.966043040622
 30
0.0
 41
1.0
 10
824.86313675318354
 20
-1494.977149730403
 30
0.0
 41
1.0
 10
824.75138859316939
 20
-1495.0619495180049
 30
0.0
 41
0.9998091630801077
 10
824.64303831514417
 20
-1495.1510498687044
 30
0.0
 41
1.0
 10
824.63003256266597
 20
-1495.1617449691512
 30
0.0
 41
1.0
 10
824.61702681018778
 20
-1495.172440069598
 30
0.0
 41
1.0
 10
824.48266502720253
 20
-1495.2829306211941
 30
0.0
 41
0.9995035112317308
 10
824.35552914943628
 20
-1495.4016644382118
 30
0.0
 41
1.0
 10
824.34588183905294
 20
-1495.4106741843661
 30
0.0
 41
1.0
 10
824.33623452866959
 20
-1495.4196839305203
 30
0.0
 41
1.0
 10
824.21281146590343
 20
-1495.5349503022767
 30
0.0
 41
0.9994630424299084
 10
824.09720306011832
 20
-1495.658053045513
 30
0.0
 41
1.0
 10
824.09352022134817
 20
-1495.6619746250246
 30
0.0
 41
1.0
 10
824.08983738257814
 20
-1495.6658962045362
 30
0.0
 41
1.0
 10
823.98159465433594
 20
-1495.7811557887467
 30
0.0
 41
0.9995160693750511
 10
823.88072862480237
 20
-1495.9029232066209
 30
0.0
 41
1.0
 10
823.8787949047213
 20
-1495.9052576308295
 30
0.0
 41
1.0
 10
823.87686118464023
 20
-1495.9075920550381
 30
0.0
 41
1.0
 10
823.77986259526949
 20
-1496.024690624495
 30
0.0
 41
0.9996561470514032
 10
823.68913637660455
 20
-1496.1467133869428
 30
0.0
 41
1.0
 10
823.68297871070445
 20
-1496.1549951759825
 30
0.0
 41
1.0
 10
823.67682104480434
 20
-1496.1632769650223
 30
0.0
 41
1.0
 10
823.59841015793859
 20
-1496.268736149392
 30
0.0
 41
0.99983490551719
 10
823.52388287600638
 20
-1496.3769747330552
 30
0.0
 41
1.0
 10
823.44935559407327
 20
-1496.4852133167201
 30
0.0
 41
0.9999728109564461
 10
823.37643269816363
 20
-1496.5945392422743
 30
0.0
 41
1.0
 10
823.3751174827521
 20
-1496.5965110117766
 30
0.0
 41
1.0
 10
823.37380226734058
 20
-1496.5984827812788
 30
0.0
 41
1.0
 10
823.29824894059595
 20
-1496.7117522458552
 30
0.0
 41
0.9999972147277912
 10
823.22323113023424
 20
-1496.8253770886729
 30
0.0
 41
1.0
 10
823.21825958761121
 20
-1496.8329071771464
 30
0.0
 41
1.0
 10
823.21328804498819
 20
-1496.8404372656196
 30
0.0
 41
1.0
 10
823.12832714937099
 20
-1496.9691222853976
 30
0.0
 41
0.999937197900734
 10
823.0462717999693
 20
-1497.0996791991711
 30
0.0
 41
1.0
 10
823.04276291560518
 20
-1497.1052621272397
 30
0.0
 41
1.0
 10
823.03925403124117
 20
-1497.1108450553083
 30
0.0
 41
1.0
 10
822.95018091311306
 20
-1497.2525678252161
 30
0.0
 41
0.9998272025611039
 10
822.86643752223085
 20
-1497.3975037019586
 30
0.0
 41
1.0
 10
822.85122235020663
 20
-1497.4238368164156
 30
0.0
 41
1.0
 10
822.8360071781824
 20
-1497.4501699308726
 30
0.0
 41
1.0
 10
822.7218334432514
 20
-1497.6477720365299
 30
0.0
 41
0.9995217214838189
 10
822.62009375369485
 20
-1497.8520543643938
 30
0.0
 41
1.0
 10
822.6124501910615
 20
-1497.8674018140935
 30
0.0
 41
1.0
 10
822.60480662842804
 20
-1497.8827492637931
 30
0.0
 41
1.0
 10
822.51790133583665
 20
-1498.0572457218782
 30
0.0
 41
0.9998269762608127
 10
822.43754686956481
 20
-1498.2348540086011
 30
0.0
 41
1.0
 10
822.35719240329388
 20
-1498.4124622953223
 30
0.0
 41
0.999894474738939
 10
822.28203160872999
 20
-1498.5923300209492
 30
0.0
 41
1.0
 10
822.27707793913919
 20
-1498.6041846758658
 30
0.0
 41
1.0
 10
822.27212426954839
 20
-1498.6160393307823
 30
0.0
 41
1.0
 10
822.19147720899412
 20
-1498.8090362708042
 30
0.0
 41
0.999950673441084
 10
822.11467968008901
 20
-1499.0035970756642
 30
0.0
 41
1.0
 10
822.10007971482173
 20
-1499.0405849974609
 30
0.0
 41
1.0
 10
822.08547974955445
 20
-1499.0775729192578
 30
0.0
 41
1.0
 10
822.03788215118675
 20
-1499.1981578805171
 30
0.0
 41
0.9999912393924209
 10
821.99129570716286
 20
-1499.3191370832162
 30
0.0
 41
1.0
 10
821.94470926314057
 20
-1499.4401162859119
 30
0.0
 41
0.9999927113997029
 10
821.8990479687576
 20
-1499.5614476933838
 30
0.0
 41
1.0
 10
821.88507953735416
 20
-1499.5985646753979
 30
0.0
 41
1.0
 10
821.87111110595083
 20
-1499.6356816574119
 30
0.0
 41
1.0
 10
821.79751294876007
 20
-1499.8312470289143
 30
0.0
 41
0.9999487550947583
 10
821.72788932378808
 20
-1500.0282623940982
 30
0.0
 41
1.0
 10
821.70429571384784
 20
-1500.0950257044005
 30
0.0
 41
1.0
 10
821.68070210390761
 20
-1500.1617890147027
 30
0.0
 41
1.0
 10
821.58601646954162
 20
-1500.4297228495147
 30
0.0
 41
0.9999808436941515
 10
821.49465488090368
 20
-1500.6988082807691
 30
0.0
 41
1.0
 10
821.40329329226358
 20
-1500.9678937120298
 30
0.0
 41
0.9999873932891322
 10
821.31463858354709
 20
-1501.2378830670384
 30
0.0
 41
1.0
 10
821.29454622667629
 20
-1501.2990723997955
 30
0.0
 41
1.0
 10
821.27445386980548
 20
-1501.3602617325528
 30
0.0
 41
1.0
 10
821.14561444734659
 20
-1501.7526297530781
 30
0.0
 41
0.9999794883032571
 10
821.02181166238552
 20
-1502.1466159593654
 30
0.0
 41
1.0
 10
821.01065940295325
 20
-1502.1821065695858
 30
0.0
 41
1.0
 10
820.99950714352099
 20
-1502.2175971798063
 30
0.0
 41
1.0
 10
820.85694897962503
 20
-1502.6712699318882
 30
0.0
 41
0.9999982761816905
 10
820.71607653960291
 20
-1503.1254689540328
 30
0.0
 41
1.0
 10
819.1279362070303
 20
-1508.1742386850362
 30
0.0
 41
1.0
 10
817.5397958744577
 20
-1513.2230084160396
 30
0.0
 41
1.0
 10
816.59104526298131
 20
-1513.2230084160396
 30
0.0
 41
1.0
 10
815.64229465150493
 20
-1513.2230084160396
 30
0.0
 41
1.0
 10
818.88057913765806
 20
-1502.8956862160935
 30
0.0
 41
1.0
 10
822.11886362381131
 20
-1492.5683640161474
 30
0.0
 41
1.0
  0
LWPOLYLINE
  5
65
100
AcDbEntity
  8
0
370
              15
390
0
  6
Continuous
 62
               7
100
AcDbPolyline
 90
      232
 70
             128
 10
796.41531784998426
 20
-1493.6527068476626
 42
0.000437080068926
 10
796.36244067582538
 20
-1493.7213734870315
 10
796.32315644478479
 20
-1493.7724805998153
 42
0.0030481992178061
 10
796.19281772765987
 20
-1493.9442022921671
 10
796.15430605591519
 20
-1493.9955890759475
 42
0.0042058245756311
 10
795.95032100524531
 20
-1494.2725948210214
 10
795.89791588274466
 20
-1494.345027667802
 42
0.0120948898740311
 10
795.60187196598247
 20
-1494.7757772723523
 10
795.50567946686056
 20
-1494.923258007577
 42
0.0141601263946199
 10
795.20203541993931
 20
-1495.4189273443112
 10
795.1624981525099
 20
-1495.4877713117492
 42
0.0071131081301564
 10
794.95722582927488
 20
-1495.8572741105811
 42
0.0068458791006671
 10
794.76234630242845
 20
-1496.2323656740641
 10
794.7555344399741
 20
-1496.245927387781
 42
0.0064120880287794
 10
794.55739218993347
 20
-1496.6533518626923
 10
794.54985750441278
 20
-1496.6693637194212
 42
0.0058857236449439
 10
794.34710211253923
 20
-1497.1137398304604
 10
794.33892718624713
 20
-1497.1322299840901
 42
0.0053189741897044
 10
794.1302228735816
 20
-1497.6181934580034
 10
794.12147506789825
 20
-1497.6391753362041
 42
0.0047503650419252
 10
793.905501341746
 20
-1498.1713747694173
 10
793.89623309339936
 20
-1498.1948511455216
 42
0.0042071762169906
 10
793.67168570967033
 20
-1498.7779447395949
 10
793.661936307323
 20
-1498.8039109144611
 42
0.0036680086486623
 10
793.4274816640077
 20
-1499.4425462990014
 10
793.41727388416314
 20
-1499.4709948333368
 42
0.0032573142628702
 10
793.17164159818628
 20
-1500.1698474931197
 10
793.10299107736171
 20
-1500.3693105771258
 42
0.0026133366650227
 10
792.75454587859781
 20
-1501.3991738608149
 10
792.69128909110907
 20
-1501.5894046961721
 42
0.0020592950739497
 10
792.47742602212998
 20
-1502.2415083488211
 10
792.47437423097062
 20
-1502.2509448372191
 42
0.002560992853157
 10
792.27255372948105
 20
-1502.8860900595967
 10
792.26996236235334
 20
-1502.8943924005403
 42
0.0031362356240318
 10
792.08047157667738
 20
-1503.5151552567168
 10
792.07834053376212
 20
-1503.5222965628873
 42
0.003722991802578
 10
791.90154014682366
 20
-1504.1312818649021
 10
791.89986155761062
 20
-1504.1372287550998
 42
0.0043077623709522
 10
791.73612075555218
 20
-1504.7370474868455
 42
0.0047654161825597
 10
791.58329203304277
 20
-1505.3397335757211
 10
791.54882742419704
 20
-1505.4812953528976
 42
0.0112969368444262
 10
791.35296306605403
 20
-1506.3729875135191
 10
791.32495667695684
 20
-1506.5158155596198
 42
0.0130056762570159
 10
791.12411943331017
 20
-1507.7027566312647
 10
791.10357968316271
 20
-1507.8468347447442
 42
0.01387215321448
 10
790.99987667862524
 20
-1508.7536642305674
 10
790.98058119071698
 20
-1508.9771619524972
 42
0.0071254697009683
 10
790.94723454479481
 20
-1509.4403489613396
 10
790.94227357063164
 20
-1509.5263529558977
 42
0.002888179920584
 10
790.92713527734168
 20
-1509.8180946657424
 42
0.0060297297130036
 10
790.91720307756634
 20
-1510.1100436018455
 10
790.91614079589908
 20
-1510.1584359737872
 42
0.0229523164153298
 10
790.92387182368475
 20
-1510.4811908200738
 10
790.92809759720512
 20
-1510.5415943540906
 42
0.0123673300666215
 10
790.94717624372345
 20
-1510.7427150792648
 42
0.0128577674476111
 10
790.97637163412969
 20
-1510.9426129291915
 10
790.98349750751674
 20
-1510.9839417437886
 42
0.0285717853771146
 10
791.04799150921201
 20
-1511.2620578951003
 10
791.06166003287888
 20
-1511.3087126645789
 42
0.0316283099160078
 10
791.17747061279306
 20
-1511.6277271664048
 10
791.1805193045484
 20
-1511.63471353873
 42
0.0338984824230942
 10
791.3299510155158
 20
-1511.9222795029195
 10
791.33225974488562
 20
-1511.9260705321954
 42
0.0350228718354408
 10
791.51462003555923
 20
-1512.1831225168723
 10
791.51550528733503
 20
-1512.1842015946372
 42
0.0347476747528915
 10
791.72992997457436
 20
-1512.4113866418566
 42
0.0331337701913359
 10
791.97317330032013
 20
-1512.6075153039335
 10
791.97427339883689
 20
-1512.6082880071065
 42
0.0305233319081534
 10
792.2428180944105
 20
-1512.773416177198
 10
792.24604813891142
 20
-1512.7751401890605
 42
0.0273744481155377
 10
792.53860185048438
 20
-1512.9112783329504
 10
792.5437063856233
 20
-1512.9133219174207
 42
0.0240964406196288
 10
792.85918346126812
 20
-1513.0223056437017
 10
792.86576679047903
 20
-1513.024230383377
 42
0.0209636179812321
 10
793.20316694313385
 20
-1513.1076985313093
 10
793.21079940358027
 20
-1513.1092504443104
 42
0.0181388704692338
 10
793.56912179558014
 20
-1513.1686665375246
 10
793.57740264395693
 20
-1513.1697327213415
 42
0.0156086547583825
 10
793.95559000814148
 20
-1513.206468907918
 10
793.99878526047553
 20
-1513.2093074103973
 42
0.0137148329021278
 10
794.32645840577163
 20
-1513.2218276656486
 10
794.37239459571799
 20
-1513.2223220987639
 42
0.0051057823889057
 10
794.60854018228986
 20
-1513.2224523531729
 42
0.0052256693307728
 10
794.84463746606104
 20
-1513.2177035287089
 10
794.91486424981792
 20
-1513.2155565626945
 42
0.0161507179049442
 10
795.29060132792154
 20
-1513.1919061923677
 10
795.3106142882923
 20
-1513.1899959970804
 42
0.0101216737834791
 10
795.72464150978601
 20
-1513.1420030667143
 10
795.75869479920971
 20
-1513.1373553699052
 42
0.0245291776397619
 10
796.23548445476183
 20
-1513.0482802918289
 10
796.32030777028922
 20
-1513.0280843714822
 42
0.0143509212562526
 10
796.67693887422445
 20
-1512.9322797377044
 42
0.0156557857033206
 10
797.02715493895016
 20
-1512.8152685218863
 10
797.03465615344635
 20
-1512.8124983601315
 42
0.0170137333632694
 10
797.39125214913122
 20
-1512.6668407452589
 10
797.3983560715352
 20
-1512.6636529096968
 42
0.0183105364408159
 10
797.75770573969669
 20
-1512.486317867875
 10
797.76465250434023
 20
-1512.4825674330002
 42
0.0194899958148605
 10
798.12313324532545
 20
-1512.2705884511086
 10
798.13014712466088
 20
-1512.2660631088145
 42
0.0204869852954187
 10
798.48416142675649
 20
-1512.0165430937273
 10
798.49142703534187
 20
-1512.0109630283803
 42
0.0212516938553682
 10
798.83741696644847
 20
-1511.7210590314869
 10
798.8839336605231
 20
-1511.678591721394
 42
0.0215248918247518
 10
799.14395982941323
 20
-1511.4198274423975
 10
799.18898956379974
 20
-1511.3709833210414
 42
0.0114578554960678
 10
799.34378171747107
 20
-1511.1951603875893
 10
799.35497625345363
 20
-1511.1818416240487
 42
0.0061531305130152
 10
799.48145089945217
 20
-1511.0275520907383
 42
0.0006325587119971
 10
799.60582938359403
 20
-1510.8715487150751
 10
799.62886951865539
 20
-1510.8425751944033
 42
0.0041897761556939
 10
799.79732492263759
 20
-1510.6270558183292
 10
799.85578704252032
 20
-1510.5509544713561
 42
0.0092993880032229
 10
800.13239896974119
 20
-1510.1766757074761
 10
800.21479346294598
 20
-1510.0607387038992
 42
0.0159321727087595
 10
800.56139994558532
 20
-1509.5385644831474
 10
800.6057560809769
 20
-1509.4668849188934
 42
0.0085547317023955
 10
800.84026784630009
 20
-1509.0730099696727
 42
0.0084601156889312
 10
801.06124402374189
 20
-1508.6713831206414
 10
801.06935949757258
 20
-1508.6560234383676
 42
0.0081429654285231
 10
801.2926087680105
 20
-1508.216301925826
 10
801.3014689321941
 20
-1508.1981230838076
 42
0.0076574581331813
 10
801.52787644276248
 20
-1507.7149402085511
 10
801.5373560834845
 20
-1507.6938757302514
 42
0.0070682724200865
 10
801.76780099129519
 20
-1507.1618384254609
 10
801.77779127527299
 20
-1507.1378492364586
 42
0.0064559514444222
 10
802.01312448345061
 20
-1506.5515369699499
 10
802.02353384161961
 20
-1506.5246020444974
 42
0.0058311413907505
 10
802.26458057838067
 20
-1505.8785699501184
 10
802.27533565576994
 20
-1505.8486856089532
 42
0.0052312425821073
 10
802.52291693381335
 20
-1505.1374831951109
 10
802.53396077019056
 20
-1505.104656483049
 42
0.0046680544796663
 10
802.78888919792541
 20
-1504.3228301672932
 10
802.83088134796617
 20
-1504.1898469300099
 42
0.0041666856444074
 10
803.03416736036365
 20
-1503.5268781549967
 10
803.0718298010014
 20
-1503.4002970474307
 42
0.0015170975152884
 10
803.19301637944045
 20
-1502.9884286958493
 42
-0.000488799311646
 10
803.31335615255296
 20
-1502.5763102838439
 10
803.3898334100586
 20
-1502.3153528978662
 42
0.0002583378927313
 10
803.66304798009048
 20
-1501.3812961947981
 10
803.74482082969746
 20
-1501.1011969351109
 42
0.0006636169669956
 10
803.93868858971086
 20
-1500.4338440115168
 10
803.94378524405954
 20
-1500.4162124286313
 42
0.0010589131322017
 10
804.12523394497453
 20
-1499.7834810855879
 10
804.13021601545904
 20
-1499.7659681785537
 42
0.0015655524462458
 10
804.29848622263785
 20
-1499.167351499367
 10
804.30331642305009
 20
-1499.1499593404412
 42
0.0021640440474817
 10
804.45760639503874
 20
-1498.5849323224131
 10
804.46224061446503
 20
-1498.5676675924328
 42
0.0028763871848866
 10
804.60175633252175
 20
-1498.0356996415724
 10
804.60614219669105
 20
-1498.01857566341
 42
0.0037310511943111
 10
804.73009888852584
 20
-1497.5191280693939
 10
804.73417410881461
 20
-1497.5021677981495
 42
0.0047652197770881
 10
804.84179800932327
 20
-1497.0346900298432
 10
804.84548860864493
 20
-1497.0179304747007
 42
0.0060276699301389
 10
804.93601870780026
 20
-1496.581854679549
 10
804.93923739808804
 20
-1496.565353465247
 42
0.0075824337754793
 10
805.01192670750493
 20
-1496.1600863008136
 10
805.01457208488659
 20
-1496.1439313533549
 42
0.0095130624612397
 10
805.06868732051635
 20
-1495.7688420002914
 10
805.07567354439914
 20
-1495.7129084421738
 42
0.0121054653223863
 10
805.10226487497687
 20
-1495.4480126137012
 10
805.10313136473644
 20
-1495.4366091707711
 42
0.0069050827393404
 10
805.11822018277417
 20
-1495.1936679439277
 10
805.11935548244276
 20
-1495.1701416868821
 42
0.0169063976701716
 10
805.12218276142289
 20
-1494.9739489595822
 10
805.12101210989181
 20
-1494.9136131982414
 42
0.0052007732895488
 10
805.11875866129867
 20
-1494.8380198080808
 42
0.0054038123297136
 10
805.09879514945897
 20
-1494.7180015120657
 10
805.09370929358943
 20
-1494.6893430254897
 42
0.0112050460469696
 10
805.05832493153093
 20
-1494.5130165871512
 10
805.04049996949016
 20
-1494.43347500043
 42
0.0240764468009545
 10
804.94960260334415
 20
-1494.1032379649293
 10
804.93104384053106
 20
-1494.0466177999365
 42
0.0256812331838485
 10
804.78768092034102
 20
-1493.6748935936778
 10
804.78227149452016
 20
-1493.6627622586891
 42
0.0268360501214714
 10
804.61284425366978
 20
-1493.3317691246671
 10
804.60730784603481
 20
-1493.3222494543547
 42
0.0274670231728098
 10
804.41510686962147
 20
-1493.0299620794374
 10
804.40972556965926
 20
-1493.0226829318965
 42
0.0275035967099903
 10
804.198152690097
 20
-1492.7671670415918
 10
804.19308318913056
 20
-1492.7616879539614
 42
0.0269557673524174
 10
803.9656796456909
 20
-1492.5410456679992
 10
803.96093658790949
 20
-1492.5369157135394
 42
0.0259124802202063
 10
803.72138175647751
 20
-1492.3492251863861
 10
803.7168509112953
 20
-1492.3460396840555
 42
0.0245162153003292
 10
803.46893455820077
 20
-1492.1893066749453
 10
803.46440801187532
 20
-1492.1867464777438
 42
0.0229282588833425
 10
803.21198845504921
 20
-1492.0588782852456
 10
803.20720796121361
 20
-1492.056725985484
 42
0.0212984135697596
 10
802.95417000875068
 20
-1491.9555270682413
 10
802.94886572378118
 20
-1491.9536635054812
 42
0.019755546233888
 10
802.69908738605818
 20
-1491.8768480875165
 42
0.0183511896796953
 10
802.44415866058876
 20
-1491.8192651805498
 10
802.35779346387073
 20
-1491.8030623901657
 42
0.0338057877151985
 10
802.07228611461176
 20
-1491.7692539850257
 10
801.98128070956921
 20
-1491.7646743297641
 42
0.0091990524487533
 10
801.87543360093582
 20
-1491.7612984738423
 42
0.0028333980778388
 10
801.76951968494086
 20
-1491.7604703663255
 10
801.76860423189351
 20
-1491.7604683965014
 42
-0.0023619827804393
 10
801.66085821679519
 20
-1491.7597275554228
 10
801.62445304661173
 20
-1491.7593052489599
 42
0.0008824598469965
 10
801.4438970567511
 20
-1491.7575294707215
 10
801.40003562435595
 20
-1491.757175509196
 42
0.0038132665768147
 10
801.13175272849128
 20
-1491.7570565731291
 10
801.11521907368365
 20
-1491.7571753392729
 42
0.0060665569338439
 10
800.81393858208287
 20
-1491.7629956386941
 10
800.79968825006699
 20
-1491.7634439466613
 42
0.0080356953335167
 10
800.47022953372664
 20
-1491.7791116687281
 10
800.45815951864051
 20
-1491.7798802516686
 42
0.0098996399107299
 10
800.10539643399125
 20
-1491.8093654808667
 10
800.09535072461495
 20
-1491.8104057770649
 42
0.0117740981368482
 10
799.7241938662703
 20
-1491.8576980245944
 10
799.71597116978364
 20
-1491.8589431411656
 42
0.0137435215137283
 10
799.33138235029412
 20
-1491.9280401147282
 10
799.32472531117514
 20
-1491.9294260109609
 42
0.0158359869384352
 10
798.93172821737608
 20
-1492.024318099441
 10
798.92631503050552
 20
-1492.0258080403123
 42
0.018055412402626
 10
798.52999998588973
 20
-1492.150446056552
 10
798.52544319780975
 20
-1492.1520620928172
 42
0.0203657431285911
 10
798.13096567999639
 20
-1492.3103224343338
 10
798.12682214099107
 20
-1492.3121840557749
 42
0.0226819684651859
 10
797.73938608478898
 20
-1492.5078266344451
 10
797.73518629376929
 20
-1492.5101922263657
 42
0.0248634984607788
 10
797.36000435259007
 20
-1492.7468188723115
 10
797.31180942380252
 20
-1492.7806759141397
 42
0.0267044190883958
 10
797.03751672688759
 20
-1492.9961162900067
 42
0.0139303002200731
 10
796.78134956094971
 20
-1493.2333551309177
 10
796.77649617522786
 20
-1493.2381077937787
 42
0.0283460963450235
 10
796.53242358099862
 20
-1493.5058384542265
 10
796.49275507584412
 20
-1493.5546400316971
 42
0.0070695364826256
 10
796.41531784998426
 20
-1493.6527068476626
 42
0.0070695364826256
  0
LWPOLYLINE
  5
66
100
AcDbEntity
  8
0
370
              15
390
0
  6
Continuous
 62
               7
100
AcDbPolyline
 90
      226
 70
             128
 10
792.88649741273787
 20
-1509.3742956538463
 42
-0.0026277636675979
 10
792.88641952893772
 20
-1509.3075237281539
 10
792.88663688716986
 20
-1509.2543685106602
 42
-0.0088680296730982
 10
792.89041350346292
 20
-1509.081352728256
 10
792.8927598625753
 20
-1509.0220727028036
 42
-0.0077381705615773
 10
792.9088059733383
 20
-1508.7308122070083
 10
792.90967388451156
 20
-1508.7185239733203
 42
-0.0068872530535109
 10
792.93630596425942
 20
-1508.4033022212545
 10
792.9375101884458
 20
-1508.3910612422326
 42
-0.0062130021486002
 10
792.97510390527418
 20
-1508.0521915509887
 10
792.97660780880869
 20
-1508.0400176790777
 42
-0.0056726929666194
 10
793.02552966831161
 20
-1507.6778224569605
 10
793.02730311395544
 20
-1507.6657286567188
 42
-0.0052341884489399
 10
793.08791370021754
 20
-1507.280535401188
 10
793.08993168899201
 20
-1507.2685304712084
 42
-0.0049768450167657
 10
793.16267037041894
 20
-1506.8606859037729
 10
793.18691938514019
 20
-1506.7321379207699
 42
-0.0089029805623956
 10
793.32400023693481
 20
-1506.070362473348
 10
793.35674561225346
 20
-1505.9253310428242
 42
-0.0080318257099731
 10
793.58629422659305
 20
-1504.9796214109747
 10
793.59827915304243
 20
-1504.9334907757802
 42
-0.0074265721317721
 10
793.88229069189322
 20
-1503.9034261973968
 10
793.90217023500873
 20
-1503.8352921368116
 42
-0.0069711922704694
 10
794.22947481351571
 20
-1502.7690243964823
 10
794.28942676062195
 20
-1502.5830030381096
 42
-0.0052070422894344
 10
794.51885198588047
 20
-1501.8957309610805
 10
794.53613317804513
 20
-1501.8457036804853
 42
-0.0009167004449377
 10
794.73922506534223
 20
-1501.2612478323092
 42
-0.0025162726946661
 10
794.94632269559668
 20
-1500.6782065681689
 10
794.98354730741596
 20
-1500.5750570222251
 42
-0.0028212681456377
 10
795.23172322637333
 20
-1499.8993263900702
 10
795.24155398912694
 20
-1499.8730189453856
 42
-0.0031964916823173
 10
795.47784624678627
 20
-1499.2528141832663
 10
795.48748070079216
 20
-1499.2280041931051
 42
-0.003628183644988
 10
795.71258666188646
 20
-1498.6605635122301
 10
795.72202507203986
 20
-1498.6372660807372
 42
-0.0041269166834565
 10
795.93664276870311
 20
-1498.1198251847491
 10
795.96927572512345
 20
-1498.042946738389
 42
-0.0047472213056842
 10
796.1263205306775
 20
-1497.6825252705046
 10
796.133214611879
 20
-1497.6671046731876
 42
-0.0025651659998885
 10
796.28157264573588
 20
-1497.3397766174241
 42
-0.0057144634990372
 10
796.43532233951544
 20
-1497.0149669440448
 10
796.46335304490628
 20
-1496.9574585616717
 42
-0.0065388068374168
 10
796.64682007264821
 20
-1496.5932260650025
 10
796.65527852843172
 20
-1496.5769664856234
 42
-0.0074510843023409
 10
796.83146077430456
 20
-1496.2502782045101
 10
796.83964044483469
 20
-1496.2356374272429
 42
-0.008464897985878
 10
797.00927429793569
 20
-1495.94372841628
 10
797.01713042441963
 20
-1495.930721424636
 42
-0.0095638542805021
 10
797.18096587201796
 20
-1495.6708325526506
 10
797.18844081569341
 20
-1495.6594631911896
 42
-0.010719162680505
 10
797.34724239607726
 20
-1495.4288519566512
 10
797.35425912980565
 20
-1495.4191158642902
 42
-0.0118458573905299
 10
797.50880722832085
 20
-1495.215043668976
 42
-0.0129184518193559
 10
797.67325985192463
 20
-1495.018883152803
 10
797.70340462428419
 20
-1494.9847570739073
 42
-0.021774257963766
 10
797.8800169466208
 20
-1494.8015503036559
 10
797.89076249107461
 20
-1494.7913334704592
 42
-0.0097266568652397
 10
798.05682010993701
 20
-1494.6394858960157
 42
-0.0187720905721143
 10
798.23116768582463
 20
-1494.4974170426281
 10
798.26187367650357
 20
-1494.4742579602282
 42
-0.017942820751933
 10
798.4942943964968
 20
-1494.3117057831187
 10
798.49794672341557
 20
-1494.309341848229
 42
-0.0170047877695286
 10
798.73371036094295
 20
-1494.1678813340793
 10
798.73749334968761
 20
-1494.1657830290442
 42
-0.0160190788370765
 10
798.97440189732481
 20
-1494.0441317270549
 42
-0.0151102861488684
 10
799.21843367977374
 20
-1493.9374489509994
 10
799.27082018198325
 20
-1493.9164088181058
 42
-0.0271945441887305
 10
799.6294827410419
 20
-1493.7945440073997
 10
799.69854754153005
 20
-1493.7751944661334
 42
-0.0237596594020601
 10
800.11434438855213
 20
-1493.6797437541518
 10
800.18240724228144
 20
-1493.6674890660252
 42
-0.0213715440555214
 10
800.46828217372786
 20
-1493.628542034515
 10
800.52842933994702
 20
-1493.622952319814
 42
-0.0101465655820805
 10
800.69592187193996
 20
-1493.6108087765501
 10
800.70526225813683
 20
-1493.6103218615531
 42
-0.0100375910881522
 10
800.85441635870075
 20
-1493.6055460436278
 10
800.86467562839107
 20
-1493.6054236046132
 42
-0.0103625633371085
 10
800.99338362303592
 20
-1493.60655503814
 10
801.01564927430002
 20
-1493.6072123966048
 42
-0.0115689250235326
 10
801.09970001183081
 20
-1493.6116419028499
 42
-0.0072438037444186
 10
801.18353829127318
 20
-1493.6192311025995
 10
801.20033880074277
 20
-1493.6209976453233
 42
-0.0217917313139568
 10
801.31690856405612
 20
-1493.6384175380445
 10
801.38250865462385
 20
-1493.651164146459
 42
-0.0332943556750252
 10
801.58690081965142
 20
-1493.705204437766
 10
801.61707338820167
 20
-1493.7153725148844
 42
-0.0184824084800773
 10
801.75557844466698
 20
-1493.767823530271
 42
-0.0198002050690981
 10
801.889652785164
 20
-1493.8307075904693
 10
801.89153942254325
 20
-1493.8316853773504
 42
-0.0212242342969105
 10
802.02367836494454
 20
-1493.9074481161429
 10
802.02549366048856
 20
-1493.9085939183517
 42
-0.0226090605799935
 10
802.15399756171018
 20
-1493.998073561916
 10
802.15584200344779
 20
-1493.9994858149037
 42
-0.0238457052225689
 10
802.27902408474006
 20
-1494.1034817107654
 10
802.28097681329973
 20
-1494.1052965885322
 42
-0.0248160564162564
 10
802.39717832060091
 20
-1494.2245711897415
 10
802.39928195400239
 20
-1494.2269565234453
 42
-0.0254109591450372
 10
802.50688717186813
 20
-1494.3622449094094
 10
802.50913519378241
 20
-1494.3653864578102
 42
-0.0255528488296894
 10
802.60658187257968
 20
-1494.5174135120446
 10
802.60891297249577
 20
-1494.5214951236521
 42
-0.025214679322233
 10
802.6946939985047
 20
-1494.6909973696488
 10
802.69699623766246
 20
-1494.6961794515621
 42
-0.0244265635952208
 10
802.76965093142383
 20
-1494.8839260236082
 10
802.77889733289283
 20
-1494.9117914419478
 42
-0.0231319612893376
 10
802.82482011188438
 20
-1495.0750924887479
 42
-0.0112130424351658
 10
802.85945613442266
 20
-1495.2412960889365
 10
802.86065865953515
 20
-1495.247792675824
 42
-0.0210527881229967
 10
802.88634513490604
 20
-1495.428848321267
 10
802.88985572972774
 20
-1495.4642538698126
 42
-0.0190029892426206
 10
802.90529720327231
 20
-1495.7177897160807
 10
802.9061071797164
 20
-1495.7532653304538
 42
-0.0137974553663023
 10
802.90455832688099
 20
-1496.0782967371829
 10
802.90371287192499
 20
-1496.1044154817889
 42
-0.0081336634211531
 10
802.88885353670275
 20
-1496.4097629493795
 42
-0.007352692357365
 10
802.86454500332866
 20
-1496.7145111936588
 10
802.8632835795454
 20
-1496.7278478683306
 42
-0.0066886138699714
 10
802.82754799349971
 20
-1497.0584339118209
 10
802.82589090402894
 20
-1497.0720555308192
 42
-0.00613591873489
 10
802.77804030197603
 20
-1497.4288195109334
 10
802.77600280090519
 20
-1497.4427143137484
 42
-0.0056698610063828
 10
802.71535247013639
 20
-1497.8259928825973
 10
802.71294703681519
 20
-1497.8401520018172
 42
-0.0052721077274443
 10
802.63881483601506
 20
-1498.2502793414972
 10
802.63605168717379
 20
-1498.2646959768811
 42
-0.0049289272179389
 10
802.54775756907509
 20
-1498.7020044879971
 10
802.54464507439116
 20
-1498.7166733408194
 42
-0.004741595671223
 10
802.44140708285784
 20
-1499.1814700982345
 10
802.40663887249912
 20
-1499.3312771936132
 42
-0.0084404470905715
 10
802.21662242892842
 20
-1500.0915012181399
 10
802.21049574094161
 20
-1500.1143653422978
 42
-0.0039635940257677
 10
801.9890420566569
 20
-1500.9153542065476
 10
801.97566526147807
 20
-1500.9622858231369
 42
-0.0072475040837405
 10
801.70821837361621
 20
-1501.8515055395233
 10
801.63800604679079
 20
-1502.073245889489
 42
-0.0051345458830005
 10
801.35124667472871
 20
-1502.9475710773104
 10
801.32972040796267
 20
-1503.0109973444362
 42
-0.0019150016601779
 10
801.07418700109451
 20
-1503.7545464646664
 10
801.06771939670364
 20
-1503.7731339295724
 42
-0.0021524362753493
 10
800.81924134563451
 20
-1504.4774597512958
 10
800.81003092493734
 20
-1504.5032133295992
 42
-0.0024331286818104
 10
800.57377566590208
 20
-1505.1538126377154
 10
800.56472771335461
 20
-1505.1783559440614
 42
-0.0027449721789461
 10
800.34011314251609
 20
-1505.7774858229943
 10
800.33122313513172
 20
-1505.800808412826
 42
-0.0031083229769405
 10
800.1176806485139
 20
-1506.3507324504262
 10
800.10894451683544
 20
-1506.3728221662914
 42
-0.00353113432815
 10
799.90590333124646
 20
-1506.8758052920141
 10
799.89731799210051
 20
-1506.8966480155202
 42
-0.0040245640946239
 10
799.7042061883044
 20
-1507.3549573381167
 10
799.6957700747007
 20
-1507.3745367061902
 42
-0.0046015135852789
 10
799.51201378153758
 20
-1507.7904417358309
 10
799.5037276037117
 20
-1507.8087388752779
 42
-0.0052768638272866
 10
799.32875008475366
 20
-1508.1845117595533
 10
799.32061787412226
 20
-1508.2015050981058
 42
-0.0060672675641894
 10
799.15383826136076
 20
-1508.5394207212107
 10
799.14586878087869
 20
-1508.555085980209
 42
-0.0069904648870531
 10
798.98670038687783
 20
-1508.8574217868718
 10
798.97890898726553
 20
-1508.871732336102
 42
-0.0080637022762421
 10
798.82675712692117
 20
-1509.1407676392523
 10
798.8191680942939
 20
-1509.1536955048464
 42
-0.0093006455666394
 10
798.67342741775838
 20
-1509.3917099033561
 10
798.66607675101477
 20
-1509.4032278725292
 42
-0.0107060778047094
 10
798.52612820757622
 20
-1509.6124981899081
 10
798.51906643929726
 20
-1509.622583732473
 42
-0.0122723111415024
 10
798.38427272109857
 20
-1509.8053770619631
 10
798.38394649753889
 20
-1509.8057974497799
 42
-0.0141836319630312
 10
798.24036489457035
 20
-1509.9803672076023
 10
798.23341713892376
 20
-1509.9883422078608
 42
-0.0175957477211919
 10
798.0935109708837
 20
-1510.1379630962717
 42
-0.0080466359675404
 10
797.94604720585039
 20
-1510.2802856244259
 10
797.90001266133606
 20
-1510.3233060625141
 42
-0.026960026039696
 10
797.64673241535411
 20
-1510.5356293210227
 10
797.58016527905431
 20
-1510.5855807356486
 42
-0.0178362839753011
 10
797.34022078940029
 20
-1510.7525986618996
 10
797.33297581839804
 20
-1510.7572671741057
 42
-0.0174650732647814
 10
797.09663962095851
 20
-1510.8981281390636
 42
-0.0169240130168007
 10
796.85117337510439
 20
-1511.0224203988394
 10
796.80518721954309
 20
-1511.0437823544082
 42
-0.0318883036839615
 10
796.45483636392248
 20
-1511.1801206639186
 10
796.38647082875752
 20
-1511.2018212843941
 42
-0.0284435909898959
 10
796.01042070246729
 20
-1511.2980387198686
 10
795.97526254196919
 20
-1511.304932315697
 42
-0.0243909341015597
 10
795.66181908104977
 20
-1511.3506533467273
 10
795.61153835428127
 20
-1511.3554988936287
 42
-0.01966392929334
 10
795.39594277675133
 20
-1511.3677471791425
 10
795.34411870559666
 20
-1511.368650439879
 42
-0.0100501510692752
 10
795.23169542392361
 20
-1511.3683500415261
 10
795.20003556254596
 20
-1511.36762896964
 42
-0.0019752031127131
 10
795.15094322589823
 20
-1511.3663168094311
 10
795.14818292266636
 20
-1511.3662321176043
 42
0.0065378752008016
 10
795.10460634792139
 20
-1511.3654652263897
 42
-0.0167974694655365
 10
795.06107552499077
 20
-1511.3638053278637
 10
795.05699618572748
 20
-1511.3635123169688
 42
-0.008128327630947
 10
795.00543638799923
 20
-1511.3589653233321
 10
794.99369681411031
 20
-1511.3577374057527
 42
-0.0126703440168474
 10
794.91897851831379
 20
-1511.3480026146808
 10
794.89619065064016
 20
-1511.3444443587659
 42
-0.0117852088444735
 10
794.77665166481347
 20
-1511.3228813636099
 10
794.7212712130447
 20
-1511.3115378233742
 42
-0.0251774592298751
 10
794.49442717403758
 20
-1511.2530398139413
 10
794.44970798418228
 20
-1511.2390729946048
 42
-0.0146525199879073
 10
794.2633149966473
 20
-1511.1748064674077
 42
-0.0166929435859682
 10
794.08133734052058
 20
-1511.0989993343533
 10
794.07668070924751
 20
-1511.0968744337392
 42
-0.0191684358435727
 10
793.891497077998
 20
-1511.0036383499491
 10
793.88816449224123
 20
-1511.0017971023958
 42
-0.0221181781813949
 10
793.70485418833789
 20
-1510.889663604024
 10
793.70250438433061
 20
-1510.8880793060339
 42
-0.0254984685376637
 10
793.52621423394464
 20
-1510.7556681560638
 10
793.50373208624364
 20
-1510.7369158471283
 42
-0.02924926488093
 10
793.37896314740033
 20
-1510.6198230474852
 42
-0.0159048957500176
 10
793.2651231499508
 20
-1510.4918030558867
 10
793.26380435937085
 20
-1510.490221442866
 42
-0.0343813379565283
 10
793.16116709774519
 20
-1510.3483501170974
 10
793.12967556638364
 20
-1510.297846725002
 42
-0.0369117275706465
 10
793.04378306448655
 20
-1510.1343694840541
 42
-0.0191751379908618
 10
792.9765896789296
 20
-1509.9619648780483
 10
792.97482635517008
 20
-1509.9568715333733
 42
-0.0378178042223933
 10
792.92503163638605
 20
-1509.7679307572932
 10
792.91903634065477
 20
-1509.7353701390909
 42
-0.0184846046477592
 10
792.89831914136107
 20
-1509.5936173185501
 42
-0.0179866351316344
 10
792.88798613628751
 20
-1509.4507265054697
 10
792.88792969384167
 20
-1509.4491688188564
 42
-0.0085497186139372
 10
792.88649741273787
 20
-1509.3742956538463
 42
-0.0085497186139372
  0
ENDBLK
  5
67
100
AcDbEntity
  8
template
390
0
100
AcDbBlockEnd
  0
BLOCK
  5
68
100
AcDbEntity
  8
notes
390
0
100
AcDbBlockBegin
  2
*D3
 70
               1
 10
0.0
 20
0.0
 30
0.0
  3
*D3
  1

  0
LINE
  5
69
100
AcDbEntity
  8
0
370
              -2
390
0
  6
Continuous
 62
               0
100
AcDbLine
 10
446.12309913040241
 20
532.34647785159143
 30
0.0
 11
446.12309913040241
 21
451.51778194041594
 31
0.0
  0
LINE
  5
6A
100
AcDbEntity
  8
0
370
              -2
390
0
  6
Continuous
 62
               0
100
AcDbLine
 10
546.12309913040247
 20
532.34341303607903
 30
0.0
 11
546.12309913040247
 21
451.51778194041594
 31
0.0
  0
LINE
  5
6B
100
AcDbEntity
  8
0
370
              -2
390
0
  6
Continuous
 62
               0
100
AcDbLine
 10
446.12309913040241
 20
451.51778194041594
 30
0.0
 11
546.12309913040247
 21
451.51778194041594
 31
0.0
  0
CIRCLE
  5
6C
102
{ACAD_REACTORS
330
6D
102
}
100
AcDbEntity
  8
0
370
              -2
390
0
  6
Continuous
 62
               0
100
AcDbCircle
 10
446.12309913040241
 20
451.51778194041594
 30
0.0
 40
4.99969482421875
  0
HATCH
  5
6D
100
AcDbEntity
  8
0
370
              -2
390
0
  6
Continuous
 62
               0
100
AcDbHatch
 10
0.0
 20
0.0
 30
0.0
210
0.0
220
0.0
230
1.0
  2
SOLID
 70
               1
 71
               1
 91
        1
 92
        1
 93
        1
 72
               2
 10
446.12309913040241
 20
451.51778194041594
 40
4.99969482421875
 50
0.0
 51
360.0
 73
               0
 97
        1
330
6C
 75
               0
 76
               1
 98
        1
 10
0.0
 20
0.0
  0
CIRCLE
  5
6E
102
{ACAD_REACTORS
330
6F
102
}
100
AcDbEntity
  8
0
370
              -2
390
0
  6
Continuous
 62
               0
100
AcDbCircle
 10
546.12309913040247
 20
451.51778194041594
 30
0.0
 40
4.99969482421875
  0
HATCH
  5
6F
100
AcDbEntity
  8
0
370
              -2
390
0
  6
Continuous
 62
               0
100
AcDbHatch
 10
0.0
 20
0.0
 30
0.0
210
0.0
220
0.0
230
1.0
  2
SOLID
 70
               1
 71
               1
 91
        1
 92
        1
 93
        1
 72
               2
 10
546.12309913040247
 20
451.51778194041594
 40
4.99969482421875
 50
0.0
 51
360.0
 73
               0
 97
        1
330
6E
 75
               0
 76
               1
 98
        1
 10
0.0
 20
0.0
  0
MTEXT
  5
70
100
AcDbEntity
  8
0
390
0
 62
               0
100
AcDbMText
 10
472.31059744822687
 20
485.39539912791594
 30
0.0
 40
24.432617187500004
 41
0.0
 71
               1
 72
               1
  1
100
  7
ＭＳ ゴシック
 73
               1
 44
0.7828267384257843
  0
POINT
  5
71
100
AcDbEntity
  8
Defpoints
370
               0
390
0
 62
               0
100
AcDbPoint
 10
546.12309913040247
 20
557.34341303607903
 30
0.0
  0
POINT
  5
72
100
AcDbEntity
  8
Defpoints
370
               0
390
0
 62
               0
100
AcDbPoint
 10
446.12309913040241
 20
557.34647785159143
 30
0.0
  0
POINT
  5
73
100
AcDbEntity
  8
Defpoints
370
               0
390
0
 62
               0
100
AcDbPoint
 10
446.12309913040241
 20
451.51778194041594
 30
0.0
  0
ENDBLK
  5
74
100
AcDbEntity
  8
notes
390
0
100
AcDbBlockEnd
  0
BLOCK
  5
75
100
AcDbEntity
  8
notes
390
0
100
AcDbBlockBegin
  2
*D4
 70
               1
 10
0.0
 20
0.0
 30
0.0
  3
*D4
  1

  0
LINE
  5
76
100
AcDbEntity
  8
0
370
              -2
390
0
  6
Continuous
 62
               0
100
AcDbLine
 10
546.12309913040247
 20
532.34341303607903
 30
0.0
 11
546.12309913040247
 21
451.51778194041594
 31
0.0
  0
LINE
  5
77
100
AcDbEntity
  8
0
370
              -2
390
0
  6
Continuous
 62
               0
100
AcDbLine
 10
606.09784110886108
 20
709.02324163099149
 30
0.0
 11
606.09784110886108
 21
451.51778194041594
 31
0.0
  0
LINE
  5
78
100
AcDbEntity
  8
0
370
              -2
390
0
  6
Continuous
 62
               0
100
AcDbLine
 10
546.12309913040247
 20
451.51778194041594
 30
0.0
 11
606.09784110886108
 21
451.51778194041594
 31
0.0
  0
CIRCLE
  5
79
102
{ACAD_REACTORS
330
7A
102
}
100
AcDbEntity
  8
0
370
              -2
390
0
  6
Continuous
 62
               0
100
AcDbCircle
 10
546.12309913040247
 20
451.51778194041594
 30
0.0
 40
4.99969482421875
  0
HATCH
  5
7A
100
AcDbEntity
  8
0
370
              -2
390
0
  6
Continuous
 62
               0
100
AcDbHatch
 10
0.0
 20
0.0
 30
0.0
210
0.0
220
0.0
230
1.0
  2
SOLID
 70
               1
 71
               1
 91
        1
 92
        1
 93
        1
 72
               2
 10
546.12309913040247
 20
451.51778194041594
 40
4.99969482421875
 50
0.0
 51
360.0
 73
               0
 97
        1
330
79
 75
               0
 76
               1
 98
        1
 10
0.0
 20
0.0
  0
CIRCLE
  5
7B
102
{ACAD_REACTORS
330
7C
102
}
100
AcDbEntity
  8
0
370
              -2
390
0
  6
Continuous
 62
               0
100
AcDbCircle
 10
606.09784110886108
 20
451.51778194041594
 30
0.0
 40
4.99969482421875
  0
HATCH
  5
7C
100
AcDbEntity
  8
0
370
              -2
390
0
  6
Continuous
 62
               0
100
AcDbHatch
 10
0.0
 20
0.0
 30
0.0
210
0.0
220
0.0
230
1.0
  2
SOLID
 70
               1
 71
               1
 91
        1
 92
        1
 93
        1
 72
               2
 10
606.09784110886108
 20
451.51778194041594
 40
4.99969482421875
 50
0.0
 51
360.0
 73
               0
 97
        1
330
7B
 75
               0
 76
               1
 98
        1
 10
0.0
 20
0.0
  0
MTEXT
  5
7D
100
AcDbEntity
  8
0
390
0
 62
               0
100
AcDbMText
 10
560.23547011963171
 20
485.39539912791594
 30
0.0
 40
24.432617187500004
 41
0.0
 71
               1
 72
               1
  1
60
  7
ＭＳ ゴシック
 73
               1
 44
0.7828267384257843
  0
POINT
  5
7E
100
AcDbEntity
  8
Defpoints
370
               0
390
0
 62
               0
100
AcDbPoint
 10
606.09784110886108
 20
734.02324163099149
 30
0.0
  0
POINT
  5
7F
100
AcDbEntity
  8
Defpoints
370
               0
390
0
 62
               0
100
AcDbPoint
 10
546.12309913040247
 20
557.34341303607903
 30
0.0
  0
POINT
  5
80
100
AcDbEntity
  8
Defpoints
370
               0
390
0
 62
               0
100
AcDbPoint
 10
546.12309913040247
 20
451.51778194041594
 30
0.0
  0
ENDBLK
  5
81
100
AcDbEntity
  8
notes
390
0
100
AcDbBlockEnd
  0
BLOCK
  5
82
100
AcDbEntity
  8
notes
390
0
100
AcDbBlockBegin
  2
*D5
 70
               1
 10
0.0
 20
0.0
 30
0.0
  3
*D5
  1

  0
LINE
  5
83
100
AcDbEntity
  8
0
370
              -2
390
0
  6
Continuous
 62
               0
100
AcDbLine
 10
441.21769099640068
 20
-781.69144172218273
 30
0.0
 11
346.21769099640045
 21
-781.69144172218273
 31
0.0
  0
LINE
  5
84
100
AcDbEntity
  8
0
370
              -2
390
0
  6
Continuous
 62
               0
100
AcDbLine
 10
441.21769099640068
 20
-621.6914417221825
 30
0.0
 11
346.21769099640045
 21
-621.6914417221825
 31
0.0
  0
LINE
  5
85
100
AcDbEntity
  8
0
370
              -2
390
0
  6
Continuous
 62
               0
100
AcDbLine
 10
346.21769099640045
 20
-781.69144172218273
 30
0.0
 11
346.21769099640045
 21
-621.6914417221825
 31
0.0
  0
CIRCLE
  5
86
102
{ACAD_REACTORS
330
87
102
}
100
AcDbEntity
  8
0
370
              -2
390
0
  6
Continuous
 62
               0
100
AcDbCircle
 10
346.21769099640045
 20
-781.69144172218273
 30
0.0
 40
4.99969482421875
  0
HATCH
  5
87
100
AcDbEntity
  8
0
370
              -2
390
0
  6
Continuous
 62
               0
100
AcDbHatch
 10
0.0
 20
0.0
 30
0.0
210
0.0
220
0.0
230
1.0
  2
SOLID
 70
               1
 71
               1
 91
        1
 92
        1
 93
        1
 72
               2
 10
346.21769099640045
 20
-781.69144172218273
 40
4.99969482421875
 50
0.0
 51
360.0
 73
               0
 97
        1
330
86
 75
               0
 76
               1
 98
        1
 10
0.0
 20
0.0
  0
CIRCLE
  5
88
102
{ACAD_REACTORS
330
89
102
}
100
AcDbEntity
  8
0
370
              -2
390
0
  6
Continuous
 62
               0
100
AcDbCircle
 10
346.21769099640045
 20
-621.6914417221825
 30
0.0
 40
4.99969482421875
  0
HATCH
  5
89
100
AcDbEntity
  8
0
370
              -2
390
0
  6
Continuous
 62
               0
100
AcDbHatch
 10
0.0
 20
0.0
 30
0.0
210
0.0
220
0.0
230
1.0
  2
SOLID
 70
               1
 71
               1
 91
        1
 92
        1
 93
        1
 72
               2
 10
346.21769099640045
 20
-621.6914417221825
 40
4.99969482421875
 50
0.0
 51
360.0
 73
               0
 97
        1
330
88
 75
               0
 76
               1
 98
        1
 10
0.0
 20
0.0
  0
MTEXT
  5
8A
100
AcDbEntity
  8
0
390
0
 62
               0
100
AcDbMText
 10
312.34007380890046
 20
-725.5039434043581
 30
0.0
 40
24.432617187500004
 41
0.0
 71
               1
 72
               1
  1
160
  7
ＭＳ ゴシック
 11
0.0
 21
1.0
 31
0.0
 73
               1
 44
0.7828267384257843
  0
POINT
  5
8B
100
AcDbEntity
  8
Defpoints
370
               0
390
0
 62
               0
100
AcDbPoint
 10
466.21769099640068
 20
-621.6914417221825
 30
0.0
  0
POINT
  5
8C
100
AcDbEntity
  8
Defpoints
370
               0
390
0
 62
               0
100
AcDbPoint
 10
466.21769099640068
 20
-781.69144172218273
 30
0.0
  0
POINT
  5
8D
100
AcDbEntity
  8
Defpoints
370
               0
390
0
 62
               0
100
AcDbPoint
 10
346.21769099640045
 20
-781.69144172218273
 30
0.0
  0
ENDBLK
  5
8E
100
AcDbEntity
  8
notes
390
0
100
AcDbBlockEnd
  0
BLOCK
  5
8F
100
AcDbEntity
  8
notes
390
0
100
AcDbBlockBegin
  2
*D6
 70
               1
 10
0.0
 20
0.0
 30
0.0
  3
*D6
  1

  0
LINE
  5
90
100
AcDbEntity
  8
0
370
              -2
390
0
  6
Continuous
 62
               0
100
AcDbLine
 10
441.21769099640068
 20
-621.6914417221825
 30
0.0
 11
346.21769099640045
 21
-621.6914417221825
 31
0.0
  0
LINE
  5
91
100
AcDbEntity
  8
0
370
              -2
390
0
  6
Continuous
 62
               0
100
AcDbLine
 10
441.21769099640068
 20
-341.69144172218114
 30
0.0
 11
346.21769099640045
 21
-341.69144172218114
 31
0.0
  0
LINE
  5
92
100
AcDbEntity
  8
0
370
              -2
390
0
  6
Continuous
 62
               0
100
AcDbLine
 10
346.21769099640045
 20
-621.6914417221825
 30
0.0
 11
346.21769099640045
 21
-341.69144172218114
 31
0.0
  0
CIRCLE
  5
93
102
{ACAD_REACTORS
330
94
102
}
100
AcDbEntity
  8
0
370
              -2
390
0
  6
Continuous
 62
               0
100
AcDbCircle
 10
346.21769099640045
 20
-621.6914417221825
 30
0.0
 40
4.99969482421875
  0
HATCH
  5
94
100
AcDbEntity
  8
0
370
              -2
390
0
  6
Continuous
 62
               0
100
AcDbHatch
 10
0.0
 20
0.0
 30
0.0
210
0.0
220
0.0
230
1.0
  2
SOLID
 70
               1
 71
               1
 91
        1
 92
        1
 93
        1
 72
               2
 10
346.21769099640045
 20
-621.6914417221825
 40
4.99969482421875
 50
0.0
 51
360.0
 73
               0
 97
        1
330
93
 75
               0
 76
               1
 98
        1
 10
0.0
 20
0.0
  0
CIRCLE
  5
95
102
{ACAD_REACTORS
330
96
102
}
100
AcDbEntity
  8
0
370
              -2
390
0
  6
Continuous
 62
               0
100
AcDbCircle
 10
346.21769099640045
 20
-341.69144172218114
 30
0.0
 40
4.99969482421875
  0
HATCH
  5
96
100
AcDbEntity
  8
0
370
              -2
390
0
  6
Continuous
 62
               0
100
AcDbHatch
 10
0.0
 20
0.0
 30
0.0
210
0.0
220
0.0
230
1.0
  2
SOLID
 70
               1
 71
               1
 91
        1
 92
        1
 93
        1
 72
               2
 10
346.21769099640045
 20
-341.69144172218114
 40
4.99969482421875
 50
0.0
 51
360.0
 73
               0
 97
        1
330
95
 75
               0
 76
               1
 98
        1
 10
0.0
 20
0.0
  0
MTEXT
  5
97
100
AcDbEntity
  8
0
390
0
 62
               0
100
AcDbMText
 10
312.34007380890046
 20
-505.5039434043573
 30
0.0
 40
24.432617187500004
 41
0.0
 71
               1
 72
               1
  1
280
  7
ＭＳ ゴシック
 11
0.0
 21
1.0
 31
0.0
 73
               1
 44
0.7828267384257843
  0
POINT
  5
98
100
AcDbEntity
  8
Defpoints
370
               0
390
0
 62
               0
100
AcDbPoint
 10
466.21769099640068
 20
-341.69144172218114
 30
0.0
  0
POINT
  5
99
100
AcDbEntity
  8
Defpoints
370
               0
390
0
 62
               0
100
AcDbPoint
 10
466.21769099640068
 20
-621.6914417221825
 30
0.0
  0
POINT
  5
9A
100
AcDbEntity
  8
Defpoints
370
               0
390
0
 62
               0
100
AcDbPoint
 10
346.21769099640045
 20
-621.6914417221825
 30
0.0
  0
ENDBLK
  5
9B
100
AcDbEntity
  8
notes
390
0
100
AcDbBlockEnd
  0
BLOCK
  5
9C
100
AcDbEntity
  8
notes
390
0
100
AcDbBlockBegin
  2
*D7
 70
               1
 10
0.0
 20
0.0
 30
0.0
  3
*D7
  1

  0
LINE
  5
9D
100
AcDbEntity
  8
0
370
              -2
390
0
  6
Continuous
 62
               0
100
AcDbLine
 10
441.21769099640068
 20
-341.69144172218114
 30
0.0
 11
346.21769099640045
 21
-341.69144172218114
 31
0.0
  0
LINE
  5
9E
100
AcDbEntity
  8
0
370
              -2
390
0
  6
Continuous
 62
               0
100
AcDbLine
 10
441.21769099640068
 20
-181.69144172218114
 30
0.0
 11
346.21769099640045
 21
-181.69144172218114
 31
0.0
  0
LINE
  5
9F
100
AcDbEntity
  8
0
370
              -2
390
0
  6
Continuous
 62
               0
100
AcDbLine
 10
346.21769099640045
 20
-341.69144172218114
 30
0.0
 11
346.21769099640045
 21
-181.69144172218114
 31
0.0
  0
CIRCLE
  5
A0
102
{ACAD_REACTORS
330
A1
102
}
100
AcDbEntity
  8
0
370
              -2
390
0
  6
Continuous
 62
               0
100
AcDbCircle
 10
346.21769099640045
 20
-341.69144172218114
 30
0.0
 40
4.99969482421875
  0
HATCH
  5
A1
100
AcDbEntity
  8
0
370
              -2
390
0
  6
Continuous
 62
               0
100
AcDbHatch
 10
0.0
 20
0.0
 30
0.0
210
0.0
220
0.0
230
1.0
  2
SOLID
 70
               1
 71
               1
 91
        1
 92
        1
 93
        1
 72
               2
 10
346.21769099640045
 20
-341.69144172218114
 40
4.99969482421875
 50
0.0
 51
360.0
 73
               0
 97
        1
330
A0
 75
               0
 76
               1
 98
        1
 10
0.0
 20
0.0
  0
CIRCLE
  5
A2
102
{ACAD_REACTORS
330
A3
102
}
100
AcDbEntity
  8
0
370
              -2
390
0
  6
Continuous
 62
               0
100
AcDbCircle
 10
346.21769099640045
 20
-181.69144172218114
 30
0.0
 40
4.99969482421875
  0
HATCH
  5
A3
100
AcDbEntity
  8
0
370
              -2
390
0
  6
Continuous
 62
               0
100
AcDbHatch
 10
0.0
 20
0.0
 30
0.0
210
0.0
220
0.0
230
1.0
  2
SOLID
 70
               1
 71
               1
 91
        1
 92
        1
 93
        1
 72
               2
 10
346.21769099640045
 20
-181.69144172218114
 40
4.99969482421875
 50
0.0
 51
360.0
 73
               0
 97
        1
330
A2
 75
               0
 76
               1
 98
        1
 10
0.0
 20
0.0
  0
MTEXT
  5
A4
100
AcDbEntity
  8
0
390
0
 62
               0
100
AcDbMText
 10
312.34007380890046
 20
-285.50394340435668
 30
0.0
 40
24.432617187500004
 41
0.0
 71
               1
 72
               1
  1
160
  7
ＭＳ ゴシック
 11
0.0
 21
1.0
 31
0.0
 73
               1
 44
0.7828267384257843
  0
POINT
  5
A5
100
AcDbEntity
  8
Defpoints
370
               0
390
0
 62
               0
100
AcDbPoint
 10
466.21769099640068
 20
-181.69144172218114
 30
0.0
  0
POINT
  5
A6
100
AcDbEntity
  8
Defpoints
370
               0
390
0
 62
               0
100
AcDbPoint
 10
466.21769099640068
 20
-341.69144172218114
 30
0.0
  0
POINT
  5
A7
100
AcDbEntity
  8
Defpoints
370
               0
390
0
 62
               0
100
AcDbPoint
 10
346.21769099640045
 20
-341.69144172218114
 30
0.0
  0
ENDBLK
  5
A8
100
AcDbEntity
  8
notes
390
0
100
AcDbBlockEnd
  0
BLOCK
  5
A9
100
AcDbEntity
  8
notes
390
0
100
AcDbBlockBegin
  2
*D8
 70
               1
 10
0.0
 20
0.0
 30
0.0
  3
*D8
  1

  0
LINE
  5
AA
100
AcDbEntity
  8
0
370
              -2
390
0
  6
Continuous
 62
               0
100
AcDbLine
 10
446.21769099640062
 20
-34.686838868143781
 30
0.0
 11
446.21769099640062
 21
43.313160532434495
 31
0.0
  0
LINE
  5
AB
100
AcDbEntity
  8
0
370
              -2
390
0
  6
Continuous
 62
               0
100
AcDbLine
 10
606.24475723405612
 20
-201.69144172218114
 30
0.0
 11
606.24475723405612
 21
43.313160532434495
 31
0.0
  0
LINE
  5
AC
100
AcDbEntity
  8
0
370
              -2
390
0
  6
Continuous
 62
               0
100
AcDbLine
 10
446.21769099640062
 20
43.313160532434495
 30
0.0
 11
606.24475723405612
 21
43.313160532434495
 31
0.0
  0
CIRCLE
  5
AD
102
{ACAD_REACTORS
330
AE
102
}
100
AcDbEntity
  8
0
370
              -2
390
0
  6
Continuous
 62
               0
100
AcDbCircle
 10
446.21769099640062
 20
43.313160532434495
 30
0.0
 40
4.99969482421875
  0
HATCH
  5
AE
100
AcDbEntity
  8
0
370
              -2
390
0
  6
Continuous
 62
               0
100
AcDbHatch
 10
0.0
 20
0.0
 30
0.0
210
0.0
220
0.0
230
1.0
  2
SOLID
 70
               1
 71
               1
 91
        1
 92
        1
 93
        1
 72
               2
 10
446.21769099640062
 20
43.313160532434495
 40
4.99969482421875
 50
0.0
 51
360.0
 73
               0
 97
        1
330
AD
 75
               0
 76
               1
 98
        1
 10
0.0
 20
0.0
  0
CIRCLE
  5
AF
102
{ACAD_REACTORS
330
B0
102
}
100
AcDbEntity
  8
0
370
              -2
390
0
  6
Continuous
 62
               0
100
AcDbCircle
 10
606.24475723405612
 20
43.313160532434495
 30
0.0
 40
4.99969482421875
  0
HATCH
  5
B0
100
AcDbEntity
  8
0
370
              -2
390
0
  6
Continuous
 62
               0
100
AcDbHatch
 10
0.0
 20
0.0
 30
0.0
210
0.0
220
0.0
230
1.0
  2
SOLID
 70
               1
 71
               1
 91
        1
 92
        1
 93
        1
 72
               2
 10
606.24475723405612
 20
43.313160532434495
 40
4.99969482421875
 50
0.0
 51
360.0
 73
               0
 97
        1
330
AF
 75
               0
 76
               1
 98
        1
 10
0.0
 20
0.0
  0
MTEXT
  5
B1
100
AcDbEntity
  8
0
390
0
 62
               0
100
AcDbMText
 10
502.41872243305278
 20
77.190777719934502
 30
0.0
 40
24.432617187500004
 41
0.0
 71
               1
 72
               1
  1
160
  7
ＭＳ ゴシック
 73
               1
 44
0.7828267384257843
  0
POINT
  5
B2
100
AcDbEntity
  8
Defpoints
370
               0
390
0
 62
               0
100
AcDbPoint
 10
606.24475723405612
 20
-226.69144172218114
 30
0.0
  0
POINT
  5
B3
100
AcDbEntity
  8
Defpoints
370
               0
390
0
 62
               0
100
AcDbPoint
 10
446.21769099640062
 20
-59.686838868143781
 30
0.0
  0
POINT
  5
B4
100
AcDbEntity
  8
Defpoints
370
               0
390
0
 62
               0
100
AcDbPoint
 10
446.21769099640062
 20
43.313160532434495
 30
0.0
  0
ENDBLK
  5
B5
100
AcDbEntity
  8
notes
390
0
100
AcDbBlockEnd
  0
BLOCK
  5
B6
100
AcDbEntity
  8
notes
390
0
100
AcDbBlockBegin
  2
*D9
 70
               1
 10
0.0
 20
0.0
 30
0.0
  3
*D9
  1

  0
LINE
  5
B7
100
AcDbEntity
  8
0
370
              -2
390
0
  6
Continuous
 62
               0
100
AcDbLine
 10
626.09784110886187
 20
1101.2406463384614
 30
0.0
 11
706.09784110885744
 21
1101.2406463384614
 31
0.0
  0
LINE
  5
B8
100
AcDbEntity
  8
0
370
              -2
390
0
  6
Continuous
 62
               0
100
AcDbLine
 10
620.97987137393841
 20
841.2406463384649
 30
0.0
 11
706.09784110885744
 21
841.2406463384649
 31
0.0
  0
LINE
  5
B9
100
AcDbEntity
  8
0
370
              -2
390
0
  6
Continuous
 62
               0
100
AcDbLine
 10
706.09784110885744
 20
1101.2406463384614
 30
0.0
 11
706.09784110885744
 21
841.2406463384649
 31
0.0
  0
CIRCLE
  5
BA
102
{ACAD_REACTORS
330
BB
102
}
100
AcDbEntity
  8
0
370
              -2
390
0
  6
Continuous
 62
               0
100
AcDbCircle
 10
706.09784110885744
 20
1101.2406463384614
 30
0.0
 40
4.99969482421875
  0
HATCH
  5
BB
100
AcDbEntity
  8
0
370
              -2
390
0
  6
Continuous
 62
               0
100
AcDbHatch
 10
0.0
 20
0.0
 30
0.0
210
0.0
220
0.0
230
1.0
  2
SOLID
 70
               1
 71
               1
 91
        1
 92
        1
 93
        1
 72
               2
 10
706.09784110885744
 20
1101.2406463384614
 40
4.99969482421875
 50
0.0
 51
360.0
 73
               0
 97
        1
330
BA
 75
               0
 76
               1
 98
        1
 10
0.0
 20
0.0
  0
CIRCLE
  5
BC
102
{ACAD_REACTORS
330
BD
102
}
100
AcDbEntity
  8
0
370
              -2
390
0
  6
Continuous
 62
               0
100
AcDbCircle
 10
706.09784110885744
 20
841.2406463384649
 30
0.0
 40
4.99969482421875
  0
HATCH
  5
BD
100
AcDbEntity
  8
0
370
              -2
390
0
  6
Continuous
 62
               0
100
AcDbHatch
 10
0.0
 20
0.0
 30
0.0
210
0.0
220
0.0
230
1.0
  2
SOLID
 70
               1
 71
               1
 91
        1
 92
        1
 93
        1
 72
               2
 10
706.09784110885744
 20
841.2406463384649
 40
4.99969482421875
 50
0.0
 51
360.0
 73
               0
 97
        1
330
BC
 75
               0
 76
               1
 98
        1
 10
0.0
 20
0.0
  0
MTEXT
  5
BE
100
AcDbEntity
  8
0
390
0
 62
               0
100
AcDbMText
 10
672.22022392135739
 20
947.42814465628771
 30
0.0
 40
24.432617187500004
 41
0.0
 71
               1
 72
               1
  1
260
  7
ＭＳ ゴシック
 11
0.0
 21
1.0
 31
0.0
 73
               1
 44
0.7828267384257843
  0
POINT
  5
BF
100
AcDbEntity
  8
Defpoints
370
               0
390
0
 62
               0
100
AcDbPoint
 10
595.97987137393852
 20
841.2406463384649
 30
0.0
  0
POINT
  5
C0
100
AcDbEntity
  8
Defpoints
370
               0
390
0
 62
               0
100
AcDbPoint
 10
601.09784110886199
 20
1101.2406463384614
 30
0.0
  0
POINT
  5
C1
100
AcDbEntity
  8
Defpoints
370
               0
390
0
 62
               0
100
AcDbPoint
 10
706.09784110885744
 20
1101.2406463384614
 30
0.0
  0
ENDBLK
  5
C2
100
AcDbEntity
  8
notes
390
0
100
AcDbBlockEnd
  0
BLOCK
  5
C3
100
AcDbEntity
  8
notes
390
0
100
AcDbBlockBegin
  2
*D10
 70
               1
 10
0.0
 20
0.0
 30
0.0
  3
*D10
  1

  0
LINE
  5
C4
100
AcDbEntity
  8
0
370
              -2
390
0
  6
Continuous
 62
               0
100
AcDbLine
 10
424.18042314923082
 20
1101.2406463384586
 30
0.0
 11
346.18110526032024
 21
1101.2406463384586
 31
0.0
  0
LINE
  5
C5
100
AcDbEntity
  8
0
370
              -2
390
0
  6
Continuous
 62
               0
100
AcDbLine
 10
421.18093815334282
 20
1001.2406463384585
 30
0.0
 11
346.18110526032024
 21
1001.2406463384585
 31
0.0
  0
LINE
  5
C6
100
AcDbEntity
  8
0
370
              -2
390
0
  6
Continuous
 62
               0
100
AcDbLine
 10
346.18110526032024
 20
1101.2406463384586
 30
0.0
 11
346.18110526032024
 21
1001.2406463384585
 31
0.0
  0
CIRCLE
  5
C7
102
{ACAD_REACTORS
330
C8
102
}
100
AcDbEntity
  8
0
370
              -2
390
0
  6
Continuous
 62
               0
100
AcDbCircle
 10
346.18110526032024
 20
1101.2406463384586
 30
0.0
 40
4.99969482421875
  0
HATCH
  5
C8
100
AcDbEntity
  8
0
370
              -2
390
0
  6
Continuous
 62
               0
100
AcDbHatch
 10
0.0
 20
0.0
 30
0.0
210
0.0
220
0.0
230
1.0
  2
SOLID
 70
               1
 71
               1
 91
        1
 92
        1
 93
        1
 72
               2
 10
346.18110526032024
 20
1101.2406463384586
 40
4.99969482421875
 50
0.0
 51
360.0
 73
               0
 97
        1
330
C7
 75
               0
 76
               1
 98
        1
 10
0.0
 20
0.0
  0
CIRCLE
  5
C9
102
{ACAD_REACTORS
330
CA
102
}
100
AcDbEntity
  8
0
370
              -2
390
0
  6
Continuous
 62
               0
100
AcDbCircle
 10
346.18110526032024
 20
1001.2406463384585
 30
0.0
 40
4.99969482421875
  0
HATCH
  5
CA
100
AcDbEntity
  8
0
370
              -2
390
0
  6
Continuous
 62
               0
100
AcDbHatch
 10
0.0
 20
0.0
 30
0.0
210
0.0
220
0.0
230
1.0
  2
SOLID
 70
               1
 71
               1
 91
        1
 92
        1
 93
        1
 72
               2
 10
346.18110526032024
 20
1001.2406463384585
 40
4.99969482421875
 50
0.0
 51
360.0
 73
               0
 97
        1
330
C9
 75
               0
 76
               1
 98
        1
 10
0.0
 20
0.0
  0
MTEXT
  5
CB
100
AcDbEntity
  8
0
390
0
 62
               0
100
AcDbMText
 10
312.30348807282024
 20
1027.4281446562832
 30
0.0
 40
24.432617187500004
 41
0.0
 71
               1
 72
               1
  1
100
  7
ＭＳ ゴシック
 11
0.0
 21
1.0
 31
0.0
 73
               1
 44
0.7828267384257843
  0
POINT
  5
CC
100
AcDbEntity
  8
Defpoints
370
               0
390
0
 62
               0
100
AcDbPoint
 10
446.18093815334282
 20
1001.2406463384585
 30
0.0
  0
POINT
  5
CD
100
AcDbEntity
  8
Defpoints
370
               0
390
0
 62
               0
100
AcDbPoint
 10
449.18042314923082
 20
1101.2406463384586
 30
0.0
  0
POINT
  5
CE
100
AcDbEntity
  8
Defpoints
370
               0
390
0
 62
               0
100
AcDbPoint
 10
346.18110526032024
 20
1101.2406463384586
 30
0.0
  0
ENDBLK
  5
CF
100
AcDbEntity
  8
notes
390
0
100
AcDbBlockEnd
  0
BLOCK
  5
D0
100
AcDbEntity
  8
notes
390
0
100
AcDbBlockBegin
  2
*D11
 70
               1
 10
0.0
 20
0.0
 30
0.0
  3
*D11
  1

  0
LINE
  5
D1
100
AcDbEntity
  8
0
370
              -2
390
0
  6
Continuous
 62
               0
100
AcDbLine
 10
446.15999727738506
 20
838.86074346833891
 30
0.0
 11
446.15999727738506
 21
868.02324163099138
 31
0.0
  0
LINE
  5
D2
100
AcDbEntity
  8
0
370
              -2
390
0
  6
Continuous
 62
               0
100
AcDbLine
 10
546.17471823894289
 20
844.02324163099149
 30
0.0
 11
546.17471823894289
 21
868.02324163099138
 31
0.0
  0
LINE
  5
D3
100
AcDbEntity
  8
0
370
              -2
390
0
  6
Continuous
 62
               0
100
AcDbLine
 10
446.15999727738506
 20
868.02324163099138
 30
0.0
 11
299.12499999999994
 21
868.02324163099138
 31
0.0
  0
LINE
  5
D4
100
AcDbEntity
  8
0
370
              -2
390
0
  6
Continuous
 62
               0
100
AcDbLine
 10
446.15999727738506
 20
868.02324163099138
 30
0.0
 11
546.17471823894289
 21
868.02324163099138
 31
0.0
  0
CIRCLE
  5
D5
102
{ACAD_REACTORS
330
D6
102
}
100
AcDbEntity
  8
0
370
              -2
390
0
  6
Continuous
 62
               0
100
AcDbCircle
 10
446.15999727738506
 20
868.02324163099138
 30
0.0
 40
4.99969482421875
  0
HATCH
  5
D6
100
AcDbEntity
  8
0
370
              -2
390
0
  6
Continuous
 62
               0
100
AcDbHatch
 10
0.0
 20
0.0
 30
0.0
210
0.0
220
0.0
230
1.0
  2
SOLID
 70
               1
 71
               1
 91
        1
 92
        1
 93
        1
 72
               2
 10
446.15999727738506
 20
868.02324163099138
 40
4.99969482421875
 50
0.0
 51
360.0
 73
               0
 97
        1
330
D5
 75
               0
 76
               1
 98
        1
 10
0.0
 20
0.0
  0
CIRCLE
  5
D7
102
{ACAD_REACTORS
330
D8
102
}
100
AcDbEntity
  8
0
370
              -2
390
0
  6
Continuous
 62
               0
100
AcDbCircle
 10
546.17471823894289
 20
868.02324163099138
 30
0.0
 40
4.99969482421875
  0
HATCH
  5
D8
100
AcDbEntity
  8
0
370
              -2
390
0
  6
Continuous
 62
               0
100
AcDbHatch
 10
0.0
 20
0.0
 30
0.0
210
0.0
220
0.0
230
1.0
  2
SOLID
 70
               1
 71
               1
 91
        1
 92
        1
 93
        1
 72
               2
 10
546.17471823894289
 20
868.02324163099138
 40
4.99969482421875
 50
0.0
 51
360.0
 73
               0
 97
        1
330
D7
 75
               0
 76
               1
 98
        1
 10
0.0
 20
0.0
  0
MTEXT
  5
D9
100
AcDbEntity
  8
0
390
0
 62
               0
100
AcDbMText
 10
299.12499999999994
 20
901.90085881849143
 30
0.0
 40
24.432617187500004
 41
0.0
 71
               1
 72
               1
  1
100(深さ)
  7
ＭＳ ゴシック
 73
               1
 44
0.7828267384257843
  0
POINT
  5
DA
100
AcDbEntity
  8
Defpoints
370
               0
390
0
 62
               0
100
AcDbPoint
 10
546.17471823894289
 20
819.02324163099149
 30
0.0
  0
POINT
  5
DB
100
AcDbEntity
  8
Defpoints
370
               0
390
0
 62
               0
100
AcDbPoint
 10
446.15999727738506
 20
813.86074346833891
 30
0.0
  0
POINT
  5
DC
100
AcDbEntity
  8
Defpoints
370
               0
390
0
 62
               0
100
AcDbPoint
 10
446.15999727738506
 20
868.02324163099138
 30
0.0
  0
ENDBLK
  5
DD
100
AcDbEntity
  8
notes
390
0
100
AcDbBlockEnd
  0
BLOCK
  5
DE
100
AcDbEntity
  8
notes
390
0
100
AcDbBlockBegin
  2
*D12
 70
               1
 10
0.0
 20
0.0
 30
0.0
  3
*D12
  1

  0
LINE
  5
DF
100
AcDbEntity
  8
0
370
              -2
390
0
  6
Continuous
 62
               0
100
AcDbLine
 10
-148.45249466264187
 20
1138.8516873751032
 30
0.0
 11
-3.4524946626427635
 21
1138.8516873751032
 31
0.0
  0
LINE
  5
E0
100
AcDbEntity
  8
0
370
              -2
390
0
  6
Continuous
 62
               0
100
AcDbLine
 10
-148.45249466264187
 20
388.85168737510321
 30
0.0
 11
-3.4524946626427635
 21
388.85168737510321
 31
0.0
  0
LINE
  5
E1
100
AcDbEntity
  8
0
370
              -2
390
0
  6
Continuous
 62
               0
100
AcDbLine
 10
-3.4524946626427635
 20
1138.8516873751032
 30
0.0
 11
-3.4524946626427635
 21
388.85168737510321
 31
0.0
  0
CIRCLE
  5
E2
102
{ACAD_REACTORS
330
E3
102
}
100
AcDbEntity
  8
0
370
              -2
390
0
  6
Continuous
 62
               0
100
AcDbCircle
 10
-3.4524946626427635
 20
1138.8516873751032
 30
0.0
 40
4.99969482421875
  0
HATCH
  5
E3
100
AcDbEntity
  8
0
370
              -2
390
0
  6
Continuous
 62
               0
100
AcDbHatch
 10
0.0
 20
0.0
 30
0.0
210
0.0
220
0.0
230
1.0
  2
SOLID
 70
               1
 71
               1
 91
        1
 92
        1
 93
        1
 72
               2
 10
-3.4524946626427635
 20
1138.8516873751032
 40
4.99969482421875
 50
0.0
 51
360.0
 73
               0
 97
        1
330
E2
 75
               0
 76
               1
 98
        1
 10
0.0
 20
0.0
  0
CIRCLE
  5
E4
102
{ACAD_REACTORS
330
E5
102
}
100
AcDbEntity
  8
0
370
              -2
390
0
  6
Continuous
 62
               0
100
AcDbCircle
 10
-3.4524946626427635
 20
388.85168737510321
 30
0.0
 40
4.99969482421875
  0
HATCH
  5
E5
100
AcDbEntity
  8
0
370
              -2
390
0
  6
Continuous
 62
               0
100
AcDbHatch
 10
0.0
 20
0.0
 30
0.0
210
0.0
220
0.0
230
1.0
  2
SOLID
 70
               1
 71
               1
 91
        1
 92
        1
 93
        1
 72
               2
 10
-3.4524946626427635
 20
388.85168737510321
 40
4.99969482421875
 50
0.0
 51
360.0
 73
               0
 97
        1
330
E4
 75
               0
 76
               1
 98
        1
 10
0.0
 20
0.0
  0
MTEXT
  5
E6
100
AcDbEntity
  8
0
390
0
 62
               0
100
AcDbMText
 10
-37.330111850142757
 20
740.03918569292784
 30
0.0
 40
24.432617187500004
 41
0.0
 71
               1
 72
               1
  1
750
  7
ＭＳ ゴシック
 11
0.0
 21
1.0
 31
0.0
 73
               1
 44
0.7828267384257843
  0
POINT
  5
E7
100
AcDbEntity
  8
Defpoints
370
               0
390
0
 62
               0
100
AcDbPoint
 10
-173.45249466264187
 20
388.85168737510321
 30
0.0
  0
POINT
  5
E8
100
AcDbEntity
  8
Defpoints
370
               0
390
0
 62
               0
100
AcDbPoint
 10
-173.45249466264187
 20
1138.8516873751032
 30
0.0
  0
POINT
  5
E9
100
AcDbEntity
  8
Defpoints
370
               0
390
0
 62
               0
100
AcDbPoint
 10
-3.4524946626427635
 20
1138.8516873751032
 30
0.0
  0
ENDBLK
  5
EA
100
AcDbEntity
  8
notes
390
0
100
AcDbBlockEnd
  0
BLOCK
  5
EB
100
AcDbEntity
  8
notes
390
0
100
AcDbBlockBegin
  2
*D13
 70
               1
 10
0.0
 20
0.0
 30
0.0
  3
*D13
  1

  0
LINE
  5
EC
100
AcDbEntity
  8
0
370
              -2
390
0
  6
Continuous
 62
               0
100
AcDbLine
 10
-173.45249466264187
 20
1163.8516873751032
 30
0.0
 11
-173.45249466264187
 21
1288.851687375105
 31
0.0
  0
LINE
  5
ED
100
AcDbEntity
  8
0
370
              -2
390
0
  6
Continuous
 62
               0
100
AcDbLine
 10
-653.45249466264181
 20
1163.8516873751032
 30
0.0
 11
-653.45249466264181
 21
1288.851687375105
 31
0.0
  0
LINE
  5
EE
100
AcDbEntity
  8
0
370
              -2
390
0
  6
Continuous
 62
               0
100
AcDbLine
 10
-173.45249466264187
 20
1288.851687375105
 30
0.0
 11
-653.45249466264181
 21
1288.851687375105
 31
0.0
  0
CIRCLE
  5
EF
102
{ACAD_REACTORS
330
F0
102
}
100
AcDbEntity
  8
0
370
              -2
390
0
  6
Continuous
 62
               0
100
AcDbCircle
 10
-173.45249466264187
 20
1288.851687375105
 30
0.0
 40
4.99969482421875
  0
HATCH
  5
F0
100
AcDbEntity
  8
0
370
              -2
390
0
  6
Continuous
 62
               0
100
AcDbHatch
 10
0.0
 20
0.0
 30
0.0
210
0.0
220
0.0
230
1.0
  2
SOLID
 70
               1
 71
               1
 91
        1
 92
        1
 93
        1
 72
               2
 10
-173.45249466264187
 20
1288.851687375105
 40
4.99969482421875
 50
0.0
 51
360.0
 73
               0
 97
        1
330
EF
 75
               0
 76
               1
 98
        1
 10
0.0
 20
0.0
  0
CIRCLE
  5
F1
102
{ACAD_REACTORS
330
F2
102
}
100
AcDbEntity
  8
0
370
              -2
390
0
  6
Continuous
 62
               0
100
AcDbCircle
 10
-653.45249466264181
 20
1288.851687375105
 30
0.0
 40
4.99969482421875
  0
HATCH
  5
F2
100
AcDbEntity
  8
0
370
              -2
390
0
  6
Continuous
 62
               0
100
AcDbHatch
 10
0.0
 20
0.0
 30
0.0
210
0.0
220
0.0
230
1.0
  2
SOLID
 70
               1
 71
               1
 91
        1
 92
        1
 93
        1
 72
               2
 10
-653.45249466264181
 20
1288.851687375105
 40
4.99969482421875
 50
0.0
 51
360.0
 73
               0
 97
        1
330
F1
 75
               0
 76
               1
 98
        1
 10
0.0
 20
0.0
  0
MTEXT
  5
F3
100
AcDbEntity
  8
0
390
0
 62
               0
100
AcDbMText
 10
-437.26499634481729
 20
1322.7293045626052
 30
0.0
 40
24.432617187500004
 41
0.0
 71
               1
 72
               1
  1
480
  7
ＭＳ ゴシック
 73
               1
 44
0.7828267384257843
  0
POINT
  5
F4
100
AcDbEntity
  8
Defpoints
370
               0
390
0
 62
               0
100
AcDbPoint
 10
-653.45249466264181
 20
1138.8516873751032
 30
0.0
  0
POINT
  5
F5
100
AcDbEntity
  8
Defpoints
370
               0
390
0
 62
               0
100
AcDbPoint
 10
-173.45249466264187
 20
1138.8516873751032
 30
0.0
  0
POINT
  5
F6
100
AcDbEntity
  8
Defpoints
370
               0
390
0
 62
               0
100
AcDbPoint
 10
-173.45249466264187
 20
1288.851687375105
 30
0.0
  0
ENDBLK
  5
F7
100
AcDbEntity
  8
notes
390
0
100
AcDbBlockEnd
  0
BLOCK
  5
F8
100
AcDbEntity
  8
notes
390
0
100
AcDbBlockBegin
  2
*D14
 70
               1
 10
0.0
 20
0.0
 30
0.0
  3
*D14
  1

  0
LINE
  5
F9
100
AcDbEntity
  8
0
370
              -2
390
0
  6
Continuous
 62
               0
100
AcDbLine
 10
-328.45249466264187
 20
938.85168737510332
 30
0.0
 11
-253.45249466264187
 21
938.85168737510332
 31
0.0
  0
LINE
  5
FA
100
AcDbEntity
  8
0
370
              -2
390
0
  6
Continuous
 62
               0
100
AcDbLine
 10
-328.45249466264187
 20
588.85168737510321
 30
0.0
 11
-253.45249466264187
 21
588.85168737510321
 31
0.0
  0
LINE
  5
FB
100
AcDbEntity
  8
0
370
              -2
390
0
  6
Continuous
 62
               0
100
AcDbLine
 10
-253.45249466264187
 20
938.85168737510332
 30
0.0
 11
-253.45249466264187
 21
588.85168737510321
 31
0.0
  0
CIRCLE
  5
FC
102
{ACAD_REACTORS
330
FD
102
}
100
AcDbEntity
  8
0
370
              -2
390
0
  6
Continuous
 62
               0
100
AcDbCircle
 10
-253.45249466264187
 20
938.85168737510332
 30
0.0
 40
4.99969482421875
  0
HATCH
  5
FD
100
AcDbEntity
  8
0
370
              -2
390
0
  6
Continuous
 62
               0
100
AcDbHatch
 10
0.0
 20
0.0
 30
0.0
210
0.0
220
0.0
230
1.0
  2
SOLID
 70
               1
 71
               1
 91
        1
 92
        1
 93
        1
 72
               2
 10
-253.45249466264187
 20
938.85168737510332
 40
4.99969482421875
 50
0.0
 51
360.0
 73
               0
 97
        1
330
FC
 75
               0
 76
               1
 98
        1
 10
0.0
 20
0.0
  0
CIRCLE
  5
FE
102
{ACAD_REACTORS
330
FF
102
}
100
AcDbEntity
  8
0
370
              -2
390
0
  6
Continuous
 62
               0
100
AcDbCircle
 10
-253.45249466264187
 20
588.85168737510321
 30
0.0
 40
4.99969482421875
  0
HATCH
  5
FF
100
AcDbEntity
  8
0
370
              -2
390
0
  6
Continuous
 62
               0
100
AcDbHatch
 10
0.0
 20
0.0
 30
0.0
210
0.0
220
0.0
230
1.0
  2
SOLID
 70
               1
 71
               1
 91
        1
 92
        1
 93
        1
 72
               2
 10
-253.45249466264187
 20
588.85168737510321
 40
4.99969482421875
 50
0.0
 51
360.0
 73
               0
 97
        1
330
FE
 75
               0
 76
               1
 98
        1
 10
0.0
 20
0.0
  0
MTEXT
  5
100
100
AcDbEntity
  8
0
390
0
 62
               0
100
AcDbMText
 10
-287.33011185014186
 20
740.03918569292773
 30
0.0
 40
24.432617187500004
 41
0.0
 71
               1
 72
               1
  1
350
  7
ＭＳ ゴシック
 11
0.0
 21
1.0
 31
0.0
 73
               1
 44
0.7828267384257843
  0
POINT
  5
101
100
AcDbEntity
  8
Defpoints
370
               0
390
0
 62
               0
100
AcDbPoint
 10
-353.45249466264187
 20
588.85168737510321
 30
0.0
  0
POINT
  5
102
100
AcDbEntity
  8
Defpoints
370
               0
390
0
 62
               0
100
AcDbPoint
 10
-353.45249466264187
 20
938.85168737510332
 30
0.0
  0
POINT
  5
103
100
AcDbEntity
  8
Defpoints
370
               0
390
0
 62
               0
100
AcDbPoint
 10
-253.45249466264187
 20
938.85168737510332
 30
0.0
  0
ENDBLK
  5
104
100
AcDbEntity
  8
notes
390
0
100
AcDbBlockEnd
  0
BLOCK
  5
105
100
AcDbEntity
  8
notes
390
0
100
AcDbBlockBegin
  2
*D15
 70
               1
 10
0.0
 20
0.0
 30
0.0
  3
*D15
  1

  0
LINE
  5
106
100
AcDbEntity
  8
0
370
              -2
390
0
  6
Continuous
 62
               0
100
AcDbLine
 10
-353.45249466264187
 20
963.85168737510332
 30
0.0
 11
-353.45249466264187
 21
1038.8516873751032
 31
0.0
  0
LINE
  5
107
100
AcDbEntity
  8
0
370
              -2
390
0
  6
Continuous
 62
               0
100
AcDbLine
 10
-653.45249466264181
 20
963.85168737510332
 30
0.0
 11
-653.45249466264181
 21
1038.8516873751032
 31
0.0
  0
LINE
  5
108
100
AcDbEntity
  8
0
370
              -2
390
0
  6
Continuous
 62
               0
100
AcDbLine
 10
-353.45249466264187
 20
1038.8516873751032
 30
0.0
 11
-653.45249466264181
 21
1038.8516873751032
 31
0.0
  0
CIRCLE
  5
109
102
{ACAD_REACTORS
330
10A
102
}
100
AcDbEntity
  8
0
370
              -2
390
0
  6
Continuous
 62
               0
100
AcDbCircle
 10
-353.45249466264187
 20
1038.8516873751032
 30
0.0
 40
4.99969482421875
  0
HATCH
  5
10A
100
AcDbEntity
  8
0
370
              -2
390
0
  6
Continuous
 62
               0
100
AcDbHatch
 10
0.0
 20
0.0
 30
0.0
210
0.0
220
0.0
230
1.0
  2
SOLID
 70
               1
 71
               1
 91
        1
 92
        1
 93
        1
 72
               2
 10
-353.45249466264187
 20
1038.8516873751032
 40
4.99969482421875
 50
0.0
 51
360.0
 73
               0
 97
        1
330
109
 75
               0
 76
               1
 98
        1
 10
0.0
 20
0.0
  0
CIRCLE
  5
10B
102
{ACAD_REACTORS
330
10C
102
}
100
AcDbEntity
  8
0
370
              -2
390
0
  6
Continuous
 62
               0
100
AcDbCircle
 10
-653.45249466264181
 20
1038.8516873751032
 30
0.0
 40
4.99969482421875
  0
HATCH
  5
10C
100
AcDbEntity
  8
0
370
              -2
390
0
  6
Continuous
 62
               0
100
AcDbHatch
 10
0.0
 20
0.0
 30
0.0
210
0.0
220
0.0
230
1.0
  2
SOLID
 70
               1
 71
               1
 91
        1
 92
        1
 93
        1
 72
               2
 10
-653.45249466264181
 20
1038.8516873751032
 40
4.99969482421875
 50
0.0
 51
360.0
 73
               0
 97
        1
330
10B
 75
               0
 76
               1
 98
        1
 10
0.0
 20
0.0
  0
MTEXT
  5
10D
100
AcDbEntity
  8
0
390
0
 62
               0
100
AcDbMText
 10
-527.26499634481729
 20
1072.7293045626034
 30
0.0
 40
24.432617187500004
 41
0.0
 71
               1
 72
               1
  1
300
  7
ＭＳ ゴシック
 73
               1
 44
0.7828267384257843
  0
POINT
  5
10E
100
AcDbEntity
  8
Defpoints
370
               0
390
0
 62
               0
100
AcDbPoint
 10
-653.45249466264181
 20
938.85168737510332
 30
0.0
  0
POINT
  5
10F
100
AcDbEntity
  8
Defpoints
370
               0
390
0
 62
               0
100
AcDbPoint
 10
-353.45249466264187
 20
938.85168737510332
 30
0.0
  0
POINT
  5
110
100
AcDbEntity
  8
Defpoints
370
               0
390
0
 62
               0
100
AcDbPoint
 10
-353.45249466264187
 20
1038.8516873751032
 30
0.0
  0
ENDBLK
  5
111
100
AcDbEntity
  8
notes
390
0
100
AcDbBlockEnd
  0
BLOCK
  5
112
100
AcDbEntity
  8
notes
390
0
100
AcDbBlockBegin
  2
グループ-1
 70
               0
 10
0.0
 20
0.0
 30
0.0
  3
グループ-1
  1

  0
MTEXT
  5
113
100
AcDbEntity
  8
0
390
0
 62
               7
100
AcDbMText
 10
78.923111846542056
 20
303.8856406564517
 30
0.0
 40
24.432617187500004
 41
0.0
 71
               1
 72
               1
  1
※カウンター置きの場合も壁固定が必要です。\P
  7
ＭＳ ゴシック
 11
0.0
 21
1.0
 31
0.0
 73
               1
 44
0.7828267384257843
  0
MTEXT
  5
114
100
AcDbEntity
  8
0
390
0
 62
               7
100
AcDbMText
 10
-66.102996846390724
 20
303.8856406564517
 30
0.0
 40
24.432617187500004
 41
764.7717154610109
 71
               1
 72
               1
  1
※陶器製品には寸法公差があります。\P  洗面器の収め方をご確認の上、必ず現物を合わせて\P  カウンターに切込を行ってください。
  7
ＭＳ ゴシック
 11
0.0
 21
1.0
 31
0.0
 73
               1
 44
1.0437689845677123
  0
ENDBLK
  5
115
100
AcDbEntity
  8
notes
390
0
100
AcDbBlockEnd
  0
BLOCK
  5
116
100
AcDbEntity
  8
notes
390
0
100
AcDbBlockBegin
  2
*D17
 70
               1
 10
0.0
 20
0.0
 30
0.0
  3
*D17
  1

  0
LINE
  5
117
100
AcDbEntity
  8
0
370
              -2
390
0
  6
Continuous
 62
               0
100
AcDbLine
 10
631.24475723405601
 20
-226.69144172218114
 30
0.0
 11
706.21769099640073
 21
-226.69144172218114
 31
0.0
  0
LINE
  5
118
100
AcDbEntity
  8
0
370
              -2
390
0
  6
Continuous
 62
               0
100
AcDbLine
 10
631.21769099640062
 20
-736.69144172218273
 30
0.0
 11
706.21769099640073
 21
-736.69144172218273
 31
0.0
  0
LINE
  5
119
100
AcDbEntity
  8
0
370
              -2
390
0
  6
Continuous
 62
               0
100
AcDbLine
 10
706.21769099640073
 20
-226.69144172218114
 30
0.0
 11
706.21769099640073
 21
-736.69144172218273
 31
0.0
  0
CIRCLE
  5
11A
102
{ACAD_REACTORS
330
11B
102
}
100
AcDbEntity
  8
0
370
              -2
390
0
  6
Continuous
 62
               0
100
AcDbCircle
 10
706.21769099640073
 20
-226.69144172218114
 30
0.0
 40
4.99969482421875
  0
HATCH
  5
11B
100
AcDbEntity
  8
0
370
              -2
390
0
  6
Continuous
 62
               0
100
AcDbHatch
 10
0.0
 20
0.0
 30
0.0
210
0.0
220
0.0
230
1.0
  2
SOLID
 70
               1
 71
               1
 91
        1
 92
        1
 93
        1
 72
               2
 10
706.21769099640073
 20
-226.69144172218114
 40
4.99969482421875
 50
0.0
 51
360.0
 73
               0
 97
        1
330
11A
 75
               0
 76
               1
 98
        1
 10
0.0
 20
0.0
  0
CIRCLE
  5
11C
102
{ACAD_REACTORS
330
11D
102
}
100
AcDbEntity
  8
0
370
              -2
390
0
  6
Continuous
 62
               0
100
AcDbCircle
 10
706.21769099640073
 20
-736.69144172218273
 30
0.0
 40
4.99969482421875
  0
HATCH
  5
11D
100
AcDbEntity
  8
0
370
              -2
390
0
  6
Continuous
 62
               0
100
AcDbHatch
 10
0.0
 20
0.0
 30
0.0
210
0.0
220
0.0
230
1.0
  2
SOLID
 70
               1
 71
               1
 91
        1
 92
        1
 93
        1
 72
               2
 10
706.21769099640073
 20
-736.69144172218273
 40
4.99969482421875
 50
0.0
 51
360.0
 73
               0
 97
        1
330
11C
 75
               0
 76
               1
 98
        1
 10
0.0
 20
0.0
  0
MTEXT
  5
11E
100
AcDbEntity
  8
0
390
0
 62
               0
100
AcDbMText
 10
672.34007380890068
 20
-505.50394340435741
 30
0.0
 40
24.432617187500004
 41
0.0
 71
               1
 72
               1
  1
510
  7
ＭＳ ゴシック
 11
0.0
 21
1.0
 31
0.0
 73
               1
 44
0.7828267384257843
  0
POINT
  5
11F
100
AcDbEntity
  8
Defpoints
370
               0
390
0
 62
               0
100
AcDbPoint
 10
606.21769099640073
 20
-736.69144172218273
 30
0.0
  0
POINT
  5
120
100
AcDbEntity
  8
Defpoints
370
               0
390
0
 62
               0
100
AcDbPoint
 10
606.24475723405612
 20
-226.69144172218114
 30
0.0
  0
POINT
  5
121
100
AcDbEntity
  8
Defpoints
370
               0
390
0
 62
               0
100
AcDbPoint
 10
706.21769099640073
 20
-226.69144172218114
 30
0.0
  0
ENDBLK
  5
122
100
AcDbEntity
  8
notes
390
0
100
AcDbBlockEnd
  0
BLOCK
  5
123
100
AcDbEntity
  8
notes
390
0
100
AcDbBlockBegin
  2
*D18
 70
               1
 10
0.0
 20
0.0
 30
0.0
  3
*D18
  1

  0
LINE
  5
124
100
AcDbEntity
  8
0
370
              -2
390
0
  6
Continuous
 62
               0
100
AcDbLine
 10
626.09784110886187
 20
1101.2406463384614
 30
0.0
 11
756.21769099640073
 21
1101.2406463384614
 31
0.0
  0
LINE
  5
125
100
AcDbEntity
  8
0
370
              -2
390
0
  6
Continuous
 62
               0
100
AcDbLine
 10
626.09784110886187
 20
736.24064633846422
 30
0.0
 11
756.21769099640073
 21
736.24064633846422
 31
0.0
  0
LINE
  5
126
100
AcDbEntity
  8
0
370
              -2
390
0
  6
Continuous
 62
               0
100
AcDbLine
 10
756.21769099640073
 20
1101.2406463384614
 30
0.0
 11
756.21769099640073
 21
736.24064633846422
 31
0.0
  0
CIRCLE
  5
127
102
{ACAD_REACTORS
330
128
102
}
100
AcDbEntity
  8
0
370
              -2
390
0
  6
Continuous
 62
               0
100
AcDbCircle
 10
756.21769099640073
 20
1101.2406463384614
 30
0.0
 40
4.99969482421875
  0
HATCH
  5
128
100
AcDbEntity
  8
0
370
              -2
390
0
  6
Continuous
 62
               0
100
AcDbHatch
 10
0.0
 20
0.0
 30
0.0
210
0.0
220
0.0
230
1.0
  2
SOLID
 70
               1
 71
               1
 91
        1
 92
        1
 93
        1
 72
               2
 10
756.21769099640073
 20
1101.2406463384614
 40
4.99969482421875
 50
0.0
 51
360.0
 73
               0
 97
        1
330
127
 75
               0
 76
               1
 98
        1
 10
0.0
 20
0.0
  0
CIRCLE
  5
129
102
{ACAD_REACTORS
330
12A
102
}
100
AcDbEntity
  8
0
370
              -2
390
0
  6
Continuous
 62
               0
100
AcDbCircle
 10
756.21769099640073
 20
736.24064633846422
 30
0.0
 40
4.99969482421875
  0
HATCH
  5
12A
100
AcDbEntity
  8
0
370
              -2
390
0
  6
Continuous
 62
               0
100
AcDbHatch
 10
0.0
 20
0.0
 30
0.0
210
0.0
220
0.0
230
1.0
  2
SOLID
 70
               1
 71
               1
 91
        1
 92
        1
 93
        1
 72
               2
 10
756.21769099640073
 20
736.24064633846422
 40
4.99969482421875
 50
0.0
 51
360.0
 73
               0
 97
        1
330
129
 75
               0
 76
               1
 98
        1
 10
0.0
 20
0.0
  0
MTEXT
  5
12B
100
AcDbEntity
  8
0
390
0
 62
               0
100
AcDbMText
 10
722.34007380890068
 20
894.92814465628737
 30
0.0
 40
24.432617187500004
 41
0.0
 71
               1
 72
               1
  1
365
  7
ＭＳ ゴシック
 11
0.0
 21
1.0
 31
0.0
 73
               1
 44
0.7828267384257843
  0
POINT
  5
12C
100
AcDbEntity
  8
Defpoints
370
               0
390
0
 62
               0
100
AcDbPoint
 10
601.09784110886199
 20
736.24064633846422
 30
0.0
  0
POINT
  5
12D
100
AcDbEntity
  8
Defpoints
370
               0
390
0
 62
               0
100
AcDbPoint
 10
601.09784110886199
 20
1101.2406463384614
 30
0.0
  0
POINT
  5
12E
100
AcDbEntity
  8
Defpoints
370
               0
390
0
 62
               0
100
AcDbPoint
 10
756.21769099640073
 20
1101.2406463384614
 30
0.0
  0
ENDBLK
  5
12F
100
AcDbEntity
  8
notes
390
0
100
AcDbBlockEnd
  0
BLOCK
  5
130
100
AcDbEntity
  8
notes
390
0
100
AcDbBlockBegin
  2
*D19
 70
               1
 10
0.0
 20
0.0
 30
0.0
  3
*D19
  1

  0
LINE
  5
131
100
AcDbEntity
  8
0
370
              -2
390
0
  6
Continuous
 62
               0
100
AcDbLine
 10
-653.45249466264181
 20
-34.686839467564482
 30
0.0
 11
-653.45249466264181
 21
93.313160532434381
 31
0.0
  0
LINE
  5
132
100
AcDbEntity
  8
0
370
              -2
390
0
  6
Continuous
 62
               0
100
AcDbLine
 10
-103.45249466264094
 20
-81.686839467564482
 30
0.0
 11
-103.45249466264094
 21
93.313160532434381
 31
0.0
  0
LINE
  5
133
100
AcDbEntity
  8
0
370
              -2
390
0
  6
Continuous
 62
               0
100
AcDbLine
 10
-653.45249466264181
 20
93.313160532434381
 30
0.0
 11
-103.45249466264094
 21
93.313160532434381
 31
0.0
  0
CIRCLE
  5
134
102
{ACAD_REACTORS
330
135
102
}
100
AcDbEntity
  8
0
370
              -2
390
0
  6
Continuous
 62
               0
100
AcDbCircle
 10
-653.45249466264181
 20
93.313160532434381
 30
0.0
 40
4.99969482421875
  0
HATCH
  5
135
100
AcDbEntity
  8
0
370
              -2
390
0
  6
Continuous
 62
               0
100
AcDbHatch
 10
0.0
 20
0.0
 30
0.0
210
0.0
220
0.0
230
1.0
  2
SOLID
 70
               1
 71
               1
 91
        1
 92
        1
 93
        1
 72
               2
 10
-653.45249466264181
 20
93.313160532434381
 40
4.99969482421875
 50
0.0
 51
360.0
 73
               0
 97
        1
330
134
 75
               0
 76
               1
 98
        1
 10
0.0
 20
0.0
  0
CIRCLE
  5
136
102
{ACAD_REACTORS
330
137
102
}
100
AcDbEntity
  8
0
370
              -2
390
0
  6
Continuous
 62
               0
100
AcDbCircle
 10
-103.45249466264094
 20
93.313160532434381
 30
0.0
 40
4.99969482421875
  0
HATCH
  5
137
100
AcDbEntity
  8
0
370
              -2
390
0
  6
Continuous
 62
               0
100
AcDbHatch
 10
0.0
 20
0.0
 30
0.0
210
0.0
220
0.0
230
1.0
  2
SOLID
 70
               1
 71
               1
 91
        1
 92
        1
 93
        1
 72
               2
 10
-103.45249466264094
 20
93.313160532434381
 40
4.99969482421875
 50
0.0
 51
360.0
 73
               0
 97
        1
330
136
 75
               0
 76
               1
 98
        1
 10
0.0
 20
0.0
  0
MTEXT
  5
138
100
AcDbEntity
  8
0
390
0
 62
               0
100
AcDbMText
 10
-402.26499634481689
 20
127.19077771993439
 30
0.0
 40
24.432617187500004
 41
0.0
 71
               1
 72
               1
  1
550
  7
ＭＳ ゴシック
 73
               1
 44
0.7828267384257843
  0
POINT
  5
139
100
AcDbEntity
  8
Defpoints
370
               0
390
0
 62
               0
100
AcDbPoint
 10
-103.45249466264094
 20
-106.68683946756448
 30
0.0
  0
POINT
  5
13A
100
AcDbEntity
  8
Defpoints
370
               0
390
0
 62
               0
100
AcDbPoint
 10
-653.45249466264181
 20
-59.686839467564482
 30
0.0
  0
POINT
  5
13B
100
AcDbEntity
  8
Defpoints
370
               0
390
0
 62
               0
100
AcDbPoint
 10
-653.45249466264181
 20
93.313160532434381
 30
0.0
  0
ENDBLK
  5
13C
100
AcDbEntity
  8
notes
390
0
100
AcDbBlockEnd
  0
BLOCK
  5
13D
100
AcDbEntity
  8
notes
390
0
100
AcDbBlockBegin
  2
*D20
 70
               1
 10
0.0
 20
0.0
 30
0.0
  3
*D20
  1

  0
LINE
  5
13E
100
AcDbEntity
  8
0
370
              -2
390
0
  6
Continuous
 62
               0
100
AcDbLine
 10
-163.45249466264096
 20
-31.686839467565619
 30
0.0
 11
-163.45249466264096
 21
43.313160532434551
 31
0.0
  0
LINE
  5
13F
100
AcDbEntity
  8
0
370
              -2
390
0
  6
Continuous
 62
               0
100
AcDbLine
 10
-483.4524946626409
 20
-31.686839467565619
 30
0.0
 11
-483.4524946626409
 21
43.313160532434551
 31
0.0
  0
LINE
  5
140
100
AcDbEntity
  8
0
370
              -2
390
0
  6
Continuous
 62
               0
100
AcDbLine
 10
-163.45249466264096
 20
43.313160532434551
 30
0.0
 11
-483.4524946626409
 21
43.313160532434551
 31
0.0
  0
CIRCLE
  5
141
102
{ACAD_REACTORS
330
142
102
}
100
AcDbEntity
  8
0
370
              -2
390
0
  6
Continuous
 62
               0
100
AcDbCircle
 10
-163.45249466264096
 20
43.313160532434551
 30
0.0
 40
4.99969482421875
  0
HATCH
  5
142
100
AcDbEntity
  8
0
370
              -2
390
0
  6
Continuous
 62
               0
100
AcDbHatch
 10
0.0
 20
0.0
 30
0.0
210
0.0
220
0.0
230
1.0
  2
SOLID
 70
               1
 71
               1
 91
        1
 92
        1
 93
        1
 72
               2
 10
-163.45249466264096
 20
43.313160532434551
 40
4.99969482421875
 50
0.0
 51
360.0
 73
               0
 97
        1
330
141
 75
               0
 76
               1
 98
        1
 10
0.0
 20
0.0
  0
CIRCLE
  5
143
102
{ACAD_REACTORS
330
144
102
}
100
AcDbEntity
  8
0
370
              -2
390
0
  6
Continuous
 62
               0
100
AcDbCircle
 10
-483.4524946626409
 20
43.313160532434551
 30
0.0
 40
4.99969482421875
  0
HATCH
  5
144
100
AcDbEntity
  8
0
370
              -2
390
0
  6
Continuous
 62
               0
100
AcDbHatch
 10
0.0
 20
0.0
 30
0.0
210
0.0
220
0.0
230
1.0
  2
SOLID
 70
               1
 71
               1
 91
        1
 92
        1
 93
        1
 72
               2
 10
-483.4524946626409
 20
43.313160532434551
 40
4.99969482421875
 50
0.0
 51
360.0
 73
               0
 97
        1
330
143
 75
               0
 76
               1
 98
        1
 10
0.0
 20
0.0
  0
MTEXT
  5
145
100
AcDbEntity
  8
0
390
0
 62
               0
100
AcDbMText
 10
-347.26499634481644
 20
77.190777719934559
 30
0.0
 40
24.432617187500004
 41
0.0
 71
               1
 72
               1
  1
320
  7
ＭＳ ゴシック
 73
               1
 44
0.7828267384257843
  0
POINT
  5
146
100
AcDbEntity
  8
Defpoints
370
               0
390
0
 62
               0
100
AcDbPoint
 10
-483.4524946626409
 20
-56.686839467565619
 30
0.0
  0
POINT
  5
147
100
AcDbEntity
  8
Defpoints
370
               0
390
0
 62
               0
100
AcDbPoint
 10
-163.45249466264096
 20
-56.686839467565619
 30
0.0
  0
POINT
  5
148
100
AcDbEntity
  8
Defpoints
370
               0
390
0
 62
               0
100
AcDbPoint
 10
-163.45249466264096
 20
43.313160532434551
 30
0.0
  0
ENDBLK
  5
149
100
AcDbEntity
  8
notes
390
0
100
AcDbBlockEnd
  0
BLOCK
  5
14A
100
AcDbEntity
  8
notes
390
0
100
AcDbBlockBegin
  2
*D21
 70
               1
 10
0.0
 20
0.0
 30
0.0
  3
*D21
  1

  0
LINE
  5
14B
100
AcDbEntity
  8
0
370
              -2
390
0
  6
Continuous
 62
               0
100
AcDbLine
 10
-483.4524946626409
 20
-31.686839467565619
 30
0.0
 11
-483.4524946626409
 21
43.313160532434551
 31
0.0
  0
LINE
  5
14C
100
AcDbEntity
  8
0
370
              -2
390
0
  6
Continuous
 62
               0
100
AcDbLine
 10
-653.4524946626409
 20
-34.686837224734404
 30
0.0
 11
-653.4524946626409
 21
43.313160532434551
 31
0.0
  0
LINE
  5
14D
100
AcDbEntity
  8
0
370
              -2
390
0
  6
Continuous
 62
               0
100
AcDbLine
 10
-483.4524946626409
 20
43.313160532434551
 30
0.0
 11
-653.4524946626409
 21
43.313160532434551
 31
0.0
  0
CIRCLE
  5
14E
102
{ACAD_REACTORS
330
14F
102
}
100
AcDbEntity
  8
0
370
              -2
390
0
  6
Continuous
 62
               0
100
AcDbCircle
 10
-483.4524946626409
 20
43.313160532434551
 30
0.0
 40
4.99969482421875
  0
HATCH
  5
14F
100
AcDbEntity
  8
0
370
              -2
390
0
  6
Continuous
 62
               0
100
AcDbHatch
 10
0.0
 20
0.0
 30
0.0
210
0.0
220
0.0
230
1.0
  2
SOLID
 70
               1
 71
               1
 91
        1
 92
        1
 93
        1
 72
               2
 10
-483.4524946626409
 20
43.313160532434551
 40
4.99969482421875
 50
0.0
 51
360.0
 73
               0
 97
        1
330
14E
 75
               0
 76
               1
 98
        1
 10
0.0
 20
0.0
  0
CIRCLE
  5
150
102
{ACAD_REACTORS
330
151
102
}
100
AcDbEntity
  8
0
370
              -2
390
0
  6
Continuous
 62
               0
100
AcDbCircle
 10
-653.4524946626409
 20
43.313160532434551
 30
0.0
 40
4.99969482421875
  0
HATCH
  5
151
100
AcDbEntity
  8
0
370
              -2
390
0
  6
Continuous
 62
               0
100
AcDbHatch
 10
0.0
 20
0.0
 30
0.0
210
0.0
220
0.0
230
1.0
  2
SOLID
 70
               1
 71
               1
 91
        1
 92
        1
 93
        1
 72
               2
 10
-653.4524946626409
 20
43.313160532434551
 40
4.99969482421875
 50
0.0
 51
360.0
 73
               0
 97
        1
330
150
 75
               0
 76
               1
 98
        1
 10
0.0
 20
0.0
  0
MTEXT
  5
152
100
AcDbEntity
  8
0
390
0
 62
               0
100
AcDbMText
 10
-592.26499634481638
 20
77.190777719934559
 30
0.0
 40
24.432617187500004
 41
0.0
 71
               1
 72
               1
  1
170
  7
ＭＳ ゴシック
 73
               1
 44
0.7828267384257843
  0
POINT
  5
153
100
AcDbEntity
  8
Defpoints
370
               0
390
0
 62
               0
100
AcDbPoint
 10
-653.4524946626409
 20
-59.686837224734404
 30
0.0
  0
POINT
  5
154
100
AcDbEntity
  8
Defpoints
370
               0
390
0
 62
               0
100
AcDbPoint
 10
-483.4524946626409
 20
-56.686839467565619
 30
0.0
  0
POINT
  5
155
100
AcDbEntity
  8
Defpoints
370
               0
390
0
 62
               0
100
AcDbPoint
 10
-483.4524946626409
 20
43.313160532434551
 30
0.0
  0
ENDBLK
  5
156
100
AcDbEntity
  8
notes
390
0
100
AcDbBlockEnd
  0
BLOCK
  5
157
100
AcDbEntity
  8
notes
390
0
100
AcDbBlockBegin
  2
*D22
 70
               1
 10
0.0
 20
0.0
 30
0.0
  3
*D22
  1

  0
LINE
  5
158
100
AcDbEntity
  8
0
370
              -2
390
0
  6
Continuous
 62
               0
100
AcDbLine
 10
-675.45249466264181
 20
-56.686839467565619
 30
0.0
 11
-803.45249466264181
 21
-56.686839467565619
 31
0.0
  0
LINE
  5
159
100
AcDbEntity
  8
0
370
              -2
390
0
  6
Continuous
 62
               0
100
AcDbLine
 10
-675.45249466264181
 20
-906.68683946756948
 30
0.0
 11
-803.45249466264181
 21
-906.68683946756948
 31
0.0
  0
LINE
  5
15A
100
AcDbEntity
  8
0
370
              -2
390
0
  6
Continuous
 62
               0
100
AcDbLine
 10
-803.45249466264181
 20
-56.686839467565619
 30
0.0
 11
-803.45249466264181
 21
-906.68683946756948
 31
0.0
  0
CIRCLE
  5
15B
102
{ACAD_REACTORS
330
15C
102
}
100
AcDbEntity
  8
0
370
              -2
390
0
  6
Continuous
 62
               0
100
AcDbCircle
 10
-803.45249466264181
 20
-56.686839467565619
 30
0.0
 40
4.99969482421875
  0
HATCH
  5
15C
100
AcDbEntity
  8
0
370
              -2
390
0
  6
Continuous
 62
               0
100
AcDbHatch
 10
0.0
 20
0.0
 30
0.0
210
0.0
220
0.0
230
1.0
  2
SOLID
 70
               1
 71
               1
 91
        1
 92
        1
 93
        1
 72
               2
 10
-803.45249466264181
 20
-56.686839467565619
 40
4.99969482421875
 50
0.0
 51
360.0
 73
               0
 97
        1
330
15B
 75
               0
 76
               1
 98
        1
 10
0.0
 20
0.0
  0
CIRCLE
  5
15D
102
{ACAD_REACTORS
330
15E
102
}
100
AcDbEntity
  8
0
370
              -2
390
0
  6
Continuous
 62
               0
100
AcDbCircle
 10
-803.45249466264181
 20
-906.68683946756948
 30
0.0
 40
4.99969482421875
  0
HATCH
  5
15E
100
AcDbEntity
  8
0
370
              -2
390
0
  6
Continuous
 62
               0
100
AcDbHatch
 10
0.0
 20
0.0
 30
0.0
210
0.0
220
0.0
230
1.0
  2
SOLID
 70
               1
 71
               1
 91
        1
 92
        1
 93
        1
 72
               2
 10
-803.45249466264181
 20
-906.68683946756948
 40
4.99969482421875
 50
0.0
 51
360.0
 73
               0
 97
        1
330
15D
 75
               0
 76
               1
 98
        1
 10
0.0
 20
0.0
  0
MTEXT
  5
15F
100
AcDbEntity
  8
0
390
0
 62
               0
100
AcDbMText
 10
-837.33011185014186
 20
-518.0868100174763
 30
0.0
 40
24.432617187500004
 41
0.0
 71
               1
 72
               1
  1
850
  7
ＭＳ ゴシック
 11
0.0
 21
1.0
 31
0.0
 73
               1
 44
0.7828267384257843
  0
POINT
  5
160
100
AcDbEntity
  8
Defpoints
370
               0
390
0
 62
               0
100
AcDbPoint
 10
-650.45249466264181
 20
-906.68683946756948
 30
0.0
  0
POINT
  5
161
100
AcDbEntity
  8
Defpoints
370
               0
390
0
 62
               0
100
AcDbPoint
 10
-650.45249466264181
 20
-56.686839467565619
 30
0.0
  0
POINT
  5
162
100
AcDbEntity
  8
Defpoints
370
               0
390
0
 62
               0
100
AcDbPoint
 10
-803.45249466264181
 20
-56.686839467565619
 30
0.0
  0
ENDBLK
  5
163
100
AcDbEntity
  8
notes
390
0
100
AcDbBlockEnd
  0
BLOCK
  5
164
100
AcDbEntity
  8
notes
390
0
100
AcDbBlockBegin
  2
*D23
 70
               1
 10
0.0
 20
0.0
 30
0.0
  3
*D23
  1

  0
LINE
  5
165
100
AcDbEntity
  8
0
370
              -2
390
0
  6
Continuous
 62
               0
100
AcDbLine
 10
-586.21778825045703
 20
-581.68683946756835
 30
0.0
 11
-753.45249466264181
 21
-581.68683946756835
 31
0.0
  0
LINE
  5
166
100
AcDbEntity
  8
0
370
              -2
390
0
  6
Continuous
 62
               0
100
AcDbLine
 10
-588.71778825045681
 20
-481.68683946756744
 30
0.0
 11
-753.45249466264181
 21
-481.68683946756744
 31
0.0
  0
LINE
  5
167
100
AcDbEntity
  8
0
370
              -2
390
0
  6
Continuous
 62
               0
100
AcDbLine
 10
-753.45249466264181
 20
-581.68683946756835
 30
0.0
 11
-753.45249466264181
 21
-481.68683946756744
 31
0.0
  0
CIRCLE
  5
168
102
{ACAD_REACTORS
330
169
102
}
100
AcDbEntity
  8
0
370
              -2
390
0
  6
Continuous
 62
               0
100
AcDbCircle
 10
-753.45249466264181
 20
-581.68683946756835
 30
0.0
 40
4.99969482421875
  0
HATCH
  5
169
100
AcDbEntity
  8
0
370
              -2
390
0
  6
Continuous
 62
               0
100
AcDbHatch
 10
0.0
 20
0.0
 30
0.0
210
0.0
220
0.0
230
1.0
  2
SOLID
 70
               1
 71
               1
 91
        1
 92
        1
 93
        1
 72
               2
 10
-753.45249466264181
 20
-581.68683946756835
 40
4.99969482421875
 50
0.0
 51
360.0
 73
               0
 97
        1
330
168
 75
               0
 76
               1
 98
        1
 10
0.0
 20
0.0
  0
CIRCLE
  5
16A
102
{ACAD_REACTORS
330
16B
102
}
100
AcDbEntity
  8
0
370
              -2
390
0
  6
Continuous
 62
               0
100
AcDbCircle
 10
-753.45249466264181
 20
-481.68683946756744
 30
0.0
 40
4.99969482421875
  0
HATCH
  5
16B
100
AcDbEntity
  8
0
370
              -2
390
0
  6
Continuous
 62
               0
100
AcDbHatch
 10
0.0
 20
0.0
 30
0.0
210
0.0
220
0.0
230
1.0
  2
SOLID
 70
               1
 71
               1
 91
        1
 92
        1
 93
        1
 72
               2
 10
-753.45249466264181
 20
-481.68683946756744
 40
4.99969482421875
 50
0.0
 51
360.0
 73
               0
 97
        1
330
16A
 75
               0
 76
               1
 98
        1
 10
0.0
 20
0.0
  0
MTEXT
  5
16C
100
AcDbEntity
  8
0
390
0
 62
               0
100
AcDbMText
 10
-787.33011185014186
 20
-555.49934114974337
 30
0.0
 40
24.432617187500004
 41
0.0
 71
               1
 72
               1
  1
100
  7
ＭＳ ゴシック
 11
0.0
 21
1.0
 31
0.0
 73
               1
 44
0.7828267384257843
  0
POINT
  5
16D
100
AcDbEntity
  8
Defpoints
370
               0
390
0
 62
               0
100
AcDbPoint
 10
-563.71778825045681
 20
-481.68683946756744
 30
0.0
  0
POINT
  5
16E
100
AcDbEntity
  8
Defpoints
370
               0
390
0
 62
               0
100
AcDbPoint
 10
-561.21778825045703
 20
-581.68683946756835
 30
0.0
  0
POINT
  5
16F
100
AcDbEntity
  8
Defpoints
370
               0
390
0
 62
               0
100
AcDbPoint
 10
-753.45249466264181
 20
-581.68683946756835
 30
0.0
  0
ENDBLK
  5
170
100
AcDbEntity
  8
notes
390
0
100
AcDbBlockEnd
  0
BLOCK
  5
171
100
AcDbEntity
  8
notes
390
0
100
AcDbBlockBegin
  2
*D24
 70
               1
 10
0.0
 20
0.0
 30
0.0
  3
*D24
  1

  0
LINE
  5
172
100
AcDbEntity
  8
0
370
              -2
390
0
  6
Continuous
 62
               0
100
AcDbLine
 10
-588.71778825045681
 20
-481.68683946756744
 30
0.0
 11
-753.45249466264181
 21
-481.68683946756744
 31
0.0
  0
LINE
  5
173
100
AcDbEntity
  8
0
370
              -2
390
0
  6
Continuous
 62
               0
100
AcDbLine
 10
-586.21778825045681
 20
-381.68683946756767
 30
0.0
 11
-753.45249466264181
 21
-381.68683946756767
 31
0.0
  0
LINE
  5
174
100
AcDbEntity
  8
0
370
              -2
390
0
  6
Continuous
 62
               0
100
AcDbLine
 10
-753.45249466264181
 20
-481.68683946756744
 30
0.0
 11
-753.45249466264181
 21
-381.68683946756767
 31
0.0
  0
CIRCLE
  5
175
102
{ACAD_REACTORS
330
176
102
}
100
AcDbEntity
  8
0
370
              -2
390
0
  6
Continuous
 62
               0
100
AcDbCircle
 10
-753.45249466264181
 20
-481.68683946756744
 30
0.0
 40
4.99969482421875
  0
HATCH
  5
176
100
AcDbEntity
  8
0
370
              -2
390
0
  6
Continuous
 62
               0
100
AcDbHatch
 10
0.0
 20
0.0
 30
0.0
210
0.0
220
0.0
230
1.0
  2
SOLID
 70
               1
 71
               1
 91
        1
 92
        1
 93
        1
 72
               2
 10
-753.45249466264181
 20
-481.68683946756744
 40
4.99969482421875
 50
0.0
 51
360.0
 73
               0
 97
        1
330
175
 75
               0
 76
               1
 98
        1
 10
0.0
 20
0.0
  0
CIRCLE
  5
177
102
{ACAD_REACTORS
330
178
102
}
100
AcDbEntity
  8
0
370
              -2
390
0
  6
Continuous
 62
               0
100
AcDbCircle
 10
-753.45249466264181
 20
-381.68683946756767
 30
0.0
 40
4.99969482421875
  0
HATCH
  5
178
100
AcDbEntity
  8
0
370
              -2
390
0
  6
Continuous
 62
               0
100
AcDbHatch
 10
0.0
 20
0.0
 30
0.0
210
0.0
220
0.0
230
1.0
  2
SOLID
 70
               1
 71
               1
 91
        1
 92
        1
 93
        1
 72
               2
 10
-753.45249466264181
 20
-381.68683946756767
 40
4.99969482421875
 50
0.0
 51
360.0
 73
               0
 97
        1
330
177
 75
               0
 76
               1
 98
        1
 10
0.0
 20
0.0
  0
MTEXT
  5
179
100
AcDbEntity
  8
0
390
0
 62
               0
100
AcDbMText
 10
-787.33011185014186
 20
-455.49934114974303
 30
0.0
 40
24.432617187500004
 41
0.0
 71
               1
 72
               1
  1
100
  7
ＭＳ ゴシック
 11
0.0
 21
1.0
 31
0.0
 73
               1
 44
0.7828267384257843
  0
POINT
  5
17A
100
AcDbEntity
  8
Defpoints
370
               0
390
0
 62
               0
100
AcDbPoint
 10
-561.21778825045681
 20
-381.68683946756767
 30
0.0
  0
POINT
  5
17B
100
AcDbEntity
  8
Defpoints
370
               0
390
0
 62
               0
100
AcDbPoint
 10
-563.71778825045681
 20
-481.68683946756744
 30
0.0
  0
POINT
  5
17C
100
AcDbEntity
  8
Defpoints
370
               0
390
0
 62
               0
100
AcDbPoint
 10
-753.45249466264181
 20
-481.68683946756744
 30
0.0
  0
ENDBLK
  5
17D
100
AcDbEntity
  8
notes
390
0
100
AcDbBlockEnd
  0
BLOCK
  5
17E
100
AcDbEntity
  8
notes
390
0
100
AcDbBlockBegin
  2
*D25
 70
               1
 10
0.0
 20
0.0
 30
0.0
  3
*D25
  1

  0
LINE
  5
17F
100
AcDbEntity
  8
0
370
              -2
390
0
  6
Continuous
 62
               0
100
AcDbLine
 10
-128.45249466264187
 20
-906.68683946756744
 30
0.0
 11
-3.4524946626426498
 21
-906.68683946756744
 31
0.0
  0
LINE
  5
180
100
AcDbEntity
  8
0
370
              -2
390
0
  6
Continuous
 62
               0
100
AcDbLine
 10
-78.452494662642764
 20
-736.68683946756857
 30
0.0
 11
-3.4524946626426498
 21
-736.68683946756857
 31
0.0
  0
LINE
  5
181
100
AcDbEntity
  8
0
370
              -2
390
0
  6
Continuous
 62
               0
100
AcDbLine
 10
-3.4524946626426498
 20
-906.68683946756744
 30
0.0
 11
-3.4524946626426498
 21
-736.68683946756857
 31
0.0
  0
CIRCLE
  5
182
102
{ACAD_REACTORS
330
183
102
}
100
AcDbEntity
  8
0
370
              -2
390
0
  6
Continuous
 62
               0
100
AcDbCircle
 10
-3.4524946626426498
 20
-906.68683946756744
 30
0.0
 40
4.99969482421875
  0
HATCH
  5
183
100
AcDbEntity
  8
0
370
              -2
390
0
  6
Continuous
 62
               0
100
AcDbHatch
 10
0.0
 20
0.0
 30
0.0
210
0.0
220
0.0
230
1.0
  2
SOLID
 70
               1
 71
               1
 91
        1
 92
        1
 93
        1
 72
               2
 10
-3.4524946626426498
 20
-906.68683946756744
 40
4.99969482421875
 50
0.0
 51
360.0
 73
               0
 97
        1
330
182
 75
               0
 76
               1
 98
        1
 10
0.0
 20
0.0
  0
CIRCLE
  5
184
102
{ACAD_REACTORS
330
185
102
}
100
AcDbEntity
  8
0
370
              -2
390
0
  6
Continuous
 62
               0
100
AcDbCircle
 10
-3.4524946626426498
 20
-736.68683946756857
 30
0.0
 40
4.99969482421875
  0
HATCH
  5
185
100
AcDbEntity
  8
0
370
              -2
390
0
  6
Continuous
 62
               0
100
AcDbHatch
 10
0.0
 20
0.0
 30
0.0
210
0.0
220
0.0
230
1.0
  2
SOLID
 70
               1
 71
               1
 91
        1
 92
        1
 93
        1
 72
               2
 10
-3.4524946626426498
 20
-736.68683946756857
 40
4.99969482421875
 50
0.0
 51
360.0
 73
               0
 97
        1
330
184
 75
               0
 76
               1
 98
        1
 10
0.0
 20
0.0
  0
MTEXT
  5
186
100
AcDbEntity
  8
0
390
0
 62
               0
100
AcDbMText
 10
-37.330111850142643
 20
-845.49934114974349
 30
0.0
 40
24.432617187500004
 41
0.0
 71
               1
 72
               1
  1
170
  7
ＭＳ ゴシック
 11
0.0
 21
1.0
 31
0.0
 73
               1
 44
0.7828267384257843
  0
POINT
  5
187
100
AcDbEntity
  8
Defpoints
370
               0
390
0
 62
               0
100
AcDbPoint
 10
-103.45249466264276
 20
-736.68683946756857
 30
0.0
  0
POINT
  5
188
100
AcDbEntity
  8
Defpoints
370
               0
390
0
 62
               0
100
AcDbPoint
 10
-153.45249466264187
 20
-906.68683946756744
 30
0.0
  0
POINT
  5
189
100
AcDbEntity
  8
Defpoints
370
               0
390
0
 62
               0
100
AcDbPoint
 10
-3.4524946626426498
 20
-906.68683946756744
 30
0.0
  0
ENDBLK
  5
18A
100
AcDbEntity
  8
notes
390
0
100
AcDbBlockEnd
  0
BLOCK
  5
18B
100
AcDbEntity
  8
notes
390
0
100
AcDbBlockBegin
  2
*D26
 70
               1
 10
0.0
 20
0.0
 30
0.0
  3
*D26
  1

  0
LINE
  5
18C
100
AcDbEntity
  8
0
370
              -2
390
0
  6
Continuous
 62
               0
100
AcDbLine
 10
-78.452494662642764
 20
-736.68683946756857
 30
0.0
 11
-3.4524946626426498
 21
-736.68683946756857
 31
0.0
  0
LINE
  5
18D
100
AcDbEntity
  8
0
370
              -2
390
0
  6
Continuous
 62
               0
100
AcDbLine
 10
-78.452494662642764
 20
-226.68683946756767
 30
0.0
 11
-3.4524946626426498
 21
-226.68683946756767
 31
0.0
  0
LINE
  5
18E
100
AcDbEntity
  8
0
370
              -2
390
0
  6
Continuous
 62
               0
100
AcDbLine
 10
-3.4524946626426498
 20
-736.68683946756857
 30
0.0
 11
-3.4524946626426498
 21
-226.68683946756767
 31
0.0
  0
CIRCLE
  5
18F
102
{ACAD_REACTORS
330
190
102
}
100
AcDbEntity
  8
0
370
              -2
390
0
  6
Continuous
 62
               0
100
AcDbCircle
 10
-3.4524946626426498
 20
-736.68683946756857
 30
0.0
 40
4.99969482421875
  0
HATCH
  5
190
100
AcDbEntity
  8
0
370
              -2
390
0
  6
Continuous
 62
               0
100
AcDbHatch
 10
0.0
 20
0.0
 30
0.0
210
0.0
220
0.0
230
1.0
  2
SOLID
 70
               1
 71
               1
 91
        1
 92
        1
 93
        1
 72
               2
 10
-3.4524946626426498
 20
-736.68683946756857
 40
4.99969482421875
 50
0.0
 51
360.0
 73
               0
 97
        1
330
18F
 75
               0
 76
               1
 98
        1
 10
0.0
 20
0.0
  0
CIRCLE
  5
191
102
{ACAD_REACTORS
330
192
102
}
100
AcDbEntity
  8
0
370
              -2
390
0
  6
Continuous
 62
               0
100
AcDbCircle
 10
-3.4524946626426498
 20
-226.68683946756767
 30
0.0
 40
4.99969482421875
  0
HATCH
  5
192
100
AcDbEntity
  8
0
370
              -2
390
0
  6
Continuous
 62
               0
100
AcDbHatch
 10
0.0
 20
0.0
 30
0.0
210
0.0
220
0.0
230
1.0
  2
SOLID
 70
               1
 71
               1
 91
        1
 92
        1
 93
        1
 72
               2
 10
-3.4524946626426498
 20
-226.68683946756767
 40
4.99969482421875
 50
0.0
 51
360.0
 73
               0
 97
        1
330
191
 75
               0
 76
               1
 98
        1
 10
0.0
 20
0.0
  0
MTEXT
  5
193
100
AcDbEntity
  8
0
390
0
 62
               0
100
AcDbMText
 10
-37.330111850142643
 20
-505.4993411497436
 30
0.0
 40
24.432617187500004
 41
0.0
 71
               1
 72
               1
  1
510
  7
ＭＳ ゴシック
 11
0.0
 21
1.0
 31
0.0
 73
               1
 44
0.7828267384257843
  0
POINT
  5
194
100
AcDbEntity
  8
Defpoints
370
               0
390
0
 62
               0
100
AcDbPoint
 10
-103.45249466264276
 20
-226.68683946756767
 30
0.0
  0
POINT
  5
195
100
AcDbEntity
  8
Defpoints
370
               0
390
0
 62
               0
100
AcDbPoint
 10
-103.45249466264276
 20
-736.68683946756857
 30
0.0
  0
POINT
  5
196
100
AcDbEntity
  8
Defpoints
370
               0
390
0
 62
               0
100
AcDbPoint
 10
-3.4524946626426498
 20
-736.68683946756857
 30
0.0
  0
ENDBLK
  5
197
100
AcDbEntity
  8
notes
390
0
100
AcDbBlockEnd
  0
BLOCK
  5
198
100
AcDbEntity
  8
notes
390
0
100
AcDbBlockBegin
  2
*D27
 70
               1
 10
0.0
 20
0.0
 30
0.0
  3
*D27
  1

  0
LINE
  5
199
100
AcDbEntity
  8
0
370
              -2
390
0
  6
Continuous
 62
               0
100
AcDbLine
 10
486.21769099640068
 20
-856.69144172218273
 30
0.0
 11
486.21769099640068
 21
-1006.6868394675695
 31
0.0
  0
LINE
  5
19A
100
AcDbEntity
  8
0
370
              -2
390
0
  6
Continuous
 62
               0
100
AcDbLine
 10
446.21769099640062
 20
-925.97347402493631
 30
0.0
 11
446.21769099640062
 21
-1006.6868394675695
 31
0.0
  0
LINE
  5
19B
100
AcDbEntity
  8
0
370
              -2
390
0
  6
Continuous
 62
               0
100
AcDbLine
 10
486.21769099640068
 20
-1006.6868394675695
 30
0.0
 11
446.21769099640062
 21
-1006.6868394675695
 31
0.0
  0
CIRCLE
  5
19C
102
{ACAD_REACTORS
330
19D
102
}
100
AcDbEntity
  8
0
370
              -2
390
0
  6
Continuous
 62
               0
100
AcDbCircle
 10
486.21769099640068
 20
-1006.6868394675695
 30
0.0
 40
4.99969482421875
  0
HATCH
  5
19D
100
AcDbEntity
  8
0
370
              -2
390
0
  6
Continuous
 62
               0
100
AcDbHatch
 10
0.0
 20
0.0
 30
0.0
210
0.0
220
0.0
230
1.0
  2
SOLID
 70
               1
 71
               1
 91
        1
 92
        1
 93
        1
 72
               2
 10
486.21769099640068
 20
-1006.6868394675695
 40
4.99969482421875
 50
0.0
 51
360.0
 73
               0
 97
        1
330
19C
 75
               0
 76
               1
 98
        1
 10
0.0
 20
0.0
  0
CIRCLE
  5
19E
102
{ACAD_REACTORS
330
19F
102
}
100
AcDbEntity
  8
0
370
              -2
390
0
  6
Continuous
 62
               0
100
AcDbCircle
 10
446.21769099640062
 20
-1006.6868394675695
 30
0.0
 40
4.99969482421875
  0
HATCH
  5
19F
100
AcDbEntity
  8
0
370
              -2
390
0
  6
Continuous
 62
               0
100
AcDbHatch
 10
0.0
 20
0.0
 30
0.0
210
0.0
220
0.0
230
1.0
  2
SOLID
 70
               1
 71
               1
 91
        1
 92
        1
 93
        1
 72
               2
 10
446.21769099640062
 20
-1006.6868394675695
 40
4.99969482421875
 50
0.0
 51
360.0
 73
               0
 97
        1
330
19E
 75
               0
 76
               1
 98
        1
 10
0.0
 20
0.0
  0
MTEXT
  5
1A0
100
AcDbEntity
  8
0
390
0
 62
               0
100
AcDbMText
 10
450.34269099640062
 20
-972.80922228006955
 30
0.0
 40
24.432617187500004
 41
0.0
 71
               1
 72
               1
  1
40
  7
ＭＳ ゴシック
 73
               1
 44
0.7828267384257843
  0
POINT
  5
1A1
100
AcDbEntity
  8
Defpoints
370
               0
390
0
 62
               0
100
AcDbPoint
 10
446.21769099640062
 20
-900.97347402493631
 30
0.0
  0
POINT
  5
1A2
100
AcDbEntity
  8
Defpoints
370
               0
390
0
 62
               0
100
AcDbPoint
 10
486.21769099640068
 20
-831.69144172218273
 30
0.0
  0
POINT
  5
1A3
100
AcDbEntity
  8
Defpoints
370
               0
390
0
 62
               0
100
AcDbPoint
 10
486.21769099640068
 20
-1006.6868394675695
 30
0.0
  0
ENDBLK
  5
1A4
100
AcDbEntity
  8
notes
390
0
100
AcDbBlockEnd
  0
BLOCK
  5
1A5
100
AcDbEntity
  8
notes
390
0
100
AcDbBlockBegin
  2
*D28
 70
               1
 10
0.0
 20
0.0
 30
0.0
  3
*D28
  1

  0
LINE
  5
1A6
100
AcDbEntity
  8
0
370
              -2
390
0
  6
Continuous
 62
               0
100
AcDbLine
 10
591.09784110886471
 20
790.51744637715899
 30
0.0
 11
591.09784110886471
 21
777.0
 31
0.0
  0
LINE
  5
1A7
100
AcDbEntity
  8
0
370
              -2
390
0
  6
Continuous
 62
               0
100
AcDbLine
 10
606.09784110886471
 20
790.51744637715899
 30
0.0
 11
606.09784110886471
 21
777.0
 31
0.0
  0
LINE
  5
1A8
100
AcDbEntity
  8
0
370
              -2
390
0
  6
Continuous
 62
               0
100
AcDbLine
 10
606.09784110886471
 20
777.0
 30
0.0
 11
656.75
 21
777.0
 31
0.0
  0
LINE
  5
1A9
100
AcDbEntity
  8
0
370
              -2
390
0
  6
Continuous
 62
               0
100
AcDbLine
 10
591.09784110886471
 20
777.0
 30
0.0
 11
606.09784110886471
 21
777.0
 31
0.0
  0
CIRCLE
  5
1AA
102
{ACAD_REACTORS
330
1AB
102
}
100
AcDbEntity
  8
0
370
              -2
390
0
  6
Continuous
 62
               0
100
AcDbCircle
 10
591.09784110886471
 20
777.0
 30
0.0
 40
4.99969482421875
  0
HATCH
  5
1AB
100
AcDbEntity
  8
0
370
              -2
390
0
  6
Continuous
 62
               0
100
AcDbHatch
 10
0.0
 20
0.0
 30
0.0
210
0.0
220
0.0
230
1.0
  2
SOLID
 70
               1
 71
               1
 91
        1
 92
        1
 93
        1
 72
               2
 10
591.09784110886471
 20
777.0
 40
4.99969482421875
 50
0.0
 51
360.0
 73
               0
 97
        1
330
1AA
 75
               0
 76
               1
 98
        1
 10
0.0
 20
0.0
  0
CIRCLE
  5
1AC
102
{ACAD_REACTORS
330
1AD
102
}
100
AcDbEntity
  8
0
370
              -2
390
0
  6
Continuous
 62
               0
100
AcDbCircle
 10
606.09784110886471
 20
777.0
 30
0.0
 40
4.99969482421875
  0
HATCH
  5
1AD
100
AcDbEntity
  8
0
370
              -2
390
0
  6
Continuous
 62
               0
100
AcDbHatch
 10
0.0
 20
0.0
 30
0.0
210
0.0
220
0.0
230
1.0
  2
SOLID
 70
               1
 71
               1
 91
        1
 92
        1
 93
        1
 72
               2
 10
606.09784110886471
 20
777.0
 40
4.99969482421875
 50
0.0
 51
360.0
 73
               0
 97
        1
330
1AC
 75
               0
 76
               1
 98
        1
 10
0.0
 20
0.0
  0
MTEXT
  5
1AE
100
AcDbEntity
  8
0
390
0
 62
               0
100
AcDbMText
 10
625.0
 20
810.87761718750005
 30
0.0
 40
24.432617187500004
 41
0.0
 71
               1
 72
               1
  1
15
  7
ＭＳ ゴシック
 73
               1
 44
0.7828267384257843
  0
POINT
  5
1AF
100
AcDbEntity
  8
Defpoints
370
               0
390
0
 62
               0
100
AcDbPoint
 10
606.09784110886471
 20
815.51744637715899
 30
0.0
  0
POINT
  5
1B0
100
AcDbEntity
  8
Defpoints
370
               0
390
0
 62
               0
100
AcDbPoint
 10
591.09784110886471
 20
815.51744637715899
 30
0.0
  0
POINT
  5
1B1
100
AcDbEntity
  8
Defpoints
370
               0
390
0
 62
               0
100
AcDbPoint
 10
591.09784110886471
 20
777.0
 30
0.0
  0
ENDBLK
  5
1B2
100
AcDbEntity
  8
notes
390
0
100
AcDbBlockEnd
  0
BLOCK
  5
1B3
100
AcDbEntity
  8
ADF70-1601
390
0
100
AcDbBlockBegin
  2
グループ-2
 70
               0
 10
0.0
 20
0.0
 30
0.0
  3
グループ-2
  1

  0
LINE
  5
1B4
100
AcDbEntity
  8
0
370
               5
390
0
  6
Continuous
 62
               7
100
AcDbLine
 10
-761.63350268764179
 20
992.50894616342566
 30
0.0
 11
-798.63350268764179
 21
1029.5089461634257
 31
0.0
  0
LINE
  5
1B5
100
AcDbEntity
  8
0
370
               5
390
0
  6
Continuous
 62
               7
100
AcDbLine
 10
-761.63350268764179
 20
1012.5089461634257
 30
0.0
 11
-798.63350268764179
 21
1049.5089461634257
 31
0.0
  0
LINE
  5
1B6
100
AcDbEntity
  8
0
370
               5
390
0
  6
Continuous
 62
               7
100
AcDbLine
 10
-761.63350268764179
 20
1032.5089461634257
 30
0.0
 11
-798.63350268764179
 21
1069.5089461634257
 31
0.0
  0
ENDBLK
  5
1B7
100
AcDbEntity
  8
ADF70-1601
390
0
100
AcDbBlockEnd
  0
BLOCK
  5
1B8
100
AcDbEntity
  8
ADF70-1601
390
0
100
AcDbBlockBegin
  2
グループ-3
 70
               0
 10
0.0
 20
0.0
 30
0.0
  3
グループ-3
  1

  0
LINE
  5
1B9
100
AcDbEntity
  8
0
370
              15
390
0
  6
STYLE_12
 62
               7
100
AcDbLine
 10
450.11158882543037
 20
-606.97177509256585
 30
0.0
 11
450.11158882543037
 21
-629.97177509256585
 31
0.0
  0
ARC
  5
1BA
100
AcDbEntity
  8
0
370
              15
390
0
  6
STYLE_12
 62
               7
100
AcDbCircle
 10
443.95795704478547
 20
-587.24296205176893
 30
0.0
 40
7.9999999999996039
100
AcDbArc
 50
181.86839512059183
 51
220.00000000002063
  0
ARC
  5
1BB
100
AcDbEntity
  8
0
370
              15
390
0
  6
STYLE_12
 62
               7
100
AcDbCircle
 10
443.96048510455563
 20
-672.62309070951505
 30
0.0
 40
8.0000000000000124
100
AcDbArc
 50
139.99999999997905
 51
178.81010117691238
  0
LINE
  5
1BC
100
AcDbEntity
  8
0
370
              15
390
0
  6
STYLE_12
 62
               7
100
AcDbLine
 10
450.04681270183261
 20
-652.92389731487265
 30
0.0
 11
437.83212955960295
 21
-667.48078983202322
 31
0.0
  0
LINE
  5
1BD
100
AcDbEntity
  8
0
370
              15
390
0
  6
STYLE_12
 62
               7
100
AcDbLine
 10
450.06913847622451
 20
-606.97177509256585
 30
0.0
 11
437.82960149983188
 21
-592.38526292926167
 31
0.0
  0
LINE
  5
1BE
100
AcDbEntity
  8
0
370
              15
390
0
  6
STYLE_12
 62
               7
100
AcDbLine
 10
436.06913847622542
 20
-588.57207513662775
 30
0.0
 11
436.06913847622542
 21
-671.30907077377015
 31
0.0
  0
LINE
  5
1BF
100
AcDbEntity
  8
0
370
              15
390
0
  6
STYLE_12
 62
               7
100
AcDbLine
 10
450.06913847622451
 20
-652.97177509256744
 30
0.0
 11
450.06913847622451
 21
-606.97177509256767
 31
0.0
  0
ENDBLK
  5
1C0
100
AcDbEntity
  8
ADF70-1601
390
0
100
AcDbBlockEnd
  0
BLOCK
  5
1C1
100
AcDbEntity
  8
ADF70-1601
390
0
100
AcDbBlockBegin
  2
グループ-4
 70
               0
 10
0.0
 20
0.0
 30
0.0
  3
グループ-4
  1

  0
LINE
  5
1C2
100
AcDbEntity
  8
0
370
              15
390
0
  6
STYLE_12
 62
               7
100
AcDbLine
 10
435.96221022406809
 20
-587.50379299123256
 30
0.0
 11
428.28705046238116
 21
-419.78056390525057
 31
0.0
  0
LINE
  5
1C3
100
AcDbEntity
  8
0
370
              15
390
0
  6
STYLE_12
 62
               7
100
AcDbLine
 10
343.5877579749436
 20
-382.58086460523168
 30
0.0
 11
417.86617118412101
 21
-406.27506453964975
 31
0.0
  0
ARC
  5
1C4
100
AcDbEntity
  8
0
370
              15
390
0
  6
STYLE_12
 62
               7
100
AcDbCircle
 10
346.01899197124277
 20
-374.95924396030091
 30
0.0
 40
8.0000000000001155
100
AcDbArc
 50
180.00175600994248
 51
252.30774691727351
  0
ARC
  5
1C5
100
AcDbEntity
  8
0
370
              15
390
0
  6
STYLE_12
 62
               7
100
AcDbCircle
 10
413.30760744106175
 20
-420.56560324889665
 30
0.0
 40
15.000000000000197
100
AcDbArc
 50
3.0000000000055604
 51
72.307746917273988
  0
LINE
  5
1C6
100
AcDbEntity
  8
0
370
              15
390
0
  6
STYLE_12
 62
               7
100
AcDbLine
 10
435.96221022406786
 20
-672.45696143408622
 30
0.0
 11
428.28705046238116
 21
-840.13792401535102
 31
0.0
  0
LINE
  5
1C7
100
AcDbEntity
  8
0
370
              15
390
0
  6
STYLE_12
 62
               7
100
AcDbLine
 10
343.5877579749436
 20
-877.33762331536991
 30
0.0
 11
417.86617118412101
 21
-853.64342338095184
 31
0.0
  0
ARC
  5
1C8
100
AcDbEntity
  8
0
370
              15
390
0
  6
STYLE_12
 62
               7
100
AcDbCircle
 10
346.01899197124277
 20
-884.95924396030068
 30
0.0
 40
8.0000000000001013
100
AcDbArc
 50
107.69225308272648
 51
179.99824399005755
  0
ARC
  5
1C9
100
AcDbEntity
  8
0
370
              15
390
0
  6
STYLE_12
 62
               7
100
AcDbCircle
 10
413.30760744106175
 20
-839.35288467170494
 30
0.0
 40
15.000000000000101
100
AcDbArc
 50
287.6922530827261
 51
356.99999999999443
  0
INSERT
  5
1CA
100
AcDbEntity
  8
0
390
0
 62
               7
100
AcDbBlockReference
  2
グループ-3
 10
0.0
 20
0.0
 30
0.0
  0
ENDBLK
  5
1CB
100
AcDbEntity
  8
ADF70-1601
390
0
100
AcDbBlockEnd
  0
ENDSEC
  0
SECTION
  2
ENTITIES
  0
MTEXT
  5
1CC
100
AcDbEntity
  8
template
390
0
 62
               7
100
AcDbMText
 10
-967.99999999975921
 20
-1147.4176292337006
 30
0.0
 40
16.288411458333332
 41
0.0
 71
               1
 72
               1
  1
品名
  7
ＭＳ ゴシック
 73
               1
 44
0.7828267384257843
  0
MTEXT
  5
1CD
100
AcDbEntity
  8
template
390
0
 62
               7
100
AcDbMText
 10
-967.99999999975921
 20
-1232.4176292337006
 30
0.0
 40
16.288411458333332
 41
0.0
 71
               1
 72
               1
  1
仕様
  7
ＭＳ ゴシック
 73
               1
 44
0.7828267384257843
  0
MTEXT
  5
1CE
100
AcDbEntity
  8
template
390
0
 62
               7
100
AcDbMText
 10
-914.99999999975921
 20
-1176.0000901712006
 30
0.0
 40
24.432617187500004
 41
0.0
 71
               1
 72
               1
  1
洗面器 -CATALANO,Roma-
  7
ＭＳ ゴシック
 73
               1
 44
0.7828267384257843
  0
LINE
  5
1CF
100
AcDbEntity
  8
template
370
               5
390
0
  6
Continuous
 62
               7
100
AcDbLine
 10
974.99999999975876
 20
-1224.0027073587007
 30
0.0
 11
-975.00000000024124
 21
-1224.0027073587007
 31
0.0
  0
LWPOLYLINE
  5
1D0
100
AcDbEntity
  8
template
370
               5
390
0
  6
Continuous
 62
               7
100
AcDbPolyline
 90
        5
 70
             128
 10
975.00000000024124
 20
1405.9972926412993
 10
-974.99999999975921
 20
1405.9972926412993
 10
-974.99999999975921
 20
-1394.0027073587007
 10
975.00000000024124
 20
-1394.0027073587007
 10
975.00000000024124
 20
1405.9972926412993
  0
LINE
  5
1D1
100
AcDbEntity
  8
template
370
               5
390
0
  6
Continuous
 62
               7
100
AcDbLine
 10
974.99999999975876
 20
-1139.0027073587007
 30
0.0
 11
-975.00000000024124
 21
-1139.0027073587007
 31
0.0
  0
LINE
  5
1D2
100
AcDbEntity
  8
template
370
               5
390
0
  6
Continuous
 62
               7
100
AcDbLine
 10
975.00000000024124
 20
-1309.0027073587007
 30
0.0
 11
222.00000000024124
 21
-1309.0027073587007
 31
0.0
  0
MTEXT
  5
1D3
100
AcDbEntity
  8
template
390
0
 62
               7
100
AcDbMText
 10
-974.99999999955594
 20
-1405.8565294155574
 30
0.0
 40
21.717881944444446
 41
0.0
 71
               1
 72
               1
  1
100707SH
  7
ＭＳ ゴシック
 73
               1
 44
0.7828267384257843
  0
MTEXT
  5
1D4
100
AcDbEntity
  8
template
390
0
 62
               7
100
AcDbMText
 10
251.87140625250089
 20
-1338.9131018320081
 30
0.0
 40
24.432617187500004
 41
0.0
 71
               1
 72
               1
  1
大洋金物株式会社 ティーフォルム事業部
  7
ＭＳ ゴシック
 73
               1
 44
0.7828267384257843
  0
INSERT
  5
1D5
100
AcDbEntity
  8
template
390
0
 62
               7
100
AcDbBlockReference
  2
グループ
 10
108.181008025
 20
148.284935625
 30
0.0
  0
MTEXT
  5
1D6
100
AcDbEntity
  8
template
390
0
 62
               7
100
AcDbMText
 10
784.00000000049999
 20
-1261.0000901712006
 30
0.0
 40
24.432617187500004
 41
0.0
 71
               1
 72
               1
  1
1:10
  7
ＭＳ ゴシック
 73
               1
 44
0.7828267384257843
  0
MTEXT
  5
1D7
100
AcDbEntity
  8
template
390
0
 62
               7
100
AcDbMText
 10
731.00000000049999
 20
-1232.4176292337006
 30
0.0
 40
16.288411458333332
 41
0.0
 71
               1
 72
               1
  1
縮尺
  7
ＭＳ ゴシック
 73
               1
 44
0.7828267384257843
  0
LINE
  5
1D8
100
AcDbEntity
  8
template
370
               5
390
0
  6
Continuous
 62
               7
100
AcDbLine
 10
724.00000000049999
 20
-1309.0027073587007
 30
0.0
 11
724.00000000049999
 21
-1224.0027073587007
 31
0.0
  0
MTEXT
  5
1D9
100
AcDbEntity
  8
template
390
0
 62
               7
100
AcDbMText
 10
480.00000000049999
 20
-1232.4176292337006
 30
0.0
 40
16.288411458333332
 41
0.0
 71
               1
 72
               1
  1
容量
  7
ＭＳ ゴシック
 73
               1
 44
0.7828267384257843
  0
MTEXT
  5
1DA
100
AcDbEntity
  8
template
390
0
 62
               7
100
AcDbMText
 10
533.00000000049999
 20
-1261.0000901712006
 30
0.0
 40
24.432617187500004
 41
0.0
 71
               1
 72
               1
  1
7L
  7
ＭＳ ゴシック
 73
               1
 44
0.7828267384257843
  0
LINE
  5
1DB
100
AcDbEntity
  8
template
370
               5
390
0
  6
Continuous
 62
               7
100
AcDbLine
 10
473.00000000049999
 20
-1309.0027073587007
 30
0.0
 11
473.00000000049999
 21
-1224.0027073587007
 31
0.0
  0
MTEXT
  5
1DC
100
AcDbEntity
  8
template
390
0
 62
               7
100
AcDbMText
 10
229.00000000049999
 20
-1147.4176292337006
 30
0.0
 40
16.288411458333332
 41
0.0
 71
               1
 72
               1
  1
品番
  7
ＭＳ ゴシック
 73
               1
 44
0.7828267384257843
  0
MTEXT
  5
1DD
100
AcDbEntity
  8
template
390
0
 62
               7
100
AcDbMText
 10
229.00000000049999
 20
-1232.4176292337006
 30
0.0
 40
16.288411458333332
 41
0.0
 71
               1
 72
               1
  1
重量
  7
ＭＳ ゴシック
 73
               1
 44
0.7828267384257843
  0
MTEXT
  5
1DE
100
AcDbEntity
  8
template
390
0
 62
               7
100
AcDbMText
 10
282.00000000049999
 20
-1176.0000901712006
 30
0.0
 40
24.432617187500004
 41
0.0
 71
               1
 72
               1
  1
ADF70-1601
  7
ＭＳ ゴシック
 73
               1
 44
0.7828267384257843
  0
MTEXT
  5
1DF
100
AcDbEntity
  8
template
390
0
 62
               7
100
AcDbMText
 10
282.00000000049999
 20
-1261.0000901712006
 30
0.0
 40
24.432617187500004
 41
0.0
 71
               1
 72
               1
  1
30kg
  7
ＭＳ ゴシック
 73
               1
 44
0.7828267384257843
  0
LINE
  5
1E0
100
AcDbEntity
  8
template
370
               5
390
0
  6
Continuous
 62
               7
100
AcDbLine
 10
222.00000000049999
 20
-1394.0027073587007
 30
0.0
 11
222.00000000049999
 21
-1139.0027073587007
 31
0.0
  0
MTEXT
  5
1E1
100
AcDbEntity
  8
template
390
0
 62
               7
100
AcDbMText
 10
-914.99999999975932
 20
-1261.0000901712006
 30
0.0
 40
24.432617187500004
 41
0.0
 71
               1
 72
               1
  1
壁掛け,カウンタ ー置き,半埋め込み/オーバーフロー付き/壁取付ボルト付属/\P陶器/ホワイト
  7
ＭＳ ゴシック
 73
               1
 44
1.3047112307096407
  0
DIMENSION
  5
1E2
100
AcDbEntity
  8
notes
370
               5
390
0
  6
Continuous
 62
               7
100
AcDbDimension
  2
*D3
 10
446.12309913040241
 20
451.51778194041594
 30
0.0
 11
496.12309913040241
 21
451.51778194041594
 31
0.0
 71
               5
 72
               1
 41
1.0
 42
0.0
  3
Tform線あり
100
AcDbAlignedDimension
 13
546.12309913040247
 23
557.34341303607903
 33
0.0
 14
446.12309913040241
 24
557.34647785159143
 34
0.0
100
AcDbRotatedDimension
1001
ACAD
1000
DSTYLE
1002
{
1070
             279
1070
               2
1070
             340
1005
41
1070
             147
1040
5.0
1002
}
  0
DIMENSION
  5
1E3
100
AcDbEntity
  8
notes
370
               5
390
0
  6
Continuous
 62
               7
100
AcDbDimension
  2
*D4
 10
546.12309913040247
 20
451.51778194041594
 30
0.0
 11
576.11047011963171
 21
451.51778194041594
 31
0.0
 71
               5
 72
               1
 41
1.0
 42
0.0
  3
Tform線あり
100
AcDbAlignedDimension
 13
606.09784110886108
 23
734.02324163099149
 33
0.0
 14
546.12309913040247
 24
557.34341303607903
 34
0.0
100
AcDbRotatedDimension
1001
ACAD
1000
DSTYLE
1002
{
1070
             279
1070
               2
1070
             340
1005
41
1070
             147
1040
5.0
1002
}
  0
DIMENSION
  5
1E4
100
AcDbEntity
  8
notes
370
               5
390
0
  6
Continuous
 62
               7
100
AcDbDimension
  2
*D5
 10
346.21769099640045
 20
-781.69144172218273
 30
0.0
 11
346.21769099640045
 21
-701.69144172218262
 31
0.0
 71
               5
 72
               1
 41
1.0
 42
0.0
  3
Tform線あり
100
AcDbAlignedDimension
 13
466.21769099640068
 23
-621.6914417221825
 33
0.0
 14
466.21769099640068
 24
-781.69144172218273
 34
0.0
 50
90.0
100
AcDbRotatedDimension
1001
ACAD
1000
DSTYLE
1002
{
1070
             279
1070
               2
1070
             340
1005
41
1070
             147
1040
5.0
1002
}
  0
DIMENSION
  5
1E5
100
AcDbEntity
  8
notes
370
               5
390
0
  6
Continuous
 62
               7
100
AcDbDimension
  2
*D6
 10
346.21769099640045
 20
-621.6914417221825
 30
0.0
 11
346.21769099640045
 21
-481.69144172218182
 31
0.0
 71
               5
 72
               1
 41
1.0
 42
0.0
  3
Tform線あり
100
AcDbAlignedDimension
 13
466.21769099640068
 23
-341.69144172218114
 33
0.0
 14
466.21769099640068
 24
-621.6914417221825
 34
0.0
 50
90.0
100
AcDbRotatedDimension
1001
ACAD
1000
DSTYLE
1002
{
1070
             279
1070
               2
1070
             340
1005
41
1070
             147
1040
5.0
1002
}
  0
DIMENSION
  5
1E6
100
AcDbEntity
  8
notes
370
               5
390
0
  6
Continuous
 62
               7
100
AcDbDimension
  2
*D7
 10
346.21769099640045
 20
-341.69144172218114
 30
0.0
 11
346.21769099640045
 21
-261.69144172218114
 31
0.0
 71
               5
 72
               1
 41
1.0
 42
0.0
  3
Tform線あり
100
AcDbAlignedDimension
 13
466.21769099640068
 23
-181.69144172218114
 33
0.0
 14
466.21769099640068
 24
-341.69144172218114
 34
0.0
 50
90.0
100
AcDbRotatedDimension
1001
ACAD
1000
DSTYLE
1002
{
1070
             279
1070
               2
1070
             340
1005
41
1070
             147
1040
5.0
1002
}
  0
DIMENSION
  5
1E7
100
AcDbEntity
  8
notes
370
               5
390
0
  6
Continuous
 62
               7
100
AcDbDimension
  2
*D8
 10
446.21769099640062
 20
43.313160532434495
 30
0.0
 11
526.23122411522831
 21
43.313160532434495
 31
0.0
 71
               5
 72
               1
 41
1.0
 42
0.0
  3
Tform線あり
100
AcDbAlignedDimension
 13
606.24475723405612
 23
-226.69144172218114
 33
0.0
 14
446.21769099640062
 24
-59.686838868143781
 34
0.0
100
AcDbRotatedDimension
1001
ACAD
1000
DSTYLE
1002
{
1070
             279
1070
               2
1070
             340
1005
41
1070
             147
1040
5.0
1002
}
  0
DIMENSION
  5
1E8
100
AcDbEntity
  8
notes
370
               5
390
0
  6
Continuous
 62
               7
100
AcDbDimension
  2
*D9
 10
706.09784110885744
 20
1101.2406463384614
 30
0.0
 11
706.09784110885744
 21
971.24064633846319
 31
0.0
 71
               5
 72
               1
 41
1.0
 42
0.0
  3
Tform線あり
100
AcDbAlignedDimension
 13
595.97987137393852
 23
841.2406463384649
 33
0.0
 14
601.09784110886199
 24
1101.2406463384614
 34
0.0
 50
90.0
100
AcDbRotatedDimension
1001
ACAD
1000
DSTYLE
1002
{
1070
             279
1070
               2
1070
             340
1005
41
1070
             147
1040
5.0
1002
}
  0
DIMENSION
  5
1E9
100
AcDbEntity
  8
notes
370
               5
390
0
  6
Continuous
 62
               7
100
AcDbDimension
  2
*D10
 10
346.18110526032024
 20
1101.2406463384586
 30
0.0
 11
346.18110526032024
 21
1051.2406463384586
 31
0.0
 71
               5
 72
               1
 41
1.0
 42
0.0
  3
Tform線あり
100
AcDbAlignedDimension
 13
446.18093815334282
 23
1001.2406463384585
 33
0.0
 14
449.18042314923082
 24
1101.2406463384586
 34
0.0
 50
90.0
100
AcDbRotatedDimension
1001
ACAD
1000
DSTYLE
1002
{
1070
             279
1070
               2
1070
             340
1005
41
1070
             147
1040
5.0
1002
}
  0
DIMENSION
  5
1EA
100
AcDbEntity
  8
notes
370
               5
390
0
  6
Continuous
 62
               7
100
AcDbDimension
  2
*D11
 10
446.15999727738506
 20
868.02324163099138
 30
0.0
 11
441.99999999999994
 21
873.02324163099138
 31
0.0
 70
             128
 71
               5
 72
               1
 41
1.0
 42
0.0
  3
Tform線あり
100
AcDbAlignedDimension
 13
546.17471823894289
 23
819.02324163099149
 33
0.0
 14
446.15999727738506
 24
813.86074346833891
 34
0.0
100
AcDbRotatedDimension
1001
ACAD
1000
DSTYLE
1002
{
1070
             279
1070
               2
1070
             340
1005
41
1070
               3
1000
<>(深さ)
1070
             174
1070
               0
1070
             147
1040
5.0
1002
}
  0
MTEXT
  5
1EB
100
AcDbEntity
  8
notes
390
0
 62
               7
100
AcDbMText
 10
-866.7478001756557
 20
628.01358132668588
 30
0.0
 40
24.432617187500004
 41
0.0
 71
               1
 72
               1
  1
カウンター切込寸法
  7
ＭＳ ゴシック
 11
0.0
 21
1.0
 31
0.0
 73
               1
 44
0.7828267384257843
  0
MTEXT
  5
1EC
100
AcDbEntity
  8
notes
390
0
 62
               7
100
AcDbMText
 10
-789.23495047968561
 20
405.55219065911194
 30
0.0
 40
24.432617187500004
 41
0.0
 71
               1
 72
               1
  1
半埋め込み
  7
ＭＳ ゴシック
 11
0.0
 21
1.0
 31
0.0
 73
               1
 44
0.7828267384257843
  0
MTEXT
  5
1ED
100
AcDbEntity
  8
notes
390
0
 62
               7
100
AcDbMText
 10
-724.23495047968561
 20
627.14792303625745
 30
0.0
 40
24.432617187500004
 41
0.0
 71
               1
 72
               1
  1
カウンター置き
  7
ＭＳ ゴシック
 11
0.0
 21
1.0
 31
0.0
 73
               1
 44
0.7828267384257843
  0
DIMENSION
  5
1EE
100
AcDbEntity
  8
notes
370
               5
390
0
  6
Continuous
 62
               7
100
AcDbDimension
  2
*D12
 10
-3.4524946626427635
 20
1138.8516873751032
 30
0.0
 11
-3.4524946626427635
 21
763.85168737510332
 31
0.0
 71
               5
 72
               1
 41
1.0
 42
0.0
  3
Tform線あり
100
AcDbAlignedDimension
 13
-173.45249466264187
 23
388.85168737510321
 33
0.0
 14
-173.45249466264187
 24
1138.8516873751032
 34
0.0
 50
90.0
100
AcDbRotatedDimension
1001
ACAD
1000
DSTYLE
1002
{
1070
             279
1070
               2
1070
             340
1005
41
1070
             147
1040
5.0
1002
}
  0
DIMENSION
  5
1EF
100
AcDbEntity
  8
notes
370
               5
390
0
  6
Continuous
 62
               7
100
AcDbDimension
  2
*D13
 10
-173.45249466264187
 20
1288.851687375105
 30
0.0
 11
-413.45249466264181
 21
1288.851687375105
 31
0.0
 71
               5
 72
               1
 41
1.0
 42
0.0
  3
Tform線あり
100
AcDbAlignedDimension
 13
-653.45249466264181
 23
1138.8516873751032
 33
0.0
 14
-173.45249466264187
 24
1138.8516873751032
 34
0.0
100
AcDbRotatedDimension
1001
ACAD
1000
DSTYLE
1002
{
1070
             279
1070
               2
1070
             340
1005
41
1070
             147
1040
5.0
1002
}
  0
DIMENSION
  5
1F0
100
AcDbEntity
  8
notes
370
               5
390
0
  6
Continuous
 62
               7
100
AcDbDimension
  2
*D14
 10
-253.45249466264187
 20
938.85168737510332
 30
0.0
 11
-253.45249466264187
 21
763.85168737510321
 31
0.0
 71
               5
 72
               1
 41
1.0
 42
0.0
  3
Tform線あり
100
AcDbAlignedDimension
 13
-353.45249466264187
 23
588.85168737510321
 33
0.0
 14
-353.45249466264187
 24
938.85168737510332
 34
0.0
 50
90.0
100
AcDbRotatedDimension
1001
ACAD
1000
DSTYLE
1002
{
1070
             279
1070
               2
1070
             340
1005
41
1070
             147
1040
5.0
1002
}
  0
DIMENSION
  5
1F1
100
AcDbEntity
  8
notes
370
               5
390
0
  6
Continuous
 62
               7
100
AcDbDimension
  2
*D15
 10
-353.45249466264187
 20
1038.8516873751032
 30
0.0
 11
-503.45249466264181
 21
1038.8516873751032
 31
0.0
 71
               5
 72
               1
 41
1.0
 42
0.0
  3
Tform線あり
100
AcDbAlignedDimension
 13
-653.45249466264181
 23
938.85168737510332
 33
0.0
 14
-353.45249466264187
 24
938.85168737510332
 34
0.0
100
AcDbRotatedDimension
1001
ACAD
1000
DSTYLE
1002
{
1070
             279
1070
               2
1070
             340
1005
41
1070
             147
1040
5.0
1002
}
  0
LINE
  5
1F2
100
AcDbEntity
  8
notes
370
               5
390
0
  6
Continuous
 62
               7
100
AcDbLine
 10
-653.45249466264181
 20
638.85168737510321
 30
0.0
 11
-687.0
 21
638.85168737510321
 31
0.0
  0
LINE
  5
1F3
100
AcDbEntity
  8
notes
370
               5
390
0
  6
Continuous
 62
               7
100
AcDbLine
 10
-653.45249466264181
 20
423.85168737510321
 30
0.0
 11
-750.0
 21
423.85168737510321
 31
0.0
  0
INSERT
  5
1F4
100
AcDbEntity
  8
notes
390
0
 62
               7
100
AcDbBlockReference
  2
グループ-1
 10
108.181008025
 20
148.284935625
 30
0.0
  0
DIMENSION
  5
1F5
100
AcDbEntity
  8
notes
370
               5
390
0
  6
Continuous
 62
               7
100
AcDbDimension
  2
*D17
 10
706.21769099640073
 20
-226.69144172218114
 30
0.0
 11
706.21769099640073
 21
-481.69144172218193
 31
0.0
 71
               5
 72
               1
 41
1.0
 42
0.0
  3
Tform線あり
100
AcDbAlignedDimension
 13
606.21769099640073
 23
-736.69144172218273
 33
0.0
 14
606.24475723405612
 24
-226.69144172218114
 34
0.0
 50
90.0
100
AcDbRotatedDimension
1001
ACAD
1000
DSTYLE
1002
{
1070
             279
1070
               2
1070
             340
1005
41
1070
             147
1040
5.0
1002
}
  0
DIMENSION
  5
1F6
100
AcDbEntity
  8
notes
370
               5
390
0
  6
Continuous
 62
               7
100
AcDbDimension
  2
*D18
 10
756.21769099640073
 20
1101.2406463384614
 30
0.0
 11
756.21769099640073
 21
918.74064633846285
 31
0.0
 71
               5
 72
               1
 41
1.0
 42
0.0
  3
Tform線あり
100
AcDbAlignedDimension
 13
601.09784110886199
 23
736.24064633846422
 33
0.0
 14
601.09784110886199
 24
1101.2406463384614
 34
0.0
 50
90.0
100
AcDbRotatedDimension
1001
ACAD
1000
DSTYLE
1002
{
1070
             279
1070
               2
1070
             340
1005
41
1070
             147
1040
5.0
1002
}
  0
DIMENSION
  5
1F7
100
AcDbEntity
  8
notes
370
               5
390
0
  6
Continuous
 62
               7
100
AcDbDimension
  2
*D19
 10
-653.45249466264181
 20
93.313160532434381
 30
0.0
 11
-378.45249466264136
 21
93.313160532434381
 31
0.0
 71
               5
 72
               1
 41
1.0
 42
0.0
  3
Tform線あり
100
AcDbAlignedDimension
 13
-103.45249466264094
 23
-106.68683946756448
 33
0.0
 14
-653.45249466264181
 24
-59.686839467564482
 34
0.0
100
AcDbRotatedDimension
1001
ACAD
1000
DSTYLE
1002
{
1070
             279
1070
               2
1070
             340
1005
41
1070
             147
1040
5.0
1002
}
  0
DIMENSION
  5
1F8
100
AcDbEntity
  8
notes
370
               5
390
0
  6
Continuous
 62
               7
100
AcDbDimension
  2
*D20
 10
-163.45249466264096
 20
43.313160532434551
 30
0.0
 11
-323.4524946626409
 21
43.313160532434551
 31
0.0
 71
               5
 72
               1
 41
1.0
 42
0.0
  3
Tform線あり
100
AcDbAlignedDimension
 13
-483.4524946626409
 23
-56.686839467565619
 33
0.0
 14
-163.45249466264096
 24
-56.686839467565619
 34
0.0
100
AcDbRotatedDimension
1001
ACAD
1000
DSTYLE
1002
{
1070
             279
1070
               2
1070
             340
1005
41
1070
             147
1040
5.0
1002
}
  0
DIMENSION
  5
1F9
100
AcDbEntity
  8
notes
370
               5
390
0
  6
Continuous
 62
               7
100
AcDbDimension
  2
*D21
 10
-483.4524946626409
 20
43.313160532434551
 30
0.0
 11
-568.4524946626409
 21
43.313160532434551
 31
0.0
 71
               5
 72
               1
 41
1.0
 42
0.0
  3
Tform線あり
100
AcDbAlignedDimension
 13
-653.4524946626409
 23
-59.686837224734404
 33
0.0
 14
-483.4524946626409
 24
-56.686839467565619
 34
0.0
100
AcDbRotatedDimension
1001
ACAD
1000
DSTYLE
1002
{
1070
             279
1070
               2
1070
             340
1005
41
1070
             147
1040
5.0
1002
}
  0
MTEXT
  5
1FA
100
AcDbEntity
  8
notes
390
0
 62
               7
100
AcDbMText
 10
355.51102464764483
 20
-134.18143125285775
 30
0.0
 40
24.432617187500004
 41
0.0
 71
               1
 72
               1
  1
壁取付ボルト(4ヶ所)
  7
ＭＳ ゴシック
 11
0.0
 21
1.0
 31
0.0
 73
               1
 44
0.7828267384257843
  0
DIMENSION
  5
1FB
100
AcDbEntity
  8
notes
370
               5
390
0
  6
Continuous
 62
               7
100
AcDbDimension
  2
*D22
 10
-803.45249466264181
 20
-56.686839467565619
 30
0.0
 11
-808.45249466264181
 21
-494.27430833530082
 31
0.0
 70
             128
 71
               5
 72
               1
 41
1.0
 42
0.0
  3
Tform線あり
100
AcDbAlignedDimension
 13
-650.45249466264181
 23
-906.68683946756948
 33
0.0
 14
-650.45249466264181
 24
-56.686839467565619
 34
0.0
 50
90.0
100
AcDbRotatedDimension
1001
ACAD
1000
DSTYLE
1002
{
1070
             279
1070
               2
1070
             340
1005
41
1070
             147
1040
5.0
1002
}
  0
DIMENSION
  5
1FC
100
AcDbEntity
  8
notes
370
               5
390
0
  6
Continuous
 62
               7
100
AcDbDimension
  2
*D23
 10
-753.45249466264181
 20
-581.68683946756835
 30
0.0
 11
-753.45249466264181
 21
-531.68683946756789
 31
0.0
 71
               5
 72
               1
 41
1.0
 42
0.0
  3
Tform線あり
100
AcDbAlignedDimension
 13
-563.71778825045681
 23
-481.68683946756744
 33
0.0
 14
-561.21778825045703
 24
-581.68683946756835
 34
0.0
 50
90.0
100
AcDbRotatedDimension
1001
ACAD
1000
DSTYLE
1002
{
1070
             279
1070
               2
1070
             340
1005
41
1070
             147
1040
5.0
1002
}
  0
DIMENSION
  5
1FD
100
AcDbEntity
  8
notes
370
               5
390
0
  6
Continuous
 62
               7
100
AcDbDimension
  2
*D24
 10
-753.45249466264181
 20
-481.68683946756744
 30
0.0
 11
-758.45249466264181
 21
-431.68683946756755
 31
0.0
 70
             128
 71
               5
 72
               1
 41
1.0
 42
0.0
  3
Tform線あり
100
AcDbAlignedDimension
 13
-561.21778825045681
 23
-381.68683946756767
 33
0.0
 14
-563.71778825045681
 24
-481.68683946756744
 34
0.0
 50
90.0
100
AcDbRotatedDimension
1001
ACAD
1000
DSTYLE
1002
{
1070
             279
1070
               2
1070
             340
1005
41
1070
             147
1040
5.0
1002
}
  0
DIMENSION
  5
1FE
100
AcDbEntity
  8
notes
370
               5
390
0
  6
Continuous
 62
               7
100
AcDbDimension
  2
*D25
 10
-3.4524946626426498
 20
-906.68683946756744
 30
0.0
 11
-3.4524946626426498
 21
-821.68683946756801
 31
0.0
 71
               5
 72
               1
 41
1.0
 42
0.0
  3
Tform線あり
100
AcDbAlignedDimension
 13
-103.45249466264276
 23
-736.68683946756857
 33
0.0
 14
-153.45249466264187
 24
-906.68683946756744
 34
0.0
 50
90.0
100
AcDbRotatedDimension
1001
ACAD
1000
DSTYLE
1002
{
1070
             279
1070
               2
1070
             340
1005
41
1070
             147
1040
5.0
1002
}
  0
DIMENSION
  5
1FF
100
AcDbEntity
  8
notes
370
               5
390
0
  6
Continuous
 62
               7
100
AcDbDimension
  2
*D26
 10
-3.4524946626426498
 20
-736.68683946756857
 30
0.0
 11
-3.4524946626426498
 21
-481.68683946756812
 31
0.0
 71
               5
 72
               1
 41
1.0
 42
0.0
  3
Tform線あり
100
AcDbAlignedDimension
 13
-103.45249466264276
 23
-226.68683946756767
 33
0.0
 14
-103.45249466264276
 24
-736.68683946756857
 34
0.0
 50
90.0
100
AcDbRotatedDimension
1001
ACAD
1000
DSTYLE
1002
{
1070
             279
1070
               2
1070
             340
1005
41
1070
             147
1040
5.0
1002
}
  0
MTEXT
  5
200
100
AcDbEntity
  8
notes
390
0
 62
               7
100
AcDbMText
 10
42.078011178609273
 20
-836.22458781677221
 30
0.0
 40
24.432617187500004
 41
826.95027948147151
 71
               1
 72
               1
  1
＝φ30もしくはφ35の水栓取付用穴あけ加工を承ります。\P   必要な場合、ご注文の際にご指示ください。
  7
ＭＳ ゴシック
 11
0.0
 21
1.0
 31
0.0
 73
               1
 44
1.0437689845677123
  0
CIRCLE
  5
201
100
AcDbEntity
  8
notes
370
              15
390
0
  6
STYLE_12
 62
               7
100
AcDbCircle
 10
51.94717323171389
 20
-859.27430833530082
 30
0.0
 40
15.0
  0
DIMENSION
  5
202
100
AcDbEntity
  8
notes
370
               5
390
0
  6
Continuous
 62
               7
100
AcDbDimension
  2
*D27
 10
486.21769099640068
 20
-1006.6868394675695
 30
0.0
 11
466.21769099640062
 21
-1006.6868394675695
 31
0.0
 71
               5
 72
               1
 41
1.0
 42
0.0
  3
Tform線あり
100
AcDbAlignedDimension
 13
446.21769099640062
 23
-900.97347402493631
 33
0.0
 14
486.21769099640068
 24
-831.69144172218273
 34
0.0
100
AcDbRotatedDimension
1001
ACAD
1000
DSTYLE
1002
{
1070
             279
1070
               2
1070
             340
1005
41
1070
             147
1040
5.0
1002
}
  0
LINE
  5
203
100
AcDbEntity
  8
notes
370
               5
390
0
  6
Continuous
 62
               7
100
AcDbLine
 10
484.95049150948961
 20
-181.69144172218114
 30
0.0
 11
398.82325975345833
 21
-106.34143125285755
 31
0.0
  0
MTEXT
  5
204
100
AcDbEntity
  8
notes
390
0
 62
               7
100
AcDbMText
 10
800.99392198382782
 20
-990.49573751406763
 30
0.0
 40
24.432617187500004
 41
0.0
 71
               1
 72
               1
  1
半埋め込み
  7
ＭＳ ゴシック
 11
0.0
 21
1.0
 31
0.0
 73
               1
 44
0.7828267384257843
  0
MTEXT
  5
205
100
AcDbEntity
  8
notes
390
0
 62
               7
100
AcDbMText
 10
734.99392198382782
 20
-869.81105469777879
 30
0.0
 40
24.432617187500004
 41
0.0
 71
               1
 72
               1
  1
カウンター置き
  7
ＭＳ ゴシック
 11
0.0
 21
1.0
 31
0.0
 73
               1
 44
0.7828267384257843
  0
LINE
  5
206
100
AcDbEntity
  8
notes
370
               5
390
0
  6
Continuous
 62
               7
100
AcDbLine
 10
606.21769099640073
 20
-754.89490219799166
 30
0.0
 11
606.21769099640073
 21
-881.59490219799216
 31
0.0
  0
LINE
  5
207
100
AcDbEntity
  8
notes
370
               5
390
0
  6
Continuous
 62
               7
100
AcDbLine
 10
546.20000000000005
 20
-922.22924223636039
 30
0.0
 11
546.20000000000005
 21
-998.92924223636089
 31
0.0
  0
LINE
  5
208
100
AcDbEntity
  8
notes
370
               5
390
0
  6
Continuous
 62
               7
100
AcDbLine
 10
546.20000000000005
 20
-973.92924223636089
 30
0.0
 11
794.0
 21
-973.92924223636089
 31
0.0
  0
LINE
  5
209
100
AcDbEntity
  8
notes
370
               5
390
0
  6
Continuous
 62
               7
100
AcDbLine
 10
606.21769099640073
 20
-856.5949021979917
 30
0.0
 11
724.0
 21
-856.5949021979917
 31
0.0
  0
DIMENSION
  5
20A
100
AcDbEntity
  8
notes
370
               5
390
0
  6
Continuous
 62
               7
100
AcDbDimension
  2
*D28
 10
591.09784110886471
 20
777.0
 30
0.0
 11
625.0
 21
782.0
 31
0.0
 70
             128
 71
               5
 72
               1
 41
1.0
 42
0.0
  3
Tform線あり
100
AcDbAlignedDimension
 13
606.09784110886471
 23
815.51744637715899
 33
0.0
 14
591.09784110886471
 24
815.51744637715899
 34
0.0
100
AcDbRotatedDimension
1001
ACAD
1000
DSTYLE
1002
{
1070
             279
1070
               2
1070
             340
1005
41
1070
             174
1070
               0
1070
             147
1040
5.0
1002
}
  0
LINE
  5
20B
100
AcDbEntity
  8
ADF70-1601
370
              15
390
0
  6
Continuous
 62
               7
100
AcDbLine
 10
459.18124824178562
 20
983.70593992627926
 30
0.0
 11
446.18104341554522
 21
983.70593992627926
 31
0.0
  0
LINE
  5
20C
100
AcDbEntity
  8
ADF70-1601
370
              15
390
0
  6
STYLE_12
 62
               7
100
AcDbLine
 10
544.06778998678351
 20
796.04946427582206
 30
0.0
 11
536.39263022509863
 21
650.21636035338474
 31
0.0
  0
LINE
  5
20D
100
AcDbEntity
  8
ADF70-1601
370
              15
390
0
  6
Continuous
 62
               7
100
AcDbLine
 10
540.25348175529621
 20
552.88370154531412
 30
0.0
 11
452.22781356620749
 21
551.34720779172312
 31
0.0
  0
LINE
  5
20E
100
AcDbEntity
  8
ADF70-1601
370
              15
390
0
  6
Continuous
 62
               7
100
AcDbLine
 10
446.12457173771713
 20
605.39528559367568
 30
0.0
 11
446.12309913040394
 21
557.34647785159234
 31
0.0
  0
ARC
  5
20F
100
AcDbEntity
  8
ADF70-1601
370
              15
390
0
  6
Continuous
 62
               7
100
AcDbCircle
 10
452.12309912758462
 20
557.3462939626603
 30
0.0
 40
6.000000000000143
100
AcDbArc
 50
179.99824399005755
 51
271.0000000000278
  0
ARC
  5
210
100
AcDbEntity
  8
ADF70-1601
370
              15
390
0
  6
STYLE_12
 62
               7
100
AcDbCircle
 10
456.18124824178108
 20
939.63189369782015
 30
0.0
 40
10.000000000000057
100
AcDbArc
 50
180.0
 51
259.93261525563861
  0
LINE
  5
211
100
AcDbEntity
  8
ADF70-1601
370
              15
390
0
  6
Continuous
 62
               7
100
AcDbLine
 10
446.18042314928266
 20
1098.2406284804388
 30
0.0
 11
446.1812195380657
 21
939.63184349398136
 31
0.0
  0
LINE
  5
212
100
AcDbEntity
  8
ADF70-1601
370
              15
390
0
  6
Continuous
 62
               7
100
AcDbLine
 10
546.14876731667141
 20
1101.2406463384596
 30
0.0
 11
546.14876731667141
 21
558.8827877162513
 31
0.0
  0
ARC
  5
213
100
AcDbEntity
  8
ADF70-1601
370
              15
390
0
  6
Continuous
 62
               7
100
AcDbCircle
 10
540.14876731667164
 20
558.8827877162513
 30
0.0
 40
5.9999999999999023
100
AcDbArc
 50
271.0000000000278
 51
0.0
  0
LINE
  5
214
100
AcDbEntity
  8
ADF70-1601
370
              15
390
0
  6
STYLE_12
 62
               7
100
AcDbLine
 10
558.21716858814784
 20
815.51744637715899
 30
0.0
 11
558.21716858814784
 21
838.51744637715899
 31
0.0
  0
LINE
  5
215
100
AcDbEntity
  8
ADF70-1601
370
              15
390
0
  6
STYLE_12
 62
               7
100
AcDbLine
 10
451.69333773766107
 20
613.01666105336585
 30
0.0
 11
525.97175094683848
 21
636.71086098778392
 31
0.0
  0
ARC
  5
216
100
AcDbEntity
  8
ADF70-1601
370
              15
390
0
  6
STYLE_12
 62
               7
100
AcDbCircle
 10
454.12457173396012
 20
605.39504040843508
 30
0.0
 40
8.0000000000001013
100
AcDbArc
 50
107.69225308272648
 51
179.99824399005755
  0
LINE
  5
217
100
AcDbEntity
  8
ADF70-1601
370
              15
390
0
  6
Continuous
 62
               7
100
AcDbLine
 10
446.12478363866944
 20
605.45326781135077
 30
0.0
 11
446.18124824178108
 21
939.63189369782015
 31
0.0
  0
LINE
  5
218
100
AcDbEntity
  8
ADF70-1601
370
              15
390
0
  6
Continuous
 62
               7
100
AcDbLine
 10
539.17489353964834
 20
1101.2406463384596
 30
0.0
 11
601.09784110886199
 21
1101.2406463384614
 31
0.0
  0
LINE
  5
219
100
AcDbEntity
  8
ADF70-1601
370
              15
390
0
  6
Continuous
 62
               7
100
AcDbLine
 10
606.09784110886108
 20
1077.9891844686395
 30
0.0
 11
606.09784110886199
 21
1096.2406463384618
 31
0.0
  0
LINE
  5
21A
100
AcDbEntity
  8
ADF70-1601
370
              15
390
0
  6
Continuous
 62
               7
100
AcDbLine
 10
606.09784110885744
 20
910.25676620026536
 30
0.0
 11
606.09784110886108
 21
1077.5832109797511
 31
0.0
  0
LINE
  5
21B
100
AcDbEntity
  8
ADF70-1601
370
              15
390
0
  6
Continuous
 62
               7
100
AcDbLine
 10
606.09784110886108
 20
748.31553086593783
 30
0.0
 11
606.09784110885471
 21
729.12377820738482
 31
0.0
  0
ARC
  5
21C
100
AcDbEntity
  8
ADF70-1601
370
              15
390
0
  6
Continuous
 62
               7
100
AcDbCircle
 10
600.09784110885471
 20
729.12377820738709
 30
0.0
 40
5.9999999999999991
100
AcDbArc
 50
318.85522362781484
 51
0.0
  0
LINE
  5
21D
100
AcDbEntity
  8
ADF70-1601
370
              15
390
0
  6
Continuous
 62
               7
100
AcDbLine
 10
606.09784110886471
 20
748.31553086594101
 30
0.0
 11
606.09784110885744
 21
910.25676620026536
 31
0.0
  0
ARC
  5
21E
100
AcDbEntity
  8
ADF70-1601
370
              15
390
0
  6
Continuous
 62
               7
100
AcDbCircle
 10
601.09784110886199
 20
1096.2406463384618
 30
0.0
 40
5.0
100
AcDbArc
 50
0.0
 51
90.0
  0
LINE
  5
21F
100
AcDbEntity
  8
ADF70-1601
370
              15
390
0
  6
STYLE_12
 62
               7
100
AcDbLine
 10
454.43318548600314
 20
929.78586522935313
 30
0.0
 11
524.38027313228235
 21
917.45570904808449
 31
0.0
  0
ARC
  5
220
100
AcDbEntity
  8
ADF70-1601
370
              15
390
0
  6
STYLE_12
 62
               7
100
AcDbCircle
 10
521.77624740085889
 20
902.68346988166024
 30
0.0
 40
14.999999999999998
100
AcDbArc
 50
12.985867411560648
 51
80.002703145980718
  0
LINE
  5
221
100
AcDbEntity
  8
ADF70-1601
370
              15
390
0
  6
STYLE_12
 62
               7
100
AcDbLine
 10
543.84237513759058
 20
882.29311695669014
 30
0.0
 11
536.39263022509863
 21
906.05413051947846
 31
0.0
  0
ARC
  5
222
100
AcDbEntity
  8
ADF70-1601
370
              15
390
0
  6
STYLE_12
 62
               7
100
AcDbCircle
 10
521.41318720377922
 20
651.00139969703082
 30
0.0
 40
15.000000000000208
100
AcDbArc
 50
287.6922530827261
 51
356.99999999999443
  0
ARC
  5
223
100
AcDbEntity
  8
ADF70-1601
370
              15
390
0
  6
STYLE_12
 62
               7
100
AcDbCircle
 10
552.06353680750294
 20
795.78863333636207
 30
0.0
 40
7.9999999999996056
100
AcDbArc
 50
139.99999999997874
 51
178.1316048794082
  0
ARC
  5
224
100
AcDbEntity
  8
ADF70-1601
370
              15
390
0
  6
STYLE_12
 62
               7
100
AcDbCircle
 10
552.0660648672731
 20
881.16876199410842
 30
0.0
 40
7.9999999999999876
100
AcDbArc
 50
181.18989882308767
 51
220.00000000002092
  0
LINE
  5
225
100
AcDbEntity
  8
ADF70-1601
370
              15
390
0
  6
STYLE_12
 62
               7
100
AcDbLine
 10
558.15239246455008
 20
861.46956859946579
 30
0.0
 11
545.93770932232042
 21
876.02646111661659
 31
0.0
  0
LINE
  5
226
100
AcDbEntity
  8
ADF70-1601
370
              15
390
0
  6
STYLE_12
 62
               7
100
AcDbLine
 10
558.17471823894198
 20
815.51744637715899
 30
0.0
 11
545.93518126254935
 21
800.93093421385481
 31
0.0
  0
LINE
  5
227
100
AcDbEntity
  8
ADF70-1601
370
              15
390
0
  6
STYLE_12
 62
               7
100
AcDbLine
 10
558.17471823894198
 20
861.51744637716286
 30
0.0
 11
591.09784110886471
 21
861.51744637716286
 31
0.0
  0
LINE
  5
228
100
AcDbEntity
  8
ADF70-1601
370
              15
390
0
  6
STYLE_12
 62
               7
100
AcDbLine
 10
558.17471823894198
 20
815.51744637715899
 30
0.0
 11
591.09784110886471
 21
815.51744637715899
 31
0.0
  0
LINE
  5
229
100
AcDbEntity
  8
ADF70-1601
370
              15
390
0
  6
STYLE_12
 62
               7
100
AcDbLine
 10
591.09784110886471
 20
815.51744637715899
 30
0.0
 11
591.09784110886471
 21
861.51744637716286
 31
0.0
  0
LINE
  5
22A
100
AcDbEntity
  8
ADF70-1601
370
              15
390
0
  6
STYLE_02
 62
               7
100
AcDbLine
 10
546.14876731667141
 20
800.40488571660399
 30
0.0
 11
546.14876731667141
 21
875.21795639150218
 31
0.0
  0
LINE
  5
22B
100
AcDbEntity
  8
ADF70-1601
370
              15
390
0
  6
STYLE_12
 62
               7
100
AcDbLine
 10
558.17471823894198
 20
861.51744637716058
 30
0.0
 11
558.17471823894198
 21
815.51744637716081
 31
0.0
  0
ARC
  5
22C
100
AcDbEntity
  8
ADF70-1601
370
              15
390
0
  6
STYLE_12
 62
               7
100
AcDbCircle
 10
539.03339962110863
 20
880.7881817199617
 30
0.0
 40
5.0389558030275765
100
AcDbArc
 50
2.4391659297559358
 51
17.377145688420768
  0
LINE
  5
22D
100
AcDbEntity
  8
ADF70-1601
370
              15
390
0
  6
Continuous
 62
               7
100
AcDbLine
 10
551.25437644673934
 20
664.10267334372895
 30
0.0
 11
604.61613766901269
 21
725.17599450073919
 31
0.0
  0
ARC
  5
22E
100
AcDbEntity
  8
ADF70-1601
370
              15
390
0
  6
Continuous
 62
               7
100
AcDbCircle
 10
458.90860091376669
 20
660.23623645636667
 30
0.0
 40
90.380332895052703
100
AcDbArc
 50
344.75366803149865
 51
359.22377150703153
  0
ARC
  5
22F
100
AcDbEntity
  8
ADF70-1601
370
              15
390
0
  6
Continuous
 62
               7
100
AcDbCircle
 10
557.2787718602824
 20
658.83896173486596
 30
0.0
 40
8.0000000000001155
100
AcDbArc
 50
138.85522362781424
 51
178.76186603692361
  0
LINE
  5
230
100
AcDbEntity
  8
ADF70-1601
370
              15
390
0
  6
Continuous
 62
               7
100
AcDbLine
 10
449.18042314923082
 20
1101.2406463384577
 30
0.0
 11
539.17489353964834
 21
1101.2406463384596
 31
0.0
  0
ARC
  5
231
100
AcDbEntity
  8
ADF70-1601
370
              15
390
0
  6
Continuous
 62
               7
100
AcDbCircle
 10
449.18042314923076
 20
1098.2406463384591
 30
0.0
 40
2.9999999999994316
100
AcDbArc
 50
90.0
 51
180.97346916682375
  0
LINE
  5
232
100
AcDbEntity
  8
ADF70-1601
370
              15
390
0
  6
Continuous
 62
               7
100
AcDbLine
 10
459.19999999999999
 20
1018.7232416309913
 30
0.0
 11
446.19999999999999
 21
1018.7232416309913
 31
0.0
  0
LWPOLYLINE
  5
233
100
AcDbEntity
  8
ADF70-1601
370
              15
390
0
  6
Continuous
 62
               7
100
AcDbPolyline
 90
        9
 70
             129
 10
-103.45249466264276
 20
-856.68683946756767
 10
-103.45249466264094
 20
-106.68683946756448
 42
0.4142135623731071
 10
-153.45249466264187
 20
-56.686839467565619
 10
-650.45249466264181
 20
-56.686839467565619
 42
0.4142135623729841
 10
-653.45249466264181
 20
-59.686839467564482
 10
-653.45249466264181
 20
-903.68683946756926
 42
0.414213562373084
 10
-650.45249466264181
 20
-906.68683946756948
 10
-153.45249466264187
 20
-906.68683946756744
 42
0.4142135623730984
 10
-103.45249466264276
 20
-856.68683946756767
  0
LINE
  5
234
100
AcDbEntity
  8
ADF70-1601
370
              15
390
0
  6
Continuous
 62
               7
100
AcDbLine
 10
-483.4524946626409
 20
-706.68683946757017
 30
0.0
 11
-483.45249466264272
 21
-256.68683946756767
 31
0.0
  0
LINE
  5
235
100
AcDbEntity
  8
ADF70-1601
370
              15
390
0
  6
Continuous
 62
               7
100
AcDbLine
 10
-193.45249466264096
 20
-736.68683946756653
 30
0.0
 11
-453.4524946626409
 21
-736.68683946757017
 31
0.0
  0
ARC
  5
236
100
AcDbEntity
  8
ADF70-1601
370
              15
390
0
  6
Continuous
 62
               7
100
AcDbCircle
 10
-193.45249466264102
 20
-706.68683946756653
 30
0.0
 40
30.0
100
AcDbArc
 50
270.0
 51
0.0
  0
LINE
  5
237
100
AcDbEntity
  8
ADF70-1601
370
              15
390
0
  6
Continuous
 62
               7
100
AcDbLine
 10
-193.45249466264096
 20
-226.68683946756767
 30
0.0
 11
-453.45249466264181
 21
-226.68683946756767
 31
0.0
  0
LINE
  5
238
100
AcDbEntity
  8
ADF70-1601
370
              15
390
0
  6
Continuous
 62
               7
100
AcDbLine
 10
-163.45249466264096
 20
-706.68683946756653
 30
0.0
 11
-163.45249466264096
 21
-256.68683946756767
 31
0.0
  0
CIRCLE
  5
239
100
AcDbEntity
  8
ADF70-1601
370
              15
390
0
  6
Continuous
 62
               7
100
AcDbCircle
 10
-390.72929470133965
 20
-481.68683946756744
 30
0.0
 40
38.999999999998977
  0
CIRCLE
  5
23A
100
AcDbEntity
  8
ADF70-1601
370
              15
390
0
  6
Continuous
 62
               7
100
AcDbCircle
 10
-390.72929470133965
 20
-481.68683946756744
 30
0.0
 40
23.043551013696401
  0
ARC
  5
23B
100
AcDbEntity
  8
ADF70-1601
370
              15
390
0
  6
Continuous
 62
               7
100
AcDbCircle
 10
-453.45249466264181
 20
-256.68683946756761
 30
0.0
 40
30.0
100
AcDbArc
 50
90.0
 51
180.0
  0
ARC
  5
23C
100
AcDbEntity
  8
ADF70-1601
370
              15
390
0
  6
Continuous
 62
               7
100
AcDbCircle
 10
-453.45249466264102
 20
-706.68683946757017
 30
0.0
 40
29.999999999999886
100
AcDbArc
 50
180.0
 51
270.0
  0
ARC
  5
23D
100
AcDbEntity
  8
ADF70-1601
370
              15
390
0
  6
Continuous
 62
               7
100
AcDbCircle
 10
-193.45249466264102
 20
-706.68683946756857
 30
0.0
 40
30.0
100
AcDbArc
 50
270.0
 51
0.0
  0
ARC
  5
23E
100
AcDbEntity
  8
ADF70-1601
370
              15
390
0
  6
Continuous
 62
               7
100
AcDbCircle
 10
-193.45249466264096
 20
-256.68683946756767
 30
0.0
 40
30.0
100
AcDbArc
 50
0.0
 51
90.0
  0
CIRCLE
  5
23F
100
AcDbEntity
  8
ADF70-1601
370
              15
390
0
  6
STYLE_12
 62
               7
100
AcDbCircle
 10
-553.45249466264181
 20
-481.68683946756744
 30
0.0
 40
17.499999999999886
  0
CIRCLE
  5
240
100
AcDbEntity
  8
ADF70-1601
370
              15
390
0
  6
STYLE_12
 62
               7
100
AcDbCircle
 10
-553.45249466264181
 20
-381.68683946756767
 30
0.0
 40
15.0
  0
CIRCLE
  5
241
100
AcDbEntity
  8
ADF70-1601
370
              15
390
0
  6
STYLE_12
 62
               7
100
AcDbCircle
 10
-553.45249466264181
 20
-581.68683946756835
 30
0.0
 40
15.0
  0
LINE
  5
242
100
AcDbEntity
  8
ADF70-1601
370
              15
390
0
  6
Continuous
 62
               7
100
AcDbLine
 10
-196.06151820371662
 20
-246.30935972789564
 30
0.0
 11
-449.52357468346531
 21
-246.30935972790269
 31
0.0
  0
LINE
  5
243
100
AcDbEntity
  8
ADF70-1601
370
              15
390
0
  6
Continuous
 62
               7
100
AcDbLine
 10
-196.06151820371662
 20
-717.06431920723583
 30
0.0
 11
-449.52357468346531
 21
-717.06431920723583
 31
0.0
  0
ARC
  5
244
100
AcDbEntity
  8
ADF70-1601
370
              15
390
0
  6
Continuous
 62
               7
100
AcDbCircle
 10
-196.06151820371667
 20
-706.0643192072356
 30
0.0
 40
11.0
100
AcDbArc
 50
270.0
 51
0.0
  0
LINE
  5
245
100
AcDbEntity
  8
ADF70-1601
370
              15
390
0
  6
Continuous
 62
               7
100
AcDbLine
 10
-460.52357468346349
 20
-257.30935972790269
 30
0.0
 11
-460.52357468346531
 21
-706.0643192072356
 31
0.0
  0
ARC
  5
246
100
AcDbEntity
  8
ADF70-1601
370
              15
390
0
  6
Continuous
 62
               7
100
AcDbCircle
 10
-449.52357468346543
 20
-706.0643192072356
 30
0.0
 40
11.0
100
AcDbArc
 50
180.0
 51
270.0
  0
ARC
  5
247
100
AcDbEntity
  8
ADF70-1601
370
              15
390
0
  6
Continuous
 62
               7
100
AcDbCircle
 10
-449.5235746834644
 20
-257.30935972790263
 30
0.0
 40
11.0
100
AcDbArc
 50
90.0
 51
180.0
  0
LINE
  5
248
100
AcDbEntity
  8
ADF70-1601
370
              15
390
0
  6
Continuous
 62
               7
100
AcDbLine
 10
-185.06151820371662
 20
-257.3093597278945
 30
0.0
 11
-185.06151820371662
 21
-706.0643192072356
 31
0.0
  0
ARC
  5
249
100
AcDbEntity
  8
ADF70-1601
370
              15
390
0
  6
Continuous
 62
               7
100
AcDbCircle
 10
-196.06151820371662
 20
-257.3093597278945
 30
0.0
 40
11.0
100
AcDbArc
 50
0.0
 51
90.0
  0
SPLINE
  5
24A
100
AcDbEntity
  8
ADF70-1601
370
              15
390
0
  6
Continuous
 62
               7
100
AcDbSpline
210
0.0
220
0.0
230
1.0
 70
               9
 71
               2
 72
              30
 73
              27
 74
               0
 42
0.000001
 43
0.000001
 40
0.0
 40
0.0
 40
0.0
 40
1.0
 40
1.0
 40
2.0
 40
3.0
 40
4.0
 40
5.0
 40
6.0
 40
7.0
 40
8.0
 40
9.0
 40
10.0
 40
11.0
 40
12.0
 40
13.0
 40
14.0
 40
15.0
 40
16.0
 40
17.0
 40
18.0
 40
19.0
 40
20.0
 40
21.0
 40
22.0
 40
22.0
 40
23.0
 40
23.0
 40
23.0
 10
-477.72144651264557
 20
-494.18683946756744
 30
0.0
 10
-477.66226109022523
 20
-494.18683946756744
 30
0.0
 10
-477.60307566780489
 20
-494.18683946756744
 30
0.0
 10
-476.97439929842517
 20
-493.86843763281138
 30
0.0
 10
-476.26188005909012
 20
-491.57839258675301
 30
0.0
 10
-475.86688472192077
 20
-489.47148940935438
 30
0.0
 10
-475.57985603044131
 20
-486.96542942040003
 30
0.0
 10
-475.33796993902911
 20
-482.9702589372672
 30
0.0
 10
-475.41491140151652
 20
-479.09101811336097
 30
0.0
 10
-475.57985672405744
 20
-476.40824951473394
 30
0.0
 10
-475.86688067583077
 20
-473.90218952578073
 30
0.0
 10
-476.26190364201307
 20
-471.79528634838164
 30
0.0
 10
-476.98317246825195
 20
-469.51067602782985
 30
0.0
 10
-477.72144651264648
 20
-469.12090159925231
 30
0.0
 10
-478.46795935657178
 20
-469.50482324651591
 30
0.0
 10
-479.18098938327716
 20
-471.79528634838096
 30
0.0
 10
-479.57601234946128
 20
-473.90218952578095
 30
0.0
 10
-479.86303630123462
 20
-476.40824951473462
 30
0.0
 10
-480.02798162377371
 20
-479.09101811336075
 30
0.0
 10
-480.10768842554467
 20
-482.95576772986408
 30
0.0
 10
-479.86303699485075
 20
-486.96542942040026
 30
0.0
 10
-479.57600830337219
 20
-489.47148940935392
 30
0.0
 10
-479.18101296620011
 20
-491.57839258675324
 30
0.0
 10
-478.46287888141364
 20
-493.86373450496978
 30
0.0
 10
-477.83981735748625
 20
-494.18683946756744
 30
0.0
 10
-477.78063193506591
 20
-494.18683946756744
 30
0.0
 10
-477.72144651264557
 20
-494.18683946756744
 30
0.0
  0
LWPOLYLINE
  5
24B
100
AcDbEntity
  8
ADF70-1601
370
              15
390
0
  6
Continuous
 62
               7
100
AcDbPolyline
 90
        8
 70
             129
 10
449.21769099640062
 20
-906.68683946756948
 42
-0.4142135623731061
 10
446.21769099640062
 20
-903.68683946756948
 10
446.21769099640062
 20
-59.686839467565619
 42
-0.414213562373095
 10
449.21769099640062
 20
-56.686839467565619
 10
543.21769099640073
 20
-56.686839467565619
 42
-0.4142135623731006
 10
546.21769099640073
 20
-59.686839467565619
 10
546.21769099640073
 20
-903.68683946756948
 42
-0.414213562373095
 10
543.21769099640073
 20
-906.68683946756948
  0
LINE
  5
24C
100
AcDbEntity
  8
ADF70-1601
370
              15
390
0
  6
Continuous
 62
               7
100
AcDbLine
 10
546.21769099640073
 20
-833.34863964189947
 30
0.0
 11
606.24475723405612
 21
-736.69144172218273
 31
0.0
  0
LINE
  5
24D
100
AcDbEntity
  8
ADF70-1601
370
              15
390
0
  6
Continuous
 62
               7
100
AcDbLine
 10
606.21769099640073
 20
-736.69144172218273
 30
0.0
 11
606.21769099640073
 21
-226.69144172218114
 31
0.0
  0
LINE
  5
24E
100
AcDbEntity
  8
ADF70-1601
370
              15
390
0
  6
Continuous
 62
               7
100
AcDbLine
 10
546.21769099640073
 20
-130.0342438024644
 30
0.0
 11
606.24475723405612
 21
-226.69144172218114
 31
0.0
  0
LINE
  5
24F
100
AcDbEntity
  8
ADF70-1601
370
              15
390
0
  6
STYLE_12
 62
               7
100
AcDbLine
 10
506.21769099640068
 20
-781.69144172218273
 30
0.0
 11
466.21769099640068
 21
-781.69144172218273
 31
0.0
  0
LWPOLYLINE
  5
250
100
AcDbEntity
  8
ADF70-1601
370
               5
390
0
  6
STYLE_12
 62
               7
100
AcDbPolyline
 90
        9
 70
             129
 10
-103.45249466264276
 20
388.85168737510321
 10
-103.45249466264094
 20
1138.8516873751064
 42
0.414213562373108
 10
-153.45249466264187
 20
1188.851687375105
 10
-650.45249466264181
 20
1188.851687375105
 42
0.4142135623729619
 10
-653.45249466264181
 20
1185.8516873751064
 10
-653.45249466264181
 20
341.85168737510151
 42
0.414213562373084
 10
-650.45249466264181
 20
338.85168737510139
 10
-153.45249466264187
 20
338.85168737510332
 42
0.4142135623730997
 10
-103.45249466264276
 20
388.85168737510321
  0
CIRCLE
  5
251
100
AcDbEntity
  8
ADF70-1601
370
               5
390
0
  6
STYLE_12
 62
               7
100
AcDbCircle
 10
-390.72929470133954
 20
763.85168737510332
 30
0.0
 40
23.043551013696515
  0
CIRCLE
  5
252
100
AcDbEntity
  8
ADF70-1601
370
               5
390
0
  6
STYLE_12
 62
               7
100
AcDbCircle
 10
-553.45249466264181
 20
763.85168737510332
 30
0.0
 40
17.499999999999844
  0
CIRCLE
  5
253
100
AcDbEntity
  8
ADF70-1601
370
               5
390
0
  6
STYLE_12
 62
               7
100
AcDbCircle
 10
-553.45249466264181
 20
863.85168737510332
 30
0.0
 40
14.999999999999941
  0
CIRCLE
  5
254
100
AcDbEntity
  8
ADF70-1601
370
               5
390
0
  6
STYLE_12
 62
               7
100
AcDbCircle
 10
-553.45249466264181
 20
663.85168737510219
 30
0.0
 40
15.000000000000279
  0
LINE
  5
255
100
AcDbEntity
  8
ADF70-1601
370
               5
390
0
  6
Continuous
 62
               7
100
AcDbLine
 10
-653.45249466264181
 20
288.80941466001934
 30
0.0
 11
-653.45249466264181
 21
1238.8094146600197
 31
0.0
  0
INSERT
  5
256
100
AcDbEntity
  8
ADF70-1601
390
0
 62
               7
100
AcDbBlockReference
  2
グループ-2
 10
108.181008025
 20
148.284935625
 30
0.0
  0
INSERT
  5
257
100
AcDbEntity
  8
ADF70-1601
390
0
 62
               7
100
AcDbBlockReference
  2
グループ-4
 10
108.181008025
 20
148.284935625
 30
0.0
  0
POLYLINE
  5
258
100
AcDbEntity
  8
ADF70-1601
370
              15
390
0
  6
Continuous
 62
               7
100
AcDb2dPolyline
 66
               1
 10
0.0
 20
0.0
 30
0.0
 70
               1
 75
               5
  0
VERTEX
  5
259
100
AcDbEntity
  8
ADF70-1601
370
              15
390
0
  6
Continuous
 62
               7
100
AcDbVertex
100
AcDb2dVertex
 10
-653.45249466264181
 20
1138.8516873751032
 30
0.0
  0
VERTEX
  5
25A
100
AcDbEntity
  8
ADF70-1601
370
              15
390
0
  6
Continuous
 62
               7
100
AcDbVertex
100
AcDb2dVertex
 10
-173.45249466264187
 20
1138.8516873751032
 30
0.0
  0
VERTEX
  5
25B
100
AcDbEntity
  8
ADF70-1601
370
              15
390
0
  6
Continuous
 62
               7
100
AcDbVertex
100
AcDb2dVertex
 10
-173.45249466264187
 20
388.85168737510321
 30
0.0
  0
VERTEX
  5
25C
100
AcDbEntity
  8
ADF70-1601
370
              15
390
0
  6
Continuous
 62
               7
100
AcDbVertex
100
AcDb2dVertex
 10
-653.45249466264181
 20
388.85168737510321
 30
0.0
  0
SEQEND
  5
25D
100
AcDbEntity
  8
ADF70-1601
370
              15
390
0
  6
Continuous
 62
               7
  0
POLYLINE
  5
25E
100
AcDbEntity
  8
ADF70-1601
370
              15
390
0
  6
Continuous
 62
               7
100
AcDb2dPolyline
 66
               1
 10
0.0
 20
0.0
 30
0.0
 70
               1
 75
               5
  0
VERTEX
  5
25F
100
AcDbEntity
  8
ADF70-1601
370
              15
390
0
  6
Continuous
 62
               7
100
AcDbVertex
100
AcDb2dVertex
 10
-653.45249466264181
 20
938.85168737510332
 30
0.0
  0
VERTEX
  5
260
100
AcDbEntity
  8
ADF70-1601
370
              15
390
0
  6
Continuous
 62
               7
100
AcDbVertex
100
AcDb2dVertex
 10
-353.45249466264187
 20
938.85168737510332
 30
0.0
  0
VERTEX
  5
261
100
AcDbEntity
  8
ADF70-1601
370
              15
390
0
  6
Continuous
 62
               7
100
AcDbVertex
100
AcDb2dVertex
 10
-353.45249466264187
 20
588.85168737510321
 30
0.0
  0
VERTEX
  5
262
100
AcDbEntity
  8
ADF70-1601
370
              15
390
0
  6
Continuous
 62
               7
100
AcDbVertex
100
AcDb2dVertex
 10
-653.45249466264181
 20
588.85168737510321
 30
0.0
  0
SEQEND
  5
263
100
AcDbEntity
  8
ADF70-1601
370
              15
390
0
  6
Continuous
 62
               7
  0
LINE
  5
264
100
AcDbEntity
  8
ADF70-1601
370
              15
390
0
  6
STYLE_12
 62
               7
100
AcDbLine
 10
506.21769099640068
 20
-781.69144172218273
 30
0.0
 11
466.21769099640068
 21
-781.69144172218273
 31
0.0
  0
LINE
  5
265
100
AcDbEntity
  8
ADF70-1601
370
              15
390
0
  6
STYLE_12
 62
               7
100
AcDbLine
 10
486.21769099640068
 20
-761.69144172218273
 30
0.0
 11
486.21769099640068
 21
-801.69144172218273
 31
0.0
  0
CIRCLE
  5
266
100
AcDbEntity
  8
ADF70-1601
370
              15
390
0
  6
STYLE_12
 62
               7
100
AcDbCircle
 10
486.21769099640068
 20
-781.69144172218273
 30
0.0
 40
10.0
  0
LINE
  5
267
100
AcDbEntity
  8
ADF70-1601
370
              15
390
0
  6
STYLE_12
 62
               7
100
AcDbLine
 10
506.21769099640068
 20
-621.69144172218273
 30
0.0
 11
466.21769099640068
 21
-621.69144172218273
 31
0.0
  0
LINE
  5
268
100
AcDbEntity
  8
ADF70-1601
370
              15
390
0
  6
STYLE_12
 62
               7
100
AcDbLine
 10
506.21769099640068
 20
-621.69144172218273
 30
0.0
 11
466.21769099640068
 21
-621.69144172218273
 31
0.0
  0
LINE
  5
269
100
AcDbEntity
  8
ADF70-1601
370
              15
390
0
  6
STYLE_12
 62
               7
100
AcDbLine
 10
486.21769099640068
 20
-601.69144172218273
 30
0.0
 11
486.21769099640068
 21
-641.69144172218273
 31
0.0
  0
CIRCLE
  5
26A
100
AcDbEntity
  8
ADF70-1601
370
              15
390
0
  6
STYLE_12
 62
               7
100
AcDbCircle
 10
486.21769099640068
 20
-621.69144172218273
 30
0.0
 40
10.0
  0
LINE
  5
26B
100
AcDbEntity
  8
ADF70-1601
370
              15
390
0
  6
STYLE_12
 62
               7
100
AcDbLine
 10
506.21769099640068
 20
-341.6914417221829
 30
0.0
 11
466.21769099640068
 21
-341.6914417221829
 31
0.0
  0
LINE
  5
26C
100
AcDbEntity
  8
ADF70-1601
370
              15
390
0
  6
STYLE_12
 62
               7
100
AcDbLine
 10
506.21769099640068
 20
-341.6914417221829
 30
0.0
 11
466.21769099640068
 21
-341.6914417221829
 31
0.0
  0
LINE
  5
26D
100
AcDbEntity
  8
ADF70-1601
370
              15
390
0
  6
STYLE_12
 62
               7
100
AcDbLine
 10
486.21769099640068
 20
-321.6914417221829
 30
0.0
 11
486.21769099640068
 21
-361.6914417221829
 31
0.0
  0
CIRCLE
  5
26E
100
AcDbEntity
  8
ADF70-1601
370
              15
390
0
  6
STYLE_12
 62
               7
100
AcDbCircle
 10
486.21769099640068
 20
-341.6914417221829
 30
0.0
 40
10.0
  0
LINE
  5
26F
100
AcDbEntity
  8
ADF70-1601
370
              15
390
0
  6
STYLE_12
 62
               7
100
AcDbLine
 10
506.21769099640068
 20
-181.6914417221829
 30
0.0
 11
466.21769099640068
 21
-181.6914417221829
 31
0.0
  0
LINE
  5
270
100
AcDbEntity
  8
ADF70-1601
370
              15
390
0
  6
STYLE_12
 62
               7
100
AcDbLine
 10
506.21769099640068
 20
-181.6914417221829
 30
0.0
 11
466.21769099640068
 21
-181.6914417221829
 31
0.0
  0
LINE
  5
271
100
AcDbEntity
  8
ADF70-1601
370
              15
390
0
  6
STYLE_12
 62
               7
100
AcDbLine
 10
486.21769099640068
 20
-161.6914417221829
 30
0.0
 11
486.21769099640068
 21
-201.6914417221829
 31
0.0
  0
CIRCLE
  5
272
100
AcDbEntity
  8
ADF70-1601
370
              15
390
0
  6
STYLE_12
 62
               7
100
AcDbCircle
 10
486.21769099640068
 20
-181.6914417221829
 30
0.0
 40
10.0
  0
LINE
  5
273
100
AcDbEntity
  8
ADF70-1601
370
              15
390
0
  6
Continuous
 62
               7
100
AcDbLine
 10
446.12478363866944
 20
605.45326781135077
 30
0.0
 11
446.18124824178108
 21
939.63189369782015
 31
0.0
  0
LINE
  5
274
100
AcDbEntity
  8
ADF70-1601
370
              15
390
0
  6
STYLE_12
 62
               7
100
AcDbLine
 10
558.17471823894198
 20
-458.94015862936863
 30
0.0
 11
591.21769099640073
 21
-458.94015862936863
 31
0.0
  0
LINE
  5
275
100
AcDbEntity
  8
ADF70-1601
370
              15
390
0
  6
STYLE_12
 62
               7
100
AcDbLine
 10
558.17471823894198
 20
-504.94015862937249
 30
0.0
 11
591.21769099640073
 21
-504.94015862937249
 31
0.0
  0
LINE
  5
276
100
AcDbEntity
  8
ADF70-1601
370
              15
390
0
  6
STYLE_12
 62
               7
100
AcDbLine
 10
591.21769099640073
 20
-504.94015862937249
 30
0.0
 11
591.21769099640073
 21
-458.94015862936863
 31
0.0
  0
ENDSEC
  0
SECTION
  2
OBJECTS
  0
DICTIONARY
  5
19
100
AcDbDictionary
280
               0
281
               1
  3
ACAD_GROUP
350
1A
  3
ACAD_MLINESTYLE
350
1B
  3
ACAD_LAYOUT
350
1E
  3
ACAD_PLOTSETTINGS
350
22
  3
ACAD_PLOTSTYLENAME
350
1F
  0
DICTIONARY
  5
1A
102
{ACAD_REACTORS
330
19
102
}
100
AcDbDictionary
280
               0
281
               1
  0
DICTIONARY
  5
1B
102
{ACAD_REACTORS
330
19
102
}
100
AcDbDictionary
280
               0
281
               1
  3
Standard
350
1C
  0
MLINESTYLE
  5
1C
102
{ACAD_REACTORS
330
1B
102
}
100
AcDbMlineStyle
  2
Standard
 70
               0
  3

 62
               0
 51
90.0
 52
90.0
 71
               2
 49
0.5
 62
             256
  6
ByLayer
 49
-0.5
 62
             256
  6
ByLayer
  0
ACDBDICTIONARYWDFLT
  5
1F
102
{ACAD_REACTORS
330
19
102
}
100
AcDbDictionary
281
               1
  3
Normal
350
1D
100
AcDbDictionaryWithDefault
340
1D
  0
ACDBPLACEHOLDER
  5
1D
102
{ACAD_REACTORS
330
1F
102
}
  0
LAYOUT
  5
20
102
{ACAD_REACTORS
330
1E
102
}
100
AcDbPlotSettings
  1

  2

  4

  6

 40
0.0
 41
0.0
 42
0.0
 43
0.0
 44
0.0
 45
0.0
 46
0.0
 47
0.0
 48
0.0
 49
0.0
140
0.0
141
0.0
142
1.0
143
1.0
 70
            1024
 72
               0
 73
               0
 74
               0
  7

 75
               0
147
1.0
148
0.0
149
0.0
100
AcDbLayout
  1
Model
 70
               0
 71
               0
 10
0.0
 20
0.0
 11
0.0
 21
0.0
 12
0.0
 22
0.0
 32
0.0
 14
0.0
 24
0.0
 34
0.0
 15
0.0
 25
0.0
 35
0.0
146
0.0
 13
0.0
 23
0.0
 33
0.0
 16
0.0
 26
0.0
 36
0.0
 17
0.0
 27
0.0
 37
0.0
 76
               0
330
A
331
0
345
0
346
0
  0
LAYOUT
  5
21
102
{ACAD_REACTORS
330
1E
102
}
100
AcDbPlotSettings
  1

  2

  4

  6

 40
0.0
 41
0.0
 42
0.0
 43
0.0
 44
0.0
 45
0.0
 46
0.0
 47
0.0
 48
0.0
 49
0.0
140
0.0
141
0.0
142
1.0
143
1.0
 70
               0
 72
               0
 73
               0
 74
               0
  7

 75
               0
147
1.0
148
0.0
149
0.0
100
AcDbLayout
  1
Layout1
 70
               0
 71
               0
 10
0.0
 20
0.0
 11
0.0
 21
0.0
 12
0.0
 22
0.0
 32
0.0
 14
0.0
 24
0.0
 34
0.0
 15
0.0
 25
0.0
 35
0.0
146
0.0
 13
0.0
 23
0.0
 33
0.0
 16
0.0
 26
0.0
 36
0.0
 17
0.0
 27
0.0
 37
0.0
 76
               0
330
B
331
0
345
0
346
0
  0
DICTIONARY
  5
1E
102
{ACAD_REACTORS
330
19
102
}
100
AcDbDictionary
280
               0
281
               1
  3
Layout1
350
21
  3
Model
350
20
  0
DICTIONARY
  5
22
102
{ACAD_REACTORS
330
19
102
}
100
AcDbDictionary
280
               0
281
               1
  0
ENDSEC
  0
EOF
