  0
SECTION
  2
HEADER
  9
$ACADVER
  1
AC1015
  9
$ACADMAINTVER
 70
               6
  9
$DWGCODEPAGE
  3
ANSI_932
  9
$INSBASE
 10
0.0
 20
0.0
 30
0.0
  9
$EXTMIN
 10
-975.00000000024124
 20
-1431.5255224711129
 30
-14.834305555555556
  9
$EXTMAX
 10
975.00000000024124
 20
1405.9972926412993
 30
14.834305555555556
  9
$LIMMIN
 10
0.0
 20
0.0
  9
$LIMMAX
 10
0.0
 20
0.0
  9
$ORTHOMODE
 70
               0
  9
$REGENMODE
 70
               1
  9
$FILLMODE
 70
               1
  9
$QTEXTMODE
 70
               0
  9
$MIRRTEXT
 70
               1
  9
$LTSCALE
 40
50.799999999999997
  9
$ATTMODE
 70
               1
  9
$TEXTSIZE
 40
0.2
  9
$TRACEWID
 40
1.0
  9
$TEXTSTYLE
  7
Standard
  9
$CLAYER
  8
ADF70-1604
  9
$CELTYPE
  6
Continuous
  9
$CECOLOR
 62
             256
  9
$CELTSCALE
 40
1.0
  9
$DISPSILH
 70
               0
  9
$DIMSCALE
 40
1.0
  9
$DIMASZ
 40
22.4482421875
  9
$DIMEXO
 40
15.875
  9
$DIMDLI
 40
10.16
  9
$DIMRND
 40
0.0
  9
$DIMDLE
 40
1.5874999999999999
  9
$DIMEXE
 40
31.75
  9
$DIMTP
 40
0.0
  9
$DIMTM
 40
0.0
  9
$DIMTXT
 40
24.432617187500004
  9
$DIMCEN
 40
0.0
  9
$DIMTSZ
 40
0.0
  9
$DIMTOL
 70
               0
  9
$DIMLIM
 70
               0
  9
$DIMTIH
 70
               0
  9
$DIMTOH
 70
               0
  9
$DIMSE1
 70
               0
  9
$DIMSE2
 70
               0
  9
$DIMTAD
 70
               1
  9
$DIMZIN
 70
              11
  9
$DIMBLK
  1
VW_SLASH
  9
$DIMASO
 70
               1
  9
$DIMSHO
 70
               1
  9
$DIMPOST
  1
<>
  9
$DIMAPOST
  1
[]
  9
$DIMALT
 70
               0
  9
$DIMALTD
 70
               1
  9
$DIMALTF
 40
1.0
  9
$DIMLFAC
 40
1.0
  9
$DIMTOFL
 70
               1
  9
$DIMTVP
 40
0.0
  9
$DIMTIX
 70
               1
  9
$DIMSOXD
 70
               0
  9
$DIMSAH
 70
               0
  9
$DIMBLK1
  1

  9
$DIMBLK2
  1

  9
$DIMSTYLE
  2
Arch
  9
$DIMCLRD
 70
               0
  9
$DIMCLRE
 70
               0
  9
$DIMCLRT
 70
               0
  9
$DIMTFAC
 40
1.0
  9
$DIMGAP
 40
1.5874999999999999
  9
$DIMJUST
 70
               0
  9
$DIMSD1
 70
               0
  9
$DIMSD2
 70
               0
  9
$DIMTOLJ
 70
               1
  9
$DIMTZIN
 70
              11
  9
$DIMALTZ
 70
              11
  9
$DIMALTTZ
 70
              11
  9
$DIMUPT
 70
               0
  9
$DIMDEC
 70
               1
  9
$DIMTDEC
 70
               1
  9
$DIMALTU
 70
               2
  9
$DIMALTTD
 70
               2
  9
$DIMTXSTY
  7
ＭＳゴシック
  9
$DIMAUNIT
 70
               0
  9
$DIMADEC
 70
               2
  9
$DIMALTRND
 40
0.0
  9
$DIMAZIN
 70
               0
  9
$DIMDSEP
 70
              46
  9
$DIMATFIT
 70
               0
  9
$DIMFRAC
 70
               2
  9
$DIMLDRBLK
  1

  9
$DIMLUNIT
 70
               2
  9
$DIMLWD
 70
              -2
  9
$DIMLWE
 70
              -2
  9
$DIMTMOVE
 70
               0
  9
$LUNITS
 70
               2
  9
$LUPREC
 70
               4
  9
$SKETCHINC
 40
0.1
  9
$FILLETRAD
 40
0.0
  9
$AUNITS
 70
               0
  9
$AUPREC
 70
               0
  9
$MENU
  1
acad
  9
$ELEVATION
 40
0.0
  9
$PELEVATION
 40
0.0
  9
$THICKNESS
 40
0.0
  9
$LIMCHECK
 70
               0
  9
$CHAMFERA
 40
0.0
  9
$CHAMFERB
 40
0.0
  9
$CHAMFERC
 40
0.0
  9
$CHAMFERD
 40
0.0
  9
$SKPOLY
 70
               0
  9
$TDCREATE
 40
2456037.592453704
  9
$TDUCREATE
 40
0.000000000
  9
$TDUPDATE
 40
2456037.592453704
  9
$TDUUPDATE
 40
0.000000000
  9
$TDINDWG
 40
0.0000000000
  9
$TDUSRTIMER
 40
0.0000000000
  9
$USRTIMER
 70
               1
  9
$ANGBASE
 50
0.0
  9
$ANGDIR
 70
               0
  9
$PDMODE
 70
               1
  9
$PDSIZE
 40
-2.0
  9
$PLINEWID
 40
0.0
  9
$SPLFRAME
 70
               0
  9
$SPLINETYPE
 70
               6
  9
$SPLINESEGS
 70
               8
  9
$HANDSEED
  5
253
  9
$SURFTAB1
 70
               6
  9
$SURFTAB2
 70
               6
  9
$SURFTYPE
 70
               6
  9
$SURFU
 70
               6
  9
$SURFV
 70
               6
  9
$UCSBASE
  2

  9
$UCSNAME
  2

  9
$UCSORG
 10
0.0
 20
0.0
 30
0.0
  9
$UCSXDIR
 10
1.0
 20
0.0
 30
0.0
  9
$UCSYDIR
 10
0.0
 20
1.0
 30
0.0
  9
$UCSORTHOREF
  2

  9
$UCSORTHOVIEW
 70
               0
  9
$UCSORGTOP
 10
0.0
 20
0.0
 30
0.0
  9
$UCSORGBOTTOM
 10
0.0
 20
0.0
 30
0.0
  9
$UCSORGLEFT
 10
0.0
 20
0.0
 30
0.0
  9
$UCSORGRIGHT
 10
0.0
 20
0.0
 30
0.0
  9
$UCSORGFRONT
 10
0.0
 20
0.0
 30
0.0
  9
$UCSORGBACK
 10
0.0
 20
0.0
 30
0.0
  9
$PUCSBASE
  2

  9
$PUCSNAME
  2

  9
$PUCSORG
 10
0.0
 20
0.0
 30
0.0
  9
$PUCSXDIR
 10
1.0
 20
0.0
 30
0.0
  9
$PUCSYDIR
 10
0.0
 20
1.0
 30
0.0
  9
$PUCSORTHOREF
  2

  9
$PUCSORTHOVIEW
 70
               0
  9
$PUCSORGTOP
 10
0.0
 20
0.0
 30
0.0
  9
$PUCSORGBOTTOM
 10
0.0
 20
0.0
 30
0.0
  9
$PUCSORGLEFT
 10
0.0
 20
0.0
 30
0.0
  9
$PUCSORGRIGHT
 10
0.0
 20
0.0
 30
0.0
  9
$PUCSORGFRONT
 10
0.0
 20
0.0
 30
0.0
  9
$PUCSORGBACK
 10
0.0
 20
0.0
 30
0.0
  9
$USERI1
 70
               0
  9
$USERI2
 70
               0
  9
$USERI3
 70
               0
  9
$USERI4
 70
               0
  9
$USERI5
 70
               0
  9
$USERR1
 40
0.0
  9
$USERR2
 40
0.0
  9
$USERR3
 40
0.0
  9
$USERR4
 40
0.0
  9
$USERR5
 40
0.0
  9
$WORLDVIEW
 70
               1
  9
$SHADEDGE
 70
               3
  9
$SHADEDIF
 70
              70
  9
$TILEMODE
 70
               1
  9
$MAXACTVP
 70
              64
  9
$PINSBASE
 10
0.0
 20
0.0
 30
0.0
  9
$PLIMCHECK
 70
               0
  9
$PEXTMIN
 10
1.0000000000000000E+20
 20
1.0000000000000000E+20
 30
1.0000000000000000E+20
  9
$PEXTMAX
 10
-1.0000000000000000E+20
 20
-1.0000000000000000E+20
 30
-1.0000000000000000E+20
  9
$PLIMMIN
 10
0.0
 20
0.0
  9
$PLIMMAX
 10
12.0
 20
9.0
  9
$UNITMODE
 70
               0
  9
$VISRETAIN
 70
               0
  9
$PLINEGEN
 70
               1
  9
$PSLTSCALE
 70
               0
  9
$TREEDEPTH
 70
            3020
  9
$CMLSTYLE
  2
Standard
  9
$CMLJUST
 70
               0
  9
$CMLSCALE
 40
1.0
  9
$PROXYGRAPHICS
 70
               0
  9
$MEASUREMENT
 70
               1
  9
$CELWEIGHT
370
               0
  9
$ENDCAPS
280
               0
  9
$JOINSTYLE
280
               0
  9
$LWDISPLAY
290
               1
  9
$INSUNITS
 70
               4
  9
$HYPERLINKBASE
  1

  9
$STYLESHEET
  1

  9
$XEDIT
290
               1
  9
$CEPSNTYPE
380
               0
  9
$PSTYLEMODE
290
               1
  9
$FINGERPRINTGUID
  2

  9
$VERSIONGUID
  2

  9
$EXTNAMES
290
               1
  9
$PSVPSCALE
 40
0.0
  0
ENDSEC
  0
SECTION
  2
CLASSES
  0
CLASS
  1
LWPOLYLINE
  2
AcDbPolyline
  3
AutoCAD 2000
 90
        0
280
               0
281
               1
  0
CLASS
  1
IMAGE
  2
AcDbRasterImage
  3
ISM
 90
      127
280
               0
281
               1
  0
CLASS
  1
OLE2FRAME
  2
AcDbOle2Frame
  3
AutoCAD 2000
 90
        0
280
               0
281
               1
  0
CLASS
  1
HATCH
  2
AcDbHatch
  3
AutoCAD 2000
 90
        0
280
               0
281
               1
  0
CLASS
  1
DICTIONARYVAR
  2
AcDbDictionaryVar
  3
AutoCAD 2000
 90
        0
280
               0
281
               0
  0
CLASS
  1
RASTERVARIABLES
  2
AcDbRasterVariables
  3
ISM
 90
        0
280
               0
281
               0
  0
CLASS
  1
IMAGEDEF
  2
AcDbRasterImageDef
  3
ISM
 90
        0
280
               0
281
               0
  0
CLASS
  1
IMAGEDEF_REACTOR
  2
AcDbRasterImageDefReactor
  3
ISM
 90
        1
280
               0
281
               0
  0
CLASS
  1
IDBUFFER
  2
AcDbIdBuffer
  3
AutoCAD 2000
 90
        0
280
               0
281
               0
  0
CLASS
  1
SPATIAL_FILTER
  2
AcDbSpatialFilter
  3
AutoCAD 2000
 90
        0
280
               0
281
               0
  0
CLASS
  1
XRECORD
  2
AcDbXrecord
  3
AutoCAD 2000
 90
        0
280
               0
281
               0
  0
CLASS
  1
SORTENTSTABLE
  2
AcDbSortentsTable
  3
AutoCAD 2000
 90
        0
280
               0
281
               0
  0
CLASS
  1
LAYER_INDEX
  2
AcDbLayerIndex
  3
AutoCAD 2000
 90
        0
280
               0
281
               0
  0
CLASS
  1
SPATIAL_INDEX
  2
AcDbSpatialIndex
  3
AutoCAD 2000
 90
        0
280
               0
281
               0
  0
CLASS
  1
OBJECT_PTR
  2
CAseDLPNTableRecord
  3
"ASE-LPNTableRecord"
 90
        1
280
               0
281
               0
  0
CLASS
  1
LAYOUT
  2
AcDbLayout
  3
AutoCAD 2000
 90
        0
280
               0
281
               0
  0
CLASS
  1
PLOTSETTINGS
  2
AcDbPlotSettings
  3
AutoCAD 2000
 90
        0
280
               0
281
               0
  0
CLASS
  1
ACDBDICTIONARYWDFLT
  2
AcDbDictionaryWithDefault
  3
AutoCAD 2000
 90
        0
280
               0
281
               0
  0
CLASS
  1
ACDBPLACEHOLDER
  2
AcDbPlaceHolder
  3
AutoCAD 2000
 90
        0
280
               0
281
               0
  0
ENDSEC
  0
SECTION
  2
TABLES
  0
TABLE
  2
VPORT
  5
7
100
AcDbSymbolTable
 70
               1
  0
VPORT
  5
15
100
AcDbSymbolTableRecord
100
AcDbViewportTableRecord
  2
*ACTIVE
 70
               0
 10
0.0
 20
0.0
 11
1.0
 21
1.0
 12
0.0
 22
-12.764114914906941
 13
0.0
 23
0.0
 14
1.0
 24
1.0
 15
0.0
 25
0.0
 16
0.0
 26
0.0
 36
1.0
 17
0.0
 27
0.0
 37
0.0
 40
2837.522815112412
 41
0.688564
 42
50.0
 43
0.0
 44
0.0
 50
0.0
 51
0.0
 71
               0
 72
            2000
 73
               1
 74
               1
 75
               0
 76
               0
 77
               0
 78
               0
281
               0
 65
               0
110
0.0
120
0.0
130
0.0
111
1.0
121
0.0
131
0.0
112
0.0
122
1.0
132
0.0
345
0
346
0
 79
               0
146
0.0
  0
ENDTAB
  0
TABLE
  2
LTYPE
  5
4
100
AcDbSymbolTable
 70
              15
  0
LTYPE
  5
11
100
AcDbSymbolTableRecord
100
AcDbLinetypeTableRecord
  2
ByBlock
 70
              64
  3

 72
              65
 73
               0
 40
0.0
  0
LTYPE
  5
12
100
AcDbSymbolTableRecord
100
AcDbLinetypeTableRecord
  2
ByLayer
 70
              64
  3

 72
              65
 73
               0
 40
0.0
  0
LTYPE
  5
13
100
AcDbSymbolTableRecord
100
AcDbLinetypeTableRecord
  2
Continuous
 70
              64
  3
Solid line
 72
              65
 73
               0
 40
0.0
  0
LTYPE
  5
3F
100
AcDbSymbolTableRecord
100
AcDbLinetypeTableRecord
  2
STYLE_01
 70
               0
  3

 72
              65
 73
               2
 40
0.1874999999999999
 49
0.125
 74
               0
 49
-0.0625
 74
               0
  0
LTYPE
  5
40
100
AcDbSymbolTableRecord
100
AcDbLinetypeTableRecord
  2
STYLE_02
 70
               0
  3

 72
              65
 73
               2
 40
0.6944250000000001
 49
0.48607
 74
               0
 49
-0.2083550000000001
 74
               0
  0
LTYPE
  5
41
100
AcDbSymbolTableRecord
100
AcDbLinetypeTableRecord
  2
STYLE_03
 70
               0
  3

 72
              65
 73
               2
 40
1.25
 49
1.0416400000000001
 74
               0
 49
-0.2083599999999999
 74
               0
  0
LTYPE
  5
42
100
AcDbSymbolTableRecord
100
AcDbLinetypeTableRecord
  2
STYLE_04
 70
               0
  3

 72
              65
 73
               2
 40
1.5277099999999999
 49
1.3194249999999998
 74
               0
 49
-0.208285
 74
               0
  0
LTYPE
  5
43
100
AcDbSymbolTableRecord
100
AcDbLinetypeTableRecord
  2
STYLE_05
 70
               0
  3

 72
              65
 73
               2
 40
0.20828
 49
0.069425
 74
               0
 49
-0.138855
 74
               0
  0
LTYPE
  5
44
100
AcDbSymbolTableRecord
100
AcDbLinetypeTableRecord
  2
STYLE_06
 70
               0
  3

 72
              65
 73
               4
 40
1.0416400000000001
 49
0.625
 74
               0
 49
-0.20828
 74
               0
 49
0.06943
 74
               0
 49
-0.13893
 74
               0
  0
LTYPE
  5
45
100
AcDbSymbolTableRecord
100
AcDbLinetypeTableRecord
  2
STYLE_07
 70
               0
  3

 72
              65
 73
               6
 40
1.875
 49
0.625
 74
               0
 49
-0.20828
 74
               0
 49
0.6250000000000001
 74
               0
 49
-0.2083599999999999
 74
               0
 49
0.06943
 74
               0
 49
-0.1389299999999999
 74
               0
  0
LTYPE
  5
46
100
AcDbSymbolTableRecord
100
AcDbLinetypeTableRecord
  2
STYLE_08
 70
               0
  3

 72
              65
 73
               6
 40
1.25
 49
0.625
 74
               0
 49
-0.20828
 74
               0
 49
0.06943
 74
               0
 49
-0.13893
 74
               0
 49
0.0694299999999999
 74
               0
 49
-0.13893
 74
               0
  0
LTYPE
  5
47
100
AcDbSymbolTableRecord
100
AcDbLinetypeTableRecord
  2
STYLE_09
 70
               0
  3

 72
              65
 73
               4
 40
5.0
 49
3.75
 74
               0
 49
-0.2777849999999998
 74
               0
 49
0.6944300000000003
 74
               0
 49
-0.2777849999999998
 74
               0
  0
LTYPE
  5
48
100
AcDbSymbolTableRecord
100
AcDbLinetypeTableRecord
  2
STYLE_10
 70
               0
  3

 72
              65
 73
               6
 40
5.9375
 49
3.75
 74
               0
 49
-0.2777849999999998
 74
               0
 49
0.6944300000000003
 74
               0
 49
-0.2777849999999998
 74
               0
 49
0.625
 74
               0
 49
-0.3125
 74
               0
  0
LTYPE
  5
49
100
AcDbSymbolTableRecord
100
AcDbLinetypeTableRecord
  2
STYLE_11
 70
               0
  3

 72
              65
 73
               2
 40
0.0694444881889764
 49
0.0347222440944882
 74
               0
 49
-0.0347222440944882
 74
               0
  0
LTYPE
  5
4A
100
AcDbSymbolTableRecord
100
AcDbLinetypeTableRecord
  2
STYLE_12
 70
               0
  3

 72
              65
 73
               2
 40
0.3937007874015748
 49
0.1968503937007874
 74
               0
 49
-0.1968503937007874
 74
               0
  0
ENDTAB
  0
TABLE
  2
LAYER
  5
2
100
AcDbSymbolTable
 70
               5
  0
LAYER
  5
14
100
AcDbSymbolTableRecord
100
AcDbLayerTableRecord
  2
0
 70
               0
 62
               7
  6
Continuous
290
               1
370
              -3
390
1D
  0
LAYER
  5
4B
100
AcDbSymbolTableRecord
100
AcDbLayerTableRecord
  2
Defpoints
 70
               0
 62
               7
  6
Continuous
290
               0
370
              -3
390
1D
  0
LAYER
  5
4C
100
AcDbSymbolTableRecord
100
AcDbLayerTableRecord
  2
template
 70
               0
 62
               7
  6
Continuous
290
               1
370
              -3
390
1D
  0
LAYER
  5
4D
100
AcDbSymbolTableRecord
100
AcDbLayerTableRecord
  2
notes
 70
               0
 62
               7
  6
Continuous
290
               1
370
              -3
390
1D
  0
LAYER
  5
4E
100
AcDbSymbolTableRecord
100
AcDbLayerTableRecord
  2
ADF70-1604
 70
               0
 62
               7
  6
Continuous
290
               1
370
              -3
390
1D
  0
ENDTAB
  0
TABLE
  2
STYLE
  5
3
100
AcDbSymbolTable
 70
               3
  0
STYLE
  5
17
100
AcDbSymbolTableRecord
100
AcDbTextStyleTableRecord
  2
Standard
 70
               0
 40
0.0
 41
1.0
 50
0.0
 71
               0
 42
0.0
  3
txt
  4
BIGFONT.SHX
  0
STYLE
  5
3D
100
AcDbSymbolTableRecord
100
AcDbTextStyleTableRecord
  2
ＭＳ ゴシック
 70
               0
 40
0.0
 41
1.0
 50
0.0
 71
               0
 42
0.0
  3

  4
ＭＳ ゴシック
1001
ACAD
1000
ＭＳ ゴシック
1071
        0
  0
STYLE
  5
3E
100
AcDbSymbolTableRecord
100
AcDbTextStyleTableRecord
  2
ＭＳゴシック
 70
               0
 40
0.0
 41
1.0
 50
0.0
 71
               0
 42
0.0
  3

  4
ＭＳゴシック
1001
ACAD
1000
ＭＳゴシック
1071
        0
  0
ENDTAB
  0
TABLE
  2
VIEW
  5
5
100
AcDbSymbolTable
 70
               0
  0
ENDTAB
  0
TABLE
  2
UCS
  5
6
100
AcDbSymbolTable
 70
               0
  0
ENDTAB
  0
TABLE
  2
APPID
  5
8
100
AcDbSymbolTable
 70
               1
  0
APPID
  5
16
100
AcDbSymbolTableRecord
100
AcDbRegAppTableRecord
  2
ACAD
 70
               0
  0
ENDTAB
  0
TABLE
  2
DIMSTYLE
  5
9
100
AcDbSymbolTable
 70
               3
100
AcDbDimStyleTable
 71
               0
  0
DIMSTYLE
105
18
100
AcDbSymbolTableRecord
100
AcDbDimStyleTableRecord
  2
Standard
 70
               0
  3

  4

 40
1.0
 41
0.18
 42
0.0625
 43
0.38
 44
0.18
 45
0.0
 46
0.0
 47
0.0
 48
0.0
 71
               0
 72
               0
 73
               1
 74
               1
 75
               0
 76
               0
 77
               0
 78
               0
 79
               0
140
0.18
141
0.09
142
0.0
143
25.399999999999999
144
1.0
145
0.0
146
1.0
147
0.09
148
0.0
170
               0
171
               2
172
               0
173
               0
174
               0
175
               0
176
               0
177
               0
178
               0
179
               0
271
               4
272
               4
273
               2
274
               2
275
               0
276
               0
277
               2
278
              46
279
               0
280
               0
281
               0
282
               0
283
               1
284
               0
285
               0
286
               0
288
               0
289
               3
340
17
341
0
342
0
343
0
344
0
371
              -2
372
              -2
  0
DIMSTYLE
105
57
100
AcDbSymbolTableRecord
100
AcDbDimStyleTableRecord
  2
Tform線あり
 70
               0
  3
<>
  4
[]
 40
1.0
 41
9.9993896484374982
 42
24.999999999999996
 43
0.9999999999999999
 44
0.0
 45
0.0
 46
0.0
 47
0.0
 48
0.0
 71
               0
 72
               0
 73
               0
 74
               0
 75
               0
 76
               0
 77
               1
 78
              11
 79
               0
140
24.432617187500004
141
0.0
142
0.0
143
1.0
144
1.0
145
0.0
146
0.8
147
0.4999999999999999
148
0.0
170
               0
171
               1
172
               1
173
               0
174
               1
175
               0
176
               0
177
               0
178
               0
179
               2
271
               1
272
               1
273
               2
274
               2
275
               0
276
               2
277
               2
278
              46
279
               0
280
               0
281
               0
282
               0
283
               1
284
              11
285
              11
286
              11
288
               0
289
               0
340
3E
341
4F
342
4F
343
0
344
0
371
              -2
372
              -2
  0
DIMSTYLE
105
61
100
AcDbSymbolTableRecord
100
AcDbDimStyleTableRecord
  2
Arch
 70
               0
  3
<>
  4
[]
 40
1.0
 41
22.4482421875
 42
15.875
 43
10.16
 44
31.75
 45
0.0
 46
1.5874999999999999
 47
0.0
 48
0.0
 71
               0
 72
               0
 73
               0
 74
               0
 75
               0
 76
               0
 77
               1
 78
              11
 79
               0
140
24.432617187500004
141
0.0
142
0.0
143
1.0
144
1.0
145
0.0
146
1.0
147
1.5874999999999999
148
0.0
170
               0
171
               1
172
               1
173
               0
174
               1
175
               0
176
               0
177
               0
178
               0
179
               2
271
               1
272
               1
273
               2
274
               2
275
               0
276
               2
277
               2
278
              46
279
               0
280
               0
281
               0
282
               0
283
               1
284
              11
285
              11
286
              11
288
               0
289
               0
340
3E
341
5D
342
58
343
0
344
0
371
              -2
372
              -2
  0
ENDTAB
  0
TABLE
  2
BLOCK_RECORD
  5
1
100
AcDbSymbolTable
 70
              29
  0
BLOCK_RECORD
  5
A
100
AcDbSymbolTableRecord
100
AcDbBlockTableRecord
  2
*MODEL_SPACE
340
20
  0
BLOCK_RECORD
  5
B
100
AcDbSymbolTableRecord
100
AcDbBlockTableRecord
  2
*PAPER_SPACE
340
21
  0
BLOCK_RECORD
  5
4F
100
AcDbSymbolTableRecord
100
AcDbBlockTableRecord
  2
_DOT
340
0
  0
BLOCK_RECORD
  5
58
100
AcDbSymbolTableRecord
100
AcDbBlockTableRecord
  2
VW_SLASH
340
0
  0
BLOCK_RECORD
  5
5D
100
AcDbSymbolTableRecord
100
AcDbBlockTableRecord
  2
VW_FILLEDARROW
340
0
  0
BLOCK_RECORD
  5
23
100
AcDbSymbolTableRecord
100
AcDbBlockTableRecord
  2
グループ
340
0
102
{BLKREFS
331
1B3
102
}
  0
BLOCK_RECORD
  5
24
100
AcDbSymbolTableRecord
100
AcDbBlockTableRecord
  2
*D4
340
0
  0
BLOCK_RECORD
  5
25
100
AcDbSymbolTableRecord
100
AcDbBlockTableRecord
  2
*D5
340
0
  0
BLOCK_RECORD
  5
26
100
AcDbSymbolTableRecord
100
AcDbBlockTableRecord
  2
*D6
340
0
  0
BLOCK_RECORD
  5
27
100
AcDbSymbolTableRecord
100
AcDbBlockTableRecord
  2
*D7
340
0
  0
BLOCK_RECORD
  5
28
100
AcDbSymbolTableRecord
100
AcDbBlockTableRecord
  2
*D8
340
0
  0
BLOCK_RECORD
  5
29
100
AcDbSymbolTableRecord
100
AcDbBlockTableRecord
  2
*D9
340
0
  0
BLOCK_RECORD
  5
2A
100
AcDbSymbolTableRecord
100
AcDbBlockTableRecord
  2
*D10
340
0
  0
BLOCK_RECORD
  5
2B
100
AcDbSymbolTableRecord
100
AcDbBlockTableRecord
  2
*D11
340
0
  0
BLOCK_RECORD
  5
2C
100
AcDbSymbolTableRecord
100
AcDbBlockTableRecord
  2
*D12
340
0
  0
BLOCK_RECORD
  5
2D
100
AcDbSymbolTableRecord
100
AcDbBlockTableRecord
  2
*D13
340
0
  0
BLOCK_RECORD
  5
2E
100
AcDbSymbolTableRecord
100
AcDbBlockTableRecord
  2
*D14
340
0
  0
BLOCK_RECORD
  5
2F
100
AcDbSymbolTableRecord
100
AcDbBlockTableRecord
  2
*D15
340
0
  0
BLOCK_RECORD
  5
30
100
AcDbSymbolTableRecord
100
AcDbBlockTableRecord
  2
*D16
340
0
  0
BLOCK_RECORD
  5
31
100
AcDbSymbolTableRecord
100
AcDbBlockTableRecord
  2
*D17
340
0
  0
BLOCK_RECORD
  5
32
100
AcDbSymbolTableRecord
100
AcDbBlockTableRecord
  2
*D18
340
0
  0
BLOCK_RECORD
  5
33
100
AcDbSymbolTableRecord
100
AcDbBlockTableRecord
  2
*D19
340
0
  0
BLOCK_RECORD
  5
34
100
AcDbSymbolTableRecord
100
AcDbBlockTableRecord
  2
*D20
340
0
  0
BLOCK_RECORD
  5
35
100
AcDbSymbolTableRecord
100
AcDbBlockTableRecord
  2
*D21
340
0
  0
BLOCK_RECORD
  5
36
100
AcDbSymbolTableRecord
100
AcDbBlockTableRecord
  2
*D22
340
0
  0
BLOCK_RECORD
  5
37
100
AcDbSymbolTableRecord
100
AcDbBlockTableRecord
  2
*D23
340
0
  0
BLOCK_RECORD
  5
38
100
AcDbSymbolTableRecord
100
AcDbBlockTableRecord
  2
*D24
340
0
  0
BLOCK_RECORD
  5
39
100
AcDbSymbolTableRecord
100
AcDbBlockTableRecord
  2
*D25
340
0
  0
BLOCK_RECORD
  5
3A
100
AcDbSymbolTableRecord
100
AcDbBlockTableRecord
  2
*D26
340
0
  0
BLOCK_RECORD
  5
3B
100
AcDbSymbolTableRecord
100
AcDbBlockTableRecord
  2
グループ-1
340
0
102
{BLKREFS
331
22A
102
}
  0
BLOCK_RECORD
  5
3C
100
AcDbSymbolTableRecord
100
AcDbBlockTableRecord
  2
*D28
340
0
  0
ENDTAB
  0
ENDSEC
  0
SECTION
  2
BLOCKS
  0
BLOCK
  5
D
100
AcDbEntity
  8
0
390
0
100
AcDbBlockBegin
  2
*MODEL_SPACE
 70
               0
 10
0.0
 20
0.0
 30
0.0
  3
*MODEL_SPACE
  1

  0
ENDBLK
  5
E
100
AcDbEntity
  8
0
390
0
100
AcDbBlockEnd
  0
BLOCK
  5
F
100
AcDbEntity
 67
               1
  8
0
390
0
100
AcDbBlockBegin
  2
*PAPER_SPACE
 70
               0
 10
0.0
 20
0.0
 30
0.0
  3
*PAPER_SPACE
  1

  0
ENDBLK
  5
10
100
AcDbEntity
 67
               1
  8
0
390
0
100
AcDbBlockEnd
  0
BLOCK
  5
50
100
AcDbEntity
  8
0
390
0
100
AcDbBlockBegin
  2
_DOT
 70
               0
 10
0.0
 20
0.0
 30
0.0
  3
_DOT
  1

  0
POLYLINE
  5
51
100
AcDbEntity
  8
0
370
              -2
390
0
  6
ByBlock
 62
               0
100
AcDb2dPolyline
 66
               1
 10
0.0
 20
0.0
 30
0.0
 70
               1
 40
0.5
 41
0.5
  0
VERTEX
  5
52
100
AcDbEntity
  8
0
370
              -2
390
0
  6
ByBlock
 62
               0
100
AcDbVertex
100
AcDb2dVertex
 10
-0.25
 20
0.0
 30
0.0
 42
1.0
  0
VERTEX
  5
53
100
AcDbEntity
  8
0
370
              -2
390
0
  6
ByBlock
 62
               0
100
AcDbVertex
100
AcDb2dVertex
 10
0.25
 20
0.0
 30
0.0
 42
1.0
  0
SEQEND
  5
54
100
AcDbEntity
  8
0
390
0
  0
LINE
  5
55
100
AcDbEntity
  8
0
370
              -2
390
0
  6
ByBlock
 62
               0
100
AcDbLine
 10
-0.5
 20
0.0
 30
0.0
 11
-1.0
 21
0.0
 31
0.0
  0
ENDBLK
  5
56
100
AcDbEntity
  8
0
390
0
100
AcDbBlockEnd
  0
BLOCK
  5
59
100
AcDbEntity
  8
0
370
              -2
390
0
  6
ByBlock
 62
               0
100
AcDbBlockBegin
  2
VW_SLASH
 70
               0
 10
0.0
 20
0.0
 30
0.0
  3
VW_SLASH
  1

  0
LINE
  5
5A
100
AcDbEntity
  8
0
370
              -2
390
0
  6
ByBlock
 62
               0
100
AcDbLine
 10
0.0
 20
0.0
 30
0.0
 11
-1.0
 21
0.0
 31
0.0
  0
LINE
  5
5B
100
AcDbEntity
  8
0
370
              20
390
0
  6
ByBlock
 62
               0
100
AcDbLine
 10
-0.4987813153181721
 20
-0.4987813153181719
 30
0.0
 11
0.4987813153181721
 21
0.4987813153181719
 31
0.0
  0
ENDBLK
  5
5C
100
AcDbEntity
  8
0
390
0
100
AcDbBlockEnd
  0
BLOCK
  5
5E
100
AcDbEntity
  8
0
370
              -2
390
0
  6
ByBlock
 62
               0
100
AcDbBlockBegin
  2
VW_FILLEDARROW
 70
               0
 10
0.0
 20
0.0
 30
0.0
  3
VW_FILLEDARROW
  1

  0
SOLID
  5
5F
100
AcDbEntity
  8
0
370
              -2
390
0
 62
               0
100
AcDbTrace
 10
0.0
 20
0.0
 30
0.0
 11
-1.4107666015625
 21
-0.3780137715974714
 31
0.0
 12
-1.4107666015625
 22
0.3780137715974717
 32
0.0
 13
-1.4107666015625
 23
0.3780137715974717
 33
0.0
  0
ENDBLK
  5
60
100
AcDbEntity
  8
0
390
0
100
AcDbBlockEnd
  0
BLOCK
  5
62
100
AcDbEntity
  8
template
390
0
100
AcDbBlockBegin
  2
グループ
 70
               0
 10
0.0
 20
0.0
 30
0.0
  3
グループ
  1

  0
LWPOLYLINE
  5
63
100
AcDbEntity
  8
0
370
              15
390
0
  6
Continuous
 62
               7
100
AcDbPolyline
 90
        8
 70
             129
 10
585.30117661395298
 20
-472.53788922180138
 10
585.30117661395298
 20
-478.53527791537726
 10
575.79997969594967
 20
-478.53527791537726
 10
575.79997969594967
 20
-502.98624117888608
 10
567.44460243416688
 20
-502.98624117888608
 10
567.44460243416688
 20
-478.53527791537726
 10
558.11164548785746
 20
-478.53527791537726
 10
558.11164548785746
 20
-472.53788922180138
  0
LWPOLYLINE
  5
64
100
AcDbEntity
  8
0
370
              15
390
0
  6
Continuous
 62
               7
100
AcDbPolyline
 90
      101
 70
             128
 10
598.02946844450992
 20
-473.26613771473785
 10
598.0448184732943
 20
-473.26177695805296
 42
-0.0222221607815506
 10
598.33482304996596
 20
-473.19315249280817
 10
598.35061681395655
 20
-473.19014906971177
 42
-0.014688356558831
 10
598.61331951918373
 20
-473.14814588276181
 42
-0.0127458844187052
 10
598.87795848634016
 20
-473.12060891468906
 10
598.94041356464959
 20
-473.11571549210112
 42
-0.0198099018565122
 10
599.33126267412194
 20
-473.10063033470448
 10
599.38307414357018
 20
-473.10068411036957
 42
-0.0147617382762527
 10
599.87769760454569
 20
-473.11580413561455
 10
599.95038905942113
 20
-473.12017674250222
 42
-0.0162624549002836
 10
600.34054268888394
 20
-473.15640961777444
 10
600.46207508014197
 20
-473.17169617677081
 42
-0.0080020874667429
 10
600.60765411123475
 20
-473.19237902403938
 10
600.64597358182311
 20
-473.19845030184939
 42
-0.0053821929673585
 10
600.71445768714455
 20
-473.21005782567204
 10
599.98805198794594
 20
-475.39098628138595
 42
0.0108667757405587
 10
599.92073491781127
 20
-475.3777991661654
 10
599.88326689462565
 20
-475.37130142357159
 42
0.017066320330684
 10
599.74005010771009
 20
-475.35147182627981
 10
599.67217477502709
 20
-475.34442465569236
 42
0.0220162375274974
 10
599.39179536717222
 20
-475.32774229492225
 10
599.31393980012035
 20
-475.32654292765574
 42
0.0282606915784666
 10
598.97830347654178
 20
-475.34034620462478
 10
598.93439020276776
 20
-475.34464619462864
 42
0.0169677213687922
 10
598.68846570781056
 20
-475.3771832441804
 42
0.0190576269866344
 10
598.44555774522962
 20
-475.42733011628701
 10
598.43929855711963
 20
-475.42887309039611
 42
0.0213685642844955
 10
598.18891407264016
 20
-475.50207337550142
 10
598.18342417772567
 20
-475.50393637155992
 42
0.0237595297596608
 10
597.92992929282639
 20
-475.6036208934558
 10
597.9248272187973
 20
-475.60591266893368
 42
0.02618574688127
 10
597.67265644257009
 20
-475.73544900630662
 10
597.66223025348052
 20
-475.74151448077652
 42
0.0272553062021833
 10
597.42580047824185
 20
-475.8968866867209
 10
597.39103746473188
 20
-475.92254783481349
 42
0.0325996893174579
 10
597.24088212108086
 20
-476.04929570778449
 10
597.21717269195199
 20
-476.07211373630292
 42
0.0138050960644079
 10
597.1252895357477
 20
-476.16556339784904
 42
0.0125280103800293
 10
597.03844700291836
 20
-476.2637267244441
 10
597.01476655800582
 20
-476.29188522263644
 42
0.0205218024736333
 10
596.88966648249266
 20
-476.45367853686474
 10
596.867200142005
 20
-476.48533826669245
 42
0.0163110129584111
 10
596.71148976275276
 20
-476.72066870176394
 10
596.70876586670272
 20
-476.72509246374784
 42
0.0131897341896872
 10
596.56196534579806
 20
-476.97822455610998
 10
596.56026525043035
 20
-476.981342795248
 42
0.0107895576063288
 10
596.42248854822026
 20
-477.24755800488191
 10
596.42175565869456
 20
-477.24905223752967
 42
0.0091371507217127
 10
596.29327571004535
 20
-477.5235774352883
 10
596.26353007863577
 20
-477.59028394244808
 42
0.0135418326350832
 10
596.09181613956343
 20
-478.00522172771855
 10
596.05821133112863
 20
-478.09308787000145
 42
0.0092834542413256
 10
595.88698227120904
 20
-478.56698636830345
 10
595.86136514349062
 20
-478.64222743809921
 42
0.0054261043583628
 10
595.75372699519835
 20
-478.96999141116191
 10
595.73620100899473
 20
-479.02537957347505
 42
0.0008225090821908
 10
595.66753095719093
 20
-479.24364833154118
 10
594.68284182525747
 20
-482.26853962479777
 10
597.91546566533134
 20
-482.26853962479777
 10
597.41127323547789
 20
-484.17301792315016
 10
594.15521695349457
 20
-484.17301792315016
 10
588.32606792114075
 20
-502.98624098915502
 10
586.50097031083044
 20
-502.98624098915502
 10
592.33564834633137
 20
-484.17301792315016
 10
589.93053197729103
 20
-484.17301792315016
 10
590.43472440714447
 20
-482.26853962479777
 10
592.86327321809449
 20
-482.26853962479777
 10
593.72342813628313
 20
-479.63212662409887
 42
-0.0005863560648605
 10
593.76016281445175
 20
-479.51530020391789
 10
593.83625064814703
 20
-479.27430790442168
 42
-0.0087522378929072
 10
594.03571879160108
 20
-478.67903181728326
 10
594.1279830670203
 20
-478.41889164875391
 42
-0.0077400953829863
 10
594.38591672614848
 20
-477.72588697121398
 10
594.40168169772778
 20
-477.68545608782682
 42
-0.0082369946330467
 10
594.64876616833931
 20
-477.08137702163219
 42
-0.0085725238364756
 10
594.91601226434227
 20
-476.485950982345
 10
595.01764186534933
 20
-476.26952988036061
 42
-0.0168109410596272
 10
595.30458629407963
 20
-475.70832235425564
 10
595.43042968452687
 20
-475.4813583212794
 42
-0.0007817726871696
 10
595.4847140345953
 20
-475.38381407622717
 10
595.4848423406047
 20
-475.3835843675048
 42
-0.0036626142161728
 10
595.53973020463377
 20
-475.2869864875222
 42
-0.0080221150683797
 10
595.59685446003868
 20
-475.19170725277235
 10
595.62755441140166
 20
-475.14231630364714
 42
-0.0202139325568999
 10
595.75521015120898
 20
-474.9543347029649
 10
595.809277616396
 20
-474.88125583872488
 42
-0.024932379179939
 10
596.06844041011493
 20
-474.56521059657075
 10
596.09258022424217
 20
-474.538596323658
 42
-0.0242132121537514
 10
596.43226096578314
 20
-474.19871283745493
 10
596.4801725385347
 20
-474.15520370126808
 42
-0.0251017527859602
 10
596.76415423917547
 20
-473.92221095550315
 10
596.76559971599102
 20
-473.92114169792285
 42
-0.0130868069036114
 10
597.06386036594654
 20
-473.71236122938171
 10
597.06542218508901
 20
-473.71132778910686
 42
-0.0290329526388585
 10
597.37653332648256
 20
-473.53050228747736
 10
597.40637888846845
 20
-473.51539990463783
 42
-0.0160250190047983
 10
597.67228330223338
 20
-473.39138379442454
 42
-0.0267600374783926
 10
597.94755937970206
 20
-473.29063547387597
 10
597.97429529922294
 20
-473.2824429150503
 42
-0.0049981587670039
 10
598.02946844450992
 20
-473.26613771473785
 42
-0.0049981587670039
  0
LWPOLYLINE
  5
65
100
AcDbEntity
  8
0
370
              15
390
0
  6
Continuous
 62
               7
100
AcDbPolyline
 90
      118
 70
             128
 10
617.84383600895683
 20
-482.34252295262513
 10
619.71895793345629
 20
-482.34252295262513
 10
618.88091902785641
 20
-485.02408947902518
 42
-0.0010587229260184
 10
618.91237484342037
 20
-484.98718494567919
 10
618.97056893406034
 20
-484.91920268949411
 42
-0.0071874740406383
 10
619.12094415215722
 20
-484.74856199746631
 10
619.2626669254206
 20
-484.59232585615189
 42
-0.014811805351263
 10
619.71279621813358
 20
-484.12471201013864
 10
619.80001855302942
 20
-484.03931468929085
 42
-0.0086273358694375
 10
620.13556735404359
 20
-483.72193905526888
 10
620.17940107026959
 20
-483.6818894109357
 42
-0.0103138323113377
 10
620.43742477250294
 20
-483.45572627359752
 10
620.48319917883293
 20
-483.4172442263349
 42
-0.0060206748566199
 10
620.65604724294224
 20
-483.27544957558291
 10
620.65807837382215
 20
-483.27382386995646
 42
-0.0067069027296459
 10
620.83037118849074
 20
-483.13967323615668
 10
620.83291995441493
 20
-483.13774306628272
 42
-0.0076184352049561
 10
621.00382522028804
 20
-483.01236819103758
 42
-0.0089652861671292
 10
621.17878618302575
 20
-482.89273493070289
 10
621.21513790316556
 20
-482.86882371722322
 42
-0.015691624593797
 10
621.41109740032766
 20
-482.74856123074767
 42
-0.0023299011065434
 10
621.61135944427895
 20
-482.63538329122269
 10
621.62674357668732
 20
-482.62678329614209
 42
-0.0107669341486781
 10
621.86098040178786
 20
-482.50238316279291
 10
621.88324520286346
 20
-482.49116641284263
 42
-0.007805804589517
 10
622.16683532081936
 20
-482.35380495720267
 10
622.17674240852534
 20
-482.34919582933571
 42
-0.018182933047329
 10
622.48705181314097
 20
-482.21833208824006
 10
622.54110725570638
 20
-482.1978169682971
 42
-0.0208411536031939
 10
622.89019222315801
 20
-482.08172650580343
 10
622.90454832328624
 20
-482.07760806084974
 42
-0.0222799817138802
 10
623.23326811720267
 20
-481.99896649470963
 10
623.24215708044039
 20
-481.99725448412443
 42
-0.0215509523883774
 10
623.55862804871958
 20
-481.95033879559026
 10
623.60111000977008
 20
-481.94590126879928
 42
-0.0182545924871763
 10
623.83521878907368
 20
-481.93005744340849
 10
623.87461980542253
 20
-481.92883289832929
 42
-0.0072962856535675
 10
624.03054268511073
 20
-481.92626356980713
 10
624.05964235568104
 20
-481.92620873440342
 42
-0.0059227516315781
 10
624.15739185482767
 20
-481.9271824461938
 10
624.1866340723335
 20
-481.92782021279783
 42
-0.0011833111889364
 10
624.22588535603199
 20
-481.92876921710717
 10
623.43049876042483
 20
-484.46750316220619
 42
0.0143932051576566
 10
623.40409737807204
 20
-484.45730419216011
 10
623.39682540565695
 20
-484.45473297330352
 42
0.023438860349177
 10
623.35499453972545
 20
-484.44211373758839
 10
623.34631287681214
 20
-484.4399327755832
 42
0.0199162742982524
 10
623.2860240427317
 20
-484.427316040248
 10
623.26521010492593
 20
-484.42381884081965
 42
0.0293643550673738
 10
623.16213524616569
 20
-484.41266879516644
 10
623.1374500654465
 20
-484.41145717814788
 42
0.0214606686862506
 10
622.98430914949586
 20
-484.41051861773036
 10
622.97493723867603
 20
-484.41086352927471
 42
0.0167564054182579
 10
622.80341704756586
 20
-484.42294057164293
 10
622.79495725480865
 20
-484.42382191206991
 42
0.013767755324364
 10
622.60760394154158
 20
-484.4485712206137
 10
622.60025220203602
 20
-484.44974914058139
 42
0.0118497261484832
 10
622.39975443793287
 20
-484.48676649077083
 10
622.39360443068745
 20
-484.48805335349061
 42
0.0106421143889092
 10
622.18272354340115
 20
-484.53688572906572
 10
622.17781473501338
 20
-484.53813307175051
 42
0.0099746379703329
 10
621.95935626585003
 20
-484.59830760006548
 10
621.89780822568059
 20
-484.61658947869591
 42
0.0191613675860421
 10
621.5618237631644
 20
-484.7305668589832
 10
621.47376399042048
 20
-484.76425376930661
 42
0.0205274080143508
 10
621.0884572185189
 20
-484.9300821771335
 10
621.03080793653749
 20
-484.95775014170562
 42
0.0181256912197543
 10
620.77253099586994
 20
-485.09343396068368
 10
620.71957561255681
 20
-485.12375157389801
 42
0.0140709242415251
 10
620.57462067792767
 20
-485.21224624733281
 10
620.54837180931349
 20
-485.22930306604547
 42
0.0086667884404885
 10
620.45944564776664
 20
-485.28930573393109
 42
0.003640819202441
 10
620.37201240973457
 20
-485.35148659172245
 10
620.33678553526465
 20
-485.37692753763622
 42
0.0052260781279983
 10
620.18055683787122
 20
-485.49225992427222
 10
620.1643499816139
 20
-485.5044880348886
 42
0.005002443589489
 10
619.97834663855531
 20
-485.64777060315066
 10
619.96302848203993
 20
-485.65981662559659
 42
0.0136138710277622
 10
619.7525872137179
 20
-485.83478313050711
 10
619.71891933792108
 20
-485.86436210322415
 42
0.0172815186916334
 10
619.45451579625831
 20
-486.11335877584781
 10
619.45195345041589
 20
-486.11594459299465
 42
0.0189403857991462
 10
619.20137165183746
 20
-486.38874985779825
 10
619.1687401582991
 20
-486.42709378929817
 42
0.0185044199507318
 10
618.97678371932079
 20
-486.67034237041901
 42
0.0088565243899829
 10
618.79832361269439
 20
-486.92385879056621
 10
618.78914563304386
 20
-486.93740017032906
 42
0.015719534723064
 10
618.60592502670772
 20
-487.22692237964822
 10
618.55984208477855
 20
-487.30507457666613
 42
0.0095451879782411
 10
618.39475653464126
 20
-487.59766921902212
 10
618.38360861571243
 20
-487.61833989115246
 42
0.010035170625494
 10
618.25156486655237
 20
-487.87539545164486
 42
0.0086935915424039
 10
618.12923371475733
 20
-488.13722859705143
 10
618.12591297334382
 20
-488.1446709200211
 42
0.0072580174867367
 10
618.00556652139812
 20
-488.42526291160607
 10
618.00230488809257
 20
-488.43318293762206
 42
0.0060005122615432
 10
617.88310421974904
 20
-488.73279260822943
 10
617.87989324140824
 20
-488.74115413613197
 42
0.0049017786980484
 10
617.76099308254766
 20
-489.06008311674481
 10
617.75782727616036
 20
-489.06883605396672
 42
0.003941516760429
 10
617.63839099810468
 20
-489.40737811637729
 10
617.63525989545155
 20
-489.41648131725606
 42
0.0031035838764562
 10
617.51445510975952
 20
-489.77492117902619
 10
617.51134506522806
 20
-489.78434180040438
 42
0.002507074715387
 10
617.38844371391019
 20
-490.16298901735621
 10
617.35114981748734
 20
-490.27988068260129
 42
0.0029081910284859
 10
617.15913151966947
 20
-490.89404434091534
 10
617.11832835115945
 20
-491.02726758316885
 42
0.0009266453733688
 10
616.84991097683996
 20
-491.909492043108
 10
616.82902350419272
 20
-491.97860392236583
 42
-0.0005809993664636
 10
616.55168682361295
 20
-492.89241202896721
 10
616.48540502534411
 20
-493.10989696111363
 42
-0.0012018708168379
 10
616.33842071591084
 20
-493.58805962564759
 10
616.28610086436015
 20
-493.75681876646524
 42
-0.0002691059608456
 10
616.2425313831767
 20
-493.89708638685534
 10
613.40957548488745
 20
-502.98624098915502
 10
611.59158659290893
 20
-502.98624098915502
 10
617.84383600895683
 20
-482.34252295262513
  0
SPLINE
  5
66
100
AcDbEntity
  8
0
370
              15
390
0
  6
Continuous
 62
               7
100
AcDbSpline
210
0.0
220
0.0
230
1.0
 70
              13
 71
               2
 72
             782
 73
             779
 74
               0
 42
0.000001
 43
0.000001
 40
0.0
 40
0.0
 40
0.0
 40
1.0
 40
1.0
 40
2.0
 40
2.0
 40
3.0
 40
3.0
 40
4.0
 40
4.0
 40
5.0
 40
5.0
 40
6.0
 40
6.0
 40
7.0
 40
7.0
 40
8.0
 40
8.0
 40
9.0
 40
9.0
 40
10.0
 40
10.0
 40
11.0
 40
11.0
 40
12.0
 40
12.0
 40
13.0
 40
13.0
 40
14.0
 40
14.0
 40
15.0
 40
15.0
 40
16.0
 40
16.0
 40
17.0
 40
17.0
 40
18.0
 40
18.0
 40
19.0
 40
19.0
 40
20.0
 40
20.0
 40
21.0
 40
21.0
 40
22.0
 40
22.0
 40
23.0
 40
23.0
 40
24.0
 40
24.0
 40
25.0
 40
25.0
 40
26.0
 40
26.0
 40
27.0
 40
27.0
 40
28.0
 40
28.0
 40
29.0
 40
29.0
 40
30.0
 40
30.0
 40
31.0
 40
31.0
 40
32.0
 40
32.0
 40
33.0
 40
33.0
 40
34.0
 40
34.0
 40
35.0
 40
35.0
 40
36.0
 40
36.0
 40
37.0
 40
37.0
 40
38.0
 40
38.0
 40
39.0
 40
39.0
 40
40.0
 40
40.0
 40
41.0
 40
41.0
 40
42.0
 40
42.0
 40
43.0
 40
43.0
 40
44.0
 40
44.0
 40
45.0
 40
45.0
 40
46.0
 40
46.0
 40
47.0
 40
47.0
 40
48.0
 40
48.0
 40
49.0
 40
49.0
 40
50.0
 40
50.0
 40
51.0
 40
51.0
 40
52.0
 40
52.0
 40
53.0
 40
53.0
 40
54.0
 40
54.0
 40
55.0
 40
55.0
 40
56.0
 40
56.0
 40
57.0
 40
57.0
 40
58.0
 40
58.0
 40
59.0
 40
59.0
 40
60.0
 40
60.0
 40
61.0
 40
61.0
 40
62.0
 40
62.0
 40
63.0
 40
63.0
 40
64.0
 40
64.0
 40
65.0
 40
65.0
 40
66.0
 40
66.0
 40
67.0
 40
67.0
 40
68.0
 40
68.0
 40
69.0
 40
69.0
 40
70.0
 40
70.0
 40
71.0
 40
71.0
 40
72.0
 40
72.0
 40
73.0
 40
73.0
 40
74.0
 40
74.0
 40
75.0
 40
75.0
 40
76.0
 40
76.0
 40
77.0
 40
77.0
 40
78.0
 40
78.0
 40
79.0
 40
79.0
 40
80.0
 40
80.0
 40
81.0
 40
81.0
 40
82.0
 40
82.0
 40
83.0
 40
83.0
 40
84.0
 40
84.0
 40
85.0
 40
85.0
 40
86.0
 40
86.0
 40
87.0
 40
87.0
 40
88.0
 40
88.0
 40
89.0
 40
89.0
 40
90.0
 40
90.0
 40
91.0
 40
91.0
 40
92.0
 40
92.0
 40
93.0
 40
93.0
 40
94.0
 40
94.0
 40
95.0
 40
95.0
 40
96.0
 40
96.0
 40
97.0
 40
97.0
 40
98.0
 40
98.0
 40
99.0
 40
99.0
 40
100.0
 40
100.0
 40
101.0
 40
101.0
 40
102.0
 40
102.0
 40
103.0
 40
103.0
 40
104.0
 40
104.0
 40
105.0
 40
105.0
 40
106.0
 40
106.0
 40
107.0
 40
107.0
 40
108.0
 40
108.0
 40
109.0
 40
109.0
 40
110.0
 40
110.0
 40
111.0
 40
111.0
 40
112.0
 40
112.0
 40
113.0
 40
113.0
 40
114.0
 40
114.0
 40
115.0
 40
115.0
 40
116.0
 40
116.0
 40
117.0
 40
117.0
 40
118.0
 40
118.0
 40
119.0
 40
119.0
 40
120.0
 40
120.0
 40
121.0
 40
121.0
 40
122.0
 40
122.0
 40
123.0
 40
123.0
 40
124.0
 40
124.0
 40
125.0
 40
125.0
 40
126.0
 40
126.0
 40
127.0
 40
127.0
 40
128.0
 40
128.0
 40
129.0
 40
129.0
 40
130.0
 40
130.0
 40
131.0
 40
131.0
 40
132.0
 40
132.0
 40
133.0
 40
133.0
 40
134.0
 40
134.0
 40
135.0
 40
135.0
 40
136.0
 40
136.0
 40
137.0
 40
137.0
 40
138.0
 40
138.0
 40
139.0
 40
139.0
 40
140.0
 40
140.0
 40
141.0
 40
141.0
 40
142.0
 40
142.0
 40
143.0
 40
143.0
 40
144.0
 40
144.0
 40
145.0
 40
145.0
 40
146.0
 40
146.0
 40
147.0
 40
147.0
 40
148.0
 40
148.0
 40
149.0
 40
149.0
 40
150.0
 40
150.0
 40
151.0
 40
151.0
 40
152.0
 40
152.0
 40
153.0
 40
153.0
 40
154.0
 40
154.0
 40
155.0
 40
155.0
 40
156.0
 40
156.0
 40
157.0
 40
157.0
 40
158.0
 40
158.0
 40
159.0
 40
159.0
 40
160.0
 40
160.0
 40
161.0
 40
161.0
 40
162.0
 40
162.0
 40
163.0
 40
163.0
 40
164.0
 40
164.0
 40
165.0
 40
165.0
 40
166.0
 40
166.0
 40
167.0
 40
167.0
 40
168.0
 40
168.0
 40
169.0
 40
169.0
 40
170.0
 40
170.0
 40
171.0
 40
171.0
 40
172.0
 40
172.0
 40
173.0
 40
173.0
 40
174.0
 40
174.0
 40
175.0
 40
175.0
 40
176.0
 40
176.0
 40
177.0
 40
177.0
 40
178.0
 40
178.0
 40
179.0
 40
179.0
 40
180.0
 40
180.0
 40
181.0
 40
181.0
 40
182.0
 40
182.0
 40
183.0
 40
183.0
 40
184.0
 40
184.0
 40
185.0
 40
185.0
 40
186.0
 40
186.0
 40
187.0
 40
187.0
 40
188.0
 40
188.0
 40
189.0
 40
189.0
 40
190.0
 40
190.0
 40
191.0
 40
191.0
 40
192.0
 40
192.0
 40
193.0
 40
193.0
 40
194.0
 40
194.0
 40
195.0
 40
195.0
 40
196.0
 40
196.0
 40
197.0
 40
197.0
 40
198.0
 40
198.0
 40
199.0
 40
199.0
 40
200.0
 40
200.0
 40
201.0
 40
201.0
 40
202.0
 40
202.0
 40
203.0
 40
203.0
 40
204.0
 40
204.0
 40
205.0
 40
205.0
 40
206.0
 40
206.0
 40
207.0
 40
207.0
 40
208.0
 40
208.0
 40
209.0
 40
209.0
 40
210.0
 40
210.0
 40
211.0
 40
211.0
 40
212.0
 40
212.0
 40
213.0
 40
213.0
 40
214.0
 40
214.0
 40
215.0
 40
215.0
 40
216.0
 40
216.0
 40
217.0
 40
217.0
 40
218.0
 40
218.0
 40
219.0
 40
219.0
 40
220.0
 40
220.0
 40
221.0
 40
221.0
 40
222.0
 40
222.0
 40
223.0
 40
223.0
 40
224.0
 40
224.0
 40
225.0
 40
225.0
 40
226.0
 40
226.0
 40
227.0
 40
227.0
 40
228.0
 40
228.0
 40
229.0
 40
229.0
 40
230.0
 40
230.0
 40
231.0
 40
231.0
 40
232.0
 40
232.0
 40
233.0
 40
233.0
 40
234.0
 40
234.0
 40
235.0
 40
235.0
 40
236.0
 40
236.0
 40
237.0
 40
237.0
 40
238.0
 40
238.0
 40
239.0
 40
239.0
 40
240.0
 40
240.0
 40
241.0
 40
241.0
 40
242.0
 40
242.0
 40
243.0
 40
243.0
 40
244.0
 40
244.0
 40
245.0
 40
245.0
 40
246.0
 40
246.0
 40
247.0
 40
247.0
 40
248.0
 40
248.0
 40
249.0
 40
249.0
 40
250.0
 40
250.0
 40
251.0
 40
251.0
 40
252.0
 40
252.0
 40
253.0
 40
253.0
 40
254.0
 40
254.0
 40
255.0
 40
255.0
 40
256.0
 40
256.0
 40
257.0
 40
257.0
 40
258.0
 40
258.0
 40
259.0
 40
259.0
 40
260.0
 40
260.0
 40
261.0
 40
261.0
 40
262.0
 40
262.0
 40
263.0
 40
263.0
 40
264.0
 40
264.0
 40
265.0
 40
265.0
 40
266.0
 40
266.0
 40
267.0
 40
267.0
 40
268.0
 40
268.0
 40
269.0
 40
269.0
 40
270.0
 40
270.0
 40
271.0
 40
271.0
 40
272.0
 40
272.0
 40
273.0
 40
273.0
 40
274.0
 40
274.0
 40
275.0
 40
275.0
 40
276.0
 40
276.0
 40
277.0
 40
277.0
 40
278.0
 40
278.0
 40
279.0
 40
279.0
 40
280.0
 40
280.0
 40
281.0
 40
281.0
 40
282.0
 40
282.0
 40
283.0
 40
283.0
 40
284.0
 40
284.0
 40
285.0
 40
285.0
 40
286.0
 40
286.0
 40
287.0
 40
287.0
 40
288.0
 40
288.0
 40
289.0
 40
289.0
 40
290.0
 40
290.0
 40
291.0
 40
291.0
 40
292.0
 40
292.0
 40
293.0
 40
293.0
 40
294.0
 40
294.0
 40
295.0
 40
295.0
 40
296.0
 40
296.0
 40
297.0
 40
297.0
 40
298.0
 40
298.0
 40
299.0
 40
299.0
 40
300.0
 40
300.0
 40
301.0
 40
301.0
 40
302.0
 40
302.0
 40
303.0
 40
303.0
 40
304.0
 40
304.0
 40
305.0
 40
305.0
 40
306.0
 40
306.0
 40
307.0
 40
307.0
 40
308.0
 40
308.0
 40
309.0
 40
309.0
 40
310.0
 40
310.0
 40
311.0
 40
311.0
 40
312.0
 40
312.0
 40
313.0
 40
313.0
 40
314.0
 40
314.0
 40
315.0
 40
315.0
 40
316.0
 40
316.0
 40
317.0
 40
317.0
 40
318.0
 40
318.0
 40
319.0
 40
319.0
 40
320.0
 40
320.0
 40
321.0
 40
321.0
 40
322.0
 40
322.0
 40
323.0
 40
323.0
 40
324.0
 40
324.0
 40
325.0
 40
325.0
 40
326.0
 40
326.0
 40
327.0
 40
327.0
 40
328.0
 40
328.0
 40
329.0
 40
329.0
 40
330.0
 40
330.0
 40
331.0
 40
331.0
 40
332.0
 40
332.0
 40
333.0
 40
333.0
 40
334.0
 40
334.0
 40
335.0
 40
335.0
 40
336.0
 40
336.0
 40
337.0
 40
337.0
 40
338.0
 40
338.0
 40
339.0
 40
339.0
 40
340.0
 40
340.0
 40
341.0
 40
341.0
 40
342.0
 40
342.0
 40
343.0
 40
343.0
 40
344.0
 40
344.0
 40
345.0
 40
345.0
 40
346.0
 40
346.0
 40
347.0
 40
347.0
 40
348.0
 40
348.0
 40
349.0
 40
349.0
 40
350.0
 40
350.0
 40
351.0
 40
351.0
 40
352.0
 40
352.0
 40
353.0
 40
353.0
 40
354.0
 40
354.0
 40
355.0
 40
355.0
 40
356.0
 40
356.0
 40
357.0
 40
357.0
 40
358.0
 40
358.0
 40
359.0
 40
359.0
 40
360.0
 40
360.0
 40
361.0
 40
361.0
 40
362.0
 40
362.0
 40
363.0
 40
363.0
 40
364.0
 40
364.0
 40
365.0
 40
365.0
 40
366.0
 40
366.0
 40
367.0
 40
367.0
 40
368.0
 40
368.0
 40
369.0
 40
369.0
 40
370.0
 40
370.0
 40
371.0
 40
371.0
 40
372.0
 40
372.0
 40
373.0
 40
373.0
 40
374.0
 40
374.0
 40
375.0
 40
375.0
 40
376.0
 40
376.0
 40
377.0
 40
377.0
 40
378.0
 40
378.0
 40
379.0
 40
379.0
 40
380.0
 40
380.0
 40
381.0
 40
381.0
 40
382.0
 40
382.0
 40
383.0
 40
383.0
 40
384.0
 40
384.0
 40
385.0
 40
385.0
 40
386.0
 40
386.0
 40
387.0
 40
387.0
 40
388.0
 40
388.0
 40
389.0
 40
389.0
 40
389.0
 10
628.17254045968946
 20
-482.33159658926274
 30
0.0
 41
1.0
 10
628.99096456840994
 20
-482.33159658926274
 30
0.0
 41
1.0
 10
629.80938867713041
 20
-482.33159658926274
 30
0.0
 41
1.0
 10
629.39563494161371
 20
-483.67422285351245
 30
0.0
 41
1.0
 10
628.98188120609689
 20
-485.01684911776215
 30
0.0
 41
1.0
 10
629.00022070126374
 20
-484.98814834485211
 30
0.0
 41
0.999995726435411
 10
629.01872769809461
 20
-484.95955529470143
 30
0.0
 41
1.0
 10
629.04915702223241
 20
-484.91254241632487
 30
0.0
 41
1.0
 10
629.07958634637021
 20
-484.86552953794831
 30
0.0
 41
1.0
 10
629.15895199147519
 20
-484.74291073104621
 30
0.0
 41
0.9995394069081175
 10
629.24561038302738
 20
-484.62533266930433
 30
0.0
 41
1.0
 10
629.28136724528713
 20
-484.57681777671087
 30
0.0
 41
1.0
 10
629.31712410754676
 20
-484.52830288411747
 30
0.0
 41
1.0
 10
629.45085077536521
 20
-484.34686260899025
 30
0.0
 41
0.9994460617143181
 10
629.59635125665386
 20
-484.17472021133983
 30
0.0
 41
1.0
 10
629.6007394376295
 20
-484.16952853095654
 30
0.0
 41
1.0
 10
629.60512761860514
 20
-484.16433685057319
 30
0.0
 41
1.0
 10
629.74185173794217
 20
-484.00257781368987
 30
0.0
 41
0.9994359394934104
 10
629.88912596829323
 20
-483.8503616125256
 30
0.0
 41
1.0
 10
629.89150932224607
 20
-483.84789828215298
 30
0.0
 41
1.0
 10
629.8938926761989
 20
-483.84543495178036
 30
0.0
 41
1.0
 10
630.03640019864349
 20
-483.69814541136191
 30
0.0
 41
0.9995293688567221
 10
630.18767187962681
 20
-483.55987219919678
 30
0.0
 41
1.0
 10
630.20696563888964
 20
-483.54223631354608
 30
0.0
 41
1.0
 10
630.22625939815237
 20
-483.52460042789539
 30
0.0
 41
1.0
 10
630.33894356060921
 20
-483.4215989870325
 30
0.0
 41
0.9997087614803821
 10
630.456466449564
 20
-483.32415470623482
 30
0.0
 41
1.0
 10
630.47563252273642
 20
-483.30826312772945
 30
0.0
 41
1.0
 10
630.49479859590883
 20
-483.29237154922413
 30
0.0
 41
1.0
 10
630.57398933851402
 20
-483.22671042544084
 30
0.0
 41
0.9999595338698893
 10
630.65434860937421
 20
-483.16248469478194
 30
0.0
 41
1.0
 10
630.7347078802336
 20
-483.09825896412366
 30
0.0
 41
0.999974941750122
 10
630.81596841458315
 20
-483.03517741017254
 30
0.0
 41
1.0
 10
630.83695456074315
 20
-483.0188861228728
 30
0.0
 41
1.0
 10
630.85794070690326
 20
-483.00259483557306
 30
0.0
 41
1.0
 10
630.94250859220278
 20
-482.9369458257338
 30
0.0
 41
0.9999792037118498
 10
631.02791619197524
 20
-482.87239304408797
 30
0.0
 41
1.0
 10
631.04874101787493
 20
-482.85665322183922
 30
0.0
 41
1.0
 10
631.06956584377463
 20
-482.84091339959042
 30
0.0
 41
1.0
 10
631.11332379171517
 20
-482.80784026246664
 30
0.0
 41
0.9999993373716759
 10
631.15700547788788
 20
-482.77466646702032
 30
0.0
 41
1.0
 10
631.20068716403352
 20
-482.74149267159453
 30
0.0
 41
0.999916095381459
 10
631.24521357495564
 20
-482.70946160639448
 30
0.0
 41
1.0
 10
631.2780354623726
 20
-482.68585045081136
 30
0.0
 41
1.0
 10
631.31085734978967
 20
-482.66223929522823
 30
0.0
 41
1.0
 10
631.42102753554764
 20
-482.58298591886057
 30
0.0
 41
0.9980964527231588
 10
631.54011652904774
 20
-482.51789844600489
 30
0.0
 41
1.0
 10
631.57714913597624
 20
-482.49765846641151
 30
0.0
 41
1.0
 10
631.61418174290486
 20
-482.47741848681812
 30
0.0
 41
1.0
 10
631.79350875617808
 20
-482.37940823611683
 30
0.0
 41
0.9984572810572729
 10
631.982597322537
 20
-482.30188597477047
 30
0.0
 41
1.0
 10
631.98624359193195
 20
-482.30039108243284
 30
0.0
 41
1.0
 10
631.98988986132701
 20
-482.29889619009526
 30
0.0
 41
1.0
 10
632.17168588889444
 20
-482.22436371342451
 30
0.0
 41
0.9987838528033787
 10
632.35993854745516
 20
-482.16809807325831
 30
0.0
 41
1.0
 10
632.3641764966535
 20
-482.16683141956821
 30
0.0
 41
1.0
 10
632.36841444585184
 20
-482.16556476587812
 30
0.0
 41
1.0
 10
632.54819120601405
 20
-482.11183243309262
 30
0.0
 41
0.9990652816207243
 10
632.73193713773026
 20
-482.07382875355052
 30
0.0
 41
1.0
 10
632.73712553876078
 20
-482.07275565044415
 30
0.0
 41
1.0
 10
632.7423139397913
 20
-482.07168254733784
 30
0.0
 41
1.0
 10
632.91568306944612
 20
-482.03582507400847
 30
0.0
 41
0.9992909934270178
 10
633.09125883590445
 20
-482.01311464154196
 30
0.0
 41
1.0
 10
633.26683460236256
 20
-481.99040420907551
 30
0.0
 41
0.9994553539448897
 10
633.44352603545406
 20
-481.97932490486932
 30
0.0
 41
1.0
 10
633.47896044325068
 20
-481.97710301682145
 30
0.0
 41
1.0
 10
633.51439485104731
 20
-481.97488112877357
 30
0.0
 41
1.0
 10
633.68062061761759
 20
-481.96445806636189
 30
0.0
 41
0.9990928098292979
 10
633.8471304095192
 20
-481.96821770759641
 30
0.0
 41
1.0
 10
633.88569224479102
 20
-481.96908839912942
 30
0.0
 41
1.0
 10
633.92425408006284
 20
-481.96995909066237
 30
0.0
 41
1.0
 10
634.01364020142023
 20
-481.97197734883082
 30
0.0
 41
0.9998382089204261
 10
634.10289588420801
 20
-481.97720947535902
 30
0.0
 41
1.0
 10
634.1033257904287
 20
-481.97723467626133
 30
0.0
 41
1.0
 10
634.10375569664939
 20
-481.97725987716365
 30
0.0
 41
1.0
 10
634.19215156699488
 20
-481.98244160188716
 30
0.0
 41
0.999755801675858
 10
634.280232144195
 20
-481.99152411725356
 30
0.0
 41
1.0
 10
634.28070828262435
 20
-481.99157321473609
 30
0.0
 41
1.0
 10
634.28118442105369
 20
-481.99162231221862
 30
0.0
 41
1.0
 10
634.36831272139545
 20
-482.00060663261996
 30
0.0
 41
0.9996565144181846
 10
634.45485057473797
 20
-482.01414393930906
 30
0.0
 41
1.0
 10
634.45531650011549
 20
-482.01421682504042
 30
0.0
 41
1.0
 10
634.45578242549288
 20
-482.01428971077172
 30
0.0
 41
1.0
 10
634.54138842808095
 20
-482.02768124599828
 30
0.0
 41
0.999532180686725
 10
634.62601550840793
 20
-482.04628173442734
 30
0.0
 41
1.0
 10
634.62640470297947
 20
-482.04636727689308
 30
0.0
 41
1.0
 10
634.6267938975509
 20
-482.04645281935888
 30
0.0
 41
1.0
 10
634.7106425887348
 20
-482.06488222285628
 30
0.0
 41
0.9993819199219399
 10
634.79298912293211
 20
-482.08915760611728
 30
0.0
 41
1.0
 10
634.79322755643057
 20
-482.08922789522677
 30
0.0
 41
1.0
 10
634.79346598992913
 20
-482.08929818433626
 30
0.0
 41
1.0
 10
634.87533565712874
 20
-482.11343298937805
 30
0.0
 41
0.9992088568505717
 10
634.95502817611657
 20
-482.14399822517237
 30
0.0
 41
1.0
 10
635.03470916699564
 20
-482.17455782590554
 30
0.0
 41
0.9990226101773218
 10
635.11137983690276
 20
-482.21203525752014
 30
0.0
 41
1.0
 10
635.18803897870055
 20
-482.24950705407332
 30
0.0
 41
0.9988424273972211
 10
635.26074260591224
 20
-482.29417182932593
 30
0.0
 41
1.0
 10
635.26101031429198
 20
-482.29433629339843
 30
0.0
 41
1.0
 10
635.26127802267183
 20
-482.29450075747093
 30
0.0
 41
1.0
 10
635.334517066643
 20
-482.33949446086848
 30
0.0
 41
0.9986928844491108
 10
635.40277993335303
 20
-482.3917301951484
 30
0.0
 41
1.0
 10
635.40336122557551
 20
-482.39217500837606
 30
0.0
 41
1.0
 10
635.40394251779799
 20
-482.39261982160372
 30
0.0
 41
1.0
 10
635.47336796895354
 20
-482.44574518233935
 30
0.0
 41
0.998600726227835
 10
635.53679413872067
 20
-482.50590595203323
 30
0.0
 41
1.0
 10
635.53768855417752
 20
-482.50675431986804
 30
0.0
 41
1.0
 10
635.53858296963449
 20
-482.50760268770284
 30
0.0
 41
1.0
 10
635.60379797031499
 20
-482.56946019306588
 30
0.0
 41
0.9985581491381019
 10
635.6620055820166
 20
-482.63795268333746
 30
0.0
 41
1.0
 10
635.67126403561269
 20
-482.64884704103952
 30
0.0
 41
1.0
 10
635.6805224892089
 20
-482.65974139874163
 30
0.0
 41
1.0
 10
635.75724700810269
 20
-482.75002260441732
 30
0.0
 41
0.9970460233520491
 10
635.81923890926237
 20
-482.85098968859955
 30
0.0
 41
1.0
 10
635.83370827434169
 20
-482.87455614768044
 30
0.0
 41
1.0
 10
635.84817763942101
 20
-482.89812260676132
 30
0.0
 41
1.0
 10
635.88791433943311
 20
-482.96284233079302
 30
0.0
 41
0.9988468816636716
 10
635.92126071018447
 20
-483.03107478322022
 30
0.0
 41
1.0
 10
635.92829673267659
 20
-483.04547170435887
 30
0.0
 41
1.0
 10
635.9353327551687
 20
-483.05986862549759
 30
0.0
 41
1.0
 10
635.95460708093663
 20
-483.09930723564929
 30
0.0
 41
0.9998431189999371
 10
635.97247240843103
 20
-483.13940379008864
 30
0.0
 41
1.0
 10
635.9903377359301
 20
-483.17950034453872
 30
0.0
 41
0.9999989989802466
 10
636.00831645935955
 20
-483.21954618213908
 30
0.0
 41
1.0
 10
636.01448877094799
 20
-483.23329439893877
 30
0.0
 41
1.0
 10
636.02066108253644
 20
-483.24704261573845
 30
0.0
 41
1.0
 10
636.05098442914652
 20
-483.3145848869467
 30
0.0
 41
0.9998790356321963
 10
636.07919230928485
 20
-483.38303763888479
 30
0.0
 41
1.0
 10
636.08602749056888
 20
-483.39962474031148
 30
0.0
 41
1.0
 10
636.09286267185291
 20
-483.41621184173817
 30
0.0
 41
1.0
 10
636.11642033423368
 20
-483.47337979662473
 30
0.0
 41
0.9998227574561889
 10
636.13780908262311
 20
-483.53139410490246
 30
0.0
 41
1.0
 10
636.15919783101231
 20
-483.58940841317963
 30
0.0
 41
0.9996797971041553
 10
636.1776241159713
 20
-483.64843053229731
 30
0.0
 41
1.0
 10
636.18152791869693
 20
-483.66093499046661
 30
0.0
 41
1.0
 10
636.18543172142267
 20
-483.67343944863592
 30
0.0
 41
1.0
 10
636.21166561183315
 20
-483.75747048409244
 30
0.0
 41
0.9979274938734238
 10
636.22689013531237
 20
-483.84417484275332
 30
0.0
 41
1.0
 10
636.22911382257348
 20
-483.85683884357377
 30
0.0
 41
1.0
 10
636.23133750983447
 20
-483.86950284439416
 30
0.0
 41
1.0
 10
636.24226744953285
 20
-483.9317493516848
 30
0.0
 41
0.9994985982136992
 10
636.24923561470973
 20
-483.99456285282679
 30
0.0
 41
1.0
 10
636.25620377988673
 20
-484.05737635396963
 30
0.0
 41
0.9996372611201364
 10
636.25977964565459
 20
-484.12047393265351
 30
0.0
 41
1.0
 10
636.25994822314385
 20
-484.12344854973446
 30
0.0
 41
1.0
 10
636.26011680063311
 20
-484.12642316681536
 30
0.0
 41
1.0
 10
636.26402982137949
 20
-484.19546997966427
 30
0.0
 41
0.9997730630735661
 10
636.2649981348676
 20
-484.26462080370089
 30
0.0
 41
1.0
 10
636.26505524128561
 20
-484.26869898284008
 30
0.0
 41
1.0
 10
636.26511234770373
 20
-484.27277716197932
 30
0.0
 41
1.0
 10
636.26619487402809
 20
-484.35008434429619
 30
0.0
 41
0.9998772614072075
 10
636.26485478729626
 20
-484.42738749085936
 30
0.0
 41
1.0
 10
636.26476552409758
 20
-484.43253665469541
 30
0.0
 41
1.0
 10
636.2646762608988
 20
-484.43768581853146
 30
0.0
 41
1.0
 10
636.26315764776962
 20
-484.52528729276673
 30
0.0
 41
0.9999415567328718
 10
636.25974533752355
 20
-484.61283545444252
 30
0.0
 41
1.0
 10
636.25950401684827
 20
-484.61902691417902
 30
0.0
 41
1.0
 10
636.25926269617298
 20
-484.62521837391546
 30
0.0
 41
1.0
 10
636.25536774457612
 20
-484.725149455071
 30
0.0
 41
0.9999716810426095
 10
636.24996916145744
 20
-484.82501059330389
 30
0.0
 41
1.0
 10
636.24675636266852
 20
-484.88443984296396
 30
0.0
 41
1.0
 10
636.24354356387948
 20
-484.94386909262403
 30
0.0
 41
1.0
 10
636.23546965472713
 20
-485.09321749389767
 30
0.0
 41
0.9999819129895243
 10
636.22559986311103
 20
-485.24245797160097
 30
0.0
 41
1.0
 10
636.21573007149448
 20
-485.39169844931234
 30
0.0
 41
1.0
 10
636.21329075093058
 20
-485.42889149516168
 30
0.0
 41
1.0
 10
636.23598898476553
 20
-485.3901504978254
 30
0.0
 41
0.9999982128055833
 10
636.25883354352641
 20
-485.35149560385793
 30
0.0
 41
1.0
 10
636.2857431034065
 20
-485.30596238981082
 30
0.0
 41
1.0
 10
636.31265266328671
 20
-485.26042917576365
 30
0.0
 41
1.0
 10
636.38931634181176
 20
-485.13070785369524
 30
0.0
 41
0.9998609190057901
 10
636.4702636546748
 20
-485.00361547176402
 30
0.0
 41
1.0
 10
636.49991197615736
 20
-484.95706573880534
 30
0.0
 41
1.0
 10
636.52956029764005
 20
-484.91051600584666
 30
0.0
 41
1.0
 10
636.61183251787725
 20
-484.78134343585168
 30
0.0
 41
0.999906760973314
 10
636.69760152733897
 20
-484.65446574641385
 30
0.0
 41
1.0
 10
636.7000062305417
 20
-484.65090848035629
 30
0.0
 41
1.0
 10
636.70241093374443
 20
-484.64735121429874
 30
0.0
 41
1.0
 10
636.78337053680434
 20
-484.52758805697073
 30
0.0
 41
0.9998784952149709
 10
636.86802414648434
 20
-484.41040684026382
 30
0.0
 41
1.0
 10
636.95267775616446
 20
-484.29322562355662
 30
0.0
 41
0.999853296828409
 10
637.0412953769868
 20
-484.17901271508669
 30
0.0
 41
1.0
 10
637.06125716597842
 20
-484.15328539406585
 30
0.0
 41
1.0
 10
637.08121895497004
 20
-484.12755807304501
 30
0.0
 41
1.0
 10
637.1997030047288
 20
-483.97485246207646
 30
0.0
 41
0.9991551975795406
 10
637.33032745435298
 20
-483.83239289999233
 30
0.0
 41
1.0
 10
637.33383707033227
 20
-483.82856529836852
 30
0.0
 41
1.0
 10
637.33734668631143
 20
-483.82473769674476
 30
0.0
 41
1.0
 10
637.46095190397637
 20
-483.68993333790894
 30
0.0
 41
0.9997418144180871
 10
637.590554043677
 20
-483.56088392729635
 30
0.0
 41
1.0
 10
637.72015618337787
 20
-483.43183451668369
 30
0.0
 41
0.9989238204633392
 10
637.86115873162885
 20
-483.31534955464485
 30
0.0
 41
1.0
 10
637.90640640976812
 20
-483.27796956303638
 30
0.0
 41
1.0
 10
637.95165408790729
 20
-483.2405895714279
 30
0.0
 41
1.0
 10
638.09189414512889
 20
-483.12473451813679
 30
0.0
 41
0.9990825084096519
 10
638.24153407773315
 20
-483.0213055203036
 30
0.0
 41
1.0
 10
638.25157944179091
 20
-483.01436230722351
 30
0.0
 41
1.0
 10
638.26162480584867
 20
-483.00741909414342
 30
0.0
 41
1.0
 10
638.39117401033809
 20
-482.91787652247001
 30
0.0
 41
0.9998164899827755
 10
638.52405821371337
 20
-482.83336228095425
 30
0.0
 41
1.0
 10
638.5359037742387
 20
-482.82582851442891
 30
0.0
 41
1.0
 10
638.54774933476415
 20
-482.81829474790356
 30
0.0
 41
1.0
 10
638.65694241708934
 20
-482.74884803943803
 30
0.0
 41
0.9997473449130829
 10
638.76914637433902
 20
-482.68437908162218
 30
0.0
 41
1.0
 10
638.88135033159369
 20
-482.61991012380361
 30
0.0
 41
0.9999327861146732
 10
638.99501894235982
 20
-482.55806013212072
 30
0.0
 41
1.0
 10
638.99557094491661
 20
-482.55775977344376
 30
0.0
 41
1.0
 10
638.9961229474734
 20
-482.55745941476675
 30
0.0
 41
1.0
 10
639.11089556335685
 20
-482.49500870572774
 30
0.0
 41
0.9996956420483986
 10
639.2286088891974
 20
-482.4382952387528
 30
0.0
 41
1.0
 10
639.25904929409182
 20
-482.42362926202196
 30
0.0
 41
1.0
 10
639.28948969898624
 20
-482.40896328529112
 30
0.0
 41
1.0
 10
639.39246680572774
 20
-482.35934962684883
 30
0.0
 41
0.9998070570177216
 10
639.49731319466866
 20
-482.31381903994782
 30
0.0
 41
1.0
 10
639.60215958360868
 20
-482.26828845304715
 30
0.0
 41
0.9997827436147947
 10
639.70881252021741
 20
-482.22716728173577
 30
0.0
 41
1.0
 10
639.72803536984986
 20
-482.21975570810298
 30
0.0
 41
1.0
 10
639.74725821948232
 20
-482.21234413447019
 30
0.0
 41
1.0
 10
639.8923568553555
 20
-482.15639981589334
 30
0.0
 41
0.9988031841976632
 10
640.04222721796032
 20
-482.1148997517256
 30
0.0
 41
1.0
 10
640.06714446632282
 20
-482.10800000591894
 30
0.0
 41
1.0
 10
640.09206171468531
 20
-482.10110026011228
 30
0.0
 41
1.0
 10
640.25933174033298
 20
-482.0547821177052
 30
0.0
 41
0.9984748040549815
 10
640.43068864898225
 20
-482.0271878854403
 30
0.0
 41
1.0
 10
640.43542778523158
 20
-482.02642472492676
 30
0.0
 41
1.0
 10
640.44016692148091
 20
-482.02566156441327
 30
0.0
 41
1.0
 10
640.6020455576321
 20
-481.9995936531754
 30
0.0
 41
0.9984436495480068
 10
640.76582030135592
 20
-481.99171569935675
 30
0.0
 41
1.0
 10
640.78751750948788
 20
-481.99067201215706
 30
0.0
 41
1.0
 10
640.80921471761985
 20
-481.98962832495738
 30
0.0
 41
1.0
 10
640.9295950450811
 20
-481.98383774553804
 30
0.0
 41
0.9987954789335418
 10
641.0499632899905
 20
-481.98987427328029
 30
0.0
 41
1.0
 10
641.06992808248469
 20
-481.99087551761886
 30
0.0
 41
1.0
 10
641.08989287497877
 20
-481.99187676195743
 30
0.0
 41
1.0
 10
641.17033153490001
 20
-481.99591080102255
 30
0.0
 41
0.9997941595876715
 10
641.25054031299476
 20
-482.00320486694363
 30
0.0
 41
1.0
 10
641.33074909108871
 20
-482.01049893286466
 30
0.0
 41
0.9998589466238458
 10
641.41066763794322
 20
-482.02048278731468
 30
0.0
 41
1.0
 10
641.44307383975195
 20
-482.02453114423395
 30
0.0
 41
1.0
 10
641.47548004156067
 20
-482.02857950115322
 30
0.0
 41
1.0
 10
641.62021099203298
 20
-482.046660069442
 30
0.0
 41
0.9993495063249405
 10
641.76326223579792
 20
-482.07512577918345
 30
0.0
 41
1.0
 10
641.79619593294888
 20
-482.08167924239802
 30
0.0
 41
1.0
 10
641.82912963009994
 20
-482.0882327056126
 30
0.0
 41
1.0
 10
641.93842345330449
 20
-482.10998103974788
 30
0.0
 41
0.999678871556107
 10
642.04647502526279
 20
-482.13723883911143
 30
0.0
 41
1.0
 10
642.04853802780201
 20
-482.13775926568439
 30
0.0
 41
1.0
 10
642.05060103034123
 20
-482.13827969225741
 30
0.0
 41
1.0
 10
642.15452659721882
 20
-482.16449663847436
 30
0.0
 41
0.9995480654492339
 10
642.25668883244862
 20
-482.19691159509887
 30
0.0
 41
1.0
 10
642.25837847457785
 20
-482.19744770001284
 30
0.0
 41
1.0
 10
642.26006811670709
 20
-482.19798380492682
 30
0.0
 41
1.0
 10
642.35885106767807
 20
-482.22932655172326
 30
0.0
 41
0.9993867959456159
 10
642.45519822612061
 20
-482.26750592101303
 30
0.0
 41
1.0
 10
642.4564411752059
 20
-482.26799846290942
 30
0.0
 41
1.0
 10
642.45768412429118
 20
-482.26849100480587
 30
0.0
 41
1.0
 10
642.55154538456384
 20
-482.30568529030313
 30
0.0
 41
0.99920502565222
 10
642.64214505959649
 20
-482.35023918954153
 30
0.0
 41
1.0
 10
642.64287974230888
 20
-482.35060048200228
 30
0.0
 41
1.0
 10
642.64361442502116
 20
-482.35096177446303
 30
0.0
 41
1.0
 10
642.73274473462948
 20
-482.39479308878003
 30
0.0
 41
0.9990222350741715
 10
642.81765479602359
 20
-482.44632635647861
 30
0.0
 41
1.0
 10
642.81783868130606
 20
-482.44643795938327
 30
0.0
 41
1.0
 10
642.81802256658864
 20
-482.446549562288
 30
0.0
 41
1.0
 10
642.90256485741679
 20
-482.49785962417661
 30
0.0
 41
0.9988642743805339
 10
642.98183939203614
 20
-482.55698381170214
 30
0.0
 41
1.0
 10
643.06111392665525
 20
-482.61610799922749
 30
0.0
 41
0.9987681233311093
 10
643.1341377109311
 20
-482.68279869062786
 30
0.0
 41
1.0
 10
643.13446663889704
 20
-482.68309909184222
 30
0.0
 41
1.0
 10
643.13479556686298
 20
-482.68339949305653
 30
0.0
 41
1.0
 10
643.20847720707013
 20
-482.75069098688505
 30
0.0
 41
0.9987496570898257
 10
643.27507101239735
 20
-482.82500380097184
 30
0.0
 41
1.0
 10
643.27584318215804
 20
-482.82586547433004
 30
0.0
 41
1.0
 10
643.27661535191874
 20
-482.82672714768819
 30
0.0
 41
1.0
 10
643.34475349676711
 20
-482.90276330849088
 30
0.0
 41
0.9988147669826657
 10
643.40517575099273
 20
-482.98506431533434
 30
0.0
 41
1.0
 10
643.40629507707001
 20
-482.9865889466862
 30
0.0
 41
1.0
 10
643.4074144031473
 20
-482.98811357803811
 30
0.0
 41
1.0
 10
643.47007530952783
 20
-483.07346384758574
 30
0.0
 41
0.9989452636216074
 10
643.52464222248932
 20
-483.1642025367438
 30
0.0
 41
1.0
 10
643.52599094857487
 20
-483.16644531776979
 30
0.0
 41
1.0
 10
643.52733967466042
 20
-483.16868809879577
 30
0.0
 41
1.0
 10
643.58460403979348
 20
-483.26391235000654
 30
0.0
 41
0.9991046436070643
 10
643.63361325311496
 20
-483.36363678303184
 30
0.0
 41
1.0
 10
643.63507711470493
 20
-483.36661546310415
 30
0.0
 41
1.0
 10
643.63654097629478
 20
-483.36959414317641
 30
0.0
 41
1.0
 10
643.68847791279643
 20
-483.47527593634692
 30
0.0
 41
0.9992763831101155
 10
643.73223104135172
 20
-483.58459999830291
 30
0.0
 41
1.0
 10
643.73371031101499
 20
-483.58829618583644
 30
0.0
 41
1.0
 10
643.73518958067825
 20
-483.59199237336998
 30
0.0
 41
1.0
 10
643.78190124855996
 20
-483.70870881039309
 30
0.0
 41
0.9994163472883294
 10
643.82053427974972
 20
-483.82834239885699
 30
0.0
 41
1.0
 10
643.82177243199612
 20
-483.83217654263865
 30
0.0
 41
1.0
 10
643.82301058424252
 20
-483.83601068642037
 30
0.0
 41
1.0
 10
643.86289414526004
 20
-483.95951674789956
 30
0.0
 41
0.9997268055891402
 10
643.89696220117253
 20
-484.08475177985179
 30
0.0
 41
1.0
 10
643.89789238144226
 20
-484.08817114596104
 30
0.0
 41
1.0
 10
643.89882256171188
 20
-484.09159051207024
 30
0.0
 41
1.0
 10
643.93103025708456
 20
-484.20998681180259
 30
0.0
 41
0.9996701319000442
 10
643.95711587385495
 20
-484.32988076506592
 30
0.0
 41
1.0
 10
643.98320149062522
 20
-484.44977471832789
 30
0.0
 41
0.999578545110937
 10
644.00228506796475
 20
-484.57098047935807
 30
0.0
 41
1.0
 10
644.00650485013853
 20
-484.59778163412386
 30
0.0
 41
1.0
 10
644.01072463231242
 20
-484.62458278888971
 30
0.0
 41
1.0
 10
644.03729960825126
 20
-484.79336876259367
 30
0.0
 41
0.9979925101216348
 10
644.04232519417758
 20
-484.96416009068571
 30
0.0
 41
1.0
 10
644.04315000660222
 20
-484.99219081416868
 30
0.0
 41
1.0
 10
644.04397481902697
 20
-485.02022153765165
 30
0.0
 41
1.0
 10
644.0473507801039
 20
-485.13495141877866
 30
0.0
 41
0.9995314902263627
 10
644.04370058796542
 20
-485.24967290252937
 30
0.0
 41
1.0
 10
644.04005039582671
 20
-485.36439438628349
 30
0.0
 41
0.9996245486944637
 10
644.03012130069567
 20
-485.47874365741046
 30
0.0
 41
1.0
 10
644.02995825270159
 20
-485.48062141354308
 30
0.0
 41
1.0
 10
644.02979520470763
 20
-485.48249916967575
 30
0.0
 41
1.0
 10
644.01954001358831
 20
-485.60060395306954
 30
0.0
 41
0.999728609500169
 10
644.00379469001712
 20
-485.71810286196211
 30
0.0
 41
1.0
 10
644.00340119736666
 20
-485.72103928666536
 30
0.0
 41
1.0
 10
644.00300770471608
 20
-485.72397571136867
 30
0.0
 41
1.0
 10
643.98647539584363
 20
-485.84734746966927
 30
0.0
 41
0.9998265533969897
 10
643.96535993711052
 20
-485.97001794445987
 30
0.0
 41
1.0
 10
643.96468339497369
 20
-485.97394832296521
 30
0.0
 41
1.0
 10
643.96400685283697
 20
-485.97787870147056
 30
0.0
 41
1.0
 10
643.94153830983032
 20
-486.10840993327292
 30
0.0
 41
0.9999022530850967
 10
643.91542884522096
 20
-486.23826190190834
 30
0.0
 41
1.0
 10
643.91445020405513
 20
-486.24312904429769
 30
0.0
 41
1.0
 10
643.91347156288941
 20
-486.24799618668703
 30
0.0
 41
1.0
 10
643.88540481594987
 20
-486.38758244009477
 30
0.0
 41
0.999952476193701
 10
643.85462184711662
 20
-486.5265949332528
 30
0.0
 41
1.0
 10
643.85334573993987
 20
-486.53235769256116
 30
0.0
 41
1.0
 10
643.852069632763
 20
-486.53812045186953
 30
0.0
 41
1.0
 10
643.81873444957864
 20
-486.68865846363298
 30
0.0
 41
0.9999813588731321
 10
643.7835634487833
 20
-486.83877817628712
 30
0.0
 41
1.0
 10
643.78200952332588
 20
-486.84541076671326
 30
0.0
 41
1.0
 10
643.78045559786847
 20
-486.85204335713934
 30
0.0
 41
1.0
 10
643.74217674615966
 20
-487.0154282506395
 30
0.0
 41
0.9999955237680195
 10
643.70292086817778
 20
-487.17858115425173
 30
0.0
 41
1.0
 10
643.69063923254407
 20
-487.22962534477222
 30
0.0
 41
1.0
 10
643.67835759691025
 20
-487.28066953529265
 30
0.0
 41
1.0
 10
643.61453844766731
 20
-487.54591081991902
 30
0.0
 41
0.9999993604564398
 10
643.55011950050994
 20
-487.81100707055975
 30
0.0
 41
1.0
 10
643.54540066495451
 20
-487.83042597863488
 30
0.0
 41
1.0
 10
643.54068182939898
 20
-487.84984488671
 30
0.0
 41
1.0
 10
643.46682521113758
 20
-488.15377895347211
 30
0.0
 41
0.9999659914735029
 10
643.38796561525248
 20
-488.45645350003139
 30
0.0
 41
1.0
 10
643.38301292632218
 20
-488.47546263721222
 30
0.0
 41
1.0
 10
643.37806023739199
 20
-488.49447177439311
 30
0.0
 41
1.0
 10
643.28929526364675
 20
-488.83516459531194
 30
0.0
 41
0.999944197602719
 10
643.19335223068288
 20
-489.17390602061192
 30
0.0
 41
1.0
 10
643.17665171225747
 20
-489.2328697331393
 30
0.0
 41
1.0
 10
643.15995119383206
 20
-489.29183344566661
 30
0.0
 41
1.0
 10
643.03060712401771
 20
-489.74850229601975
 30
0.0
 41
0.999962512073332
 10
642.89337435669518
 20
-490.20286283001298
 30
0.0
 41
1.0
 10
642.85758441360713
 20
-490.32135885665662
 30
0.0
 41
1.0
 10
642.82179447051919
 20
-490.43985488330026
 30
0.0
 41
1.0
 10
642.74727426648246
 20
-490.68658196138733
 30
0.0
 41
0.9999793386324134
 10
642.66958824334938
 20
-490.93233060060925
 30
0.0
 41
1.0
 10
642.59190222021186
 20
-491.17807923984537
 30
0.0
 41
1.0
 10
642.58112266134117
 20
-491.21209714422002
 30
0.0
 41
1.0
 10
640.73074960807207
 20
-497.09916906668752
 30
0.0
 41
1.0
 10
638.88037655480287
 20
-502.98624098915502
 30
0.0
 41
1.0
 10
637.9191198647793
 20
-502.98624098915502
 30
0.0
 41
1.0
 10
636.95786317475574
 20
-502.98624098915502
 30
0.0
 41
1.0
 10
638.57680795343413
 20
-497.83821248736558
 30
0.0
 41
1.0
 10
640.19575273211262
 20
-492.69018398557614
 30
0.0
 41
1.0
 10
640.24091855528945
 20
-492.54615276329815
 30
0.0
 41
1.0
 10
640.28608437846628
 20
-492.40212154102016
 30
0.0
 41
1.0
 10
640.45638879582714
 20
-491.85903051186369
 30
0.0
 41
0.9999911657918086
 10
640.62212160750414
 20
-491.31452698051021
 30
0.0
 41
1.0
 10
640.65181755100502
 20
-491.2169630404581
 30
0.0
 41
1.0
 10
640.68151349450602
 20
-491.11939910040599
 30
0.0
 41
1.0
 10
640.78785441918421
 20
-490.77002344914717
 30
0.0
 41
0.9999952428124008
 10
640.89203800850942
 20
-490.41999842479697
 30
0.0
 41
1.0
 10
640.8970974788358
 20
-490.40300015054197
 30
0.0
 41
1.0
 10
640.9021569491623
 20
-490.38600187628697
 30
0.0
 41
1.0
 10
640.99622159783041
 20
-490.06997340046047
 30
0.0
 41
0.999993168752495
 10
641.08794743570797
 20
-489.75325818717693
 30
0.0
 41
1.0
 10
641.09288270016782
 20
-489.73621747790503
 30
0.0
 41
1.0
 10
641.09781796462755
 20
-489.71917676863319
 30
0.0
 41
1.0
 10
641.17967327358292
 20
-489.43654297390208
 30
0.0
 41
0.999989384080918
 10
641.25892050003847
 20
-489.15316684465984
 30
0.0
 41
1.0
 10
641.33816772649641
 20
-488.86979071540941
 30
0.0
 41
0.9999833980066842
 10
641.41414396723803
 20
-488.58552013238153
 30
0.0
 41
1.0
 10
641.42314790395949
 20
-488.55183125390579
 30
0.0
 41
1.0
 10
641.43215184068106
 20
-488.51814237543005
 30
0.0
 41
1.0
 10
641.50111638954809
 20
-488.26010654313075
 30
0.0
 41
0.9999233658063259
 10
641.56367136076881
 20
-488.00044238440682
 30
0.0
 41
1.0
 10
641.62622633198907
 20
-487.74077822568438
 30
0.0
 41
1.0
 10
641.66570975084664
 20
-487.57697156125823
 30
0.0
 41
1.0
 10
641.67068835482337
 20
-487.55631659939036
 30
0.0
 41
1.0
 10
641.67566695879998
 20
-487.53566163752254
 30
0.0
 41
1.0
 10
641.70519316970376
 20
-487.41316489683368
 30
0.0
 41
0.9999868670863927
 10
641.7334622537004
 20
-487.29037195118667
 30
0.0
 41
1.0
 10
641.73735974085969
 20
-487.27344236376297
 30
0.0
 41
1.0
 10
641.74125722801898
 20
-487.25651277633926
 30
0.0
 41
1.0
 10
641.76173133769748
 20
-487.16757900553745
 30
0.0
 41
0.999977817334674
 10
641.78101893581197
 20
-487.07838038831073
 30
0.0
 41
1.0
 10
641.80030653392839
 20
-486.98918177107589
 30
0.0
 41
0.9999602692867003
 10
641.81800089256103
 20
-486.89965348263991
 30
0.0
 41
1.0
 10
641.82120472463725
 20
-486.88344302776125
 30
0.0
 41
1.0
 10
641.82440855671348
 20
-486.86723257288259
 30
0.0
 41
1.0
 10
641.84851057949948
 20
-486.74528337468473
 30
0.0
 41
0.9995617985320666
 10
641.86535392671817
 20
-486.62212162697892
 30
0.0
 41
1.0
 10
641.86781841662446
 20
-486.60410080961333
 30
0.0
 41
1.0
 10
641.87028290653063
 20
-486.58607999224768
 30
0.0
 41
1.0
 10
641.89056616757887
 20
-486.43776494254701
 30
0.0
 41
0.999112141063939
 10
641.89829152116727
 20
-486.28826884374018
 30
0.0
 41
1.0
 10
641.89921031119184
 20
-486.2704890071646
 30
0.0
 41
1.0
 10
641.90012910121629
 20
-486.25270917058901
 30
0.0
 41
1.0
 10
641.90601687475555
 20
-486.13877274493456
 30
0.0
 41
0.9989792494905486
 10
641.90159778263819
 20
-486.02476990903563
 30
0.0
 41
1.0
 10
641.90094981076948
 20
-486.0080536631076
 30
0.0
 41
1.0
 10
641.90030183890076
 20
-485.99133741717958
 30
0.0
 41
1.0
 10
641.89717869052083
 20
-485.9107670731363
 30
0.0
 41
0.9997820295394658
 10
641.89069469314518
 20
-485.83039735139323
 30
0.0
 41
1.0
 10
641.88421069576953
 20
-485.75002762964965
 30
0.0
 41
0.9998335105974495
 10
641.87479850025784
 20
-485.6699480131997
 30
0.0
 41
1.0
 10
641.87320357558144
 20
-485.65637828271639
 30
0.0
 41
1.0
 10
641.87160865090505
 20
-485.64280855223308
 30
0.0
 41
1.0
 10
641.85900660604068
 20
-485.53558947481724
 30
0.0
 41
0.9996876457879612
 10
641.84106269324241
 20
-485.42913404710146
 30
0.0
 41
1.0
 10
641.83883103009725
 20
-485.4158943118602
 30
0.0
 41
1.0
 10
641.83659936695199
 20
-485.40265457661894
 30
0.0
 41
1.0
 10
641.82280354553086
 20
-485.3208084326597
 30
0.0
 41
0.9995547496494915
 10
641.80415022363809
 20
-485.23993093546778
 30
0.0
 41
1.0
 10
641.80377626676682
 20
-485.2383095247626
 30
0.0
 41
1.0
 10
641.80340230989555
 20
-485.23668811405742
 30
0.0
 41
1.0
 10
641.78549690174555
 20
-485.15905343827694
 30
0.0
 41
0.9994899427174817
 10
641.76267199306608
 20
-485.08272015544219
 30
0.0
 41
1.0
 10
641.76221346632553
 20
-485.08118670565432
 30
0.0
 41
1.0
 10
641.76175493958499
 20
-485.07965325586645
 30
0.0
 41
1.0
 10
641.73984708438707
 20
-485.00638687260874
 30
0.0
 41
0.9993784877590737
 10
641.7128314492802
 20
-484.93484616744877
 30
0.0
 41
1.0
 10
641.71229975830352
 20
-484.93343818472863
 30
0.0
 41
1.0
 10
641.71176806732672
 20
-484.93203020200843
 30
0.0
 41
1.0
 10
641.68581581417368
 20
-484.86330546228987
 30
0.0
 41
0.9992430832254948
 10
641.65459927901429
 20
-484.79680631022143
 30
0.0
 41
1.0
 10
641.65401716295764
 20
-484.79556625510384
 30
0.0
 41
1.0
 10
641.65343504690088
 20
-484.7943261999863
 30
0.0
 41
1.0
 10
641.62338274385468
 20
-484.7303071581527
 30
0.0
 41
0.9990789632798546
 10
641.5879521170782
 20
-484.66910054640357
 30
0.0
 41
1.0
 10
641.58735641089652
 20
-484.66807146054504
 30
0.0
 41
1.0
 10
641.58676070471495
 20
-484.6670423746865
 30
0.0
 41
1.0
 10
641.55252149030173
 20
-484.60789393465427
 30
0.0
 41
0.9988874801120894
 10
641.51286221426949
 20
-484.55223422223605
 30
0.0
 41
1.0
 10
641.51230668820517
 20
-484.5514545705613
 30
0.0
 41
1.0
 10
641.51175116214097
 20
-484.55067491888656
 30
0.0
 41
1.0
 10
641.47320293823725
 20
-484.49657450981806
 30
0.0
 41
0.9986762060693166
 10
641.42930046696119
 20
-484.44672079537906
 30
0.0
 41
1.0
 10
641.42885650662902
 20
-484.44621665356254
 30
0.0
 41
1.0
 10
641.42841254629695
 20
-484.44571251174602
 30
0.0
 41
1.0
 10
641.38539799568503
 20
-484.3968670809399
 30
0.0
 41
0.9984621642487579
 10
641.3372404389072
 20
-484.35308378046875
 30
0.0
 41
1.0
 10
641.33699380439089
 20
-484.35285954830556
 30
0.0
 41
1.0
 10
641.33674716987468
 20
-484.35263531614231
 30
0.0
 41
1.0
 10
641.28908288212961
 20
-484.30930047999777
 30
0.0
 41
0.9982724693851571
 10
641.23666425028796
 20
-484.27185612947994
 30
0.0
 41
1.0
 10
641.18424561844643
 20
-484.23441177896217
 30
0.0
 41
0.9981399180158369
 10
641.12765955505347
 20
-484.20362525951901
 30
0.0
 41
1.0
 10
641.12761389297486
 20
-484.20360041636172
 30
0.0
 41
1.0
 10
641.12756823089626
 20
-484.20357557320449
 30
0.0
 41
1.0
 10
641.07089084334598
 20
-484.17273936744664
 30
0.0
 41
0.99809270868367
 10
641.0108454922796
 20
-484.14912255859417
 30
0.0
 41
1.0
 10
641.01040532256798
 20
-484.14894943271918
 30
0.0
 41
1.0
 10
641.00996515285624
 20
-484.14877630684418
 30
0.0
 41
1.0
 10
640.94903946236707
 20
-484.1248132462419
 30
0.0
 41
0.9981411356561837
 10
640.88565094096737
 20
-484.10844060473624
 30
0.0
 41
1.0
 10
640.88476882426585
 20
-484.10821276253068
 30
0.0
 41
1.0
 10
640.88388670756422
 20
-484.10798492032518
 30
0.0
 41
1.0
 10
640.81873395276182
 20
-484.09115659440863
 30
0.0
 41
0.9983031812934966
 10
640.75206652376789
 20
-484.08201723323253
 30
0.0
 41
1.0
 10
640.74319549836378
 20
-484.08080111456115
 30
0.0
 41
1.0
 10
640.73432447295977
 20
-484.07958499588983
 30
0.0
 41
1.0
 10
640.67997483045554
 20
-484.07213426589874
 30
0.0
 41
0.9983887708263493
 10
640.62513098116244
 20
-484.07088959226542
 30
0.0
 41
1.0
 10
640.61706757594413
 20
-484.07070659439057
 30
0.0
 41
1.0
 10
640.60900417072583
 20
-484.07052359651567
 30
0.0
 41
1.0
 10
640.57028713187083
 20
-484.06964491863209
 30
0.0
 41
0.9998869563080043
 10
640.53156117866695
 20
-484.06993078799178
 30
0.0
 41
1.0
 10
640.4928352254658
 20
-484.07021665735147
 30
0.0
 41
0.9999972320045258
 10
640.45411104625566
 20
-484.0706847568805
 30
0.0
 41
1.0
 10
640.43475802967464
 20
-484.0709186969699
 30
0.0
 41
1.0
 10
640.4154050130935
 20
-484.0711526370593
 30
0.0
 41
1.0
 10
640.33797480072371
 20
-484.07208861676713
 30
0.0
 41
0.99973049450878
 10
640.26067149448454
 20
-484.07661771055319
 30
0.0
 41
1.0
 10
640.25162185278054
 20
-484.07714791654314
 30
0.0
 41
1.0
 10
640.24257221107666
 20
-484.07767812253303
 30
0.0
 41
1.0
 10
640.1471696214287
 20
-484.08326762829904
 30
0.0
 41
0.9997888306414524
 10
640.05207728558719
 20
-484.09277259278809
 30
0.0
 41
1.0
 10
640.04335622401481
 20
-484.09364430742016
 30
0.0
 41
1.0
 10
640.03463516244244
 20
-484.09451602205229
 30
0.0
 41
1.0
 10
639.92210070345504
 20
-484.10576441580554
 30
0.0
 41
0.9984170238191142
 10
639.81154155610375
 20
-484.12958049774119
 30
0.0
 41
1.0
 10
639.77516042511706
 20
-484.13741753354736
 30
0.0
 41
1.0
 10
639.73877929413038
 20
-484.14525456935354
 30
0.0
 41
1.0
 10
639.62358822570832
 20
-484.17006843586336
 30
0.0
 41
0.997659285419931
 10
639.51286005930365
 20
-484.21036711301042
 30
0.0
 41
1.0
 10
639.4021318929
 20
-484.25066579015709
 30
0.0
 41
0.999325507435243
 10
639.29466009410953
 20
-484.29898268864923
 30
0.0
 41
1.0
 10
639.2900349151854
 20
-484.30106206484936
 30
0.0
 41
1.0
 10
639.28540973626127
 20
-484.30314144104943
 30
0.0
 41
1.0
 10
639.16868757962379
 20
-484.35561709194138
 30
0.0
 41
0.9976475078274854
 10
639.06024023531324
 20
-484.42356508159992
 30
0.0
 41
1.0
 10
639.04189784117875
 20
-484.43505756041424
 30
0.0
 41
1.0
 10
639.02355544704426
 20
-484.44655003922855
 30
0.0
 41
1.0
 10
638.93935325549262
 20
-484.49930715999665
 30
0.0
 41
0.9995131336406868
 10
638.85860554053431
 20
-484.55721337195041
 30
0.0
 41
1.0
 10
638.77785782557635
 20
-484.615119583904
 30
0.0
 41
0.9995810107605753
 10
638.70059617784659
 20
-484.67760126637074
 30
0.0
 41
1.0
 10
638.69762614663728
 20
-484.68000313783466
 30
0.0
 41
1.0
 10
638.69465611542796
 20
-484.68240500929858
 30
0.0
 41
1.0
 10
638.61145440528037
 20
-484.74969043469247
 30
0.0
 41
0.9996617837955066
 10
638.53186371814718
 20
-484.82121089025048
 30
0.0
 41
1.0
 10
638.51973296726806
 20
-484.83211162324301
 30
0.0
 41
1.0
 10
638.50760221638905
 20
-484.84301235623553
 30
0.0
 41
1.0
 10
638.43932668899231
 20
-484.90436497170799
 30
0.0
 41
0.9997267750051818
 10
638.37399318070857
 20
-484.96884150823337
 30
0.0
 41
1.0
 10
638.30865967242357
 20
-485.03331804475988
 30
0.0
 41
0.9999667288960975
 10
638.24438672927181
 20
-485.09885185165962
 30
0.0
 41
1.0
 10
638.17555928149989
 20
-485.16902951041459
 30
0.0
 41
1.0
 10
638.10673183372796
 20
-485.23920716916962
 30
0.0
 41
1.0
 10
637.90480399503167
 20
-485.44509629357992
 30
0.0
 41
0.9988205335175163
 10
637.72379837805295
 20
-485.66960052563951
 30
0.0
 41
1.0
 10
637.69315841314756
 20
-485.70760377607019
 30
0.0
 41
1.0
 10
637.66251844824228
 20
-485.74560702650092
 30
0.0
 41
1.0
 10
637.42023290145312
 20
-486.04611775942169
 30
0.0
 41
0.9997077826754678
 10
637.19275495034708
 20
-486.35798755363913
 30
0.0
 41
1.0
 10
637.19103153521712
 20
-486.36035033701796
 30
0.0
 41
1.0
 10
637.18930812008716
 20
-486.36271312039685
 30
0.0
 41
1.0
 10
636.95838333872143
 20
-486.67930848137166
 30
0.0
 41
0.9989147567079043
 10
636.75791983583792
 20
-487.01601794255635
 30
0.0
 41
1.0
 10
636.73317869053017
 20
-487.05757452311019
 30
0.0
 41
1.0
 10
636.70843754522241
 20
-487.09913110366404
 30
0.0
 41
1.0
 10
636.55322624658538
 20
-487.3598324881163
 30
0.0
 41
0.999747659818235
 10
636.40988125907666
 20
-487.62724223669716
 30
0.0
 41
1.0
 10
636.26653627156725
 20
-487.8946519852791
 30
0.0
 41
0.9996258967110363
 10
636.13802801963584
 20
-488.16949992190268
 30
0.0
 41
1.0
 10
636.12482811018504
 20
-488.19773132200044
 30
0.0
 41
1.0
 10
636.11162820073434
 20
-488.22596272209825
 30
0.0
 41
1.0
 10
635.97141947973523
 20
-488.52583512004981
 30
0.0
 41
0.9998735413946815
 10
635.84081813301555
 20
-488.83001471951604
 30
0.0
 41
1.0
 10
635.83737530495478
 20
-488.83803330498142
 30
0.0
 41
1.0
 10
635.83393247689389
 20
-488.84605189044686
 30
0.0
 41
1.0
 10
635.71021678629495
 20
-489.13419431898433
 30
0.0
 41
0.9999377418857428
 10
635.59296198412039
 20
-489.42502578665869
 30
0.0
 41
1.0
 10
635.47570718194618
 20
-489.71585725433249
 30
0.0
 41
0.9999508299503743
 10
635.36424323857102
 20
-490.00895693114796
 30
0.0
 41
1.0
 10
635.36116246990696
 20
-490.01705795711587
 30
0.0
 41
1.0
 10
635.35808170124301
 20
-490.02515898308377
 30
0.0
 41
1.0
 10
635.24045622053995
 20
-490.33446071183471
 30
0.0
 41
0.999960922842688
 10
635.12831761766427
 20
-490.64579372785511
 30
0.0
 41
1.0
 10
635.12536160731588
 20
-490.65400056826121
 30
0.0
 41
1.0
 10
635.12240559696738
 20
-490.66220740866731
 30
0.0
 41
1.0
 10
635.00435497339458
 20
-490.98995410550083
 30
0.0
 41
0.9999674607408721
 10
634.89160744732578
 20
-491.31956272549724
 30
0.0
 41
1.0
 10
634.84020905676266
 20
-491.46982192119117
 30
0.0
 41
1.0
 10
634.78881066619942
 20
-491.6200811168851
 30
0.0
 41
1.0
 10
634.67280005944235
 20
-491.95922909938588
 30
0.0
 41
0.9999287532307555
 10
634.56491865547241
 20
-492.30104983835952
 30
0.0
 41
1.0
 10
634.51844139934769
 20
-492.44831238268466
 30
0.0
 41
1.0
 10
634.47196414322298
 20
-492.59557492700986
 30
0.0
 41
1.0
 10
634.45703725150611
 20
-492.64287057732076
 30
0.0
 41
0.999999822414779
 10
634.44216674277118
 20
-492.69018398557614
 30
0.0
 41
1.0
 10
632.82151060597573
 20
-497.83821248736558
 30
0.0
 41
1.0
 10
631.20085446918029
 20
-502.98624098915502
 30
0.0
 41
1.0
 10
630.29554602528935
 20
-502.98624098915502
 30
0.0
 41
1.0
 10
629.39023758139842
 20
-502.98624098915502
 30
0.0
 41
1.0
 10
631.24232199278447
 20
-497.09916906668752
 30
0.0
 41
1.0
 10
633.09440640417051
 20
-491.21209714422002
 30
0.0
 41
1.0
 10
633.10452816247323
 20
-491.18005393077033
 30
0.0
 41
1.0
 10
633.17713583132297
 20
-490.94975438894448
 30
0.0
 41
1.0
 10
633.24974350016851
 20
-490.71945484713217
 30
0.0
 41
0.9999825681965486
 10
633.31962653937558
 20
-490.48831395208214
 30
0.0
 41
1.0
 10
633.36791760154051
 20
-490.32858936857281
 30
0.0
 41
1.0
 10
633.41620866370533
 20
-490.16886478506348
 30
0.0
 41
1.0
 10
633.513361017021
 20
-489.84752956329226
 30
0.0
 41
0.9999672528959167
 10
633.60529982264507
 20
-489.52466401770369
 30
0.0
 41
1.0
 10
633.60808870631581
 20
-489.51487017231017
 30
0.0
 41
1.0
 10
633.61087758998656
 20
-489.50507632691665
 30
0.0
 41
1.0
 10
633.69723862827004
 20
-489.20179847211148
 30
0.0
 41
0.9999899749129332
 10
633.7808802378031
 20
-488.89775938366495
 30
0.0
 41
1.0
 10
633.79098615682119
 20
-488.86102414598463
 30
0.0
 41
1.0
 10
633.80109207583916
 20
-488.82428890830437
 30
0.0
 41
1.0
 10
633.86452184733764
 20
-488.59372029521325
 30
0.0
 41
0.9999214200504235
 10
633.92215127571558
 20
-488.36163395300321
 30
0.0
 41
1.0
 10
633.9349171278966
 20
-488.31022306760491
 30
0.0
 41
1.0
 10
633.94768298007773
 20
-488.25881218220661
 30
0.0
 41
1.0
 10
633.9797807040934
 20
-488.12954761079311
 30
0.0
 41
0.9999828681669321
 10
634.01036295608867
 20
-487.99991613632642
 30
0.0
 41
1.0
 10
634.04094520808417
 20
-487.87028466185853
 30
0.0
 41
0.9999389844477611
 10
634.06865619687358
 20
-487.74000920595768
 30
0.0
 41
1.0
 10
634.07579394059371
 20
-487.70645310212086
 30
0.0
 41
1.0
 10
634.08293168431373
 20
-487.67289699828405
 30
0.0
 41
1.0
 10
634.12491816054296
 20
-487.47550933471126
 30
0.0
 41
0.99989336994409
 10
634.16112242494489
 20
-487.27697972695455
 30
0.0
 41
1.0
 10
634.16249525016156
 20
-487.26945170625595
 30
0.0
 41
1.0
 10
634.16386807537833
 20
-487.26192368555735
 30
0.0
 41
1.0
 10
634.20281799021359
 20
-487.04833803640395
 30
0.0
 41
0.9996850305193953
 10
634.23100166647248
 20
-486.83306703096548
 30
0.0
 41
1.0
 10
634.23299669984158
 20
-486.81782867684495
 30
0.0
 41
1.0
 10
634.23499173321068
 20
-486.80259032272443
 30
0.0
 41
1.0
 10
634.26239959566976
 20
-486.59324509556973
 30
0.0
 41
0.9994697936706855
 10
634.2761241548892
 20
-486.3825599002397
 30
0.0
 41
1.0
 10
634.27660122413886
 20
-486.37523642802853
 30
0.0
 41
1.0
 10
634.27707829338851
 20
-486.36791295581742
 30
0.0
 41
1.0
 10
634.28984871410887
 20
-486.17187470490899
 30
0.0
 41
0.9991804893136941
 10
634.28672039783601
 20
-485.97544585493551
 30
0.0
 41
1.0
 10
634.28663651901388
 20
-485.97017905352271
 30
0.0
 41
1.0
 10
634.28655264019176
 20
-485.96491225210991
 30
0.0
 41
1.0
 10
634.28359208156326
 20
-485.7790170049621
 30
0.0
 41
0.9988448329321643
 10
634.2628005359395
 20
-485.59426441512869
 30
0.0
 41
1.0
 10
634.2612064622366
 20
-485.58009955935836
 30
0.0
 41
1.0
 10
634.2596123885337
 20
-485.56593470358808
 30
0.0
 41
1.0
 10
634.24200899031587
 20
-485.40951182529642
 30
0.0
 41
0.9985503209458844
 10
634.20769271801623
 20
-485.25588764120607
 30
0.0
 41
1.0
 10
634.20010672594503
 20
-485.22192731380585
 30
0.0
 41
1.0
 10
634.19252073387372
 20
-485.18796698640568
 30
0.0
 41
1.0
 10
634.1733764457166
 20
-485.10226345711663
 30
0.0
 41
0.9991036781370035
 10
634.14705158406537
 20
-485.01848636979184
 30
0.0
 41
1.0
 10
634.14306935860986
 20
-485.00581320728298
 30
0.0
 41
1.0
 10
634.13908713315448
 20
-484.99314004477412
 30
0.0
 41
1.0
 10
634.1207267224147
 20
-484.93470928246825
 30
0.0
 41
0.9998874504368429
 10
634.10062151473585
 20
-484.87685568024358
 30
0.0
 41
1.0
 10
634.08051630705745
 20
-484.81900207802056
 30
0.0
 41
0.9994041637543957
 10
634.05646769412317
 20
-484.7626733741306
 30
0.0
 41
1.0
 10
634.05227090989899
 20
-484.75284330964831
 30
0.0
 41
1.0
 10
634.04807412567482
 20
-484.74301324516603
 30
0.0
 41
1.0
 10
634.02019529468032
 20
-484.67771307919901
 30
0.0
 41
0.9991846840702112
 10
633.98713893798742
 20
-484.61487504791921
 30
0.0
 41
1.0
 10
633.98600233159254
 20
-484.61271443146472
 30
0.0
 41
1.0
 10
633.98486572519766
 20
-484.61055381501029
 30
0.0
 41
1.0
 10
633.95408258129464
 20
-484.55203701663942
 30
0.0
 41
0.9989253167923229
 10
633.91801315723933
 20
-484.49662208824873
 30
0.0
 41
1.0
 10
633.91695903256505
 20
-484.49500259348639
 30
0.0
 41
1.0
 10
633.91590490789088
 20
-484.49338309872405
 30
0.0
 41
1.0
 10
633.88194373318447
 20
-484.44120715985861
 30
0.0
 41
0.9986467172836555
 10
633.8427465805471
 20
-484.39284112622897
 30
0.0
 41
1.0
 10
633.84187245184671
 20
-484.391762523951
 30
0.0
 41
1.0
 10
633.84099832314621
 20
-484.39068392167309
 30
0.0
 41
1.0
 10
633.80354942790962
 20
-484.34447509259951
 30
0.0
 41
0.9984001104268696
 10
633.76112269739247
 20
-484.30278998523056
 30
0.0
 41
1.0
 10
633.76053555928286
 20
-484.30221311034904
 30
0.0
 41
1.0
 10
633.75994842117325
 20
-484.30163623546753
 30
0.0
 41
1.0
 10
633.71869596687509
 20
-484.26110487786156
 30
0.0
 41
0.9982442159082566
 10
633.67293986553977
 20
-484.22573631660157
 30
0.0
 41
1.0
 10
633.67272507007806
 20
-484.2255702839584
 30
0.0
 41
1.0
 10
633.67251027461646
 20
-484.22540425131524
 30
0.0
 41
1.0
 10
633.62718376420412
 20
-484.19036775534141
 30
0.0
 41
0.9982450060836877
 10
633.57803278513234
 20
-484.16093597230781
 30
0.0
 41
1.0
 10
633.52888180606021
 20
-484.13150418927398
 30
0.0
 41
0.9983922639634636
 10
633.47671549989536
 20
-484.10782455461998
 30
0.0
 41
1.0
 10
633.47648862257108
 20
-484.10772156913868
 30
0.0
 41
1.0
 10
633.4762617452468
 20
-484.10761858365731
 30
0.0
 41
1.0
 10
633.4236416844326
 20
-484.08373297804019
 30
0.0
 41
0.9986517147149912
 10
633.36882871156513
 20
-484.06543185891866
 30
0.0
 41
1.0
 10
633.36815079013729
 20
-484.06520551248718
 30
0.0
 41
1.0
 10
633.36747286870946
 20
-484.06497916605576
 30
0.0
 41
1.0
 10
633.3113040529862
 20
-484.04622535407123
 30
0.0
 41
0.9989435598956462
 10
633.25365066583481
 20
-484.03270765183674
 30
0.0
 41
1.0
 10
633.25257054625285
 20
-484.03245440158366
 30
0.0
 41
1.0
 10
633.2514904266709
 20
-484.03220115133058
 30
0.0
 41
1.0
 10
633.19167680035605
 20
-484.01817694859
 30
0.0
 41
0.9992249241239992
 10
633.1309452914586
 20
-484.00890160587483
 30
0.0
 41
1.0
 10
633.12953160316761
 20
-484.008685697467
 30
0.0
 41
1.0
 10
633.12811791487673
 20
-484.00846978905918
 30
0.0
 41
1.0
 10
633.06455902939615
 20
-483.99876262952813
 30
0.0
 41
0.9994396597833488
 10
633.00049309285987
 20
-483.99332970718257
 30
0.0
 41
1.0
 10
632.98135242538228
 20
-483.99170653946396
 30
0.0
 41
1.0
 10
632.9622117579047
 20
-483.9900833717453
 30
0.0
 41
1.0
 10
632.85986448641233
 20
-483.9814041139623
 30
0.0
 41
0.998769340312148
 10
632.7571608628258
 20
-483.98290717741497
 30
0.0
 41
1.0
 10
632.74690652859795
 20
-483.98305724918919
 30
0.0
 41
1.0
 10
632.73665219437009
 20
-483.98320732096334
 30
0.0
 41
1.0
 10
632.62709642819084
 20
-483.98481066525079
 30
0.0
 41
0.9989753644966204
 10
632.51813442817524
 20
-483.99631367217592
 30
0.0
 41
1.0
 10
632.40917242815885
 20
-484.0078166791011
 30
0.0
 41
0.9983190067306073
 10
632.30227361719312
 20
-484.03185167088799
 30
0.0
 41
1.0
 10
632.29337266558673
 20
-484.03385294945065
 30
0.0
 41
1.0
 10
632.28447171398034
 20
-484.03585422801325
 30
0.0
 41
1.0
 10
632.15977099980239
 20
-484.06389177692523
 30
0.0
 41
0.9985539388303234
 10
632.03880124612522
 20
-484.10515545297051
 30
0.0
 41
1.0
 10
632.03645581516435
 20
-484.10595549678658
 30
0.0
 41
1.0
 10
632.03411038420336
 20
-484.10675554060265
 30
0.0
 41
1.0
 10
631.90844976860603
 20
-484.1496193042795
 30
0.0
 41
0.9988468746494015
 10
631.78747942630571
 20
-484.20433738934179
 30
0.0
 41
1.0
 10
631.78429660431641
 20
-484.20577706390202
 30
0.0
 41
1.0
 10
631.78111378232711
 20
-484.20721673846219
 30
0.0
 41
1.0
 10
631.65377779605024
 20
-484.26481417264409
 30
0.0
 41
0.9991322885919411
 10
631.53167721199281
 20
-484.33280950482623
 30
0.0
 41
1.0
 10
631.51407520094813
 20
-484.34261170681646
 30
0.0
 41
1.0
 10
631.49647318990333
 20
-484.35241390880674
 30
0.0
 41
1.0
 10
631.39429650884688
 20
-484.40931402458705
 30
0.0
 41
0.9993860037849469
 10
631.29635550477417
 20
-484.47323004017517
 30
0.0
 41
1.0
 10
631.29073719192206
 20
-484.47689653486998
 30
0.0
 41
1.0
 10
631.28511887906984
 20
-484.48056302956479
 30
0.0
 41
1.0
 10
631.19841450070089
 20
-484.53714605576357
 30
0.0
 41
0.9998821494954695
 10
631.11348812488791
 20
-484.59636428584042
 30
0.0
 41
1.0
 10
631.02856174907424
 20
-484.65558251591784
 30
0.0
 41
0.9997976482743917
 10
630.94608611866943
 20
-484.71816892396055
 30
0.0
 41
1.0
 10
630.93144985386562
 20
-484.72927561373956
 30
0.0
 41
1.0
 10
630.91681358906169
 20
-484.74038230351857
 30
0.0
 41
1.0
 10
630.80506542904777
 20
-484.82518209112027
 30
0.0
 41
0.9998091630799871
 10
630.69671515102027
 20
-484.91428244182157
 30
0.0
 41
1.0
 10
630.6837093985431
 20
-484.92497754226753
 30
0.0
 41
1.0
 10
630.67070364606593
 20
-484.93567264271348
 30
0.0
 41
1.0
 10
630.53634186308375
 20
-485.04616319430693
 30
0.0
 41
0.9995035112317284
 10
630.40920598532034
 20
-485.16489701132173
 30
0.0
 41
1.0
 10
630.39955867493245
 20
-485.17390675748027
 30
0.0
 41
1.0
 10
630.38991136454445
 20
-485.18291650363881
 30
0.0
 41
1.0
 10
630.26648830177999
 20
-485.29818287539382
 30
0.0
 41
0.9994630424298919
 10
630.15087989599647
 20
-485.42128561862864
 30
0.0
 41
1.0
 10
630.14719705722564
 20
-485.42520719814098
 30
0.0
 41
1.0
 10
630.14351421845492
 20
-485.42912877765332
 30
0.0
 41
1.0
 10
630.03527149021329
 20
-485.5443883618629
 30
0.0
 41
0.9995160693750395
 10
629.93440546068052
 20
-485.66615577973641
 30
0.0
 41
1.0
 10
629.93247174060025
 20
-485.66849020394409
 30
0.0
 41
1.0
 10
629.93053802051986
 20
-485.67082462815176
 30
0.0
 41
1.0
 10
629.83353943114844
 20
-485.78792319760919
 30
0.0
 41
0.9996561470515145
 10
629.7428132124827
 20
-485.90994596005817
 30
0.0
 41
1.0
 10
629.73665554657941
 20
-485.91822774910224
 30
0.0
 41
1.0
 10
629.73049788067624
 20
-485.92650953814626
 30
0.0
 41
1.0
 10
629.6520869938156
 20
-486.03196872250885
 30
0.0
 41
0.9998349055173998
 10
629.57755971188453
 20
-486.14020730617074
 30
0.0
 41
1.0
 10
629.50303242995187
 20
-486.2484458898349
 30
0.0
 41
0.9999728109562802
 10
629.43010953404507
 20
-486.35777181538498
 30
0.0
 41
1.0
 10
629.42879431863184
 20
-486.35974358488966
 30
0.0
 41
1.0
 10
629.42747910321873
 20
-486.36171535439439
 30
0.0
 41
1.0
 10
629.35192577647524
 20
-486.47498481896946
 30
0.0
 41
0.9999972147389294
 10
629.27690796609238
 20
-486.58860966181862
 30
0.0
 41
1.0
 10
629.27193642347936
 20
-486.59613975027685
 30
0.0
 41
1.0
 10
629.26696488086634
 20
-486.60366983873507
 30
0.0
 41
1.0
 10
629.18200398524755
 20
-486.73235485851546
 30
0.0
 41
0.9999371979006757
 10
629.09994863584461
 20
-486.86291177229077
 30
0.0
 41
1.0
 10
629.09643975148197
 20
-486.86849470035725
 30
0.0
 41
1.0
 10
629.09293086711932
 20
-486.87407762842372
 30
0.0
 41
1.0
 10
629.00385774899098
 20
-487.01580039833198
 30
0.0
 41
0.9998272025609883
 10
628.92011435810878
 20
-487.16073627507433
 30
0.0
 41
1.0
 10
628.90489918608466
 20
-487.18706938953119
 30
0.0
 41
1.0
 10
628.88968401406055
 20
-487.21340250398805
 30
0.0
 41
1.0
 10
628.77551027912943
 20
-487.41100460964549
 30
0.0
 41
0.9995217214838125
 10
628.67377058957322
 20
-487.61528693750904
 30
0.0
 41
1.0
 10
628.66612702693851
 20
-487.63063438721133
 30
0.0
 41
1.0
 10
628.6584834643038
 20
-487.64598183691368
 30
0.0
 41
1.0
 10
628.57157817171503
 20
-487.82047829499322
 30
0.0
 41
0.9998269762608654
 10
628.49122370544296
 20
-487.99808658171673
 30
0.0
 41
1.0
 10
628.41086923917157
 20
-488.1756948684386
 30
0.0
 41
0.9998944747388033
 10
628.33570844460746
 20
-488.35556259406633
 30
0.0
 41
1.0
 10
628.33075477501643
 20
-488.36741724898349
 30
0.0
 41
1.0
 10
628.3258011054254
 20
-488.37927190390064
 30
0.0
 41
1.0
 10
628.24515404487181
 20
-488.57226884392094
 30
0.0
 41
0.999950673441248
 10
628.16835651596716
 20
-488.76682964877966
 30
0.0
 41
1.0
 10
628.15375655069784
 20
-488.80381757058149
 30
0.0
 41
1.0
 10
628.13915658542862
 20
-488.84080549238331
 30
0.0
 41
1.0
 10
628.0915589870624
 20
-488.96139045363867
 30
0.0
 41
0.999991239393829
 10
628.04497254304101
 20
-489.08236965633159
 30
0.0
 41
1.0
 10
627.9983860990169
 20
-489.20334885903185
 30
0.0
 41
0.9999927113929799
 10
627.95272480462188
 20
-489.32468026653612
 30
0.0
 41
1.0
 10
627.93875637322549
 20
-489.36179724853167
 30
0.0
 41
1.0
 10
627.92478794182898
 20
-489.39891423052723
 30
0.0
 41
1.0
 10
627.85118978463902
 20
-489.59447960202783
 30
0.0
 41
0.9999487550948191
 10
627.78156615966691
 20
-489.79149496721158
 30
0.0
 41
1.0
 10
627.75797254972895
 20
-489.85825827750739
 30
0.0
 41
1.0
 10
627.73437893979099
 20
-489.9250215878032
 30
0.0
 41
1.0
 10
627.63969330542295
 20
-490.1929554226208
 30
0.0
 41
0.9999808436938871
 10
627.54833171678183
 20
-490.46204085388445
 30
0.0
 41
1.0
 10
627.45697012813844
 20
-490.73112628515491
 30
0.0
 41
0.9999873932903686
 10
627.36831541941979
 20
-491.00111564017021
 30
0.0
 41
1.0
 10
627.34822306255171
 20
-491.06230497291915
 30
0.0
 41
1.0
 10
627.32813070568363
 20
-491.12349430566815
 30
0.0
 41
1.0
 10
627.1992912832236
 20
-491.51586232619684
 30
0.0
 41
0.9999794883027907
 10
627.07548849826094
 20
-491.90984853248949
 30
0.0
 41
1.0
 10
627.06433623882799
 20
-491.94533914271187
 30
0.0
 41
1.0
 10
627.05318397939516
 20
-491.9808297529342
 30
0.0
 41
1.0
 10
626.91062581550364
 20
-492.43450250500223
 30
0.0
 41
0.9999982761697195
 10
626.76975337548106
 20
-492.88870152714844
 30
0.0
 41
1.0
 10
625.18161304290845
 20
-497.93747125815173
 30
0.0
 41
1.0
 10
623.59347271033585
 20
-502.98624098915502
 30
0.0
 41
1.0
 10
622.64472209885946
 20
-502.98624098915502
 30
0.0
 41
1.0
 10
621.69597148738308
 20
-502.98624098915502
 30
0.0
 41
1.0
 10
624.93425597353621
 20
-492.65891878920888
 30
0.0
 41
1.0
 10
628.17254045968946
 20
-482.33159658926274
 30
0.0
 41
1.0
  0
LWPOLYLINE
  5
67
100
AcDbEntity
  8
0
370
              15
390
0
  6
Continuous
 62
               7
100
AcDbPolyline
 90
      232
 70
             128
 10
602.46899468586241
 20
-483.41593942077793
 42
0.0004370800686085
 10
602.41611751182688
 20
-483.48460605998656
 10
602.37683328066294
 20
-483.53571317293074
 42
0.0030481992175785
 10
602.24649456353393
 20
-483.70743486528812
 10
602.20798289179334
 20
-483.75882164906307
 42
0.0042058245758044
 10
602.00399784112221
 20
-484.03582739413855
 10
601.95159271862281
 20
-484.1082602409175
 42
0.0120948898741378
 10
601.65554880186392
 20
-484.53900984546283
 10
601.55935630273666
 20
-484.68649058069576
 42
0.0141601263949823
 10
601.25571225581746
 20
-485.18215991742682
 10
601.21617498839055
 20
-485.25100388486015
 42
0.007113108130254
 10
601.01090266515303
 20
-485.6205066836967
 42
0.006845879100217
 10
600.81602313831172
 20
-485.99559824716926
 10
600.80921127585225
 20
-486.00915996089645
 42
0.0064120880289743
 10
600.61106902581048
 20
-486.41658443580997
 10
600.60353434029093
 20
-486.43259629253657
 42
0.0058857236448201
 10
600.40077894842238
 20
-486.87697240356454
 10
600.39260402212528
 20
-486.89546255720552
 42
0.0053189741895857
 10
600.18389970945691
 20
-487.3814260311255
 10
600.1751519037764
 20
-487.40240790931955
 42
0.0047503650420143
 10
599.95917817762108
 20
-487.93460734254086
 10
599.94990992927751
 20
-487.95808371863711
 42
0.004207176217233
 10
599.72536254554927
 20
-488.54117731270838
 10
599.71561314320115
 20
-488.56714348757657
 42
0.0036680086483766
 10
599.48115849988801
 20
-489.20577887211073
 10
599.47095072004129
 20
-489.23422740645231
 42
0.0032573142627807
 10
599.22531843407069
 20
-489.9330800662168
 10
599.15666791323974
 20
-490.13254315024193
 42
0.0026133366648926
 10
598.80822271447596
 20
-491.16240643393053
 10
598.74496592697972
 20
-491.35263726931026
 42
0.0020592950741384
 10
598.53110285800813
 20
-492.00474092193667
 10
598.52805106684957
 20
-492.01417741033242
 42
0.0025609928534361
 10
598.3262305653592
 20
-492.64932263271226
 10
598.32363919822342
 20
-492.65762497368178
 42
0.0031362356242619
 10
598.13414841255553
 20
-493.27838782983235
 10
598.13201736962708
 20
-493.28552913604693
 42
0.0037229918028632
 10
597.95521698270181
 20
-493.89451443801761
 10
597.95353839349536
 20
-493.90046132819208
 42
0.004307762370725
 10
597.78979759143033
 20
-494.50028005996103
 42
0.004765416182436
 10
597.63696886891591
 20
-495.10296614885681
 10
597.60250426007519
 20
-495.24452792601312
 42
0.0112969368445749
 10
597.40663990193104
 20
-496.13622008664032
 10
597.37863351283499
 20
-496.27904813273517
 42
0.0130056762571077
 10
597.17779626918832
 20
-497.46598920438009
 10
597.15725651904131
 20
-497.61006731785636
 42
0.0138721532144425
 10
597.05355351450339
 20
-498.51689680368281
 10
597.03425802659478
 20
-498.74039452561658
 42
0.0071254697010463
 10
597.00091138067296
 20
-499.20358153445511
 10
596.99595040651025
 20
-499.28958552900616
 42
0.0028881799202068
 10
596.98081211321983
 20
-499.58132723885785
 42
0.0060297297137103
 10
596.97087991344415
 20
-499.87327617497948
 10
596.96981763177712
 20
-499.92166854690646
 42
0.02295231641552
 10
596.9775486595629
 20
-500.24442339318932
 10
596.98177443308361
 20
-500.30482692721
 42
0.0123673300672929
 10
597.0008530796016
 20
-500.50594765238031
 42
0.0128577674477828
 10
597.03004847000841
 20
-500.70584550230978
 10
597.0371743433949
 20
-500.74717431690408
 42
0.0285717853767501
 10
597.10166834509084
 20
-501.02529046821832
 10
597.11533686875691
 20
-501.07194523769408
 42
0.0316283099158204
 10
597.23114744867121
 20
-501.39095973952044
 10
597.23419614042655
 20
-501.39794611184556
 42
0.0338984824235639
 10
597.38362785139395
 20
-501.68551207603514
 10
597.38593658076366
 20
-501.68930310531073
 42
0.0350228718354474
 10
597.56829687143738
 20
-501.94635508998795
 10
597.56918212321239
 20
-501.94743416775196
 42
0.0347476747529525
 10
597.78360681045251
 20
-502.17461921497204
 42
0.0331337701913763
 10
598.02685013619941
 20
-502.37074787704978
 10
598.02795023471504
 20
-502.37152058022195
 42
0.0305233319082687
 10
598.29649493028876
 20
-502.53664875031353
 10
598.29972497478957
 20
-502.53837276217598
 42
0.027374448115405
 10
598.59227868636424
 20
-502.67451090606653
 10
598.59738322150145
 20
-502.67655449053609
 42
0.0240964406196323
 10
598.91286029714672
 20
-502.78553821681732
 10
598.91944362635718
 20
-502.7874629564925
 42
0.020963617981318
 10
599.25684377900996
 20
-502.87093110442459
 10
599.26447623945842
 20
-502.87248301742602
 42
0.0181388704692912
 10
599.62279863145773
 20
-502.93189911064007
 10
599.63107947983508
 20
-502.93296529445706
 42
0.015608654758621
 10
600.00926684402395
 20
-502.96970148103372
 10
600.05246209635141
 20
-502.97253998351272
 42
0.0137148329020058
 10
600.38013524164978
 20
-502.98506023876405
 10
600.4260714315941
 20
-502.9855546718793
 42
0.0051057823885823
 10
600.66221701816801
 20
-502.9856849262884
 42
0.0052256693309733
 10
600.89831430194602
 20
-502.98093610182428
 10
600.96854108569607
 20
-502.97878913581008
 42
0.0161507179050397
 10
601.34427816380014
 20
-502.95513876548324
 10
601.36429112417045
 20
-502.95322857019596
 42
0.010121673783285
 10
601.77831834566166
 20
-502.90523563983038
 10
601.81237163508786
 20
-502.90058794302081
 42
0.0245291776396859
 10
602.28916129063771
 20
-502.81151286494486
 10
602.373984606161
 20
-502.79131694459926
 42
0.0143509212558606
 10
602.7306157101026
 20
-502.69551231081994
 42
0.0156557857037957
 10
603.08083177482956
 20
-502.57850109500129
 10
603.0883329893245
 20
-502.57573093324697
 42
0.0170137333631077
 10
603.44492898500903
 20
-502.43007331837441
 10
603.45203290741335
 20
-502.42688548281217
 42
0.018310536440935
 10
603.81138257557689
 20
-502.24955044098931
 10
603.81832934021838
 20
-502.2458000061157
 42
0.0194899958151643
 10
604.17681008120314
 20
-502.03382102422438
 10
604.18382396053903
 20
-502.02929568192997
 42
0.0204869852950129
 10
604.53783826263293
 20
-501.77977566684416
 10
604.54510387122002
 20
-501.77419560149576
 42
0.0212516938557097
 10
604.89109380232776
 20
-501.48429160460137
 10
604.93761049640216
 20
-501.44182429450888
 42
0.021524891824974
 10
605.19763666529138
 20
-501.18306001551298
 10
605.24266639967664
 20
-501.1342158941581
 42
0.0114578554958169
 10
605.39745855334922
 20
-500.95839296070483
 10
605.4086530893278
 20
-500.94507419716905
 42
0.0061531305127557
 10
605.53512773533032
 20
-500.79078466385374
 42
0.0006325587125346
 10
605.65950621953709
 20
-500.63478128810868
 10
605.68254635453354
 20
-500.60580776751863
 42
0.0041897761557552
 10
605.85100175851971
 20
-500.39028839143947
 10
605.90946387839847
 20
-500.31418704447162
 42
0.0092993880036185
 10
606.18607580562241
 20
-499.93990828058747
 10
606.26847029882015
 20
-499.82397127702052
 42
0.0159321727085415
 10
606.61507678146347
 20
-499.30179705626301
 10
606.65943291685528
 20
-499.2301174920085
 42
0.00855473170235
 10
606.89394468217824
 20
-498.83624254278834
 42
0.0084601156889492
 10
607.11492085961959
 20
-498.43461569375779
 10
607.12303633345073
 20
-498.41925601148318
 42
0.0081429654285819
 10
607.34628560388933
 20
-497.97953449894015
 10
607.35514576807225
 20
-497.96135565692305
 42
0.007657458132894
 10
607.58155327864051
 20
-497.47817278166679
 10
607.59103291936265
 20
-497.45710830336691
 42
0.0070682724203448
 10
607.8214778271747
 20
-496.92507099857306
 10
607.83146811115114
 20
-496.90108180957407
 42
0.0064559514447189
 10
608.06680131933285
 20
-496.31476954305481
 10
608.07721067749776
 20
-496.28783461761293
 42
0.0058311413906029
 10
608.31825741425928
 20
-495.6418025232328
 10
608.32901249164809
 20
-495.61191818206873
 42
0.0052312425818142
 10
608.57659376968536
 20
-494.90071576824482
 10
608.58763760606871
 20
-494.86788905616447
 42
0.0046680544796381
 10
608.84256603380277
 20
-494.08606274041119
 10
608.8845581838525
 20
-493.95307950309939
 42
0.004166685644569
 10
609.0878441962418
 20
-493.29011072811204
 10
609.12550663688796
 20
-493.16352962051792
 42
0.0015170975152335
 10
609.2466932153186
 20
-492.75166126896465
 42
-0.0004887993113053
 10
609.36703298844657
 20
-492.33954285690606
 10
609.44351024593675
 20
-492.07858547098158
 42
0.0002583378929194
 10
609.71672481607072
 20
-491.14452876756371
 10
609.7984976655772
 20
-490.86442950822112
 42
0.0006636169672048
 10
609.99236542558901
 20
-490.19707658463244
 10
609.99746207994531
 20
-490.17944500172041
 42
0.0010589131323459
 10
610.17891078085268
 20
-489.54671365870354
 10
610.18389285133128
 20
-489.52920075169004
 42
0.0015655524461217
 10
610.352163058516
 20
-488.93058407248259
 10
610.3569932589204
 20
-488.91319191358497
 42
0.0021640440476164
 10
610.51128323091689
 20
-488.34816489552861
 10
610.51591745035091
 20
-488.33090016551949
 42
0.0028763871853594
 10
610.6554331683999
 20
-487.79893221468774
 10
610.65981903256647
 20
-487.78180823653571
 42
0.0037310511945454
 10
610.78377572440399
 20
-487.28236064250939
 10
610.7878509446914
 20
-487.2654003712704
 42
0.0047652197769993
 10
610.89547484520142
 20
-486.79792260295881
 10
610.89916544452365
 20
-486.78116304781372
 42
0.006027669930185
 10
610.98969554367841
 20
-486.3450872526646
 10
610.99291423396744
 20
-486.32858603835615
 42
0.007582433775732
 10
611.06560354338308
 20
-485.92331887392925
 10
611.06824892076349
 20
-485.90716392647772
 42
0.0095130624608895
 10
611.1223641563945
 20
-485.53207457340693
 10
611.12935038027649
 20
-485.47614101529501
 42
0.0121054653226404
 10
611.15594171085502
 20
-485.21124518681654
 10
611.15680820061448
 20
-485.19984174388861
 42
0.0069050827385002
 10
611.17189701865232
 20
-484.95690051704321
 10
611.17303231832091
 20
-484.93337425999778
 42
0.0169063976698659
 10
611.17585959730104
 20
-484.73718153269772
 10
611.17468894576962
 20
-484.67684577133878
 42
0.0052007732907631
 10
611.17243549717682
 20
-484.60125238119645
 42
0.005403812329711
 10
611.15247198533712
 20
-484.48123408518126
 10
611.14738612946758
 20
-484.45257559860534
 42
0.0112050460462942
 10
611.11200176740931
 20
-484.27624916026787
 10
611.09417680536831
 20
-484.1967075735455
 42
0.0240764468010891
 10
611.00327943922184
 20
-483.86647053804336
 10
610.98472067640841
 20
-483.80985037304953
 42
0.0256812331836448
 10
610.84135775621917
 20
-483.43812616679315
 10
610.83594833039785
 20
-483.42599483180362
 42
0.026836050121682
 10
610.66652108954793
 20
-483.09500169778244
 10
610.6609846819124
 20
-483.08548202746925
 42
0.0274670231728967
 10
610.46878370549962
 20
-482.79319465255287
 10
610.46340240553707
 20
-482.78591550501164
 42
0.0275035967100516
 10
610.25182952597515
 20
-482.53039961470745
 10
610.2467600250086
 20
-482.52492052707697
 42
0.0269557673525392
 10
610.01935648156905
 20
-482.30427824111473
 10
610.01461342378741
 20
-482.3001482866548
 42
0.0259124802206977
 10
609.77505859235566
 20
-482.11245775950158
 10
609.77052774717288
 20
-482.10927225717069
 42
0.0245162153004199
 10
609.52261139407892
 20
-481.95253924806082
 10
609.51808484775472
 20
-481.94997905086001
 42
0.0229282588838302
 10
609.26566529092736
 20
-481.82211085836104
 10
609.26088479709074
 20
-481.81995855859913
 42
0.0212984135699296
 10
609.00784684462883
 20
-481.71875964135677
 10
609.00254255965933
 20
-481.71689607859679
 42
0.019755546234708
 10
608.75276422193633
 20
-481.64008066063195
 42
0.0183511896787306
 10
608.49783549647145
 20
-481.58249775366613
 10
608.41147029975048
 20
-481.56629496328151
 42
0.0338057877147913
 10
608.12596295048991
 20
-481.53248655814116
 10
608.03495754544622
 20
-481.52790690287958
 42
0.0091990524502134
 10
607.92911043681397
 20
-481.52453104695769
 42
0.0028333980779172
 10
607.82319652081696
 20
-481.52370293944097
 10
607.82228106777166
 20
-481.52370096961693
 42
-0.0023619827802161
 10
607.71453505265652
 20
-481.52296012853833
 10
607.67812988248988
 20
-481.52253782207538
 42
0.0008824598478772
 10
607.49757389264335
 20
-481.52076204383718
 10
607.4537124602341
 20
-481.52040808231152
 42
0.0038132665768256
 10
607.18542956435579
 20
-481.52028914624492
 10
607.1688959095618
 20
-481.52040791238846
 42
0.0060665569336518
 10
606.86761541796716
 20
-481.52622821180938
 10
606.85336508594514
 20
-481.52667651977686
 42
0.0080356953337016
 10
606.52390636960479
 20
-481.54234424184381
 10
606.51183635451866
 20
-481.5431128247842
 42
0.0098996399105398
 10
606.1590732698719
 20
-481.57259805398201
 10
606.1490275604931
 20
-481.57363835018054
 42
0.0117740981369072
 10
605.77787070214436
 20
-481.62093059771047
 10
605.76964800566179
 20
-481.62217571428118
 42
0.0137435215135858
 10
605.38505918617534
 20
-481.69127268784314
 10
605.37840214705329
 20
-481.69265858407641
 42
0.0158359869386695
 10
604.98540505324956
 20
-481.78755067255753
 10
604.97999186638367
 20
-481.78904061342769
 42
0.0180554124027072
 10
604.58367682177129
 20
-481.91367862966638
 10
604.5791200336879
 20
-481.91529466593272
 42
0.0203657431283774
 10
604.18464251587557
 20
-482.07355500744882
 10
604.18049897686922
 20
-482.07541662889037
 42
0.0226819684655253
 10
603.7930629206661
 20
-482.27105920756111
 10
603.78886312964744
 20
-482.27342479948118
 42
0.0248634984604389
 10
603.41368118846617
 20
-482.51005144542836
 10
603.36548625968214
 20
-482.54390848725421
 42
0.026704419088691
 10
603.09119356276574
 20
-482.75934886312223
 42
0.0139303002201229
 10
602.83502639682422
 20
-482.99658770403698
 10
602.83017301110601
 20
-483.00134036689428
 42
0.0283460963441846
 10
602.58610041687939
 20
-483.26907102733855
 10
602.54643191172227
 20
-483.31787260481246
 42
0.0070695364822692
 10
602.46899468586241
 20
-483.41593942077793
 42
0.0070695364822692
  0
LWPOLYLINE
  5
68
100
AcDbEntity
  8
0
370
              15
390
0
  6
Continuous
 62
               7
100
AcDbPolyline
 90
      226
 70
             128
 10
598.94017424861602
 20
-499.13752822696188
 42
-0.0026277636631166
 10
598.94009636481599
 20
-499.07075630122955
 10
598.94031372304801
 20
-499.01760108377573
 42
-0.0088680296722318
 10
598.9440903393413
 20
-498.84458530136442
 10
598.94643669845345
 20
-498.78530527591909
 42
-0.0077381705617612
 10
598.96248280921623
 20
-498.49404478012752
 10
598.96335072038971
 20
-498.4817565464358
 42
-0.0068872530533779
 10
598.98998280013757
 20
-498.16653479437031
 10
598.99118702432395
 20
-498.15429381534807
 42
-0.0062130021486013
 10
599.02878074115142
 20
-497.81542412411164
 10
599.03028464468684
 20
-497.80325025219304
 42
-0.0056726929668861
 10
599.07920650418862
 20
-497.44105503008359
 10
599.08097994983359
 20
-497.42896122983427
 42
-0.0052341884493827
 10
599.14159053609319
 20
-497.04376797431831
 10
599.14360852487016
 20
-497.03176304432395
 42
-0.0049768450167657
 10
599.21634720629709
 20
-496.6239184768886
 10
599.24059622101834
 20
-496.49537049388539
 42
-0.0089029805626123
 10
599.37767707281171
 20
-495.83359504646921
 10
599.41042244813161
 20
-495.68856361593953
 42
-0.0080318257099843
 10
599.63997106247041
 20
-494.74285398409319
 10
599.65195598892058
 20
-494.69672334889572
 42
-0.0074265721318721
 10
599.93596752777137
 20
-493.66665877051253
 10
599.95584707088631
 20
-493.59852470992911
 42
-0.0069711922703649
 10
600.28315164939386
 20
-492.53225696959782
 10
600.34310359650033
 20
-492.34623561122442
 42
-0.0052070422893824
 10
600.57252882175862
 20
-491.65896353419589
 10
600.58981001393659
 20
-491.60893625356232
 42
-0.0009167004448696
 10
600.79290190122038
 20
-491.0244804054247
 42
-0.0025162726944317
 10
600.99999953148654
 20
-490.44143914125192
 10
601.03722414328649
 20
-490.3382895953618
 42
-0.0028212681458689
 10
601.28540006225148
 20
-489.66255896318569
 10
601.29523082500418
 20
-489.63625151850357
 42
-0.0031964916822023
 10
601.53152308266442
 20
-489.01604675638191
 10
601.54115753666213
 20
-488.9912367662418
 42
-0.0036281836451582
 10
601.76626349776461
 20
-488.42379608534554
 10
601.77570190791857
 20
-488.40049865385123
 42
-0.0041269166832749
 10
601.99031960458126
 20
-487.88305775786444
 10
602.02295256100274
 20
-487.80617931150164
 42
-0.0047472213056243
 10
602.17999736655565
 20
-487.44575784361996
 10
602.18689144776454
 20
-487.43033724628657
 42
-0.0025651659997046
 10
602.33524948161403
 20
-487.10300919053952
 42
-0.005714463499489
 10
602.48899917538631
 20
-486.77819951717498
 10
602.51702988078625
 20
-486.72069113478346
 42
-0.0065388068374019
 10
602.70049690852636
 20
-486.35645863811783
 10
602.70895536430157
 20
-486.34019905875465
 42
-0.0074510843025588
 10
602.88513761018271
 20
-486.01351077762558
 10
602.89331728071295
 20
-485.99887000035812
 42
-0.0084648979860502
 10
603.06295113381384
 20
-485.70696098939561
 10
603.07080726030358
 20
-485.69395399774197
 42
-0.0095638542805065
 10
603.23464270789611
 20
-485.43406512576621
 10
603.24211765156531
 20
-485.4226957643146
 42
-0.0107191626807504
 10
603.40091923195541
 20
-485.1920845297667
 10
603.40793596568778
 20
-485.18234843740032
 42
-0.0118458573902287
 10
603.562484064199
 20
-484.9782762420914
 42
-0.0129184518192301
 10
603.7269366877988
 20
-484.78211572592295
 10
603.75708146016484
 20
-484.74798964702012
 42
-0.0217742579634215
 10
603.93369378249895
 20
-484.56478287677135
 10
603.94443932695685
 20
-484.55456604357079
 42
-0.0097266568650249
 10
604.11049694581516
 20
-484.40271846913106
 42
-0.0187720905722746
 10
604.2848445217038
 20
-484.26064961574264
 10
604.31555051237774
 20
-484.2374905333466
 42
-0.0179428207520461
 10
604.54797123237495
 20
-484.07493835623404
 10
604.55162355929303
 20
-484.07257442134477
 42
-0.0170047877694885
 10
604.7873871968211
 20
-483.9311139071948
 10
604.79117018556735
 20
-483.9290156021587
 42
-0.0160190788366342
 10
605.02807873320296
 20
-483.80736430017043
 42
-0.0151102861493827
 10
605.27211051564984
 20
-483.70068152411574
 10
605.3244970178614
 20
-483.67964139122114
 42
-0.0271945441884351
 10
605.68315957692096
 20
-483.55777658051483
 10
605.75222437740774
 20
-483.53842703924886
 42
-0.023759659402239
 10
606.16802122443028
 20
-483.44297632726727
 10
606.23608407816141
 20
-483.43072163914042
 42
-0.0213715440554111
 10
606.52195900960601
 20
-483.39177460763062
 10
606.58210617582426
 20
-483.38618489292969
 42
-0.0101465655818704
 10
606.74959870781811
 20
-483.37404134966562
 10
606.75893909401418
 20
-483.37355443466845
 42
-0.0100375910880429
 10
606.9080931945789
 20
-483.36877861674316
 10
606.91835246426126
 20
-483.36865617772867
 42
-0.0103625633377784
 10
607.04706045891407
 20
-483.36978761125533
 10
607.06932611018112
 20
-483.37044496972021
 42
-0.0115689250232698
 10
607.15337684770896
 20
-483.37487447596538
 42
-0.0072438037432718
 10
607.23721512714906
 20
-483.3824636757148
 10
607.25401563662092
 20
-483.38423021843892
 42
-0.0217917313131344
 10
607.37058539993609
 20
-483.40165011116028
 10
607.43618549050268
 20
-483.41439671957465
 42
-0.0332943556755749
 10
607.64057765552957
 20
-483.46843701088153
 10
607.67075022407948
 20
-483.47860508799988
 42
-0.0184824084799374
 10
607.80925528054513
 20
-483.5310561033865
 42
-0.0198002050695513
 10
607.94332962104397
 20
-483.59394016358561
 10
607.9452162584214
 20
-483.59491795046574
 42
-0.0212242342983379
 10
608.07735520082281
 20
-483.67068068925852
 10
608.07917049636671
 20
-483.67182649146719
 42
-0.0226090605789116
 10
608.20767439758856
 20
-483.7613061350317
 10
608.20951883932594
 20
-483.76271838801915
 42
-0.0238457052233704
 10
608.33270092061889
 20
-483.86671428388144
 10
608.33465364917788
 20
-483.86852916164764
 42
-0.0248160564156667
 10
608.45085515647781
 20
-483.98780376285561
 10
608.45295878988054
 20
-483.99018909656081
 42
-0.0254109591454111
 10
608.56056400774617
 20
-484.12547748252456
 10
608.56281202966056
 20
-484.12861903092573
 42
-0.0255528488289023
 10
608.66025870845726
 20
-484.28064608515911
 10
608.66258980837392
 20
-484.28472769676762
 42
-0.0252146793220354
 10
608.74837083438308
 20
-484.4542299427647
 10
608.75067307354061
 20
-484.45941202467748
 42
-0.0244265635951465
 10
608.82332776730209
 20
-484.64715859672395
 10
608.83257416877029
 20
-484.67502401506107
 42
-0.0231319612901694
 10
608.87849694776253
 20
-484.83832506186354
 42
-0.011213042435463
 10
608.91313297030138
 20
-485.00452866205478
 10
608.9143354954133
 20
-485.01102524893952
 42
-0.0210527881237954
 10
608.94002197078385
 20
-485.19208089437905
 10
608.94353256560589
 20
-485.22748644292801
 42
-0.0190029892422542
 10
608.95897403915058
 20
-485.4810222892001
 10
608.95978401559455
 20
-485.5164979035693
 42
-0.0137974553657985
 10
608.9582351627588
 20
-485.84152931030957
 10
608.95738970780349
 20
-485.86764805489378
 42
-0.0081336634216207
 10
608.9425303725809
 20
-486.17299552249483
 42
-0.0073526923572092
 10
608.91822183920647
 20
-486.47774376677819
 10
608.91696041542355
 20
-486.491080441446
 42
-0.0066886138691704
 10
608.88122482937627
 20
-486.82166648494945
 10
608.87956773990709
 20
-486.83528810393466
 42
-0.0061359187355472
 10
608.83171713785566
 20
-487.19205208403815
 10
608.82967963678334
 20
-487.2059468868639
 42
-0.0056698610064477
 10
608.76902930601523
 20
-487.58922545570863
 10
608.76662387269334
 20
-487.60338457493265
 42
-0.0052721077273153
 10
608.69249167189355
 20
-488.01351191461117
 10
608.68972852305194
 20
-488.02792854999655
 42
-0.0049289272178234
 10
608.60143440495142
 20
-488.46523706112106
 10
608.59832191026931
 20
-488.47990591393477
 42
-0.004741595671141
 10
608.49508391873667
 20
-488.94470267134676
 10
608.46031570837727
 20
-489.09450976672861
 42
-0.0084404470902746
 10
608.27029926480577
 20
-489.85473379125858
 10
608.26417257681976
 20
-489.87759791541316
 42
-0.0039635940257309
 10
608.04271889253289
 20
-490.67858677967075
 10
608.02934209735622
 20
-490.72551839625237
 42
-0.007247504083683
 10
607.76189520949436
 20
-491.61473811263903
 10
607.69168288266644
 20
-491.83647846261272
 42
-0.0051345458827721
 10
607.40492351060686
 20
-492.71080365042576
 10
607.38339724383513
 20
-492.77422991756833
 42
-0.0019150016601163
 10
607.12786383697267
 20
-493.51777903778179
 10
607.12139623258713
 20
-493.53636650267219
 42
-0.0021524362753493
 10
606.87291818151266
 20
-494.24069232441127
 10
606.86370776082083
 20
-494.2664459026999
 42
-0.0024331286820271
 10
606.62745250178023
 20
-494.91704521083091
 10
606.61840454923117
 20
-494.94158851718134
 42
-0.0027449721787818
 10
606.39378997839424
 20
-495.5407183961097
 10
606.38489997100567
 20
-495.56404098595226
 42
-0.0031083229769226
 10
606.17135748439205
 20
-496.1139650235416
 10
606.16262135271995
 20
-496.13605473939072
 42
-0.0035311343282365
 10
605.95958016712461
 20
-496.63903786512947
 10
605.95099482798003
 20
-496.65988058863218
 42
-0.0040245640949619
 10
605.75788302418255
 20
-497.11818991123221
 10
605.74944691057703
 20
-497.13776927930985
 42
-0.0046015135851734
 10
605.56569061741573
 20
-497.55367430894648
 10
605.55740443959189
 20
-497.57197144838887
 42
-0.0052768638271209
 10
605.38242692063181
 20
-497.94774433266889
 10
605.37429471000542
 20
-497.96473767121103
 42
-0.0060672675643117
 10
605.20751509723891
 20
-498.30265329432632
 10
605.19954561675604
 20
-498.31831855332621
 42
-0.006990464886937
 10
605.04037722275598
 20
-498.62065435998727
 10
605.03258582314584
 20
-498.63496490921329
 42
-0.008063702276626
 10
604.88043396279932
 20
-498.90400021236769
 10
604.87284493016875
 20
-498.91692807796733
 42
-0.0093006455666931
 10
604.72710425363653
 20
-499.15494247647155
 10
604.71975358689235
 20
-499.1664604456455
 42
-0.0107060778052619
 10
604.57980504345437
 20
-499.37573076302374
 10
604.57274327517734
 20
-499.38581630558599
 42
-0.0122723111414413
 10
604.43794955697672
 20
-499.56860963507859
 10
604.43762333342283
 20
-499.56903002288806
 42
-0.0141836319624593
 10
604.2940417304485
 20
-499.74359978071777
 10
604.28709397479656
 20
-499.75157478098248
 42
-0.0175957477208765
 10
604.14718780676185
 20
-499.90119566938733
 42
-0.0080466359680251
 10
603.99972404173718
 20
-500.04351819753339
 10
603.95368949721421
 20
-500.08653863562972
 42
-0.0269600260395386
 10
603.70040925123226
 20
-500.29886189413821
 10
603.63384211493383
 20
-500.34881330876311
 42
-0.0178362839754557
 10
603.39389762527844
 20
-500.51583123501518
 10
603.38665265427801
 20
-500.52049974722001
 42
-0.0174650732651466
 10
603.15031645683666
 20
-500.6613607121792
 42
-0.0169240130166275
 10
602.90485021097754
 20
-500.7856529719574
 10
602.85886405542124
 20
-500.80701492752382
 42
-0.031888303683878
 10
602.50851319980086
 20
-500.94335323703405
 10
602.44014766463579
 20
-500.96505385750964
 42
-0.0284435909900912
 10
602.06409753834544
 20
-501.06127129298409
 10
602.02893937784711
 20
-501.06816488881253
 42
-0.0243909341012506
 10
601.71549591692792
 20
-501.11388591984269
 10
601.66521519015669
 20
-501.11873146674435
 42
-0.0196639292929223
 10
601.44961961262948
 20
-501.13097975225787
 10
601.3977955414648
 20
-501.13188301299459
 42
-0.0100501510686612
 10
601.28537225980176
 20
-501.1315826146415
 10
601.25371239845754
 20
-501.13086154275618
 42
-0.0019752031124285
 10
601.20462006177638
 20
-501.12954938254654
 10
601.20185975855202
 20
-501.12946469072017
 42
0.0065378751996669
 10
601.15828318379954
 20
-501.12869779950529
 42
-0.0167974694664939
 10
601.11475236086778
 20
-501.12703790097925
 10
601.11067302160563
 20
-501.1267448900843
 42
-0.0081283276273017
 10
601.05911322387237
 20
-501.12219789644695
 10
601.04737364998846
 20
-501.12096997886806
 42
-0.0126703440178995
 10
600.97265535419649
 20
-501.11123518779686
 10
600.94986748651831
 20
-501.10767693188131
 42
-0.0117852088436511
 10
600.8303285006873
 20
-501.08611393672447
 10
600.77494804892285
 20
-501.07477039648961
 42
-0.0251774592297356
 10
600.5481040099146
 20
-501.01627238705652
 10
600.50338482006282
 20
-501.00230556772101
 42
-0.0146525199887078
 10
600.31699183252545
 20
-500.93803904052322
 42
-0.0166929435858334
 10
600.13501417639884
 20
-500.86223190746864
 10
600.13035754512566
 20
-500.86010700685461
 42
-0.0191684358433668
 10
599.94517391387797
 20
-500.76687092306548
 10
599.94184132811938
 20
-500.7650296755113
 42
-0.0221181781808502
 10
599.75853102421627
 20
-500.65289617713989
 10
599.75618122020876
 20
-500.65131187914949
 42
-0.0254984685382422
 10
599.57989106982416
 20
-500.51890072918042
 10
599.557408922121
 20
-500.50014842024319
 42
-0.029249264880327
 10
599.43263998327848
 20
-500.38305562060054
 42
-0.0159048957500172
 10
599.31879998582929
 20
-500.25503562900258
 10
599.317481195249
 20
-500.25345401598145
 42
-0.0343813379563823
 10
599.214843933623
 20
-500.11158269021229
 10
599.18335240226168
 20
-500.06107929811748
 42
-0.0369117275699645
 10
599.0974599003647
 20
-499.89760205716948
 42
-0.0191751379909962
 10
599.03026651480843
 20
-499.72519745116557
 10
599.02850319104823
 20
-499.72010410648863
 42
-0.0378178042230746
 10
598.97870847226409
 20
-499.53116333040811
 10
598.97271317653372
 20
-499.49860271221036
 42
-0.0184846046473401
 10
598.95199597723922
 20
-499.35684989166543
 42
-0.0179866351315935
 10
598.94166297216566
 20
-499.21395907858727
 10
598.94160652971982
 20
-499.21240139197175
 42
-0.0085497186116535
 10
598.94017424861602
 20
-499.13752822696188
 42
-0.0085497186116535
  0
ENDBLK
  5
69
100
AcDbEntity
  8
template
390
0
100
AcDbBlockEnd
  0
BLOCK
  5
6A
100
AcDbEntity
  8
notes
390
0
100
AcDbBlockBegin
  2
*D4
 70
               1
 10
0.0
 20
0.0
 30
0.0
  3
*D4
  1

  0
LINE
  5
6B
100
AcDbEntity
  8
0
370
              -2
390
0
  6
Continuous
 62
               0
100
AcDbLine
 10
-659.33542742338386
 20
-433.5080749378655
 30
0.0
 11
-659.33542742338386
 21
-338.50807493786556
 31
0.0
  0
LINE
  5
6C
100
AcDbEntity
  8
0
370
              -2
390
0
  6
Continuous
 62
               0
100
AcDbLine
 10
-214.33542742338386
 20
-433.5080749378655
 30
0.0
 11
-214.33542742338386
 21
-338.50807493786556
 31
0.0
  0
LINE
  5
6D
100
AcDbEntity
  8
0
370
              -2
390
0
  6
Continuous
 62
               0
100
AcDbLine
 10
-659.33542742338386
 20
-338.50807493786556
 30
0.0
 11
-214.33542742338386
 21
-338.50807493786556
 31
0.0
  0
CIRCLE
  5
6E
102
{ACAD_REACTORS
330
6F
102
}
100
AcDbEntity
  8
0
370
              -2
390
0
  6
Continuous
 62
               0
100
AcDbCircle
 10
-659.33542742338386
 20
-338.50807493786556
 30
0.0
 40
4.99969482421875
  0
HATCH
  5
6F
100
AcDbEntity
  8
0
370
              -2
390
0
  6
Continuous
 62
               0
100
AcDbHatch
 10
0.0
 20
0.0
 30
0.0
210
0.0
220
0.0
230
1.0
  2
SOLID
 70
               1
 71
               1
 91
        1
 92
        1
 93
        1
 72
               2
 10
-659.33542742338386
 20
-338.50807493786556
 40
4.99969482421875
 50
0.0
 51
360.0
 73
               0
 97
        1
330
6E
 75
               0
 76
               1
 98
        1
 10
0.0
 20
0.0
  0
CIRCLE
  5
70
102
{ACAD_REACTORS
330
71
102
}
100
AcDbEntity
  8
0
370
              -2
390
0
  6
Continuous
 62
               0
100
AcDbCircle
 10
-214.33542742338386
 20
-338.50807493786556
 30
0.0
 40
4.99969482421875
  0
HATCH
  5
71
100
AcDbEntity
  8
0
370
              -2
390
0
  6
Continuous
 62
               0
100
AcDbHatch
 10
0.0
 20
0.0
 30
0.0
210
0.0
220
0.0
230
1.0
  2
SOLID
 70
               1
 71
               1
 91
        1
 92
        1
 93
        1
 72
               2
 10
-214.33542742338386
 20
-338.50807493786556
 40
4.99969482421875
 50
0.0
 51
360.0
 73
               0
 97
        1
330
70
 75
               0
 76
               1
 98
        1
 10
0.0
 20
0.0
  0
MTEXT
  5
72
100
AcDbEntity
  8
0
390
0
 62
               0
100
AcDbMText
 10
-460.64792910555934
 20
-304.63045775036551
 30
0.0
 40
24.432617187500004
 41
0.0
 71
               1
 72
               1
  1
445
  7
ＭＳゴシック
 73
               1
 44
0.7828267384257843
  0
POINT
  5
73
100
AcDbEntity
  8
Defpoints
370
               0
390
0
 62
               0
100
AcDbPoint
 10
-214.33542742338386
 20
-458.5080749378655
 30
0.0
  0
POINT
  5
74
100
AcDbEntity
  8
Defpoints
370
               0
390
0
 62
               0
100
AcDbPoint
 10
-659.33542742338386
 20
-458.5080749378655
 30
0.0
  0
POINT
  5
75
100
AcDbEntity
  8
Defpoints
370
               0
390
0
 62
               0
100
AcDbPoint
 10
-659.33542742338386
 20
-338.50807493786556
 30
0.0
  0
ENDBLK
  5
76
100
AcDbEntity
  8
notes
390
0
100
AcDbBlockEnd
  0
BLOCK
  5
77
100
AcDbEntity
  8
notes
390
0
100
AcDbBlockBegin
  2
*D5
 70
               1
 10
0.0
 20
0.0
 30
0.0
  3
*D5
  1

  0
LINE
  5
78
100
AcDbEntity
  8
0
370
              -2
390
0
  6
Continuous
 62
               0
100
AcDbLine
 10
-171.87950671911022
 20
232.4141229456875
 30
0.0
 11
-171.87950671911022
 21
157.4141229456875
 31
0.0
  0
LINE
  5
79
100
AcDbEntity
  8
0
370
              -2
390
0
  6
Continuous
 62
               0
100
AcDbLine
 10
-701.87950671910926
 20
232.4141229456875
 30
0.0
 11
-701.87950671910926
 21
157.4141229456875
 31
0.0
  0
LINE
  5
7A
100
AcDbEntity
  8
0
370
              -2
390
0
  6
Continuous
 62
               0
100
AcDbLine
 10
-171.87950671911022
 20
157.4141229456875
 30
0.0
 11
-701.87950671910926
 21
157.4141229456875
 31
0.0
  0
CIRCLE
  5
7B
102
{ACAD_REACTORS
330
7C
102
}
100
AcDbEntity
  8
0
370
              -2
390
0
  6
Continuous
 62
               0
100
AcDbCircle
 10
-171.87950671911022
 20
157.4141229456875
 30
0.0
 40
4.99969482421875
  0
HATCH
  5
7C
100
AcDbEntity
  8
0
370
              -2
390
0
  6
Continuous
 62
               0
100
AcDbHatch
 10
0.0
 20
0.0
 30
0.0
210
0.0
220
0.0
230
1.0
  2
SOLID
 70
               1
 71
               1
 91
        1
 92
        1
 93
        1
 72
               2
 10
-171.87950671911022
 20
157.4141229456875
 40
4.99969482421875
 50
0.0
 51
360.0
 73
               0
 97
        1
330
7B
 75
               0
 76
               1
 98
        1
 10
0.0
 20
0.0
  0
CIRCLE
  5
7D
102
{ACAD_REACTORS
330
7E
102
}
100
AcDbEntity
  8
0
370
              -2
390
0
  6
Continuous
 62
               0
100
AcDbCircle
 10
-701.87950671910926
 20
157.4141229456875
 30
0.0
 40
4.99969482421875
  0
HATCH
  5
7E
100
AcDbEntity
  8
0
370
              -2
390
0
  6
Continuous
 62
               0
100
AcDbHatch
 10
0.0
 20
0.0
 30
0.0
210
0.0
220
0.0
230
1.0
  2
SOLID
 70
               1
 71
               1
 91
        1
 92
        1
 93
        1
 72
               2
 10
-701.87950671910926
 20
157.4141229456875
 40
4.99969482421875
 50
0.0
 51
360.0
 73
               0
 97
        1
330
7D
 75
               0
 76
               1
 98
        1
 10
0.0
 20
0.0
  0
MTEXT
  5
7F
100
AcDbEntity
  8
0
390
0
 62
               0
100
AcDbMText
 10
-460.69200840128519
 20
191.29174013318743
 30
0.0
 40
24.432617187500004
 41
0.0
 71
               1
 72
               1
  1
530
  7
ＭＳゴシック
 73
               1
 44
0.7828267384257843
  0
POINT
  5
80
100
AcDbEntity
  8
Defpoints
370
               0
390
0
 62
               0
100
AcDbPoint
 10
-701.87950671910926
 20
257.4141229456875
 30
0.0
  0
POINT
  5
81
100
AcDbEntity
  8
Defpoints
370
               0
390
0
 62
               0
100
AcDbPoint
 10
-171.87950671911022
 20
257.4141229456875
 30
0.0
  0
POINT
  5
82
100
AcDbEntity
  8
Defpoints
370
               0
390
0
 62
               0
100
AcDbPoint
 10
-171.87950671911022
 20
157.4141229456875
 30
0.0
  0
ENDBLK
  5
83
100
AcDbEntity
  8
notes
390
0
100
AcDbBlockEnd
  0
BLOCK
  5
84
100
AcDbEntity
  8
notes
390
0
100
AcDbBlockBegin
  2
*D6
 70
               1
 10
0.0
 20
0.0
 30
0.0
  3
*D6
  1

  0
LINE
  5
85
100
AcDbEntity
  8
0
370
              -2
390
0
  6
Continuous
 62
               0
100
AcDbLine
 10
-701.87950671910926
 20
232.4141229456875
 30
0.0
 11
-701.87950671910926
 21
157.4141229456875
 31
0.0
  0
LINE
  5
86
100
AcDbEntity
  8
0
370
              -2
390
0
  6
Continuous
 62
               0
100
AcDbLine
 10
-761.87950671910858
 20
282.4141229456875
 30
0.0
 11
-761.87950671910858
 21
157.4141229456875
 31
0.0
  0
LINE
  5
87
100
AcDbEntity
  8
0
370
              -2
390
0
  6
Continuous
 62
               0
100
AcDbLine
 10
-701.87950671910926
 20
157.4141229456875
 30
0.0
 11
-761.87950671910858
 21
157.4141229456875
 31
0.0
  0
CIRCLE
  5
88
102
{ACAD_REACTORS
330
89
102
}
100
AcDbEntity
  8
0
370
              -2
390
0
  6
Continuous
 62
               0
100
AcDbCircle
 10
-701.87950671910926
 20
157.4141229456875
 30
0.0
 40
4.99969482421875
  0
HATCH
  5
89
100
AcDbEntity
  8
0
370
              -2
390
0
  6
Continuous
 62
               0
100
AcDbHatch
 10
0.0
 20
0.0
 30
0.0
210
0.0
220
0.0
230
1.0
  2
SOLID
 70
               1
 71
               1
 91
        1
 92
        1
 93
        1
 72
               2
 10
-701.87950671910926
 20
157.4141229456875
 40
4.99969482421875
 50
0.0
 51
360.0
 73
               0
 97
        1
330
88
 75
               0
 76
               1
 98
        1
 10
0.0
 20
0.0
  0
CIRCLE
  5
8A
102
{ACAD_REACTORS
330
8B
102
}
100
AcDbEntity
  8
0
370
              -2
390
0
  6
Continuous
 62
               0
100
AcDbCircle
 10
-761.87950671910858
 20
157.4141229456875
 30
0.0
 40
4.99969482421875
  0
HATCH
  5
8B
100
AcDbEntity
  8
0
370
              -2
390
0
  6
Continuous
 62
               0
100
AcDbHatch
 10
0.0
 20
0.0
 30
0.0
210
0.0
220
0.0
230
1.0
  2
SOLID
 70
               1
 71
               1
 91
        1
 92
        1
 93
        1
 72
               2
 10
-761.87950671910858
 20
157.4141229456875
 40
4.99969482421875
 50
0.0
 51
360.0
 73
               0
 97
        1
330
8A
 75
               0
 76
               1
 98
        1
 10
0.0
 20
0.0
  0
MTEXT
  5
8C
100
AcDbEntity
  8
0
390
0
 62
               0
100
AcDbMText
 10
-747.75450671910903
 20
191.29174013318743
 30
0.0
 40
24.432617187500004
 41
0.0
 71
               1
 72
               1
  1
60
  7
ＭＳゴシック
 73
               1
 44
0.7828267384257843
  0
POINT
  5
8D
100
AcDbEntity
  8
Defpoints
370
               0
390
0
 62
               0
100
AcDbPoint
 10
-761.87950671910858
 20
307.4141229456875
 30
0.0
  0
POINT
  5
8E
100
AcDbEntity
  8
Defpoints
370
               0
390
0
 62
               0
100
AcDbPoint
 10
-701.87950671910926
 20
257.4141229456875
 30
0.0
  0
POINT
  5
8F
100
AcDbEntity
  8
Defpoints
370
               0
390
0
 62
               0
100
AcDbPoint
 10
-701.87950671910926
 20
157.4141229456875
 30
0.0
  0
ENDBLK
  5
90
100
AcDbEntity
  8
notes
390
0
100
AcDbBlockEnd
  0
BLOCK
  5
91
100
AcDbEntity
  8
notes
390
0
100
AcDbBlockBegin
  2
*D7
 70
               1
 10
0.0
 20
0.0
 30
0.0
  3
*D7
  1

  0
LINE
  5
92
100
AcDbEntity
  8
0
370
              -2
390
0
  6
Continuous
 62
               0
100
AcDbLine
 10
825.61442146364118
 20
-416.55015237651031
 30
0.0
 11
825.61442146364118
 21
-338.550869207809
 31
0.0
  0
LINE
  5
93
100
AcDbEntity
  8
0
370
              -2
390
0
  6
Continuous
 62
               0
100
AcDbLine
 10
745.61442146364118
 20
-413.55065379813249
 30
0.0
 11
745.61442146364118
 21
-338.550869207809
 31
0.0
  0
LINE
  5
94
100
AcDbEntity
  8
0
370
              -2
390
0
  6
Continuous
 62
               0
100
AcDbLine
 10
825.61442146364118
 20
-338.550869207809
 30
0.0
 11
745.61442146364118
 21
-338.550869207809
 31
0.0
  0
CIRCLE
  5
95
102
{ACAD_REACTORS
330
96
102
}
100
AcDbEntity
  8
0
370
              -2
390
0
  6
Continuous
 62
               0
100
AcDbCircle
 10
825.61442146364118
 20
-338.550869207809
 30
0.0
 40
4.99969482421875
  0
HATCH
  5
96
100
AcDbEntity
  8
0
370
              -2
390
0
  6
Continuous
 62
               0
100
AcDbHatch
 10
0.0
 20
0.0
 30
0.0
210
0.0
220
0.0
230
1.0
  2
SOLID
 70
               1
 71
               1
 91
        1
 92
        1
 93
        1
 72
               2
 10
825.61442146364118
 20
-338.550869207809
 40
4.99969482421875
 50
0.0
 51
360.0
 73
               0
 97
        1
330
95
 75
               0
 76
               1
 98
        1
 10
0.0
 20
0.0
  0
CIRCLE
  5
97
102
{ACAD_REACTORS
330
98
102
}
100
AcDbEntity
  8
0
370
              -2
390
0
  6
Continuous
 62
               0
100
AcDbCircle
 10
745.61442146364118
 20
-338.550869207809
 30
0.0
 40
4.99969482421875
  0
HATCH
  5
98
100
AcDbEntity
  8
0
370
              -2
390
0
  6
Continuous
 62
               0
100
AcDbHatch
 10
0.0
 20
0.0
 30
0.0
210
0.0
220
0.0
230
1.0
  2
SOLID
 70
               1
 71
               1
 91
        1
 92
        1
 93
        1
 72
               2
 10
745.61442146364118
 20
-338.550869207809
 40
4.99969482421875
 50
0.0
 51
360.0
 73
               0
 97
        1
330
97
 75
               0
 76
               1
 98
        1
 10
0.0
 20
0.0
  0
MTEXT
  5
99
100
AcDbEntity
  8
0
390
0
 62
               0
100
AcDbMText
 10
769.73942146364118
 20
-304.67325202030895
 30
0.0
 40
24.432617187500004
 41
0.0
 71
               1
 72
               1
  1
80
  7
ＭＳゴシック
 73
               1
 44
0.7828267384257843
  0
POINT
  5
9A
100
AcDbEntity
  8
Defpoints
370
               0
390
0
 62
               0
100
AcDbPoint
 10
745.61442146364118
 20
-438.55065379813249
 30
0.0
  0
POINT
  5
9B
100
AcDbEntity
  8
Defpoints
370
               0
390
0
 62
               0
100
AcDbPoint
 10
825.61442146364118
 20
-441.55015237651031
 30
0.0
  0
POINT
  5
9C
100
AcDbEntity
  8
Defpoints
370
               0
390
0
 62
               0
100
AcDbPoint
 10
825.61442146364118
 20
-338.550869207809
 30
0.0
  0
ENDBLK
  5
9D
100
AcDbEntity
  8
notes
390
0
100
AcDbBlockEnd
  0
BLOCK
  5
9E
100
AcDbEntity
  8
notes
390
0
100
AcDbBlockBegin
  2
*D8
 70
               1
 10
0.0
 20
0.0
 30
0.0
  3
*D8
  1

  0
LINE
  5
9F
100
AcDbEntity
  8
0
370
              -2
390
0
  6
Continuous
 62
               0
100
AcDbLine
 10
593.69248422405326
 20
-438.53082119146211
 30
0.0
 11
574.69248422405326
 21
-438.53082119146211
 31
0.0
  0
LINE
  5
A0
100
AcDbEntity
  8
0
370
              -2
390
0
  6
Continuous
 62
               0
100
AcDbLine
 10
593.69248422405326
 20
-538.53082119146211
 30
0.0
 11
574.69248422405326
 21
-538.53082119146211
 31
0.0
  0
LINE
  5
A1
100
AcDbEntity
  8
0
370
              -2
390
0
  6
Continuous
 62
               0
100
AcDbLine
 10
574.69248422405326
 20
-438.53082119146211
 30
0.0
 11
574.69248422405326
 21
-285.48957119146212
 31
0.0
  0
LINE
  5
A2
100
AcDbEntity
  8
0
370
              -2
390
0
  6
Continuous
 62
               0
100
AcDbLine
 10
574.69248422405326
 20
-438.53082119146211
 30
0.0
 11
574.69248422405326
 21
-538.53082119146211
 31
0.0
  0
CIRCLE
  5
A3
102
{ACAD_REACTORS
330
A4
102
}
100
AcDbEntity
  8
0
370
              -2
390
0
  6
Continuous
 62
               0
100
AcDbCircle
 10
574.69248422405326
 20
-438.53082119146211
 30
0.0
 40
4.99969482421875
  0
HATCH
  5
A4
100
AcDbEntity
  8
0
370
              -2
390
0
  6
Continuous
 62
               0
100
AcDbHatch
 10
0.0
 20
0.0
 30
0.0
210
0.0
220
0.0
230
1.0
  2
SOLID
 70
               1
 71
               1
 91
        1
 92
        1
 93
        1
 72
               2
 10
574.69248422405326
 20
-438.53082119146211
 40
4.99969482421875
 50
0.0
 51
360.0
 73
               0
 97
        1
330
A3
 75
               0
 76
               1
 98
        1
 10
0.0
 20
0.0
  0
CIRCLE
  5
A5
102
{ACAD_REACTORS
330
A6
102
}
100
AcDbEntity
  8
0
370
              -2
390
0
  6
Continuous
 62
               0
100
AcDbCircle
 10
574.69248422405326
 20
-538.53082119146211
 30
0.0
 40
4.99969482421875
  0
HATCH
  5
A6
100
AcDbEntity
  8
0
370
              -2
390
0
  6
Continuous
 62
               0
100
AcDbHatch
 10
0.0
 20
0.0
 30
0.0
210
0.0
220
0.0
230
1.0
  2
SOLID
 70
               1
 71
               1
 91
        1
 92
        1
 93
        1
 72
               2
 10
574.69248422405326
 20
-538.53082119146211
 40
4.99969482421875
 50
0.0
 51
360.0
 73
               0
 97
        1
330
A5
 75
               0
 76
               1
 98
        1
 10
0.0
 20
0.0
  0
MTEXT
  5
A7
100
AcDbEntity
  8
0
390
0
 62
               0
100
AcDbMText
 10
540.81486703655332
 20
-428.36457119146212
 30
0.0
 40
24.432617187500004
 41
0.0
 71
               1
 72
               1
  1
100(深さ)
  7
ＭＳゴシック
 11
0.0
 21
1.0
 31
0.0
 73
               1
 44
0.7828267384257843
  0
POINT
  5
A8
100
AcDbEntity
  8
Defpoints
370
               0
390
0
 62
               0
100
AcDbPoint
 10
568.69248422405326
 20
-538.53082119146211
 30
0.0
  0
POINT
  5
A9
100
AcDbEntity
  8
Defpoints
370
               0
390
0
 62
               0
100
AcDbPoint
 10
568.69248422405326
 20
-438.53082119146211
 30
0.0
  0
POINT
  5
AA
100
AcDbEntity
  8
Defpoints
370
               0
390
0
 62
               0
100
AcDbPoint
 10
574.69248422405326
 20
-438.53082119146211
 30
0.0
  0
ENDBLK
  5
AB
100
AcDbEntity
  8
notes
390
0
100
AcDbBlockEnd
  0
BLOCK
  5
AC
100
AcDbEntity
  8
notes
390
0
100
AcDbBlockBegin
  2
*D9
 70
               1
 10
0.0
 20
0.0
 30
0.0
  3
*D9
  1

  0
LINE
  5
AD
100
AcDbEntity
  8
0
370
              -2
390
0
  6
Continuous
 62
               0
100
AcDbLine
 10
752.58409718714461
 20
302.4141229456875
 30
0.0
 11
752.58409718714461
 21
157.41412294568738
 31
0.0
  0
LINE
  5
AE
100
AcDbEntity
  8
0
370
              -2
390
0
  6
Continuous
 62
               0
100
AcDbLine
 10
202.58409718714449
 20
302.4141229456875
 30
0.0
 11
202.58409718714449
 21
157.41412294568738
 31
0.0
  0
LINE
  5
AF
100
AcDbEntity
  8
0
370
              -2
390
0
  6
Continuous
 62
               0
100
AcDbLine
 10
752.58409718714461
 20
157.41412294568738
 30
0.0
 11
202.58409718714449
 21
157.41412294568738
 31
0.0
  0
CIRCLE
  5
B0
102
{ACAD_REACTORS
330
B1
102
}
100
AcDbEntity
  8
0
370
              -2
390
0
  6
Continuous
 62
               0
100
AcDbCircle
 10
752.58409718714461
 20
157.41412294568738
 30
0.0
 40
4.99969482421875
  0
HATCH
  5
B1
100
AcDbEntity
  8
0
370
              -2
390
0
  6
Continuous
 62
               0
100
AcDbHatch
 10
0.0
 20
0.0
 30
0.0
210
0.0
220
0.0
230
1.0
  2
SOLID
 70
               1
 71
               1
 91
        1
 92
        1
 93
        1
 72
               2
 10
752.58409718714461
 20
157.41412294568738
 40
4.99969482421875
 50
0.0
 51
360.0
 73
               0
 97
        1
330
B0
 75
               0
 76
               1
 98
        1
 10
0.0
 20
0.0
  0
CIRCLE
  5
B2
102
{ACAD_REACTORS
330
B3
102
}
100
AcDbEntity
  8
0
370
              -2
390
0
  6
Continuous
 62
               0
100
AcDbCircle
 10
202.58409718714449
 20
157.41412294568738
 30
0.0
 40
4.99969482421875
  0
HATCH
  5
B3
100
AcDbEntity
  8
0
370
              -2
390
0
  6
Continuous
 62
               0
100
AcDbHatch
 10
0.0
 20
0.0
 30
0.0
210
0.0
220
0.0
230
1.0
  2
SOLID
 70
               1
 71
               1
 91
        1
 92
        1
 93
        1
 72
               2
 10
202.58409718714449
 20
157.41412294568738
 40
4.99969482421875
 50
0.0
 51
360.0
 73
               0
 97
        1
330
B2
 75
               0
 76
               1
 98
        1
 10
0.0
 20
0.0
  0
MTEXT
  5
B4
100
AcDbEntity
  8
0
390
0
 62
               0
100
AcDbMText
 10
453.77159550496901
 20
191.2917401331872
 30
0.0
 40
24.432617187500004
 41
0.0
 71
               1
 72
               1
  1
550
  7
ＭＳゴシック
 73
               1
 44
0.7828267384257843
  0
POINT
  5
B5
100
AcDbEntity
  8
Defpoints
370
               0
390
0
 62
               0
100
AcDbPoint
 10
202.58409718714449
 20
327.4141229456875
 30
0.0
  0
POINT
  5
B6
100
AcDbEntity
  8
Defpoints
370
               0
390
0
 62
               0
100
AcDbPoint
 10
752.58409718714461
 20
327.4141229456875
 30
0.0
  0
POINT
  5
B7
100
AcDbEntity
  8
Defpoints
370
               0
390
0
 62
               0
100
AcDbPoint
 10
752.58409718714461
 20
157.41412294568738
 30
0.0
  0
ENDBLK
  5
B8
100
AcDbEntity
  8
notes
390
0
100
AcDbBlockEnd
  0
BLOCK
  5
B9
100
AcDbEntity
  8
notes
390
0
100
AcDbBlockBegin
  2
*D10
 70
               1
 10
0.0
 20
0.0
 30
0.0
  3
*D10
  1

  0
LINE
  5
BA
100
AcDbEntity
  8
0
370
              -2
390
0
  6
Continuous
 62
               0
100
AcDbLine
 10
-761.87950671911085
 20
799.41412294568727
 30
0.0
 11
-761.87950671911085
 21
927.4141229456875
 31
0.0
  0
LINE
  5
BB
100
AcDbEntity
  8
0
370
              -2
390
0
  6
Continuous
 62
               0
100
AcDbLine
 10
-111.87950671910841
 20
799.41412294568727
 30
0.0
 11
-111.87950671910841
 21
927.4141229456875
 31
0.0
  0
LINE
  5
BC
100
AcDbEntity
  8
0
370
              -2
390
0
  6
Continuous
 62
               0
100
AcDbLine
 10
-761.87950671911085
 20
927.4141229456875
 30
0.0
 11
-111.87950671910841
 21
927.4141229456875
 31
0.0
  0
CIRCLE
  5
BD
102
{ACAD_REACTORS
330
BE
102
}
100
AcDbEntity
  8
0
370
              -2
390
0
  6
Continuous
 62
               0
100
AcDbCircle
 10
-761.87950671911085
 20
927.4141229456875
 30
0.0
 40
4.99969482421875
  0
HATCH
  5
BE
100
AcDbEntity
  8
0
370
              -2
390
0
  6
Continuous
 62
               0
100
AcDbHatch
 10
0.0
 20
0.0
 30
0.0
210
0.0
220
0.0
230
1.0
  2
SOLID
 70
               1
 71
               1
 91
        1
 92
        1
 93
        1
 72
               2
 10
-761.87950671911085
 20
927.4141229456875
 40
4.99969482421875
 50
0.0
 51
360.0
 73
               0
 97
        1
330
BD
 75
               0
 76
               1
 98
        1
 10
0.0
 20
0.0
  0
CIRCLE
  5
BF
102
{ACAD_REACTORS
330
C0
102
}
100
AcDbEntity
  8
0
370
              -2
390
0
  6
Continuous
 62
               0
100
AcDbCircle
 10
-111.87950671910841
 20
927.4141229456875
 30
0.0
 40
4.99969482421875
  0
HATCH
  5
C0
100
AcDbEntity
  8
0
370
              -2
390
0
  6
Continuous
 62
               0
100
AcDbHatch
 10
0.0
 20
0.0
 30
0.0
210
0.0
220
0.0
230
1.0
  2
SOLID
 70
               1
 71
               1
 91
        1
 92
        1
 93
        1
 72
               2
 10
-111.87950671910841
 20
927.4141229456875
 40
4.99969482421875
 50
0.0
 51
360.0
 73
               0
 97
        1
330
BF
 75
               0
 76
               1
 98
        1
 10
0.0
 20
0.0
  0
MTEXT
  5
C1
100
AcDbEntity
  8
0
390
0
 62
               0
100
AcDbMText
 10
-460.69200840128508
 20
961.29174013318743
 30
0.0
 40
24.432617187500004
 41
0.0
 71
               1
 72
               1
  1
650
  7
ＭＳゴシック
 73
               1
 44
0.7828267384257843
  0
POINT
  5
C2
100
AcDbEntity
  8
Defpoints
370
               0
390
0
 62
               0
100
AcDbPoint
 10
-111.87950671910841
 20
774.41412294568727
 30
0.0
  0
POINT
  5
C3
100
AcDbEntity
  8
Defpoints
370
               0
390
0
 62
               0
100
AcDbPoint
 10
-761.87950671911085
 20
774.41412294568727
 30
0.0
  0
POINT
  5
C4
100
AcDbEntity
  8
Defpoints
370
               0
390
0
 62
               0
100
AcDbPoint
 10
-761.87950671911085
 20
927.4141229456875
 30
0.0
  0
ENDBLK
  5
C5
100
AcDbEntity
  8
notes
390
0
100
AcDbBlockEnd
  0
BLOCK
  5
C6
100
AcDbEntity
  8
notes
390
0
100
AcDbBlockBegin
  2
*D11
 70
               1
 10
0.0
 20
0.0
 30
0.0
  3
*D11
  1

  0
LINE
  5
C7
100
AcDbEntity
  8
0
370
              -2
390
0
  6
Continuous
 62
               0
100
AcDbLine
 10
-536.8795067191113
 20
730.17941653350522
 30
0.0
 11
-536.8795067191113
 21
877.4141229456875
 31
0.0
  0
LINE
  5
C8
100
AcDbEntity
  8
0
370
              -2
390
0
  6
Continuous
 62
               0
100
AcDbLine
 10
-436.87950671911142
 20
732.67941653350522
 30
0.0
 11
-436.87950671911142
 21
877.4141229456875
 31
0.0
  0
LINE
  5
C9
100
AcDbEntity
  8
0
370
              -2
390
0
  6
Continuous
 62
               0
100
AcDbLine
 10
-536.8795067191113
 20
877.4141229456875
 30
0.0
 11
-436.87950671911142
 21
877.4141229456875
 31
0.0
  0
CIRCLE
  5
CA
102
{ACAD_REACTORS
330
CB
102
}
100
AcDbEntity
  8
0
370
              -2
390
0
  6
Continuous
 62
               0
100
AcDbCircle
 10
-536.8795067191113
 20
877.4141229456875
 30
0.0
 40
4.99969482421875
  0
HATCH
  5
CB
100
AcDbEntity
  8
0
370
              -2
390
0
  6
Continuous
 62
               0
100
AcDbHatch
 10
0.0
 20
0.0
 30
0.0
210
0.0
220
0.0
230
1.0
  2
SOLID
 70
               1
 71
               1
 91
        1
 92
        1
 93
        1
 72
               2
 10
-536.8795067191113
 20
877.4141229456875
 40
4.99969482421875
 50
0.0
 51
360.0
 73
               0
 97
        1
330
CA
 75
               0
 76
               1
 98
        1
 10
0.0
 20
0.0
  0
CIRCLE
  5
CC
102
{ACAD_REACTORS
330
CD
102
}
100
AcDbEntity
  8
0
370
              -2
390
0
  6
Continuous
 62
               0
100
AcDbCircle
 10
-436.87950671911142
 20
877.4141229456875
 30
0.0
 40
4.99969482421875
  0
HATCH
  5
CD
100
AcDbEntity
  8
0
370
              -2
390
0
  6
Continuous
 62
               0
100
AcDbHatch
 10
0.0
 20
0.0
 30
0.0
210
0.0
220
0.0
230
1.0
  2
SOLID
 70
               1
 71
               1
 91
        1
 92
        1
 93
        1
 72
               2
 10
-436.87950671911142
 20
877.4141229456875
 40
4.99969482421875
 50
0.0
 51
360.0
 73
               0
 97
        1
330
CC
 75
               0
 76
               1
 98
        1
 10
0.0
 20
0.0
  0
MTEXT
  5
CE
100
AcDbEntity
  8
0
390
0
 62
               0
100
AcDbMText
 10
-510.69200840128678
 20
911.29174013318743
 30
0.0
 40
24.432617187500004
 41
0.0
 71
               1
 72
               1
  1
100
  7
ＭＳゴシック
 73
               1
 44
0.7828267384257843
  0
POINT
  5
CF
100
AcDbEntity
  8
Defpoints
370
               0
390
0
 62
               0
100
AcDbPoint
 10
-436.87950671911142
 20
707.67941653350522
 30
0.0
  0
POINT
  5
D0
100
AcDbEntity
  8
Defpoints
370
               0
390
0
 62
               0
100
AcDbPoint
 10
-536.8795067191113
 20
705.17941653350522
 30
0.0
  0
POINT
  5
D1
100
AcDbEntity
  8
Defpoints
370
               0
390
0
 62
               0
100
AcDbPoint
 10
-536.8795067191113
 20
877.4141229456875
 30
0.0
  0
ENDBLK
  5
D2
100
AcDbEntity
  8
notes
390
0
100
AcDbBlockEnd
  0
BLOCK
  5
D3
100
AcDbEntity
  8
notes
390
0
100
AcDbBlockBegin
  2
*D12
 70
               1
 10
0.0
 20
0.0
 30
0.0
  3
*D12
  1

  0
LINE
  5
D4
100
AcDbEntity
  8
0
370
              -2
390
0
  6
Continuous
 62
               0
100
AcDbLine
 10
-436.87950671911142
 20
732.67941653350522
 30
0.0
 11
-436.87950671911142
 21
877.4141229456875
 31
0.0
  0
LINE
  5
D5
100
AcDbEntity
  8
0
370
              -2
390
0
  6
Continuous
 62
               0
100
AcDbLine
 10
-336.87950671911142
 20
730.17941653350522
 30
0.0
 11
-336.87950671911142
 21
877.4141229456875
 31
0.0
  0
LINE
  5
D6
100
AcDbEntity
  8
0
370
              -2
390
0
  6
Continuous
 62
               0
100
AcDbLine
 10
-436.87950671911142
 20
877.4141229456875
 30
0.0
 11
-336.87950671911142
 21
877.4141229456875
 31
0.0
  0
CIRCLE
  5
D7
102
{ACAD_REACTORS
330
D8
102
}
100
AcDbEntity
  8
0
370
              -2
390
0
  6
Continuous
 62
               0
100
AcDbCircle
 10
-436.87950671911142
 20
877.4141229456875
 30
0.0
 40
4.99969482421875
  0
HATCH
  5
D8
100
AcDbEntity
  8
0
370
              -2
390
0
  6
Continuous
 62
               0
100
AcDbHatch
 10
0.0
 20
0.0
 30
0.0
210
0.0
220
0.0
230
1.0
  2
SOLID
 70
               1
 71
               1
 91
        1
 92
        1
 93
        1
 72
               2
 10
-436.87950671911142
 20
877.4141229456875
 40
4.99969482421875
 50
0.0
 51
360.0
 73
               0
 97
        1
330
D7
 75
               0
 76
               1
 98
        1
 10
0.0
 20
0.0
  0
CIRCLE
  5
D9
102
{ACAD_REACTORS
330
DA
102
}
100
AcDbEntity
  8
0
370
              -2
390
0
  6
Continuous
 62
               0
100
AcDbCircle
 10
-336.87950671911142
 20
877.4141229456875
 30
0.0
 40
4.99969482421875
  0
HATCH
  5
DA
100
AcDbEntity
  8
0
370
              -2
390
0
  6
Continuous
 62
               0
100
AcDbHatch
 10
0.0
 20
0.0
 30
0.0
210
0.0
220
0.0
230
1.0
  2
SOLID
 70
               1
 71
               1
 91
        1
 92
        1
 93
        1
 72
               2
 10
-336.87950671911142
 20
877.4141229456875
 40
4.99969482421875
 50
0.0
 51
360.0
 73
               0
 97
        1
330
D9
 75
               0
 76
               1
 98
        1
 10
0.0
 20
0.0
  0
MTEXT
  5
DB
100
AcDbEntity
  8
0
390
0
 62
               0
100
AcDbMText
 10
-410.6920084012869
 20
911.29174013318743
 30
0.0
 40
24.432617187500004
 41
0.0
 71
               1
 72
               1
  1
100
  7
ＭＳゴシック
 73
               1
 44
0.7828267384257843
  0
POINT
  5
DC
100
AcDbEntity
  8
Defpoints
370
               0
390
0
 62
               0
100
AcDbPoint
 10
-336.87950671911142
 20
705.17941653350522
 30
0.0
  0
POINT
  5
DD
100
AcDbEntity
  8
Defpoints
370
               0
390
0
 62
               0
100
AcDbPoint
 10
-436.87950671911142
 20
707.67941653350522
 30
0.0
  0
POINT
  5
DE
100
AcDbEntity
  8
Defpoints
370
               0
390
0
 62
               0
100
AcDbPoint
 10
-436.87950671911142
 20
877.4141229456875
 30
0.0
  0
ENDBLK
  5
DF
100
AcDbEntity
  8
notes
390
0
100
AcDbBlockEnd
  0
BLOCK
  5
E0
100
AcDbEntity
  8
notes
390
0
100
AcDbBlockBegin
  2
*D13
 70
               1
 10
0.0
 20
0.0
 30
0.0
  3
*D13
  1

  0
LINE
  5
E1
100
AcDbEntity
  8
0
370
              -2
390
0
  6
Continuous
 62
               0
100
AcDbLine
 10
-734.33542742338386
 20
-478.5080749378655
 30
0.0
 11
-861.8795067191113
 21
-478.5080749378655
 31
0.0
  0
LINE
  5
E2
100
AcDbEntity
  8
0
370
              -2
390
0
  6
Continuous
 62
               0
100
AcDbLine
 10
-783.87950671911085
 20
-438.5080749378655
 30
0.0
 11
-861.8795067191113
 21
-438.5080749378655
 31
0.0
  0
LINE
  5
E3
100
AcDbEntity
  8
0
370
              -2
390
0
  6
Continuous
 62
               0
100
AcDbLine
 10
-861.8795067191113
 20
-478.5080749378655
 30
0.0
 11
-861.8795067191113
 21
-438.5080749378655
 31
0.0
  0
CIRCLE
  5
E4
102
{ACAD_REACTORS
330
E5
102
}
100
AcDbEntity
  8
0
370
              -2
390
0
  6
Continuous
 62
               0
100
AcDbCircle
 10
-861.8795067191113
 20
-478.5080749378655
 30
0.0
 40
4.99969482421875
  0
HATCH
  5
E5
100
AcDbEntity
  8
0
370
              -2
390
0
  6
Continuous
 62
               0
100
AcDbHatch
 10
0.0
 20
0.0
 30
0.0
210
0.0
220
0.0
230
1.0
  2
SOLID
 70
               1
 71
               1
 91
        1
 92
        1
 93
        1
 72
               2
 10
-861.8795067191113
 20
-478.5080749378655
 40
4.99969482421875
 50
0.0
 51
360.0
 73
               0
 97
        1
330
E4
 75
               0
 76
               1
 98
        1
 10
0.0
 20
0.0
  0
CIRCLE
  5
E6
102
{ACAD_REACTORS
330
E7
102
}
100
AcDbEntity
  8
0
370
              -2
390
0
  6
Continuous
 62
               0
100
AcDbCircle
 10
-861.8795067191113
 20
-438.5080749378655
 30
0.0
 40
4.99969482421875
  0
HATCH
  5
E7
100
AcDbEntity
  8
0
370
              -2
390
0
  6
Continuous
 62
               0
100
AcDbHatch
 10
0.0
 20
0.0
 30
0.0
210
0.0
220
0.0
230
1.0
  2
SOLID
 70
               1
 71
               1
 91
        1
 92
        1
 93
        1
 72
               2
 10
-861.8795067191113
 20
-438.5080749378655
 40
4.99969482421875
 50
0.0
 51
360.0
 73
               0
 97
        1
330
E6
 75
               0
 76
               1
 98
        1
 10
0.0
 20
0.0
  0
MTEXT
  5
E8
100
AcDbEntity
  8
0
390
0
 62
               0
100
AcDbMText
 10
-895.75712390661124
 20
-472.93529173324737
 30
0.0
 40
24.432617187500004
 41
0.0
 71
               1
 72
               1
  1
40
  7
ＭＳゴシック
 11
0.0
 21
1.0
 31
0.0
 73
               1
 44
0.7828267384257843
  0
POINT
  5
E9
100
AcDbEntity
  8
Defpoints
370
               0
390
0
 62
               0
100
AcDbPoint
 10
-758.87950671911085
 20
-438.5080749378655
 30
0.0
  0
POINT
  5
EA
100
AcDbEntity
  8
Defpoints
370
               0
390
0
 62
               0
100
AcDbPoint
 10
-709.33542742338386
 20
-478.5080749378655
 30
0.0
  0
POINT
  5
EB
100
AcDbEntity
  8
Defpoints
370
               0
390
0
 62
               0
100
AcDbPoint
 10
-861.8795067191113
 20
-478.5080749378655
 30
0.0
  0
ENDBLK
  5
EC
100
AcDbEntity
  8
notes
390
0
100
AcDbBlockEnd
  0
BLOCK
  5
ED
100
AcDbEntity
  8
notes
390
0
100
AcDbBlockBegin
  2
*D14
 70
               1
 10
0.0
 20
0.0
 30
0.0
  3
*D14
  1

  0
LINE
  5
EE
100
AcDbEntity
  8
0
370
              -2
390
0
  6
Continuous
 62
               0
100
AcDbLine
 10
-89.879506719108406
 20
777.4141229456875
 30
0.0
 11
-11.879506719108406
 21
777.4141229456875
 31
0.0
  0
LINE
  5
EF
100
AcDbEntity
  8
0
370
              -2
390
0
  6
Continuous
 62
               0
100
AcDbLine
 10
-136.87950671910841
 20
257.4141229456875
 30
0.0
 11
-11.879506719108406
 21
257.4141229456875
 31
0.0
  0
LINE
  5
F0
100
AcDbEntity
  8
0
370
              -2
390
0
  6
Continuous
 62
               0
100
AcDbLine
 10
-11.879506719108406
 20
777.4141229456875
 30
0.0
 11
-11.879506719108406
 21
257.4141229456875
 31
0.0
  0
CIRCLE
  5
F1
102
{ACAD_REACTORS
330
F2
102
}
100
AcDbEntity
  8
0
370
              -2
390
0
  6
Continuous
 62
               0
100
AcDbCircle
 10
-11.879506719108406
 20
777.4141229456875
 30
0.0
 40
4.99969482421875
  0
HATCH
  5
F2
100
AcDbEntity
  8
0
370
              -2
390
0
  6
Continuous
 62
               0
100
AcDbHatch
 10
0.0
 20
0.0
 30
0.0
210
0.0
220
0.0
230
1.0
  2
SOLID
 70
               1
 71
               1
 91
        1
 92
        1
 93
        1
 72
               2
 10
-11.879506719108406
 20
777.4141229456875
 40
4.99969482421875
 50
0.0
 51
360.0
 73
               0
 97
        1
330
F1
 75
               0
 76
               1
 98
        1
 10
0.0
 20
0.0
  0
CIRCLE
  5
F3
102
{ACAD_REACTORS
330
F4
102
}
100
AcDbEntity
  8
0
370
              -2
390
0
  6
Continuous
 62
               0
100
AcDbCircle
 10
-11.879506719108406
 20
257.4141229456875
 30
0.0
 40
4.99969482421875
  0
HATCH
  5
F4
100
AcDbEntity
  8
0
370
              -2
390
0
  6
Continuous
 62
               0
100
AcDbHatch
 10
0.0
 20
0.0
 30
0.0
210
0.0
220
0.0
230
1.0
  2
SOLID
 70
               1
 71
               1
 91
        1
 92
        1
 93
        1
 72
               2
 10
-11.879506719108406
 20
257.4141229456875
 40
4.99969482421875
 50
0.0
 51
360.0
 73
               0
 97
        1
330
F3
 75
               0
 76
               1
 98
        1
 10
0.0
 20
0.0
  0
MTEXT
  5
F5
100
AcDbEntity
  8
0
390
0
 62
               0
100
AcDbMText
 10
-45.757123906608399
 20
493.60162126351202
 30
0.0
 40
24.432617187500004
 41
0.0
 71
               1
 72
               1
  1
520
  7
ＭＳゴシック
 11
0.0
 21
1.0
 31
0.0
 73
               1
 44
0.7828267384257843
  0
POINT
  5
F6
100
AcDbEntity
  8
Defpoints
370
               0
390
0
 62
               0
100
AcDbPoint
 10
-161.87950671910841
 20
257.4141229456875
 30
0.0
  0
POINT
  5
F7
100
AcDbEntity
  8
Defpoints
370
               0
390
0
 62
               0
100
AcDbPoint
 10
-114.87950671910841
 20
777.4141229456875
 30
0.0
  0
POINT
  5
F8
100
AcDbEntity
  8
Defpoints
370
               0
390
0
 62
               0
100
AcDbPoint
 10
-11.879506719108406
 20
777.4141229456875
 30
0.0
  0
ENDBLK
  5
F9
100
AcDbEntity
  8
notes
390
0
100
AcDbBlockEnd
  0
BLOCK
  5
FA
100
AcDbEntity
  8
notes
390
0
100
AcDbBlockBegin
  2
*D15
 70
               1
 10
0.0
 20
0.0
 30
0.0
  3
*D15
  1

  0
LINE
  5
FB
100
AcDbEntity
  8
0
370
              -2
390
0
  6
Continuous
 62
               0
100
AcDbLine
 10
-786.87950671911085
 20
317.41412294568704
 30
0.0
 11
-861.87950671911085
 21
317.41412294568704
 31
0.0
  0
LINE
  5
FC
100
AcDbEntity
  8
0
370
              -2
390
0
  6
Continuous
 62
               0
100
AcDbLine
 10
-786.87950671911085
 20
627.41412294568704
 30
0.0
 11
-861.87950671911085
 21
627.41412294568704
 31
0.0
  0
LINE
  5
FD
100
AcDbEntity
  8
0
370
              -2
390
0
  6
Continuous
 62
               0
100
AcDbLine
 10
-861.87950671911085
 20
317.41412294568704
 30
0.0
 11
-861.87950671911085
 21
627.41412294568704
 31
0.0
  0
CIRCLE
  5
FE
102
{ACAD_REACTORS
330
FF
102
}
100
AcDbEntity
  8
0
370
              -2
390
0
  6
Continuous
 62
               0
100
AcDbCircle
 10
-861.87950671911085
 20
317.41412294568704
 30
0.0
 40
4.99969482421875
  0
HATCH
  5
FF
100
AcDbEntity
  8
0
370
              -2
390
0
  6
Continuous
 62
               0
100
AcDbHatch
 10
0.0
 20
0.0
 30
0.0
210
0.0
220
0.0
230
1.0
  2
SOLID
 70
               1
 71
               1
 91
        1
 92
        1
 93
        1
 72
               2
 10
-861.87950671911085
 20
317.41412294568704
 40
4.99969482421875
 50
0.0
 51
360.0
 73
               0
 97
        1
330
FE
 75
               0
 76
               1
 98
        1
 10
0.0
 20
0.0
  0
CIRCLE
  5
100
102
{ACAD_REACTORS
330
101
102
}
100
AcDbEntity
  8
0
370
              -2
390
0
  6
Continuous
 62
               0
100
AcDbCircle
 10
-861.87950671911085
 20
627.41412294568704
 30
0.0
 40
4.99969482421875
  0
HATCH
  5
101
100
AcDbEntity
  8
0
370
              -2
390
0
  6
Continuous
 62
               0
100
AcDbHatch
 10
0.0
 20
0.0
 30
0.0
210
0.0
220
0.0
230
1.0
  2
SOLID
 70
               1
 71
               1
 91
        1
 92
        1
 93
        1
 72
               2
 10
-861.87950671911085
 20
627.41412294568704
 40
4.99969482421875
 50
0.0
 51
360.0
 73
               0
 97
        1
330
100
 75
               0
 76
               1
 98
        1
 10
0.0
 20
0.0
  0
MTEXT
  5
102
100
AcDbEntity
  8
0
390
0
 62
               0
100
AcDbMText
 10
-895.75712390661079
 20
448.60162126351156
 30
0.0
 40
24.432617187500004
 41
0.0
 71
               1
 72
               1
  1
310
  7
ＭＳゴシック
 11
0.0
 21
1.0
 31
0.0
 73
               1
 44
0.7828267384257843
  0
POINT
  5
103
100
AcDbEntity
  8
Defpoints
370
               0
390
0
 62
               0
100
AcDbPoint
 10
-761.87950671911085
 20
627.41412294568704
 30
0.0
  0
POINT
  5
104
100
AcDbEntity
  8
Defpoints
370
               0
390
0
 62
               0
100
AcDbPoint
 10
-761.87950671911085
 20
317.41412294568704
 30
0.0
  0
POINT
  5
105
100
AcDbEntity
  8
Defpoints
370
               0
390
0
 62
               0
100
AcDbPoint
 10
-861.87950671911085
 20
317.41412294568704
 30
0.0
  0
ENDBLK
  5
106
100
AcDbEntity
  8
notes
390
0
100
AcDbBlockEnd
  0
BLOCK
  5
107
100
AcDbEntity
  8
notes
390
0
100
AcDbBlockBegin
  2
*D16
 70
               1
 10
0.0
 20
0.0
 30
0.0
  3
*D16
  1

  0
LINE
  5
108
100
AcDbEntity
  8
0
370
              -2
390
0
  6
Continuous
 62
               0
100
AcDbLine
 10
-786.87950671911085
 20
627.41412294568704
 30
0.0
 11
-861.87950671911085
 21
627.41412294568704
 31
0.0
  0
LINE
  5
109
100
AcDbEntity
  8
0
370
              -2
390
0
  6
Continuous
 62
               0
100
AcDbLine
 10
-783.87950671911085
 20
777.4141229456875
 30
0.0
 11
-861.87950671911085
 21
777.4141229456875
 31
0.0
  0
LINE
  5
10A
100
AcDbEntity
  8
0
370
              -2
390
0
  6
Continuous
 62
               0
100
AcDbLine
 10
-861.87950671911085
 20
627.41412294568704
 30
0.0
 11
-861.87950671911085
 21
777.4141229456875
 31
0.0
  0
CIRCLE
  5
10B
102
{ACAD_REACTORS
330
10C
102
}
100
AcDbEntity
  8
0
370
              -2
390
0
  6
Continuous
 62
               0
100
AcDbCircle
 10
-861.87950671911085
 20
627.41412294568704
 30
0.0
 40
4.99969482421875
  0
HATCH
  5
10C
100
AcDbEntity
  8
0
370
              -2
390
0
  6
Continuous
 62
               0
100
AcDbHatch
 10
0.0
 20
0.0
 30
0.0
210
0.0
220
0.0
230
1.0
  2
SOLID
 70
               1
 71
               1
 91
        1
 92
        1
 93
        1
 72
               2
 10
-861.87950671911085
 20
627.41412294568704
 40
4.99969482421875
 50
0.0
 51
360.0
 73
               0
 97
        1
330
10B
 75
               0
 76
               1
 98
        1
 10
0.0
 20
0.0
  0
CIRCLE
  5
10D
102
{ACAD_REACTORS
330
10E
102
}
100
AcDbEntity
  8
0
370
              -2
390
0
  6
Continuous
 62
               0
100
AcDbCircle
 10
-861.87950671911085
 20
777.4141229456875
 30
0.0
 40
4.99969482421875
  0
HATCH
  5
10E
100
AcDbEntity
  8
0
370
              -2
390
0
  6
Continuous
 62
               0
100
AcDbHatch
 10
0.0
 20
0.0
 30
0.0
210
0.0
220
0.0
230
1.0
  2
SOLID
 70
               1
 71
               1
 91
        1
 92
        1
 93
        1
 72
               2
 10
-861.87950671911085
 20
777.4141229456875
 40
4.99969482421875
 50
0.0
 51
360.0
 73
               0
 97
        1
330
10D
 75
               0
 76
               1
 98
        1
 10
0.0
 20
0.0
  0
MTEXT
  5
10F
100
AcDbEntity
  8
0
390
0
 62
               0
100
AcDbMText
 10
-895.75712390661079
 20
678.60162126351179
 30
0.0
 40
24.432617187500004
 41
0.0
 71
               1
 72
               1
  1
150
  7
ＭＳゴシック
 11
0.0
 21
1.0
 31
0.0
 73
               1
 44
0.7828267384257843
  0
POINT
  5
110
100
AcDbEntity
  8
Defpoints
370
               0
390
0
 62
               0
100
AcDbPoint
 10
-758.87950671911085
 20
777.4141229456875
 30
0.0
  0
POINT
  5
111
100
AcDbEntity
  8
Defpoints
370
               0
390
0
 62
               0
100
AcDbPoint
 10
-761.87950671911085
 20
627.41412294568704
 30
0.0
  0
POINT
  5
112
100
AcDbEntity
  8
Defpoints
370
               0
390
0
 62
               0
100
AcDbPoint
 10
-861.87950671911085
 20
627.41412294568704
 30
0.0
  0
ENDBLK
  5
113
100
AcDbEntity
  8
notes
390
0
100
AcDbBlockEnd
  0
BLOCK
  5
114
100
AcDbEntity
  8
notes
390
0
100
AcDbBlockBegin
  2
*D17
 70
               1
 10
0.0
 20
0.0
 30
0.0
  3
*D17
  1

  0
LINE
  5
115
100
AcDbEntity
  8
0
370
              -2
390
0
  6
Continuous
 62
               0
100
AcDbLine
 10
825.61442146364448
 20
-616.18616452765104
 30
0.0
 11
825.61442146364448
 21
-698.43616452765104
 31
0.0
  0
LINE
  5
116
100
AcDbEntity
  8
0
370
              -2
390
0
  6
Continuous
 62
               0
100
AcDbLine
 10
575.6144214636447
 20
-618.46757033613881
 30
0.0
 11
575.6144214636447
 21
-698.43616452765104
 31
0.0
  0
LINE
  5
117
100
AcDbEntity
  8
0
370
              -2
390
0
  6
Continuous
 62
               0
100
AcDbLine
 10
825.61442146364448
 20
-698.43616452765104
 30
0.0
 11
575.6144214636447
 21
-698.43616452765104
 31
0.0
  0
CIRCLE
  5
118
102
{ACAD_REACTORS
330
119
102
}
100
AcDbEntity
  8
0
370
              -2
390
0
  6
Continuous
 62
               0
100
AcDbCircle
 10
825.61442146364448
 20
-698.43616452765104
 30
0.0
 40
4.99969482421875
  0
HATCH
  5
119
100
AcDbEntity
  8
0
370
              -2
390
0
  6
Continuous
 62
               0
100
AcDbHatch
 10
0.0
 20
0.0
 30
0.0
210
0.0
220
0.0
230
1.0
  2
SOLID
 70
               1
 71
               1
 91
        1
 92
        1
 93
        1
 72
               2
 10
825.61442146364448
 20
-698.43616452765104
 40
4.99969482421875
 50
0.0
 51
360.0
 73
               0
 97
        1
330
118
 75
               0
 76
               1
 98
        1
 10
0.0
 20
0.0
  0
CIRCLE
  5
11A
102
{ACAD_REACTORS
330
11B
102
}
100
AcDbEntity
  8
0
370
              -2
390
0
  6
Continuous
 62
               0
100
AcDbCircle
 10
575.6144214636447
 20
-698.43616452765104
 30
0.0
 40
4.99969482421875
  0
HATCH
  5
11B
100
AcDbEntity
  8
0
370
              -2
390
0
  6
Continuous
 62
               0
100
AcDbHatch
 10
0.0
 20
0.0
 30
0.0
210
0.0
220
0.0
230
1.0
  2
SOLID
 70
               1
 71
               1
 91
        1
 92
        1
 93
        1
 72
               2
 10
575.6144214636447
 20
-698.43616452765104
 40
4.99969482421875
 50
0.0
 51
360.0
 73
               0
 97
        1
330
11A
 75
               0
 76
               1
 98
        1
 10
0.0
 20
0.0
  0
MTEXT
  5
11C
100
AcDbEntity
  8
0
390
0
 62
               0
100
AcDbMText
 10
676.801919781469
 20
-664.55854734015111
 30
0.0
 40
24.432617187500004
 41
0.0
 71
               1
 72
               1
  1
250
  7
ＭＳゴシック
 73
               1
 44
0.7828267384257843
  0
POINT
  5
11D
100
AcDbEntity
  8
Defpoints
370
               0
390
0
 62
               0
100
AcDbPoint
 10
575.6144214636447
 20
-593.46757033613881
 30
0.0
  0
POINT
  5
11E
100
AcDbEntity
  8
Defpoints
370
               0
390
0
 62
               0
100
AcDbPoint
 10
825.61442146364448
 20
-591.18616452765104
 30
0.0
  0
POINT
  5
11F
100
AcDbEntity
  8
Defpoints
370
               0
390
0
 62
               0
100
AcDbPoint
 10
825.61442146364448
 20
-698.43616452765104
 30
0.0
  0
ENDBLK
  5
120
100
AcDbEntity
  8
notes
390
0
100
AcDbBlockEnd
  0
BLOCK
  5
121
100
AcDbEntity
  8
notes
390
0
100
AcDbBlockBegin
  2
*D18
 70
               1
 10
0.0
 20
0.0
 30
0.0
  3
*D18
  1

  0
LINE
  5
122
100
AcDbEntity
  8
0
370
              -2
390
0
  6
Continuous
 62
               0
100
AcDbLine
 10
-89.879506719111077
 20
-438.5080749378655
 30
0.0
 11
-11.879506719108406
 21
-438.5080749378655
 31
0.0
  0
LINE
  5
123
100
AcDbEntity
  8
0
370
              -2
390
0
  6
Continuous
 62
               0
100
AcDbLine
 10
-229.33542742338409
 20
-598.53514117552095
 30
0.0
 11
-11.879506719108406
 21
-598.53514117552095
 31
0.0
  0
LINE
  5
124
100
AcDbEntity
  8
0
370
              -2
390
0
  6
Continuous
 62
               0
100
AcDbLine
 10
-11.879506719108406
 20
-438.5080749378655
 30
0.0
 11
-11.879506719108406
 21
-598.53514117552095
 31
0.0
  0
CIRCLE
  5
125
102
{ACAD_REACTORS
330
126
102
}
100
AcDbEntity
  8
0
370
              -2
390
0
  6
Continuous
 62
               0
100
AcDbCircle
 10
-11.879506719108406
 20
-438.5080749378655
 30
0.0
 40
4.99969482421875
  0
HATCH
  5
126
100
AcDbEntity
  8
0
370
              -2
390
0
  6
Continuous
 62
               0
100
AcDbHatch
 10
0.0
 20
0.0
 30
0.0
210
0.0
220
0.0
230
1.0
  2
SOLID
 70
               1
 71
               1
 91
        1
 92
        1
 93
        1
 72
               2
 10
-11.879506719108406
 20
-438.5080749378655
 40
4.99969482421875
 50
0.0
 51
360.0
 73
               0
 97
        1
330
125
 75
               0
 76
               1
 98
        1
 10
0.0
 20
0.0
  0
CIRCLE
  5
127
102
{ACAD_REACTORS
330
128
102
}
100
AcDbEntity
  8
0
370
              -2
390
0
  6
Continuous
 62
               0
100
AcDbCircle
 10
-11.879506719108406
 20
-598.53514117552095
 30
0.0
 40
4.99969482421875
  0
HATCH
  5
128
100
AcDbEntity
  8
0
370
              -2
390
0
  6
Continuous
 62
               0
100
AcDbHatch
 10
0.0
 20
0.0
 30
0.0
210
0.0
220
0.0
230
1.0
  2
SOLID
 70
               1
 71
               1
 91
        1
 92
        1
 93
        1
 72
               2
 10
-11.879506719108406
 20
-598.53514117552095
 40
4.99969482421875
 50
0.0
 51
360.0
 73
               0
 97
        1
330
127
 75
               0
 76
               1
 98
        1
 10
0.0
 20
0.0
  0
MTEXT
  5
129
100
AcDbEntity
  8
0
390
0
 62
               0
100
AcDbMText
 10
-45.757123906608399
 20
-542.33410973886885
 30
0.0
 40
24.432617187500004
 41
0.0
 71
               1
 72
               1
  1
160
  7
ＭＳゴシック
 11
0.0
 21
1.0
 31
0.0
 73
               1
 44
0.7828267384257843
  0
POINT
  5
12A
100
AcDbEntity
  8
Defpoints
370
               0
390
0
 62
               0
100
AcDbPoint
 10
-254.33542742338409
 20
-598.53514117552095
 30
0.0
  0
POINT
  5
12B
100
AcDbEntity
  8
Defpoints
370
               0
390
0
 62
               0
100
AcDbPoint
 10
-114.87950671911108
 20
-438.5080749378655
 30
0.0
  0
POINT
  5
12C
100
AcDbEntity
  8
Defpoints
370
               0
390
0
 62
               0
100
AcDbPoint
 10
-11.879506719108406
 20
-438.5080749378655
 30
0.0
  0
ENDBLK
  5
12D
100
AcDbEntity
  8
notes
390
0
100
AcDbBlockEnd
  0
BLOCK
  5
12E
100
AcDbEntity
  8
notes
390
0
100
AcDbBlockBegin
  2
*D19
 70
               1
 10
0.0
 20
0.0
 30
0.0
  3
*D19
  1

  0
LINE
  5
12F
100
AcDbEntity
  8
0
370
              -2
390
0
  6
Continuous
 62
               0
100
AcDbLine
 10
286.72031971927447
 20
-438.49237472398289
 30
0.0
 11
205.72098408176052
 21
-438.49237472398289
 31
0.0
  0
LINE
  5
130
100
AcDbEntity
  8
0
370
              -2
390
0
  6
Continuous
 62
               0
100
AcDbLine
 10
286.72031971927447
 20
-538.5184965439505
 30
0.0
 11
205.72098408176052
 21
-538.5184965439505
 31
0.0
  0
LINE
  5
131
100
AcDbEntity
  8
0
370
              -2
390
0
  6
Continuous
 62
               0
100
AcDbLine
 10
205.72098408176052
 20
-438.49237472398289
 30
0.0
 11
205.72098408176052
 21
-538.5184965439505
 31
0.0
  0
CIRCLE
  5
132
102
{ACAD_REACTORS
330
133
102
}
100
AcDbEntity
  8
0
370
              -2
390
0
  6
Continuous
 62
               0
100
AcDbCircle
 10
205.72098408176052
 20
-438.49237472398289
 30
0.0
 40
4.99969482421875
  0
HATCH
  5
133
100
AcDbEntity
  8
0
370
              -2
390
0
  6
Continuous
 62
               0
100
AcDbHatch
 10
0.0
 20
0.0
 30
0.0
210
0.0
220
0.0
230
1.0
  2
SOLID
 70
               1
 71
               1
 91
        1
 92
        1
 93
        1
 72
               2
 10
205.72098408176052
 20
-438.49237472398289
 40
4.99969482421875
 50
0.0
 51
360.0
 73
               0
 97
        1
330
132
 75
               0
 76
               1
 98
        1
 10
0.0
 20
0.0
  0
CIRCLE
  5
134
102
{ACAD_REACTORS
330
135
102
}
100
AcDbEntity
  8
0
370
              -2
390
0
  6
Continuous
 62
               0
100
AcDbCircle
 10
205.72098408176052
 20
-538.5184965439505
 30
0.0
 40
4.99969482421875
  0
HATCH
  5
135
100
AcDbEntity
  8
0
370
              -2
390
0
  6
Continuous
 62
               0
100
AcDbHatch
 10
0.0
 20
0.0
 30
0.0
210
0.0
220
0.0
230
1.0
  2
SOLID
 70
               1
 71
               1
 91
        1
 92
        1
 93
        1
 72
               2
 10
205.72098408176052
 20
-538.5184965439505
 40
4.99969482421875
 50
0.0
 51
360.0
 73
               0
 97
        1
330
134
 75
               0
 76
               1
 98
        1
 10
0.0
 20
0.0
  0
MTEXT
  5
136
100
AcDbEntity
  8
0
390
0
 62
               0
100
AcDbMText
 10
171.8433668942605
 20
-512.31793731614221
 30
0.0
 40
24.432617187500004
 41
0.0
 71
               1
 72
               1
  1
100
  7
ＭＳゴシック
 11
0.0
 21
1.0
 31
0.0
 73
               1
 44
0.7828267384257843
  0
POINT
  5
137
100
AcDbEntity
  8
Defpoints
370
               0
390
0
 62
               0
100
AcDbPoint
 10
311.72031971927441
 20
-538.5184965439505
 30
0.0
  0
POINT
  5
138
100
AcDbEntity
  8
Defpoints
370
               0
390
0
 62
               0
100
AcDbPoint
 10
311.72031971927441
 20
-438.49237472398289
 30
0.0
  0
POINT
  5
139
100
AcDbEntity
  8
Defpoints
370
               0
390
0
 62
               0
100
AcDbPoint
 10
205.72098408176052
 20
-438.49237472398289
 30
0.0
  0
ENDBLK
  5
13A
100
AcDbEntity
  8
notes
390
0
100
AcDbBlockEnd
  0
BLOCK
  5
13B
100
AcDbEntity
  8
notes
390
0
100
AcDbBlockBegin
  2
*D20
 70
               1
 10
0.0
 20
0.0
 30
0.0
  3
*D20
  1

  0
LINE
  5
13C
100
AcDbEntity
  8
0
370
              -2
390
0
  6
Continuous
 62
               0
100
AcDbLine
 10
627.56215994755303
 20
497.4141229456875
 30
0.0
 11
702.56215994755303
 21
497.4141229456875
 31
0.0
  0
LINE
  5
13D
100
AcDbEntity
  8
0
370
              -2
390
0
  6
Continuous
 62
               0
100
AcDbLine
 10
627.56215994755303
 20
757.4141229456875
 30
0.0
 11
702.56215994755303
 21
757.4141229456875
 31
0.0
  0
LINE
  5
13E
100
AcDbEntity
  8
0
370
              -2
390
0
  6
Continuous
 62
               0
100
AcDbLine
 10
702.56215994755303
 20
497.4141229456875
 30
0.0
 11
702.56215994755303
 21
757.4141229456875
 31
0.0
  0
CIRCLE
  5
13F
102
{ACAD_REACTORS
330
140
102
}
100
AcDbEntity
  8
0
370
              -2
390
0
  6
Continuous
 62
               0
100
AcDbCircle
 10
702.56215994755303
 20
497.4141229456875
 30
0.0
 40
4.99969482421875
  0
HATCH
  5
140
100
AcDbEntity
  8
0
370
              -2
390
0
  6
Continuous
 62
               0
100
AcDbHatch
 10
0.0
 20
0.0
 30
0.0
210
0.0
220
0.0
230
1.0
  2
SOLID
 70
               1
 71
               1
 91
        1
 92
        1
 93
        1
 72
               2
 10
702.56215994755303
 20
497.4141229456875
 40
4.99969482421875
 50
0.0
 51
360.0
 73
               0
 97
        1
330
13F
 75
               0
 76
               1
 98
        1
 10
0.0
 20
0.0
  0
CIRCLE
  5
141
102
{ACAD_REACTORS
330
142
102
}
100
AcDbEntity
  8
0
370
              -2
390
0
  6
Continuous
 62
               0
100
AcDbCircle
 10
702.56215994755303
 20
757.4141229456875
 30
0.0
 40
4.99969482421875
  0
HATCH
  5
142
100
AcDbEntity
  8
0
370
              -2
390
0
  6
Continuous
 62
               0
100
AcDbHatch
 10
0.0
 20
0.0
 30
0.0
210
0.0
220
0.0
230
1.0
  2
SOLID
 70
               1
 71
               1
 91
        1
 92
        1
 93
        1
 72
               2
 10
702.56215994755303
 20
757.4141229456875
 40
4.99969482421875
 50
0.0
 51
360.0
 73
               0
 97
        1
330
141
 75
               0
 76
               1
 98
        1
 10
0.0
 20
0.0
  0
MTEXT
  5
143
100
AcDbEntity
  8
0
390
0
 62
               0
100
AcDbMText
 10
668.68454276005309
 20
603.60162126351202
 30
0.0
 40
24.432617187500004
 41
0.0
 71
               1
 72
               1
  1
260
  7
ＭＳゴシック
 11
0.0
 21
1.0
 31
0.0
 73
               1
 44
0.7828267384257843
  0
POINT
  5
144
100
AcDbEntity
  8
Defpoints
370
               0
390
0
 62
               0
100
AcDbPoint
 10
602.56215994755303
 20
757.4141229456875
 30
0.0
  0
POINT
  5
145
100
AcDbEntity
  8
Defpoints
370
               0
390
0
 62
               0
100
AcDbPoint
 10
602.56215994755303
 20
497.4141229456875
 30
0.0
  0
POINT
  5
146
100
AcDbEntity
  8
Defpoints
370
               0
390
0
 62
               0
100
AcDbPoint
 10
702.56215994755303
 20
497.4141229456875
 30
0.0
  0
ENDBLK
  5
147
100
AcDbEntity
  8
notes
390
0
100
AcDbBlockEnd
  0
BLOCK
  5
148
100
AcDbEntity
  8
notes
390
0
100
AcDbBlockBegin
  2
*D21
 70
               1
 10
0.0
 20
0.0
 30
0.0
  3
*D21
  1

  0
LINE
  5
149
100
AcDbEntity
  8
0
370
              -2
390
0
  6
Continuous
 62
               0
100
AcDbLine
 10
627.56215994755303
 20
757.4141229456875
 30
0.0
 11
702.56215994755303
 21
757.4141229456875
 31
0.0
  0
LINE
  5
14A
100
AcDbEntity
  8
0
370
              -2
390
0
  6
Continuous
 62
               0
100
AcDbLine
 10
627.56215994755303
 20
777.4141229456875
 30
0.0
 11
702.56215994755303
 21
777.4141229456875
 31
0.0
  0
LINE
  5
14B
100
AcDbEntity
  8
0
370
              -2
390
0
  6
Continuous
 62
               0
100
AcDbLine
 10
702.56215994755303
 20
777.4141229456875
 30
0.0
 11
702.56215994755303
 21
815.0391229456875
 31
0.0
  0
LINE
  5
14C
100
AcDbEntity
  8
0
370
              -2
390
0
  6
Continuous
 62
               0
100
AcDbLine
 10
702.56215994755303
 20
757.4141229456875
 30
0.0
 11
702.56215994755303
 21
777.4141229456875
 31
0.0
  0
CIRCLE
  5
14D
102
{ACAD_REACTORS
330
14E
102
}
100
AcDbEntity
  8
0
370
              -2
390
0
  6
Continuous
 62
               0
100
AcDbCircle
 10
702.56215994755303
 20
757.4141229456875
 30
0.0
 40
4.99969482421875
  0
HATCH
  5
14E
100
AcDbEntity
  8
0
370
              -2
390
0
  6
Continuous
 62
               0
100
AcDbHatch
 10
0.0
 20
0.0
 30
0.0
210
0.0
220
0.0
230
1.0
  2
SOLID
 70
               1
 71
               1
 91
        1
 92
        1
 93
        1
 72
               2
 10
702.56215994755303
 20
757.4141229456875
 40
4.99969482421875
 50
0.0
 51
360.0
 73
               0
 97
        1
330
14D
 75
               0
 76
               1
 98
        1
 10
0.0
 20
0.0
  0
CIRCLE
  5
14F
102
{ACAD_REACTORS
330
150
102
}
100
AcDbEntity
  8
0
370
              -2
390
0
  6
Continuous
 62
               0
100
AcDbCircle
 10
702.56215994755303
 20
777.4141229456875
 30
0.0
 40
4.99969482421875
  0
HATCH
  5
150
100
AcDbEntity
  8
0
370
              -2
390
0
  6
Continuous
 62
               0
100
AcDbHatch
 10
0.0
 20
0.0
 30
0.0
210
0.0
220
0.0
230
1.0
  2
SOLID
 70
               1
 71
               1
 91
        1
 92
        1
 93
        1
 72
               2
 10
702.56215994755303
 20
777.4141229456875
 40
4.99969482421875
 50
0.0
 51
360.0
 73
               0
 97
        1
330
14F
 75
               0
 76
               1
 98
        1
 10
0.0
 20
0.0
  0
MTEXT
  5
151
100
AcDbEntity
  8
0
390
0
 62
               0
100
AcDbMText
 10
668.68454276005309
 20
783.2891229456875
 30
0.0
 40
24.432617187500004
 41
0.0
 71
               1
 72
               1
  1
20
  7
ＭＳゴシック
 11
0.0
 21
1.0
 31
0.0
 73
               1
 44
0.7828267384257843
  0
POINT
  5
152
100
AcDbEntity
  8
Defpoints
370
               0
390
0
 62
               0
100
AcDbPoint
 10
602.56215994755303
 20
777.4141229456875
 30
0.0
  0
POINT
  5
153
100
AcDbEntity
  8
Defpoints
370
               0
390
0
 62
               0
100
AcDbPoint
 10
602.56215994755303
 20
757.4141229456875
 30
0.0
  0
POINT
  5
154
100
AcDbEntity
  8
Defpoints
370
               0
390
0
 62
               0
100
AcDbPoint
 10
702.56215994755303
 20
757.4141229456875
 30
0.0
  0
ENDBLK
  5
155
100
AcDbEntity
  8
notes
390
0
100
AcDbBlockEnd
  0
BLOCK
  5
156
100
AcDbEntity
  8
notes
390
0
100
AcDbBlockBegin
  2
*D22
 70
               1
 10
0.0
 20
0.0
 30
0.0
  3
*D22
  1

  0
LINE
  5
157
100
AcDbEntity
  8
0
370
              -2
390
0
  6
Continuous
 62
               0
100
AcDbLine
 10
352.56215994755303
 20
472.4141229456875
 30
0.0
 11
352.56215994755303
 21
397.4141229456875
 31
0.0
  0
LINE
  5
158
100
AcDbEntity
  8
0
370
              -2
390
0
  6
Continuous
 62
               0
100
AcDbLine
 10
602.56215994755303
 20
472.4141229456875
 30
0.0
 11
602.56215994755303
 21
397.4141229456875
 31
0.0
  0
LINE
  5
159
100
AcDbEntity
  8
0
370
              -2
390
0
  6
Continuous
 62
               0
100
AcDbLine
 10
352.56215994755303
 20
397.4141229456875
 30
0.0
 11
602.56215994755303
 21
397.4141229456875
 31
0.0
  0
CIRCLE
  5
15A
102
{ACAD_REACTORS
330
15B
102
}
100
AcDbEntity
  8
0
370
              -2
390
0
  6
Continuous
 62
               0
100
AcDbCircle
 10
352.56215994755303
 20
397.4141229456875
 30
0.0
 40
4.99969482421875
  0
HATCH
  5
15B
100
AcDbEntity
  8
0
370
              -2
390
0
  6
Continuous
 62
               0
100
AcDbHatch
 10
0.0
 20
0.0
 30
0.0
210
0.0
220
0.0
230
1.0
  2
SOLID
 70
               1
 71
               1
 91
        1
 92
        1
 93
        1
 72
               2
 10
352.56215994755303
 20
397.4141229456875
 40
4.99969482421875
 50
0.0
 51
360.0
 73
               0
 97
        1
330
15A
 75
               0
 76
               1
 98
        1
 10
0.0
 20
0.0
  0
CIRCLE
  5
15C
102
{ACAD_REACTORS
330
15D
102
}
100
AcDbEntity
  8
0
370
              -2
390
0
  6
Continuous
 62
               0
100
AcDbCircle
 10
602.56215994755303
 20
397.4141229456875
 30
0.0
 40
4.99969482421875
  0
HATCH
  5
15D
100
AcDbEntity
  8
0
370
              -2
390
0
  6
Continuous
 62
               0
100
AcDbHatch
 10
0.0
 20
0.0
 30
0.0
210
0.0
220
0.0
230
1.0
  2
SOLID
 70
               1
 71
               1
 91
        1
 92
        1
 93
        1
 72
               2
 10
602.56215994755303
 20
397.4141229456875
 40
4.99969482421875
 50
0.0
 51
360.0
 73
               0
 97
        1
330
15C
 75
               0
 76
               1
 98
        1
 10
0.0
 20
0.0
  0
MTEXT
  5
15E
100
AcDbEntity
  8
0
390
0
 62
               0
100
AcDbMText
 10
453.74965826537755
 20
431.29174013318743
 30
0.0
 40
24.432617187500004
 41
0.0
 71
               1
 72
               1
  1
250
  7
ＭＳゴシック
 73
               1
 44
0.7828267384257843
  0
POINT
  5
15F
100
AcDbEntity
  8
Defpoints
370
               0
390
0
 62
               0
100
AcDbPoint
 10
602.56215994755303
 20
497.4141229456875
 30
0.0
  0
POINT
  5
160
100
AcDbEntity
  8
Defpoints
370
               0
390
0
 62
               0
100
AcDbPoint
 10
352.56215994755303
 20
497.4141229456875
 30
0.0
  0
POINT
  5
161
100
AcDbEntity
  8
Defpoints
370
               0
390
0
 62
               0
100
AcDbPoint
 10
352.56215994755303
 20
397.4141229456875
 30
0.0
  0
ENDBLK
  5
162
100
AcDbEntity
  8
notes
390
0
100
AcDbBlockEnd
  0
BLOCK
  5
163
100
AcDbEntity
  8
notes
390
0
100
AcDbBlockBegin
  2
*D23
 70
               1
 10
0.0
 20
0.0
 30
0.0
  3
*D23
  1

  0
LINE
  5
164
100
AcDbEntity
  8
0
370
              -2
390
0
  6
Continuous
 62
               0
100
AcDbLine
 10
777.58409718714461
 20
327.4141229456875
 30
0.0
 11
852.58409718714461
 21
327.4141229456875
 31
0.0
  0
LINE
  5
165
100
AcDbEntity
  8
0
370
              -2
390
0
  6
Continuous
 62
               0
100
AcDbLine
 10
777.58409718714461
 20
777.4141229456875
 30
0.0
 11
852.58409718714461
 21
777.4141229456875
 31
0.0
  0
LINE
  5
166
100
AcDbEntity
  8
0
370
              -2
390
0
  6
Continuous
 62
               0
100
AcDbLine
 10
852.58409718714461
 20
327.4141229456875
 30
0.0
 11
852.58409718714461
 21
777.4141229456875
 31
0.0
  0
CIRCLE
  5
167
102
{ACAD_REACTORS
330
168
102
}
100
AcDbEntity
  8
0
370
              -2
390
0
  6
Continuous
 62
               0
100
AcDbCircle
 10
852.58409718714461
 20
327.4141229456875
 30
0.0
 40
4.99969482421875
  0
HATCH
  5
168
100
AcDbEntity
  8
0
370
              -2
390
0
  6
Continuous
 62
               0
100
AcDbHatch
 10
0.0
 20
0.0
 30
0.0
210
0.0
220
0.0
230
1.0
  2
SOLID
 70
               1
 71
               1
 91
        1
 92
        1
 93
        1
 72
               2
 10
852.58409718714461
 20
327.4141229456875
 40
4.99969482421875
 50
0.0
 51
360.0
 73
               0
 97
        1
330
167
 75
               0
 76
               1
 98
        1
 10
0.0
 20
0.0
  0
CIRCLE
  5
169
102
{ACAD_REACTORS
330
16A
102
}
100
AcDbEntity
  8
0
370
              -2
390
0
  6
Continuous
 62
               0
100
AcDbCircle
 10
852.58409718714461
 20
777.4141229456875
 30
0.0
 40
4.99969482421875
  0
HATCH
  5
16A
100
AcDbEntity
  8
0
370
              -2
390
0
  6
Continuous
 62
               0
100
AcDbHatch
 10
0.0
 20
0.0
 30
0.0
210
0.0
220
0.0
230
1.0
  2
SOLID
 70
               1
 71
               1
 91
        1
 92
        1
 93
        1
 72
               2
 10
852.58409718714461
 20
777.4141229456875
 40
4.99969482421875
 50
0.0
 51
360.0
 73
               0
 97
        1
330
169
 75
               0
 76
               1
 98
        1
 10
0.0
 20
0.0
  0
MTEXT
  5
16B
100
AcDbEntity
  8
0
390
0
 62
               0
100
AcDbMText
 10
818.70647999964456
 20
528.60162126351202
 30
0.0
 40
24.432617187500004
 41
0.0
 71
               1
 72
               1
  1
450
  7
ＭＳゴシック
 11
0.0
 21
1.0
 31
0.0
 73
               1
 44
0.7828267384257843
  0
POINT
  5
16C
100
AcDbEntity
  8
Defpoints
370
               0
390
0
 62
               0
100
AcDbPoint
 10
752.58409718714461
 20
777.4141229456875
 30
0.0
  0
POINT
  5
16D
100
AcDbEntity
  8
Defpoints
370
               0
390
0
 62
               0
100
AcDbPoint
 10
752.58409718714461
 20
327.4141229456875
 30
0.0
  0
POINT
  5
16E
100
AcDbEntity
  8
Defpoints
370
               0
390
0
 62
               0
100
AcDbPoint
 10
852.58409718714461
 20
327.4141229456875
 30
0.0
  0
ENDBLK
  5
16F
100
AcDbEntity
  8
notes
390
0
100
AcDbBlockEnd
  0
BLOCK
  5
170
100
AcDbEntity
  8
notes
390
0
100
AcDbBlockBegin
  2
*D24
 70
               1
 10
0.0
 20
0.0
 30
0.0
  3
*D24
  1

  0
LINE
  5
171
100
AcDbEntity
  8
0
370
              -2
390
0
  6
Continuous
 62
               0
100
AcDbLine
 10
261.72031971927447
 20
-538.5184965439505
 30
0.0
 11
205.68715994755243
 21
-538.5184965439505
 31
0.0
  0
LINE
  5
172
100
AcDbEntity
  8
0
370
              -2
390
0
  6
Continuous
 62
               0
100
AcDbLine
 10
439.69248422405315
 20
-598.5184965439505
 30
0.0
 11
205.68715994755243
 21
-598.5184965439505
 31
0.0
  0
LINE
  5
173
100
AcDbEntity
  8
0
370
              -2
390
0
  6
Continuous
 62
               0
100
AcDbLine
 10
205.68715994755243
 20
-538.5184965439505
 30
0.0
 11
205.68715994755243
 21
-598.5184965439505
 31
0.0
  0
CIRCLE
  5
174
102
{ACAD_REACTORS
330
175
102
}
100
AcDbEntity
  8
0
370
              -2
390
0
  6
Continuous
 62
               0
100
AcDbCircle
 10
205.68715994755243
 20
-538.5184965439505
 30
0.0
 40
4.99969482421875
  0
HATCH
  5
175
100
AcDbEntity
  8
0
370
              -2
390
0
  6
Continuous
 62
               0
100
AcDbHatch
 10
0.0
 20
0.0
 30
0.0
210
0.0
220
0.0
230
1.0
  2
SOLID
 70
               1
 71
               1
 91
        1
 92
        1
 93
        1
 72
               2
 10
205.68715994755243
 20
-538.5184965439505
 40
4.99969482421875
 50
0.0
 51
360.0
 73
               0
 97
        1
330
174
 75
               0
 76
               1
 98
        1
 10
0.0
 20
0.0
  0
CIRCLE
  5
176
102
{ACAD_REACTORS
330
177
102
}
100
AcDbEntity
  8
0
370
              -2
390
0
  6
Continuous
 62
               0
100
AcDbCircle
 10
205.68715994755243
 20
-598.5184965439505
 30
0.0
 40
4.99969482421875
  0
HATCH
  5
177
100
AcDbEntity
  8
0
370
              -2
390
0
  6
Continuous
 62
               0
100
AcDbHatch
 10
0.0
 20
0.0
 30
0.0
210
0.0
220
0.0
230
1.0
  2
SOLID
 70
               1
 71
               1
 91
        1
 92
        1
 93
        1
 72
               2
 10
205.68715994755243
 20
-598.5184965439505
 40
4.99969482421875
 50
0.0
 51
360.0
 73
               0
 97
        1
330
176
 75
               0
 76
               1
 98
        1
 10
0.0
 20
0.0
  0
MTEXT
  5
178
100
AcDbEntity
  8
0
390
0
 62
               0
100
AcDbMText
 10
171.80954276005241
 20
-584.3934965439505
 30
0.0
 40
24.432617187500004
 41
0.0
 71
               1
 72
               1
  1
60
  7
ＭＳゴシック
 11
0.0
 21
1.0
 31
0.0
 73
               1
 44
0.7828267384257843
  0
POINT
  5
179
100
AcDbEntity
  8
Defpoints
370
               0
390
0
 62
               0
100
AcDbPoint
 10
464.69248422405315
 20
-598.5184965439505
 30
0.0
  0
POINT
  5
17A
100
AcDbEntity
  8
Defpoints
370
               0
390
0
 62
               0
100
AcDbPoint
 10
286.72031971927447
 20
-538.5184965439505
 30
0.0
  0
POINT
  5
17B
100
AcDbEntity
  8
Defpoints
370
               0
390
0
 62
               0
100
AcDbPoint
 10
205.68715994755243
 20
-538.5184965439505
 30
0.0
  0
ENDBLK
  5
17C
100
AcDbEntity
  8
notes
390
0
100
AcDbBlockEnd
  0
BLOCK
  5
17D
100
AcDbEntity
  8
notes
390
0
100
AcDbBlockBegin
  2
*D25
 70
               1
 10
0.0
 20
0.0
 30
0.0
  3
*D25
  1

  0
LINE
  5
17E
100
AcDbEntity
  8
0
370
              -2
390
0
  6
Continuous
 62
               0
100
AcDbLine
 10
825.61442146364391
 20
-618.46757033613881
 30
0.0
 11
825.61442146364391
 21
-748.46757033613653
 31
0.0
  0
LINE
  5
17F
100
AcDbEntity
  8
0
370
              -2
390
0
  6
Continuous
 62
               0
100
AcDbLine
 10
465.61442146364402
 20
-618.46757033613881
 30
0.0
 11
465.61442146364402
 21
-748.46757033613653
 31
0.0
  0
LINE
  5
180
100
AcDbEntity
  8
0
370
              -2
390
0
  6
Continuous
 62
               0
100
AcDbLine
 10
825.61442146364391
 20
-748.46757033613653
 30
0.0
 11
465.61442146364402
 21
-748.46757033613653
 31
0.0
  0
CIRCLE
  5
181
102
{ACAD_REACTORS
330
182
102
}
100
AcDbEntity
  8
0
370
              -2
390
0
  6
Continuous
 62
               0
100
AcDbCircle
 10
825.61442146364391
 20
-748.46757033613653
 30
0.0
 40
4.99969482421875
  0
HATCH
  5
182
100
AcDbEntity
  8
0
370
              -2
390
0
  6
Continuous
 62
               0
100
AcDbHatch
 10
0.0
 20
0.0
 30
0.0
210
0.0
220
0.0
230
1.0
  2
SOLID
 70
               1
 71
               1
 91
        1
 92
        1
 93
        1
 72
               2
 10
825.61442146364391
 20
-748.46757033613653
 40
4.99969482421875
 50
0.0
 51
360.0
 73
               0
 97
        1
330
181
 75
               0
 76
               1
 98
        1
 10
0.0
 20
0.0
  0
CIRCLE
  5
183
102
{ACAD_REACTORS
330
184
102
}
100
AcDbEntity
  8
0
370
              -2
390
0
  6
Continuous
 62
               0
100
AcDbCircle
 10
465.61442146364402
 20
-748.46757033613653
 30
0.0
 40
4.99969482421875
  0
HATCH
  5
184
100
AcDbEntity
  8
0
370
              -2
390
0
  6
Continuous
 62
               0
100
AcDbHatch
 10
0.0
 20
0.0
 30
0.0
210
0.0
220
0.0
230
1.0
  2
SOLID
 70
               1
 71
               1
 91
        1
 92
        1
 93
        1
 72
               2
 10
465.61442146364402
 20
-748.46757033613653
 40
4.99969482421875
 50
0.0
 51
360.0
 73
               0
 97
        1
330
183
 75
               0
 76
               1
 98
        1
 10
0.0
 20
0.0
  0
MTEXT
  5
185
100
AcDbEntity
  8
0
390
0
 62
               0
100
AcDbMText
 10
621.80191978146843
 20
-714.5899531486366
 30
0.0
 40
24.432617187500004
 41
0.0
 71
               1
 72
               1
  1
360
  7
ＭＳゴシック
 73
               1
 44
0.7828267384257843
  0
POINT
  5
186
100
AcDbEntity
  8
Defpoints
370
               0
390
0
 62
               0
100
AcDbPoint
 10
465.61442146364402
 20
-593.46757033613881
 30
0.0
  0
POINT
  5
187
100
AcDbEntity
  8
Defpoints
370
               0
390
0
 62
               0
100
AcDbPoint
 10
825.61442146364391
 20
-593.46757033613881
 30
0.0
  0
POINT
  5
188
100
AcDbEntity
  8
Defpoints
370
               0
390
0
 62
               0
100
AcDbPoint
 10
825.61442146364391
 20
-748.46757033613653
 30
0.0
  0
ENDBLK
  5
189
100
AcDbEntity
  8
notes
390
0
100
AcDbBlockEnd
  0
BLOCK
  5
18A
100
AcDbEntity
  8
notes
390
0
100
AcDbBlockBegin
  2
*D26
 70
               1
 10
0.0
 20
0.0
 30
0.0
  3
*D26
  1

  0
LINE
  5
18B
100
AcDbEntity
  8
0
370
              -2
390
0
  6
Continuous
 62
               0
100
AcDbLine
 10
-619.33542742338386
 20
-623.50807493786533
 30
0.0
 11
-619.33542742338386
 21
-685.18616452765104
 31
0.0
  0
LINE
  5
18C
100
AcDbEntity
  8
0
370
              -2
390
0
  6
Continuous
 62
               0
100
AcDbLine
 10
-254.33542742338409
 20
-623.53514117552095
 30
0.0
 11
-254.33542742338409
 21
-685.18616452765104
 31
0.0
  0
LINE
  5
18D
100
AcDbEntity
  8
0
370
              -2
390
0
  6
Continuous
 62
               0
100
AcDbLine
 10
-619.33542742338386
 20
-685.18616452765104
 30
0.0
 11
-254.33542742338409
 21
-685.18616452765104
 31
0.0
  0
CIRCLE
  5
18E
102
{ACAD_REACTORS
330
18F
102
}
100
AcDbEntity
  8
0
370
              -2
390
0
  6
Continuous
 62
               0
100
AcDbCircle
 10
-619.33542742338386
 20
-685.18616452765104
 30
0.0
 40
4.99969482421875
  0
HATCH
  5
18F
100
AcDbEntity
  8
0
370
              -2
390
0
  6
Continuous
 62
               0
100
AcDbHatch
 10
0.0
 20
0.0
 30
0.0
210
0.0
220
0.0
230
1.0
  2
SOLID
 70
               1
 71
               1
 91
        1
 92
        1
 93
        1
 72
               2
 10
-619.33542742338386
 20
-685.18616452765104
 40
4.99969482421875
 50
0.0
 51
360.0
 73
               0
 97
        1
330
18E
 75
               0
 76
               1
 98
        1
 10
0.0
 20
0.0
  0
CIRCLE
  5
190
102
{ACAD_REACTORS
330
191
102
}
100
AcDbEntity
  8
0
370
              -2
390
0
  6
Continuous
 62
               0
100
AcDbCircle
 10
-254.33542742338409
 20
-685.18616452765104
 30
0.0
 40
4.99969482421875
  0
HATCH
  5
191
100
AcDbEntity
  8
0
370
              -2
390
0
  6
Continuous
 62
               0
100
AcDbHatch
 10
0.0
 20
0.0
 30
0.0
210
0.0
220
0.0
230
1.0
  2
SOLID
 70
               1
 71
               1
 91
        1
 92
        1
 93
        1
 72
               2
 10
-254.33542742338409
 20
-685.18616452765104
 40
4.99969482421875
 50
0.0
 51
360.0
 73
               0
 97
        1
330
190
 75
               0
 76
               1
 98
        1
 10
0.0
 20
0.0
  0
MTEXT
  5
192
100
AcDbEntity
  8
0
390
0
 62
               0
100
AcDbMText
 10
-460.64792910555946
 20
-651.30854734015111
 30
0.0
 40
24.432617187500004
 41
0.0
 71
               1
 72
               1
  1
365
  7
ＭＳゴシック
 73
               1
 44
0.7828267384257843
  0
POINT
  5
193
100
AcDbEntity
  8
Defpoints
370
               0
390
0
 62
               0
100
AcDbPoint
 10
-254.33542742338409
 20
-598.53514117552095
 30
0.0
  0
POINT
  5
194
100
AcDbEntity
  8
Defpoints
370
               0
390
0
 62
               0
100
AcDbPoint
 10
-619.33542742338386
 20
-598.50807493786533
 30
0.0
  0
POINT
  5
195
100
AcDbEntity
  8
Defpoints
370
               0
390
0
 62
               0
100
AcDbPoint
 10
-619.33542742338386
 20
-685.18616452765104
 30
0.0
  0
ENDBLK
  5
196
100
AcDbEntity
  8
notes
390
0
100
AcDbBlockEnd
  0
BLOCK
  5
197
100
AcDbEntity
  8
ADF70-1604
390
0
100
AcDbBlockBegin
  2
グループ-1
 70
               0
 10
0.0
 20
0.0
 30
0.0
  3
グループ-1
  1

  0
LINE
  5
198
100
AcDbEntity
  8
0
370
               5
390
0
  6
Continuous
 62
               7
100
AcDbLine
 10
538.85676599802207
 20
1675.3915400686371
 30
0.0
 11
501.85676599802292
 21
1638.3915400686371
 31
0.0
  0
LINE
  5
199
100
AcDbEntity
  8
0
370
               5
390
0
  6
Continuous
 62
               7
100
AcDbLine
 10
518.85676599802275
 20
1675.3915400686371
 30
0.0
 11
481.85676599802304
 21
1638.3915400686371
 31
0.0
  0
LINE
  5
19A
100
AcDbEntity
  8
0
370
               5
390
0
  6
Continuous
 62
               7
100
AcDbLine
 10
498.85676599802298
 20
1675.3915400686371
 30
0.0
 11
461.85676599802304
 21
1638.3915400686371
 31
0.0
  0
ENDBLK
  5
19B
100
AcDbEntity
  8
ADF70-1604
390
0
100
AcDbBlockEnd
  0
BLOCK
  5
19C
100
AcDbEntity
  8
ADF70-1604
390
0
100
AcDbBlockBegin
  2
*D28
 70
               1
 10
0.0
 20
0.0
 30
0.0
  3
*D28
  1

  0
LINE
  5
19D
100
AcDbEntity
  8
0
370
              -2
390
0
  6
Continuous
 62
               0
100
AcDbLine
 10
530.09220525910257
 20
-583.46757033613972
 30
0.0
 11
508.0
 21
-583.46757033613972
 31
0.0
  0
LINE
  5
19E
100
AcDbEntity
  8
0
370
              -2
390
0
  6
Continuous
 62
               0
100
AcDbLine
 10
530.09220525910257
 20
-598.46757033613972
 30
0.0
 11
508.0
 21
-598.46757033613972
 31
0.0
  0
LINE
  5
19F
100
AcDbEntity
  8
0
370
              -2
390
0
  6
Continuous
 62
               0
100
AcDbLine
 10
508.0
 20
-598.46757033613972
 30
0.0
 11
508.0
 21
-642.75
 31
0.0
  0
LINE
  5
1A0
100
AcDbEntity
  8
0
370
              -2
390
0
  6
Continuous
 62
               0
100
AcDbLine
 10
508.0
 20
-583.46757033613972
 30
0.0
 11
508.0
 21
-598.46757033613972
 31
0.0
  0
CIRCLE
  5
1A1
102
{ACAD_REACTORS
330
1A2
102
}
100
AcDbEntity
  8
0
370
              -2
390
0
  6
Continuous
 62
               0
100
AcDbCircle
 10
508.0
 20
-583.46757033613972
 30
0.0
 40
4.99969482421875
  0
HATCH
  5
1A2
100
AcDbEntity
  8
0
370
              -2
390
0
  6
Continuous
 62
               0
100
AcDbHatch
 10
0.0
 20
0.0
 30
0.0
210
0.0
220
0.0
230
1.0
  2
SOLID
 70
               1
 71
               1
 91
        1
 92
        1
 93
        1
 72
               2
 10
508.0
 20
-583.46757033613972
 40
4.99969482421875
 50
0.0
 51
360.0
 73
               0
 97
        1
330
1A1
 75
               0
 76
               1
 98
        1
 10
0.0
 20
0.0
  0
CIRCLE
  5
1A3
102
{ACAD_REACTORS
330
1A4
102
}
100
AcDbEntity
  8
0
370
              -2
390
0
  6
Continuous
 62
               0
100
AcDbCircle
 10
508.0
 20
-598.46757033613972
 30
0.0
 40
4.99969482421875
  0
HATCH
  5
1A4
100
AcDbEntity
  8
0
370
              -2
390
0
  6
Continuous
 62
               0
100
AcDbHatch
 10
0.0
 20
0.0
 30
0.0
210
0.0
220
0.0
230
1.0
  2
SOLID
 70
               1
 71
               1
 91
        1
 92
        1
 93
        1
 72
               2
 10
508.0
 20
-598.46757033613972
 40
4.99969482421875
 50
0.0
 51
360.0
 73
               0
 97
        1
330
1A3
 75
               0
 76
               1
 98
        1
 10
0.0
 20
0.0
  0
MTEXT
  5
1A5
100
AcDbEntity
  8
0
390
0
 62
               0
100
AcDbMText
 10
474.12238281250001
 20
-642.75
 30
0.0
 40
24.432617187500004
 41
0.0
 71
               1
 72
               1
  1
15
  7
ＭＳゴシック
 11
0.0
 21
1.0
 31
0.0
 73
               1
 44
0.7828267384257843
  0
POINT
  5
1A6
100
AcDbEntity
  8
Defpoints
370
               0
390
0
 62
               0
100
AcDbPoint
 10
555.09220525910257
 20
-598.46757033613972
 30
0.0
  0
POINT
  5
1A7
100
AcDbEntity
  8
Defpoints
370
               0
390
0
 62
               0
100
AcDbPoint
 10
555.09220525910257
 20
-583.46757033613972
 30
0.0
  0
POINT
  5
1A8
100
AcDbEntity
  8
Defpoints
370
               0
390
0
 62
               0
100
AcDbPoint
 10
508.0
 20
-583.46757033613972
 30
0.0
  0
ENDBLK
  5
1A9
100
AcDbEntity
  8
ADF70-1604
390
0
100
AcDbBlockEnd
  0
ENDSEC
  0
SECTION
  2
ENTITIES
  0
MTEXT
  5
1AA
100
AcDbEntity
  8
template
390
0
 62
               7
100
AcDbMText
 10
-967.99999999975921
 20
-1147.4176292337006
 30
0.0
 40
16.288411458333332
 41
0.0
 71
               1
 72
               1
  1
品名
  7
ＭＳ ゴシック
 73
               1
 44
0.7828267384257843
  0
MTEXT
  5
1AB
100
AcDbEntity
  8
template
390
0
 62
               7
100
AcDbMText
 10
-967.99999999975921
 20
-1232.4176292337006
 30
0.0
 40
16.288411458333332
 41
0.0
 71
               1
 72
               1
  1
仕様
  7
ＭＳ ゴシック
 73
               1
 44
0.7828267384257843
  0
MTEXT
  5
1AC
100
AcDbEntity
  8
template
390
0
 62
               7
100
AcDbMText
 10
-914.99999999975921
 20
-1176.0000901712006
 30
0.0
 40
24.432617187500004
 41
0.0
 71
               1
 72
               1
  1
洗面器 -CATALANO,Roma-
  7
ＭＳ ゴシック
 73
               1
 44
0.7828267384257843
  0
LINE
  5
1AD
100
AcDbEntity
  8
template
370
               5
390
0
  6
Continuous
 62
               7
100
AcDbLine
 10
974.99999999975876
 20
-1224.0027073587005
 30
0.0
 11
-975.00000000024124
 21
-1224.0027073587005
 31
0.0
  0
LWPOLYLINE
  5
1AE
100
AcDbEntity
  8
template
370
               5
390
0
  6
Continuous
 62
               7
100
AcDbPolyline
 90
        5
 70
             128
 10
975.00000000024124
 20
1405.9972926412993
 10
-974.99999999975921
 20
1405.9972926412993
 10
-974.99999999975921
 20
-1394.0027073587005
 10
975.00000000024124
 20
-1394.0027073587005
 10
975.00000000024124
 20
1405.9972926412993
  0
LINE
  5
1AF
100
AcDbEntity
  8
template
370
               5
390
0
  6
Continuous
 62
               7
100
AcDbLine
 10
974.99999999975876
 20
-1139.0027073587005
 30
0.0
 11
-975.00000000024124
 21
-1139.0027073587005
 31
0.0
  0
LINE
  5
1B0
100
AcDbEntity
  8
template
370
               5
390
0
  6
Continuous
 62
               7
100
AcDbLine
 10
975.00000000024124
 20
-1309.0027073587005
 30
0.0
 11
222.00000000024124
 21
-1309.0027073587005
 31
0.0
  0
MTEXT
  5
1B1
100
AcDbEntity
  8
template
390
0
 62
               7
100
AcDbMText
 10
-974.99999999955594
 20
-1405.8565294155574
 30
0.0
 40
21.717881944444446
 41
0.0
 71
               1
 72
               1
  1
100707SH
  7
ＭＳ ゴシック
 73
               1
 44
0.7828267384257843
  0
MTEXT
  5
1B2
100
AcDbEntity
  8
template
390
0
 62
               7
100
AcDbMText
 10
251.87140625250089
 20
-1338.9131018320081
 30
0.0
 40
24.432617187500004
 41
0.0
 71
               1
 72
               1
  1
大洋金物株式会社 ティーフォルム事業部
  7
ＭＳ ゴシック
 73
               1
 44
0.7828267384257843
  0
INSERT
  5
1B3
100
AcDbEntity
  8
template
390
0
 62
               7
100
AcDbBlockReference
  2
グループ
 10
302.12733118912183
 20
-861.95183180188451
 30
0.0
  0
MTEXT
  5
1B4
100
AcDbEntity
  8
template
390
0
 62
               7
100
AcDbMText
 10
784.00000000049999
 20
-1261.0000901712006
 30
0.0
 40
24.432617187500004
 41
0.0
 71
               1
 72
               1
  1
1:10
  7
ＭＳ ゴシック
 73
               1
 44
0.7828267384257843
  0
MTEXT
  5
1B5
100
AcDbEntity
  8
template
390
0
 62
               7
100
AcDbMText
 10
731.00000000049999
 20
-1232.4176292337006
 30
0.0
 40
16.288411458333332
 41
0.0
 71
               1
 72
               1
  1
縮尺
  7
ＭＳ ゴシック
 73
               1
 44
0.7828267384257843
  0
LINE
  5
1B6
100
AcDbEntity
  8
template
370
               5
390
0
  6
Continuous
 62
               7
100
AcDbLine
 10
724.00000000049999
 20
-1309.0027073587005
 30
0.0
 11
724.00000000049999
 21
-1224.0027073587005
 31
0.0
  0
MTEXT
  5
1B7
100
AcDbEntity
  8
template
390
0
 62
               7
100
AcDbMText
 10
480.00000000049999
 20
-1232.4176292337006
 30
0.0
 40
16.288411458333332
 41
0.0
 71
               1
 72
               1
  1
容量
  7
ＭＳ ゴシック
 73
               1
 44
0.7828267384257843
  0
MTEXT
  5
1B8
100
AcDbEntity
  8
template
390
0
 62
               7
100
AcDbMText
 10
533.00000000049999
 20
-1261.0000901712006
 30
0.0
 40
24.432617187500004
 41
0.0
 71
               1
 72
               1
  1
7L
  7
ＭＳ ゴシック
 73
               1
 44
0.7828267384257843
  0
LINE
  5
1B9
100
AcDbEntity
  8
template
370
               5
390
0
  6
Continuous
 62
               7
100
AcDbLine
 10
473.00000000049999
 20
-1309.0027073587005
 30
0.0
 11
473.00000000049999
 21
-1224.0027073587005
 31
0.0
  0
MTEXT
  5
1BA
100
AcDbEntity
  8
template
390
0
 62
               7
100
AcDbMText
 10
229.00000000049999
 20
-1147.4176292337006
 30
0.0
 40
16.288411458333332
 41
0.0
 71
               1
 72
               1
  1
品番
  7
ＭＳ ゴシック
 73
               1
 44
0.7828267384257843
  0
MTEXT
  5
1BB
100
AcDbEntity
  8
template
390
0
 62
               7
100
AcDbMText
 10
229.00000000049999
 20
-1232.4176292337006
 30
0.0
 40
16.288411458333332
 41
0.0
 71
               1
 72
               1
  1
重量
  7
ＭＳ ゴシック
 73
               1
 44
0.7828267384257843
  0
MTEXT
  5
1BC
100
AcDbEntity
  8
template
390
0
 62
               7
100
AcDbMText
 10
282.00000000049999
 20
-1176.0000901712006
 30
0.0
 40
24.432617187500004
 41
0.0
 71
               1
 72
               1
  1
ADF70-1604
  7
ＭＳ ゴシック
 73
               1
 44
0.7828267384257843
  0
MTEXT
  5
1BD
100
AcDbEntity
  8
template
390
0
 62
               7
100
AcDbMText
 10
282.00000000049999
 20
-1261.0000901712006
 30
0.0
 40
24.432617187500004
 41
0.0
 71
               1
 72
               1
  1
23kg
  7
ＭＳ ゴシック
 73
               1
 44
0.7828267384257843
  0
LINE
  5
1BE
100
AcDbEntity
  8
template
370
               5
390
0
  6
Continuous
 62
               7
100
AcDbLine
 10
222.00000000049999
 20
-1394.0027073587005
 30
0.0
 11
222.00000000049999
 21
-1139.0027073587005
 31
0.0
  0
MTEXT
  5
1BF
100
AcDbEntity
  8
template
390
0
 62
               7
100
AcDbMText
 10
-914.99999999975944
 20
-1261.0000901712003
 30
0.0
 40
24.432617187500004
 41
0.0
 71
               1
 72
               1
  1
壁掛け,カウンタ ー置き,半埋め込み/オーバーフロー付き/壁取付ボルト付属/\P陶器/ホワイト
  7
ＭＳ ゴシック
 73
               1
 44
1.3047112307096407
  0
MTEXT
  5
1C0
100
AcDbEntity
  8
notes
390
0
 62
               7
100
AcDbMText
 10
-807.37064645146324
 20
103.46351392215809
 30
0.0
 40
24.432617187500004
 41
829.85474363860806
 71
               1
 72
               1
  1
＝φ30もしくはφ35の水栓取付用穴あけ加工を承ります。\P   必要な場合、ご注文の際にご指示ください。
  7
ＭＳゴシック
 73
               1
 44
1.0437689845677123
  0
MTEXT
  5
1C1
100
AcDbEntity
  8
notes
390
0
 62
               7
100
AcDbMText
 10
-179.87835549426785
 20
-356.99146783283283
 30
0.0
 40
24.432617187500004
 41
0.0
 71
               1
 72
               1
  1
壁取付ボルト穴(2ヶ所)
  7
ＭＳゴシック
 73
               1
 44
0.7828267384257843
  0
MTEXT
  5
1C2
100
AcDbEntity
  8
notes
390
0
 62
               7
100
AcDbMText
 10
341.48826385381108
 20
1026.2195300802998
 30
0.0
 40
24.432617187500004
 41
0.0
 71
               1
 72
               1
  1
カウンター切込寸法
  7
ＭＳゴシック
 73
               1
 44
0.7828267384257843
  0
MTEXT
  5
1C3
100
AcDbEntity
  8
notes
390
0
 62
               7
100
AcDbMText
 10
342.7119908350889
 20
851.70668038433041
 30
0.0
 40
24.432617187500004
 41
0.0
 71
               1
 72
               1
  1
カウンター置き
  7
ＭＳ ゴシック
 73
               1
 44
0.7828267384257843
  0
LINE
  5
1C4
100
AcDbEntity
  8
notes
370
               5
390
0
  6
Continuous
 62
               7
100
AcDbLine
 10
-214.33542742338386
 20
-478.5080749378655
 30
0.0
 11
-167.51590281285547
 21
-393.06201793174267
 31
0.0
  0
MTEXT
  5
1C5
100
AcDbEntity
  8
notes
390
0
 62
               7
100
AcDbMText
 10
-729.31422637475907
 20
-764.2843059252923
 30
0.0
 40
24.432617187500004
 41
0.0
 71
               1
 72
               1
  1
カウンター置き
  7
ＭＳ ゴシック
 73
               1
 44
0.7828267384257843
  0
LINE
  5
1C6
100
AcDbEntity
  8
notes
370
               5
390
0
  6
Continuous
 62
               7
100
AcDbLine
 10
-635.06169905274828
 20
-598.50807493786533
 30
0.0
 11
-741.76169905274787
 21
-598.50807493786533
 31
0.0
  0
LINE
  5
1C7
100
AcDbEntity
  8
notes
370
               5
390
0
  6
Continuous
 62
               7
100
AcDbLine
 10
-716.76169905274833
 20
-598.50807493786533
 30
0.0
 11
-716.76169905274833
 21
-753.06029173324737
 31
0.0
  0
DIMENSION
  5
1C8
100
AcDbEntity
  8
notes
370
               5
390
0
  6
Continuous
 62
               7
100
AcDbDimension
  2
*D4
 10
-659.33542742338386
 20
-338.50807493786556
 30
0.0
 11
-436.83542742338386
 21
-338.50807493786556
 31
0.0
 71
               5
 72
               1
 41
1.0
 42
0.0
  3
Tform線あり
100
AcDbAlignedDimension
 13
-214.33542742338386
 23
-458.5080749378655
 33
0.0
 14
-659.33542742338386
 24
-458.5080749378655
 34
0.0
100
AcDbRotatedDimension
1001
ACAD
1000
DSTYLE
1002
{
1070
             279
1070
               2
1070
             340
1005
3D
1070
             147
1040
5.0
1002
}
  0
DIMENSION
  5
1C9
100
AcDbEntity
  8
notes
370
               5
390
0
  6
Continuous
 62
               7
100
AcDbDimension
  2
*D5
 10
-171.87950671911022
 20
157.4141229456875
 30
0.0
 11
-436.87950671910971
 21
157.4141229456875
 31
0.0
 71
               5
 72
               1
 41
1.0
 42
0.0
  3
Tform線あり
100
AcDbAlignedDimension
 13
-701.87950671910926
 23
257.4141229456875
 33
0.0
 14
-171.87950671911022
 24
257.4141229456875
 34
0.0
100
AcDbRotatedDimension
1001
ACAD
1000
DSTYLE
1002
{
1070
             279
1070
               2
1070
             340
1005
3D
1070
             147
1040
5.0
1002
}
  0
DIMENSION
  5
1CA
100
AcDbEntity
  8
notes
370
               5
390
0
  6
Continuous
 62
               7
100
AcDbDimension
  2
*D6
 10
-701.87950671910926
 20
157.4141229456875
 30
0.0
 11
-731.87950671910903
 21
157.4141229456875
 31
0.0
 71
               5
 72
               1
 41
1.0
 42
0.0
  3
Tform線あり
100
AcDbAlignedDimension
 13
-761.87950671910858
 23
307.4141229456875
 33
0.0
 14
-701.87950671910926
 24
257.4141229456875
 34
0.0
100
AcDbRotatedDimension
1001
ACAD
1000
DSTYLE
1002
{
1070
             279
1070
               2
1070
             340
1005
3D
1070
             147
1040
5.0
1002
}
  0
DIMENSION
  5
1CB
100
AcDbEntity
  8
notes
370
               5
390
0
  6
Continuous
 62
               7
100
AcDbDimension
  2
*D7
 10
825.61442146364118
 20
-338.550869207809
 30
0.0
 11
785.61442146364118
 21
-338.550869207809
 31
0.0
 71
               5
 72
               1
 41
1.0
 42
0.0
  3
Tform線あり
100
AcDbAlignedDimension
 13
745.61442146364118
 23
-438.55065379813249
 33
0.0
 14
825.61442146364118
 24
-441.55015237651031
 34
0.0
100
AcDbRotatedDimension
1001
ACAD
1000
DSTYLE
1002
{
1070
             279
1070
               2
1070
             340
1005
3D
1070
             147
1040
5.0
1002
}
  0
CIRCLE
  5
1CC
100
AcDbEntity
  8
notes
370
              15
390
0
  6
STYLE_12
 62
               7
100
AcDbCircle
 10
-830.55007350134019
 20
89.347488155652627
 30
0.0
 40
15.0
  0
DIMENSION
  5
1CD
100
AcDbEntity
  8
notes
370
               5
390
0
  6
Continuous
 62
               7
100
AcDbDimension
  2
*D8
 10
574.69248422405326
 20
-438.53082119146211
 30
0.0
 11
579.69248422405326
 21
-428.36457119146212
 31
0.0
 70
             128
 71
               5
 72
               1
 41
1.0
 42
0.0
  3
Tform線あり
100
AcDbAlignedDimension
 13
568.69248422405326
 23
-538.53082119146211
 33
0.0
 14
568.69248422405326
 24
-438.53082119146211
 34
0.0
 50
90.0
100
AcDbRotatedDimension
1001
ACAD
1000
DSTYLE
1002
{
1070
             279
1070
               2
1070
             340
1005
3D
1070
               3
1000
<>(深さ)
1070
             174
1070
               0
1070
             147
1040
5.0
1002
}
  0
DIMENSION
  5
1CE
100
AcDbEntity
  8
notes
370
               5
390
0
  6
Continuous
 62
               7
100
AcDbDimension
  2
*D9
 10
752.58409718714461
 20
157.41412294568738
 30
0.0
 11
477.58409718714449
 21
157.41412294568738
 31
0.0
 71
               5
 72
               1
 41
1.0
 42
0.0
  3
Tform線あり
100
AcDbAlignedDimension
 13
202.58409718714449
 23
327.4141229456875
 33
0.0
 14
752.58409718714461
 24
327.4141229456875
 34
0.0
100
AcDbRotatedDimension
1001
ACAD
1000
DSTYLE
1002
{
1070
             279
1070
               2
1070
             340
1005
3D
1070
             147
1040
5.0
1002
}
  0
DIMENSION
  5
1CF
100
AcDbEntity
  8
notes
370
               5
390
0
  6
Continuous
 62
               7
100
AcDbDimension
  2
*D10
 10
-761.87950671911085
 20
927.4141229456875
 30
0.0
 11
-436.8795067191096
 21
927.4141229456875
 31
0.0
 71
               5
 72
               1
 41
1.0
 42
0.0
  3
Tform線あり
100
AcDbAlignedDimension
 13
-111.87950671910841
 23
774.41412294568727
 33
0.0
 14
-761.87950671911085
 24
774.41412294568727
 34
0.0
100
AcDbRotatedDimension
1001
ACAD
1000
DSTYLE
1002
{
1070
             279
1070
               2
1070
             340
1005
3D
1070
             147
1040
5.0
1002
}
  0
MTEXT
  5
1D0
100
AcDbEntity
  8
notes
390
0
 62
               7
100
AcDbMText
 10
185.67997502017352
 20
889.92675942845517
 30
0.0
 40
24.432617187500004
 41
0.0
 71
               1
 72
               1
  1
半埋め込み
  7
ＭＳ ゴシック
 73
               1
 44
0.7828267384257843
  0
LINE
  5
1D1
100
AcDbEntity
  8
notes
370
               5
390
0
  6
Continuous
 62
               7
100
AcDbLine
 10
202.58409718714449
 20
777.4141229456875
 30
0.0
 11
202.58409718714449
 21
852.93970826675263
 31
0.0
  0
LINE
  5
1D2
100
AcDbEntity
  8
notes
370
               5
390
0
  6
Continuous
 62
               7
100
AcDbLine
 10
352.56215994755303
 20
757.4141229456875
 30
0.0
 11
352.56215994755303
 21
816.93970826675263
 31
0.0
  0
DIMENSION
  5
1D3
100
AcDbEntity
  8
notes
370
               5
390
0
  6
Continuous
 62
               7
100
AcDbDimension
  2
*D11
 10
-536.8795067191113
 20
877.4141229456875
 30
0.0
 11
-486.8795067191113
 21
877.4141229456875
 31
0.0
 71
               5
 72
               1
 41
1.0
 42
0.0
  3
Tform線あり
100
AcDbAlignedDimension
 13
-436.87950671911142
 23
707.67941653350522
 33
0.0
 14
-536.8795067191113
 24
705.17941653350522
 34
0.0
100
AcDbRotatedDimension
1001
ACAD
1000
DSTYLE
1002
{
1070
             279
1070
               2
1070
             340
1005
3D
1070
             147
1040
5.0
1002
}
  0
DIMENSION
  5
1D4
100
AcDbEntity
  8
notes
370
               5
390
0
  6
Continuous
 62
               7
100
AcDbDimension
  2
*D12
 10
-436.87950671911142
 20
877.4141229456875
 30
0.0
 11
-386.87950671911142
 21
877.4141229456875
 31
0.0
 71
               5
 72
               1
 41
1.0
 42
0.0
  3
Tform線あり
100
AcDbAlignedDimension
 13
-336.87950671911142
 23
705.17941653350522
 33
0.0
 14
-436.87950671911142
 24
707.67941653350522
 34
0.0
100
AcDbRotatedDimension
1001
ACAD
1000
DSTYLE
1002
{
1070
             279
1070
               2
1070
             340
1005
3D
1070
             147
1040
5.0
1002
}
  0
DIMENSION
  5
1D5
100
AcDbEntity
  8
notes
370
               5
390
0
  6
Continuous
 62
               7
100
AcDbDimension
  2
*D13
 10
-861.8795067191113
 20
-478.5080749378655
 30
0.0
 11
-866.8795067191113
 21
-457.06029173324737
 31
0.0
 70
             128
 71
               5
 72
               1
 41
1.0
 42
0.0
  3
Tform線あり
100
AcDbAlignedDimension
 13
-758.87950671911085
 23
-438.5080749378655
 33
0.0
 14
-709.33542742338386
 24
-478.5080749378655
 34
0.0
 50
90.0
100
AcDbRotatedDimension
1001
ACAD
1000
DSTYLE
1002
{
1070
             279
1070
               2
1070
             340
1005
3D
1070
             147
1040
5.0
1002
}
  0
DIMENSION
  5
1D6
100
AcDbEntity
  8
notes
370
               5
390
0
  6
Continuous
 62
               7
100
AcDbDimension
  2
*D14
 10
-11.879506719108406
 20
777.4141229456875
 30
0.0
 11
-11.879506719108406
 21
517.4141229456875
 31
0.0
 71
               5
 72
               1
 41
1.0
 42
0.0
  3
Tform線あり
100
AcDbAlignedDimension
 13
-161.87950671910841
 23
257.4141229456875
 33
0.0
 14
-114.87950671910841
 24
777.4141229456875
 34
0.0
 50
90.0
100
AcDbRotatedDimension
1001
ACAD
1000
DSTYLE
1002
{
1070
             279
1070
               2
1070
             340
1005
3D
1070
             147
1040
5.0
1002
}
  0
DIMENSION
  5
1D7
100
AcDbEntity
  8
notes
370
               5
390
0
  6
Continuous
 62
               7
100
AcDbDimension
  2
*D15
 10
-861.87950671911085
 20
317.41412294568704
 30
0.0
 11
-861.87950671911085
 21
472.41412294568704
 31
0.0
 71
               5
 72
               1
 41
1.0
 42
0.0
  3
Tform線あり
100
AcDbAlignedDimension
 13
-761.87950671911085
 23
627.41412294568704
 33
0.0
 14
-761.87950671911085
 24
317.41412294568704
 34
0.0
 50
90.0
100
AcDbRotatedDimension
1001
ACAD
1000
DSTYLE
1002
{
1070
             279
1070
               2
1070
             340
1005
3D
1070
             147
1040
5.0
1002
}
  0
DIMENSION
  5
1D8
100
AcDbEntity
  8
notes
370
               5
390
0
  6
Continuous
 62
               7
100
AcDbDimension
  2
*D16
 10
-861.87950671911085
 20
627.41412294568704
 30
0.0
 11
-861.87950671911085
 21
702.41412294568727
 31
0.0
 71
               5
 72
               1
 41
1.0
 42
0.0
  3
Tform線あり
100
AcDbAlignedDimension
 13
-758.87950671911085
 23
777.4141229456875
 33
0.0
 14
-761.87950671911085
 24
627.41412294568704
 34
0.0
 50
90.0
100
AcDbRotatedDimension
1001
ACAD
1000
DSTYLE
1002
{
1070
             279
1070
               2
1070
             340
1005
3D
1070
             147
1040
5.0
1002
}
  0
DIMENSION
  5
1D9
100
AcDbEntity
  8
notes
370
               5
390
0
  6
Continuous
 62
               7
100
AcDbDimension
  2
*D17
 10
825.61442146364448
 20
-698.43616452765104
 30
0.0
 11
700.61442146364459
 21
-698.43616452765104
 31
0.0
 71
               5
 72
               1
 41
1.0
 42
0.0
  3
Tform線あり
100
AcDbAlignedDimension
 13
575.6144214636447
 23
-593.46757033613881
 33
0.0
 14
825.61442146364448
 24
-591.18616452765104
 34
0.0
100
AcDbRotatedDimension
1001
ACAD
1000
DSTYLE
1002
{
1070
             279
1070
               2
1070
             340
1005
3D
1070
             147
1040
5.0
1002
}
  0
DIMENSION
  5
1DA
100
AcDbEntity
  8
notes
370
               5
390
0
  6
Continuous
 62
               7
100
AcDbDimension
  2
*D18
 10
-11.879506719108406
 20
-438.5080749378655
 30
0.0
 11
-11.879506719108406
 21
-518.52160805669325
 31
0.0
 71
               5
 72
               1
 41
1.0
 42
0.0
  3
Tform線あり
100
AcDbAlignedDimension
 13
-254.33542742338409
 23
-598.53514117552095
 33
0.0
 14
-114.87950671911108
 24
-438.5080749378655
 34
0.0
 50
90.0
100
AcDbRotatedDimension
1001
ACAD
1000
DSTYLE
1002
{
1070
             279
1070
               2
1070
             340
1005
3D
1070
             147
1040
5.0
1002
}
  0
DIMENSION
  5
1DB
100
AcDbEntity
  8
notes
370
               5
390
0
  6
Continuous
 62
               7
100
AcDbDimension
  2
*D19
 10
205.72098408176052
 20
-438.49237472398289
 30
0.0
 11
205.72098408176052
 21
-488.50543563396673
 31
0.0
 71
               5
 72
               1
 41
1.0
 42
0.0
  3
Tform線あり
100
AcDbAlignedDimension
 13
311.72031971927441
 23
-538.5184965439505
 33
0.0
 14
311.72031971927441
 24
-438.49237472398289
 34
0.0
 50
90.0
100
AcDbRotatedDimension
1001
ACAD
1000
DSTYLE
1002
{
1070
             279
1070
               2
1070
             340
1005
3D
1070
             147
1040
5.0
1002
}
  0
DIMENSION
  5
1DC
100
AcDbEntity
  8
notes
370
               5
390
0
  6
Continuous
 62
               7
100
AcDbDimension
  2
*D20
 10
702.56215994755303
 20
497.4141229456875
 30
0.0
 11
702.56215994755303
 21
627.4141229456875
 31
0.0
 71
               5
 72
               1
 41
1.0
 42
0.0
  3
Tform線あり
100
AcDbAlignedDimension
 13
602.56215994755303
 23
757.4141229456875
 33
0.0
 14
602.56215994755303
 24
497.4141229456875
 34
0.0
 50
90.0
100
AcDbRotatedDimension
1001
ACAD
1000
DSTYLE
1002
{
1070
             279
1070
               2
1070
             340
1005
3D
1070
             147
1040
5.0
1002
}
  0
DIMENSION
  5
1DD
100
AcDbEntity
  8
notes
370
               5
390
0
  6
Continuous
 62
               7
100
AcDbDimension
  2
*D21
 10
702.56215994755303
 20
757.4141229456875
 30
0.0
 11
707.56215994755303
 21
783.2891229456875
 31
0.0
 70
             128
 71
               5
 72
               1
 41
1.0
 42
0.0
  3
Tform線あり
100
AcDbAlignedDimension
 13
602.56215994755303
 23
777.4141229456875
 33
0.0
 14
602.56215994755303
 24
757.4141229456875
 34
0.0
 50
90.0
100
AcDbRotatedDimension
1001
ACAD
1000
DSTYLE
1002
{
1070
             279
1070
               2
1070
             340
1005
3D
1070
             174
1070
               0
1070
             147
1040
5.0
1002
}
  0
DIMENSION
  5
1DE
100
AcDbEntity
  8
notes
370
               5
390
0
  6
Continuous
 62
               7
100
AcDbDimension
  2
*D22
 10
352.56215994755303
 20
397.4141229456875
 30
0.0
 11
477.56215994755303
 21
397.4141229456875
 31
0.0
 71
               5
 72
               1
 41
1.0
 42
0.0
  3
Tform線あり
100
AcDbAlignedDimension
 13
602.56215994755303
 23
497.4141229456875
 33
0.0
 14
352.56215994755303
 24
497.4141229456875
 34
0.0
100
AcDbRotatedDimension
1001
ACAD
1000
DSTYLE
1002
{
1070
             279
1070
               2
1070
             340
1005
3D
1070
             147
1040
5.0
1002
}
  0
DIMENSION
  5
1DF
100
AcDbEntity
  8
notes
370
               5
390
0
  6
Continuous
 62
               7
100
AcDbDimension
  2
*D23
 10
852.58409718714461
 20
327.4141229456875
 30
0.0
 11
852.58409718714461
 21
552.4141229456875
 31
0.0
 71
               5
 72
               1
 41
1.0
 42
0.0
  3
Tform線あり
100
AcDbAlignedDimension
 13
752.58409718714461
 23
777.4141229456875
 33
0.0
 14
752.58409718714461
 24
327.4141229456875
 34
0.0
 50
90.0
100
AcDbRotatedDimension
1001
ACAD
1000
DSTYLE
1002
{
1070
             279
1070
               2
1070
             340
1005
3D
1070
             147
1040
5.0
1002
}
  0
DIMENSION
  5
1E0
100
AcDbEntity
  8
notes
370
               5
390
0
  6
Continuous
 62
               7
100
AcDbDimension
  2
*D24
 10
205.68715994755243
 20
-538.5184965439505
 30
0.0
 11
205.68715994755243
 21
-568.5184965439505
 31
0.0
 71
               5
 72
               1
 41
1.0
 42
0.0
  3
Tform線あり
100
AcDbAlignedDimension
 13
464.69248422405315
 23
-598.5184965439505
 33
0.0
 14
286.72031971927447
 24
-538.5184965439505
 34
0.0
 50
90.0
100
AcDbRotatedDimension
1001
ACAD
1000
DSTYLE
1002
{
1070
             279
1070
               2
1070
             340
1005
3D
1070
             147
1040
5.0
1002
}
  0
DIMENSION
  5
1E1
100
AcDbEntity
  8
notes
370
               5
390
0
  6
Continuous
 62
               7
100
AcDbDimension
  2
*D25
 10
825.61442146364391
 20
-748.46757033613653
 30
0.0
 11
645.61442146364402
 21
-748.46757033613653
 31
0.0
 71
               5
 72
               1
 41
1.0
 42
0.0
  3
Tform線あり
100
AcDbAlignedDimension
 13
465.61442146364402
 23
-593.46757033613881
 33
0.0
 14
825.61442146364391
 24
-593.46757033613881
 34
0.0
100
AcDbRotatedDimension
1001
ACAD
1000
DSTYLE
1002
{
1070
             279
1070
               2
1070
             340
1005
3D
1070
             147
1040
5.0
1002
}
  0
DIMENSION
  5
1E2
100
AcDbEntity
  8
notes
370
               5
390
0
  6
Continuous
 62
               7
100
AcDbDimension
  2
*D26
 10
-619.33542742338386
 20
-685.18616452765104
 30
0.0
 11
-436.83542742338398
 21
-685.18616452765104
 31
0.0
 71
               5
 72
               1
 41
1.0
 42
0.0
  3
Tform線あり
100
AcDbAlignedDimension
 13
-254.33542742338409
 23
-598.53514117552095
 33
0.0
 14
-619.33542742338386
 24
-598.50807493786533
 34
0.0
100
AcDbRotatedDimension
1001
ACAD
1000
DSTYLE
1002
{
1070
             279
1070
               2
1070
             340
1005
3D
1070
             147
1040
5.0
1002
}
  0
MTEXT
  5
1E3
100
AcDbEntity
  8
notes
390
0
 62
               7
100
AcDbMText
 10
-872.8371847865551
 20
-818.37376471637469
 30
0.0
 40
24.432617187500004
 41
0.0
 71
               1
 72
               1
  1
半埋め込み
  7
ＭＳ ゴシック
 73
               1
 44
0.7828267384257843
  0
LINE
  5
1E4
100
AcDbEntity
  8
notes
370
               5
390
0
  6
Continuous
 62
               7
100
AcDbLine
 10
-776.54000625252888
 20
-538.50807493786533
 30
0.0
 11
-883.24000625252893
 21
-538.50807493786533
 31
0.0
  0
LINE
  5
1E5
100
AcDbEntity
  8
notes
370
               5
390
0
  6
Continuous
 62
               7
100
AcDbLine
 10
-858.24000625252893
 20
-538.50807493786533
 30
0.0
 11
-858.24000625252893
 21
-813.06029173324737
 31
0.0
  0
MTEXT
  5
1E6
100
AcDbEntity
  8
notes
390
0
 62
               7
100
AcDbMText
 10
115.33304144726631
 20
103.46351392215809
 30
0.0
 40
24.432617187500004
 41
764.7717154610109
 71
               1
 72
               1
  1
※陶器製品には寸法公差があります。\P  洗面器の収め方をご確認の上、必ず現物を合わせて\P  カウンターに切込を行ってください。\P※カウンター置きの場合も壁固定が必要です。
  7
ＭＳ ゴシック
 73
               1
 44
1.0437689845677123
  0
LWPOLYLINE
  5
1E7
100
AcDbEntity
  8
ADF70-1604
370
              15
390
0
  6
Continuous
 62
               7
100
AcDbPolyline
 90
        9
 70
             129
 10
-711.87950671910926
 20
257.4141229456875
 10
-161.87950671910841
 20
257.4141229456875
 42
0.414213562373095
 10
-111.87950671910841
 20
307.4141229456875
 10
-111.87950671910841
 20
774.41412294568727
 42
0.4142135623731006
 10
-114.87950671910841
 20
777.4141229456875
 10
-758.87950671911085
 20
777.4141229456875
 42
0.414213562373095
 10
-761.87950671911085
 20
774.41412294568727
 10
-761.87950671910858
 20
307.4141229456875
 42
0.414213562373091
 10
-711.87950671910926
 20
257.4141229456875
  0
LINE
  5
1E8
100
AcDbEntity
  8
ADF70-1604
370
              15
390
0
  6
Continuous
 62
               7
100
AcDbLine
 10
-671.8795067191113
 20
627.41412294568704
 30
0.0
 11
-201.87950671911017
 21
627.4141229456875
 31
0.0
  0
LINE
  5
1E9
100
AcDbEntity
  8
ADF70-1604
370
              15
390
0
  6
Continuous
 62
               7
100
AcDbLine
 10
-701.87950671910744
 20
347.41412294568704
 30
0.0
 11
-701.87950671911108
 21
597.41412294568704
 31
0.0
  0
ARC
  5
1EA
100
AcDbEntity
  8
ADF70-1604
370
              15
390
0
  6
Continuous
 62
               7
100
AcDbCircle
 10
-671.87950671910744
 20
347.41412294568704
 30
0.0
 40
30.0
100
AcDbArc
 50
180.0
 51
270.0
  0
LINE
  5
1EB
100
AcDbEntity
  8
ADF70-1604
370
              15
390
0
  6
Continuous
 62
               7
100
AcDbLine
 10
-171.87950671911022
 20
347.41412294568704
 30
0.0
 11
-171.87950671911022
 21
597.4141229456875
 31
0.0
  0
LINE
  5
1EC
100
AcDbEntity
  8
ADF70-1604
370
              15
390
0
  6
Continuous
 62
               7
100
AcDbLine
 10
-671.87950671910744
 20
317.41412294568704
 30
0.0
 11
-201.87950671911017
 21
317.4141229456875
 31
0.0
  0
CIRCLE
  5
1ED
100
AcDbEntity
  8
ADF70-1604
370
              15
390
0
  6
Continuous
 62
               7
100
AcDbCircle
 10
-436.87950671911142
 20
530.17941653350704
 30
0.0
 40
38.999999999999091
  0
CIRCLE
  5
1EE
100
AcDbEntity
  8
ADF70-1604
370
              15
390
0
  6
Continuous
 62
               7
100
AcDbCircle
 10
-436.87950671911142
 20
530.17941653350522
 30
0.0
 40
23.043551013696515
  0
ARC
  5
1EF
100
AcDbEntity
  8
ADF70-1604
370
              15
390
0
  6
Continuous
 62
               7
100
AcDbCircle
 10
-201.87950671911017
 20
597.4141229456875
 30
0.0
 40
29.999999999999943
100
AcDbArc
 50
0.0
 51
90.0
  0
ARC
  5
1F0
100
AcDbEntity
  8
ADF70-1604
370
              15
390
0
  6
Continuous
 62
               7
100
AcDbCircle
 10
-671.8795067191113
 20
597.41412294568704
 30
0.0
 40
30.0
100
AcDbArc
 50
90.0
 51
180.0
  0
ARC
  5
1F1
100
AcDbEntity
  8
ADF70-1604
370
              15
390
0
  6
Continuous
 62
               7
100
AcDbCircle
 10
-671.87950671910926
 20
347.41412294568704
 30
0.0
 40
30.0
100
AcDbArc
 50
180.0
 51
270.0
  0
ARC
  5
1F2
100
AcDbEntity
  8
ADF70-1604
370
              15
390
0
  6
Continuous
 62
               7
100
AcDbCircle
 10
-201.87950671911017
 20
347.4141229456875
 30
0.0
 40
30.0
100
AcDbArc
 50
269.99999999999989
 51
0.0
  0
CIRCLE
  5
1F3
100
AcDbEntity
  8
ADF70-1604
370
              15
390
0
  6
STYLE_12
 62
               7
100
AcDbCircle
 10
-436.87950671911142
 20
697.4141229456875
 30
0.0
 40
17.5
  0
LINE
  5
1F4
100
AcDbEntity
  8
ADF70-1604
370
              15
390
0
  6
Continuous
 62
               7
100
AcDbLine
 10
-191.50202697943746
 20
358.15346374047363
 30
0.0
 11
-191.50202697944451
 21
598.50799762968813
 31
0.0
  0
LINE
  5
1F5
100
AcDbEntity
  8
ADF70-1604
370
              15
390
0
  6
Continuous
 62
               7
100
AcDbLine
 10
-682.25698645877674
 20
358.15346374047363
 30
0.0
 11
-682.25698645877651
 21
598.50799762968791
 31
0.0
  0
ARC
  5
1F6
100
AcDbEntity
  8
ADF70-1604
370
              15
390
0
  6
Continuous
 62
               7
100
AcDbCircle
 10
-671.25698645877674
 20
358.15346374047363
 30
0.0
 40
11.0
100
AcDbArc
 50
180.0
 51
270.0
  0
LINE
  5
1F7
100
AcDbEntity
  8
ADF70-1604
370
              15
390
0
  6
Continuous
 62
               7
100
AcDbLine
 10
-202.50202697943746
 20
347.15346374047363
 30
0.0
 11
-671.25698645877674
 21
347.15346374047363
 31
0.0
  0
ARC
  5
1F8
100
AcDbEntity
  8
ADF70-1604
370
              15
390
0
  6
Continuous
 62
               7
100
AcDbCircle
 10
-202.50202697943746
 20
358.15346374047363
 30
0.0
 40
11.0
100
AcDbArc
 50
270.0
 51
0.0
  0
SPLINE
  5
1F9
100
AcDbEntity
  8
ADF70-1604
370
              15
390
0
  6
Continuous
 62
               7
100
AcDbSpline
210
0.0
220
0.0
230
1.0
 70
               9
 71
               2
 72
              30
 73
              27
 74
               0
 42
0.000001
 43
0.000001
 40
0.0
 40
0.0
 40
0.0
 40
1.0
 40
1.0
 40
2.0
 40
3.0
 40
4.0
 40
5.0
 40
6.0
 40
7.0
 40
8.0
 40
9.0
 40
10.0
 40
11.0
 40
12.0
 40
13.0
 40
14.0
 40
15.0
 40
16.0
 40
17.0
 40
18.0
 40
19.0
 40
20.0
 40
21.0
 40
22.0
 40
22.0
 40
23.0
 40
23.0
 40
23.0
 10
-449.37950671911142
 20
621.6830747956908
 30
0.0
 10
-449.37950671911142
 20
621.62388937327069
 30
0.0
 10
-449.37950671911142
 20
621.56470395085034
 30
0.0
 10
-449.06110488435559
 20
620.93602758146949
 30
0.0
 10
-446.77105983829722
 20
620.2235083421358
 30
0.0
 10
-444.66415666089836
 20
619.82851300496532
 30
0.0
 10
-442.15809667194446
 20
619.54148431348608
 30
0.0
 10
-438.16292618881141
 20
619.29959822207388
 30
0.0
 10
-434.28368536490495
 20
619.37653968456311
 30
0.0
 10
-431.60091676627837
 20
619.54148500710153
 30
0.0
 10
-429.09485677732459
 20
619.82850895887555
 30
0.0
 10
-426.98795359992562
 20
620.22353192505921
 30
0.0
 10
-424.70334327937337
 20
620.94480075129809
 30
0.0
 10
-424.31356885079606
 20
621.68307479569057
 30
0.0
 10
-424.69749049805898
 20
622.42958763961815
 30
0.0
 10
-426.98795359992562
 20
623.14261766632217
 30
0.0
 10
-429.09485677732448
 20
623.53764063250583
 30
0.0
 10
-431.60091676627837
 20
623.82466458427984
 30
0.0
 10
-434.28368536490507
 20
623.98960990681826
 30
0.0
 10
-438.14843498140783
 20
624.06931670859194
 30
0.0
 10
-442.15809667194446
 20
623.82466527789506
 30
0.0
 10
-444.66415666089836
 20
623.53763658641583
 30
0.0
 10
-446.77105983829722
 20
623.1426412492458
 30
0.0
 10
-449.05640175651354
 20
622.42450716445887
 30
0.0
 10
-449.37950671911142
 20
621.80144564053103
 30
0.0
 10
-449.37950671911142
 20
621.74226021811091
 30
0.0
 10
-449.37950671911142
 20
621.6830747956908
 30
0.0
  0
LINE
  5
1FA
100
AcDbEntity
  8
ADF70-1604
370
              15
390
0
  6
Continuous
 62
               7
100
AcDbLine
 10
-202.50202697944451
 20
609.50799762968791
 30
0.0
 11
-671.25698645877628
 21
609.50799762968791
 31
0.0
  0
ARC
  5
1FB
100
AcDbEntity
  8
ADF70-1604
370
              15
390
0
  6
Continuous
 62
               7
100
AcDbCircle
 10
-202.50202697944451
 20
598.50799762968791
 30
0.0
 40
11.0
100
AcDbArc
 50
0.0
 51
90.0
  0
ARC
  5
1FC
100
AcDbEntity
  8
ADF70-1604
370
              15
390
0
  6
Continuous
 62
               7
100
AcDbCircle
 10
-671.25698645877628
 20
598.50799762968791
 30
0.0
 40
11.0
100
AcDbArc
 50
90.0
 51
180.0
  0
LINE
  5
1FD
100
AcDbEntity
  8
ADF70-1604
370
              15
390
0
  6
Continuous
 62
               7
100
AcDbLine
 10
822.61440360562312
 20
-438.55015237656079
 30
0.0
 11
311.72032008130907
 21
-438.55015237656079
 31
0.0
  0
LINE
  5
1FE
100
AcDbEntity
  8
ADF70-1604
370
              15
390
0
  6
Continuous
 62
               7
100
AcDbLine
 10
825.61442146364448
 20
-528.54462276692834
 30
0.0
 11
825.61442146364448
 21
-593.46757033613881
 31
0.0
  0
LINE
  5
1FF
100
AcDbEntity
  8
ADF70-1604
370
              15
390
0
  6
Continuous
 62
               7
100
AcDbLine
 10
825.61442146364448
 20
-528.54462276692834
 30
0.0
 11
825.61442146364254
 21
-441.55015237650804
 31
0.0
  0
ARC
  5
200
100
AcDbEntity
  8
ADF70-1604
370
              15
390
0
  6
Continuous
 62
               7
100
AcDbCircle
 10
822.61442146364118
 20
-441.55015237651031
 30
0.0
 40
2.9999999999998863
100
AcDbArc
 50
0.0
 51
90.000341063030376
  0
ARC
  5
201
100
AcDbEntity
  8
ADF70-1604
370
              15
390
0
  6
Continuous
 62
               7
100
AcDbCircle
 10
820.61442146364391
 20
-593.46757033613881
 30
0.0
 40
5.0
100
AcDbArc
 50
270.0
 51
0.0
  0
LINE
  5
202
100
AcDbEntity
  8
ADF70-1604
370
              15
390
0
  6
STYLE_12
 62
               7
100
AcDbLine
 10
674.15751697593123
 20
-446.81496031490934
 30
0.0
 11
660.55529649057644
 21
-523.97827394100341
 31
0.0
  0
ARC
  5
203
100
AcDbEntity
  8
ADF70-1604
370
              15
390
0
  6
STYLE_12
 62
               7
100
AcDbCircle
 10
648.73750515743586
 20
-521.89505335586591
 30
0.0
 40
11.99999999999992
100
AcDbArc
 50
287.77033715928218
 51
350.00270314597981
  0
LINE
  5
204
100
AcDbEntity
  8
ADF70-1604
370
              15
390
0
  6
STYLE_12
 62
               7
100
AcDbLine
 10
621.09848685522547
 20
-539.55942899759089
 30
0.0
 11
652.39993315434731
 21
-533.32250369123994
 31
0.0
  0
ARC
  5
205
100
AcDbEntity
  8
ADF70-1604
370
              15
390
0
  6
STYLE_12
 62
               7
100
AcDbCircle
 10
622.22204040116276
 20
-544.43155660567049
 30
0.0
 40
5.0000000000000124
100
AcDbArc
 50
102.98586741150714
 51
130.00000000000529
  0
ARC
  5
206
100
AcDbEntity
  8
ADF70-1604
370
              15
390
0
  6
STYLE_12
 62
               7
100
AcDbCircle
 10
684.00567642021542
 20
-448.55097746919063
 30
0.0
 40
10.000000000000048
100
AcDbArc
 50
90.000341063030348
 51
170.00270314597967
  0
LINE
  5
207
100
AcDbEntity
  8
ADF70-1604
370
              15
390
0
  6
STYLE_12
 62
               7
100
AcDbLine
 10
534.70648704387963
 20
-540.41700900836918
 30
0.0
 11
619.00810235272957
 21
-540.41700900836963
 31
0.0
  0
LINE
  5
208
100
AcDbEntity
  8
ADF70-1604
370
              15
390
0
  6
STYLE_12
 62
               7
100
AcDbLine
 10
554.21238662220264
 20
-555.08246313751329
 30
0.0
 11
601.97524754623009
 21
-555.07666756664571
 31
0.0
  0
LINE
  5
209
100
AcDbEntity
  8
ADF70-1604
370
              15
390
0
  6
STYLE_12
 62
               7
100
AcDbLine
 10
601.73457139755919
 20
-555.9941361614176
 30
0.0
 11
601.09230547447487
 21
-583.46757033613972
 31
0.0
  0
ARC
  5
20A
100
AcDbEntity
  8
ADF70-1604
370
              15
390
0
  6
STYLE_12
 62
               7
100
AcDbCircle
 10
603.73427770895069
 20
-556.02840959400442
 30
0.0
 40
1.999999999999972
100
AcDbArc
 50
130.00000000000469
 51
179.01809041859434
  0
LINE
  5
20B
100
AcDbEntity
  8
ADF70-1604
370
              15
390
0
  6
STYLE_12
 62
               7
100
AcDbLine
 10
602.4487024895775
 20
-554.49632070776534
 30
0.0
 11
619.00810235272957
 21
-540.60133439007609
 31
0.0
  0
LINE
  5
20C
100
AcDbEntity
  8
ADF70-1604
370
              15
390
0
  6
STYLE_12
 62
               7
100
AcDbLine
 10
601.09230547447487
 20
-583.46757033613972
 30
0.0
 11
555.09220525910257
 21
-583.46757033613972
 31
0.0
  0
LINE
  5
20D
100
AcDbEntity
  8
ADF70-1604
370
              15
390
0
  6
Continuous
 62
               7
100
AcDbLine
 10
312.27387466141732
 20
-538.51849654395141
 30
0.0
 11
825.61442146364448
 21
-538.51849654378429
 31
0.0
  0
ARC
  5
20E
100
AcDbEntity
  8
ADF70-1604
370
              15
390
0
  6
Continuous
 62
               7
100
AcDbCircle
 10
312.27387466141857
 20
-533.5184965439521
 30
0.0
 40
4.9999999999992397
100
AcDbArc
 50
180.99999999999346
 51
269.9999999999859
  0
LINE
  5
20F
100
AcDbEntity
  8
ADF70-1604
370
              15
390
0
  6
Continuous
 62
               7
100
AcDbLine
 10
305.72098408176049
 20
-444.59708915742084
 30
0.0
 11
307.27463618563735
 21
-533.60575857613799
 31
0.0
  0
ARC
  5
210
100
AcDbEntity
  8
ADF70-1604
370
              15
390
0
  6
Continuous
 62
               7
100
AcDbCircle
 10
311.72007025269914
 20
-444.49237471879701
 30
0.0
 40
6.0000000000002496
100
AcDbArc
 50
89.997617769683572
 51
181.00000000000119
  0
ARC
  5
211
100
AcDbEntity
  8
ADF70-1604
370
              15
390
0
  6
STYLE_12
 62
               7
100
AcDbCircle
 10
359.76880890773987
 20
-446.49437247958213
 30
0.0
 40
8.0000000000006537
100
AcDbArc
 50
17.69225308273036
 51
89.997617769674704
  0
LINE
  5
212
100
AcDbEntity
  8
ADF70-1604
370
              15
390
0
  6
STYLE_12
 62
               7
100
AcDbLine
 10
393.20408987101553
 20
-524.98580026863442
 30
0.0
 11
367.39042955267143
 21
-444.06313848328244
 31
0.0
  0
ARC
  5
213
100
AcDbEntity
  8
ADF70-1604
370
              15
390
0
  6
STYLE_12
 62
               7
100
AcDbCircle
 10
404.63652083841191
 20
-521.33894927418669
 30
0.0
 40
11.999999999999538
100
AcDbArc
 50
197.69225308272402
 51
266.99999999999795
  0
LINE
  5
214
100
AcDbEntity
  8
ADF70-1604
370
              15
390
0
  6
STYLE_12
 62
               7
100
AcDbLine
 10
532.11740948087379
 20
-540.03640770094034
 30
0.0
 11
404.00848936349621
 21
-533.32250369124108
 31
0.0
  0
ARC
  5
215
100
AcDbEntity
  8
ADF70-1604
370
              15
390
0
  6
STYLE_12
 62
               7
100
AcDbCircle
 10
531.38470609347007
 20
-554.01722118750831
 30
0.0
 40
14.000000000004112
100
AcDbArc
 50
50.000000000001457
 51
86.999999999990507
  0
LINE
  5
216
100
AcDbEntity
  8
ADF70-1604
370
              15
390
0
  6
STYLE_12
 62
               7
100
AcDbLine
 10
553.73580824399914
 20
-554.49632070776511
 30
0.0
 11
540.38373262908397
 21
-543.2925989838393
 31
0.0
  0
ARC
  5
217
100
AcDbEntity
  8
ADF70-1604
370
              15
390
0
  6
STYLE_12
 62
               7
100
AcDbCircle
 10
552.4502330246238
 20
-556.02840959400328
 30
0.0
 40
2.0000000000016604
100
AcDbArc
 50
0.9819095814162232
 51
49.99999999995066
  0
LINE
  5
218
100
AcDbEntity
  8
ADF70-1604
370
              15
390
0
  6
STYLE_12
 62
               7
100
AcDbLine
 10
555.09220525910257
 20
-583.46757033613972
 30
0.0
 11
554.44993933601688
 21
-555.99413616141624
 31
0.0
  0
LINE
  5
219
100
AcDbEntity
  8
ADF70-1604
370
              15
390
0
  6
Continuous
 62
               7
100
AcDbLine
 10
466.6910585657281
 20
-598.46757033613972
 30
0.0
 11
820.61442146364391
 21
-598.46757033613881
 31
0.0
  0
ARC
  5
21A
100
AcDbEntity
  8
ADF70-1604
370
              15
390
0
  6
Continuous
 62
               7
100
AcDbCircle
 10
466.69105856572759
 20
-592.4675703361487
 30
0.0
 40
5.9999999999914744
100
AcDbArc
 50
228.85522362779989
 51
270.00000000001273
  0
LINE
  5
21B
100
AcDbEntity
  8
ADF70-1604
370
              15
390
0
  6
Continuous
 62
               7
100
AcDbLine
 10
403.71953905035286
 20
-545.41489552935832
 30
0.0
 11
462.74327485908202
 21
-596.98586689629633
 31
0.0
  0
ARC
  5
21C
100
AcDbEntity
  8
ADF70-1604
370
              15
390
0
  6
Continuous
 62
               7
100
AcDbCircle
 10
398.45582744148226
 20
-551.43929094290911
 30
0.0
 40
8.0000000000106795
100
AcDbArc
 50
48.855223627837766
 51
74.013249150428479
  0
ARC
  5
21D
100
AcDbEntity
  8
ADF70-1604
370
              15
390
0
  6
Continuous
 62
               7
100
AcDbCircle
 10
412.12269514199465
 20
-503.27847295007928
 30
0.0
 40
42.062467753511079
100
AcDbArc
 50
236.90874886805301
 51
254.18475566104888
  0
CIRCLE
  5
21E
100
AcDbEntity
  8
ADF70-1604
370
              15
390
0
  6
STYLE_12
 62
               7
100
AcDbCircle
 10
-536.8795067191113
 20
697.4141229456875
 30
0.0
 40
17.5
  0
CIRCLE
  5
21F
100
AcDbEntity
  8
ADF70-1604
370
              15
390
0
  6
STYLE_12
 62
               7
100
AcDbCircle
 10
-336.87950671911142
 20
697.4141229456875
 30
0.0
 40
17.5
  0
LWPOLYLINE
  5
220
100
AcDbEntity
  8
ADF70-1604
370
              15
390
0
  6
Continuous
 62
               7
100
AcDbPolyline
 90
        8
 70
             129
 10
-761.87950671911085
 20
-441.5080749378655
 42
-0.4142135623730895
 10
-758.87950671911085
 20
-438.5080749378655
 10
-114.87950671911108
 20
-438.5080749378655
 42
-0.4142135623731006
 10
-111.87950671911108
 20
-441.5080749378655
 10
-111.87950671911108
 20
-535.50807493786533
 42
-0.414213562373095
 10
-114.87950671911108
 20
-538.50807493786533
 10
-758.87950671911085
 20
-538.50807493786533
 42
-0.414213562373095
 10
-761.87950671911085
 20
-535.50807493786533
  0
LINE
  5
221
100
AcDbEntity
  8
ADF70-1604
370
              15
390
0
  6
Continuous
 62
               7
100
AcDbLine
 10
-715.9926253431006
 20
-538.50807493786533
 30
0.0
 11
-619.33542742338386
 21
-598.53514117552095
 31
0.0
  0
LINE
  5
222
100
AcDbEntity
  8
ADF70-1604
370
              15
390
0
  6
Continuous
 62
               7
100
AcDbLine
 10
-619.33542742338386
 20
-598.50807493786533
 30
0.0
 11
-254.33542742338409
 21
-598.50807493786533
 31
0.0
  0
LINE
  5
223
100
AcDbEntity
  8
ADF70-1604
370
              15
390
0
  6
Continuous
 62
               7
100
AcDbLine
 10
-157.67822950366707
 20
-538.50807493786533
 30
0.0
 11
-254.33542742338409
 21
-598.53514117552095
 31
0.0
  0
LINE
  5
224
100
AcDbEntity
  8
ADF70-1604
370
              15
390
0
  6
STYLE_12
 62
               7
100
AcDbLine
 10
-659.33542742338386
 20
-498.5080749378655
 30
0.0
 11
-659.33542742338386
 21
-458.5080749378655
 31
0.0
  0
LWPOLYLINE
  5
225
100
AcDbEntity
  8
ADF70-1604
370
               5
390
0
  6
STYLE_12
 62
               7
100
AcDbPolyline
 90
        9
 70
             129
 10
202.56215994755507
 20
257.4141229456875
 10
752.56215994755576
 20
257.4141229456875
 42
0.414213562373095
 10
802.56215994755576
 20
307.4141229456875
 10
802.56215994755576
 20
774.41412294568727
 42
0.414213562373095
 10
799.56215994755576
 20
777.4141229456875
 10
155.56215994755294
 20
777.4141229456875
 42
0.414213562373095
 10
152.56215994755294
 20
774.41412294568727
 10
152.56215994755499
 20
307.4141229456875
 42
0.414213562373095
 10
202.56215994755507
 20
257.4141229456875
  0
CIRCLE
  5
226
100
AcDbEntity
  8
ADF70-1604
370
               5
390
0
  6
STYLE_12
 62
               7
100
AcDbCircle
 10
477.56215994755291
 20
530.17941653350522
 30
0.0
 40
23.043551013696401
  0
CIRCLE
  5
227
100
AcDbEntity
  8
ADF70-1604
370
               5
390
0
  6
STYLE_12
 62
               7
100
AcDbCircle
 10
477.56215994755291
 20
697.4141229456875
 30
0.0
 40
17.5
  0
CIRCLE
  5
228
100
AcDbEntity
  8
ADF70-1604
370
               5
390
0
  6
STYLE_12
 62
               7
100
AcDbCircle
 10
377.56215994755303
 20
697.4141229456875
 30
0.0
 40
17.5
  0
CIRCLE
  5
229
100
AcDbEntity
  8
ADF70-1604
370
               5
390
0
  6
STYLE_12
 62
               7
100
AcDbCircle
 10
577.56215994755303
 20
697.4141229456875
 30
0.0
 40
17.5
  0
INSERT
  5
22A
100
AcDbEntity
  8
ADF70-1604
390
0
 62
               7
100
AcDbBlockReference
  2
グループ-1
 10
302.12733118912183
 20
-861.95183180188451
 30
0.0
  0
LINE
  5
22B
100
AcDbEntity
  8
ADF70-1604
370
               5
390
0
  6
Continuous
 62
               7
100
AcDbLine
 10
102.58409718714441
 20
777.4141229456875
 30
0.0
 11
852.58409718714427
 21
777.4141229456875
 31
0.0
  0
POLYLINE
  5
22C
100
AcDbEntity
  8
ADF70-1604
370
              15
390
0
  6
Continuous
 62
               7
100
AcDb2dPolyline
 66
               1
 10
0.0
 20
0.0
 30
0.0
 70
               1
 75
               5
  0
VERTEX
  5
22D
100
AcDbEntity
  8
ADF70-1604
370
              15
390
0
  6
Continuous
 62
               7
100
AcDbVertex
100
AcDb2dVertex
 10
352.56215994755303
 20
757.4141229456875
 30
0.0
  0
VERTEX
  5
22E
100
AcDbEntity
  8
ADF70-1604
370
              15
390
0
  6
Continuous
 62
               7
100
AcDbVertex
100
AcDb2dVertex
 10
602.56215994755303
 20
757.4141229456875
 30
0.0
  0
VERTEX
  5
22F
100
AcDbEntity
  8
ADF70-1604
370
              15
390
0
  6
Continuous
 62
               7
100
AcDbVertex
100
AcDb2dVertex
 10
602.56215994755303
 20
497.4141229456875
 30
0.0
  0
VERTEX
  5
230
100
AcDbEntity
  8
ADF70-1604
370
              15
390
0
  6
Continuous
 62
               7
100
AcDbVertex
100
AcDb2dVertex
 10
352.56215994755303
 20
497.4141229456875
 30
0.0
  0
SEQEND
  5
231
100
AcDbEntity
  8
ADF70-1604
370
              15
390
0
  6
Continuous
 62
               7
  0
POLYLINE
  5
232
100
AcDbEntity
  8
ADF70-1604
370
              15
390
0
  6
Continuous
 62
               7
100
AcDb2dPolyline
 66
               1
 10
0.0
 20
0.0
 30
0.0
 70
               1
 75
               5
  0
VERTEX
  5
233
100
AcDbEntity
  8
ADF70-1604
370
              15
390
0
  6
Continuous
 62
               7
100
AcDbVertex
100
AcDb2dVertex
 10
202.58409718714449
 20
777.4141229456875
 30
0.0
  0
VERTEX
  5
234
100
AcDbEntity
  8
ADF70-1604
370
              15
390
0
  6
Continuous
 62
               7
100
AcDbVertex
100
AcDb2dVertex
 10
752.58409718714461
 20
777.4141229456875
 30
0.0
  0
VERTEX
  5
235
100
AcDbEntity
  8
ADF70-1604
370
              15
390
0
  6
Continuous
 62
               7
100
AcDbVertex
100
AcDb2dVertex
 10
752.58409718714461
 20
327.4141229456875
 30
0.0
  0
VERTEX
  5
236
100
AcDbEntity
  8
ADF70-1604
370
              15
390
0
  6
Continuous
 62
               7
100
AcDbVertex
100
AcDb2dVertex
 10
202.58409718714449
 20
327.4141229456875
 30
0.0
  0
SEQEND
  5
237
100
AcDbEntity
  8
ADF70-1604
370
              15
390
0
  6
Continuous
 62
               7
  0
LINE
  5
238
100
AcDbEntity
  8
ADF70-1604
370
              15
390
0
  6
STYLE_12
 62
               7
100
AcDbLine
 10
-393.83075765237288
 20
-539.55942899759043
 30
0.0
 11
-216.73722275780563
 21
-535.68479826429325
 31
0.0
  0
LINE
  5
239
100
AcDbEntity
  8
ADF70-1604
370
              15
390
0
  6
STYLE_12
 62
               7
100
AcDbLine
 10
-482.81183502672638
 20
-540.03640770094034
 30
0.0
 11
-657.09458286790561
 21
-535.68479826429325
 31
0.0
  0
LINE
  5
23A
100
AcDbEntity
  8
ADF70-1604
370
              15
390
0
  6
STYLE_12
 62
               7
100
AcDbLine
 10
-694.29428216792451
 20
-444.02905773319139
 30
0.0
 11
-670.6000822335069
 21
-525.26391898603401
 31
0.0
  0
ARC
  5
23B
100
AcDbEntity
  8
ADF70-1604
370
              15
390
0
  6
STYLE_12
 62
               7
100
AcDbCircle
 10
-656.30954352425999
 20
-520.70535524297452
 30
0.0
 40
15.000000000000101
100
AcDbArc
 50
197.69225308272613
 51
266.99999999999437
  0
ARC
  5
23C
100
AcDbEntity
  8
ADF70-1604
370
              15
390
0
  6
STYLE_12
 62
               7
100
AcDbCircle
 10
-701.91590281285573
 20
-446.46029172949034
 30
0.0
 40
8.0000000000001013
100
AcDbArc
 50
17.692253082726488
 51
89.998243990057546
  0
LINE
  5
23D
100
AcDbEntity
  8
ADF70-1604
370
              15
390
0
  6
STYLE_12
 62
               7
100
AcDbLine
 10
-179.53752345778668
 20
-444.02905773319139
 30
0.0
 11
-203.23172339220429
 21
-525.26391898603401
 31
0.0
  0
ARC
  5
23E
100
AcDbEntity
  8
ADF70-1604
370
              15
390
0
  6
STYLE_12
 62
               7
100
AcDbCircle
 10
-217.52226210145125
 20
-520.70535524297452
 30
0.0
 40
15.000000000000197
100
AcDbArc
 50
273.00000000000557
 51
342.30774691727402
  0
ARC
  5
23F
100
AcDbEntity
  8
ADF70-1604
370
              15
390
0
  6
STYLE_12
 62
               7
100
AcDbCircle
 10
-171.91590281285545
 20
-446.46029172949034
 30
0.0
 40
8.0000000000001155
100
AcDbArc
 50
90.001756009942454
 51
162.30774691727348
  0
LINE
  5
240
100
AcDbEntity
  8
ADF70-1604
370
              15
390
0
  6
STYLE_12
 62
               7
100
AcDbLine
 10
-639.33542742338386
 20
-478.5080749378655
 30
0.0
 11
-679.33542742338386
 21
-478.5080749378655
 31
0.0
  0
CIRCLE
  5
241
100
AcDbEntity
  8
ADF70-1604
370
              15
390
0
  6
STYLE_12
 62
               7
100
AcDbCircle
 10
-659.33542742338386
 20
-478.5080749378655
 30
0.0
 40
10.0
  0
LINE
  5
242
100
AcDbEntity
  8
ADF70-1604
370
              15
390
0
  6
STYLE_12
 62
               7
100
AcDbLine
 10
-214.33542742338363
 20
-498.5080749378655
 30
0.0
 11
-214.33542742338363
 21
-458.5080749378655
 31
0.0
  0
LINE
  5
243
100
AcDbEntity
  8
ADF70-1604
370
              15
390
0
  6
STYLE_12
 62
               7
100
AcDbLine
 10
-194.33542742338358
 20
-478.5080749378655
 30
0.0
 11
-234.33542742338386
 21
-478.5080749378655
 31
0.0
  0
CIRCLE
  5
244
100
AcDbEntity
  8
ADF70-1604
370
              15
390
0
  6
STYLE_12
 62
               7
100
AcDbCircle
 10
-214.33542742338363
 20
-478.5080749378655
 30
0.0
 40
10.000000000000057
  0
LINE
  5
245
100
AcDbEntity
  8
ADF70-1604
370
              15
390
0
  6
Continuous
 62
               7
100
AcDbLine
 10
727.59248422405335
 20
-438.55076094624991
 30
0.0
 11
727.59248422405335
 21
-453.55076094624991
 31
0.0
  0
LINE
  5
246
100
AcDbEntity
  8
ADF70-1604
370
              15
390
0
  6
Continuous
 62
               7
100
AcDbLine
 10
763.59248422405335
 20
-438.55054665001506
 30
0.0
 11
763.59265357435129
 21
-453.55054665001506
 31
0.0
  0
ARC
  5
247
100
AcDbEntity
  8
ADF70-1604
370
              15
390
0
  6
STYLE_12
 62
               7
100
AcDbCircle
 10
-392.70720410643742
 20
-544.43155660567049
 30
0.0
 40
5.0000000000000124
100
AcDbArc
 50
102.98586741150714
 51
130.00000000000529
  0
LINE
  5
248
100
AcDbEntity
  8
ADF70-1604
370
              15
390
0
  6
STYLE_12
 62
               7
100
AcDbLine
 10
-395.71183311514051
 20
-540.4170090083694
 30
0.0
 11
-480.22275746369792
 21
-540.4170090083694
 31
0.0
  0
LINE
  5
249
100
AcDbEntity
  8
ADF70-1604
370
              15
390
0
  6
STYLE_12
 62
               7
100
AcDbLine
 10
-460.71685788539753
 20
-555.08246313751329
 30
0.0
 11
-412.95399696137008
 21
-555.07666756664571
 31
0.0
  0
LINE
  5
24A
100
AcDbEntity
  8
ADF70-1604
370
              15
390
0
  6
STYLE_12
 62
               7
100
AcDbLine
 10
-413.19467311004098
 20
-555.9941361614176
 30
0.0
 11
-413.83693903312542
 21
-583.50807493786533
 31
0.0
  0
ARC
  5
24B
100
AcDbEntity
  8
ADF70-1604
370
              15
390
0
  6
STYLE_12
 62
               7
100
AcDbCircle
 10
-411.1949667986496
 20
-556.02840959400442
 30
0.0
 40
1.999999999999972
100
AcDbArc
 50
130.00000000000469
 51
179.01809041859434
  0
LINE
  5
24C
100
AcDbEntity
  8
ADF70-1604
370
              15
390
0
  6
STYLE_12
 62
               7
100
AcDbLine
 10
-412.48054201802267
 20
-554.49632070776534
 30
0.0
 11
-395.92114215487061
 21
-540.60133439007609
 31
0.0
  0
LINE
  5
24D
100
AcDbEntity
  8
ADF70-1604
370
              15
390
0
  6
STYLE_12
 62
               7
100
AcDbLine
 10
-413.83693903312542
 20
-583.50807493786533
 30
0.0
 11
-459.8370392484976
 21
-583.50807493786533
 31
0.0
  0
ARC
  5
24E
100
AcDbEntity
  8
ADF70-1604
370
              15
390
0
  6
STYLE_12
 62
               7
100
AcDbCircle
 10
-483.5445384141301
 20
-554.01722118750831
 30
0.0
 40
14.000000000004095
100
AcDbArc
 50
50.000000000001549
 51
86.999999999990635
  0
LINE
  5
24F
100
AcDbEntity
  8
ADF70-1604
370
              15
390
0
  6
STYLE_12
 62
               7
100
AcDbLine
 10
-461.19343626360114
 20
-554.49632070776511
 30
0.0
 11
-474.54551187851621
 21
-543.2925989838393
 31
0.0
  0
ARC
  5
250
100
AcDbEntity
  8
ADF70-1604
370
              15
390
0
  6
STYLE_12
 62
               7
100
AcDbCircle
 10
-462.47901148297638
 20
-556.02840959400328
 30
0.0
 40
2.0000000000016604
100
AcDbArc
 50
0.9819095814162232
 51
49.99999999995066
  0
LINE
  5
251
100
AcDbEntity
  8
ADF70-1604
370
              15
390
0
  6
STYLE_12
 62
               7
100
AcDbLine
 10
-459.8370392484976
 20
-583.50807493786533
 30
0.0
 11
-460.47930517158329
 21
-555.99413616141624
 31
0.0
  0
DIMENSION
  5
252
100
AcDbEntity
  8
ADF70-1604
370
               5
390
0
  6
Continuous
 62
               7
100
AcDbDimension
  2
*D28
 10
508.0
 20
-583.46757033613972
 30
0.0
 11
503.0
 21
-611.0
 31
0.0
 70
             128
 71
               5
 72
               1
 41
1.0
 42
0.0
  3
Tform線あり
100
AcDbAlignedDimension
 13
555.09220525910257
 23
-598.46757033613972
 33
0.0
 14
555.09220525910257
 24
-583.46757033613972
 34
0.0
 50
90.0
100
AcDbRotatedDimension
1001
ACAD
1000
DSTYLE
1002
{
1070
             279
1070
               2
1070
             340
1005
3D
1070
             174
1070
               0
1070
             147
1040
5.0
1002
}
  0
ENDSEC
  0
SECTION
  2
OBJECTS
  0
DICTIONARY
  5
19
100
AcDbDictionary
280
               0
281
               1
  3
ACAD_GROUP
350
1A
  3
ACAD_MLINESTYLE
350
1B
  3
ACAD_LAYOUT
350
1E
  3
ACAD_PLOTSETTINGS
350
22
  3
ACAD_PLOTSTYLENAME
350
1F
  0
DICTIONARY
  5
1A
102
{ACAD_REACTORS
330
19
102
}
100
AcDbDictionary
280
               0
281
               1
  0
DICTIONARY
  5
1B
102
{ACAD_REACTORS
330
19
102
}
100
AcDbDictionary
280
               0
281
               1
  3
Standard
350
1C
  0
MLINESTYLE
  5
1C
102
{ACAD_REACTORS
330
1B
102
}
100
AcDbMlineStyle
  2
Standard
 70
               0
  3

 62
               0
 51
90.0
 52
90.0
 71
               2
 49
0.5
 62
             256
  6
ByLayer
 49
-0.5
 62
             256
  6
ByLayer
  0
ACDBDICTIONARYWDFLT
  5
1F
102
{ACAD_REACTORS
330
19
102
}
100
AcDbDictionary
281
               1
  3
Normal
350
1D
100
AcDbDictionaryWithDefault
340
1D
  0
ACDBPLACEHOLDER
  5
1D
102
{ACAD_REACTORS
330
1F
102
}
  0
LAYOUT
  5
20
102
{ACAD_REACTORS
330
1E
102
}
100
AcDbPlotSettings
  1

  2

  4

  6

 40
0.0
 41
0.0
 42
0.0
 43
0.0
 44
0.0
 45
0.0
 46
0.0
 47
0.0
 48
0.0
 49
0.0
140
0.0
141
0.0
142
1.0
143
1.0
 70
            1024
 72
               0
 73
               0
 74
               0
  7

 75
               0
147
1.0
148
0.0
149
0.0
100
AcDbLayout
  1
Model
 70
               0
 71
               0
 10
0.0
 20
0.0
 11
0.0
 21
0.0
 12
0.0
 22
0.0
 32
0.0
 14
0.0
 24
0.0
 34
0.0
 15
0.0
 25
0.0
 35
0.0
146
0.0
 13
0.0
 23
0.0
 33
0.0
 16
0.0
 26
0.0
 36
0.0
 17
0.0
 27
0.0
 37
0.0
 76
               0
330
A
331
0
345
0
346
0
  0
LAYOUT
  5
21
102
{ACAD_REACTORS
330
1E
102
}
100
AcDbPlotSettings
  1

  2

  4

  6

 40
0.0
 41
0.0
 42
0.0
 43
0.0
 44
0.0
 45
0.0
 46
0.0
 47
0.0
 48
0.0
 49
0.0
140
0.0
141
0.0
142
1.0
143
1.0
 70
               0
 72
               0
 73
               0
 74
               0
  7

 75
               0
147
1.0
148
0.0
149
0.0
100
AcDbLayout
  1
Layout1
 70
               0
 71
               0
 10
0.0
 20
0.0
 11
0.0
 21
0.0
 12
0.0
 22
0.0
 32
0.0
 14
0.0
 24
0.0
 34
0.0
 15
0.0
 25
0.0
 35
0.0
146
0.0
 13
0.0
 23
0.0
 33
0.0
 16
0.0
 26
0.0
 36
0.0
 17
0.0
 27
0.0
 37
0.0
 76
               0
330
B
331
0
345
0
346
0
  0
DICTIONARY
  5
1E
102
{ACAD_REACTORS
330
19
102
}
100
AcDbDictionary
280
               0
281
               1
  3
Layout1
350
21
  3
Model
350
20
  0
DICTIONARY
  5
22
102
{ACAD_REACTORS
330
19
102
}
100
AcDbDictionary
280
               0
281
               1
  0
ENDSEC
  0
EOF
