  0
SECTION
  2
HEADER
  9
$ACADVER
  1
AC1015
  9
$ACADMAINTVER
 70
               6
  9
$DWGCODEPAGE
  3
ANSI_932
  9
$INSBASE
 10
0.0
 20
0.0
 30
0.0
  9
$EXTMIN
 10
-975.00000000024124
 20
-1431.5255224711132
 30
-14.834305555555556
  9
$EXTMAX
 10
975.00000000024124
 20
1405.9972926412993
 30
14.834305555555556
  9
$LIMMIN
 10
0.0
 20
0.0
  9
$LIMMAX
 10
0.0
 20
0.0
  9
$ORTHOMODE
 70
               0
  9
$REGENMODE
 70
               1
  9
$FILLMODE
 70
               1
  9
$QTEXTMODE
 70
               0
  9
$MIRRTEXT
 70
               1
  9
$LTSCALE
 40
50.799999999999997
  9
$ATTMODE
 70
               1
  9
$TEXTSIZE
 40
0.2
  9
$TRACEWID
 40
1.0
  9
$TEXTSTYLE
  7
Standard
  9
$CLAYER
  8
notes
  9
$CELTYPE
  6
Continuous
  9
$CECOLOR
 62
             256
  9
$CELTSCALE
 40
1.0
  9
$DISPSILH
 70
               0
  9
$DIMSCALE
 40
1.0
  9
$DIMASZ
 40
22.4482421875
  9
$DIMEXO
 40
15.875
  9
$DIMDLI
 40
10.16
  9
$DIMRND
 40
0.0
  9
$DIMDLE
 40
1.5874999999999999
  9
$DIMEXE
 40
31.75
  9
$DIMTP
 40
0.0
  9
$DIMTM
 40
0.0
  9
$DIMTXT
 40
24.432617187500004
  9
$DIMCEN
 40
0.0
  9
$DIMTSZ
 40
0.0
  9
$DIMTOL
 70
               0
  9
$DIMLIM
 70
               0
  9
$DIMTIH
 70
               0
  9
$DIMTOH
 70
               0
  9
$DIMSE1
 70
               0
  9
$DIMSE2
 70
               0
  9
$DIMTAD
 70
               1
  9
$DIMZIN
 70
              11
  9
$DIMBLK
  1
VW_SLASH
  9
$DIMASO
 70
               1
  9
$DIMSHO
 70
               1
  9
$DIMPOST
  1
<>
  9
$DIMAPOST
  1
[]
  9
$DIMALT
 70
               0
  9
$DIMALTD
 70
               1
  9
$DIMALTF
 40
1.0
  9
$DIMLFAC
 40
1.0
  9
$DIMTOFL
 70
               1
  9
$DIMTVP
 40
0.0
  9
$DIMTIX
 70
               1
  9
$DIMSOXD
 70
               0
  9
$DIMSAH
 70
               0
  9
$DIMBLK1
  1

  9
$DIMBLK2
  1

  9
$DIMSTYLE
  2
Arch
  9
$DIMCLRD
 70
               0
  9
$DIMCLRE
 70
               0
  9
$DIMCLRT
 70
               0
  9
$DIMTFAC
 40
1.0
  9
$DIMGAP
 40
1.5874999999999999
  9
$DIMJUST
 70
               0
  9
$DIMSD1
 70
               0
  9
$DIMSD2
 70
               0
  9
$DIMTOLJ
 70
               1
  9
$DIMTZIN
 70
              11
  9
$DIMALTZ
 70
              11
  9
$DIMALTTZ
 70
              11
  9
$DIMUPT
 70
               0
  9
$DIMDEC
 70
               1
  9
$DIMTDEC
 70
               1
  9
$DIMALTU
 70
               2
  9
$DIMALTTD
 70
               2
  9
$DIMTXSTY
  7
ＭＳゴシック
  9
$DIMAUNIT
 70
               0
  9
$DIMADEC
 70
               2
  9
$DIMALTRND
 40
0.0
  9
$DIMAZIN
 70
               0
  9
$DIMDSEP
 70
              46
  9
$DIMATFIT
 70
               0
  9
$DIMFRAC
 70
               2
  9
$DIMLDRBLK
  1

  9
$DIMLUNIT
 70
               2
  9
$DIMLWD
 70
              -2
  9
$DIMLWE
 70
              -2
  9
$DIMTMOVE
 70
               0
  9
$LUNITS
 70
               2
  9
$LUPREC
 70
               4
  9
$SKETCHINC
 40
0.1
  9
$FILLETRAD
 40
0.0
  9
$AUNITS
 70
               0
  9
$AUPREC
 70
               0
  9
$MENU
  1
acad
  9
$ELEVATION
 40
0.0
  9
$PELEVATION
 40
0.0
  9
$THICKNESS
 40
0.0
  9
$LIMCHECK
 70
               0
  9
$CHAMFERA
 40
0.0
  9
$CHAMFERB
 40
0.0
  9
$CHAMFERC
 40
0.0
  9
$CHAMFERD
 40
0.0
  9
$SKPOLY
 70
               0
  9
$TDCREATE
 40
2456037.599780093
  9
$TDUCREATE
 40
0.000000000
  9
$TDUPDATE
 40
2456037.599780093
  9
$TDUUPDATE
 40
0.000000000
  9
$TDINDWG
 40
0.0000000000
  9
$TDUSRTIMER
 40
0.0000000000
  9
$USRTIMER
 70
               1
  9
$ANGBASE
 50
0.0
  9
$ANGDIR
 70
               0
  9
$PDMODE
 70
               1
  9
$PDSIZE
 40
-2.0
  9
$PLINEWID
 40
0.0
  9
$SPLFRAME
 70
               0
  9
$SPLINETYPE
 70
               6
  9
$SPLINESEGS
 70
               8
  9
$HANDSEED
  5
235
  9
$SURFTAB1
 70
               6
  9
$SURFTAB2
 70
               6
  9
$SURFTYPE
 70
               6
  9
$SURFU
 70
               6
  9
$SURFV
 70
               6
  9
$UCSBASE
  2

  9
$UCSNAME
  2

  9
$UCSORG
 10
0.0
 20
0.0
 30
0.0
  9
$UCSXDIR
 10
1.0
 20
0.0
 30
0.0
  9
$UCSYDIR
 10
0.0
 20
1.0
 30
0.0
  9
$UCSORTHOREF
  2

  9
$UCSORTHOVIEW
 70
               0
  9
$UCSORGTOP
 10
0.0
 20
0.0
 30
0.0
  9
$UCSORGBOTTOM
 10
0.0
 20
0.0
 30
0.0
  9
$UCSORGLEFT
 10
0.0
 20
0.0
 30
0.0
  9
$UCSORGRIGHT
 10
0.0
 20
0.0
 30
0.0
  9
$UCSORGFRONT
 10
0.0
 20
0.0
 30
0.0
  9
$UCSORGBACK
 10
0.0
 20
0.0
 30
0.0
  9
$PUCSBASE
  2

  9
$PUCSNAME
  2

  9
$PUCSORG
 10
0.0
 20
0.0
 30
0.0
  9
$PUCSXDIR
 10
1.0
 20
0.0
 30
0.0
  9
$PUCSYDIR
 10
0.0
 20
1.0
 30
0.0
  9
$PUCSORTHOREF
  2

  9
$PUCSORTHOVIEW
 70
               0
  9
$PUCSORGTOP
 10
0.0
 20
0.0
 30
0.0
  9
$PUCSORGBOTTOM
 10
0.0
 20
0.0
 30
0.0
  9
$PUCSORGLEFT
 10
0.0
 20
0.0
 30
0.0
  9
$PUCSORGRIGHT
 10
0.0
 20
0.0
 30
0.0
  9
$PUCSORGFRONT
 10
0.0
 20
0.0
 30
0.0
  9
$PUCSORGBACK
 10
0.0
 20
0.0
 30
0.0
  9
$USERI1
 70
               0
  9
$USERI2
 70
               0
  9
$USERI3
 70
               0
  9
$USERI4
 70
               0
  9
$USERI5
 70
               0
  9
$USERR1
 40
0.0
  9
$USERR2
 40
0.0
  9
$USERR3
 40
0.0
  9
$USERR4
 40
0.0
  9
$USERR5
 40
0.0
  9
$WORLDVIEW
 70
               1
  9
$SHADEDGE
 70
               3
  9
$SHADEDIF
 70
              70
  9
$TILEMODE
 70
               1
  9
$MAXACTVP
 70
              64
  9
$PINSBASE
 10
0.0
 20
0.0
 30
0.0
  9
$PLIMCHECK
 70
               0
  9
$PEXTMIN
 10
1.0000000000000000E+20
 20
1.0000000000000000E+20
 30
1.0000000000000000E+20
  9
$PEXTMAX
 10
-1.0000000000000000E+20
 20
-1.0000000000000000E+20
 30
-1.0000000000000000E+20
  9
$PLIMMIN
 10
0.0
 20
0.0
  9
$PLIMMAX
 10
12.0
 20
9.0
  9
$UNITMODE
 70
               0
  9
$VISRETAIN
 70
               0
  9
$PLINEGEN
 70
               1
  9
$PSLTSCALE
 70
               0
  9
$TREEDEPTH
 70
            3020
  9
$CMLSTYLE
  2
Standard
  9
$CMLJUST
 70
               0
  9
$CMLSCALE
 40
1.0
  9
$PROXYGRAPHICS
 70
               0
  9
$MEASUREMENT
 70
               1
  9
$CELWEIGHT
370
               0
  9
$ENDCAPS
280
               0
  9
$JOINSTYLE
280
               0
  9
$LWDISPLAY
290
               1
  9
$INSUNITS
 70
               4
  9
$HYPERLINKBASE
  1

  9
$STYLESHEET
  1

  9
$XEDIT
290
               1
  9
$CEPSNTYPE
380
               0
  9
$PSTYLEMODE
290
               1
  9
$FINGERPRINTGUID
  2

  9
$VERSIONGUID
  2

  9
$EXTNAMES
290
               1
  9
$PSVPSCALE
 40
0.0
  0
ENDSEC
  0
SECTION
  2
CLASSES
  0
CLASS
  1
LWPOLYLINE
  2
AcDbPolyline
  3
AutoCAD 2000
 90
        0
280
               0
281
               1
  0
CLASS
  1
IMAGE
  2
AcDbRasterImage
  3
ISM
 90
      127
280
               0
281
               1
  0
CLASS
  1
OLE2FRAME
  2
AcDbOle2Frame
  3
AutoCAD 2000
 90
        0
280
               0
281
               1
  0
CLASS
  1
HATCH
  2
AcDbHatch
  3
AutoCAD 2000
 90
        0
280
               0
281
               1
  0
CLASS
  1
DICTIONARYVAR
  2
AcDbDictionaryVar
  3
AutoCAD 2000
 90
        0
280
               0
281
               0
  0
CLASS
  1
RASTERVARIABLES
  2
AcDbRasterVariables
  3
ISM
 90
        0
280
               0
281
               0
  0
CLASS
  1
IMAGEDEF
  2
AcDbRasterImageDef
  3
ISM
 90
        0
280
               0
281
               0
  0
CLASS
  1
IMAGEDEF_REACTOR
  2
AcDbRasterImageDefReactor
  3
ISM
 90
        1
280
               0
281
               0
  0
CLASS
  1
IDBUFFER
  2
AcDbIdBuffer
  3
AutoCAD 2000
 90
        0
280
               0
281
               0
  0
CLASS
  1
SPATIAL_FILTER
  2
AcDbSpatialFilter
  3
AutoCAD 2000
 90
        0
280
               0
281
               0
  0
CLASS
  1
XRECORD
  2
AcDbXrecord
  3
AutoCAD 2000
 90
        0
280
               0
281
               0
  0
CLASS
  1
SORTENTSTABLE
  2
AcDbSortentsTable
  3
AutoCAD 2000
 90
        0
280
               0
281
               0
  0
CLASS
  1
LAYER_INDEX
  2
AcDbLayerIndex
  3
AutoCAD 2000
 90
        0
280
               0
281
               0
  0
CLASS
  1
SPATIAL_INDEX
  2
AcDbSpatialIndex
  3
AutoCAD 2000
 90
        0
280
               0
281
               0
  0
CLASS
  1
OBJECT_PTR
  2
CAseDLPNTableRecord
  3
"ASE-LPNTableRecord"
 90
        1
280
               0
281
               0
  0
CLASS
  1
LAYOUT
  2
AcDbLayout
  3
AutoCAD 2000
 90
        0
280
               0
281
               0
  0
CLASS
  1
PLOTSETTINGS
  2
AcDbPlotSettings
  3
AutoCAD 2000
 90
        0
280
               0
281
               0
  0
CLASS
  1
ACDBDICTIONARYWDFLT
  2
AcDbDictionaryWithDefault
  3
AutoCAD 2000
 90
        0
280
               0
281
               0
  0
CLASS
  1
ACDBPLACEHOLDER
  2
AcDbPlaceHolder
  3
AutoCAD 2000
 90
        0
280
               0
281
               0
  0
ENDSEC
  0
SECTION
  2
TABLES
  0
TABLE
  2
VPORT
  5
7
100
AcDbSymbolTable
 70
               1
  0
VPORT
  5
15
100
AcDbSymbolTableRecord
100
AcDbViewportTableRecord
  2
*ACTIVE
 70
               0
 10
0.0
 20
0.0
 11
1.0
 21
1.0
 12
0.0
 22
-12.764114914906941
 13
0.0
 23
0.0
 14
1.0
 24
1.0
 15
0.0
 25
0.0
 16
0.0
 26
0.0
 36
1.0
 17
0.0
 27
0.0
 37
0.0
 40
2837.5228151124124
 41
0.688564
 42
50.0
 43
0.0
 44
0.0
 50
0.0
 51
0.0
 71
               0
 72
            2000
 73
               1
 74
               1
 75
               0
 76
               0
 77
               0
 78
               0
281
               0
 65
               0
110
0.0
120
0.0
130
0.0
111
1.0
121
0.0
131
0.0
112
0.0
122
1.0
132
0.0
345
0
346
0
 79
               0
146
0.0
  0
ENDTAB
  0
TABLE
  2
LTYPE
  5
4
100
AcDbSymbolTable
 70
              15
  0
LTYPE
  5
11
100
AcDbSymbolTableRecord
100
AcDbLinetypeTableRecord
  2
ByBlock
 70
              64
  3

 72
              65
 73
               0
 40
0.0
  0
LTYPE
  5
12
100
AcDbSymbolTableRecord
100
AcDbLinetypeTableRecord
  2
ByLayer
 70
              64
  3

 72
              65
 73
               0
 40
0.0
  0
LTYPE
  5
13
100
AcDbSymbolTableRecord
100
AcDbLinetypeTableRecord
  2
Continuous
 70
              64
  3
Solid line
 72
              65
 73
               0
 40
0.0
  0
LTYPE
  5
3F
100
AcDbSymbolTableRecord
100
AcDbLinetypeTableRecord
  2
STYLE_01
 70
               0
  3

 72
              65
 73
               2
 40
0.1874999999999999
 49
0.125
 74
               0
 49
-0.0625
 74
               0
  0
LTYPE
  5
40
100
AcDbSymbolTableRecord
100
AcDbLinetypeTableRecord
  2
STYLE_02
 70
               0
  3

 72
              65
 73
               2
 40
0.6944250000000001
 49
0.48607
 74
               0
 49
-0.2083550000000001
 74
               0
  0
LTYPE
  5
41
100
AcDbSymbolTableRecord
100
AcDbLinetypeTableRecord
  2
STYLE_03
 70
               0
  3

 72
              65
 73
               2
 40
1.25
 49
1.0416400000000001
 74
               0
 49
-0.2083599999999999
 74
               0
  0
LTYPE
  5
42
100
AcDbSymbolTableRecord
100
AcDbLinetypeTableRecord
  2
STYLE_04
 70
               0
  3

 72
              65
 73
               2
 40
1.5277099999999999
 49
1.3194249999999998
 74
               0
 49
-0.208285
 74
               0
  0
LTYPE
  5
43
100
AcDbSymbolTableRecord
100
AcDbLinetypeTableRecord
  2
STYLE_05
 70
               0
  3

 72
              65
 73
               2
 40
0.20828
 49
0.069425
 74
               0
 49
-0.138855
 74
               0
  0
LTYPE
  5
44
100
AcDbSymbolTableRecord
100
AcDbLinetypeTableRecord
  2
STYLE_06
 70
               0
  3

 72
              65
 73
               4
 40
1.0416400000000001
 49
0.625
 74
               0
 49
-0.20828
 74
               0
 49
0.06943
 74
               0
 49
-0.13893
 74
               0
  0
LTYPE
  5
45
100
AcDbSymbolTableRecord
100
AcDbLinetypeTableRecord
  2
STYLE_07
 70
               0
  3

 72
              65
 73
               6
 40
1.875
 49
0.625
 74
               0
 49
-0.20828
 74
               0
 49
0.6250000000000001
 74
               0
 49
-0.2083599999999999
 74
               0
 49
0.06943
 74
               0
 49
-0.1389299999999999
 74
               0
  0
LTYPE
  5
46
100
AcDbSymbolTableRecord
100
AcDbLinetypeTableRecord
  2
STYLE_08
 70
               0
  3

 72
              65
 73
               6
 40
1.25
 49
0.625
 74
               0
 49
-0.20828
 74
               0
 49
0.06943
 74
               0
 49
-0.13893
 74
               0
 49
0.0694299999999999
 74
               0
 49
-0.13893
 74
               0
  0
LTYPE
  5
47
100
AcDbSymbolTableRecord
100
AcDbLinetypeTableRecord
  2
STYLE_09
 70
               0
  3

 72
              65
 73
               4
 40
5.0
 49
3.75
 74
               0
 49
-0.2777849999999998
 74
               0
 49
0.6944300000000003
 74
               0
 49
-0.2777849999999998
 74
               0
  0
LTYPE
  5
48
100
AcDbSymbolTableRecord
100
AcDbLinetypeTableRecord
  2
STYLE_10
 70
               0
  3

 72
              65
 73
               6
 40
5.9375
 49
3.75
 74
               0
 49
-0.2777849999999998
 74
               0
 49
0.6944300000000003
 74
               0
 49
-0.2777849999999998
 74
               0
 49
0.625
 74
               0
 49
-0.3125
 74
               0
  0
LTYPE
  5
49
100
AcDbSymbolTableRecord
100
AcDbLinetypeTableRecord
  2
STYLE_11
 70
               0
  3

 72
              65
 73
               2
 40
0.0694444881889764
 49
0.0347222440944882
 74
               0
 49
-0.0347222440944882
 74
               0
  0
LTYPE
  5
4A
100
AcDbSymbolTableRecord
100
AcDbLinetypeTableRecord
  2
STYLE_12
 70
               0
  3

 72
              65
 73
               2
 40
0.3937007874015748
 49
0.1968503937007874
 74
               0
 49
-0.1968503937007874
 74
               0
  0
ENDTAB
  0
TABLE
  2
LAYER
  5
2
100
AcDbSymbolTable
 70
               5
  0
LAYER
  5
14
100
AcDbSymbolTableRecord
100
AcDbLayerTableRecord
  2
0
 70
               0
 62
               7
  6
Continuous
290
               1
370
              -3
390
1D
  0
LAYER
  5
4B
100
AcDbSymbolTableRecord
100
AcDbLayerTableRecord
  2
Defpoints
 70
               0
 62
               7
  6
Continuous
290
               0
370
              -3
390
1D
  0
LAYER
  5
4C
100
AcDbSymbolTableRecord
100
AcDbLayerTableRecord
  2
template
 70
               0
 62
               7
  6
Continuous
290
               1
370
              -3
390
1D
  0
LAYER
  5
4D
100
AcDbSymbolTableRecord
100
AcDbLayerTableRecord
  2
notes
 70
               0
 62
               7
  6
Continuous
290
               1
370
              -3
390
1D
  0
LAYER
  5
4E
100
AcDbSymbolTableRecord
100
AcDbLayerTableRecord
  2
ADF70-1605
 70
               0
 62
               7
  6
Continuous
290
               1
370
              -3
390
1D
  0
ENDTAB
  0
TABLE
  2
STYLE
  5
3
100
AcDbSymbolTable
 70
               3
  0
STYLE
  5
17
100
AcDbSymbolTableRecord
100
AcDbTextStyleTableRecord
  2
Standard
 70
               0
 40
0.0
 41
1.0
 50
0.0
 71
               0
 42
0.0
  3
txt
  4
BIGFONT.SHX
  0
STYLE
  5
3D
100
AcDbSymbolTableRecord
100
AcDbTextStyleTableRecord
  2
ＭＳ ゴシック
 70
               0
 40
0.0
 41
1.0
 50
0.0
 71
               0
 42
0.0
  3

  4
ＭＳ ゴシック
1001
ACAD
1000
ＭＳ ゴシック
1071
        0
  0
STYLE
  5
3E
100
AcDbSymbolTableRecord
100
AcDbTextStyleTableRecord
  2
ＭＳゴシック
 70
               0
 40
0.0
 41
1.0
 50
0.0
 71
               0
 42
0.0
  3

  4
ＭＳゴシック
1001
ACAD
1000
ＭＳゴシック
1071
        0
  0
ENDTAB
  0
TABLE
  2
VIEW
  5
5
100
AcDbSymbolTable
 70
               0
  0
ENDTAB
  0
TABLE
  2
UCS
  5
6
100
AcDbSymbolTable
 70
               0
  0
ENDTAB
  0
TABLE
  2
APPID
  5
8
100
AcDbSymbolTable
 70
               1
  0
APPID
  5
16
100
AcDbSymbolTableRecord
100
AcDbRegAppTableRecord
  2
ACAD
 70
               0
  0
ENDTAB
  0
TABLE
  2
DIMSTYLE
  5
9
100
AcDbSymbolTable
 70
               3
100
AcDbDimStyleTable
 71
               0
  0
DIMSTYLE
105
18
100
AcDbSymbolTableRecord
100
AcDbDimStyleTableRecord
  2
Standard
 70
               0
  3

  4

 40
1.0
 41
0.18
 42
0.0625
 43
0.38
 44
0.18
 45
0.0
 46
0.0
 47
0.0
 48
0.0
 71
               0
 72
               0
 73
               1
 74
               1
 75
               0
 76
               0
 77
               0
 78
               0
 79
               0
140
0.18
141
0.09
142
0.0
143
25.399999999999999
144
1.0
145
0.0
146
1.0
147
0.09
148
0.0
170
               0
171
               2
172
               0
173
               0
174
               0
175
               0
176
               0
177
               0
178
               0
179
               0
271
               4
272
               4
273
               2
274
               2
275
               0
276
               0
277
               2
278
              46
279
               0
280
               0
281
               0
282
               0
283
               1
284
               0
285
               0
286
               0
288
               0
289
               3
340
17
341
0
342
0
343
0
344
0
371
              -2
372
              -2
  0
DIMSTYLE
105
57
100
AcDbSymbolTableRecord
100
AcDbDimStyleTableRecord
  2
Tform線あり
 70
               0
  3
<>
  4
[]
 40
1.0
 41
9.9993896484374982
 42
24.999999999999996
 43
0.9999999999999999
 44
0.0
 45
0.0
 46
0.0
 47
0.0
 48
0.0
 71
               0
 72
               0
 73
               0
 74
               0
 75
               0
 76
               0
 77
               1
 78
              11
 79
               0
140
24.432617187500004
141
0.0
142
0.0
143
1.0
144
1.0
145
0.0
146
0.8
147
0.4999999999999999
148
0.0
170
               0
171
               1
172
               1
173
               0
174
               1
175
               0
176
               0
177
               0
178
               0
179
               2
271
               1
272
               1
273
               2
274
               2
275
               0
276
               2
277
               2
278
              46
279
               0
280
               0
281
               0
282
               0
283
               1
284
              11
285
              11
286
              11
288
               0
289
               0
340
3E
341
4F
342
4F
343
0
344
0
371
              -2
372
              -2
  0
DIMSTYLE
105
61
100
AcDbSymbolTableRecord
100
AcDbDimStyleTableRecord
  2
Arch
 70
               0
  3
<>
  4
[]
 40
1.0
 41
22.4482421875
 42
15.875
 43
10.16
 44
31.75
 45
0.0
 46
1.5874999999999999
 47
0.0
 48
0.0
 71
               0
 72
               0
 73
               0
 74
               0
 75
               0
 76
               0
 77
               1
 78
              11
 79
               0
140
24.432617187500004
141
0.0
142
0.0
143
1.0
144
1.0
145
0.0
146
1.0
147
1.5874999999999999
148
0.0
170
               0
171
               1
172
               1
173
               0
174
               1
175
               0
176
               0
177
               0
178
               0
179
               2
271
               1
272
               1
273
               2
274
               2
275
               0
276
               2
277
               2
278
              46
279
               0
280
               0
281
               0
282
               0
283
               1
284
              11
285
              11
286
              11
288
               0
289
               0
340
3E
341
5D
342
58
343
0
344
0
371
              -2
372
              -2
  0
ENDTAB
  0
TABLE
  2
BLOCK_RECORD
  5
1
100
AcDbSymbolTable
 70
              29
  0
BLOCK_RECORD
  5
A
100
AcDbSymbolTableRecord
100
AcDbBlockTableRecord
  2
*MODEL_SPACE
340
20
  0
BLOCK_RECORD
  5
B
100
AcDbSymbolTableRecord
100
AcDbBlockTableRecord
  2
*PAPER_SPACE
340
21
  0
BLOCK_RECORD
  5
4F
100
AcDbSymbolTableRecord
100
AcDbBlockTableRecord
  2
_DOT
340
0
  0
BLOCK_RECORD
  5
58
100
AcDbSymbolTableRecord
100
AcDbBlockTableRecord
  2
VW_SLASH
340
0
  0
BLOCK_RECORD
  5
5D
100
AcDbSymbolTableRecord
100
AcDbBlockTableRecord
  2
VW_FILLEDARROW
340
0
  0
BLOCK_RECORD
  5
23
100
AcDbSymbolTableRecord
100
AcDbBlockTableRecord
  2
グループ
340
0
102
{BLKREFS
331
19B
102
}
  0
BLOCK_RECORD
  5
24
100
AcDbSymbolTableRecord
100
AcDbBlockTableRecord
  2
グループ-1
340
0
102
{BLKREFS
331
1B0
102
}
  0
BLOCK_RECORD
  5
25
100
AcDbSymbolTableRecord
100
AcDbBlockTableRecord
  2
*D5
340
0
  0
BLOCK_RECORD
  5
26
100
AcDbSymbolTableRecord
100
AcDbBlockTableRecord
  2
*D6
340
0
  0
BLOCK_RECORD
  5
27
100
AcDbSymbolTableRecord
100
AcDbBlockTableRecord
  2
*D7
340
0
  0
BLOCK_RECORD
  5
28
100
AcDbSymbolTableRecord
100
AcDbBlockTableRecord
  2
*D8
340
0
  0
BLOCK_RECORD
  5
29
100
AcDbSymbolTableRecord
100
AcDbBlockTableRecord
  2
*D9
340
0
  0
BLOCK_RECORD
  5
2A
100
AcDbSymbolTableRecord
100
AcDbBlockTableRecord
  2
*D10
340
0
  0
BLOCK_RECORD
  5
2B
100
AcDbSymbolTableRecord
100
AcDbBlockTableRecord
  2
*D11
340
0
  0
BLOCK_RECORD
  5
2C
100
AcDbSymbolTableRecord
100
AcDbBlockTableRecord
  2
*D12
340
0
  0
BLOCK_RECORD
  5
2D
100
AcDbSymbolTableRecord
100
AcDbBlockTableRecord
  2
*D13
340
0
  0
BLOCK_RECORD
  5
2E
100
AcDbSymbolTableRecord
100
AcDbBlockTableRecord
  2
*D14
340
0
  0
BLOCK_RECORD
  5
2F
100
AcDbSymbolTableRecord
100
AcDbBlockTableRecord
  2
*D15
340
0
  0
BLOCK_RECORD
  5
30
100
AcDbSymbolTableRecord
100
AcDbBlockTableRecord
  2
*D16
340
0
  0
BLOCK_RECORD
  5
31
100
AcDbSymbolTableRecord
100
AcDbBlockTableRecord
  2
*D17
340
0
  0
BLOCK_RECORD
  5
32
100
AcDbSymbolTableRecord
100
AcDbBlockTableRecord
  2
*D18
340
0
  0
BLOCK_RECORD
  5
33
100
AcDbSymbolTableRecord
100
AcDbBlockTableRecord
  2
*D19
340
0
  0
BLOCK_RECORD
  5
34
100
AcDbSymbolTableRecord
100
AcDbBlockTableRecord
  2
*D20
340
0
  0
BLOCK_RECORD
  5
35
100
AcDbSymbolTableRecord
100
AcDbBlockTableRecord
  2
*D21
340
0
  0
BLOCK_RECORD
  5
36
100
AcDbSymbolTableRecord
100
AcDbBlockTableRecord
  2
*D22
340
0
  0
BLOCK_RECORD
  5
37
100
AcDbSymbolTableRecord
100
AcDbBlockTableRecord
  2
*D23
340
0
  0
BLOCK_RECORD
  5
38
100
AcDbSymbolTableRecord
100
AcDbBlockTableRecord
  2
*D24
340
0
  0
BLOCK_RECORD
  5
39
100
AcDbSymbolTableRecord
100
AcDbBlockTableRecord
  2
グループ-2
340
0
102
{BLKREFS
331
22D
102
}
  0
BLOCK_RECORD
  5
3A
100
AcDbSymbolTableRecord
100
AcDbBlockTableRecord
  2
グループ-3
340
0
102
{BLKREFS
331
182
102
}
  0
BLOCK_RECORD
  5
3B
100
AcDbSymbolTableRecord
100
AcDbBlockTableRecord
  2
グループ-4
340
0
102
{BLKREFS
331
22E
102
}
  0
BLOCK_RECORD
  5
3C
100
AcDbSymbolTableRecord
100
AcDbBlockTableRecord
  2
*D28
340
0
  0
ENDTAB
  0
ENDSEC
  0
SECTION
  2
BLOCKS
  0
BLOCK
  5
D
100
AcDbEntity
  8
0
390
0
100
AcDbBlockBegin
  2
*MODEL_SPACE
 70
               0
 10
0.0
 20
0.0
 30
0.0
  3
*MODEL_SPACE
  1

  0
ENDBLK
  5
E
100
AcDbEntity
  8
0
390
0
100
AcDbBlockEnd
  0
BLOCK
  5
F
100
AcDbEntity
 67
               1
  8
0
390
0
100
AcDbBlockBegin
  2
*PAPER_SPACE
 70
               0
 10
0.0
 20
0.0
 30
0.0
  3
*PAPER_SPACE
  1

  0
ENDBLK
  5
10
100
AcDbEntity
 67
               1
  8
0
390
0
100
AcDbBlockEnd
  0
BLOCK
  5
50
100
AcDbEntity
  8
0
390
0
100
AcDbBlockBegin
  2
_DOT
 70
               0
 10
0.0
 20
0.0
 30
0.0
  3
_DOT
  1

  0
POLYLINE
  5
51
100
AcDbEntity
  8
0
370
              -2
390
0
  6
ByBlock
 62
               0
100
AcDb2dPolyline
 66
               1
 10
0.0
 20
0.0
 30
0.0
 70
               1
 40
0.5
 41
0.5
  0
VERTEX
  5
52
100
AcDbEntity
  8
0
370
              -2
390
0
  6
ByBlock
 62
               0
100
AcDbVertex
100
AcDb2dVertex
 10
-0.25
 20
0.0
 30
0.0
 42
1.0
  0
VERTEX
  5
53
100
AcDbEntity
  8
0
370
              -2
390
0
  6
ByBlock
 62
               0
100
AcDbVertex
100
AcDb2dVertex
 10
0.25
 20
0.0
 30
0.0
 42
1.0
  0
SEQEND
  5
54
100
AcDbEntity
  8
0
390
0
  0
LINE
  5
55
100
AcDbEntity
  8
0
370
              -2
390
0
  6
ByBlock
 62
               0
100
AcDbLine
 10
-0.5
 20
0.0
 30
0.0
 11
-1.0
 21
0.0
 31
0.0
  0
ENDBLK
  5
56
100
AcDbEntity
  8
0
390
0
100
AcDbBlockEnd
  0
BLOCK
  5
59
100
AcDbEntity
  8
0
370
              -2
390
0
  6
ByBlock
 62
               0
100
AcDbBlockBegin
  2
VW_SLASH
 70
               0
 10
0.0
 20
0.0
 30
0.0
  3
VW_SLASH
  1

  0
LINE
  5
5A
100
AcDbEntity
  8
0
370
              -2
390
0
  6
ByBlock
 62
               0
100
AcDbLine
 10
0.0
 20
0.0
 30
0.0
 11
-1.0
 21
0.0
 31
0.0
  0
LINE
  5
5B
100
AcDbEntity
  8
0
370
              20
390
0
  6
ByBlock
 62
               0
100
AcDbLine
 10
-0.4987813153181721
 20
-0.4987813153181719
 30
0.0
 11
0.4987813153181721
 21
0.4987813153181719
 31
0.0
  0
ENDBLK
  5
5C
100
AcDbEntity
  8
0
390
0
100
AcDbBlockEnd
  0
BLOCK
  5
5E
100
AcDbEntity
  8
0
370
              -2
390
0
  6
ByBlock
 62
               0
100
AcDbBlockBegin
  2
VW_FILLEDARROW
 70
               0
 10
0.0
 20
0.0
 30
0.0
  3
VW_FILLEDARROW
  1

  0
SOLID
  5
5F
100
AcDbEntity
  8
0
370
              -2
390
0
 62
               0
100
AcDbTrace
 10
0.0
 20
0.0
 30
0.0
 11
-1.4107666015625
 21
-0.3780137715974714
 31
0.0
 12
-1.4107666015625
 22
0.3780137715974717
 32
0.0
 13
-1.4107666015625
 23
0.3780137715974717
 33
0.0
  0
ENDBLK
  5
60
100
AcDbEntity
  8
0
390
0
100
AcDbBlockEnd
  0
BLOCK
  5
62
100
AcDbEntity
  8
template
390
0
100
AcDbBlockBegin
  2
グループ
 70
               0
 10
0.0
 20
0.0
 30
0.0
  3
グループ
  1

  0
LWPOLYLINE
  5
63
100
AcDbEntity
  8
0
370
              15
390
0
  6
Continuous
 62
               7
100
AcDbPolyline
 90
        8
 70
             129
 10
-786.96575316615031
 20
2491.3115776579198
 10
-786.96575316615031
 20
2485.3141889643439
 10
-796.46695008415361
 20
2485.3141889643439
 10
-796.46695008415361
 20
2460.8632257008348
 10
-804.8223273459364
 20
2460.8632257008348
 10
-804.8223273459364
 20
2485.3141889643439
 10
-814.15528429224582
 20
2485.3141889643439
 10
-814.15528429224582
 20
2491.3115776579198
  0
LWPOLYLINE
  5
64
100
AcDbEntity
  8
0
370
              15
390
0
  6
Continuous
 62
               7
100
AcDbPolyline
 90
      101
 70
             128
 10
-774.23746133559337
 20
2490.5833291649833
 10
-774.22211130681319
 20
2490.5876899216669
 42
-0.0222221607819066
 10
-773.93210673013732
 20
2490.656314386913
 10
-773.91631296614537
 20
2490.6593178100097
 42
-0.0146883565590892
 10
-773.65361026091955
 20
2490.7013209969591
 42
-0.012745884418971
 10
-773.38897129376039
 20
2490.7288579650321
 10
-773.32651621545369
 20
2490.73375138762
 42
-0.0198099018564659
 10
-772.93566710597793
 20
2490.7488365450167
 10
-772.8838556365331
 20
2490.7487827693517
 42
-0.0147617382765613
 10
-772.38923217555509
 20
2490.7336627441064
 10
-772.31654072068375
 20
2490.7292901372189
 42
-0.016262454899953
 10
-771.92638709121934
 20
2490.6930572619467
 10
-771.80485469996154
 20
2490.6777707029505
 42
-0.0080020874673292
 10
-771.65927566886853
 20
2490.6570878556818
 10
-771.62095619828369
 20
2490.6510165778723
 42
-0.0053821929660176
 10
-771.55247209295874
 20
2490.6394090540489
 10
-772.27887779215735
 20
2488.458480598335
 42
0.0108667757420344
 10
-772.34619486229178
 20
2488.4716677135552
 10
-772.38366288547763
 20
2488.4781654561493
 42
0.0170663203305847
 10
-772.52687967238944
 20
2488.4979950534407
 10
-772.59475500507619
 20
2488.5050422240288
 42
0.022016237527325
 10
-772.87513441293049
 20
2488.5217245847994
 10
-772.95298997998361
 20
2488.5229239520659
 42
0.0282606915780082
 10
-773.2886263035615
 20
2488.5091206750967
 10
-773.3325395773353
 20
2488.5048206850929
 42
0.0169677213688806
 10
-773.57846407229272
 20
2488.4722836355404
 42
0.0190576269870818
 10
-773.82137203487491
 20
2488.4221367634336
 10
-773.82763122298365
 20
2488.4205937893248
 42
0.0213685642841158
 10
-774.07801570745823
 20
2488.3473935042211
 10
-774.08350560237761
 20
2488.3455305081611
 42
0.0237595297602594
 10
-774.3370004872769
 20
2488.2458459862651
 10
-774.34210256130598
 20
2488.2435542107874
 42
0.0261857468812373
 10
-774.59427333753581
 20
2488.1140178734131
 10
-774.60469952662129
 20
2488.1079523989451
 42
0.0272553062019175
 10
-774.84112930186143
 20
2487.9525801930004
 10
-774.87589231536924
 20
2487.9269190449095
 42
0.0325996893179269
 10
-775.02604765902242
 20
2487.8001711719367
 10
-775.04975708814618
 20
2487.7773531434232
 42
0.0138050960621866
 10
-775.14164024435559
 20
2487.6839034818722
 42
0.0125280103800481
 10
-775.22848277718924
 20
2487.5857401552721
 10
-775.25216322209747
 20
2487.5575816570845
 42
0.0205218024741122
 10
-775.37726329761438
 20
2487.3957883428511
 10
-775.39972963809828
 20
2487.3641286130287
 42
0.0163110129580006
 10
-775.5554400173454
 20
2487.1287981779656
 10
-775.55816391340056
 20
2487.1243744159733
 42
0.0131897341898904
 10
-775.7049644343092
 20
2486.8712423236038
 10
-775.70666452967293
 20
2486.868124084473
 42
0.0107895576055078
 10
-775.84444123188337
 20
2486.6019088748385
 10
-775.84517412140872
 20
2486.6004146421915
 42
0.0091371507224291
 10
-775.97365407005509
 20
2486.3258894444393
 10
-776.00339970146752
 20
2486.2591829372732
 42
0.0135418326356811
 10
-776.17511364054189
 20
2485.8442451519973
 10
-776.20871844896897
 20
2485.7563790097352
 42
0.0092834542409376
 10
-776.37994750889425
 20
2485.2824805114178
 10
-776.40556463662085
 20
2485.2072394415982
 42
0.0054261043588462
 10
-776.51320278490493
 20
2484.8794754685591
 10
-776.53072877107195
 20
2484.8240873063619
 42
0.0008225090809591
 10
-776.59939882291235
 20
2484.6058185481797
 10
-777.58408795484581
 20
2481.5809272549232
 10
-774.35146411477194
 20
2481.5809272549232
 10
-774.85565654462539
 20
2479.6764489565712
 10
-778.11171282660871
 20
2479.6764489565712
 10
-783.94086185896253
 20
2460.8632258905664
 10
-785.76595946927284
 20
2460.8632258905664
 10
-779.93128143377191
 20
2479.6764489565712
 10
-782.33639780281226
 20
2479.6764489565712
 10
-781.83220537295881
 20
2481.5809272549232
 10
-779.40365656200879
 20
2481.5809272549232
 10
-778.54350164382015
 20
2484.2173402556223
 42
-0.000586356064044
 10
-778.50676696555979
 20
2484.3341666760944
 10
-778.43067913195625
 20
2484.5751589752995
 42
-0.0087522378931078
 10
-778.23121098850265
 20
2485.1704350624364
 10
-778.13894671308481
 20
2485.4305752309624
 42
-0.0077400953828392
 10
-777.8810130539548
 20
2486.1235799085071
 10
-777.86524808237471
 20
2486.1640107918961
 42
-0.0082369946328959
 10
-777.61816361176398
 20
2486.7680898580888
 42
-0.0085725238364942
 10
-777.35091751576181
 20
2487.3635158973743
 10
-777.2492879147552
 20
2487.5799369993579
 42
-0.016810941059754
 10
-776.96234348602366
 20
2488.1411445254653
 10
-776.83650009558562
 20
2488.3681085584249
 42
-0.0007817726878441
 10
-776.78221574550798
 20
2488.4656528034939
 10
-776.78208743949267
 20
2488.4658825122269
 42
-0.0036626142161993
 10
-776.72719957546951
 20
2488.5624803921987
 42
-0.0080221150672593
 10
-776.67007532006471
 20
2488.6577596269485
 10
-776.63937536870162
 20
2488.7071505760741
 42
-0.0202139325561297
 10
-776.51171962889589
 20
2488.895132176754
 10
-776.45765216370728
 20
2488.9682110409963
 42
-0.0249323791794468
 10
-776.19848936998596
 20
2489.2842562831534
 10
-776.17434955586111
 20
2489.3108705560635
 42
-0.0242132121536643
 10
-775.83466881431912
 20
2489.6507540422676
 10
-775.78675724157017
 20
2489.6942631784518
 42
-0.0251017527852823
 10
-775.50277554092781
 20
2489.9272559242181
 10
-775.50133006412284
 20
2489.9283251817906
 42
-0.0130868069031116
 10
-775.20306941415674
 20
2490.1371056503394
 10
-775.20150759501621
 20
2490.1381390906131
 42
-0.02903295263913
 10
-774.89039645362072
 20
2490.3189645922439
 10
-774.86055089163256
 20
2490.3340669750846
 42
-0.0160250190045326
 10
-774.5946464778699
 20
2490.4580830852965
 42
-0.0267600374789957
 10
-774.31937040040634
 20
2490.5588314058432
 10
-774.29263448088034
 20
2490.5670239646706
 42
-0.0049981587650837
 10
-774.23746133559337
 20
2490.5833291649833
 42
-0.0049981587650837
  0
LWPOLYLINE
  5
65
100
AcDbEntity
  8
0
370
              15
390
0
  6
Continuous
 62
               7
100
AcDbPolyline
 90
      118
 70
             128
 10
-754.42309377114645
 20
2481.506943927096
 10
-752.54797184664699
 20
2481.506943927096
 10
-753.38601075224688
 20
2478.8253774006962
 42
-0.0010587229302917
 10
-753.35455493676761
 20
2478.8622819339425
 10
-753.29636084604294
 20
2478.9302641902268
 42
-0.0071874740409328
 10
-753.14598562793822
 20
2479.1009048822634
 10
-753.00426285468268
 20
2479.2571410235696
 42
-0.0148118053510103
 10
-752.554133561968
 20
2479.7247548695841
 10
-752.46691122707239
 20
2479.8101521904314
 42
-0.0086273358693402
 10
-752.1313624260597
 20
2480.127527824452
 10
-752.08752870982744
 20
2480.167577468791
 42
-0.0103138323114602
 10
-751.82950500760035
 20
2480.3937406061236
 10
-751.78373060128115
 20
2480.4322226533773
 42
-0.0060206748565438
 10
-751.61088253716105
 20
2480.5740173041381
 10
-751.60885140625987
 20
2480.5756430097817
 42
-0.0067069027278196
 10
-751.43655859161254
 20
2480.7097936435644
 10
-751.43400982568778
 20
2480.7117238134388
 42
-0.0076184352059327
 10
-751.26310455981525
 20
2480.8370986886835
 42
-0.0089652861668172
 10
-751.08814359707731
 20
2480.9567319490184
 10
-751.05179187693966
 20
2480.9806431624961
 42
-0.0156916245947823
 10
-750.85583237977562
 20
2481.1009056489738
 42
-0.0023299011058197
 10
-750.65557033576329
 20
2481.2140835885325
 10
-750.64018620341596
 20
2481.2226835835791
 42
-0.0107669341478205
 10
-750.40594937832032
 20
2481.3470837169257
 10
-750.38368457723982
 20
2481.3583004668785
 42
-0.0078058045907245
 10
-750.10009445928813
 20
2481.4956619225163
 10
-750.09018737157794
 20
2481.5002710503854
 42
-0.0181829330470917
 10
-749.77987796696357
 20
2481.6311347914802
 10
-749.7258225243985
 20
2481.6516499114232
 42
-0.0208411536030558
 10
-749.37673755694527
 20
2481.7677403739176
 10
-749.36238145681887
 20
2481.7718588188709
 42
-0.0222799817140881
 10
-749.03366166290061
 20
2481.8505003850114
 10
-749.0247726996613
 20
2481.8522123955968
 42
-0.0215509523876375
 10
-748.7083017313837
 20
2481.899128084131
 10
-748.66581977034036
 20
2481.9035656109213
 42
-0.0182545924868753
 10
-748.4317109910296
 20
2481.9194094363129
 10
-748.39230997470213
 20
2481.9206339813913
 42
-0.0072962856531651
 10
-748.23638709499255
 20
2481.9232033099142
 10
-748.20728742441975
 20
2481.923258145318
 42
-0.0059227516308739
 10
-748.10953792527562
 20
2481.9222844335272
 10
-748.0802957077633
 20
2481.9216466669232
 42
-0.0011833111985885
 10
-748.04104442407129
 20
2481.9206976626137
 10
-748.83643101967846
 20
2479.3819637175147
 42
0.0143932051543863
 10
-748.86283240203124
 20
2479.3921626875613
 10
-748.87010437444633
 20
2479.3947339064175
 42
0.0234388603422314
 10
-748.91193524037203
 20
2479.4073531421313
 10
-748.92061690329115
 20
2479.4095341041379
 42
0.0199162742988516
 10
-748.98090573737124
 20
2479.4221508394735
 10
-749.00171967517736
 20
2479.4256480389017
 42
0.0293643550694393
 10
-749.1047945339426
 20
2479.436798084555
 10
-749.12947971465678
 20
2479.4380097015733
 42
0.0214606686862078
 10
-749.28262063060913
 20
2479.4389482619904
 10
-749.29199254142725
 20
2479.4386033504461
 42
0.0167564054183495
 10
-749.46351273253356
 20
2479.4265263080788
 10
-749.47197252529463
 20
2479.4256449676514
 42
0.0137677553235913
 10
-749.65932583856704
 20
2479.4008956591065
 10
-749.66667757806727
 20
2479.3997177391398
 42
0.0118497261496526
 10
-749.86717534216916
 20
2479.3627003889505
 10
-749.87332534941584
 20
2479.3614135262305
 42
0.0106421143878902
 10
-750.08420623670509
 20
2479.3125811506548
 10
-750.0891150450899
 20
2479.3113338079706
 42
0.0099746379711367
 10
-750.30757351425382
 20
2479.2511592796554
 10
-750.36912155442269
 20
2479.2328774010252
 42
0.0191613675855634
 10
-750.70510601693786
 20
2479.1189000207382
 10
-750.79316578968451
 20
2479.0852131104139
 42
0.0205274080144721
 10
-751.17847256158439
 20
2478.9193847025876
 10
-751.23612184357216
 20
2478.8917167380123
 42
0.0181256912199717
 10
-751.49439878423334
 20
2478.7560329190374
 10
-751.54735416754522
 20
2478.725715305824
 42
0.014070924241681
 10
-751.69230910217561
 20
2478.6372206323886
 10
-751.71855797078126
 20
2478.6201638136813
 42
0.0086667884407127
 10
-751.80748413233664
 20
2478.5601611457901
 42
0.0036408192008514
 10
-751.89491737033438
 20
2478.4979802880234
 10
-751.93014424483863
 20
2478.4725393420849
 42
0.0052260781281417
 10
-752.0863729422299
 20
2478.3572069554507
 10
-752.10257979848939
 20
2478.3449788448324
 42
0.0050024435900411
 10
-752.28858314155354
 20
2478.2016962765665
 10
-752.30390129806335
 20
2478.1896502541249
 42
0.013613871027446
 10
-752.51434256638311
 20
2478.0146837492161
 10
-752.5480104421822
 20
2477.9851047764969
 42
0.0172815186913214
 10
-752.8124139838452
 20
2477.7361081038734
 10
-752.8149763296874
 20
2477.7335222867268
 42
0.0189403857987713
 10
-753.06555812826753
 20
2477.460717021921
 10
-753.09818962180532
 20
2477.4223730904218
 42
0.0185044199505689
 10
-753.29014606078249
 20
2477.1791245093023
 42
0.0088565243902399
 10
-753.46860616740355
 20
2476.9256080891628
 10
-753.47778414705942
 20
2476.9120667093921
 42
0.015719534723337
 10
-753.66100475339715
 20
2476.6225445000705
 10
-753.70708769532155
 20
2476.5443923030607
 42
0.009545187978092
 10
-753.87217324546202
 20
2476.2517976606991
 10
-753.88332116439369
 20
2476.2311269885636
 42
0.0100351706250422
 10
-754.01536491355091
 20
2475.9740714280761
 42
0.0086935915425924
 10
-754.13769606534424
 20
2475.7122382826738
 10
-754.14101680675947
 20
2475.7047959597003
 42
0.007258017486446
 10
-754.26136325870038
 20
2475.4242039681267
 10
-754.26462489201072
 20
2475.4162839420992
 42
0.0060005122621341
 10
-754.38382556035947
 20
2475.1166742714781
 10
-754.38703653869504
 20
2475.1083127435895
 42
0.0049017786971367
 10
-754.50593669754448
 20
2474.7893837630068
 10
-754.50910250394293
 20
2474.7806308257541
 42
0.0039415167601684
 10
-754.6285387820094
 20
2474.4420887633128
 10
-754.63166988465173
 20
2474.4329855624651
 42
0.0031035838766507
 10
-754.75247467032682
 20
2474.0745457007465
 10
-754.75558471487523
 20
2474.0651250793171
 42
0.0025070747145512
 10
-754.87848606618945
 20
2473.6864778623763
 10
-754.91577996261594
 20
2473.5695861971199
 42
0.0029081910284549
 10
-755.10779826043995
 20
2472.9554225387856
 10
-755.14860142894383
 20
2472.8221992965523
 42
0.0009266453732041
 10
-755.41701880322978
 20
2471.9399748367236
 10
-755.43790627591898
 20
2471.8708629573271
 42
-0.0005809993664397
 10
-755.71524295649033
 20
2470.957054850754
 10
-755.78152475477464
 20
2470.7395699185572
 42
-0.0012018708166473
 10
-755.92850906419244
 20
2470.2614072540737
 10
-755.98082891593617
 20
2470.0926481126339
 42
-0.0002691059595305
 10
-756.02439839692659
 20
2469.9523804928658
 10
-758.85735429521583
 20
2460.8632258905664
 10
-760.67534318719436
 20
2460.8632258905664
 10
-754.42309377114645
 20
2481.506943927096
  0
SPLINE
  5
66
100
AcDbEntity
  8
0
370
              15
390
0
  6
Continuous
 62
               7
100
AcDbSpline
210
0.0
220
0.0
230
1.0
 70
              13
 71
               2
 72
             782
 73
             779
 74
               0
 42
0.000001
 43
0.000001
 40
0.0
 40
0.0
 40
0.0
 40
1.0
 40
1.0
 40
2.0
 40
2.0
 40
3.0
 40
3.0
 40
4.0
 40
4.0
 40
5.0
 40
5.0
 40
6.0
 40
6.0
 40
7.0
 40
7.0
 40
8.0
 40
8.0
 40
9.0
 40
9.0
 40
10.0
 40
10.0
 40
11.0
 40
11.0
 40
12.0
 40
12.0
 40
13.0
 40
13.0
 40
14.0
 40
14.0
 40
15.0
 40
15.0
 40
16.0
 40
16.0
 40
17.0
 40
17.0
 40
18.0
 40
18.0
 40
19.0
 40
19.0
 40
20.0
 40
20.0
 40
21.0
 40
21.0
 40
22.0
 40
22.0
 40
23.0
 40
23.0
 40
24.0
 40
24.0
 40
25.0
 40
25.0
 40
26.0
 40
26.0
 40
27.0
 40
27.0
 40
28.0
 40
28.0
 40
29.0
 40
29.0
 40
30.0
 40
30.0
 40
31.0
 40
31.0
 40
32.0
 40
32.0
 40
33.0
 40
33.0
 40
34.0
 40
34.0
 40
35.0
 40
35.0
 40
36.0
 40
36.0
 40
37.0
 40
37.0
 40
38.0
 40
38.0
 40
39.0
 40
39.0
 40
40.0
 40
40.0
 40
41.0
 40
41.0
 40
42.0
 40
42.0
 40
43.0
 40
43.0
 40
44.0
 40
44.0
 40
45.0
 40
45.0
 40
46.0
 40
46.0
 40
47.0
 40
47.0
 40
48.0
 40
48.0
 40
49.0
 40
49.0
 40
50.0
 40
50.0
 40
51.0
 40
51.0
 40
52.0
 40
52.0
 40
53.0
 40
53.0
 40
54.0
 40
54.0
 40
55.0
 40
55.0
 40
56.0
 40
56.0
 40
57.0
 40
57.0
 40
58.0
 40
58.0
 40
59.0
 40
59.0
 40
60.0
 40
60.0
 40
61.0
 40
61.0
 40
62.0
 40
62.0
 40
63.0
 40
63.0
 40
64.0
 40
64.0
 40
65.0
 40
65.0
 40
66.0
 40
66.0
 40
67.0
 40
67.0
 40
68.0
 40
68.0
 40
69.0
 40
69.0
 40
70.0
 40
70.0
 40
71.0
 40
71.0
 40
72.0
 40
72.0
 40
73.0
 40
73.0
 40
74.0
 40
74.0
 40
75.0
 40
75.0
 40
76.0
 40
76.0
 40
77.0
 40
77.0
 40
78.0
 40
78.0
 40
79.0
 40
79.0
 40
80.0
 40
80.0
 40
81.0
 40
81.0
 40
82.0
 40
82.0
 40
83.0
 40
83.0
 40
84.0
 40
84.0
 40
85.0
 40
85.0
 40
86.0
 40
86.0
 40
87.0
 40
87.0
 40
88.0
 40
88.0
 40
89.0
 40
89.0
 40
90.0
 40
90.0
 40
91.0
 40
91.0
 40
92.0
 40
92.0
 40
93.0
 40
93.0
 40
94.0
 40
94.0
 40
95.0
 40
95.0
 40
96.0
 40
96.0
 40
97.0
 40
97.0
 40
98.0
 40
98.0
 40
99.0
 40
99.0
 40
100.0
 40
100.0
 40
101.0
 40
101.0
 40
102.0
 40
102.0
 40
103.0
 40
103.0
 40
104.0
 40
104.0
 40
105.0
 40
105.0
 40
106.0
 40
106.0
 40
107.0
 40
107.0
 40
108.0
 40
108.0
 40
109.0
 40
109.0
 40
110.0
 40
110.0
 40
111.0
 40
111.0
 40
112.0
 40
112.0
 40
113.0
 40
113.0
 40
114.0
 40
114.0
 40
115.0
 40
115.0
 40
116.0
 40
116.0
 40
117.0
 40
117.0
 40
118.0
 40
118.0
 40
119.0
 40
119.0
 40
120.0
 40
120.0
 40
121.0
 40
121.0
 40
122.0
 40
122.0
 40
123.0
 40
123.0
 40
124.0
 40
124.0
 40
125.0
 40
125.0
 40
126.0
 40
126.0
 40
127.0
 40
127.0
 40
128.0
 40
128.0
 40
129.0
 40
129.0
 40
130.0
 40
130.0
 40
131.0
 40
131.0
 40
132.0
 40
132.0
 40
133.0
 40
133.0
 40
134.0
 40
134.0
 40
135.0
 40
135.0
 40
136.0
 40
136.0
 40
137.0
 40
137.0
 40
138.0
 40
138.0
 40
139.0
 40
139.0
 40
140.0
 40
140.0
 40
141.0
 40
141.0
 40
142.0
 40
142.0
 40
143.0
 40
143.0
 40
144.0
 40
144.0
 40
145.0
 40
145.0
 40
146.0
 40
146.0
 40
147.0
 40
147.0
 40
148.0
 40
148.0
 40
149.0
 40
149.0
 40
150.0
 40
150.0
 40
151.0
 40
151.0
 40
152.0
 40
152.0
 40
153.0
 40
153.0
 40
154.0
 40
154.0
 40
155.0
 40
155.0
 40
156.0
 40
156.0
 40
157.0
 40
157.0
 40
158.0
 40
158.0
 40
159.0
 40
159.0
 40
160.0
 40
160.0
 40
161.0
 40
161.0
 40
162.0
 40
162.0
 40
163.0
 40
163.0
 40
164.0
 40
164.0
 40
165.0
 40
165.0
 40
166.0
 40
166.0
 40
167.0
 40
167.0
 40
168.0
 40
168.0
 40
169.0
 40
169.0
 40
170.0
 40
170.0
 40
171.0
 40
171.0
 40
172.0
 40
172.0
 40
173.0
 40
173.0
 40
174.0
 40
174.0
 40
175.0
 40
175.0
 40
176.0
 40
176.0
 40
177.0
 40
177.0
 40
178.0
 40
178.0
 40
179.0
 40
179.0
 40
180.0
 40
180.0
 40
181.0
 40
181.0
 40
182.0
 40
182.0
 40
183.0
 40
183.0
 40
184.0
 40
184.0
 40
185.0
 40
185.0
 40
186.0
 40
186.0
 40
187.0
 40
187.0
 40
188.0
 40
188.0
 40
189.0
 40
189.0
 40
190.0
 40
190.0
 40
191.0
 40
191.0
 40
192.0
 40
192.0
 40
193.0
 40
193.0
 40
194.0
 40
194.0
 40
195.0
 40
195.0
 40
196.0
 40
196.0
 40
197.0
 40
197.0
 40
198.0
 40
198.0
 40
199.0
 40
199.0
 40
200.0
 40
200.0
 40
201.0
 40
201.0
 40
202.0
 40
202.0
 40
203.0
 40
203.0
 40
204.0
 40
204.0
 40
205.0
 40
205.0
 40
206.0
 40
206.0
 40
207.0
 40
207.0
 40
208.0
 40
208.0
 40
209.0
 40
209.0
 40
210.0
 40
210.0
 40
211.0
 40
211.0
 40
212.0
 40
212.0
 40
213.0
 40
213.0
 40
214.0
 40
214.0
 40
215.0
 40
215.0
 40
216.0
 40
216.0
 40
217.0
 40
217.0
 40
218.0
 40
218.0
 40
219.0
 40
219.0
 40
220.0
 40
220.0
 40
221.0
 40
221.0
 40
222.0
 40
222.0
 40
223.0
 40
223.0
 40
224.0
 40
224.0
 40
225.0
 40
225.0
 40
226.0
 40
226.0
 40
227.0
 40
227.0
 40
228.0
 40
228.0
 40
229.0
 40
229.0
 40
230.0
 40
230.0
 40
231.0
 40
231.0
 40
232.0
 40
232.0
 40
233.0
 40
233.0
 40
234.0
 40
234.0
 40
235.0
 40
235.0
 40
236.0
 40
236.0
 40
237.0
 40
237.0
 40
238.0
 40
238.0
 40
239.0
 40
239.0
 40
240.0
 40
240.0
 40
241.0
 40
241.0
 40
242.0
 40
242.0
 40
243.0
 40
243.0
 40
244.0
 40
244.0
 40
245.0
 40
245.0
 40
246.0
 40
246.0
 40
247.0
 40
247.0
 40
248.0
 40
248.0
 40
249.0
 40
249.0
 40
250.0
 40
250.0
 40
251.0
 40
251.0
 40
252.0
 40
252.0
 40
253.0
 40
253.0
 40
254.0
 40
254.0
 40
255.0
 40
255.0
 40
256.0
 40
256.0
 40
257.0
 40
257.0
 40
258.0
 40
258.0
 40
259.0
 40
259.0
 40
260.0
 40
260.0
 40
261.0
 40
261.0
 40
262.0
 40
262.0
 40
263.0
 40
263.0
 40
264.0
 40
264.0
 40
265.0
 40
265.0
 40
266.0
 40
266.0
 40
267.0
 40
267.0
 40
268.0
 40
268.0
 40
269.0
 40
269.0
 40
270.0
 40
270.0
 40
271.0
 40
271.0
 40
272.0
 40
272.0
 40
273.0
 40
273.0
 40
274.0
 40
274.0
 40
275.0
 40
275.0
 40
276.0
 40
276.0
 40
277.0
 40
277.0
 40
278.0
 40
278.0
 40
279.0
 40
279.0
 40
280.0
 40
280.0
 40
281.0
 40
281.0
 40
282.0
 40
282.0
 40
283.0
 40
283.0
 40
284.0
 40
284.0
 40
285.0
 40
285.0
 40
286.0
 40
286.0
 40
287.0
 40
287.0
 40
288.0
 40
288.0
 40
289.0
 40
289.0
 40
290.0
 40
290.0
 40
291.0
 40
291.0
 40
292.0
 40
292.0
 40
293.0
 40
293.0
 40
294.0
 40
294.0
 40
295.0
 40
295.0
 40
296.0
 40
296.0
 40
297.0
 40
297.0
 40
298.0
 40
298.0
 40
299.0
 40
299.0
 40
300.0
 40
300.0
 40
301.0
 40
301.0
 40
302.0
 40
302.0
 40
303.0
 40
303.0
 40
304.0
 40
304.0
 40
305.0
 40
305.0
 40
306.0
 40
306.0
 40
307.0
 40
307.0
 40
308.0
 40
308.0
 40
309.0
 40
309.0
 40
310.0
 40
310.0
 40
311.0
 40
311.0
 40
312.0
 40
312.0
 40
313.0
 40
313.0
 40
314.0
 40
314.0
 40
315.0
 40
315.0
 40
316.0
 40
316.0
 40
317.0
 40
317.0
 40
318.0
 40
318.0
 40
319.0
 40
319.0
 40
320.0
 40
320.0
 40
321.0
 40
321.0
 40
322.0
 40
322.0
 40
323.0
 40
323.0
 40
324.0
 40
324.0
 40
325.0
 40
325.0
 40
326.0
 40
326.0
 40
327.0
 40
327.0
 40
328.0
 40
328.0
 40
329.0
 40
329.0
 40
330.0
 40
330.0
 40
331.0
 40
331.0
 40
332.0
 40
332.0
 40
333.0
 40
333.0
 40
334.0
 40
334.0
 40
335.0
 40
335.0
 40
336.0
 40
336.0
 40
337.0
 40
337.0
 40
338.0
 40
338.0
 40
339.0
 40
339.0
 40
340.0
 40
340.0
 40
341.0
 40
341.0
 40
342.0
 40
342.0
 40
343.0
 40
343.0
 40
344.0
 40
344.0
 40
345.0
 40
345.0
 40
346.0
 40
346.0
 40
347.0
 40
347.0
 40
348.0
 40
348.0
 40
349.0
 40
349.0
 40
350.0
 40
350.0
 40
351.0
 40
351.0
 40
352.0
 40
352.0
 40
353.0
 40
353.0
 40
354.0
 40
354.0
 40
355.0
 40
355.0
 40
356.0
 40
356.0
 40
357.0
 40
357.0
 40
358.0
 40
358.0
 40
359.0
 40
359.0
 40
360.0
 40
360.0
 40
361.0
 40
361.0
 40
362.0
 40
362.0
 40
363.0
 40
363.0
 40
364.0
 40
364.0
 40
365.0
 40
365.0
 40
366.0
 40
366.0
 40
367.0
 40
367.0
 40
368.0
 40
368.0
 40
369.0
 40
369.0
 40
370.0
 40
370.0
 40
371.0
 40
371.0
 40
372.0
 40
372.0
 40
373.0
 40
373.0
 40
374.0
 40
374.0
 40
375.0
 40
375.0
 40
376.0
 40
376.0
 40
377.0
 40
377.0
 40
378.0
 40
378.0
 40
379.0
 40
379.0
 40
380.0
 40
380.0
 40
381.0
 40
381.0
 40
382.0
 40
382.0
 40
383.0
 40
383.0
 40
384.0
 40
384.0
 40
385.0
 40
385.0
 40
386.0
 40
386.0
 40
387.0
 40
387.0
 40
388.0
 40
388.0
 40
389.0
 40
389.0
 40
389.0
 10
-744.09438932041382
 20
2481.5178702904586
 30
0.0
 41
1.0
 10
-743.27596521169335
 20
2481.5178702904586
 30
0.0
 41
1.0
 10
-742.45754110297287
 20
2481.5178702904586
 30
0.0
 41
1.0
 10
-742.87129483848958
 20
2480.1752440262089
 30
0.0
 41
1.0
 10
-743.2850485740064
 20
2478.8326177619592
 30
0.0
 41
1.0
 10
-743.266709078855
 20
2478.8613185348449
 30
0.0
 41
0.9999957264384458
 10
-743.24820208200413
 20
2478.8899115850268
 30
0.0
 41
1.0
 10
-743.2177727578686
 20
2478.9369244633999
 30
0.0
 41
1.0
 10
-743.18734343373308
 20
2478.9839373417726
 30
0.0
 41
1.0
 10
-743.10797778862809
 20
2479.1065561486748
 30
0.0
 41
0.9995394069081227
 10
-743.02131939707476
 20
2479.2241342104185
 30
0.0
 41
1.0
 10
-742.98556253481593
 20
2479.2726491030107
 30
0.0
 41
1.0
 10
-742.94980567255698
 20
2479.3211639956035
 30
0.0
 41
1.0
 10
-742.81607900473819
 20
2479.5026042707309
 30
0.0
 41
0.9994460617143283
 10
-742.67057852344942
 20
2479.674746668381
 30
0.0
 41
1.0
 10
-742.66619034247378
 20
2479.6799383487642
 30
0.0
 41
1.0
 10
-742.66180216149826
 20
2479.6851300291473
 30
0.0
 41
1.0
 10
-742.52507804216032
 20
2479.846889066032
 30
0.0
 41
0.9994359394933874
 10
-742.37780381181005
 20
2479.9991052671953
 30
0.0
 41
1.0
 10
-742.37542045785699
 20
2480.0015685975682
 30
0.0
 41
1.0
 10
-742.37303710390381
 20
2480.004031927941
 30
0.0
 41
1.0
 10
-742.23052958146036
 20
2480.1513214683582
 30
0.0
 41
0.999529368856773
 10
-742.07925790047648
 20
2480.2895946805243
 30
0.0
 41
1.0
 10
-742.05996414121114
 20
2480.3072305661772
 30
0.0
 41
1.0
 10
-742.04067038194592
 20
2480.3248664518301
 30
0.0
 41
1.0
 10
-741.92798621949282
 20
2480.4278678926898
 30
0.0
 41
0.9997087614803284
 10
-741.81046333053928
 20
2480.5253121734863
 30
0.0
 41
1.0
 10
-741.79129725735584
 20
2480.5412037520009
 30
0.0
 41
1.0
 10
-741.77213118417251
 20
2480.557095330515
 30
0.0
 41
1.0
 10
-741.692940441573
 20
2480.6227564542933
 30
0.0
 41
0.9999595338697432
 10
-741.61258117072907
 20
2480.6869821849391
 30
0.0
 41
1.0
 10
-741.53222189988423
 20
2480.7512079155863
 30
0.0
 41
0.9999749417509288
 10
-741.45096136553366
 20
2480.8142894695379
 30
0.0
 41
1.0
 10
-741.42997521935581
 20
2480.8305807568513
 30
0.0
 41
1.0
 10
-741.40898907317808
 20
2480.8468720441651
 30
0.0
 41
1.0
 10
-741.32442118788458
 20
2480.9125210539992
 30
0.0
 41
0.9999792037130082
 10
-741.23901358812805
 20
2480.9770738356328
 30
0.0
 41
1.0
 10
-741.21818876225143
 20
2480.9928136578642
 30
0.0
 41
1.0
 10
-741.19736393637493
 20
2481.0085534800955
 30
0.0
 41
1.0
 10
-741.15360598841971
 20
2481.0416266172306
 30
0.0
 41
0.9999993374130188
 10
-741.1099243022154
 20
2481.0748004127008
 30
0.0
 41
1.0
 10
-741.06624261606839
 20
2481.1079742081274
 30
0.0
 41
0.9999160953816136
 10
-741.02171620514912
 20
2481.1400052733256
 30
0.0
 41
1.0
 10
-740.98889431773136
 20
2481.1636164289093
 30
0.0
 41
1.0
 10
-740.95607243031361
 20
2481.1872275844926
 30
0.0
 41
1.0
 10
-740.84590224455496
 20
2481.2664809608609
 30
0.0
 41
0.9980964527231048
 10
-740.72681325105225
 20
2481.3315684337176
 30
0.0
 41
1.0
 10
-740.68978064412545
 20
2481.3518084133102
 30
0.0
 41
1.0
 10
-740.65274803719853
 20
2481.3720483929028
 30
0.0
 41
1.0
 10
-740.47342102392554
 20
2481.4700586436043
 30
0.0
 41
0.9984572810572162
 10
-740.28433245756628
 20
2481.5475809049503
 30
0.0
 41
1.0
 10
-740.28068618816849
 20
2481.5490757972893
 30
0.0
 41
1.0
 10
-740.2770399187707
 20
2481.5505706896279
 30
0.0
 41
1.0
 10
-740.0952438912052
 20
2481.6251031662973
 30
0.0
 41
0.9987838528034295
 10
-739.90699123264812
 20
2481.6813688064626
 30
0.0
 41
1.0
 10
-739.90275328344831
 20
2481.6826354601531
 30
0.0
 41
1.0
 10
-739.89851533424849
 20
2481.6839021138435
 30
0.0
 41
1.0
 10
-739.71873857408764
 20
2481.7376344466288
 30
0.0
 41
0.999065281620761
 10
-739.53499264237303
 20
2481.7756381261706
 30
0.0
 41
1.0
 10
-739.52980424134296
 20
2481.7767112292768
 30
0.0
 41
1.0
 10
-739.52461584031289
 20
2481.7777843323829
 30
0.0
 41
1.0
 10
-739.35124671065842
 20
2481.8136418057129
 30
0.0
 41
0.9992909934269383
 10
-739.17567094419883
 20
2481.8363522381792
 30
0.0
 41
1.0
 10
-739.00009517773685
 20
2481.8590626706459
 30
0.0
 41
0.99945535394492
 10
-738.82340374464013
 20
2481.8701419748522
 30
0.0
 41
1.0
 10
-738.7879693368468
 20
2481.8723638628999
 30
0.0
 41
1.0
 10
-738.75253492905335
 20
2481.874585750948
 30
0.0
 41
1.0
 10
-738.58630916248535
 20
2481.8850088133595
 30
0.0
 41
0.9990928098292833
 10
-738.41979937058409
 20
2481.8812491721246
 30
0.0
 41
1.0
 10
-738.38123753531329
 20
2481.8803784805914
 30
0.0
 41
1.0
 10
-738.34267570004249
 20
2481.8795077890586
 30
0.0
 41
1.0
 10
-738.25328957868282
 20
2481.8774895308902
 30
0.0
 41
0.9998382089205258
 10
-738.16403389589527
 20
2481.8722574043622
 30
0.0
 41
1.0
 10
-738.16360398967231
 20
2481.87223220346
 30
0.0
 41
1.0
 10
-738.16317408344935
 20
2481.8722070025574
 30
0.0
 41
1.0
 10
-738.07477821310613
 20
2481.8670252778334
 30
0.0
 41
0.9997558016758814
 10
-737.98669763590829
 20
2481.8579427624672
 30
0.0
 41
1.0
 10
-737.98622149747314
 20
2481.8578936649842
 30
0.0
 41
1.0
 10
-737.98574535903799
 20
2481.8578445675012
 30
0.0
 41
1.0
 10
-737.89861705870248
 20
2481.8488602471002
 30
0.0
 41
0.9996565144182
 10
-737.81207920536531
 20
2481.835322940412
 30
0.0
 41
1.0
 10
-737.81161327998745
 20
2481.8352500546807
 30
0.0
 41
1.0
 10
-737.8111473546096
 20
2481.835177168949
 30
0.0
 41
1.0
 10
-737.72554135202336
 20
2481.8217856337233
 30
0.0
 41
0.9995321806865485
 10
-737.64091427169535
 20
2481.8031851452938
 30
0.0
 41
1.0
 10
-737.64052507711949
 20
2481.8030996028274
 30
0.0
 41
1.0
 10
-737.64013588254352
 20
2481.8030140603605
 30
0.0
 41
1.0
 10
-737.5562871913628
 20
2481.784584656863
 30
0.0
 41
0.9993819199221021
 10
-737.47394065717117
 20
2481.7603092736035
 30
0.0
 41
1.0
 10
-737.47370222367374
 20
2481.7602389844942
 30
0.0
 41
1.0
 10
-737.47346379017631
 20
2481.7601686953853
 30
0.0
 41
1.0
 10
-737.39159412297602
 20
2481.7360338903436
 30
0.0
 41
0.9992088568505035
 10
-737.31190160398671
 20
2481.7054686545489
 30
0.0
 41
1.0
 10
-737.23222061310764
 20
2481.6749090538156
 30
0.0
 41
0.9990226101774277
 10
-737.15554994320053
 20
2481.6374316222009
 30
0.0
 41
1.0
 10
-737.07889080140365
 20
2481.5999598256485
 30
0.0
 41
0.9988424273972099
 10
-737.00618717419104
 20
2481.5552950503952
 30
0.0
 41
1.0
 10
-737.0059194658113
 20
2481.5551305863228
 30
0.0
 41
1.0
 10
-737.00565175743145
 20
2481.5549661222503
 30
0.0
 41
1.0
 10
-736.93241271346085
 20
2481.5099724188535
 30
0.0
 41
0.9986928844490404
 10
-736.86414984674957
 20
2481.4577366845724
 30
0.0
 41
1.0
 10
-736.86356855452743
 20
2481.4572918713448
 30
0.0
 41
1.0
 10
-736.8629872623053
 20
2481.4568470581175
 30
0.0
 41
1.0
 10
-736.79356181114997
 20
2481.403721697382
 30
0.0
 41
0.998600726227921
 10
-736.73013564138421
 20
2481.3435609276894
 30
0.0
 41
1.0
 10
-736.72924122592644
 20
2481.3427125598537
 30
0.0
 41
1.0
 10
-736.72834681046879
 20
2481.3418641920184
 30
0.0
 41
1.0
 10
-736.66313180978761
 20
2481.2800066866548
 30
0.0
 41
0.9985581491380472
 10
-736.60492419808509
 20
2481.2115141963818
 30
0.0
 41
1.0
 10
-736.59566574448968
 20
2481.2006198386807
 30
0.0
 41
1.0
 10
-736.58640729089439
 20
2481.1897254809796
 30
0.0
 41
1.0
 10
-736.50968277200093
 20
2481.0994442753044
 30
0.0
 41
0.9970460233518618
 10
-736.44769087084205
 20
2480.9984771911231
 30
0.0
 41
1.0
 10
-736.43322150576228
 20
2480.9749107320417
 30
0.0
 41
1.0
 10
-736.41875214068261
 20
2480.9513442729603
 30
0.0
 41
1.0
 10
-736.37901544067108
 20
2480.8866245489294
 30
0.0
 41
0.9988468816637757
 10
-736.34566906991881
 20
2480.8183920965007
 30
0.0
 41
1.0
 10
-736.33863304742772
 20
2480.803995175364
 30
0.0
 41
1.0
 10
-736.33159702493651
 20
2480.7895982542273
 30
0.0
 41
1.0
 10
-736.31232269916677
 20
2480.750159644072
 30
0.0
 41
0.9998431189998686
 10
-736.29445737167225
 20
2480.7100630896325
 30
0.0
 41
1.0
 10
-736.27659204416261
 20
2480.6699665351593
 30
0.0
 41
0.9999989990000048
 10
-736.25861332075203
 20
2480.6299206976005
 30
0.0
 41
1.0
 10
-736.25244100915938
 20
2480.6161724807916
 30
0.0
 41
1.0
 10
-736.24626869756685
 20
2480.6024242639828
 30
0.0
 41
1.0
 10
-736.2159453509588
 20
2480.5348819927799
 30
0.0
 41
0.9998790356321128
 10
-736.18773747081809
 20
2480.4664292408356
 30
0.0
 41
1.0
 10
-736.1809022895344
 20
2480.4498421394101
 30
0.0
 41
1.0
 10
-736.17406710825071
 20
2480.4332550379841
 30
0.0
 41
1.0
 10
-736.15050944586983
 20
2480.3760870830974
 30
0.0
 41
0.9998227574561621
 10
-736.12912069748018
 20
2480.3180727748186
 30
0.0
 41
1.0
 10
-736.10773194909052
 20
2480.2600584665406
 30
0.0
 41
0.9996797971041289
 10
-736.08930566413244
 20
2480.2010363474255
 30
0.0
 41
1.0
 10
-736.08540186140658
 20
2480.1885318892555
 30
0.0
 41
1.0
 10
-736.08149805868061
 20
2480.1760274310855
 30
0.0
 41
1.0
 10
-736.0552641682707
 20
2480.0919963956312
 30
0.0
 41
0.9979274938735202
 10
-736.04003964479102
 20
2480.005292036969
 30
0.0
 41
1.0
 10
-736.03781595753003
 20
2479.9926280361487
 30
0.0
 41
1.0
 10
-736.03559227026903
 20
2479.9799640353285
 30
0.0
 41
1.0
 10
-736.02466233056987
 20
2479.9177175280338
 30
0.0
 41
0.9994985982137076
 10
-736.01769416539355
 20
2479.8549040268945
 30
0.0
 41
1.0
 10
-736.01072600021644
 20
2479.7920905257524
 30
0.0
 41
0.999637261120175
 10
-736.00715013444869
 20
2479.7289929470694
 30
0.0
 41
1.0
 10
-736.00698155695943
 20
2479.7260183299877
 30
0.0
 41
1.0
 10
-736.00681297947017
 20
2479.723043712906
 30
0.0
 41
1.0
 10
-736.00289995872379
 20
2479.6539969000592
 30
0.0
 41
0.9997730630736943
 10
-736.00193164523569
 20
2479.5848460760199
 30
0.0
 41
1.0
 10
-736.00187453881767
 20
2479.5807678968808
 30
0.0
 41
1.0
 10
-736.00181743239955
 20
2479.5766897177418
 30
0.0
 41
1.0
 10
-736.00073490607508
 20
2479.4993825354218
 30
0.0
 41
0.9998772614069863
 10
-736.00207499280702
 20
2479.4220793888617
 30
0.0
 41
1.0
 10
-736.0021642560057
 20
2479.4169302250257
 30
0.0
 41
1.0
 10
-736.00225351920449
 20
2479.4117810611897
 30
0.0
 41
1.0
 10
-736.00377213233378
 20
2479.3241795869508
 30
0.0
 41
0.9999415567323536
 10
-736.00718444257996
 20
2479.2366314252713
 30
0.0
 41
1.0
 10
-736.00742576325513
 20
2479.2304399655386
 30
0.0
 41
1.0
 10
-736.0076670839303
 20
2479.2242485058059
 30
0.0
 41
1.0
 10
-736.01156203552648
 20
2479.1243174246647
 30
0.0
 41
0.9999716810422832
 10
-736.01696061864516
 20
2479.0244562864314
 30
0.0
 41
1.0
 10
-736.02017341743385
 20
2478.9650270367756
 30
0.0
 41
1.0
 10
-736.02338621622255
 20
2478.9055977871194
 30
0.0
 41
1.0
 10
-736.03146012537456
 20
2478.7562493858441
 30
0.0
 41
0.9999819129916892
 10
-736.04132991699225
 20
2478.60700890812
 30
0.0
 41
1.0
 10
-736.05119970860881
 20
2478.4577684304086
 30
0.0
 41
1.0
 10
-736.0536390291727
 20
2478.4205753845595
 30
0.0
 41
1.0
 10
-736.03094079535572
 20
2478.4593163818645
 30
0.0
 41
0.9999982128188891
 10
-736.00809623663247
 20
2478.4979712757686
 30
0.0
 41
1.0
 10
-735.98118667672452
 20
2478.5435044898632
 30
0.0
 41
1.0
 10
-735.95427711681657
 20
2478.5890377039573
 30
0.0
 41
1.0
 10
-735.87761343828663
 20
2478.7187590260337
 30
0.0
 41
0.999860919005571
 10
-735.79666612542269
 20
2478.8458514079662
 30
0.0
 41
1.0
 10
-735.76701780394114
 20
2478.8924011409235
 30
0.0
 41
1.0
 10
-735.73736948245948
 20
2478.9389508738805
 30
0.0
 41
1.0
 10
-735.6550972622266
 20
2479.0681234438684
 30
0.0
 41
0.9999067609732305
 10
-735.56932825276431
 20
2479.1950011333074
 30
0.0
 41
1.0
 10
-735.56692354956465
 20
2479.1985583993605
 30
0.0
 41
1.0
 10
-735.56451884636499
 20
2479.2021156654137
 30
0.0
 41
1.0
 10
-735.48355924330394
 20
2479.3218788227437
 30
0.0
 41
0.9998784952151395
 10
-735.39890563361894
 20
2479.4390600394572
 30
0.0
 41
1.0
 10
-735.31425202393575
 20
2479.5562412561685
 30
0.0
 41
0.9998532968283354
 10
-735.22563440311478
 20
2479.6704541646368
 30
0.0
 41
1.0
 10
-735.20567261412475
 20
2479.6961814856554
 30
0.0
 41
1.0
 10
-735.18571082513472
 20
2479.721908806674
 30
0.0
 41
1.0
 10
-735.06722677537516
 20
2479.8746144176439
 30
0.0
 41
0.9991551975794971
 10
-734.9366023257503
 20
2480.0170739797286
 30
0.0
 41
1.0
 10
-734.93309270976738
 20
2480.0209015813562
 30
0.0
 41
1.0
 10
-734.92958309378434
 20
2480.0247291829842
 30
0.0
 41
1.0
 10
-734.80597787612521
 20
2480.1595335418142
 30
0.0
 41
0.9997418144180631
 10
-734.67637573642628
 20
2480.2885829524248
 30
0.0
 41
1.0
 10
-734.54677359672667
 20
2480.4176323630363
 30
0.0
 41
0.9989238204633519
 10
-734.40577104847694
 20
2480.5341173250745
 30
0.0
 41
1.0
 10
-734.36052337033675
 20
2480.5714973166837
 30
0.0
 41
1.0
 10
-734.31527569219656
 20
2480.6088773082929
 30
0.0
 41
1.0
 10
-734.17503563497337
 20
2480.7247323615852
 30
0.0
 41
0.9990825084096513
 10
-734.02539570237013
 20
2480.8281613594177
 30
0.0
 41
1.0
 10
-734.01535033830919
 20
2480.8351045724999
 30
0.0
 41
1.0
 10
-734.00530497424825
 20
2480.8420477855821
 30
0.0
 41
1.0
 10
-733.87575576976337
 20
2480.9315903572524
 30
0.0
 41
0.9998164899825498
 10
-733.74287156638991
 20
2481.016104598767
 30
0.0
 41
1.0
 10
-733.73102600586571
 20
2481.0236383652918
 30
0.0
 41
1.0
 10
-733.71918044534152
 20
2481.0311721318162
 30
0.0
 41
1.0
 10
-733.60998736301394
 20
2481.100618840283
 30
0.0
 41
0.9997473449131572
 10
-733.49778340576427
 20
2481.1650877980992
 30
0.0
 41
1.0
 10
-733.38557944851686
 20
2481.2295567559136
 30
0.0
 41
0.9999327861145498
 10
-733.27191083775017
 20
2481.2914067475972
 30
0.0
 41
1.0
 10
-733.27135883519009
 20
2481.2917071062757
 30
0.0
 41
1.0
 10
-733.27080683262989
 20
2481.2920074649546
 30
0.0
 41
1.0
 10
-733.1560342167428
 20
2481.3544581739952
 30
0.0
 41
0.9996956420483809
 10
-733.03832089089849
 20
2481.411171640972
 30
0.0
 41
1.0
 10
-733.00788048601362
 20
2481.4258376176986
 30
0.0
 41
1.0
 10
-732.97744008112875
 20
2481.4405035944246
 30
0.0
 41
1.0
 10
-732.87446297438214
 20
2481.4901172528694
 30
0.0
 41
0.9998070570176189
 10
-732.76961658543462
 20
2481.5356478397734
 30
0.0
 41
1.0
 10
-732.66477019649801
 20
2481.581178426673
 30
0.0
 41
0.999782743614643
 10
-732.55811725989429
 20
2481.622299597982
 30
0.0
 41
1.0
 10
-732.53889441025763
 20
2481.6297111716167
 30
0.0
 41
1.0
 10
-732.51967156062096
 20
2481.637122745251
 30
0.0
 41
1.0
 10
-732.37457292474983
 20
2481.6930670638271
 30
0.0
 41
0.9988031841977283
 10
-732.22470256214649
 20
2481.7345671279945
 30
0.0
 41
1.0
 10
-732.19978531377865
 20
2481.7414668738029
 30
0.0
 41
1.0
 10
-732.17486806541069
 20
2481.7483666196108
 30
0.0
 41
1.0
 10
-732.00759803976689
 20
2481.7946847620165
 30
0.0
 41
0.9984748040550711
 10
-731.83624113112103
 20
2481.8222789942811
 30
0.0
 41
1.0
 10
-731.8315019948742
 20
2481.8230421547942
 30
0.0
 41
1.0
 10
-731.82676285862738
 20
2481.8238053153073
 30
0.0
 41
1.0
 10
-731.66488422247437
 20
2481.8498732265457
 30
0.0
 41
0.9984436495479423
 10
-731.50110947874737
 20
2481.8577511803642
 30
0.0
 41
1.0
 10
-731.47941227061301
 20
2481.858794867564
 30
0.0
 41
1.0
 10
-731.45771506247866
 20
2481.8598385547639
 30
0.0
 41
1.0
 10
-731.33733473501979
 20
2481.8656291341831
 30
0.0
 41
0.9987954789335608
 10
-731.21696649011278
 20
2481.8595926064409
 30
0.0
 41
1.0
 10
-731.19700169762893
 20
2481.8585913621027
 30
0.0
 41
1.0
 10
-731.17703690514509
 20
2481.8575901177651
 30
0.0
 41
1.0
 10
-731.09659824521327
 20
2481.8535560786995
 30
0.0
 41
0.9997941595876591
 10
-731.01638946710852
 20
2481.8462620127775
 30
0.0
 41
1.0
 10
-730.93618068901151
 20
2481.838967946856
 30
0.0
 41
0.9998589466235683
 10
-730.85626214215495
 20
2481.8289840924058
 30
0.0
 41
1.0
 10
-730.82385594034872
 20
2481.8249357354871
 30
0.0
 41
1.0
 10
-730.79144973854261
 20
2481.8208873785679
 30
0.0
 41
1.0
 10
-730.64671878806689
 20
2481.8028068102785
 30
0.0
 41
0.9993495063249543
 10
-730.50366754429695
 20
2481.7743411005363
 30
0.0
 41
1.0
 10
-730.47073384714827
 20
2481.7677876373218
 30
0.0
 41
1.0
 10
-730.43780014999959
 20
2481.7612341741078
 30
0.0
 41
1.0
 10
-730.32850632679606
 20
2481.739485839973
 30
0.0
 41
0.9996788715560786
 10
-730.22045475484049
 20
2481.7122280406097
 30
0.0
 41
1.0
 10
-730.21839175230821
 20
2481.7117076140385
 30
0.0
 41
1.0
 10
-730.21632874977581
 20
2481.7111871874672
 30
0.0
 41
1.0
 10
-730.11240318289049
 20
2481.6849702412483
 30
0.0
 41
0.9995480654492777
 10
-730.01024094765467
 20
2481.6525552846224
 30
0.0
 41
1.0
 10
-730.00855130552804
 20
2481.652019179709
 30
0.0
 41
1.0
 10
-730.00686166340142
 20
2481.651483074796
 30
0.0
 41
1.0
 10
-729.90807871242703
 20
2481.6201403279983
 30
0.0
 41
0.9993867959455915
 10
-729.81173155398267
 20
2481.5819609587079
 30
0.0
 41
1.0
 10
-729.810488604895
 20
2481.5814684168108
 30
0.0
 41
1.0
 10
-729.80924565580722
 20
2481.5809758749133
 30
0.0
 41
1.0
 10
-729.71538439553672
 20
2481.5437815894165
 30
0.0
 41
0.9992050256522258
 10
-729.6247847205068
 20
2481.4992276901794
 30
0.0
 41
1.0
 10
-729.62405003779509
 20
2481.4988663977192
 30
0.0
 41
1.0
 10
-729.62331535508349
 20
2481.4985051052586
 30
0.0
 41
1.0
 10
-729.53418504547403
 20
2481.4546737909413
 30
0.0
 41
0.9990222350741239
 10
-729.44927498407969
 20
2481.4031405232427
 30
0.0
 41
1.0
 10
-729.44909109879609
 20
2481.4030289203374
 30
0.0
 41
1.0
 10
-729.4489072135126
 20
2481.4029173174322
 30
0.0
 41
1.0
 10
-729.3643649226849
 20
2481.3516072555431
 30
0.0
 41
0.9988642743807179
 10
-729.28509038806715
 20
2481.292483068019
 30
0.0
 41
1.0
 10
-729.20581585344826
 20
2481.2333588804941
 30
0.0
 41
0.9987681233310027
 10
-729.13279206917241
 20
2481.1666681890933
 30
0.0
 41
1.0
 10
-729.13246314120636
 20
2481.1663677878787
 30
0.0
 41
1.0
 10
-729.13213421324031
 20
2481.1660673866645
 30
0.0
 41
1.0
 10
-729.05845257303201
 20
2481.098775892835
 30
0.0
 41
0.9987496570898358
 10
-728.99185876770537
 20
2481.0244630787488
 30
0.0
 41
1.0
 10
-728.99108659794501
 20
2481.0236014053908
 30
0.0
 41
1.0
 10
-728.99031442818455
 20
2481.0227397320332
 30
0.0
 41
1.0
 10
-728.92217628333526
 20
2480.9467035712291
 30
0.0
 41
0.998814766982801
 10
-728.86175402910987
 20
2480.8644025643862
 30
0.0
 41
1.0
 10
-728.86063470303293
 20
2480.8628779330347
 30
0.0
 41
1.0
 10
-728.85951537695598
 20
2480.8613533016833
 30
0.0
 41
1.0
 10
-728.79685447057591
 20
2480.7760030321356
 30
0.0
 41
0.9989452636217659
 10
-728.7422875576143
 20
2480.6852643429784
 30
0.0
 41
1.0
 10
-728.74093883152864
 20
2480.683021561952
 30
0.0
 41
1.0
 10
-728.73959010544286
 20
2480.6807787809257
 30
0.0
 41
1.0
 10
-728.68232574031072
 20
2480.5855545297163
 30
0.0
 41
0.9991046436071392
 10
-728.63331652698855
 20
2480.4858300966903
 30
0.0
 41
1.0
 10
-728.63185266539858
 20
2480.4828514166175
 30
0.0
 41
1.0
 10
-728.6303888038085
 20
2480.4798727365451
 30
0.0
 41
1.0
 10
-728.57845186730765
 20
2480.3741909433766
 30
0.0
 41
0.9992763831100965
 10
-728.5346987387511
 20
2480.2648668814172
 30
0.0
 41
1.0
 10
-728.53321946908807
 20
2480.2611706938842
 30
0.0
 41
1.0
 10
-728.53174019942503
 20
2480.2574745063512
 30
0.0
 41
1.0
 10
-728.48502853154253
 20
2480.1407580693253
 30
0.0
 41
0.9994163472883492
 10
-728.4463955003539
 20
2480.0211244808652
 30
0.0
 41
1.0
 10
-728.44515734810739
 20
2480.0172903370831
 30
0.0
 41
1.0
 10
-728.44391919586076
 20
2480.0134561933005
 30
0.0
 41
1.0
 10
-728.40403563484358
 20
2479.8899501318233
 30
0.0
 41
0.9997268055891134
 10
-728.36996757893075
 20
2479.7647150998691
 30
0.0
 41
1.0
 10
-728.36903739866125
 20
2479.7612957337606
 30
0.0
 41
1.0
 10
-728.36810721839163
 20
2479.7578763676515
 30
0.0
 41
1.0
 10
-728.33589952301838
 20
2479.6394800679163
 30
0.0
 41
0.9996701319001099
 10
-728.30981390624834
 20
2479.5195861146549
 30
0.0
 41
1.0
 10
-728.28372828947806
 20
2479.3996921613925
 30
0.0
 41
0.999578545110946
 10
-728.26464471213774
 20
2479.2784864003579
 30
0.0
 41
1.0
 10
-728.2604249299643
 20
2479.2516852455951
 30
0.0
 41
1.0
 10
-728.25620514779098
 20
2479.2248840908323
 30
0.0
 41
1.0
 10
-728.22963017185214
 20
2479.056098117127
 30
0.0
 41
0.9979925101216977
 10
-728.2246045859257
 20
2478.8853067890354
 30
0.0
 41
1.0
 10
-728.22377977350106
 20
2478.8572760655525
 30
0.0
 41
1.0
 10
-728.22295496107631
 20
2478.82924534207
 30
0.0
 41
1.0
 10
-728.21957899999938
 20
2478.7145154609407
 30
0.0
 41
0.9995314902263423
 10
-728.22322919213786
 20
2478.5997939771914
 30
0.0
 41
1.0
 10
-728.22687938427646
 20
2478.4850724934404
 30
0.0
 41
0.9996245486945108
 10
-728.23680847940716
 20
2478.3707232223164
 30
0.0
 41
1.0
 10
-728.23697152740147
 20
2478.3688454661806
 30
0.0
 41
1.0
 10
-728.23713457539566
 20
2478.3669677100452
 30
0.0
 41
1.0
 10
-728.24738976651577
 20
2478.2488629266459
 30
0.0
 41
0.999728609500121
 10
-728.26313509008708
 20
2478.1313640177518
 30
0.0
 41
1.0
 10
-728.26352858273708
 20
2478.128427593052
 30
0.0
 41
1.0
 10
-728.2639220753872
 20
2478.1254911683527
 30
0.0
 41
1.0
 10
-728.28045438425909
 20
2478.0021194100559
 30
0.0
 41
0.9998265533969762
 10
-728.30156984299128
 20
2477.8794489352699
 30
0.0
 41
1.0
 10
-728.3022463851288
 20
2477.8755185567607
 30
0.0
 41
1.0
 10
-728.30292292726631
 20
2477.8715881782509
 30
0.0
 41
1.0
 10
-728.3253914702733
 20
2477.7410569464464
 30
0.0
 41
0.999902253085227
 10
-728.35150093488471
 20
2477.6112049778008
 30
0.0
 41
1.0
 10
-728.35247957604929
 20
2477.6063378354174
 30
0.0
 41
1.0
 10
-728.35345821721387
 20
2477.6014706930341
 30
0.0
 41
1.0
 10
-728.38152496415239
 20
2477.4618844396305
 30
0.0
 41
0.9999524761936345
 10
-728.41230793298723
 20
2477.3228719464655
 30
0.0
 41
1.0
 10
-728.41358404016376
 20
2477.3171091871582
 30
0.0
 41
1.0
 10
-728.41486014734028
 20
2477.3113464278513
 30
0.0
 41
1.0
 10
-728.44819533052237
 20
2477.1608084160971
 30
0.0
 41
0.9999813588736374
 10
-728.48336633131942
 20
2477.0106887034362
 30
0.0
 41
1.0
 10
-728.48492025677706
 20
2477.004056113009
 30
0.0
 41
1.0
 10
-728.48647418223482
 20
2476.9974235225818
 30
0.0
 41
1.0
 10
-728.52475303395374
 20
2476.8340386290392
 30
0.0
 41
0.9999955237638915
 10
-728.56400891192766
 20
2476.6708857254603
 30
0.0
 41
1.0
 10
-728.57629054756035
 20
2476.6198415349445
 30
0.0
 41
1.0
 10
-728.58857218319304
 20
2476.5687973444283
 30
0.0
 41
1.0
 10
-728.65239133245905
 20
2476.3035560597064
 30
0.0
 41
0.9999993604252068
 10
-728.71681027961915
 20
2476.038459809055
 30
0.0
 41
1.0
 10
-728.72152911516173
 20
2476.0190409010329
 30
0.0
 41
1.0
 10
-728.72624795070431
 20
2475.9996219930113
 30
0.0
 41
1.0
 10
-728.8001045689673
 20
2475.6956879262434
 30
0.0
 41
0.9999659914722876
 10
-728.87896416484784
 20
2475.3930133797016
 30
0.0
 41
1.0
 10
-728.88391685377951
 20
2475.3740042425152
 30
0.0
 41
1.0
 10
-728.88886954271129
 20
2475.3549951053283
 30
0.0
 41
1.0
 10
-728.97763451645994
 20
2475.0143022843981
 30
0.0
 41
0.9999441976025378
 10
-729.07357754942439
 20
2474.6755608590956
 30
0.0
 41
1.0
 10
-729.09027806784775
 20
2474.6165971465753
 30
0.0
 41
1.0
 10
-729.10697858627123
 20
2474.5576334340549
 30
0.0
 41
1.0
 10
-729.23632265608694
 20
2474.1009645836971
 30
0.0
 41
0.9999625120737695
 10
-729.37355542340731
 20
2473.6466040497107
 30
0.0
 41
1.0
 10
-729.40934536648945
 20
2473.5281080230861
 30
0.0
 41
1.0
 10
-729.44513530957158
 20
2473.409611996462
 30
0.0
 41
1.0
 10
-729.51965551361673
 20
2473.1628849183467
 30
0.0
 41
0.9999793386323097
 10
-729.5973415367539
 20
2472.9171362791121
 30
0.0
 41
1.0
 10
-729.67502755989142
 20
2472.6713876398758
 30
0.0
 41
1.0
 10
-729.68580711876211
 20
2472.6373697355011
 30
0.0
 41
1.0
 10
-731.53618017203121
 20
2466.7502978130337
 30
0.0
 41
1.0
 10
-733.38655322530042
 20
2460.8632258905664
 30
0.0
 41
1.0
 10
-734.34780991532398
 20
2460.8632258905664
 30
0.0
 41
1.0
 10
-735.30906660534754
 20
2460.8632258905664
 30
0.0
 41
1.0
 10
-733.69012182666916
 20
2466.0112543923556
 30
0.0
 41
1.0
 10
-732.07117704799066
 20
2471.1592828941448
 30
0.0
 41
1.0
 10
-732.02601122481042
 20
2471.3033141164337
 30
0.0
 41
1.0
 10
-731.98084540163018
 20
2471.4473453387227
 30
0.0
 41
1.0
 10
-731.81054098428058
 20
2471.9904363678429
 30
0.0
 41
0.9999911657879219
 10
-731.64480817259914
 20
2472.5349398992112
 30
0.0
 41
1.0
 10
-731.61511222909917
 20
2472.6325038392597
 30
0.0
 41
1.0
 10
-731.58541628559919
 20
2472.7300677793087
 30
0.0
 41
1.0
 10
-731.47907536093112
 20
2473.0794434305344
 30
0.0
 41
0.9999952428130484
 10
-731.37489177159387
 20
2473.4294684549241
 30
0.0
 41
1.0
 10
-731.36983230126611
 20
2473.4464667291836
 30
0.0
 41
1.0
 10
-731.36477283093825
 20
2473.4634650034432
 30
0.0
 41
1.0
 10
-731.27070818226821
 20
2473.7794934792755
 30
0.0
 41
0.9999931687537652
 10
-731.17898234439531
 20
2474.0962086925442
 30
0.0
 41
1.0
 10
-731.17404707993524
 20
2474.1132494018175
 30
0.0
 41
1.0
 10
-731.16911181547505
 20
2474.1302901110903
 30
0.0
 41
1.0
 10
-731.08725650651377
 20
2474.4129239058425
 30
0.0
 41
0.999989384081272
 10
-731.00800928006481
 20
2474.6963000350615
 30
0.0
 41
1.0
 10
-730.9287620536029
 20
2474.9796761643265
 30
0.0
 41
0.9999833980062002
 10
-730.85278581286343
 20
2475.2639467473468
 30
0.0
 41
1.0
 10
-730.84378187614175
 20
2475.2976356258232
 30
0.0
 41
1.0
 10
-730.83477793941995
 20
2475.3313245043
 30
0.0
 41
1.0
 10
-730.76581339055417
 20
2475.5893603365944
 30
0.0
 41
0.9999233658063634
 10
-730.70325841933447
 20
2475.8490244953146
 30
0.0
 41
1.0
 10
-730.64070344811421
 20
2476.108688654037
 30
0.0
 41
1.0
 10
-730.60122002925664
 20
2476.2724953184629
 30
0.0
 41
1.0
 10
-730.59624142527673
 20
2476.293150280344
 30
0.0
 41
1.0
 10
-730.59126282129694
 20
2476.313805242225
 30
0.0
 41
1.0
 10
-730.56173661040089
 20
2476.4363019828807
 30
0.0
 41
0.9999868670874749
 10
-730.53346752640289
 20
2476.5590949285343
 30
0.0
 41
1.0
 10
-730.52957003924803
 20
2476.576024515939
 30
0.0
 41
1.0
 10
-730.52567255209306
 20
2476.5929541033438
 30
0.0
 41
1.0
 10
-730.50519844240637
 20
2476.681887874181
 30
0.0
 41
0.9999778173347631
 10
-730.48591084429131
 20
2476.7710864914102
 30
0.0
 41
1.0
 10
-730.46662324617523
 20
2476.860285108643
 30
0.0
 41
0.9999602692855217
 10
-730.44892888754055
 20
2476.9498133970897
 30
0.0
 41
1.0
 10
-730.44572505546512
 20
2476.9660238519641
 30
0.0
 41
1.0
 10
-730.4425212233898
 20
2476.9822343068386
 30
0.0
 41
1.0
 10
-730.41841920060347
 20
2477.1041835050387
 30
0.0
 41
0.9995617985320495
 10
-730.40157585338557
 20
2477.2273452527393
 30
0.0
 41
1.0
 10
-730.39911136347905
 20
2477.2453660701067
 30
0.0
 41
1.0
 10
-730.39664687357265
 20
2477.2633868874736
 30
0.0
 41
1.0
 10
-730.37636361252441
 20
2477.4117019371733
 30
0.0
 41
0.9991121410639431
 10
-730.36863825893602
 20
2477.5611980359809
 30
0.0
 41
1.0
 10
-730.36771946891133
 20
2477.5789778725602
 30
0.0
 41
1.0
 10
-730.36680067888665
 20
2477.5967577091392
 30
0.0
 41
1.0
 10
-730.36091290534785
 20
2477.7106941347902
 30
0.0
 41
0.9989792494905678
 10
-730.36533199746509
 20
2477.8246969706856
 30
0.0
 41
1.0
 10
-730.36597996933392
 20
2477.8414132166163
 30
0.0
 41
1.0
 10
-730.36662794120264
 20
2477.8581294625469
 30
0.0
 41
1.0
 10
-730.36975108958279
 20
2477.9386998065906
 30
0.0
 41
0.9997820295394007
 10
-730.3762350869581
 20
2478.0190695283281
 30
0.0
 41
1.0
 10
-730.38271908433387
 20
2478.0994392500738
 30
0.0
 41
0.9998335105975206
 10
-730.39213127984533
 20
2478.1795188665205
 30
0.0
 41
1.0
 10
-730.39372620452173
 20
2478.1930885970041
 30
0.0
 41
1.0
 10
-730.39532112919824
 20
2478.2066583274882
 30
0.0
 41
1.0
 10
-730.40792317406215
 20
2478.3138774049012
 30
0.0
 41
0.9996876457878982
 10
-730.42586708686088
 20
2478.4203328326198
 30
0.0
 41
1.0
 10
-730.42809875000614
 20
2478.4335725678611
 30
0.0
 41
1.0
 10
-730.43033041315141
 20
2478.4468123031029
 30
0.0
 41
1.0
 10
-730.44412623457254
 20
2478.5286584470637
 30
0.0
 41
0.999554749649358
 10
-730.46277955646519
 20
2478.6095359442534
 30
0.0
 41
1.0
 10
-730.46315351333647
 20
2478.6111573549583
 30
0.0
 41
1.0
 10
-730.46352747020762
 20
2478.6127787656633
 30
0.0
 41
1.0
 10
-730.48143287835705
 20
2478.6904134414422
 30
0.0
 41
0.999489942717483
 10
-730.5042577870372
 20
2478.7667467242791
 30
0.0
 41
1.0
 10
-730.50471631377809
 20
2478.7682801740684
 30
0.0
 41
1.0
 10
-730.50517484051909
 20
2478.7698136238578
 30
0.0
 41
1.0
 10
-730.5270826957161
 20
2478.8430800071123
 30
0.0
 41
0.9993784877590043
 10
-730.55409833082308
 20
2478.9146207122722
 30
0.0
 41
1.0
 10
-730.55463002179999
 20
2478.9160286949927
 30
0.0
 41
1.0
 10
-730.55516171277679
 20
2478.9174366777129
 30
0.0
 41
1.0
 10
-730.58111396592903
 20
2478.9861614174301
 30
0.0
 41
0.9992430832254048
 10
-730.61233050108899
 20
2479.0526605694995
 30
0.0
 41
1.0
 10
-730.61291261714587
 20
2479.0539006246172
 30
0.0
 41
1.0
 10
-730.61349473320274
 20
2479.0551406797354
 30
0.0
 41
1.0
 10
-730.64354703624849
 20
2479.1191597215684
 30
0.0
 41
0.9990789632797392
 10
-730.67897766302508
 20
2479.1803663333176
 30
0.0
 41
1.0
 10
-730.67957336920631
 20
2479.1813954191757
 30
0.0
 41
1.0
 10
-730.68016907538754
 20
2479.1824245050334
 30
0.0
 41
1.0
 10
-730.71440828980224
 20
2479.2415729450677
 30
0.0
 41
0.9988874801122153
 10
-730.75406756583379
 20
2479.2972326574854
 30
0.0
 41
1.0
 10
-730.75462309189788
 20
2479.2980123091602
 30
0.0
 41
1.0
 10
-730.75517861796209
 20
2479.2987919608345
 30
0.0
 41
1.0
 10
-730.79372684186524
 20
2479.3528923699023
 30
0.0
 41
0.9986762060693856
 10
-730.83762931314209
 20
2479.4027460843422
 30
0.0
 41
1.0
 10
-730.83807327347415
 20
2479.4032502261589
 30
0.0
 41
1.0
 10
-730.83851723380621
 20
2479.4037543679751
 30
0.0
 41
1.0
 10
-730.88153178441803
 20
2479.4525997987807
 30
0.0
 41
0.9984621642488885
 10
-730.92968934119608
 20
2479.4963830992524
 30
0.0
 41
1.0
 10
-730.92993597571217
 20
2479.4966073314154
 30
0.0
 41
1.0
 10
-730.93018261022826
 20
2479.4968315635788
 30
0.0
 41
1.0
 10
-730.9778468979739
 20
2479.5401663997236
 30
0.0
 41
0.9982724693851443
 10
-731.03026552981532
 20
2479.5776107502411
 30
0.0
 41
1.0
 10
-731.08268416165447
 20
2479.6150551007572
 30
0.0
 41
0.9981399180160994
 10
-731.13927022504731
 20
2479.6458416202008
 30
0.0
 41
1.0
 10
-731.13931588712717
 20
2479.6458664633587
 30
0.0
 41
1.0
 10
-731.13936154920702
 20
2479.6458913065167
 30
0.0
 41
1.0
 10
-731.19603893675639
 20
2479.6767275122743
 30
0.0
 41
0.9980927086836361
 10
-731.25608428782198
 20
2479.7003443211265
 30
0.0
 41
1.0
 10
-731.25652445753451
 20
2479.7005174470019
 30
0.0
 41
1.0
 10
-731.25696462724704
 20
2479.7006905728772
 30
0.0
 41
1.0
 10
-731.31789031773735
 20
2479.7246536334801
 30
0.0
 41
0.9981411356560723
 10
-731.38127883913694
 20
2479.7410262749854
 30
0.0
 41
1.0
 10
-731.382160955838
 20
2479.7412541171907
 30
0.0
 41
1.0
 10
-731.38304307253907
 20
2479.741481959396
 30
0.0
 41
1.0
 10
-731.44819582734306
 20
2479.7583102853127
 30
0.0
 41
0.9983031812935419
 10
-731.51486325633869
 20
2479.7674496464888
 30
0.0
 41
1.0
 10
-731.52373428174155
 20
2479.7686657651602
 30
0.0
 41
1.0
 10
-731.53260530714442
 20
2479.7698818838312
 30
0.0
 41
1.0
 10
-731.58695494964832
 20
2479.7773326138222
 30
0.0
 41
0.9983887708264614
 10
-731.64179879894084
 20
2479.7785772874558
 30
0.0
 41
1.0
 10
-731.64986220415187
 20
2479.7787602853305
 30
0.0
 41
1.0
 10
-731.65792560936291
 20
2479.7789432832051
 30
0.0
 41
1.0
 10
-731.69664264822723
 20
2479.7798219610891
 30
0.0
 41
0.999886956307844
 10
-731.73536860143633
 20
2479.7795360917294
 30
0.0
 41
1.0
 10
-731.77409455468137
 20
2479.7792502223692
 30
0.0
 41
0.999997232006083
 10
-731.81281873393425
 20
2479.7787821228394
 30
0.0
 41
1.0
 10
-731.83217175047207
 20
2479.7785481827505
 30
0.0
 41
1.0
 10
-731.85152476700978
 20
2479.7783142426615
 30
0.0
 41
1.0
 10
-731.92895497938412
 20
2479.7773782629538
 30
0.0
 41
0.9997304945087217
 10
-732.00625828562556
 20
2479.7728491691673
 30
0.0
 41
1.0
 10
-732.01530792732615
 20
2479.7723189631779
 30
0.0
 41
1.0
 10
-732.02435756902662
 20
2479.771788757188
 30
0.0
 41
1.0
 10
-732.11976015867447
 20
2479.7661992514222
 30
0.0
 41
0.9997888306416071
 10
-732.21485249451803
 20
2479.756694286933
 30
0.0
 41
1.0
 10
-732.22357355608938
 20
2479.755822572301
 30
0.0
 41
1.0
 10
-732.23229461766084
 20
2479.754950857669
 30
0.0
 41
1.0
 10
-732.34482907664756
 20
2479.7437024639157
 30
0.0
 41
0.9984170238191448
 10
-732.45538822399772
 20
2479.7198863819808
 30
0.0
 41
1.0
 10
-732.49176935498213
 20
2479.7120493461753
 30
0.0
 41
1.0
 10
-732.52815048596665
 20
2479.7042123103693
 30
0.0
 41
1.0
 10
-732.64334155439155
 20
2479.6793984438586
 30
0.0
 41
0.9976592854200441
 10
-732.75406972079963
 20
2479.6390997667108
 30
0.0
 41
1.0
 10
-732.86479788720351
 20
2479.5988010895639
 30
0.0
 41
0.9993255074352678
 10
-732.97226968599512
 20
2479.5504841910715
 30
0.0
 41
1.0
 10
-732.97689486491856
 20
2479.5484048148719
 30
0.0
 41
1.0
 10
-732.98152004384201
 20
2479.5463254386718
 30
0.0
 41
1.0
 10
-733.09824220048063
 20
2479.4938497877793
 30
0.0
 41
0.9976475078273577
 10
-733.20668954479277
 20
2479.4259017981194
 30
0.0
 41
1.0
 10
-733.22503193892703
 20
2479.4144093193054
 30
0.0
 41
1.0
 10
-733.2433743330613
 20
2479.4029168404909
 30
0.0
 41
1.0
 10
-733.32757652461009
 20
2479.3501597197251
 30
0.0
 41
0.9995131336406231
 10
-733.40832423956897
 20
2479.2922535077705
 30
0.0
 41
1.0
 10
-733.48907195452659
 20
2479.2343472958173
 30
0.0
 41
0.9995810107605785
 10
-733.56633360225737
 20
2479.1718656133498
 30
0.0
 41
1.0
 10
-733.56930363346635
 20
2479.1694637418859
 30
0.0
 41
1.0
 10
-733.57227366467532
 20
2479.1670618704225
 30
0.0
 41
1.0
 10
-733.65547537481996
 20
2479.0997764450308
 30
0.0
 41
0.9996617837954793
 10
-733.7350660619544
 20
2479.0282559894722
 30
0.0
 41
1.0
 10
-733.74719681283705
 20
2479.0173552564765
 30
0.0
 41
1.0
 10
-733.75932756371969
 20
2479.0064545234809
 30
0.0
 41
1.0
 10
-733.82760309111563
 20
2478.9451019080088
 30
0.0
 41
0.9997267750052407
 10
-733.89293659939472
 20
2478.8806253714879
 30
0.0
 41
1.0
 10
-733.95827010768494
 20
2478.816148834956
 30
0.0
 41
0.9999667288960376
 10
-734.02254305083875
 20
2478.7506150280542
 30
0.0
 41
1.0
 10
-734.09137049860703
 20
2478.680437369303
 30
0.0
 41
1.0
 10
-734.16019794637532
 20
2478.6102597105514
 30
0.0
 41
1.0
 10
-734.36212578507138
 20
2478.4043705861413
 30
0.0
 41
0.9988205335175177
 10
-734.54313140205193
 20
2478.1798663540794
 30
0.0
 41
1.0
 10
-734.57377136695641
 20
2478.1418631036495
 30
0.0
 41
1.0
 10
-734.604411331861
 20
2478.10385985322
 30
0.0
 41
1.0
 10
-734.84669687864994
 20
2477.8033491202996
 30
0.0
 41
0.9997077826755269
 10
-735.07417482975484
 20
2477.4914793260837
 30
0.0
 41
1.0
 10
-735.07589824488548
 20
2477.4891165427039
 30
0.0
 41
1.0
 10
-735.07762166001612
 20
2477.4867537593241
 30
0.0
 41
1.0
 10
-735.30854644138196
 20
2477.1701583983486
 30
0.0
 41
0.9989147567079101
 10
-735.50900994426672
 20
2476.8334489371623
 30
0.0
 41
1.0
 10
-735.53375108957255
 20
2476.7918923566122
 30
0.0
 41
1.0
 10
-735.55849223487837
 20
2476.7503357760615
 30
0.0
 41
1.0
 10
-735.71370353351779
 20
2476.4896343916053
 30
0.0
 41
0.9997476598182158
 10
-735.85704852102663
 20
2476.2222246430242
 30
0.0
 41
1.0
 10
-736.0003935085374
 20
2475.9548148944396
 30
0.0
 41
0.9996258967110151
 10
-736.12890176046824
 20
2475.6799669578168
 30
0.0
 41
1.0
 10
-736.1421016699162
 20
2475.6517355577248
 30
0.0
 41
1.0
 10
-736.15530157936416
 20
2475.6235041576329
 30
0.0
 41
1.0
 10
-736.29551030036396
 20
2475.3236317596798
 30
0.0
 41
0.9998735413945579
 10
-736.42611164708774
 20
2475.0194521602052
 30
0.0
 41
1.0
 10
-736.42955447514419
 20
2475.0114335747503
 30
0.0
 41
1.0
 10
-736.43299730320064
 20
2475.0034149892949
 30
0.0
 41
1.0
 10
-736.55671299380356
 20
2474.7152725607484
 30
0.0
 41
0.9999377418862605
 10
-736.67396779598289
 20
2474.4244410930623
 30
0.0
 41
1.0
 10
-736.79122259815836
 20
2474.1336096253863
 30
0.0
 41
0.9999508299502462
 10
-736.90268654153419
 20
2473.8405099485681
 30
0.0
 41
1.0
 10
-736.90576731019723
 20
2473.8324089226026
 30
0.0
 41
1.0
 10
-736.90884807886027
 20
2473.8243078966375
 30
0.0
 41
1.0
 10
-737.02647355956788
 20
2473.5150061678751
 30
0.0
 41
0.9999609228434934
 10
-737.13861216244709
 20
2473.2036731518438
 30
0.0
 41
1.0
 10
-737.14156817279149
 20
2473.1954663114489
 30
0.0
 41
1.0
 10
-737.1445241831359
 20
2473.1872594710539
 30
0.0
 41
1.0
 10
-737.2625748067062
 20
2472.8595127742283
 30
0.0
 41
0.9999674607397693
 10
-737.37532233277682
 20
2472.5299041542262
 30
0.0
 41
1.0
 10
-737.42672072333835
 20
2472.379644958537
 30
0.0
 41
1.0
 10
-737.47811911389988
 20
2472.2293857628479
 30
0.0
 41
1.0
 10
-737.59412972065763
 20
2471.8902377803452
 30
0.0
 41
0.9999287532306994
 10
-737.70201112463087
 20
2471.548417041362
 30
0.0
 41
1.0
 10
-737.74848838070932
 20
2471.4011544971836
 30
0.0
 41
1.0
 10
-737.79496563678777
 20
2471.2538919530048
 30
0.0
 41
1.0
 10
-737.80989252854511
 20
2471.2065963025657
 30
0.0
 41
0.9999998224556167
 10
-737.8247630373321
 20
2471.1592828941448
 30
0.0
 41
1.0
 10
-739.44541917412755
 20
2466.0112543923556
 30
0.0
 41
1.0
 10
-741.066075310923
 20
2460.8632258905664
 30
0.0
 41
1.0
 10
-741.97138375481393
 20
2460.8632258905664
 30
0.0
 41
1.0
 10
-742.87669219870486
 20
2460.8632258905664
 30
0.0
 41
1.0
 10
-741.02460778731881
 20
2466.7502978130337
 30
0.0
 41
1.0
 10
-739.17252337593277
 20
2472.6373697355011
 30
0.0
 41
1.0
 10
-739.16240161763005
 20
2472.6694129489506
 30
0.0
 41
1.0
 10
-739.08979394878031
 20
2472.8997124907764
 30
0.0
 41
1.0
 10
-739.01718627992568
 20
2473.1300120326177
 30
0.0
 41
0.9999825681971545
 10
-738.9473032407094
 20
2473.3611529276995
 30
0.0
 41
1.0
 10
-738.89901217855549
 20
2473.5208775111723
 30
0.0
 41
1.0
 10
-738.8507211164017
 20
2473.6806020946451
 30
0.0
 41
1.0
 10
-738.75356876308354
 20
2474.0019373164241
 30
0.0
 41
0.9999672528961821
 10
-738.66162995745822
 20
2474.3248028620173
 30
0.0
 41
1.0
 10
-738.65884107379043
 20
2474.3345967074006
 30
0.0
 41
1.0
 10
-738.65605219012252
 20
2474.3443905527838
 30
0.0
 41
1.0
 10
-738.56969115183961
 20
2474.6476684075869
 30
0.0
 41
0.9999899749146354
 10
-738.48604954230018
 20
2474.9517074960559
 30
0.0
 41
1.0
 10
-738.47594362328277
 20
2474.9884427337338
 30
0.0
 41
1.0
 10
-738.46583770426537
 20
2475.0251779714117
 30
0.0
 41
1.0
 10
-738.40240793276394
 20
2475.2557465845139
 30
0.0
 41
0.9999214200504174
 10
-738.3447785043877
 20
2475.4878329267176
 30
0.0
 41
1.0
 10
-738.33201265220634
 20
2475.5392438121171
 30
0.0
 41
1.0
 10
-738.31924680002498
 20
2475.5906546975166
 30
0.0
 41
1.0
 10
-738.28714907600738
 20
2475.7199192689377
 30
0.0
 41
0.9999828681675983
 10
-738.25656682401461
 20
2475.8495507433945
 30
0.0
 41
1.0
 10
-738.22598457202025
 20
2475.9791822178577
 30
0.0
 41
0.9999389844473945
 10
-738.19827358323175
 20
2476.1094576737537
 30
0.0
 41
1.0
 10
-738.19113583951071
 20
2476.1430137775951
 30
0.0
 41
1.0
 10
-738.18399809578955
 20
2476.176569881437
 30
0.0
 41
1.0
 10
-738.14201161956089
 20
2476.3739575450063
 30
0.0
 41
0.9998933699439975
 10
-738.10580735515714
 20
2476.5724871527741
 30
0.0
 41
1.0
 10
-738.10443452994105
 20
2476.5800151734693
 30
0.0
 41
1.0
 10
-738.10306170472495
 20
2476.587543194164
 30
0.0
 41
1.0
 10
-738.06411178988981
 20
2476.8011288433163
 30
0.0
 41
0.9996850305193136
 10
-738.03592811363114
 20
2477.0163998487537
 30
0.0
 41
1.0
 10
-738.03393308026193
 20
2477.0316382028741
 30
0.0
 41
1.0
 10
-738.03193804689283
 20
2477.0468765569949
 30
0.0
 41
1.0
 10
-738.00453018443375
 20
2477.2562217841487
 30
0.0
 41
0.9994697936706604
 10
-737.99080562521408
 20
2477.4669069794813
 30
0.0
 41
1.0
 10
-737.9903285559642
 20
2477.4742304516944
 30
0.0
 41
1.0
 10
-737.98985148671443
 20
2477.4815539239075
 30
0.0
 41
1.0
 10
-737.97708106599418
 20
2477.6775921748131
 30
0.0
 41
0.9991804893136249
 10
-737.98020938226728
 20
2477.8740210247856
 30
0.0
 41
1.0
 10
-737.9802932610894
 20
2477.8792878261993
 30
0.0
 41
1.0
 10
-737.98037713991152
 20
2477.8845546276129
 30
0.0
 41
1.0
 10
-737.9833376985398
 20
2478.07044987476
 30
0.0
 41
0.9988448329320901
 10
-738.00412924416378
 20
2478.2552024645925
 30
0.0
 41
1.0
 10
-738.0057233178668
 20
2478.2693673203635
 30
0.0
 41
1.0
 10
-738.00731739156981
 20
2478.2835321761345
 30
0.0
 41
1.0
 10
-738.0249207897873
 20
2478.4399550544263
 30
0.0
 41
0.998550320945783
 10
-738.05923706208705
 20
2478.5935792385153
 30
0.0
 41
1.0
 10
-738.06682305415836
 20
2478.6275395659159
 30
0.0
 41
1.0
 10
-738.07440904622968
 20
2478.6614998933164
 30
0.0
 41
1.0
 10
-738.09355333438623
 20
2478.747203422603
 30
0.0
 41
0.9991036781370211
 10
-738.11987819603792
 20
2478.8309805099293
 30
0.0
 41
1.0
 10
-738.12386042149262
 20
2478.8436536724357
 30
0.0
 41
1.0
 10
-738.12784264694733
 20
2478.8563268349421
 30
0.0
 41
1.0
 10
-738.14620305768813
 20
2478.9147575972506
 30
0.0
 41
0.9998874504369392
 10
-738.16630826536743
 20
2478.9726111994778
 30
0.0
 41
1.0
 10
-738.18641347304595
 20
2479.0304648017004
 30
0.0
 41
0.9994041637544895
 10
-738.21046208598023
 20
2479.0867935055908
 30
0.0
 41
1.0
 10
-738.2146588702044
 20
2479.0966235700735
 30
0.0
 41
1.0
 10
-738.21885565442869
 20
2479.1064536345557
 30
0.0
 41
1.0
 10
-738.24673448542455
 20
2479.171753800525
 30
0.0
 41
0.9991846840703088
 10
-738.27979084211586
 20
2479.2345918318019
 30
0.0
 41
1.0
 10
-738.28092744851097
 20
2479.236752448257
 30
0.0
 41
1.0
 10
-738.28206405490619
 20
2479.2389130647121
 30
0.0
 41
1.0
 10
-738.31284719880819
 20
2479.2974298630811
 30
0.0
 41
0.9989253167922125
 10
-738.34891662286395
 20
2479.3528447914723
 30
0.0
 41
1.0
 10
-738.34997074753812
 20
2479.3544642862344
 30
0.0
 41
1.0
 10
-738.35102487221229
 20
2479.3560837809969
 30
0.0
 41
1.0
 10
-738.38498604691779
 20
2479.4082597198612
 30
0.0
 41
0.998646717283655
 10
-738.42418319955618
 20
2479.4566257534925
 30
0.0
 41
1.0
 10
-738.4250573282568
 20
2479.4577043557706
 30
0.0
 41
1.0
 10
-738.42593145695753
 20
2479.4587829580487
 30
0.0
 41
1.0
 10
-738.46338035219298
 20
2479.5049917871211
 30
0.0
 41
0.9984001104268091
 10
-738.50580708271082
 20
2479.5466768944907
 30
0.0
 41
1.0
 10
-738.50639422081986
 20
2479.5472537693713
 30
0.0
 41
1.0
 10
-738.5069813589289
 20
2479.5478306442524
 30
0.0
 41
1.0
 10
-738.5482338132266
 20
2479.5883620018581
 30
0.0
 41
0.9982442159081536
 10
-738.59398991456351
 20
2479.6237305631194
 30
0.0
 41
1.0
 10
-738.59420471002545
 20
2479.6238965957627
 30
0.0
 41
1.0
 10
-738.59441950548739
 20
2479.6240626284061
 30
0.0
 41
1.0
 10
-738.6397460159003
 20
2479.6590991243806
 30
0.0
 41
0.9982450060833115
 10
-738.68889699497095
 20
2479.6885309074132
 30
0.0
 41
1.0
 10
-738.73804797404375
 20
2479.7179626904476
 30
0.0
 41
0.9983922639631626
 10
-738.79021428020883
 20
2479.7416423251016
 30
0.0
 41
1.0
 10
-738.79044115753265
 20
2479.7417453105827
 30
0.0
 41
1.0
 10
-738.79066803485648
 20
2479.7418482960638
 30
0.0
 41
1.0
 10
-738.84328809567023
 20
2479.7657339016805
 30
0.0
 41
0.9986517147151657
 10
-738.89810106853736
 20
2479.7840350208021
 30
0.0
 41
1.0
 10
-738.89877898996565
 20
2479.7842613672337
 30
0.0
 41
1.0
 10
-738.89945691139383
 20
2479.7844877136654
 30
0.0
 41
1.0
 10
-738.95562572712015
 20
2479.8032415256512
 30
0.0
 41
0.9989435598954382
 10
-739.01327911427416
 20
2479.816759227886
 30
0.0
 41
1.0
 10
-739.01435923385327
 20
2479.8170124781382
 30
0.0
 41
1.0
 10
-739.01543935343238
 20
2479.8172657283908
 30
0.0
 41
1.0
 10
-739.07525297974337
 20
2479.8312899311304
 30
0.0
 41
0.9992249241241518
 10
-739.13598448863786
 20
2479.8405652738456
 30
0.0
 41
1.0
 10
-739.13739817693227
 20
2479.840781182254
 30
0.0
 41
1.0
 10
-739.13881186522656
 20
2479.8409970906623
 30
0.0
 41
1.0
 10
-739.20237075070565
 20
2479.8507042501928
 30
0.0
 41
0.9994396597833969
 10
-739.26643668724103
 20
2479.8561371725382
 30
0.0
 41
1.0
 10
-739.28557735471986
 20
2479.8577603402568
 30
0.0
 41
1.0
 10
-739.30471802219859
 20
2479.8593835079755
 30
0.0
 41
1.0
 10
-739.40706529368902
 20
2479.8680627657586
 30
0.0
 41
0.9987693403121264
 10
-739.50976891727385
 20
2479.8665597023059
 30
0.0
 41
1.0
 10
-739.52002325150329
 20
2479.866409630532
 30
0.0
 41
1.0
 10
-739.53027758573262
 20
2479.8662595587575
 30
0.0
 41
1.0
 10
-739.63983335191153
 20
2479.8646562144704
 30
0.0
 41
0.9989753644965898
 10
-739.74879535192804
 20
2479.8531532075453
 30
0.0
 41
1.0
 10
-739.8577573519442
 20
2479.8416502006203
 30
0.0
 41
0.9983190067305461
 10
-739.9646561629088
 20
2479.8176152088336
 30
0.0
 41
1.0
 10
-739.97355711451587
 20
2479.815613930271
 30
0.0
 41
1.0
 10
-739.98245806612294
 20
2479.8136126517079
 30
0.0
 41
1.0
 10
-740.1071587803018
 20
2479.7855751027955
 30
0.0
 41
0.998553938830401
 10
-740.22812853398079
 20
2479.7443114267498
 30
0.0
 41
1.0
 10
-740.2304739649403
 20
2479.7435113829342
 30
0.0
 41
1.0
 10
-740.23281939589992
 20
2479.7427113391186
 30
0.0
 41
1.0
 10
-740.35848001149839
 20
2479.6998475754413
 30
0.0
 41
0.9988468746494303
 10
-740.47945035379973
 20
2479.6451294903786
 30
0.0
 41
1.0
 10
-740.4826331757879
 20
2479.643689815819
 30
0.0
 41
1.0
 10
-740.48581599777617
 20
2479.642250141259
 30
0.0
 41
1.0
 10
-740.6131519840535
 20
2479.5846527070771
 30
0.0
 41
0.9991322885918299
 10
-740.7352525681091
 20
2479.5166573748952
 30
0.0
 41
1.0
 10
-740.75285457915083
 20
2479.5068551729064
 30
0.0
 41
1.0
 10
-740.77045659019257
 20
2479.497052970918
 30
0.0
 41
1.0
 10
-740.87263327125413
 20
2479.4401528551352
 30
0.0
 41
0.9993860037849269
 10
-740.97057427532911
 20
2479.376236839546
 30
0.0
 41
1.0
 10
-740.9761925881869
 20
2479.3725703448472
 30
0.0
 41
1.0
 10
-740.98181090104481
 20
2479.3689038501489
 30
0.0
 41
1.0
 10
-741.0685152794083
 20
2479.312320823954
 30
0.0
 41
0.999882149495314
 10
-741.15344165521537
 20
2479.2531025938806
 30
0.0
 41
1.0
 10
-741.23836803103075
 20
2479.1938843638022
 30
0.0
 41
0.9997976482743752
 10
-741.32084366143204
 20
2479.1312979557624
 30
0.0
 41
1.0
 10
-741.33547992623676
 20
2479.1201912659826
 30
0.0
 41
1.0
 10
-741.35011619104159
 20
2479.1090845762028
 30
0.0
 41
1.0
 10
-741.46186435105176
 20
2479.0242847886038
 30
0.0
 41
0.9998091630800667
 10
-741.57021462908199
 20
2478.9351844379003
 30
0.0
 41
1.0
 10
-741.58322038155961
 20
2478.9244893374539
 30
0.0
 41
1.0
 10
-741.59622613403735
 20
2478.9137942370076
 30
0.0
 41
1.0
 10
-741.73058791702397
 20
2478.8033036854104
 30
0.0
 41
0.9995035112316995
 10
-741.85772379478817
 20
2478.6845698683942
 30
0.0
 41
1.0
 10
-741.86737110517288
 20
2478.6755601222389
 30
0.0
 41
1.0
 10
-741.87701841555747
 20
2478.6665503760837
 30
0.0
 41
1.0
 10
-742.00044147832182
 20
2478.5512840043289
 30
0.0
 41
0.9994630424299131
 10
-742.11604988410681
 20
2478.4281812610925
 30
0.0
 41
1.0
 10
-742.11973272287878
 20
2478.4242596815789
 30
0.0
 41
1.0
 10
-742.12341556165086
 20
2478.4203381020652
 30
0.0
 41
1.0
 10
-742.23165828989136
 20
2478.3050785178571
 30
0.0
 41
0.9995160693749807
 10
-742.33252431942276
 20
2478.1833110999846
 30
0.0
 41
1.0
 10
-742.33445803950053
 20
2478.1809766757801
 30
0.0
 41
1.0
 10
-742.33639175957819
 20
2478.1786422515756
 30
0.0
 41
1.0
 10
-742.43339034895359
 20
2478.0615436821131
 30
0.0
 41
0.9996561470515112
 10
-742.52411656762058
 20
2477.9395209196628
 30
0.0
 41
1.0
 10
-742.53027423352432
 20
2477.931239130618
 30
0.0
 41
1.0
 10
-742.53643189942807
 20
2477.9229573415732
 30
0.0
 41
1.0
 10
-742.61484278629018
 20
2477.8174981572088
 30
0.0
 41
0.9998349055174042
 10
-742.68937006821875
 20
2477.7092595735503
 30
0.0
 41
1.0
 10
-742.76389735013527
 20
2477.6010209899096
 30
0.0
 41
0.9999728109558214
 10
-742.83682024604241
 20
2477.4916950643596
 30
0.0
 41
1.0
 10
-742.83813546146348
 20
2477.4897232948433
 30
0.0
 41
1.0
 10
-742.83945067688455
 20
2477.4877515253265
 30
0.0
 41
1.0
 10
-742.9150040036136
 20
2477.3744820607726
 30
0.0
 41
0.9999972147333037
 10
-742.99002181402761
 20
2477.2608572178769
 30
0.0
 41
1.0
 10
-742.99499335663222
 20
2477.2533271294315
 30
0.0
 41
1.0
 10
-742.99996489923694
 20
2477.245797040986
 30
0.0
 41
1.0
 10
-743.08492579485312
 20
2477.1171120212093
 30
0.0
 41
0.9999371979005604
 10
-743.16698114425424
 20
2476.9865551074377
 30
0.0
 41
1.0
 10
-743.17049002861904
 20
2476.9809721793677
 30
0.0
 41
1.0
 10
-743.17399891298396
 20
2476.9753892512977
 30
0.0
 41
1.0
 10
-743.26307203110878
 20
2476.8336664813955
 30
0.0
 41
0.9998272025611225
 10
-743.34681542199269
 20
2476.6887306046501
 30
0.0
 41
1.0
 10
-743.36203059401771
 20
2476.6623974901918
 30
0.0
 41
1.0
 10
-743.37724576604273
 20
2476.6360643757334
 30
0.0
 41
1.0
 10
-743.49141950097305
 20
2476.4384622700768
 30
0.0
 41
0.9995217214838511
 10
-743.59315919052767
 20
2476.234179942217
 30
0.0
 41
1.0
 10
-743.60080275316488
 20
2476.2188324925096
 30
0.0
 41
1.0
 10
-743.6084463158021
 20
2476.2034850428022
 30
0.0
 41
1.0
 10
-743.69535160839075
 20
2476.0289885847224
 30
0.0
 41
0.999826976260746
 10
-743.77570607466032
 20
2475.8513802980042
 30
0.0
 41
1.0
 10
-743.85606054093262
 20
2475.673772011281
 30
0.0
 41
0.9998944747388588
 10
-743.93122133549741
 20
2475.4939042856508
 30
0.0
 41
1.0
 10
-743.93617500508606
 20
2475.4820496307393
 30
0.0
 41
1.0
 10
-743.9411286746747
 20
2475.4701949758282
 30
0.0
 41
1.0
 10
-744.02177573523431
 20
2475.2771980357938
 30
0.0
 41
0.9999506734407877
 10
-744.09857326413612
 20
2475.0826372309411
 30
0.0
 41
1.0
 10
-744.11317322939612
 20
2475.0456493091629
 30
0.0
 41
1.0
 10
-744.12777319465602
 20
2475.0086613873846
 30
0.0
 41
1.0
 10
-744.17537079303588
 20
2474.8880764260948
 30
0.0
 41
0.9999912393943375
 10
-744.22195723706227
 20
2474.7670972233896
 30
0.0
 41
1.0
 10
-744.26854368108604
 20
2474.6461180206907
 30
0.0
 41
0.9999927113934937
 10
-744.3142049754905
 20
2474.5247866131613
 30
0.0
 41
1.0
 10
-744.32817340688234
 20
2474.4876696311776
 30
0.0
 41
1.0
 10
-744.3421418382743
 20
2474.4505526491939
 30
0.0
 41
1.0
 10
-744.41573999547074
 20
2474.2549872776763
 30
0.0
 41
0.999948755095321
 10
-744.48536362044069
 20
2474.0579719124971
 30
0.0
 41
1.0
 10
-744.50895723037763
 20
2473.9912086022041
 30
0.0
 41
1.0
 10
-744.53255084031457
 20
2473.9244452919115
 30
0.0
 41
1.0
 10
-744.62723647468215
 20
2473.6565114570958
 30
0.0
 41
0.9999808436942782
 10
-744.71859806332145
 20
2473.3874260258367
 30
0.0
 41
1.0
 10
-744.80995965196632
 20
2473.1183405945621
 30
0.0
 41
0.9999873932907962
 10
-744.89861436068065
 20
2472.8483512395596
 30
0.0
 41
1.0
 10
-744.91870671755009
 20
2472.7871619068064
 30
0.0
 41
1.0
 10
-744.93879907441965
 20
2472.7259725740528
 30
0.0
 41
1.0
 10
-745.06763849688514
 20
2472.3336045535079
 30
0.0
 41
0.9999794883026019
 10
-745.19144128184723
 20
2471.9396183472154
 30
0.0
 41
1.0
 10
-745.2025935412571
 20
2471.9041277370661
 30
0.0
 41
1.0
 10
-745.21374580066697
 20
2471.8686371269173
 30
0.0
 41
1.0
 10
-745.35630396457418
 20
2471.4149643747996
 30
0.0
 41
0.99999827616981
 10
-745.49717640462222
 20
2470.9607653525727
 30
0.0
 41
1.0
 10
-747.08531673719483
 20
2465.9119956215695
 30
0.0
 41
1.0
 10
-748.67345706976744
 20
2460.8632258905664
 30
0.0
 41
1.0
 10
-749.62220768124382
 20
2460.8632258905664
 30
0.0
 41
1.0
 10
-750.57095829272021
 20
2460.8632258905664
 30
0.0
 41
1.0
 10
-747.33267380656707
 20
2471.1905480905125
 30
0.0
 41
1.0
 10
-744.09438932041382
 20
2481.5178702904586
 30
0.0
 41
1.0
  0
LWPOLYLINE
  5
67
100
AcDbEntity
  8
0
370
              15
390
0
  6
Continuous
 62
               7
100
AcDbPolyline
 90
      232
 70
             128
 10
-769.79793509424087
 20
2480.433527458943
 42
0.0004370800706882
 10
-769.85081226829243
 20
2480.3648608197141
 10
-769.89009649944035
 20
2480.3137537067905
 42
0.0030481992167088
 10
-770.02043521655901
 20
2480.1420320144471
 10
-770.05894688830995
 20
2480.0906452306581
 42
0.0042058245753853
 10
-770.26293193897311
 20
2479.8136394855937
 10
-770.31533706148048
 20
2479.7412066388038
 42
0.0120948898745357
 10
-770.61138097824562
 20
2479.3104570342493
 10
-770.70757347736674
 20
2479.1629762990256
 42
0.0141601263947871
 10
-771.01121752428583
 20
2478.6673069622943
 10
-771.05075479171592
 20
2478.5984629948553
 42
0.0071131081297837
 10
-771.25602711495026
 20
2478.2289601960247
 42
0.006845879099772
 10
-771.45090664178394
 20
2477.8538686325674
 10
-771.45771850425103
 20
2477.8403069188248
 42
0.0064120880291161
 10
-771.65586075429599
 20
2477.4328824439049
 10
-771.66339543981235
 20
2477.4168705871848
 42
0.0058857236449592
 10
-771.86615083168567
 20
2476.972494476146
 10
-771.874325757978
 20
2476.9540043225156
 42
0.0053189741892752
 10
-772.08303007064114
 20
2476.4680408486079
 10
-772.09177787632689
 20
2476.4470589704015
 42
0.0047503650420055
 10
-772.30775160247345
 20
2475.9148595372026
 10
-772.31701985082577
 20
2475.8913831610839
 42
0.0042071762172611
 10
-772.54156723455844
 20
2475.3082895670009
 10
-772.55131663690213
 20
2475.2823233921445
 42
0.0036680086485185
 10
-772.78577128020743
 20
2474.6436880076326
 10
-772.795979060062
 20
2474.615239473269
 42
0.0032573142632494
 10
-773.04161134602828
 20
2473.9163868135165
 10
-773.11026186687855
 20
2473.7169237294361
 42
0.002613336665105
 10
-773.45870706562732
 20
2472.6870604457908
 10
-773.52196385313255
 20
2472.4968296103839
 42
0.0020592950742294
 10
-773.73582692209516
 20
2471.8447259577842
 10
-773.73887871326235
 20
2471.8352894693617
 42
0.002560992853409
 10
-773.94069921474409
 20
2471.2001442470091
 10
-773.94329058186679
 20
2471.1918419060817
 42
0.0031362356243726
 10
-774.13278136754775
 20
2470.5710790498888
 10
-774.13491241047734
 20
2470.5639377436705
 42
0.0037229918029843
 10
-774.31171279740147
 20
2469.9549524417034
 10
-774.31339138660974
 20
2469.9490055515225
 42
0.0043077623711696
 10
-774.47713218867295
 20
2469.3491868197602
 42
0.0047654161824068
 10
-774.62996091118464
 20
2468.7465007308751
 10
-774.66442552002809
 20
2468.6049389537079
 42
0.0112969368445184
 10
-774.86028987817292
 20
2467.7132467930774
 10
-774.88829626726829
 20
2467.570418746986
 42
0.0130056762572316
 10
-775.08913351091496
 20
2466.3834776753411
 10
-775.10967326106163
 20
2466.2393995618668
 42
0.0138721532143369
 10
-775.21337626559989
 20
2465.3325700760383
 10
-775.23267175350816
 20
2465.1090723541083
 42
0.0071254697008145
 10
-775.26601839943032
 20
2464.6458853452659
 10
-775.27097937359395
 20
2464.5598813507004
 42
0.0028881799198224
 10
-775.28611766688346
 20
2464.2681396408634
 42
0.0060297297140717
 10
-775.29604986665913
 20
2463.9761907047414
 10
-775.29711214832616
 20
2463.9277983328147
 42
0.0229523164149726
 10
-775.28938112054038
 20
2463.6050434865319
 10
-775.28515534702012
 20
2463.5446399525167
 42
0.0123673300657962
 10
-775.26607670050169
 20
2463.3435192273409
 42
0.0128577674465445
 10
-775.23688131009544
 20
2463.1436213774141
 10
-775.22975543670839
 20
2463.1022925628167
 42
0.0285717853764475
 10
-775.16526143501244
 20
2462.8241764115028
 10
-775.15159291134648
 20
2462.7775216420273
 42
0.031628309916318
 10
-775.03578233143207
 20
2462.4585071402007
 10
-775.03273363967571
 20
2462.4515207678733
 42
0.0338984824245016
 10
-774.88330192870933
 20
2462.163954803686
 10
-774.88099319934054
 20
2462.160163774412
 42
0.0350228718350599
 10
-774.6986329086659
 20
2461.903111789733
 10
-774.69774765688908
 20
2461.902032711967
 42
0.0347476747525676
 10
-774.48332296965077
 20
2461.674847664749
 42
0.0331337701906836
 10
-774.24007964390535
 20
2461.4787190026727
 10
-774.23897954538825
 20
2461.4779462994993
 42
0.0305233319079725
 10
-773.97043484981339
 20
2461.3128181294069
 10
-773.96720480531371
 20
2461.3110941175451
 42
0.0273744481161517
 10
-773.67465109373848
 20
2461.1749559736545
 10
-773.66954655860184
 20
2461.1729123891851
 42
0.0240964406191999
 10
-773.35406948295918
 20
2461.0639286629048
 10
-773.3474861537461
 20
2461.062003923229
 42
0.0209636179817773
 10
-773.01008600109174
 20
2460.9785357752962
 10
-773.00245354064486
 20
2460.9769838622951
 42
0.018138870468917
 10
-772.64413114864874
 20
2460.9175677690814
 10
-772.6358503002682
 20
2460.9165015852641
 42
0.0156086547588742
 10
-772.25766293607023
 20
2460.8797653986867
 10
-772.21446768374847
 20
2460.8769268962083
 42
0.0137148329023547
 10
-771.8867945384535
 20
2460.864406640957
 10
-771.84085834848599
 20
2460.8639122078416
 42
0.0051057823893801
 10
-771.60471276193528
 20
2460.8637819534324
 42
0.0052256693303359
 10
-771.36861547817614
 20
2460.8685307778965
 10
-771.29838869440721
 20
2460.8706777439111
 42
0.0161507179045941
 10
-770.9226516162995
 20
2460.8943281142379
 10
-770.90263865593283
 20
2460.896238309525
 42
0.0101216737830031
 10
-770.48861143444344
 20
2460.9442312398905
 10
-770.45455814501543
 20
2460.9488789367006
 42
0.0245291776394812
 10
-769.97776848946933
 20
2461.0379540147751
 10
-769.89294517394535
 20
2461.058149935121
 42
0.0143509212544538
 10
-769.53631407000069
 20
2461.1539545689011
 42
0.0156557857047647
 10
-769.18609800526394
 20
2461.270965784724
 10
-769.17859679077878
 20
2461.2737359464745
 42
0.0170137333633771
 10
-768.82200079509016
 20
2461.4193935613489
 10
-768.81489687268993
 20
2461.4225813969092
 42
0.0183105364405347
 10
-768.4555472045314
 20
2461.5999164387295
 10
-768.4486004398849
 20
2461.6036668736056
 42
0.019489995815841
 10
-768.09011969889457
 20
2461.8156458555004
 10
-768.08310581956425
 20
2461.8201711977913
 42
0.0204869852951167
 10
-767.72909151746671
 20
2462.0696912128797
 10
-767.72182590888326
 20
2462.0752712782255
 42
0.0212516938548805
 10
-767.37583597777962
 20
2462.3651752751157
 10
-767.32931928370226
 20
2462.4076425852109
 42
0.0215248918246575
 10
-767.0692931148119
 20
2462.6664068642085
 10
-767.02426338042824
 20
2462.7152509855619
 42
0.0114578554958884
 10
-766.86947122675406
 20
2462.8910739190164
 10
-766.85827669076752
 20
2462.9043926825616
 42
0.0061531305138498
 10
-766.73180204477296
 20
2463.0586822158675
 42
0.0006325587122823
 10
-766.60742356057881
 20
2463.2146855915967
 10
-766.58438342556974
 20
2463.2436591122027
 42
0.0041897761551341
 10
-766.41592802156913
 20
2463.4591784883005
 10
-766.35746590170481
 20
2463.5352798352496
 42
0.0092993880040694
 10
-766.08085397448508
 20
2463.9095585991281
 10
-765.99845948128245
 20
2464.0254956027015
 42
0.015932172708661
 10
-765.65185299863981
 20
2464.5476698234579
 10
-765.60749686324493
 20
2464.6193493877172
 42
0.0085547317023022
 10
-765.37298509792504
 20
2465.0132243369326
 42
0.0084601156882363
 10
-765.15200892048824
 20
2465.4148511859544
 10
-765.14389344665256
 20
2465.4302108682377
 42
0.0081429654279827
 10
-764.92064417621611
 20
2465.8699323807768
 10
-764.91178401203103
 20
2465.8881112227982
 42
0.007657458132846
 10
-764.68537650146857
 20
2466.3712940980413
 10
-764.67589686074064
 20
2466.3923585763541
 42
0.0070682724203035
 10
-764.4454519529254
 20
2466.9243958811558
 10
-764.43546166895214
 20
2466.9483850701472
 42
0.006455951444592
 10
-764.20012846077429
 20
2467.5346973366563
 10
-764.18971910260552
 20
2467.5616322621081
 42
0.0058311413906291
 10
-763.94867236584878
 20
2468.2076643564751
 10
-763.9379172884552
 20
2468.2375486976525
 42
0.0052312425821445
 10
-763.6903360104053
 20
2468.9487511115135
 10
-763.67929217403457
 20
2468.9815778235566
 42
0.004668054479366
 10
-763.42436374630643
 20
2469.7634041392912
 10
-763.38237159624782
 20
2469.8963873766311
 42
0.0041666856446673
 10
-763.17908558386148
 20
2470.5593561516089
 10
-763.14142314318713
 20
2470.685937259298
 42
0.0015170975156268
 10
-763.02023656478468
 20
2471.0978056107565
 42
-0.0004887993111349
 10
-762.89989679164501
 20
2471.5099240228551
 10
-762.82341953416653
 20
2471.7708814087396
 42
0.0002583378926776
 10
-762.55020496410123
 20
2472.7049381119218
 10
-762.46843211452119
 20
2472.9850373715167
 42
0.0006636169668702
 10
-762.27456435451427
 20
2473.6523902950885
 10
-762.26946770013092
 20
2473.6700218780943
 42
0.0010589131323262
 10
-762.08801899925061
 20
2474.3027532210176
 10
-762.08303692878201
 20
2474.3202661279956
 42
0.001565552445643
 10
-761.91476672158728
 20
2474.9188828072383
 10
-761.90993652117891
 20
2474.9362749661504
 42
0.0021640440474817
 10
-761.75564654918639
 20
2475.5013019841927
 10
-761.75101232975919
 20
2475.5185667141764
 42
0.0028763871850145
 10
-761.61149661170339
 20
2476.0505346650334
 10
-761.60711074754136
 20
2476.0676586431678
 42
0.0037310511941455
 10
-761.48315405569929
 20
2476.5671062372121
 10
-761.47907883541086
 20
2476.5840665084552
 42
0.0047652197775556
 10
-761.37145493490186
 20
2477.0515442767623
 10
-761.36776433557941
 20
2477.0683038319085
 42
0.0060276699305741
 10
-761.27723423642487
 20
2477.5043796270566
 10
-761.27401554613732
 20
2477.5208808413577
 42
0.0075824337758583
 10
-761.20132623672021
 20
2477.9261480057921
 10
-761.19868085933945
 20
2477.9423029532454
 42
0.0095130624602999
 10
-761.14456562370879
 20
2478.3173923063141
 10
-761.13757939982634
 20
2478.3733258644297
 42
0.012105465323952
 10
-761.11098806924826
 20
2478.6382216929046
 10
-761.11012157948926
 20
2478.6496251358271
 42
0.0069050827382982
 10
-761.09503276145097
 20
2478.8925663626778
 10
-761.09389746178203
 20
2478.9160926197305
 42
0.0169063976716595
 10
-761.09107018280224
 20
2479.1122853470233
 10
-761.09224083433332
 20
2479.1726211083678
 42
0.0052007732909179
 10
-761.09449428292646
 20
2479.2482144985247
 42
0.0054038123284486
 10
-761.11445779476458
 20
2479.3682327945307
 10
-761.11954365063571
 20
2479.396891281116
 42
0.0112050460451505
 10
-761.15492801269409
 20
2479.5732177194541
 10
-761.17275297473498
 20
2479.6527593061755
 42
0.0240764468022487
 10
-761.26365034088144
 20
2479.9829963416778
 10
-761.28220910369396
 20
2480.0396165066691
 42
0.0256812331837526
 10
-761.42557202388411
 20
2480.411340712928
 10
-761.43098144970577
 20
2480.4234720479185
 42
0.026836050121898
 10
-761.60040869055535
 20
2480.7544651819389
 10
-761.60594509818941
 20
2480.7639848522495
 42
0.0274670231724087
 10
-761.79814607460366
 20
2481.0562722271684
 10
-761.80352737456531
 20
2481.0635513747084
 42
0.0275035967099696
 10
-762.01510025412813
 20
2481.3190672650135
 10
-762.02016975509468
 20
2481.3245463526441
 42
0.0269557673521602
 10
-762.24757329853423
 20
2481.5451886386063
 10
-762.25231635631656
 20
2481.5493185930668
 42
0.0259124802217346
 10
-762.49187118774762
 20
2481.7370091202197
 10
-762.49640203293166
 20
2481.7401946225514
 42
0.024516215300288
 10
-762.74431838602436
 20
2481.8969276316602
 10
-762.74884493234958
 20
2481.8994878288618
 42
0.0229282588835245
 10
-763.00126448917592
 20
2482.02735602136
 10
-763.00604498300595
 20
2482.029508321119
 42
0.0212984135693069
 10
-763.25908293547445
 20
2482.1307072383643
 10
-763.26438722044259
 20
2482.1325708011236
 42
0.0197555462344702
 10
-763.51416555816695
 20
2482.2093862190891
 42
0.018351189678483
 10
-763.76909428362342
 20
2482.2669691260535
 10
-763.8554594803569
 20
2482.2831719164406
 42
0.0338057877147793
 10
-764.14096682961338
 20
2482.3169803215801
 10
-764.23197223465434
 20
2482.3215599768419
 42
0.0091990524493668
 10
-764.33781934328931
 20
2482.3249358327635
 42
0.0028333980766608
 10
-764.44373325928132
 20
2482.32576394028
 10
-764.44464871233163
 20
2482.3257659101041
 42
-0.0023619827821903
 10
-764.55239472739311
 20
2482.3265067511825
 10
-764.5887998976134
 20
2482.3269290576459
 42
0.0008824598484276
 10
-764.76935588738831
 20
2482.3287048358834
 10
-764.81321731986918
 20
2482.3290587974097
 42
0.0038132665767983
 10
-765.08150021572771
 20
2482.3291777334762
 10
-765.09803387054149
 20
2482.3290589673325
 42
0.0060665569331152
 10
-765.3993143621293
 20
2482.3232386679124
 10
-765.41356469415814
 20
2482.3227903599445
 42
0.0080356953336238
 10
-765.74302341050213
 20
2482.307122637877
 10
-765.75509342558462
 20
2482.3063540549369
 42
0.0098996399103561
 10
-766.10785651021581
 20
2482.2768688257406
 10
-766.11790221961019
 20
2482.2758285295404
 42
0.0117740981367468
 10
-766.48905907795324
 20
2482.2285362820116
 10
-766.49728177444149
 20
2482.22729116544
 42
0.013743521513648
 10
-766.88187059392487
 20
2482.1581941918785
 10
-766.88852763304999
 20
2482.1568082956446
 42
0.0158359869394796
 10
-767.28152472686349
 20
2482.0619162071612
 10
-767.28693791371961
 20
2482.0604262662937
 42
0.0180554124030335
 10
-767.6832529583362
 20
2481.9357882500535
 10
-767.68780974641538
 20
2481.9341722137888
 42
0.0203657431285194
 10
-768.08228726423067
 20
2481.7759118722706
 10
-768.08643080323407
 20
2481.7740502508304
 42
0.0226819684657484
 10
-768.47386685944105
 20
2481.5784076721579
 10
-768.47806665045584
 20
2481.5760420802399
 42
0.0248634984605645
 10
-768.85324859163336
 20
2481.3394154342955
 10
-768.90144352042262
 20
2481.3055583924661
 42
0.0267044190890728
 10
-769.17573621733754
 20
2481.0901180165993
 42
0.0139303002191748
 10
-769.43190338327884
 20
2480.8528791756844
 10
-769.43675676899727
 20
2480.8481265128266
 42
0.0283460963447556
 10
-769.68082936322537
 20
2480.5803958523807
 10
-769.72049786838102
 20
2480.5315942749085
 42
0.0070695364826187
 10
-769.79793509424087
 20
2480.433527458943
 42
0.0070695364826187
  0
LWPOLYLINE
  5
68
100
AcDbEntity
  8
0
370
              15
390
0
  6
Continuous
 62
               7
100
AcDbPolyline
 90
      226
 70
             128
 10
-773.32675553148727
 20
2464.7119386527593
 42
-0.0026277636635101
 10
-773.32683341528741
 20
2464.7787105784623
 10
-773.32661605705528
 20
2464.8318657959453
 42
-0.0088680296723092
 10
-773.32283944076232
 20
2465.0048815783462
 10
-773.32049308164983
 20
2465.0641616038019
 42
-0.0077381705608033
 10
-773.30444697088615
 20
2465.3554220996084
 10
-773.30357905971357
 20
2465.3677103332857
 42
-0.0068872530526372
 10
-773.27694697996685
 20
2465.6829320853394
 10
-773.27574275577933
 20
2465.6951730643732
 42
-0.0062130021482494
 10
-773.23814903895072
 20
2466.0340427556184
 10
-773.23664513541644
 20
2466.0462166275279
 42
-0.0056726929657814
 10
-773.18772327591307
 20
2466.4084118496489
 10
-773.18594983026969
 20
2466.4205056498868
 42
-0.0052341884493469
 10
-773.12533924400998
 20
2466.805698905403
 10
-773.12332125523312
 20
2466.817703835397
 42
-0.0049768450165649
 10
-773.05058257380347
 20
2467.2255484028474
 10
-773.02633355908495
 20
2467.3540963858359
 42
-0.0089029805624377
 10
-772.88925270728862
 20
2468.0158718332655
 10
-772.85650733197167
 20
2468.1609032637816
 42
-0.0080318257098564
 10
-772.62695871763151
 20
2469.1066128956331
 10
-772.61497379118271
 20
2469.1527435308253
 42
-0.0074265721319926
 10
-772.33096225233066
 20
2470.1828081092131
 10
-772.31108270921584
 20
2470.250942169796
 42
-0.0069711922703271
 10
-771.98377813070942
 20
2471.317209910123
 10
-771.92382618360011
 20
2471.5032312685053
 42
-0.0052070422894797
 10
-771.69440095834466
 20
2472.190503345525
 10
-771.67711976618261
 20
2472.2405306261126
 42
-0.0009167004448317
 10
-771.47402787888291
 20
2472.8249864742966
 42
-0.0025162726942387
 10
-771.26693024861413
 20
2473.4080277384764
 10
-771.22970563680497
 20
2473.511177284392
 42
-0.0028212681457484
 10
-770.9815297178518
 20
2474.1869079165353
 10
-770.97169895510137
 20
2474.2132153612115
 42
-0.003196491682326
 10
-770.73540669743886
 20
2474.8334201233392
 10
-770.72577224344013
 20
2474.858230113482
 42
-0.0036281836452099
 10
-770.50066628233867
 20
2475.4256707943759
 10
-770.49122787217141
 20
2475.4489682259032
 42
-0.0041269166831454
 10
-770.27661017552202
 20
2475.9664091218569
 10
-770.24397721910702
 20
2476.0432875682045
 42
-0.0047472213057851
 10
-770.08693241354763
 20
2476.4037090361012
 10
-770.08003833232817
 20
2476.4191296334584
 42
-0.0025651659989796
 10
-769.93168029848925
 20
2476.7464576891816
 42
-0.0057144635000707
 10
-769.77793060472231
 20
2477.0712673625353
 10
-769.74989989931908
 20
2477.1287757449336
 42
-0.0065388068368023
 10
-769.56643287157692
 20
2477.4930082416031
 10
-769.55797441579375
 20
2477.5092678209817
 42
-0.0074510843022691
 10
-769.38179216992057
 20
2477.8359561020952
 10
-769.37361249939192
 20
2477.8505968793597
 42
-0.0084648979863438
 10
-769.20397864628944
 20
2478.1425058903255
 10
-769.19612251980379
 20
2478.1555128819723
 42
-0.0095638542803424
 10
-769.03228707220717
 20
2478.4154017539549
 10
-769.02481212852865
 20
2478.4267711154207
 42
-0.0107191626788742
 10
-768.86601054814787
 20
2478.6573823499548
 10
-768.8589938144147
 20
2478.6671184423221
 42
-0.0118458573910603
 10
-768.70444571590428
 20
2478.8711906376298
 42
-0.0129184518195977
 10
-768.53999309230142
 20
2479.0673511538012
 10
-768.50984831993821
 20
2479.1014772327007
 42
-0.0217742579642303
 10
-768.33323599760433
 20
2479.2846840029497
 10
-768.32249045315666
 20
2479.2949008361406
 42
-0.0097266568657435
 10
-768.15643283428813
 20
2479.4467484105903
 42
-0.0187720905728139
 10
-767.98208525839937
 20
2479.5888172639789
 10
-767.95137926772156
 20
2479.611976346378
 42
-0.0179428207515868
 10
-767.71895854772833
 20
2479.7745285234873
 10
-767.71530622081241
 20
2479.7768924583752
 42
-0.0170047877697565
 10
-767.47954258328218
 20
2479.9183529725265
 10
-767.47575959453502
 20
2479.9204512775632
 42
-0.0160190788359929
 10
-767.23885104690032
 20
2480.0421025795508
 42
-0.0151102861494231
 10
-766.99481926445014
 20
2480.1487853556068
 10
-766.94243276224188
 20
2480.1698254885
 42
-0.0271945441884047
 10
-766.58377020318835
 20
2480.2916902992047
 10
-766.51470540269565
 20
2480.3110398404724
 42
-0.0237596594026552
 10
-766.09890855567301
 20
2480.4064905524538
 10
-766.03084570195074
 20
2480.418745240579
 42
-0.021371544055848
 10
-765.74497077049728
 20
2480.4576922720908
 10
-765.68482360427515
 20
2480.463281986792
 42
-0.0101465655813867
 10
-765.51733107228517
 20
2480.4754255300554
 10
-765.50799068610525
 20
2480.4759124450516
 42
-0.0100375910893873
 10
-765.35883658552439
 20
2480.4806882629778
 10
-765.34857731583816
 20
2480.4808107019921
 42
-0.0103625633380262
 10
-765.21986932118921
 20
2480.4796792684656
 10
-765.19760366992523
 20
2480.4790219100009
 42
-0.0115689250220539
 10
-765.11355293239433
 20
2480.4745924037557
 42
-0.0072438037429412
 10
-765.02971465293274
 20
2480.467003204004
 10
-765.01291414348236
 20
2480.4652366612822
 42
-0.0217917313118261
 10
-764.89634438016901
 20
2480.4478167685616
 10
-764.83074428960072
 20
2480.4350701601466
 42
-0.0332943556770404
 10
-764.62635212457371
 20
2480.3810298688395
 10
-764.59617955602812
 20
2480.3708617917227
 42
-0.0184824084805119
 10
-764.45767449955815
 20
2480.3184107763345
 42
-0.0198002050704154
 10
-764.32360015906079
 20
2480.2555267161365
 10
-764.32171352168189
 20
2480.2545489292556
 42
-0.0212242342992271
 10
-764.18957457928411
 20
2480.178786190465
 10
-764.18775928373657
 20
2480.1776403882541
 42
-0.0226090605772853
 10
-764.05925538251404
 20
2480.088160744689
 10
-764.05741094077734
 20
2480.0867484917021
 42
-0.0238457052235483
 10
-763.93422885948246
 20
2479.9827525958381
 10
-763.9322761309254
 20
2479.9809377180736
 42
-0.0248160564140712
 10
-763.81607462362467
 20
2479.8616631168647
 10
-763.81397099022274
 20
2479.8592777831605
 42
-0.0254109591461186
 10
-763.70636577235757
 20
2479.7239893971973
 10
-763.70411775044272
 20
2479.7208478487955
 42
-0.0255528488282854
 10
-763.60667107164568
 20
2479.5688207945614
 10
-763.60433997172936
 20
2479.5647391829534
 42
-0.0252146793219858
 10
-763.51855894571918
 20
2479.395236936954
 10
-763.51625670656267
 20
2479.3900548550437
 42
-0.0244265635957146
 10
-763.44360201280119
 20
2479.2023082829974
 10
-763.43435561133276
 20
2479.1744428646598
 42
-0.0231319612890192
 10
-763.38843283234075
 20
2479.0111418178576
 42
-0.0112130424357528
 10
-763.35379680980191
 20
2478.8449382176664
 10
-763.35259428468999
 20
2478.8384416307817
 42
-0.0210527881230574
 10
-763.32690780931944
 20
2478.657385985342
 10
-763.32339721449739
 20
2478.6219804367929
 42
-0.0190029892428718
 10
-763.30795574095271
 20
2478.3684445905196
 10
-763.30714576450873
 20
2478.3329689761517
 42
-0.0137974553663259
 10
-763.30869461734426
 20
2478.007937569419
 10
-763.30954007229991
 20
2477.9818188248241
 42
-0.008133663421753
 10
-763.32439940752238
 20
2477.6764713572261
 42
-0.0073526923575226
 10
-763.34870794089716
 20
2477.3717231129394
 10
-763.34996936467974
 20
2477.3583864382749
 42
-0.0066886138688083
 10
-763.38570495072656
 20
2477.0278003947756
 10
-763.38736204019619
 20
2477.0141787757866
 42
-0.0061359187365572
 10
-763.43521264224421
 20
2476.6574147957067
 10
-763.43725014331994
 20
2476.6435199928574
 42
-0.005669861006318
 10
-763.49790047408817
 20
2476.2602414240114
 10
-763.50030590740994
 20
2476.2460823047886
 42
-0.0052721077273127
 10
-763.57443810820791
 20
2475.83595496512
 10
-763.57720125705134
 20
2475.8215383297247
 42
-0.0049289272174686
 10
-763.66549537515027
 20
2475.3842298186073
 10
-763.66860786983398
 20
2475.3695609657861
 42
-0.0047415956715947
 10
-763.77184586136457
 20
2474.9047642083829
 10
-763.80661407172602
 20
2474.7549571129925
 42
-0.0084404470900698
 10
-763.9966305152974
 20
2473.9947330884634
 10
-764.00275720328352
 20
2473.9718689643082
 42
-0.0039635940259008
 10
-764.22421088756914
 20
2473.1708801000545
 10
-764.23758768274706
 20
2473.1239484834687
 42
-0.0072475040837874
 10
-764.50503457061029
 20
2472.2347287670777
 10
-764.57524689743741
 20
2472.0129884171065
 42
-0.0051345458829505
 10
-764.86200626949642
 20
2471.1386632292952
 10
-764.88353253626065
 20
2471.075236962175
 42
-0.0019150016598446
 10
-765.13906594313062
 20
2470.3316878419391
 10
-765.14553354753161
 20
2470.313100377004
 42
-0.0021524362751301
 10
-765.39401159859062
 20
2469.6087745553095
 10
-765.40322201930599
 20
2469.5830209769551
 42
-0.002433128681548
 10
-765.63947727832306
 20
2468.9324216688901
 10
-765.64852523085892
 20
2468.9078783625755
 42
-0.0027449721787135
 10
-765.87313980170904
 20
2468.3087484836115
 10
-765.88202980909614
 20
2468.2854258937728
 42
-0.0031083229770119
 10
-766.09557229571124
 20
2467.7355018561793
 10
-766.10430842738515
 20
2467.713412140326
 42
-0.0035311343288142
 10
-766.30734961297867
 20
2467.2104290145917
 10
-766.31593495212599
 20
2467.1895862910824
 42
-0.0040245640950998
 10
-766.50904675592074
 20
2466.7312769684891
 10
-766.51748286952068
 20
2466.711697600424
 42
-0.0046015135852322
 10
-766.70123916268756
 20
2466.2957925707747
 10
-766.7095253405181
 20
2466.2774954313177
 42
-0.005276863827042
 10
-766.88450285947147
 20
2465.9017225470525
 10
-766.89263507009537
 20
2465.8847292085156
 42
-0.0060672675646046
 10
-767.05941468286437
 20
2465.5468135853948
 10
-767.06738416334667
 20
2465.5311483263959
 42
-0.0069904648871871
 10
-767.2265525573473
 20
2465.2288125197338
 10
-767.23434395696245
 20
2465.2145019704985
 42
-0.008063702277028
 10
-767.38649581730397
 20
2464.9454666673537
 10
-767.39408484993157
 20
2464.9325388017592
 42
-0.0093006455660983
 10
-767.53982552646676
 20
2464.6945244032495
 10
-767.54717619320911
 20
2464.6830064340784
 42
-0.010706077805188
 10
-767.68712473664891
 20
2464.4737361166972
 10
-767.69418650492923
 20
2464.4636505741305
 42
-0.012272311140449
 10
-767.82898022312656
 20
2464.2808572446424
 10
-767.82930644667999
 20
2464.2804368568336
 42
-0.0141836319633783
 10
-767.97288804965478
 20
2464.1058670990033
 10
-767.97983580530718
 20
2464.0978920987382
 42
-0.0175957477191186
 10
-768.11974197334143
 20
2463.9482712103336
 42
-0.0080466359666425
 10
-768.26720573837781
 20
2463.8059486821767
 10
-768.31324028288907
 20
2463.7629282440912
 42
-0.0269600260395153
 10
-768.56652052886886
 20
2463.5506049855844
 10
-768.63308766517389
 20
2463.5006535709549
 42
-0.017836283975222
 10
-768.87303215482484
 20
2463.3336356447062
 10
-768.8802771258305
 20
2463.3289671324978
 42
-0.0174650732655272
 10
-769.11661332326662
 20
2463.1881061675422
 42
-0.0169240130167223
 10
-769.36207956912585
 20
2463.0638139077637
 10
-769.40806572468205
 20
2463.0424519521976
 42
-0.0318883036847747
 10
-769.75841658030174
 20
2462.9061136426876
 10
-769.82678211546613
 20
2462.8844130222124
 42
-0.02844359099052
 10
-770.20283224175785
 20
2462.7881955867369
 10
-770.23799040225629
 20
2462.7813019909086
 42
-0.024390934101862
 10
-770.55143386317536
 20
2462.7355809598785
 10
-770.60171458994864
 20
2462.7307354129766
 42
-0.0196639292924225
 10
-770.81731016747381
 20
2462.7184871274635
 10
-770.86913423862211
 20
2462.7175838667272
 42
-0.0100501510693554
 10
-770.98155752030152
 20
2462.7178842650796
 10
-771.01321738174079
 20
2462.7186053369674
 42
-0.0019752031165564
 10
-771.0623097183269
 20
2462.7199174971747
 10
-771.06507002152148
 20
2462.7200021890003
 42
0.0065378751900336
 10
-771.10864659630374
 20
2462.7207690802161
 42
-0.0167974694626862
 10
-771.15217741923846
 20
2462.7224289787418
 10
-771.15625675849765
 20
2462.7227219896367
 42
-0.0081283276315003
 10
-771.20781655622545
 20
2462.7272689832735
 10
-771.21955613011482
 20
2462.7284969008529
 42
-0.0126703440186201
 10
-771.29427442591009
 20
2462.7382316919247
 10
-771.31706229358497
 20
2462.7417899478396
 42
-0.0117852088448971
 10
-771.43660127940643
 20
2462.7633529429945
 10
-771.49198173118043
 20
2462.7746964832313
 42
-0.0251774592295974
 10
-771.71882577019232
 20
2462.8331944926658
 10
-771.76354496004399
 20
2462.8471613120014
 42
-0.0146525199891278
 10
-771.94993794757784
 20
2462.911427839198
 42
-0.0166929435866973
 10
-772.13191560370251
 20
2462.9872349722514
 10
-772.13657223497762
 20
2462.9893598728663
 42
-0.0191684358444185
 10
-772.32175586622407
 20
2463.082595956655
 10
-772.3250884519839
 20
2463.0844372042097
 42
-0.022118178181185
 10
-772.50839875588679
 20
2463.1965707025811
 10
-772.51074855989452
 20
2463.1981550005717
 42
-0.0254984685387737
 10
-772.68703871027867
 20
2463.3305661505401
 10
-772.70952085798172
 20
2463.3493184594772
 42
-0.029249264881018
 10
-772.83428979682481
 20
2463.4664112591204
 42
-0.0159048957490725
 10
-772.94812979427593
 20
2463.5944312507208
 10
-772.94944858485428
 20
2463.5960128637398
 42
-0.0343813379561223
 10
-773.05208584647983
 20
2463.7378841895083
 10
-773.08357737784104
 20
2463.7883875816028
 42
-0.0369117275705085
 10
-773.16946987973859
 20
2463.9518648225517
 42
-0.0191751379907052
 10
-773.2366632652961
 20
2464.1242694285593
 10
-773.23842658905505
 20
2464.1293627732325
 42
-0.0378178042227982
 10
-773.28822130783897
 20
2464.3183035493116
 10
-773.29421660356968
 20
2464.3508641675116
 42
-0.0184846046475092
 10
-773.31493380286406
 20
2464.4926169880559
 42
-0.0179866351307514
 10
-773.32526680793774
 20
2464.6355078011393
 10
-773.32532325038346
 20
2464.6370654877492
 42
-0.0085497186138885
 10
-773.32675553148727
 20
2464.7119386527593
 42
-0.0085497186138885
  0
ENDBLK
  5
69
100
AcDbEntity
  8
template
390
0
100
AcDbBlockEnd
  0
BLOCK
  5
6A
100
AcDbEntity
  8
notes
390
0
100
AcDbBlockBegin
  2
グループ-1
 70
               0
 10
0.0
 20
0.0
 30
0.0
  3
グループ-1
  1

  0
LINE
  5
6B
100
AcDbEntity
  8
0
370
               5
390
0
  6
Continuous
 62
               7
100
AcDbLine
 10
-937.8554334617603
 20
4730.6356005229791
 30
0.0
 11
-974.85543346175905
 21
4693.6356005229791
 31
0.0
  0
LINE
  5
6C
100
AcDbEntity
  8
0
370
               5
390
0
  6
Continuous
 62
               7
100
AcDbLine
 10
-957.8554334617595
 20
4730.6356005229791
 30
0.0
 11
-994.85543346175905
 21
4693.6356005229791
 31
0.0
  0
LINE
  5
6D
100
AcDbEntity
  8
0
370
               5
390
0
  6
Continuous
 62
               7
100
AcDbLine
 10
-977.85543346175905
 20
4730.6356005229791
 30
0.0
 11
-1014.855433461759
 21
4693.6356005229791
 31
0.0
  0
ENDBLK
  5
6E
100
AcDbEntity
  8
notes
390
0
100
AcDbBlockEnd
  0
BLOCK
  5
6F
100
AcDbEntity
  8
notes
390
0
100
AcDbBlockBegin
  2
*D5
 70
               1
 10
0.0
 20
0.0
 30
0.0
  3
*D5
  1

  0
LINE
  5
70
100
AcDbEntity
  8
0
370
              -2
390
0
  6
Continuous
 62
               0
100
AcDbLine
 10
-580.00000000000068
 20
-343.08789604217964
 30
0.0
 11
-580.00000000000068
 21
-248.08789604217964
 31
0.0
  0
LINE
  5
71
100
AcDbEntity
  8
0
370
              -2
390
0
  6
Continuous
 62
               0
100
AcDbLine
 10
-340.00000000000068
 20
-343.08789604217964
 30
0.0
 11
-340.00000000000068
 21
-248.08789604217964
 31
0.0
  0
LINE
  5
72
100
AcDbEntity
  8
0
370
              -2
390
0
  6
Continuous
 62
               0
100
AcDbLine
 10
-580.00000000000068
 20
-248.08789604217964
 30
0.0
 11
-340.00000000000068
 21
-248.08789604217964
 31
0.0
  0
CIRCLE
  5
73
102
{ACAD_REACTORS
330
74
102
}
100
AcDbEntity
  8
0
370
              -2
390
0
  6
Continuous
 62
               0
100
AcDbCircle
 10
-580.00000000000068
 20
-248.08789604217964
 30
0.0
 40
4.99969482421875
  0
HATCH
  5
74
100
AcDbEntity
  8
0
370
              -2
390
0
  6
Continuous
 62
               0
100
AcDbHatch
 10
0.0
 20
0.0
 30
0.0
210
0.0
220
0.0
230
1.0
  2
SOLID
 70
               1
 71
               1
 91
        1
 92
        1
 93
        1
 72
               2
 10
-580.00000000000068
 20
-248.08789604217964
 40
4.99969482421875
 50
0.0
 51
360.0
 73
               0
 97
        1
330
73
 75
               0
 76
               1
 98
        1
 10
0.0
 20
0.0
  0
CIRCLE
  5
75
102
{ACAD_REACTORS
330
76
102
}
100
AcDbEntity
  8
0
370
              -2
390
0
  6
Continuous
 62
               0
100
AcDbCircle
 10
-340.00000000000068
 20
-248.08789604217964
 30
0.0
 40
4.99969482421875
  0
HATCH
  5
76
100
AcDbEntity
  8
0
370
              -2
390
0
  6
Continuous
 62
               0
100
AcDbHatch
 10
0.0
 20
0.0
 30
0.0
210
0.0
220
0.0
230
1.0
  2
SOLID
 70
               1
 71
               1
 91
        1
 92
        1
 93
        1
 72
               2
 10
-340.00000000000068
 20
-248.08789604217964
 40
4.99969482421875
 50
0.0
 51
360.0
 73
               0
 97
        1
330
75
 75
               0
 76
               1
 98
        1
 10
0.0
 20
0.0
  0
MTEXT
  5
77
100
AcDbEntity
  8
0
390
0
 62
               0
100
AcDbMText
 10
-483.81250168217616
 20
-214.21027885467947
 30
0.0
 40
24.432617187500004
 41
0.0
 71
               1
 72
               1
  1
240
  7
ＭＳゴシック
 73
               1
 44
0.7828267384257843
  0
POINT
  5
78
100
AcDbEntity
  8
Defpoints
370
               0
390
0
 62
               0
100
AcDbPoint
 10
-340.00000000000068
 20
-368.08789604217964
 30
0.0
  0
POINT
  5
79
100
AcDbEntity
  8
Defpoints
370
               0
390
0
 62
               0
100
AcDbPoint
 10
-580.00000000000068
 20
-368.08789604217964
 30
0.0
  0
POINT
  5
7A
100
AcDbEntity
  8
Defpoints
370
               0
390
0
 62
               0
100
AcDbPoint
 10
-580.00000000000068
 20
-248.08789604217964
 30
0.0
  0
ENDBLK
  5
7B
100
AcDbEntity
  8
notes
390
0
100
AcDbBlockEnd
  0
BLOCK
  5
7C
100
AcDbEntity
  8
notes
390
0
100
AcDbBlockBegin
  2
*D6
 70
               1
 10
0.0
 20
0.0
 30
0.0
  3
*D6
  1

  0
LINE
  5
7D
100
AcDbEntity
  8
0
370
              -2
390
0
  6
Continuous
 62
               0
100
AcDbLine
 10
813.26139948387186
 20
-326.11536844566399
 30
0.0
 11
813.26139948387186
 21
-248.08789604217964
 31
0.0
  0
LINE
  5
7E
100
AcDbEntity
  8
0
370
              -2
390
0
  6
Continuous
 62
               0
100
AcDbLine
 10
733.26139948387572
 20
-323.11586966068944
 30
0.0
 11
733.26139948387572
 21
-248.08789604217964
 31
0.0
  0
LINE
  5
7F
100
AcDbEntity
  8
0
370
              -2
390
0
  6
Continuous
 62
               0
100
AcDbLine
 10
813.26139948387186
 20
-248.08789604217964
 30
0.0
 11
733.26139948387572
 21
-248.08789604217964
 31
0.0
  0
CIRCLE
  5
80
102
{ACAD_REACTORS
330
81
102
}
100
AcDbEntity
  8
0
370
              -2
390
0
  6
Continuous
 62
               0
100
AcDbCircle
 10
813.26139948387186
 20
-248.08789604217964
 30
0.0
 40
4.99969482421875
  0
HATCH
  5
81
100
AcDbEntity
  8
0
370
              -2
390
0
  6
Continuous
 62
               0
100
AcDbHatch
 10
0.0
 20
0.0
 30
0.0
210
0.0
220
0.0
230
1.0
  2
SOLID
 70
               1
 71
               1
 91
        1
 92
        1
 93
        1
 72
               2
 10
813.26139948387186
 20
-248.08789604217964
 40
4.99969482421875
 50
0.0
 51
360.0
 73
               0
 97
        1
330
80
 75
               0
 76
               1
 98
        1
 10
0.0
 20
0.0
  0
CIRCLE
  5
82
102
{ACAD_REACTORS
330
83
102
}
100
AcDbEntity
  8
0
370
              -2
390
0
  6
Continuous
 62
               0
100
AcDbCircle
 10
733.26139948387572
 20
-248.08789604217964
 30
0.0
 40
4.99969482421875
  0
HATCH
  5
83
100
AcDbEntity
  8
0
370
              -2
390
0
  6
Continuous
 62
               0
100
AcDbHatch
 10
0.0
 20
0.0
 30
0.0
210
0.0
220
0.0
230
1.0
  2
SOLID
 70
               1
 71
               1
 91
        1
 92
        1
 93
        1
 72
               2
 10
733.26139948387572
 20
-248.08789604217964
 40
4.99969482421875
 50
0.0
 51
360.0
 73
               0
 97
        1
330
82
 75
               0
 76
               1
 98
        1
 10
0.0
 20
0.0
  0
MTEXT
  5
84
100
AcDbEntity
  8
0
390
0
 62
               0
100
AcDbMText
 10
757.38639948387379
 20
-214.21027885467947
 30
0.0
 40
24.432617187500004
 41
0.0
 71
               1
 72
               1
  1
80
  7
ＭＳゴシック
 73
               1
 44
0.7828267384257843
  0
POINT
  5
85
100
AcDbEntity
  8
Defpoints
370
               0
390
0
 62
               0
100
AcDbPoint
 10
733.26139948387572
 20
-348.11586966068944
 30
0.0
  0
POINT
  5
86
100
AcDbEntity
  8
Defpoints
370
               0
390
0
 62
               0
100
AcDbPoint
 10
813.26139948387186
 20
-351.11536844566399
 30
0.0
  0
POINT
  5
87
100
AcDbEntity
  8
Defpoints
370
               0
390
0
 62
               0
100
AcDbPoint
 10
813.26139948387186
 20
-248.08789604217964
 30
0.0
  0
ENDBLK
  5
88
100
AcDbEntity
  8
notes
390
0
100
AcDbBlockEnd
  0
BLOCK
  5
89
100
AcDbEntity
  8
notes
390
0
100
AcDbBlockBegin
  2
*D7
 70
               1
 10
0.0
 20
0.0
 30
0.0
  3
*D7
  1

  0
LINE
  5
8A
100
AcDbEntity
  8
0
370
              -2
390
0
  6
Continuous
 62
               0
100
AcDbLine
 10
-659.99999999999704
 20
323.84450698570981
 30
0.0
 11
-659.99999999999704
 21
247.83430184137342
 31
0.0
  0
LINE
  5
8B
100
AcDbEntity
  8
0
370
              -2
390
0
  6
Continuous
 62
               0
100
AcDbLine
 10
-260.00000000000205
 20
323.84450698571072
 30
0.0
 11
-260.00000000000205
 21
247.83430184137342
 31
0.0
  0
LINE
  5
8C
100
AcDbEntity
  8
0
370
              -2
390
0
  6
Continuous
 62
               0
100
AcDbLine
 10
-659.99999999999704
 20
247.83430184137342
 30
0.0
 11
-260.00000000000205
 21
247.83430184137342
 31
0.0
  0
CIRCLE
  5
8D
102
{ACAD_REACTORS
330
8E
102
}
100
AcDbEntity
  8
0
370
              -2
390
0
  6
Continuous
 62
               0
100
AcDbCircle
 10
-659.99999999999704
 20
247.83430184137342
 30
0.0
 40
4.99969482421875
  0
HATCH
  5
8E
100
AcDbEntity
  8
0
370
              -2
390
0
  6
Continuous
 62
               0
100
AcDbHatch
 10
0.0
 20
0.0
 30
0.0
210
0.0
220
0.0
230
1.0
  2
SOLID
 70
               1
 71
               1
 91
        1
 92
        1
 93
        1
 72
               2
 10
-659.99999999999704
 20
247.83430184137342
 40
4.99969482421875
 50
0.0
 51
360.0
 73
               0
 97
        1
330
8D
 75
               0
 76
               1
 98
        1
 10
0.0
 20
0.0
  0
CIRCLE
  5
8F
102
{ACAD_REACTORS
330
90
102
}
100
AcDbEntity
  8
0
370
              -2
390
0
  6
Continuous
 62
               0
100
AcDbCircle
 10
-260.00000000000205
 20
247.83430184137342
 30
0.0
 40
4.99969482421875
  0
HATCH
  5
90
100
AcDbEntity
  8
0
370
              -2
390
0
  6
Continuous
 62
               0
100
AcDbHatch
 10
0.0
 20
0.0
 30
0.0
210
0.0
220
0.0
230
1.0
  2
SOLID
 70
               1
 71
               1
 91
        1
 92
        1
 93
        1
 72
               2
 10
-260.00000000000205
 20
247.83430184137342
 40
4.99969482421875
 50
0.0
 51
360.0
 73
               0
 97
        1
330
8F
 75
               0
 76
               1
 98
        1
 10
0.0
 20
0.0
  0
MTEXT
  5
91
100
AcDbEntity
  8
0
390
0
 62
               0
100
AcDbMText
 10
-483.81250168217525
 20
281.71191902887313
 30
0.0
 40
24.432617187500004
 41
0.0
 71
               1
 72
               1
  1
400
  7
ＭＳゴシック
 73
               1
 44
0.7828267384257843
  0
POINT
  5
92
100
AcDbEntity
  8
Defpoints
370
               0
390
0
 62
               0
100
AcDbPoint
 10
-260.00000000000205
 20
348.84450698571072
 30
0.0
  0
POINT
  5
93
100
AcDbEntity
  8
Defpoints
370
               0
390
0
 62
               0
100
AcDbPoint
 10
-659.99999999999704
 20
348.84450698570981
 30
0.0
  0
POINT
  5
94
100
AcDbEntity
  8
Defpoints
370
               0
390
0
 62
               0
100
AcDbPoint
 10
-659.99999999999704
 20
247.83430184137342
 30
0.0
  0
ENDBLK
  5
95
100
AcDbEntity
  8
notes
390
0
100
AcDbBlockEnd
  0
BLOCK
  5
96
100
AcDbEntity
  8
notes
390
0
100
AcDbBlockBegin
  2
*D8
 70
               1
 10
0.0
 20
0.0
 30
0.0
  3
*D8
  1

  0
LINE
  5
97
100
AcDbEntity
  8
0
370
              -2
390
0
  6
Continuous
 62
               0
100
AcDbLine
 10
526.91390034067967
 20
-348.09548172513223
 30
0.0
 11
538.91390034067967
 21
-348.09548172513223
 31
0.0
  0
LINE
  5
98
100
AcDbEntity
  8
0
370
              -2
390
0
  6
Continuous
 62
               0
100
AcDbLine
 10
526.91390034067967
 20
-448.09548172513223
 30
0.0
 11
538.91390034067967
 21
-448.09548172513223
 31
0.0
  0
LINE
  5
99
100
AcDbEntity
  8
0
370
              -2
390
0
  6
Continuous
 62
               0
100
AcDbLine
 10
538.91390034067967
 20
-348.09548172513223
 30
0.0
 11
538.91390034067967
 21
-201.4245841778752
 31
0.0
  0
LINE
  5
9A
100
AcDbEntity
  8
0
370
              -2
390
0
  6
Continuous
 62
               0
100
AcDbLine
 10
538.91390034067967
 20
-348.09548172513223
 30
0.0
 11
538.91390034067967
 21
-448.09548172513223
 31
0.0
  0
CIRCLE
  5
9B
102
{ACAD_REACTORS
330
9C
102
}
100
AcDbEntity
  8
0
370
              -2
390
0
  6
Continuous
 62
               0
100
AcDbCircle
 10
538.91390034067967
 20
-348.09548172513223
 30
0.0
 40
4.99969482421875
  0
HATCH
  5
9C
100
AcDbEntity
  8
0
370
              -2
390
0
  6
Continuous
 62
               0
100
AcDbHatch
 10
0.0
 20
0.0
 30
0.0
210
0.0
220
0.0
230
1.0
  2
SOLID
 70
               1
 71
               1
 91
        1
 92
        1
 93
        1
 72
               2
 10
538.91390034067967
 20
-348.09548172513223
 40
4.99969482421875
 50
0.0
 51
360.0
 73
               0
 97
        1
330
9B
 75
               0
 76
               1
 98
        1
 10
0.0
 20
0.0
  0
CIRCLE
  5
9D
102
{ACAD_REACTORS
330
9E
102
}
100
AcDbEntity
  8
0
370
              -2
390
0
  6
Continuous
 62
               0
100
AcDbCircle
 10
538.91390034067967
 20
-448.09548172513223
 30
0.0
 40
4.99969482421875
  0
HATCH
  5
9E
100
AcDbEntity
  8
0
370
              -2
390
0
  6
Continuous
 62
               0
100
AcDbHatch
 10
0.0
 20
0.0
 30
0.0
210
0.0
220
0.0
230
1.0
  2
SOLID
 70
               1
 71
               1
 91
        1
 92
        1
 93
        1
 72
               2
 10
538.91390034067967
 20
-448.09548172513223
 40
4.99969482421875
 50
0.0
 51
360.0
 73
               0
 97
        1
330
9D
 75
               0
 76
               1
 98
        1
 10
0.0
 20
0.0
  0
MTEXT
  5
9F
100
AcDbEntity
  8
0
390
0
 62
               0
100
AcDbMText
 10
505.03628315317974
 20
-344.2995841778752
 30
0.0
 40
24.432617187500004
 41
0.0
 71
               1
 72
               1
  1
100(深さ)
  7
ＭＳゴシック
 11
0.0
 21
1.0
 31
0.0
 73
               1
 44
0.7828267384257843
  0
POINT
  5
A0
100
AcDbEntity
  8
Defpoints
370
               0
390
0
 62
               0
100
AcDbPoint
 10
551.91390034067967
 20
-448.09548172513223
 30
0.0
  0
POINT
  5
A1
100
AcDbEntity
  8
Defpoints
370
               0
390
0
 62
               0
100
AcDbPoint
 10
551.91390034067967
 20
-348.09548172513223
 30
0.0
  0
POINT
  5
A2
100
AcDbEntity
  8
Defpoints
370
               0
390
0
 62
               0
100
AcDbPoint
 10
538.91390034067967
 20
-348.09548172513223
 30
0.0
  0
ENDBLK
  5
A3
100
AcDbEntity
  8
notes
390
0
100
AcDbBlockEnd
  0
BLOCK
  5
A4
100
AcDbEntity
  8
notes
390
0
100
AcDbBlockBegin
  2
*D9
 70
               1
 10
0.0
 20
0.0
 30
0.0
  3
*D9
  1

  0
LINE
  5
A5
100
AcDbEntity
  8
0
370
              -2
390
0
  6
Continuous
 62
               0
100
AcDbLine
 10
654.48916580985792
 20
392.83430184137342
 30
0.0
 11
654.48916580985792
 21
247.83430184137342
 31
0.0
  0
LINE
  5
A6
100
AcDbEntity
  8
0
370
              -2
390
0
  6
Continuous
 62
               0
100
AcDbLine
 10
254.48916580985792
 20
392.83430184137342
 30
0.0
 11
254.48916580985792
 21
247.83430184137342
 31
0.0
  0
LINE
  5
A7
100
AcDbEntity
  8
0
370
              -2
390
0
  6
Continuous
 62
               0
100
AcDbLine
 10
654.48916580985792
 20
247.83430184137342
 30
0.0
 11
254.48916580985792
 21
247.83430184137342
 31
0.0
  0
CIRCLE
  5
A8
102
{ACAD_REACTORS
330
A9
102
}
100
AcDbEntity
  8
0
370
              -2
390
0
  6
Continuous
 62
               0
100
AcDbCircle
 10
654.48916580985792
 20
247.83430184137342
 30
0.0
 40
4.99969482421875
  0
HATCH
  5
A9
100
AcDbEntity
  8
0
370
              -2
390
0
  6
Continuous
 62
               0
100
AcDbHatch
 10
0.0
 20
0.0
 30
0.0
210
0.0
220
0.0
230
1.0
  2
SOLID
 70
               1
 71
               1
 91
        1
 92
        1
 93
        1
 72
               2
 10
654.48916580985792
 20
247.83430184137342
 40
4.99969482421875
 50
0.0
 51
360.0
 73
               0
 97
        1
330
A8
 75
               0
 76
               1
 98
        1
 10
0.0
 20
0.0
  0
CIRCLE
  5
AA
102
{ACAD_REACTORS
330
AB
102
}
100
AcDbEntity
  8
0
370
              -2
390
0
  6
Continuous
 62
               0
100
AcDbCircle
 10
254.48916580985792
 20
247.83430184137342
 30
0.0
 40
4.99969482421875
  0
HATCH
  5
AB
100
AcDbEntity
  8
0
370
              -2
390
0
  6
Continuous
 62
               0
100
AcDbHatch
 10
0.0
 20
0.0
 30
0.0
210
0.0
220
0.0
230
1.0
  2
SOLID
 70
               1
 71
               1
 91
        1
 92
        1
 93
        1
 72
               2
 10
254.48916580985792
 20
247.83430184137342
 40
4.99969482421875
 50
0.0
 51
360.0
 73
               0
 97
        1
330
AA
 75
               0
 76
               1
 98
        1
 10
0.0
 20
0.0
  0
MTEXT
  5
AC
100
AcDbEntity
  8
0
390
0
 62
               0
100
AcDbMText
 10
430.67666412768244
 20
281.71191902887313
 30
0.0
 40
24.432617187500004
 41
0.0
 71
               1
 72
               1
  1
400
  7
ＭＳゴシック
 73
               1
 44
0.7828267384257843
  0
POINT
  5
AD
100
AcDbEntity
  8
Defpoints
370
               0
390
0
 62
               0
100
AcDbPoint
 10
254.48916580985792
 20
417.83430184137342
 30
0.0
  0
POINT
  5
AE
100
AcDbEntity
  8
Defpoints
370
               0
390
0
 62
               0
100
AcDbPoint
 10
654.48916580985792
 20
417.83430184137342
 30
0.0
  0
POINT
  5
AF
100
AcDbEntity
  8
Defpoints
370
               0
390
0
 62
               0
100
AcDbPoint
 10
654.48916580985792
 20
247.83430184137342
 30
0.0
  0
ENDBLK
  5
B0
100
AcDbEntity
  8
notes
390
0
100
AcDbBlockEnd
  0
BLOCK
  5
B1
100
AcDbEntity
  8
notes
390
0
100
AcDbBlockBegin
  2
*D10
 70
               1
 10
0.0
 20
0.0
 30
0.0
  3
*D10
  1

  0
LINE
  5
B2
100
AcDbEntity
  8
0
370
              -2
390
0
  6
Continuous
 62
               0
100
AcDbLine
 10
-742.00000000000068
 20
867.83430184137342
 30
0.0
 11
-820.00000000000068
 21
867.83430184137342
 31
0.0
  0
LINE
  5
B3
100
AcDbEntity
  8
0
370
              -2
390
0
  6
Continuous
 62
               0
100
AcDbLine
 10
-745.00000000000068
 20
717.83168877476328
 30
0.0
 11
-820.00000000000068
 21
717.83168877476328
 31
0.0
  0
LINE
  5
B4
100
AcDbEntity
  8
0
370
              -2
390
0
  6
Continuous
 62
               0
100
AcDbLine
 10
-820.00000000000068
 20
867.83430184137342
 30
0.0
 11
-820.00000000000068
 21
717.83168877476328
 31
0.0
  0
CIRCLE
  5
B5
102
{ACAD_REACTORS
330
B6
102
}
100
AcDbEntity
  8
0
370
              -2
390
0
  6
Continuous
 62
               0
100
AcDbCircle
 10
-820.00000000000068
 20
867.83430184137342
 30
0.0
 40
4.99969482421875
  0
HATCH
  5
B6
100
AcDbEntity
  8
0
370
              -2
390
0
  6
Continuous
 62
               0
100
AcDbHatch
 10
0.0
 20
0.0
 30
0.0
210
0.0
220
0.0
230
1.0
  2
SOLID
 70
               1
 71
               1
 91
        1
 92
        1
 93
        1
 72
               2
 10
-820.00000000000068
 20
867.83430184137342
 40
4.99969482421875
 50
0.0
 51
360.0
 73
               0
 97
        1
330
B5
 75
               0
 76
               1
 98
        1
 10
0.0
 20
0.0
  0
CIRCLE
  5
B7
102
{ACAD_REACTORS
330
B8
102
}
100
AcDbEntity
  8
0
370
              -2
390
0
  6
Continuous
 62
               0
100
AcDbCircle
 10
-820.00000000000068
 20
717.83168877476328
 30
0.0
 40
4.99969482421875
  0
HATCH
  5
B8
100
AcDbEntity
  8
0
370
              -2
390
0
  6
Continuous
 62
               0
100
AcDbHatch
 10
0.0
 20
0.0
 30
0.0
210
0.0
220
0.0
230
1.0
  2
SOLID
 70
               1
 71
               1
 91
        1
 92
        1
 93
        1
 72
               2
 10
-820.00000000000068
 20
717.83168877476328
 40
4.99969482421875
 50
0.0
 51
360.0
 73
               0
 97
        1
330
B7
 75
               0
 76
               1
 98
        1
 10
0.0
 20
0.0
  0
MTEXT
  5
B9
100
AcDbEntity
  8
0
390
0
 62
               0
100
AcDbMText
 10
-853.87761718750085
 20
769.02049362589241
 30
0.0
 40
24.432617187500004
 41
0.0
 71
               1
 72
               1
  1
150
  7
ＭＳゴシック
 11
0.0
 21
1.0
 31
0.0
 73
               1
 44
0.7828267384257843
  0
POINT
  5
BA
100
AcDbEntity
  8
Defpoints
370
               0
390
0
 62
               0
100
AcDbPoint
 10
-720.00000000000068
 20
717.83168877476328
 30
0.0
  0
POINT
  5
BB
100
AcDbEntity
  8
Defpoints
370
               0
390
0
 62
               0
100
AcDbPoint
 10
-717.00000000000068
 20
867.83430184137342
 30
0.0
  0
POINT
  5
BC
100
AcDbEntity
  8
Defpoints
370
               0
390
0
 62
               0
100
AcDbPoint
 10
-820.00000000000068
 20
867.83430184137342
 30
0.0
  0
ENDBLK
  5
BD
100
AcDbEntity
  8
notes
390
0
100
AcDbBlockEnd
  0
BLOCK
  5
BE
100
AcDbEntity
  8
notes
390
0
100
AcDbBlockBegin
  2
*D11
 70
               1
 10
0.0
 20
0.0
 30
0.0
  3
*D11
  1

  0
LINE
  5
BF
100
AcDbEntity
  8
0
370
              -2
390
0
  6
Continuous
 62
               0
100
AcDbLine
 10
-745.00000000000068
 20
717.83168877476328
 30
0.0
 11
-820.00000000000068
 21
717.83168877476328
 31
0.0
  0
LINE
  5
C0
100
AcDbEntity
  8
0
370
              -2
390
0
  6
Continuous
 62
               0
100
AcDbLine
 10
-745.00000000000068
 20
407.83430184137342
 30
0.0
 11
-820.00000000000068
 21
407.83430184137342
 31
0.0
  0
LINE
  5
C1
100
AcDbEntity
  8
0
370
              -2
390
0
  6
Continuous
 62
               0
100
AcDbLine
 10
-820.00000000000068
 20
717.83168877476328
 30
0.0
 11
-820.00000000000068
 21
407.83430184137342
 31
0.0
  0
CIRCLE
  5
C2
102
{ACAD_REACTORS
330
C3
102
}
100
AcDbEntity
  8
0
370
              -2
390
0
  6
Continuous
 62
               0
100
AcDbCircle
 10
-820.00000000000068
 20
717.83168877476328
 30
0.0
 40
4.99969482421875
  0
HATCH
  5
C3
100
AcDbEntity
  8
0
370
              -2
390
0
  6
Continuous
 62
               0
100
AcDbHatch
 10
0.0
 20
0.0
 30
0.0
210
0.0
220
0.0
230
1.0
  2
SOLID
 70
               1
 71
               1
 91
        1
 92
        1
 93
        1
 72
               2
 10
-820.00000000000068
 20
717.83168877476328
 40
4.99969482421875
 50
0.0
 51
360.0
 73
               0
 97
        1
330
C2
 75
               0
 76
               1
 98
        1
 10
0.0
 20
0.0
  0
CIRCLE
  5
C4
102
{ACAD_REACTORS
330
C5
102
}
100
AcDbEntity
  8
0
370
              -2
390
0
  6
Continuous
 62
               0
100
AcDbCircle
 10
-820.00000000000068
 20
407.83430184137342
 30
0.0
 40
4.99969482421875
  0
HATCH
  5
C5
100
AcDbEntity
  8
0
370
              -2
390
0
  6
Continuous
 62
               0
100
AcDbHatch
 10
0.0
 20
0.0
 30
0.0
210
0.0
220
0.0
230
1.0
  2
SOLID
 70
               1
 71
               1
 91
        1
 92
        1
 93
        1
 72
               2
 10
-820.00000000000068
 20
407.83430184137342
 40
4.99969482421875
 50
0.0
 51
360.0
 73
               0
 97
        1
330
C4
 75
               0
 76
               1
 98
        1
 10
0.0
 20
0.0
  0
MTEXT
  5
C6
100
AcDbEntity
  8
0
390
0
 62
               0
100
AcDbMText
 10
-853.87761718750085
 20
539.02049362589241
 30
0.0
 40
24.432617187500004
 41
0.0
 71
               1
 72
               1
  1
310
  7
ＭＳゴシック
 11
0.0
 21
1.0
 31
0.0
 73
               1
 44
0.7828267384257843
  0
POINT
  5
C7
100
AcDbEntity
  8
Defpoints
370
               0
390
0
 62
               0
100
AcDbPoint
 10
-720.00000000000068
 20
407.83430184137342
 30
0.0
  0
POINT
  5
C8
100
AcDbEntity
  8
Defpoints
370
               0
390
0
 62
               0
100
AcDbPoint
 10
-720.00000000000068
 20
717.83168877476328
 30
0.0
  0
POINT
  5
C9
100
AcDbEntity
  8
Defpoints
370
               0
390
0
 62
               0
100
AcDbPoint
 10
-820.00000000000068
 20
717.83168877476328
 30
0.0
  0
ENDBLK
  5
CA
100
AcDbEntity
  8
notes
390
0
100
AcDbBlockEnd
  0
BLOCK
  5
CB
100
AcDbEntity
  8
notes
390
0
100
AcDbBlockBegin
  2
*D12
 70
               1
 10
0.0
 20
0.0
 30
0.0
  3
*D12
  1

  0
LINE
  5
CC
100
AcDbEntity
  8
0
370
              -2
390
0
  6
Continuous
 62
               0
100
AcDbLine
 10
-655.00207382547865
 20
-388.08789604217964
 30
0.0
 11
-820.00000000000068
 21
-388.08789604217964
 31
0.0
  0
LINE
  5
CD
100
AcDbEntity
  8
0
370
              -2
390
0
  6
Continuous
 62
               0
100
AcDbLine
 10
-742.00000000000068
 20
-348.08789604217964
 30
0.0
 11
-820.00000000000068
 21
-348.08789604217964
 31
0.0
  0
LINE
  5
CE
100
AcDbEntity
  8
0
370
              -2
390
0
  6
Continuous
 62
               0
100
AcDbLine
 10
-820.00000000000068
 20
-388.08789604217964
 30
0.0
 11
-820.00000000000068
 21
-348.08789604217964
 31
0.0
  0
CIRCLE
  5
CF
102
{ACAD_REACTORS
330
D0
102
}
100
AcDbEntity
  8
0
370
              -2
390
0
  6
Continuous
 62
               0
100
AcDbCircle
 10
-820.00000000000068
 20
-388.08789604217964
 30
0.0
 40
4.99969482421875
  0
HATCH
  5
D0
100
AcDbEntity
  8
0
370
              -2
390
0
  6
Continuous
 62
               0
100
AcDbHatch
 10
0.0
 20
0.0
 30
0.0
210
0.0
220
0.0
230
1.0
  2
SOLID
 70
               1
 71
               1
 91
        1
 92
        1
 93
        1
 72
               2
 10
-820.00000000000068
 20
-388.08789604217964
 40
4.99969482421875
 50
0.0
 51
360.0
 73
               0
 97
        1
330
CF
 75
               0
 76
               1
 98
        1
 10
0.0
 20
0.0
  0
CIRCLE
  5
D1
102
{ACAD_REACTORS
330
D2
102
}
100
AcDbEntity
  8
0
370
              -2
390
0
  6
Continuous
 62
               0
100
AcDbCircle
 10
-820.00000000000068
 20
-348.08789604217964
 30
0.0
 40
4.99969482421875
  0
HATCH
  5
D2
100
AcDbEntity
  8
0
370
              -2
390
0
  6
Continuous
 62
               0
100
AcDbHatch
 10
0.0
 20
0.0
 30
0.0
210
0.0
220
0.0
230
1.0
  2
SOLID
 70
               1
 71
               1
 91
        1
 92
        1
 93
        1
 72
               2
 10
-820.00000000000068
 20
-348.08789604217964
 40
4.99969482421875
 50
0.0
 51
360.0
 73
               0
 97
        1
330
D1
 75
               0
 76
               1
 98
        1
 10
0.0
 20
0.0
  0
MTEXT
  5
D3
100
AcDbEntity
  8
0
390
0
 62
               0
100
AcDbMText
 10
-853.87761718750085
 20
-383.96289604217964
 30
0.0
 40
24.432617187500004
 41
0.0
 71
               1
 72
               1
  1
40
  7
ＭＳゴシック
 11
0.0
 21
1.0
 31
0.0
 73
               1
 44
0.7828267384257843
  0
POINT
  5
D4
100
AcDbEntity
  8
Defpoints
370
               0
390
0
 62
               0
100
AcDbPoint
 10
-717.00000000000068
 20
-348.08789604217964
 30
0.0
  0
POINT
  5
D5
100
AcDbEntity
  8
Defpoints
370
               0
390
0
 62
               0
100
AcDbPoint
 10
-630.00207382547865
 20
-388.08789604217964
 30
0.0
  0
POINT
  5
D6
100
AcDbEntity
  8
Defpoints
370
               0
390
0
 62
               0
100
AcDbPoint
 10
-820.00000000000068
 20
-388.08789604217964
 30
0.0
  0
ENDBLK
  5
D7
100
AcDbEntity
  8
notes
390
0
100
AcDbBlockEnd
  0
BLOCK
  5
D8
100
AcDbEntity
  8
notes
390
0
100
AcDbBlockBegin
  2
*D13
 70
               1
 10
0.0
 20
0.0
 30
0.0
  3
*D13
  1

  0
LINE
  5
D9
100
AcDbEntity
  8
0
370
              -2
390
0
  6
Continuous
 62
               0
100
AcDbLine
 10
-225.0
 20
347.83430184137342
 30
0.0
 11
-100.0
 21
347.83430184137342
 31
0.0
  0
LINE
  5
DA
100
AcDbEntity
  8
0
370
              -2
390
0
  6
Continuous
 62
               0
100
AcDbLine
 10
-178.0
 20
867.83430184137342
 30
0.0
 11
-100.0
 21
867.83430184137342
 31
0.0
  0
LINE
  5
DB
100
AcDbEntity
  8
0
370
              -2
390
0
  6
Continuous
 62
               0
100
AcDbLine
 10
-100.0
 20
347.83430184137342
 30
0.0
 11
-100.0
 21
867.83430184137342
 31
0.0
  0
CIRCLE
  5
DC
102
{ACAD_REACTORS
330
DD
102
}
100
AcDbEntity
  8
0
370
              -2
390
0
  6
Continuous
 62
               0
100
AcDbCircle
 10
-100.0
 20
347.83430184137342
 30
0.0
 40
4.99969482421875
  0
HATCH
  5
DD
100
AcDbEntity
  8
0
370
              -2
390
0
  6
Continuous
 62
               0
100
AcDbHatch
 10
0.0
 20
0.0
 30
0.0
210
0.0
220
0.0
230
1.0
  2
SOLID
 70
               1
 71
               1
 91
        1
 92
        1
 93
        1
 72
               2
 10
-100.0
 20
347.83430184137342
 40
4.99969482421875
 50
0.0
 51
360.0
 73
               0
 97
        1
330
DC
 75
               0
 76
               1
 98
        1
 10
0.0
 20
0.0
  0
CIRCLE
  5
DE
102
{ACAD_REACTORS
330
DF
102
}
100
AcDbEntity
  8
0
370
              -2
390
0
  6
Continuous
 62
               0
100
AcDbCircle
 10
-100.0
 20
867.83430184137342
 30
0.0
 40
4.99969482421875
  0
HATCH
  5
DF
100
AcDbEntity
  8
0
370
              -2
390
0
  6
Continuous
 62
               0
100
AcDbHatch
 10
0.0
 20
0.0
 30
0.0
210
0.0
220
0.0
230
1.0
  2
SOLID
 70
               1
 71
               1
 91
        1
 92
        1
 93
        1
 72
               2
 10
-100.0
 20
867.83430184137342
 40
4.99969482421875
 50
0.0
 51
360.0
 73
               0
 97
        1
330
DE
 75
               0
 76
               1
 98
        1
 10
0.0
 20
0.0
  0
MTEXT
  5
E0
100
AcDbEntity
  8
0
390
0
 62
               0
100
AcDbMText
 10
-133.87761718749994
 20
584.02180015919748
 30
0.0
 40
24.432617187500004
 41
0.0
 71
               1
 72
               1
  1
520
  7
ＭＳゴシック
 11
0.0
 21
1.0
 31
0.0
 73
               1
 44
0.7828267384257843
  0
POINT
  5
E1
100
AcDbEntity
  8
Defpoints
370
               0
390
0
 62
               0
100
AcDbPoint
 10
-203.0
 20
867.83430184137342
 30
0.0
  0
POINT
  5
E2
100
AcDbEntity
  8
Defpoints
370
               0
390
0
 62
               0
100
AcDbPoint
 10
-250.0
 20
347.83430184137342
 30
0.0
  0
POINT
  5
E3
100
AcDbEntity
  8
Defpoints
370
               0
390
0
 62
               0
100
AcDbPoint
 10
-100.0
 20
347.83430184137342
 30
0.0
  0
ENDBLK
  5
E4
100
AcDbEntity
  8
notes
390
0
100
AcDbBlockEnd
  0
BLOCK
  5
E5
100
AcDbEntity
  8
notes
390
0
100
AcDbBlockBegin
  2
*D14
 70
               1
 10
0.0
 20
0.0
 30
0.0
  3
*D14
  1

  0
LINE
  5
E6
100
AcDbEntity
  8
0
370
              -2
390
0
  6
Continuous
 62
               0
100
AcDbLine
 10
-179.45029479262075
 20
-348.08789604217964
 30
0.0
 11
-100.00000000000068
 21
-348.08789604217964
 31
0.0
  0
LINE
  5
E7
100
AcDbEntity
  8
0
370
              -2
390
0
  6
Continuous
 62
               0
100
AcDbLine
 10
-315.00207382547887
 20
-508.08789604217964
 30
0.0
 11
-100.00000000000068
 21
-508.08789604217964
 31
0.0
  0
LINE
  5
E8
100
AcDbEntity
  8
0
370
              -2
390
0
  6
Continuous
 62
               0
100
AcDbLine
 10
-100.00000000000068
 20
-348.08789604217964
 30
0.0
 11
-100.00000000000068
 21
-508.08789604217964
 31
0.0
  0
CIRCLE
  5
E9
102
{ACAD_REACTORS
330
EA
102
}
100
AcDbEntity
  8
0
370
              -2
390
0
  6
Continuous
 62
               0
100
AcDbCircle
 10
-100.00000000000068
 20
-348.08789604217964
 30
0.0
 40
4.99969482421875
  0
HATCH
  5
EA
100
AcDbEntity
  8
0
370
              -2
390
0
  6
Continuous
 62
               0
100
AcDbHatch
 10
0.0
 20
0.0
 30
0.0
210
0.0
220
0.0
230
1.0
  2
SOLID
 70
               1
 71
               1
 91
        1
 92
        1
 93
        1
 72
               2
 10
-100.00000000000068
 20
-348.08789604217964
 40
4.99969482421875
 50
0.0
 51
360.0
 73
               0
 97
        1
330
E9
 75
               0
 76
               1
 98
        1
 10
0.0
 20
0.0
  0
CIRCLE
  5
EB
102
{ACAD_REACTORS
330
EC
102
}
100
AcDbEntity
  8
0
370
              -2
390
0
  6
Continuous
 62
               0
100
AcDbCircle
 10
-100.00000000000068
 20
-508.08789604217964
 30
0.0
 40
4.99969482421875
  0
HATCH
  5
EC
100
AcDbEntity
  8
0
370
              -2
390
0
  6
Continuous
 62
               0
100
AcDbHatch
 10
0.0
 20
0.0
 30
0.0
210
0.0
220
0.0
230
1.0
  2
SOLID
 70
               1
 71
               1
 91
        1
 92
        1
 93
        1
 72
               2
 10
-100.00000000000068
 20
-508.08789604217964
 40
4.99969482421875
 50
0.0
 51
360.0
 73
               0
 97
        1
330
EB
 75
               0
 76
               1
 98
        1
 10
0.0
 20
0.0
  0
MTEXT
  5
ED
100
AcDbEntity
  8
0
390
0
 62
               0
100
AcDbMText
 10
-133.87761718750062
 20
-451.90039772435512
 30
0.0
 40
24.432617187500004
 41
0.0
 71
               1
 72
               1
  1
160
  7
ＭＳゴシック
 11
0.0
 21
1.0
 31
0.0
 73
               1
 44
0.7828267384257843
  0
POINT
  5
EE
100
AcDbEntity
  8
Defpoints
370
               0
390
0
 62
               0
100
AcDbPoint
 10
-340.00207382547887
 20
-508.08789604217964
 30
0.0
  0
POINT
  5
EF
100
AcDbEntity
  8
Defpoints
370
               0
390
0
 62
               0
100
AcDbPoint
 10
-204.45029479262075
 20
-348.08789604217964
 30
0.0
  0
POINT
  5
F0
100
AcDbEntity
  8
Defpoints
370
               0
390
0
 62
               0
100
AcDbPoint
 10
-100.00000000000068
 20
-348.08789604217964
 30
0.0
  0
ENDBLK
  5
F1
100
AcDbEntity
  8
notes
390
0
100
AcDbBlockEnd
  0
BLOCK
  5
F2
100
AcDbEntity
  8
notes
390
0
100
AcDbBlockBegin
  2
*D15
 70
               1
 10
0.0
 20
0.0
 30
0.0
  3
*D15
  1

  0
LINE
  5
F3
100
AcDbEntity
  8
0
370
              -2
390
0
  6
Continuous
 62
               0
100
AcDbLine
 10
-720.00000000000068
 20
889.83430184137342
 30
0.0
 11
-720.00000000000068
 21
967.83430184137342
 31
0.0
  0
LINE
  5
F4
100
AcDbEntity
  8
0
370
              -2
390
0
  6
Continuous
 62
               0
100
AcDbLine
 10
-200.0
 20
889.83430184137342
 30
0.0
 11
-200.0
 21
967.83430184137342
 31
0.0
  0
LINE
  5
F5
100
AcDbEntity
  8
0
370
              -2
390
0
  6
Continuous
 62
               0
100
AcDbLine
 10
-720.00000000000068
 20
967.83430184137342
 30
0.0
 11
-200.0
 21
967.83430184137342
 31
0.0
  0
CIRCLE
  5
F6
102
{ACAD_REACTORS
330
F7
102
}
100
AcDbEntity
  8
0
370
              -2
390
0
  6
Continuous
 62
               0
100
AcDbCircle
 10
-720.00000000000068
 20
967.83430184137342
 30
0.0
 40
4.99969482421875
  0
HATCH
  5
F7
100
AcDbEntity
  8
0
370
              -2
390
0
  6
Continuous
 62
               0
100
AcDbHatch
 10
0.0
 20
0.0
 30
0.0
210
0.0
220
0.0
230
1.0
  2
SOLID
 70
               1
 71
               1
 91
        1
 92
        1
 93
        1
 72
               2
 10
-720.00000000000068
 20
967.83430184137342
 40
4.99969482421875
 50
0.0
 51
360.0
 73
               0
 97
        1
330
F6
 75
               0
 76
               1
 98
        1
 10
0.0
 20
0.0
  0
CIRCLE
  5
F8
102
{ACAD_REACTORS
330
F9
102
}
100
AcDbEntity
  8
0
370
              -2
390
0
  6
Continuous
 62
               0
100
AcDbCircle
 10
-200.0
 20
967.83430184137342
 30
0.0
 40
4.99969482421875
  0
HATCH
  5
F9
100
AcDbEntity
  8
0
370
              -2
390
0
  6
Continuous
 62
               0
100
AcDbHatch
 10
0.0
 20
0.0
 30
0.0
210
0.0
220
0.0
230
1.0
  2
SOLID
 70
               1
 71
               1
 91
        1
 92
        1
 93
        1
 72
               2
 10
-200.0
 20
967.83430184137342
 40
4.99969482421875
 50
0.0
 51
360.0
 73
               0
 97
        1
330
F8
 75
               0
 76
               1
 98
        1
 10
0.0
 20
0.0
  0
MTEXT
  5
FA
100
AcDbEntity
  8
0
390
0
 62
               0
100
AcDbMText
 10
-483.81250168217571
 20
1001.7119190288731
 30
0.0
 40
24.432617187500004
 41
0.0
 71
               1
 72
               1
  1
520
  7
ＭＳゴシック
 73
               1
 44
0.7828267384257843
  0
POINT
  5
FB
100
AcDbEntity
  8
Defpoints
370
               0
390
0
 62
               0
100
AcDbPoint
 10
-200.0
 20
864.83430184137342
 30
0.0
  0
POINT
  5
FC
100
AcDbEntity
  8
Defpoints
370
               0
390
0
 62
               0
100
AcDbPoint
 10
-720.00000000000068
 20
864.83430184137342
 30
0.0
  0
POINT
  5
FD
100
AcDbEntity
  8
Defpoints
370
               0
390
0
 62
               0
100
AcDbPoint
 10
-720.00000000000068
 20
967.83430184137342
 30
0.0
  0
ENDBLK
  5
FE
100
AcDbEntity
  8
notes
390
0
100
AcDbBlockEnd
  0
BLOCK
  5
FF
100
AcDbEntity
  8
notes
390
0
100
AcDbBlockBegin
  2
*D16
 70
               1
 10
0.0
 20
0.0
 30
0.0
  3
*D16
  1

  0
LINE
  5
100
100
AcDbEntity
  8
0
370
              -2
390
0
  6
Continuous
 62
               0
100
AcDbLine
 10
813.26139948387572
 20
-527.03278640529288
 30
0.0
 11
813.26139948387572
 21
-608.0327864052947
 31
0.0
  0
LINE
  5
101
100
AcDbEntity
  8
0
370
              -2
390
0
  6
Continuous
 62
               0
100
AcDbLine
 10
563.26139948387572
 20
-527.03278640529288
 30
0.0
 11
563.26139948387572
 21
-608.0327864052947
 31
0.0
  0
LINE
  5
102
100
AcDbEntity
  8
0
370
              -2
390
0
  6
Continuous
 62
               0
100
AcDbLine
 10
813.26139948387572
 20
-608.0327864052947
 30
0.0
 11
563.26139948387572
 21
-608.0327864052947
 31
0.0
  0
CIRCLE
  5
103
102
{ACAD_REACTORS
330
104
102
}
100
AcDbEntity
  8
0
370
              -2
390
0
  6
Continuous
 62
               0
100
AcDbCircle
 10
813.26139948387572
 20
-608.0327864052947
 30
0.0
 40
4.99969482421875
  0
HATCH
  5
104
100
AcDbEntity
  8
0
370
              -2
390
0
  6
Continuous
 62
               0
100
AcDbHatch
 10
0.0
 20
0.0
 30
0.0
210
0.0
220
0.0
230
1.0
  2
SOLID
 70
               1
 71
               1
 91
        1
 92
        1
 93
        1
 72
               2
 10
813.26139948387572
 20
-608.0327864052947
 40
4.99969482421875
 50
0.0
 51
360.0
 73
               0
 97
        1
330
103
 75
               0
 76
               1
 98
        1
 10
0.0
 20
0.0
  0
CIRCLE
  5
105
102
{ACAD_REACTORS
330
106
102
}
100
AcDbEntity
  8
0
370
              -2
390
0
  6
Continuous
 62
               0
100
AcDbCircle
 10
563.26139948387572
 20
-608.0327864052947
 30
0.0
 40
4.99969482421875
  0
HATCH
  5
106
100
AcDbEntity
  8
0
370
              -2
390
0
  6
Continuous
 62
               0
100
AcDbHatch
 10
0.0
 20
0.0
 30
0.0
210
0.0
220
0.0
230
1.0
  2
SOLID
 70
               1
 71
               1
 91
        1
 92
        1
 93
        1
 72
               2
 10
563.26139948387572
 20
-608.0327864052947
 40
4.99969482421875
 50
0.0
 51
360.0
 73
               0
 97
        1
330
105
 75
               0
 76
               1
 98
        1
 10
0.0
 20
0.0
  0
MTEXT
  5
107
100
AcDbEntity
  8
0
390
0
 62
               0
100
AcDbMText
 10
664.44889780170024
 20
-574.15516921779454
 30
0.0
 40
24.432617187500004
 41
0.0
 71
               1
 72
               1
  1
250
  7
ＭＳゴシック
 73
               1
 44
0.7828267384257843
  0
POINT
  5
108
100
AcDbEntity
  8
Defpoints
370
               0
390
0
 62
               0
100
AcDbPoint
 10
563.26139948387572
 20
-502.03278640529288
 30
0.0
  0
POINT
  5
109
100
AcDbEntity
  8
Defpoints
370
               0
390
0
 62
               0
100
AcDbPoint
 10
813.26139948387572
 20
-502.03278640529288
 30
0.0
  0
POINT
  5
10A
100
AcDbEntity
  8
Defpoints
370
               0
390
0
 62
               0
100
AcDbPoint
 10
813.26139948387572
 20
-608.0327864052947
 30
0.0
  0
ENDBLK
  5
10B
100
AcDbEntity
  8
notes
390
0
100
AcDbBlockEnd
  0
BLOCK
  5
10C
100
AcDbEntity
  8
notes
390
0
100
AcDbBlockBegin
  2
*D17
 70
               1
 10
0.0
 20
0.0
 30
0.0
  3
*D17
  1

  0
LINE
  5
10D
100
AcDbEntity
  8
0
370
              -2
390
0
  6
Continuous
 62
               0
100
AcDbLine
 10
274.36729773950765
 20
-348.05759079313566
 30
0.0
 11
194.14478815392886
 21
-348.05759079313566
 31
0.0
  0
LINE
  5
10E
100
AcDbEntity
  8
0
370
              -2
390
0
  6
Continuous
 62
               0
100
AcDbLine
 10
280.50736636606962
 20
-448.08371261310276
 30
0.0
 11
194.14478815392886
 21
-448.08371261310276
 31
0.0
  0
LINE
  5
10F
100
AcDbEntity
  8
0
370
              -2
390
0
  6
Continuous
 62
               0
100
AcDbLine
 10
194.14478815392886
 20
-348.05759079313566
 30
0.0
 11
194.14478815392886
 21
-448.08371261310276
 31
0.0
  0
CIRCLE
  5
110
102
{ACAD_REACTORS
330
111
102
}
100
AcDbEntity
  8
0
370
              -2
390
0
  6
Continuous
 62
               0
100
AcDbCircle
 10
194.14478815392886
 20
-348.05759079313566
 30
0.0
 40
4.99969482421875
  0
HATCH
  5
111
100
AcDbEntity
  8
0
370
              -2
390
0
  6
Continuous
 62
               0
100
AcDbHatch
 10
0.0
 20
0.0
 30
0.0
210
0.0
220
0.0
230
1.0
  2
SOLID
 70
               1
 71
               1
 91
        1
 92
        1
 93
        1
 72
               2
 10
194.14478815392886
 20
-348.05759079313566
 40
4.99969482421875
 50
0.0
 51
360.0
 73
               0
 97
        1
330
110
 75
               0
 76
               1
 98
        1
 10
0.0
 20
0.0
  0
CIRCLE
  5
112
102
{ACAD_REACTORS
330
113
102
}
100
AcDbEntity
  8
0
370
              -2
390
0
  6
Continuous
 62
               0
100
AcDbCircle
 10
194.14478815392886
 20
-448.08371261310276
 30
0.0
 40
4.99969482421875
  0
HATCH
  5
113
100
AcDbEntity
  8
0
370
              -2
390
0
  6
Continuous
 62
               0
100
AcDbHatch
 10
0.0
 20
0.0
 30
0.0
210
0.0
220
0.0
230
1.0
  2
SOLID
 70
               1
 71
               1
 91
        1
 92
        1
 93
        1
 72
               2
 10
194.14478815392886
 20
-448.08371261310276
 40
4.99969482421875
 50
0.0
 51
360.0
 73
               0
 97
        1
330
112
 75
               0
 76
               1
 98
        1
 10
0.0
 20
0.0
  0
MTEXT
  5
114
100
AcDbEntity
  8
0
390
0
 62
               0
100
AcDbMText
 10
160.26717096642892
 20
-421.88315338529492
 30
0.0
 40
24.432617187500004
 41
0.0
 71
               1
 72
               1
  1
100
  7
ＭＳゴシック
 11
0.0
 21
1.0
 31
0.0
 73
               1
 44
0.7828267384257843
  0
POINT
  5
115
100
AcDbEntity
  8
Defpoints
370
               0
390
0
 62
               0
100
AcDbPoint
 10
305.50736636606962
 20
-448.08371261310276
 30
0.0
  0
POINT
  5
116
100
AcDbEntity
  8
Defpoints
370
               0
390
0
 62
               0
100
AcDbPoint
 10
299.36729773950765
 20
-348.05759079313566
 30
0.0
  0
POINT
  5
117
100
AcDbEntity
  8
Defpoints
370
               0
390
0
 62
               0
100
AcDbPoint
 10
194.14478815392886
 20
-348.05759079313566
 30
0.0
  0
ENDBLK
  5
118
100
AcDbEntity
  8
notes
390
0
100
AcDbBlockEnd
  0
BLOCK
  5
119
100
AcDbEntity
  8
notes
390
0
100
AcDbBlockBegin
  2
*D18
 70
               1
 10
0.0
 20
0.0
 30
0.0
  3
*D18
  1

  0
LINE
  5
11A
100
AcDbEntity
  8
0
370
              -2
390
0
  6
Continuous
 62
               0
100
AcDbLine
 10
529.48916580985792
 20
587.83430184137342
 30
0.0
 11
604.48916580985792
 21
587.83430184137342
 31
0.0
  0
LINE
  5
11B
100
AcDbEntity
  8
0
370
              -2
390
0
  6
Continuous
 62
               0
100
AcDbLine
 10
529.48916580985792
 20
847.83430184137342
 30
0.0
 11
604.48916580985792
 21
847.83430184137342
 31
0.0
  0
LINE
  5
11C
100
AcDbEntity
  8
0
370
              -2
390
0
  6
Continuous
 62
               0
100
AcDbLine
 10
604.48916580985792
 20
587.83430184137342
 30
0.0
 11
604.48916580985792
 21
847.83430184137342
 31
0.0
  0
CIRCLE
  5
11D
102
{ACAD_REACTORS
330
11E
102
}
100
AcDbEntity
  8
0
370
              -2
390
0
  6
Continuous
 62
               0
100
AcDbCircle
 10
604.48916580985792
 20
587.83430184137342
 30
0.0
 40
4.99969482421875
  0
HATCH
  5
11E
100
AcDbEntity
  8
0
370
              -2
390
0
  6
Continuous
 62
               0
100
AcDbHatch
 10
0.0
 20
0.0
 30
0.0
210
0.0
220
0.0
230
1.0
  2
SOLID
 70
               1
 71
               1
 91
        1
 92
        1
 93
        1
 72
               2
 10
604.48916580985792
 20
587.83430184137342
 40
4.99969482421875
 50
0.0
 51
360.0
 73
               0
 97
        1
330
11D
 75
               0
 76
               1
 98
        1
 10
0.0
 20
0.0
  0
CIRCLE
  5
11F
102
{ACAD_REACTORS
330
120
102
}
100
AcDbEntity
  8
0
370
              -2
390
0
  6
Continuous
 62
               0
100
AcDbCircle
 10
604.48916580985792
 20
847.83430184137342
 30
0.0
 40
4.99969482421875
  0
HATCH
  5
120
100
AcDbEntity
  8
0
370
              -2
390
0
  6
Continuous
 62
               0
100
AcDbHatch
 10
0.0
 20
0.0
 30
0.0
210
0.0
220
0.0
230
1.0
  2
SOLID
 70
               1
 71
               1
 91
        1
 92
        1
 93
        1
 72
               2
 10
604.48916580985792
 20
847.83430184137342
 40
4.99969482421875
 50
0.0
 51
360.0
 73
               0
 97
        1
330
11F
 75
               0
 76
               1
 98
        1
 10
0.0
 20
0.0
  0
MTEXT
  5
121
100
AcDbEntity
  8
0
390
0
 62
               0
100
AcDbMText
 10
570.61154862235799
 20
694.02180015919748
 30
0.0
 40
24.432617187500004
 41
0.0
 71
               1
 72
               1
  1
260
  7
ＭＳゴシック
 11
0.0
 21
1.0
 31
0.0
 73
               1
 44
0.7828267384257843
  0
POINT
  5
122
100
AcDbEntity
  8
Defpoints
370
               0
390
0
 62
               0
100
AcDbPoint
 10
504.48916580985792
 20
847.83430184137342
 30
0.0
  0
POINT
  5
123
100
AcDbEntity
  8
Defpoints
370
               0
390
0
 62
               0
100
AcDbPoint
 10
504.48916580985792
 20
587.83430184137342
 30
0.0
  0
POINT
  5
124
100
AcDbEntity
  8
Defpoints
370
               0
390
0
 62
               0
100
AcDbPoint
 10
604.48916580985792
 20
587.83430184137342
 30
0.0
  0
ENDBLK
  5
125
100
AcDbEntity
  8
notes
390
0
100
AcDbBlockEnd
  0
BLOCK
  5
126
100
AcDbEntity
  8
notes
390
0
100
AcDbBlockBegin
  2
*D19
 70
               1
 10
0.0
 20
0.0
 30
0.0
  3
*D19
  1

  0
LINE
  5
127
100
AcDbEntity
  8
0
370
              -2
390
0
  6
Continuous
 62
               0
100
AcDbLine
 10
404.48916580985792
 20
562.83430184137342
 30
0.0
 11
404.48916580985792
 21
487.83430184137342
 31
0.0
  0
LINE
  5
128
100
AcDbEntity
  8
0
370
              -2
390
0
  6
Continuous
 62
               0
100
AcDbLine
 10
504.48916580985792
 20
562.83430184137342
 30
0.0
 11
504.48916580985792
 21
487.83430184137342
 31
0.0
  0
LINE
  5
129
100
AcDbEntity
  8
0
370
              -2
390
0
  6
Continuous
 62
               0
100
AcDbLine
 10
404.48916580985792
 20
487.83430184137342
 30
0.0
 11
504.48916580985792
 21
487.83430184137342
 31
0.0
  0
CIRCLE
  5
12A
102
{ACAD_REACTORS
330
12B
102
}
100
AcDbEntity
  8
0
370
              -2
390
0
  6
Continuous
 62
               0
100
AcDbCircle
 10
404.48916580985792
 20
487.83430184137342
 30
0.0
 40
4.99969482421875
  0
HATCH
  5
12B
100
AcDbEntity
  8
0
370
              -2
390
0
  6
Continuous
 62
               0
100
AcDbHatch
 10
0.0
 20
0.0
 30
0.0
210
0.0
220
0.0
230
1.0
  2
SOLID
 70
               1
 71
               1
 91
        1
 92
        1
 93
        1
 72
               2
 10
404.48916580985792
 20
487.83430184137342
 40
4.99969482421875
 50
0.0
 51
360.0
 73
               0
 97
        1
330
12A
 75
               0
 76
               1
 98
        1
 10
0.0
 20
0.0
  0
CIRCLE
  5
12C
102
{ACAD_REACTORS
330
12D
102
}
100
AcDbEntity
  8
0
370
              -2
390
0
  6
Continuous
 62
               0
100
AcDbCircle
 10
504.48916580985792
 20
487.83430184137342
 30
0.0
 40
4.99969482421875
  0
HATCH
  5
12D
100
AcDbEntity
  8
0
370
              -2
390
0
  6
Continuous
 62
               0
100
AcDbHatch
 10
0.0
 20
0.0
 30
0.0
210
0.0
220
0.0
230
1.0
  2
SOLID
 70
               1
 71
               1
 91
        1
 92
        1
 93
        1
 72
               2
 10
504.48916580985792
 20
487.83430184137342
 40
4.99969482421875
 50
0.0
 51
360.0
 73
               0
 97
        1
330
12C
 75
               0
 76
               1
 98
        1
 10
0.0
 20
0.0
  0
MTEXT
  5
12E
100
AcDbEntity
  8
0
390
0
 62
               0
100
AcDbMText
 10
430.67666412768244
 20
521.71191902887313
 30
0.0
 40
24.432617187500004
 41
0.0
 71
               1
 72
               1
  1
100
  7
ＭＳゴシック
 73
               1
 44
0.7828267384257843
  0
POINT
  5
12F
100
AcDbEntity
  8
Defpoints
370
               0
390
0
 62
               0
100
AcDbPoint
 10
504.48916580985792
 20
587.83430184137342
 30
0.0
  0
POINT
  5
130
100
AcDbEntity
  8
Defpoints
370
               0
390
0
 62
               0
100
AcDbPoint
 10
404.48916580985792
 20
587.83430184137342
 30
0.0
  0
POINT
  5
131
100
AcDbEntity
  8
Defpoints
370
               0
390
0
 62
               0
100
AcDbPoint
 10
404.48916580985792
 20
487.83430184137342
 30
0.0
  0
ENDBLK
  5
132
100
AcDbEntity
  8
notes
390
0
100
AcDbBlockEnd
  0
BLOCK
  5
133
100
AcDbEntity
  8
notes
390
0
100
AcDbBlockBegin
  2
*D20
 70
               1
 10
0.0
 20
0.0
 30
0.0
  3
*D20
  1

  0
LINE
  5
134
100
AcDbEntity
  8
0
370
              -2
390
0
  6
Continuous
 62
               0
100
AcDbLine
 10
679.48916580985792
 20
417.83430184137342
 30
0.0
 11
814.4416666666641
 21
417.83430184137342
 31
0.0
  0
LINE
  5
135
100
AcDbEntity
  8
0
370
              -2
390
0
  6
Continuous
 62
               0
100
AcDbLine
 10
679.48916580985792
 20
867.83430184137342
 30
0.0
 11
814.4416666666641
 21
867.83430184137342
 31
0.0
  0
LINE
  5
136
100
AcDbEntity
  8
0
370
              -2
390
0
  6
Continuous
 62
               0
100
AcDbLine
 10
814.4416666666641
 20
417.83430184137342
 30
0.0
 11
814.4416666666641
 21
867.83430184137342
 31
0.0
  0
CIRCLE
  5
137
102
{ACAD_REACTORS
330
138
102
}
100
AcDbEntity
  8
0
370
              -2
390
0
  6
Continuous
 62
               0
100
AcDbCircle
 10
814.4416666666641
 20
417.83430184137342
 30
0.0
 40
4.99969482421875
  0
HATCH
  5
138
100
AcDbEntity
  8
0
370
              -2
390
0
  6
Continuous
 62
               0
100
AcDbHatch
 10
0.0
 20
0.0
 30
0.0
210
0.0
220
0.0
230
1.0
  2
SOLID
 70
               1
 71
               1
 91
        1
 92
        1
 93
        1
 72
               2
 10
814.4416666666641
 20
417.83430184137342
 40
4.99969482421875
 50
0.0
 51
360.0
 73
               0
 97
        1
330
137
 75
               0
 76
               1
 98
        1
 10
0.0
 20
0.0
  0
CIRCLE
  5
139
102
{ACAD_REACTORS
330
13A
102
}
100
AcDbEntity
  8
0
370
              -2
390
0
  6
Continuous
 62
               0
100
AcDbCircle
 10
814.4416666666641
 20
867.83430184137342
 30
0.0
 40
4.99969482421875
  0
HATCH
  5
13A
100
AcDbEntity
  8
0
370
              -2
390
0
  6
Continuous
 62
               0
100
AcDbHatch
 10
0.0
 20
0.0
 30
0.0
210
0.0
220
0.0
230
1.0
  2
SOLID
 70
               1
 71
               1
 91
        1
 92
        1
 93
        1
 72
               2
 10
814.4416666666641
 20
867.83430184137342
 40
4.99969482421875
 50
0.0
 51
360.0
 73
               0
 97
        1
330
139
 75
               0
 76
               1
 98
        1
 10
0.0
 20
0.0
  0
MTEXT
  5
13B
100
AcDbEntity
  8
0
390
0
 62
               0
100
AcDbMText
 10
780.56404947916405
 20
619.02180015919748
 30
0.0
 40
24.432617187500004
 41
0.0
 71
               1
 72
               1
  1
450
  7
ＭＳゴシック
 11
0.0
 21
1.0
 31
0.0
 73
               1
 44
0.7828267384257843
  0
POINT
  5
13C
100
AcDbEntity
  8
Defpoints
370
               0
390
0
 62
               0
100
AcDbPoint
 10
654.48916580985792
 20
867.83430184137342
 30
0.0
  0
POINT
  5
13D
100
AcDbEntity
  8
Defpoints
370
               0
390
0
 62
               0
100
AcDbPoint
 10
654.48916580985792
 20
417.83430184137342
 30
0.0
  0
POINT
  5
13E
100
AcDbEntity
  8
Defpoints
370
               0
390
0
 62
               0
100
AcDbPoint
 10
814.4416666666641
 20
417.83430184137342
 30
0.0
  0
ENDBLK
  5
13F
100
AcDbEntity
  8
notes
390
0
100
AcDbBlockEnd
  0
BLOCK
  5
140
100
AcDbEntity
  8
notes
390
0
100
AcDbBlockBegin
  2
*D21
 70
               1
 10
0.0
 20
0.0
 30
0.0
  3
*D21
  1

  0
LINE
  5
141
100
AcDbEntity
  8
0
370
              -2
390
0
  6
Continuous
 62
               0
100
AcDbLine
 10
-580.00207382547865
 20
-533.08789604218009
 30
0.0
 11
-580.00207382547865
 21
-608.0327864052947
 31
0.0
  0
LINE
  5
142
100
AcDbEntity
  8
0
370
              -2
390
0
  6
Continuous
 62
               0
100
AcDbLine
 10
-340.00207382547887
 20
-533.08789604218009
 30
0.0
 11
-340.00207382547887
 21
-608.0327864052947
 31
0.0
  0
LINE
  5
143
100
AcDbEntity
  8
0
370
              -2
390
0
  6
Continuous
 62
               0
100
AcDbLine
 10
-580.00207382547865
 20
-608.0327864052947
 30
0.0
 11
-340.00207382547887
 21
-608.0327864052947
 31
0.0
  0
CIRCLE
  5
144
102
{ACAD_REACTORS
330
145
102
}
100
AcDbEntity
  8
0
370
              -2
390
0
  6
Continuous
 62
               0
100
AcDbCircle
 10
-580.00207382547865
 20
-608.0327864052947
 30
0.0
 40
4.99969482421875
  0
HATCH
  5
145
100
AcDbEntity
  8
0
370
              -2
390
0
  6
Continuous
 62
               0
100
AcDbHatch
 10
0.0
 20
0.0
 30
0.0
210
0.0
220
0.0
230
1.0
  2
SOLID
 70
               1
 71
               1
 91
        1
 92
        1
 93
        1
 72
               2
 10
-580.00207382547865
 20
-608.0327864052947
 40
4.99969482421875
 50
0.0
 51
360.0
 73
               0
 97
        1
330
144
 75
               0
 76
               1
 98
        1
 10
0.0
 20
0.0
  0
CIRCLE
  5
146
102
{ACAD_REACTORS
330
147
102
}
100
AcDbEntity
  8
0
370
              -2
390
0
  6
Continuous
 62
               0
100
AcDbCircle
 10
-340.00207382547887
 20
-608.0327864052947
 30
0.0
 40
4.99969482421875
  0
HATCH
  5
147
100
AcDbEntity
  8
0
370
              -2
390
0
  6
Continuous
 62
               0
100
AcDbHatch
 10
0.0
 20
0.0
 30
0.0
210
0.0
220
0.0
230
1.0
  2
SOLID
 70
               1
 71
               1
 91
        1
 92
        1
 93
        1
 72
               2
 10
-340.00207382547887
 20
-608.0327864052947
 40
4.99969482421875
 50
0.0
 51
360.0
 73
               0
 97
        1
330
146
 75
               0
 76
               1
 98
        1
 10
0.0
 20
0.0
  0
MTEXT
  5
148
100
AcDbEntity
  8
0
390
0
 62
               0
100
AcDbMText
 10
-483.81457550765413
 20
-574.15516921779454
 30
0.0
 40
24.432617187500004
 41
0.0
 71
               1
 72
               1
  1
240
  7
ＭＳゴシック
 73
               1
 44
0.7828267384257843
  0
POINT
  5
149
100
AcDbEntity
  8
Defpoints
370
               0
390
0
 62
               0
100
AcDbPoint
 10
-340.00207382547887
 20
-508.08789604218009
 30
0.0
  0
POINT
  5
14A
100
AcDbEntity
  8
Defpoints
370
               0
390
0
 62
               0
100
AcDbPoint
 10
-580.00207382547865
 20
-508.08789604218009
 30
0.0
  0
POINT
  5
14B
100
AcDbEntity
  8
Defpoints
370
               0
390
0
 62
               0
100
AcDbPoint
 10
-580.00207382547865
 20
-608.0327864052947
 30
0.0
  0
ENDBLK
  5
14C
100
AcDbEntity
  8
notes
390
0
100
AcDbBlockEnd
  0
BLOCK
  5
14D
100
AcDbEntity
  8
notes
390
0
100
AcDbBlockBegin
  2
*D22
 70
               1
 10
0.0
 20
0.0
 30
0.0
  3
*D22
  1

  0
LINE
  5
14E
100
AcDbEntity
  8
0
370
              -2
390
0
  6
Continuous
 62
               0
100
AcDbLine
 10
813.26139948387572
 20
-527.03278640529288
 30
0.0
 11
813.26139948387572
 21
-657.99958417787502
 31
0.0
  0
LINE
  5
14F
100
AcDbEntity
  8
0
370
              -2
390
0
  6
Continuous
 62
               0
100
AcDbLine
 10
453.26139948387572
 20
-527.03278640529288
 30
0.0
 11
453.26139948387572
 21
-657.99958417787502
 31
0.0
  0
LINE
  5
150
100
AcDbEntity
  8
0
370
              -2
390
0
  6
Continuous
 62
               0
100
AcDbLine
 10
813.26139948387572
 20
-657.99958417787502
 30
0.0
 11
453.26139948387572
 21
-657.99958417787502
 31
0.0
  0
CIRCLE
  5
151
102
{ACAD_REACTORS
330
152
102
}
100
AcDbEntity
  8
0
370
              -2
390
0
  6
Continuous
 62
               0
100
AcDbCircle
 10
813.26139948387572
 20
-657.99958417787502
 30
0.0
 40
4.99969482421875
  0
HATCH
  5
152
100
AcDbEntity
  8
0
370
              -2
390
0
  6
Continuous
 62
               0
100
AcDbHatch
 10
0.0
 20
0.0
 30
0.0
210
0.0
220
0.0
230
1.0
  2
SOLID
 70
               1
 71
               1
 91
        1
 92
        1
 93
        1
 72
               2
 10
813.26139948387572
 20
-657.99958417787502
 40
4.99969482421875
 50
0.0
 51
360.0
 73
               0
 97
        1
330
151
 75
               0
 76
               1
 98
        1
 10
0.0
 20
0.0
  0
CIRCLE
  5
153
102
{ACAD_REACTORS
330
154
102
}
100
AcDbEntity
  8
0
370
              -2
390
0
  6
Continuous
 62
               0
100
AcDbCircle
 10
453.26139948387572
 20
-657.99958417787502
 30
0.0
 40
4.99969482421875
  0
HATCH
  5
154
100
AcDbEntity
  8
0
370
              -2
390
0
  6
Continuous
 62
               0
100
AcDbHatch
 10
0.0
 20
0.0
 30
0.0
210
0.0
220
0.0
230
1.0
  2
SOLID
 70
               1
 71
               1
 91
        1
 92
        1
 93
        1
 72
               2
 10
453.26139948387572
 20
-657.99958417787502
 40
4.99969482421875
 50
0.0
 51
360.0
 73
               0
 97
        1
330
153
 75
               0
 76
               1
 98
        1
 10
0.0
 20
0.0
  0
MTEXT
  5
155
100
AcDbEntity
  8
0
390
0
 62
               0
100
AcDbMText
 10
609.44889780170024
 20
-624.12196699037486
 30
0.0
 40
24.432617187500004
 41
0.0
 71
               1
 72
               1
  1
360
  7
ＭＳゴシック
 73
               1
 44
0.7828267384257843
  0
POINT
  5
156
100
AcDbEntity
  8
Defpoints
370
               0
390
0
 62
               0
100
AcDbPoint
 10
453.26139948387572
 20
-502.03278640529288
 30
0.0
  0
POINT
  5
157
100
AcDbEntity
  8
Defpoints
370
               0
390
0
 62
               0
100
AcDbPoint
 10
813.26139948387572
 20
-502.03278640529288
 30
0.0
  0
POINT
  5
158
100
AcDbEntity
  8
Defpoints
370
               0
390
0
 62
               0
100
AcDbPoint
 10
813.26139948387572
 20
-657.99958417787502
 30
0.0
  0
ENDBLK
  5
159
100
AcDbEntity
  8
notes
390
0
100
AcDbBlockEnd
  0
BLOCK
  5
15A
100
AcDbEntity
  8
notes
390
0
100
AcDbBlockBegin
  2
*D23
 70
               1
 10
0.0
 20
0.0
 30
0.0
  3
*D23
  1

  0
LINE
  5
15B
100
AcDbEntity
  8
0
370
              -2
390
0
  6
Continuous
 62
               0
100
AcDbLine
 10
255.50736636606962
 20
-448.08371261310276
 30
0.0
 11
194.14478815392886
 21
-448.08371261310276
 31
0.0
  0
LINE
  5
15C
100
AcDbEntity
  8
0
370
              -2
390
0
  6
Continuous
 62
               0
100
AcDbLine
 10
427.14437007000993
 20
-508.08371261310276
 30
0.0
 11
194.14478815392886
 21
-508.08371261310276
 31
0.0
  0
LINE
  5
15D
100
AcDbEntity
  8
0
370
              -2
390
0
  6
Continuous
 62
               0
100
AcDbLine
 10
194.14478815392886
 20
-448.08371261310276
 30
0.0
 11
194.14478815392886
 21
-508.08371261310276
 31
0.0
  0
CIRCLE
  5
15E
102
{ACAD_REACTORS
330
15F
102
}
100
AcDbEntity
  8
0
370
              -2
390
0
  6
Continuous
 62
               0
100
AcDbCircle
 10
194.14478815392886
 20
-448.08371261310276
 30
0.0
 40
4.99969482421875
  0
HATCH
  5
15F
100
AcDbEntity
  8
0
370
              -2
390
0
  6
Continuous
 62
               0
100
AcDbHatch
 10
0.0
 20
0.0
 30
0.0
210
0.0
220
0.0
230
1.0
  2
SOLID
 70
               1
 71
               1
 91
        1
 92
        1
 93
        1
 72
               2
 10
194.14478815392886
 20
-448.08371261310276
 40
4.99969482421875
 50
0.0
 51
360.0
 73
               0
 97
        1
330
15E
 75
               0
 76
               1
 98
        1
 10
0.0
 20
0.0
  0
CIRCLE
  5
160
102
{ACAD_REACTORS
330
161
102
}
100
AcDbEntity
  8
0
370
              -2
390
0
  6
Continuous
 62
               0
100
AcDbCircle
 10
194.14478815392886
 20
-508.08371261310276
 30
0.0
 40
4.99969482421875
  0
HATCH
  5
161
100
AcDbEntity
  8
0
370
              -2
390
0
  6
Continuous
 62
               0
100
AcDbHatch
 10
0.0
 20
0.0
 30
0.0
210
0.0
220
0.0
230
1.0
  2
SOLID
 70
               1
 71
               1
 91
        1
 92
        1
 93
        1
 72
               2
 10
194.14478815392886
 20
-508.08371261310276
 40
4.99969482421875
 50
0.0
 51
360.0
 73
               0
 97
        1
330
160
 75
               0
 76
               1
 98
        1
 10
0.0
 20
0.0
  0
MTEXT
  5
162
100
AcDbEntity
  8
0
390
0
 62
               0
100
AcDbMText
 10
160.26717096642892
 20
-493.95871261310276
 30
0.0
 40
24.432617187500004
 41
0.0
 71
               1
 72
               1
  1
60
  7
ＭＳゴシック
 11
0.0
 21
1.0
 31
0.0
 73
               1
 44
0.7828267384257843
  0
POINT
  5
163
100
AcDbEntity
  8
Defpoints
370
               0
390
0
 62
               0
100
AcDbPoint
 10
452.14437007000993
 20
-508.08371261310276
 30
0.0
  0
POINT
  5
164
100
AcDbEntity
  8
Defpoints
370
               0
390
0
 62
               0
100
AcDbPoint
 10
280.50736636606962
 20
-448.08371261310276
 30
0.0
  0
POINT
  5
165
100
AcDbEntity
  8
Defpoints
370
               0
390
0
 62
               0
100
AcDbPoint
 10
194.14478815392886
 20
-448.08371261310276
 30
0.0
  0
ENDBLK
  5
166
100
AcDbEntity
  8
notes
390
0
100
AcDbBlockEnd
  0
BLOCK
  5
167
100
AcDbEntity
  8
notes
390
0
100
AcDbBlockBegin
  2
*D24
 70
               1
 10
0.0
 20
0.0
 30
0.0
  3
*D24
  1

  0
LINE
  5
168
100
AcDbEntity
  8
0
370
              -2
390
0
  6
Continuous
 62
               0
100
AcDbLine
 10
529.48916580985792
 20
847.83430184137342
 30
0.0
 11
604.48916580985792
 21
847.83430184137342
 31
0.0
  0
LINE
  5
169
100
AcDbEntity
  8
0
370
              -2
390
0
  6
Continuous
 62
               0
100
AcDbLine
 10
529.48916580985792
 20
867.83430184137342
 30
0.0
 11
604.48916580985792
 21
867.83430184137342
 31
0.0
  0
LINE
  5
16A
100
AcDbEntity
  8
0
370
              -2
390
0
  6
Continuous
 62
               0
100
AcDbLine
 10
604.48916580985792
 20
867.83430184137342
 30
0.0
 11
604.48916580985792
 21
903.45041582212434
 31
0.0
  0
LINE
  5
16B
100
AcDbEntity
  8
0
370
              -2
390
0
  6
Continuous
 62
               0
100
AcDbLine
 10
604.48916580985792
 20
847.83430184137342
 30
0.0
 11
604.48916580985792
 21
867.83430184137342
 31
0.0
  0
CIRCLE
  5
16C
102
{ACAD_REACTORS
330
16D
102
}
100
AcDbEntity
  8
0
370
              -2
390
0
  6
Continuous
 62
               0
100
AcDbCircle
 10
604.48916580985792
 20
847.83430184137342
 30
0.0
 40
4.99969482421875
  0
HATCH
  5
16D
100
AcDbEntity
  8
0
370
              -2
390
0
  6
Continuous
 62
               0
100
AcDbHatch
 10
0.0
 20
0.0
 30
0.0
210
0.0
220
0.0
230
1.0
  2
SOLID
 70
               1
 71
               1
 91
        1
 92
        1
 93
        1
 72
               2
 10
604.48916580985792
 20
847.83430184137342
 40
4.99969482421875
 50
0.0
 51
360.0
 73
               0
 97
        1
330
16C
 75
               0
 76
               1
 98
        1
 10
0.0
 20
0.0
  0
CIRCLE
  5
16E
102
{ACAD_REACTORS
330
16F
102
}
100
AcDbEntity
  8
0
370
              -2
390
0
  6
Continuous
 62
               0
100
AcDbCircle
 10
604.48916580985792
 20
867.83430184137342
 30
0.0
 40
4.99969482421875
  0
HATCH
  5
16F
100
AcDbEntity
  8
0
370
              -2
390
0
  6
Continuous
 62
               0
100
AcDbHatch
 10
0.0
 20
0.0
 30
0.0
210
0.0
220
0.0
230
1.0
  2
SOLID
 70
               1
 71
               1
 91
        1
 92
        1
 93
        1
 72
               2
 10
604.48916580985792
 20
867.83430184137342
 40
4.99969482421875
 50
0.0
 51
360.0
 73
               0
 97
        1
330
16E
 75
               0
 76
               1
 98
        1
 10
0.0
 20
0.0
  0
MTEXT
  5
170
100
AcDbEntity
  8
0
390
0
 62
               0
100
AcDbMText
 10
570.61154862235799
 20
871.70041582212434
 30
0.0
 40
24.432617187500004
 41
0.0
 71
               1
 72
               1
  1
20
  7
ＭＳゴシック
 11
0.0
 21
1.0
 31
0.0
 73
               1
 44
0.7828267384257843
  0
POINT
  5
171
100
AcDbEntity
  8
Defpoints
370
               0
390
0
 62
               0
100
AcDbPoint
 10
504.48916580985792
 20
867.83430184137342
 30
0.0
  0
POINT
  5
172
100
AcDbEntity
  8
Defpoints
370
               0
390
0
 62
               0
100
AcDbPoint
 10
504.48916580985792
 20
847.83430184137342
 30
0.0
  0
POINT
  5
173
100
AcDbEntity
  8
Defpoints
370
               0
390
0
 62
               0
100
AcDbPoint
 10
604.48916580985792
 20
847.83430184137342
 30
0.0
  0
ENDBLK
  5
174
100
AcDbEntity
  8
notes
390
0
100
AcDbBlockEnd
  0
BLOCK
  5
175
100
AcDbEntity
  8
ADF70-1605
390
0
100
AcDbBlockBegin
  2
グループ-2
 70
               0
 10
0.0
 20
0.0
 30
0.0
  3
グループ-2
  1

  0
LINE
  5
176
100
AcDbEntity
  8
0
370
              15
390
0
  6
STYLE_12
 62
               7
100
AcDbLine
 10
-1942.0267158042982
 20
3472.1329485069446
 30
0.0
 11
-1967.8403761226421
 21
3391.2102867215935
 31
0.0
  0
ARC
  5
177
100
AcDbEntity
  8
0
370
              15
390
0
  6
STYLE_12
 62
               7
100
AcDbCircle
 10
-1979.2728070900382
 20
3394.8571377160415
 30
0.0
 40
11.999999999999796
100
AcDbArc
 50
273.00000000000568
 51
342.3077469172822
  0
ARC
  5
178
100
AcDbEntity
  8
0
370
              15
390
0
  6
STYLE_12
 62
               7
100
AcDbCircle
 10
-1934.405095159367
 20
3469.7017145106452
 30
0.0
 40
7.9999999999999529
100
AcDbArc
 50
90.002382230348672
 51
162.30774691728331
  0
ENDBLK
  5
179
100
AcDbEntity
  8
ADF70-1605
390
0
100
AcDbBlockEnd
  0
BLOCK
  5
17A
100
AcDbEntity
  8
ADF70-1605
390
0
100
AcDbBlockBegin
  2
グループ-3
 70
               0
 10
0.0
 20
0.0
 30
0.0
  3
グループ-3
  1

  0
LINE
  5
17B
100
AcDbEntity
  8
0
370
              15
390
0
  6
STYLE_12
 62
               7
100
AcDbLine
 10
-2326.7834745144355
 20
3472.1329485069446
 30
0.0
 11
-2300.9698141960916
 21
3391.2102867215935
 31
0.0
  0
ARC
  5
17C
100
AcDbEntity
  8
0
370
              15
390
0
  6
STYLE_12
 62
               7
100
AcDbCircle
 10
-2289.5373832286959
 20
3394.8571377160415
 30
0.0
 40
11.999999999999382
100
AcDbArc
 50
197.69225308271854
 51
266.99999999999432
  0
ARC
  5
17D
100
AcDbEntity
  8
0
370
              15
390
0
  6
STYLE_12
 62
               7
100
AcDbCircle
 10
-2334.4050951593672
 20
3469.7017145106452
 30
0.0
 40
8.000000000000119
100
AcDbArc
 50
17.692253082716192
 51
89.997617769651313
  0
ENDBLK
  5
17E
100
AcDbEntity
  8
ADF70-1605
390
0
100
AcDbBlockEnd
  0
BLOCK
  5
17F
100
AcDbEntity
  8
ADF70-1605
390
0
100
AcDbBlockBegin
  2
グループ-4
 70
               0
 10
0.0
 20
0.0
 30
0.0
  3
グループ-4
  1

  0
LINE
  5
180
100
AcDbEntity
  8
0
370
              15
390
0
  6
STYLE_12
 62
               7
100
AcDbLine
 10
-2180.3923369528497
 20
3376.1596792892865
 30
0.0
 11
-2290.1654147036124
 21
3382.8735832989869
 31
0.0
  0
ARC
  5
181
100
AcDbEntity
  8
0
370
              15
390
0
  6
STYLE_12
 62
               7
100
AcDbCircle
 10
-2181.1250403402519
 20
3362.1788658027222
 30
0.0
 40
13.999999999999806
100
AcDbArc
 50
50.000000000029338
 51
86.999999999994387
  0
INSERT
  5
182
100
AcDbEntity
  8
0
390
0
 62
               7
100
AcDbBlockReference
  2
グループ-3
 10
0.0
 20
0.0
 30
0.0
  0
ENDBLK
  5
183
100
AcDbEntity
  8
ADF70-1605
390
0
100
AcDbBlockEnd
  0
BLOCK
  5
184
100
AcDbEntity
  8
ADF70-1605
390
0
100
AcDbBlockBegin
  2
*D28
 70
               1
 10
0.0
 20
0.0
 30
0.0
  3
*D28
  1

  0
LINE
  5
185
100
AcDbEntity
  8
0
370
              -2
390
0
  6
Continuous
 62
               0
100
AcDbLine
 10
528.79094612100016
 20
-493.0327864052947
 30
0.0
 11
509.0
 21
-493.0327864052947
 31
0.0
  0
LINE
  5
186
100
AcDbEntity
  8
0
370
              -2
390
0
  6
Continuous
 62
               0
100
AcDbLine
 10
530.69402876475215
 20
-508.0327864052947
 30
0.0
 11
509.0
 21
-508.0327864052947
 31
0.0
  0
LINE
  5
187
100
AcDbEntity
  8
0
370
              -2
390
0
  6
Continuous
 62
               0
100
AcDbLine
 10
509.0
 20
-508.0327864052947
 30
0.0
 11
509.0
 21
-547.75
 31
0.0
  0
LINE
  5
188
100
AcDbEntity
  8
0
370
              -2
390
0
  6
Continuous
 62
               0
100
AcDbLine
 10
509.0
 20
-493.0327864052947
 30
0.0
 11
509.0
 21
-508.0327864052947
 31
0.0
  0
CIRCLE
  5
189
102
{ACAD_REACTORS
330
18A
102
}
100
AcDbEntity
  8
0
370
              -2
390
0
  6
Continuous
 62
               0
100
AcDbCircle
 10
509.0
 20
-493.0327864052947
 30
0.0
 40
4.99969482421875
  0
HATCH
  5
18A
100
AcDbEntity
  8
0
370
              -2
390
0
  6
Continuous
 62
               0
100
AcDbHatch
 10
0.0
 20
0.0
 30
0.0
210
0.0
220
0.0
230
1.0
  2
SOLID
 70
               1
 71
               1
 91
        1
 92
        1
 93
        1
 72
               2
 10
509.0
 20
-493.0327864052947
 40
4.99969482421875
 50
0.0
 51
360.0
 73
               0
 97
        1
330
189
 75
               0
 76
               1
 98
        1
 10
0.0
 20
0.0
  0
CIRCLE
  5
18B
102
{ACAD_REACTORS
330
18C
102
}
100
AcDbEntity
  8
0
370
              -2
390
0
  6
Continuous
 62
               0
100
AcDbCircle
 10
509.0
 20
-508.0327864052947
 30
0.0
 40
4.99969482421875
  0
HATCH
  5
18C
100
AcDbEntity
  8
0
370
              -2
390
0
  6
Continuous
 62
               0
100
AcDbHatch
 10
0.0
 20
0.0
 30
0.0
210
0.0
220
0.0
230
1.0
  2
SOLID
 70
               1
 71
               1
 91
        1
 92
        1
 93
        1
 72
               2
 10
509.0
 20
-508.0327864052947
 40
4.99969482421875
 50
0.0
 51
360.0
 73
               0
 97
        1
330
18B
 75
               0
 76
               1
 98
        1
 10
0.0
 20
0.0
  0
MTEXT
  5
18D
100
AcDbEntity
  8
0
390
0
 62
               0
100
AcDbMText
 10
475.12238281250006
 20
-547.75
 30
0.0
 40
24.432617187500004
 41
0.0
 71
               1
 72
               1
  1
15
  7
ＭＳゴシック
 11
0.0
 21
1.0
 31
0.0
 73
               1
 44
0.7828267384257843
  0
POINT
  5
18E
100
AcDbEntity
  8
Defpoints
370
               0
390
0
 62
               0
100
AcDbPoint
 10
555.69402876475215
 20
-508.0327864052947
 30
0.0
  0
POINT
  5
18F
100
AcDbEntity
  8
Defpoints
370
               0
390
0
 62
               0
100
AcDbPoint
 10
553.79094612100016
 20
-493.0327864052947
 30
0.0
  0
POINT
  5
190
100
AcDbEntity
  8
Defpoints
370
               0
390
0
 62
               0
100
AcDbPoint
 10
509.0
 20
-493.0327864052947
 30
0.0
  0
ENDBLK
  5
191
100
AcDbEntity
  8
ADF70-1605
390
0
100
AcDbBlockEnd
  0
ENDSEC
  0
SECTION
  2
ENTITIES
  0
MTEXT
  5
192
100
AcDbEntity
  8
template
390
0
 62
               7
100
AcDbMText
 10
-967.99999999975921
 20
-1147.4176292337006
 30
0.0
 40
16.288411458333332
 41
0.0
 71
               1
 72
               1
  1
品名
  7
ＭＳ ゴシック
 73
               1
 44
0.7828267384257843
  0
MTEXT
  5
193
100
AcDbEntity
  8
template
390
0
 62
               7
100
AcDbMText
 10
-967.99999999975921
 20
-1232.4176292337006
 30
0.0
 40
16.288411458333332
 41
0.0
 71
               1
 72
               1
  1
仕様
  7
ＭＳ ゴシック
 73
               1
 44
0.7828267384257843
  0
MTEXT
  5
194
100
AcDbEntity
  8
template
390
0
 62
               7
100
AcDbMText
 10
-914.99999999975921
 20
-1176.0000901712006
 30
0.0
 40
24.432617187500004
 41
0.0
 71
               1
 72
               1
  1
洗面器 -CATALANO,Roma-
  7
ＭＳ ゴシック
 73
               1
 44
0.7828267384257843
  0
LINE
  5
195
100
AcDbEntity
  8
template
370
               5
390
0
  6
Continuous
 62
               7
100
AcDbLine
 10
974.99999999975876
 20
-1224.0027073587007
 30
0.0
 11
-975.00000000024124
 21
-1224.0027073587007
 31
0.0
  0
LWPOLYLINE
  5
196
100
AcDbEntity
  8
template
370
               5
390
0
  6
Continuous
 62
               7
100
AcDbPolyline
 90
        5
 70
             128
 10
975.00000000024124
 20
1405.9972926412993
 10
-974.99999999975921
 20
1405.9972926412993
 10
-974.99999999975921
 20
-1394.0027073587007
 10
975.00000000024124
 20
-1394.0027073587007
 10
975.00000000024124
 20
1405.9972926412993
  0
LINE
  5
197
100
AcDbEntity
  8
template
370
               5
390
0
  6
Continuous
 62
               7
100
AcDbLine
 10
974.99999999975876
 20
-1139.0027073587007
 30
0.0
 11
-975.00000000024124
 21
-1139.0027073587007
 31
0.0
  0
LINE
  5
198
100
AcDbEntity
  8
template
370
               5
390
0
  6
Continuous
 62
               7
100
AcDbLine
 10
975.00000000024124
 20
-1309.0027073587007
 30
0.0
 11
222.00000000024124
 21
-1309.0027073587007
 31
0.0
  0
MTEXT
  5
199
100
AcDbEntity
  8
template
390
0
 62
               7
100
AcDbMText
 10
-974.99999999955594
 20
-1405.8565294155578
 30
0.0
 40
21.717881944444446
 41
0.0
 71
               1
 72
               1
  1
100707SH
  7
ＭＳ ゴシック
 73
               1
 44
0.7828267384257843
  0
MTEXT
  5
19A
100
AcDbEntity
  8
template
390
0
 62
               7
100
AcDbMText
 10
251.87140625250095
 20
-1338.9131018320081
 30
0.0
 40
24.432617187500004
 41
0.0
 71
               1
 72
               1
  1
大洋金物株式会社 ティーフォルム事業部
  7
ＭＳ ゴシック
 73
               1
 44
0.7828267384257843
  0
INSERT
  5
19B
100
AcDbEntity
  8
template
390
0
 62
               7
100
AcDbBlockReference
  2
グループ
 10
1674.3942609692251
 20
-3825.8012986816057
 30
0.0
  0
MTEXT
  5
19C
100
AcDbEntity
  8
template
390
0
 62
               7
100
AcDbMText
 10
784.00000000049999
 20
-1261.0000901712006
 30
0.0
 40
24.432617187500004
 41
0.0
 71
               1
 72
               1
  1
1:10
  7
ＭＳ ゴシック
 73
               1
 44
0.7828267384257843
  0
MTEXT
  5
19D
100
AcDbEntity
  8
template
390
0
 62
               7
100
AcDbMText
 10
731.00000000049999
 20
-1232.4176292337006
 30
0.0
 40
16.288411458333332
 41
0.0
 71
               1
 72
               1
  1
縮尺
  7
ＭＳ ゴシック
 73
               1
 44
0.7828267384257843
  0
LINE
  5
19E
100
AcDbEntity
  8
template
370
               5
390
0
  6
Continuous
 62
               7
100
AcDbLine
 10
724.00000000049999
 20
-1309.0027073587007
 30
0.0
 11
724.00000000049999
 21
-1224.0027073587007
 31
0.0
  0
MTEXT
  5
19F
100
AcDbEntity
  8
template
390
0
 62
               7
100
AcDbMText
 10
480.00000000049999
 20
-1232.4176292337006
 30
0.0
 40
16.288411458333332
 41
0.0
 71
               1
 72
               1
  1
容量
  7
ＭＳ ゴシック
 73
               1
 44
0.7828267384257843
  0
MTEXT
  5
1A0
100
AcDbEntity
  8
template
390
0
 62
               7
100
AcDbMText
 10
533.00000000049999
 20
-1261.0000901712006
 30
0.0
 40
24.432617187500004
 41
0.0
 71
               1
 72
               1
  1
5L
  7
ＭＳ ゴシック
 73
               1
 44
0.7828267384257843
  0
LINE
  5
1A1
100
AcDbEntity
  8
template
370
               5
390
0
  6
Continuous
 62
               7
100
AcDbLine
 10
473.00000000049999
 20
-1309.0027073587007
 30
0.0
 11
473.00000000049999
 21
-1224.0027073587007
 31
0.0
  0
MTEXT
  5
1A2
100
AcDbEntity
  8
template
390
0
 62
               7
100
AcDbMText
 10
229.00000000049999
 20
-1147.4176292337006
 30
0.0
 40
16.288411458333332
 41
0.0
 71
               1
 72
               1
  1
品番
  7
ＭＳ ゴシック
 73
               1
 44
0.7828267384257843
  0
MTEXT
  5
1A3
100
AcDbEntity
  8
template
390
0
 62
               7
100
AcDbMText
 10
229.00000000049999
 20
-1232.4176292337006
 30
0.0
 40
16.288411458333332
 41
0.0
 71
               1
 72
               1
  1
重量
  7
ＭＳ ゴシック
 73
               1
 44
0.7828267384257843
  0
MTEXT
  5
1A4
100
AcDbEntity
  8
template
390
0
 62
               7
100
AcDbMText
 10
282.00000000049999
 20
-1176.0000901712006
 30
0.0
 40
24.432617187500004
 41
0.0
 71
               1
 72
               1
  1
ADF70-1605
  7
ＭＳ ゴシック
 73
               1
 44
0.7828267384257843
  0
MTEXT
  5
1A5
100
AcDbEntity
  8
template
390
0
 62
               7
100
AcDbMText
 10
282.00000000049999
 20
-1261.0000901712006
 30
0.0
 40
24.432617187500004
 41
0.0
 71
               1
 72
               1
  1
17kg
  7
ＭＳ ゴシック
 73
               1
 44
0.7828267384257843
  0
LINE
  5
1A6
100
AcDbEntity
  8
template
370
               5
390
0
  6
Continuous
 62
               7
100
AcDbLine
 10
222.00000000049999
 20
-1394.0027073587007
 30
0.0
 11
222.00000000049999
 21
-1139.0027073587007
 31
0.0
  0
MTEXT
  5
1A7
100
AcDbEntity
  8
template
390
0
 62
               7
100
AcDbMText
 10
-914.99999999975921
 20
-1261.0000901712001
 30
0.0
 40
24.432617187500004
 41
0.0
 71
               1
 72
               1
  1
壁掛け,カウンタ ー置き,半埋め込み/オーバーフロー付き/壁取付ボルト付属/\P陶器/ホワイト
  7
ＭＳ ゴシック
 73
               1
 44
1.3047112307096407
  0
MTEXT
  5
1A8
100
AcDbEntity
  8
notes
390
0
 62
               7
100
AcDbMText
 10
-828.02060235897147
 20
208.99875649812475
 30
0.0
 40
24.432617187500004
 41
834.28030554221073
 71
               1
 72
               1
  1
＝φ30もしくはφ35の水栓取付用穴あけ加工を承ります。\P   必要な場合、ご注文の際にご指示ください。
  7
ＭＳゴシック
 73
               1
 44
1.0437689845677123
  0
MTEXT
  5
1A9
100
AcDbEntity
  8
notes
390
0
 62
               7
100
AcDbMText
 10
-257.09330961935916
 20
-259.55178559103069
 30
0.0
 40
24.432617187500004
 41
0.0
 71
               1
 72
               1
  1
壁取付ボルト穴(2ヶ所)
  7
ＭＳ ゴシック
 73
               1
 44
0.7828267384257843
  0
MTEXT
  5
1AA
100
AcDbEntity
  8
notes
390
0
 62
               7
100
AcDbMText
 10
318.44583333333048
 20
1116.6397089759867
 30
0.0
 40
24.432617187500004
 41
0.0
 71
               1
 72
               1
  1
カウンター切込寸法
  7
ＭＳゴシック
 73
               1
 44
0.7828267384257843
  0
MTEXT
  5
1AB
100
AcDbEntity
  8
notes
390
0
 62
               7
100
AcDbMText
 10
390.02249753635533
 20
962.12685928001611
 30
0.0
 40
24.432617187500004
 41
0.0
 71
               1
 72
               1
  1
カウンター置き
  7
ＭＳ ゴシック
 73
               1
 44
0.7828267384257843
  0
LINE
  5
1AC
100
AcDbEntity
  8
notes
370
               5
390
0
  6
Continuous
 62
               7
100
AcDbLine
 10
-340.00000000000068
 20
-388.08789604217964
 30
0.0
 11
-241.37427716363209
 21
-289.46217320581127
 31
0.0
  0
MTEXT
  5
1AD
100
AcDbEntity
  8
notes
390
0
 62
               7
100
AcDbMText
 10
-691.52410234943113
 20
-714.53479761748213
 30
0.0
 40
24.432617187500004
 41
0.0
 71
               1
 72
               1
  1
カウンター置き
  7
ＭＳ ゴシック
 73
               1
 44
0.7828267384257843
  0
LINE
  5
1AE
100
AcDbEntity
  8
notes
370
               5
390
0
  6
Continuous
 62
               7
100
AcDbLine
 10
-599.57642980095102
 20
-508.08789604218009
 30
0.0
 11
-706.27642980095175
 21
-508.08789604218009
 31
0.0
  0
LINE
  5
1AF
100
AcDbEntity
  8
notes
370
               5
390
0
  6
Continuous
 62
               7
100
AcDbLine
 10
-681.27642980095175
 20
-508.08789604218009
 30
0.0
 11
-681.27642980095175
 21
-703.2995841778752
 31
0.0
  0
INSERT
  5
1B0
100
AcDbEntity
  8
notes
390
0
 62
               7
100
AcDbBlockReference
  2
グループ-1
 10
1674.3942609692251
 20
-3825.8012986816057
 30
0.0
  0
DIMENSION
  5
1B1
100
AcDbEntity
  8
notes
370
               5
390
0
  6
Continuous
 62
               7
100
AcDbDimension
  2
*D5
 10
-580.00000000000068
 20
-248.08789604217964
 30
0.0
 11
-460.00000000000068
 21
-248.08789604217964
 31
0.0
 71
               5
 72
               1
 41
1.0
 42
0.0
  3
Tform線あり
100
AcDbAlignedDimension
 13
-340.00000000000068
 23
-368.08789604217964
 33
0.0
 14
-580.00000000000068
 24
-368.08789604217964
 34
0.0
100
AcDbRotatedDimension
1001
ACAD
1000
DSTYLE
1002
{
1070
             279
1070
               2
1070
             340
1005
3D
1070
             147
1040
5.0
1002
}
  0
DIMENSION
  5
1B2
100
AcDbEntity
  8
notes
370
               5
390
0
  6
Continuous
 62
               7
100
AcDbDimension
  2
*D6
 10
813.26139948387186
 20
-248.08789604217964
 30
0.0
 11
773.26139948387379
 21
-243.08789604217964
 31
0.0
 70
             128
 71
               5
 72
               1
 41
1.0
 42
0.0
  3
Tform線あり
100
AcDbAlignedDimension
 13
733.26139948387572
 23
-348.11586966068944
 33
0.0
 14
813.26139948387186
 24
-351.11536844566399
 34
0.0
100
AcDbRotatedDimension
1001
ACAD
1000
DSTYLE
1002
{
1070
             279
1070
               2
1070
             340
1005
3D
1070
             147
1040
5.0
1002
}
  0
DIMENSION
  5
1B3
100
AcDbEntity
  8
notes
370
               5
390
0
  6
Continuous
 62
               7
100
AcDbDimension
  2
*D7
 10
-659.99999999999704
 20
247.83430184137342
 30
0.0
 11
-459.99999999999977
 21
247.83430184137342
 31
0.0
 71
               5
 72
               1
 41
1.0
 42
0.0
  3
Tform線あり
100
AcDbAlignedDimension
 13
-260.00000000000205
 23
348.84450698571072
 33
0.0
 14
-659.99999999999704
 24
348.84450698570981
 34
0.0
100
AcDbRotatedDimension
1001
ACAD
1000
DSTYLE
1002
{
1070
             279
1070
               2
1070
             340
1005
3D
1070
             147
1040
5.0
1002
}
  0
CIRCLE
  5
1B4
100
AcDbEntity
  8
notes
370
              15
390
0
  6
STYLE_12
 62
               7
100
AcDbCircle
 10
-855.2108341901419
 20
194.17095319550617
 30
0.0
 40
17.5
  0
DIMENSION
  5
1B5
100
AcDbEntity
  8
notes
370
               5
390
0
  6
Continuous
 62
               7
100
AcDbDimension
  2
*D8
 10
538.91390034067967
 20
-348.09548172513223
 30
0.0
 11
533.91390034067967
 21
-344.2995841778752
 31
0.0
 70
             128
 71
               5
 72
               1
 41
1.0
 42
0.0
  3
Tform線あり
100
AcDbAlignedDimension
 13
551.91390034067967
 23
-448.09548172513223
 33
0.0
 14
551.91390034067967
 24
-348.09548172513223
 34
0.0
 50
90.0
100
AcDbRotatedDimension
1001
ACAD
1000
DSTYLE
1002
{
1070
             279
1070
               2
1070
             340
1005
3D
1070
               3
1000
<>(深さ)
1070
             174
1070
               0
1070
             147
1040
5.0
1002
}
  0
DIMENSION
  5
1B6
100
AcDbEntity
  8
notes
370
               5
390
0
  6
Continuous
 62
               7
100
AcDbDimension
  2
*D9
 10
654.48916580985792
 20
247.83430184137342
 30
0.0
 11
454.48916580985792
 21
247.83430184137342
 31
0.0
 71
               5
 72
               1
 41
1.0
 42
0.0
  3
Tform線あり
100
AcDbAlignedDimension
 13
254.48916580985792
 23
417.83430184137342
 33
0.0
 14
654.48916580985792
 24
417.83430184137342
 34
0.0
100
AcDbRotatedDimension
1001
ACAD
1000
DSTYLE
1002
{
1070
             279
1070
               2
1070
             340
1005
3D
1070
             147
1040
5.0
1002
}
  0
MTEXT
  5
1B7
100
AcDbEntity
  8
notes
390
0
 62
               7
100
AcDbMText
 10
88.471956768526525
 20
208.99875649812475
 30
0.0
 40
24.432617187500004
 41
764.7717154610109
 71
               1
 72
               1
  1
※陶器製品には寸法公差があります。\P  洗面器の収め方をご確認の上、必ず現物を合わせて\P  カウンターに切込を行ってください。
  7
ＭＳ ゴシック
 73
               1
 44
1.0437689845677123
  0
DIMENSION
  5
1B8
100
AcDbEntity
  8
notes
370
               5
390
0
  6
Continuous
 62
               7
100
AcDbDimension
  2
*D10
 10
-820.00000000000068
 20
867.83430184137342
 30
0.0
 11
-820.00000000000068
 21
792.83299530806835
 31
0.0
 71
               5
 72
               1
 41
1.0
 42
0.0
  3
Tform線あり
100
AcDbAlignedDimension
 13
-720.00000000000068
 23
717.83168877476328
 33
0.0
 14
-717.00000000000068
 24
867.83430184137342
 34
0.0
 50
90.0
100
AcDbRotatedDimension
1001
ACAD
1000
DSTYLE
1002
{
1070
             279
1070
               2
1070
             340
1005
3D
1070
             147
1040
5.0
1002
}
  0
DIMENSION
  5
1B9
100
AcDbEntity
  8
notes
370
               5
390
0
  6
Continuous
 62
               7
100
AcDbDimension
  2
*D11
 10
-820.00000000000068
 20
717.83168877476328
 30
0.0
 11
-820.00000000000068
 21
562.83299530806835
 31
0.0
 71
               5
 72
               1
 41
1.0
 42
0.0
  3
Tform線あり
100
AcDbAlignedDimension
 13
-720.00000000000068
 23
407.83430184137342
 33
0.0
 14
-720.00000000000068
 24
717.83168877476328
 34
0.0
 50
90.0
100
AcDbRotatedDimension
1001
ACAD
1000
DSTYLE
1002
{
1070
             279
1070
               2
1070
             340
1005
3D
1070
             147
1040
5.0
1002
}
  0
DIMENSION
  5
1BA
100
AcDbEntity
  8
notes
370
               5
390
0
  6
Continuous
 62
               7
100
AcDbDimension
  2
*D12
 10
-820.00000000000068
 20
-388.08789604217964
 30
0.0
 11
-820.00000000000068
 21
-368.08789604217964
 31
0.0
 71
               5
 72
               1
 41
1.0
 42
0.0
  3
Tform線あり
100
AcDbAlignedDimension
 13
-717.00000000000068
 23
-348.08789604217964
 33
0.0
 14
-630.00207382547865
 24
-388.08789604217964
 34
0.0
 50
90.0
100
AcDbRotatedDimension
1001
ACAD
1000
DSTYLE
1002
{
1070
             279
1070
               2
1070
             340
1005
3D
1070
             147
1040
5.0
1002
}
  0
LINE
  5
1BB
100
AcDbEntity
  8
notes
370
               5
390
0
  6
Continuous
 62
               7
100
AcDbLine
 10
-733.25366342942402
 20
-448.08789604218009
 30
0.0
 11
-839.9536634294243
 21
-448.08789604218009
 31
0.0
  0
LINE
  5
1BC
100
AcDbEntity
  8
notes
370
               5
390
0
  6
Continuous
 62
               7
100
AcDbLine
 10
-814.9536634294243
 20
-448.08789604218009
 30
0.0
 11
-814.9536634294243
 21
-778.2995841778752
 31
0.0
  0
MTEXT
  5
1BD
100
AcDbEntity
  8
notes
390
0
 62
               7
100
AcDbMText
 10
-827.58166752347529
 20
-789.5330781014859
 30
0.0
 40
24.432617187500004
 41
0.0
 71
               1
 72
               1
  1
半埋め込み
  7
ＭＳ ゴシック
 73
               1
 44
0.7828267384257843
  0
DIMENSION
  5
1BE
100
AcDbEntity
  8
notes
370
               5
390
0
  6
Continuous
 62
               7
100
AcDbDimension
  2
*D13
 10
-100.0
 20
347.83430184137342
 30
0.0
 11
-100.0
 21
607.83430184137342
 31
0.0
 71
               5
 72
               1
 41
1.0
 42
0.0
  3
Tform線あり
100
AcDbAlignedDimension
 13
-203.0
 23
867.83430184137342
 33
0.0
 14
-250.0
 24
347.83430184137342
 34
0.0
 50
90.0
100
AcDbRotatedDimension
1001
ACAD
1000
DSTYLE
1002
{
1070
             279
1070
               2
1070
             340
1005
3D
1070
             147
1040
5.0
1002
}
  0
DIMENSION
  5
1BF
100
AcDbEntity
  8
notes
370
               5
390
0
  6
Continuous
 62
               7
100
AcDbDimension
  2
*D14
 10
-100.00000000000068
 20
-348.08789604217964
 30
0.0
 11
-100.00000000000068
 21
-428.08789604217964
 31
0.0
 71
               5
 72
               1
 41
1.0
 42
0.0
  3
Tform線あり
100
AcDbAlignedDimension
 13
-340.00207382547887
 23
-508.08789604217964
 33
0.0
 14
-204.45029479262075
 24
-348.08789604217964
 34
0.0
 50
90.0
100
AcDbRotatedDimension
1001
ACAD
1000
DSTYLE
1002
{
1070
             279
1070
               2
1070
             340
1005
3D
1070
             147
1040
5.0
1002
}
  0
DIMENSION
  5
1C0
100
AcDbEntity
  8
notes
370
               5
390
0
  6
Continuous
 62
               7
100
AcDbDimension
  2
*D15
 10
-720.00000000000068
 20
967.83430184137342
 30
0.0
 11
-460.00000000000023
 21
967.83430184137342
 31
0.0
 71
               5
 72
               1
 41
1.0
 42
0.0
  3
Tform線あり
100
AcDbAlignedDimension
 13
-200.0
 23
864.83430184137342
 33
0.0
 14
-720.00000000000068
 24
864.83430184137342
 34
0.0
100
AcDbRotatedDimension
1001
ACAD
1000
DSTYLE
1002
{
1070
             279
1070
               2
1070
             340
1005
3D
1070
             147
1040
5.0
1002
}
  0
DIMENSION
  5
1C1
100
AcDbEntity
  8
notes
370
               5
390
0
  6
Continuous
 62
               7
100
AcDbDimension
  2
*D16
 10
813.26139948387572
 20
-608.0327864052947
 30
0.0
 11
688.26139948387572
 21
-608.0327864052947
 31
0.0
 71
               5
 72
               1
 41
1.0
 42
0.0
  3
Tform線あり
100
AcDbAlignedDimension
 13
563.26139948387572
 23
-502.03278640529288
 33
0.0
 14
813.26139948387572
 24
-502.03278640529288
 34
0.0
100
AcDbRotatedDimension
1001
ACAD
1000
DSTYLE
1002
{
1070
             279
1070
               2
1070
             340
1005
3D
1070
             147
1040
5.0
1002
}
  0
DIMENSION
  5
1C2
100
AcDbEntity
  8
notes
370
               5
390
0
  6
Continuous
 62
               7
100
AcDbDimension
  2
*D17
 10
194.14478815392886
 20
-348.05759079313566
 30
0.0
 11
194.14478815392886
 21
-398.07065170311944
 31
0.0
 71
               5
 72
               1
 41
1.0
 42
0.0
  3
Tform線あり
100
AcDbAlignedDimension
 13
305.50736636606962
 23
-448.08371261310276
 33
0.0
 14
299.36729773950765
 24
-348.05759079313566
 34
0.0
 50
90.0
100
AcDbRotatedDimension
1001
ACAD
1000
DSTYLE
1002
{
1070
             279
1070
               2
1070
             340
1005
3D
1070
             147
1040
5.0
1002
}
  0
DIMENSION
  5
1C3
100
AcDbEntity
  8
notes
370
               5
390
0
  6
Continuous
 62
               7
100
AcDbDimension
  2
*D18
 10
604.48916580985792
 20
587.83430184137342
 30
0.0
 11
604.48916580985792
 21
717.83430184137342
 31
0.0
 71
               5
 72
               1
 41
1.0
 42
0.0
  3
Tform線あり
100
AcDbAlignedDimension
 13
504.48916580985792
 23
847.83430184137342
 33
0.0
 14
504.48916580985792
 24
587.83430184137342
 34
0.0
 50
90.0
100
AcDbRotatedDimension
1001
ACAD
1000
DSTYLE
1002
{
1070
             279
1070
               2
1070
             340
1005
3D
1070
             147
1040
5.0
1002
}
  0
DIMENSION
  5
1C4
100
AcDbEntity
  8
notes
370
               5
390
0
  6
Continuous
 62
               7
100
AcDbDimension
  2
*D19
 10
404.48916580985792
 20
487.83430184137342
 30
0.0
 11
454.48916580985792
 21
487.83430184137342
 31
0.0
 71
               5
 72
               1
 41
1.0
 42
0.0
  3
Tform線あり
100
AcDbAlignedDimension
 13
504.48916580985792
 23
587.83430184137342
 33
0.0
 14
404.48916580985792
 24
587.83430184137342
 34
0.0
100
AcDbRotatedDimension
1001
ACAD
1000
DSTYLE
1002
{
1070
             279
1070
               2
1070
             340
1005
3D
1070
             147
1040
5.0
1002
}
  0
DIMENSION
  5
1C5
100
AcDbEntity
  8
notes
370
               5
390
0
  6
Continuous
 62
               7
100
AcDbDimension
  2
*D20
 10
814.4416666666641
 20
417.83430184137342
 30
0.0
 11
814.4416666666641
 21
642.83430184137342
 31
0.0
 71
               5
 72
               1
 41
1.0
 42
0.0
  3
Tform線あり
100
AcDbAlignedDimension
 13
654.48916580985792
 23
867.83430184137342
 33
0.0
 14
654.48916580985792
 24
417.83430184137342
 34
0.0
 50
90.0
100
AcDbRotatedDimension
1001
ACAD
1000
DSTYLE
1002
{
1070
             279
1070
               2
1070
             340
1005
3D
1070
             147
1040
5.0
1002
}
  0
DIMENSION
  5
1C6
100
AcDbEntity
  8
notes
370
               5
390
0
  6
Continuous
 62
               7
100
AcDbDimension
  2
*D21
 10
-580.00207382547865
 20
-608.0327864052947
 30
0.0
 11
-460.00207382547865
 21
-608.0327864052947
 31
0.0
 71
               5
 72
               1
 41
1.0
 42
0.0
  3
Tform線あり
100
AcDbAlignedDimension
 13
-340.00207382547887
 23
-508.08789604218009
 33
0.0
 14
-580.00207382547865
 24
-508.08789604218009
 34
0.0
100
AcDbRotatedDimension
1001
ACAD
1000
DSTYLE
1002
{
1070
             279
1070
               2
1070
             340
1005
3D
1070
             147
1040
5.0
1002
}
  0
DIMENSION
  5
1C7
100
AcDbEntity
  8
notes
370
               5
390
0
  6
Continuous
 62
               7
100
AcDbDimension
  2
*D22
 10
813.26139948387572
 20
-657.99958417787502
 30
0.0
 11
633.26139948387572
 21
-657.99958417787502
 31
0.0
 71
               5
 72
               1
 41
1.0
 42
0.0
  3
Tform線あり
100
AcDbAlignedDimension
 13
453.26139948387572
 23
-502.03278640529288
 33
0.0
 14
813.26139948387572
 24
-502.03278640529288
 34
0.0
100
AcDbRotatedDimension
1001
ACAD
1000
DSTYLE
1002
{
1070
             279
1070
               2
1070
             340
1005
3D
1070
             147
1040
5.0
1002
}
  0
DIMENSION
  5
1C8
100
AcDbEntity
  8
notes
370
               5
390
0
  6
Continuous
 62
               7
100
AcDbDimension
  2
*D23
 10
194.14478815392886
 20
-448.08371261310276
 30
0.0
 11
194.14478815392886
 21
-478.08371261310276
 31
0.0
 71
               5
 72
               1
 41
1.0
 42
0.0
  3
Tform線あり
100
AcDbAlignedDimension
 13
452.14437007000993
 23
-508.08371261310276
 33
0.0
 14
280.50736636606962
 24
-448.08371261310276
 34
0.0
 50
90.0
100
AcDbRotatedDimension
1001
ACAD
1000
DSTYLE
1002
{
1070
             279
1070
               2
1070
             340
1005
3D
1070
             147
1040
5.0
1002
}
  0
MTEXT
  5
1C9
100
AcDbEntity
  8
notes
390
0
 62
               7
100
AcDbMText
 10
238.17682754315206
 20
1006.8280330096241
 30
0.0
 40
24.432617187500004
 41
0.0
 71
               1
 72
               1
  1
半埋め込み
  7
ＭＳ ゴシック
 73
               1
 44
0.7828267384257843
  0
DIMENSION
  5
1CA
100
AcDbEntity
  8
notes
370
               5
390
0
  6
Continuous
 62
               7
100
AcDbDimension
  2
*D24
 10
604.48916580985792
 20
847.83430184137342
 30
0.0
 11
609.48916580985792
 21
871.70041582212434
 31
0.0
 70
             128
 71
               5
 72
               1
 41
1.0
 42
0.0
  3
Tform線あり
100
AcDbAlignedDimension
 13
504.48916580985792
 23
867.83430184137342
 33
0.0
 14
504.48916580985792
 24
847.83430184137342
 34
0.0
 50
90.0
100
AcDbRotatedDimension
1001
ACAD
1000
DSTYLE
1002
{
1070
             279
1070
               2
1070
             340
1005
3D
1070
             174
1070
               0
1070
             147
1040
5.0
1002
}
  0
LINE
  5
1CB
100
AcDbEntity
  8
notes
370
               5
390
0
  6
Continuous
 62
               7
100
AcDbLine
 10
404.48916580985792
 20
847.83430184137342
 30
0.0
 11
404.48916580985792
 21
925.70041582212525
 31
0.0
  0
LINE
  5
1CC
100
AcDbEntity
  8
notes
370
               5
390
0
  6
Continuous
 62
               7
100
AcDbLine
 10
254.48916580985792
 20
867.83430184137342
 30
0.0
 11
254.48916580985792
 21
969.70041582212525
 31
0.0
  0
LWPOLYLINE
  5
1CD
100
AcDbEntity
  8
ADF70-1605
370
              15
390
0
  6
Continuous
 62
               7
100
AcDbPolyline
 90
        9
 70
             129
 10
-669.99999999999886
 20
347.83430184137342
 10
-250.0
 20
347.83430184137342
 42
0.4142135623731057
 10
-200.0
 20
397.83430184137524
 10
-200.0
 20
864.83430184137342
 42
0.4142135623731173
 10
-203.0
 20
867.83430184137342
 10
-717.00000000000068
 20
867.83430184137342
 42
0.414213562373095
 10
-720.00000000000068
 20
864.83430184137342
 10
-719.99999999999886
 20
397.83430184137524
 42
0.4142135623730844
 10
-669.99999999999886
 20
347.83430184137342
  0
LINE
  5
1CE
100
AcDbEntity
  8
ADF70-1605
370
              15
390
0
  6
Continuous
 62
               7
100
AcDbLine
 10
-630.00000000000068
 20
717.83430184137342
 30
0.0
 11
-290.00000000000205
 21
717.83430184137342
 31
0.0
  0
LINE
  5
1CF
100
AcDbEntity
  8
ADF70-1605
370
              15
390
0
  6
Continuous
 62
               7
100
AcDbLine
 10
-659.99999999999704
 20
437.83430184137342
 30
0.0
 11
-660.00000000000068
 21
687.83430184137342
 31
0.0
  0
ARC
  5
1D0
100
AcDbEntity
  8
ADF70-1605
370
              15
390
0
  6
Continuous
 62
               7
100
AcDbCircle
 10
-629.99999999999704
 20
437.83430184137342
 30
0.0
 40
30.0
100
AcDbArc
 50
180.0
 51
270.0
  0
LINE
  5
1D1
100
AcDbEntity
  8
ADF70-1605
370
              15
390
0
  6
Continuous
 62
               7
100
AcDbLine
 10
-260.00000000000205
 20
437.83430184137342
 30
0.0
 11
-260.00000000000205
 21
687.83430184137342
 31
0.0
  0
LINE
  5
1D2
100
AcDbEntity
  8
ADF70-1605
370
              15
390
0
  6
Continuous
 62
               7
100
AcDbLine
 10
-629.99999999999704
 20
407.83430184137342
 30
0.0
 11
-290.00000000000205
 21
407.83430184137342
 31
0.0
  0
CIRCLE
  5
1D3
100
AcDbEntity
  8
ADF70-1605
370
              15
390
0
  6
Continuous
 62
               7
100
AcDbCircle
 10
-460.00000000000205
 20
620.59959542919296
 30
0.0
 40
38.999999999999091
  0
CIRCLE
  5
1D4
100
AcDbEntity
  8
ADF70-1605
370
              15
390
0
  6
Continuous
 62
               7
100
AcDbCircle
 10
-460.00000000000205
 20
620.59959542919205
 30
0.0
 40
23.043551013696742
  0
ARC
  5
1D5
100
AcDbEntity
  8
ADF70-1605
370
              15
390
0
  6
Continuous
 62
               7
100
AcDbCircle
 10
-290.00000000000205
 20
687.83430184137342
 30
0.0
 40
30.0
100
AcDbArc
 50
0.0
 51
90.0
  0
ARC
  5
1D6
100
AcDbEntity
  8
ADF70-1605
370
              15
390
0
  6
Continuous
 62
               7
100
AcDbCircle
 10
-630.00000000000068
 20
687.83430184137342
 30
0.0
 40
30.0
100
AcDbArc
 50
90.0
 51
180.0
  0
ARC
  5
1D7
100
AcDbEntity
  8
ADF70-1605
370
              15
390
0
  6
Continuous
 62
               7
100
AcDbCircle
 10
-629.99999999999886
 20
437.83430184137342
 30
0.0
 40
30.0
100
AcDbArc
 50
180.0
 51
270.0
  0
ARC
  5
1D8
100
AcDbEntity
  8
ADF70-1605
370
              15
390
0
  6
Continuous
 62
               7
100
AcDbCircle
 10
-290.00000000000205
 20
437.83430184137342
 30
0.0
 40
30.0
100
AcDbArc
 50
270.0
 51
0.0
  0
CIRCLE
  5
1D9
100
AcDbEntity
  8
ADF70-1605
370
              15
390
0
  6
STYLE_12
 62
               7
100
AcDbCircle
 10
-460.00000000000205
 20
787.79959542919187
 30
0.0
 40
17.5
  0
LINE
  5
1DA
100
AcDbEntity
  8
ADF70-1605
370
              15
390
0
  6
Continuous
 62
               7
100
AcDbLine
 10
-279.62252026032888
 20
448.57364263616091
 30
0.0
 11
-279.62252026033593
 21
688.92817652537451
 31
0.0
  0
LINE
  5
1DB
100
AcDbEntity
  8
ADF70-1605
370
              15
390
0
  6
Continuous
 62
               7
100
AcDbLine
 10
-640.37747973966611
 20
448.57364263616091
 30
0.0
 11
-640.3774797396652
 21
688.9281765253736
 31
0.0
  0
ARC
  5
1DC
100
AcDbEntity
  8
ADF70-1605
370
              15
390
0
  6
Continuous
 62
               7
100
AcDbCircle
 10
-629.37747973966611
 20
448.57364263616091
 30
0.0
 40
11.0
100
AcDbArc
 50
180.0
 51
270.0
  0
LINE
  5
1DD
100
AcDbEntity
  8
ADF70-1605
370
              15
390
0
  6
Continuous
 62
               7
100
AcDbLine
 10
-290.62252026032888
 20
437.57364263616
 30
0.0
 11
-629.37747973966611
 21
437.57364263616
 31
0.0
  0
ARC
  5
1DE
100
AcDbEntity
  8
ADF70-1605
370
              15
390
0
  6
Continuous
 62
               7
100
AcDbCircle
 10
-290.62252026032888
 20
448.57364263616091
 30
0.0
 40
11.0
100
AcDbArc
 50
270.0
 51
0.0
  0
SPLINE
  5
1DF
100
AcDbEntity
  8
ADF70-1605
370
              15
390
0
  6
Continuous
 62
               7
100
AcDbSpline
210
0.0
220
0.0
230
1.0
 70
               9
 71
               2
 72
              30
 73
              27
 74
               0
 42
0.000001
 43
0.000001
 40
0.0
 40
0.0
 40
0.0
 40
1.0
 40
1.0
 40
2.0
 40
3.0
 40
4.0
 40
5.0
 40
6.0
 40
7.0
 40
8.0
 40
9.0
 40
10.0
 40
11.0
 40
12.0
 40
13.0
 40
14.0
 40
15.0
 40
16.0
 40
17.0
 40
18.0
 40
19.0
 40
20.0
 40
21.0
 40
22.0
 40
22.0
 40
23.0
 40
23.0
 40
23.0
 10
-472.50000000000205
 20
712.10325369137809
 30
0.0
 10
-472.50000000000205
 20
712.04406826895774
 30
0.0
 10
-472.50000000000205
 20
711.9848828465374
 30
0.0
 10
-472.18159816524644
 20
711.35620647715496
 30
0.0
 10
-469.89155311918762
 20
710.64368723782263
 30
0.0
 10
-467.78464994178853
 20
710.24869190065147
 30
0.0
 10
-465.27858995283464
 20
709.96166320917291
 30
0.0
 10
-461.28341946970136
 20
709.7197771177598
 30
0.0
 10
-457.40417864579535
 20
709.79671858024994
 30
0.0
 10
-454.72141004716855
 20
709.96166390278813
 30
0.0
 10
-452.21535005821465
 20
710.24868785456147
 30
0.0
 10
-450.10844688081602
 20
710.64371082074558
 30
0.0
 10
-447.823836560264
 20
711.36497964698538
 30
0.0
 10
-447.43406213168669
 20
712.10325369137809
 30
0.0
 10
-447.81798377894961
 20
712.84976653530612
 30
0.0
 10
-450.10844688081556
 20
713.56279656200877
 30
0.0
 10
-452.21535005821511
 20
713.95781952819289
 30
0.0
 10
-454.721410047169
 20
714.24484347996713
 30
0.0
 10
-457.40417864579535
 20
714.40978880250623
 30
0.0
 10
-461.26892826229846
 20
714.489495604279
 30
0.0
 10
-465.27858995283464
 20
714.24484417358235
 30
0.0
 10
-467.78464994178853
 20
713.95781548210198
 30
0.0
 10
-469.89155311918762
 20
713.56282014493354
 30
0.0
 10
-472.17689503740417
 20
712.84468606014616
 30
0.0
 10
-472.50000000000205
 20
712.22162453621786
 30
0.0
 10
-472.50000000000205
 20
712.16243911379843
 30
0.0
 10
-472.50000000000205
 20
712.10325369137809
 30
0.0
  0
LINE
  5
1E0
100
AcDbEntity
  8
ADF70-1605
370
              15
390
0
  6
Continuous
 62
               7
100
AcDbLine
 10
-290.62252026033593
 20
699.92817652537451
 30
0.0
 11
-629.3774797396652
 21
699.92817652537451
 31
0.0
  0
ARC
  5
1E1
100
AcDbEntity
  8
ADF70-1605
370
              15
390
0
  6
Continuous
 62
               7
100
AcDbCircle
 10
-290.62252026033593
 20
688.9281765253736
 30
0.0
 40
11.0
100
AcDbArc
 50
0.0
 51
90.0
  0
ARC
  5
1E2
100
AcDbEntity
  8
ADF70-1605
370
              15
390
0
  6
Continuous
 62
               7
100
AcDbCircle
 10
-629.3774797396652
 20
688.9281765253736
 30
0.0
 40
11.0
100
AcDbArc
 50
90.0
 51
180.0
  0
LINE
  5
1E3
100
AcDbEntity
  8
ADF70-1605
370
              15
390
0
  6
Continuous
 62
               7
100
AcDbLine
 10
751.22669307169383
 20
-348.11576271916783
 30
0.0
 11
751.22669307169383
 21
-363.11576271916783
 31
0.0
  0
LINE
  5
1E4
100
AcDbEntity
  8
ADF70-1605
370
              15
390
0
  6
Continuous
 62
               7
100
AcDbLine
 10
715.22669307169383
 20
-363.11597701540268
 30
0.0
 11
715.22669307169383
 21
-348.11597701540268
 31
0.0
  0
LINE
  5
1E5
100
AcDbEntity
  8
ADF70-1605
370
              15
390
0
  6
STYLE_12
 62
               7
100
AcDbLine
 10
519.76438750110492
 20
-449.60162377009374
 30
0.0
 11
391.65546738372677
 21
-442.88771976039379
 31
0.0
  0
LINE
  5
1E6
100
AcDbEntity
  8
ADF70-1605
370
              15
390
0
  6
Continuous
 62
               7
100
AcDbLine
 10
294.92161420586672
 20
-443.1709746452907
 30
0.0
 11
293.367962101991
 21
-354.1623052265727
 31
0.0
  0
LINE
  5
1E7
100
AcDbEntity
  8
ADF70-1605
370
              15
390
0
  6
Continuous
 62
               7
100
AcDbLine
 10
347.41611955007284
 20
-348.05958855564904
 30
0.0
 11
299.36729773950583
 21
-348.05759079313702
 31
0.0
  0
LINE
  5
1E8
100
AcDbEntity
  8
ADF70-1605
370
              15
390
0
  6
Continuous
 62
               7
100
AcDbLine
 10
810.26138162585471
 20
-348.11536844571265
 30
0.0
 11
744.0266930716939
 21
-348.11576271916783
 31
0.0
  0
LINE
  5
1E9
100
AcDbEntity
  8
ADF70-1605
370
              15
390
0
  6
Continuous
 62
               7
100
AcDbLine
 10
305.50736636607189
 20
-448.08371261310504
 30
0.0
 11
299.92085268164783
 21
-448.08371261310504
 31
0.0
  0
LINE
  5
1EA
100
AcDbEntity
  8
ADF70-1605
370
              15
390
0
  6
STYLE_12
 62
               7
100
AcDbLine
 10
355.03740757290188
 20
-353.62835455243567
 30
0.0
 11
380.85106789124575
 21
-434.55101633778668
 31
0.0
  0
LINE
  5
1EB
100
AcDbEntity
  8
ADF70-1605
370
              15
390
0
  6
Continuous
 62
               7
100
AcDbLine
 10
347.41611955007284
 20
-348.05958855564904
 30
0.0
 11
669.97432539722286
 21
-348.11620352871068
 31
0.0
  0
LINE
  5
1EC
100
AcDbEntity
  8
ADF70-1605
370
              15
390
0
  6
Continuous
 62
               7
100
AcDbLine
 10
813.26139948387572
 20
-438.10983883608105
 30
0.0
 11
813.26139948387572
 21
-502.03278640529288
 31
0.0
  0
LINE
  5
1ED
100
AcDbEntity
  8
ADF70-1605
370
              15
390
0
  6
Continuous
 62
               7
100
AcDbLine
 10
796.96098151812271
 20
-508.03278640529106
 30
0.0
 11
808.26139948387572
 21
-508.03278640529106
 31
0.0
  0
LINE
  5
1EE
100
AcDbEntity
  8
ADF70-1605
370
              15
390
0
  6
Continuous
 62
               7
100
AcDbLine
 10
472.4743767326936
 20
-508.0327864052947
 30
0.0
 11
807.26139948387572
 21
-508.03278640529288
 31
0.0
  0
LINE
  5
1EF
100
AcDbEntity
  8
ADF70-1605
370
              15
390
0
  6
Continuous
 62
               7
100
AcDbLine
 10
472.47437673269496
 20
-508.0327864052947
 30
0.0
 11
454.33803658596071
 21
-508.03278640529288
 31
0.0
  0
LINE
  5
1F0
100
AcDbEntity
  8
ADF70-1605
370
              15
390
0
  6
Continuous
 62
               7
100
AcDbLine
 10
813.26139948387572
 20
-438.10983883608105
 30
0.0
 11
813.2613994838739
 21
-351.11536844566081
 31
0.0
  0
ARC
  5
1F1
100
AcDbEntity
  8
ADF70-1605
370
              15
390
0
  6
Continuous
 62
               7
100
AcDbCircle
 10
810.26139948387186
 20
-351.11536844566399
 30
0.0
 40
2.9999999999998863
100
AcDbArc
 50
0.0
 51
90.000341063082473
  0
LINE
  5
1F2
100
AcDbEntity
  8
ADF70-1605
370
              15
390
0
  6
STYLE_12
 62
               7
100
AcDbLine
 10
662.09586017878485
 20
-354.72730632577986
 30
0.0
 11
648.20227451080791
 21
-433.54349001015589
 31
0.0
  0
LINE
  5
1F3
100
AcDbEntity
  8
ADF70-1605
370
              15
390
0
  6
STYLE_12
 62
               7
100
AcDbLine
 10
608.74546487545581
 20
-449.12464506674496
 30
0.0
 11
640.04691117457878
 21
-442.88771976039288
 31
0.0
  0
ARC
  5
1F4
100
AcDbEntity
  8
ADF70-1605
370
              15
390
0
  6
STYLE_12
 62
               7
100
AcDbCircle
 10
609.86901842139378
 20
-453.99677267482366
 30
0.0
 40
5.0000000000001474
100
AcDbArc
 50
102.98586741156026
 51
129.99999999996925
  0
LINE
  5
1F5
100
AcDbEntity
  8
ADF70-1605
370
              15
390
0
  6
Continuous
 62
               7
100
AcDbLine
 10
715.22669307169383
 20
-348.11593415615562
 30
0.0
 11
669.97432539722286
 21
-348.11620352871068
 31
0.0
  0
LINE
  5
1F6
100
AcDbEntity
  8
ADF70-1605
370
              15
390
0
  6
Continuous
 62
               7
100
AcDbLine
 10
751.22669307169383
 20
-348.11576271916783
 30
0.0
 11
715.22669307169383
 21
-348.11597701540268
 31
0.0
  0
LINE
  5
1F7
100
AcDbEntity
  8
ADF70-1605
370
              15
390
0
  6
Continuous
 62
               7
100
AcDbLine
 10
305.50736636606962
 20
-448.08371261310276
 30
0.0
 11
813.26139948387572
 21
-448.09668422434606
 31
0.0
  0
LINE
  5
1F8
100
AcDbEntity
  8
ADF70-1605
370
              15
390
0
  6
STYLE_12
 62
               7
100
AcDbLine
 10
522.35346506411088
 20
-449.98222507752189
 30
0.0
 11
606.87475080881654
 21
-449.98222507752189
 31
0.0
  0
LINE
  5
1F9
100
AcDbEntity
  8
ADF70-1605
370
              15
390
0
  6
STYLE_12
 62
               7
100
AcDbLine
 10
542.09691735624801
 20
-465.55935223056895
 30
0.0
 11
542.09691735624801
 21
-493.0327864052947
 31
0.0
  0
LINE
  5
1FA
100
AcDbEntity
  8
ADF70-1605
370
              15
390
0
  6
STYLE_12
 62
               7
100
AcDbLine
 10
541.85936464243377
 20
-464.647679206666
 30
0.0
 11
589.62222556646202
 21
-464.64188363579888
 31
0.0
  0
LINE
  5
1FB
100
AcDbEntity
  8
ADF70-1605
370
              15
390
0
  6
STYLE_12
 62
               7
100
AcDbLine
 10
589.38154941778885
 20
-465.55935223056986
 30
0.0
 11
589.38154941778885
 21
-493.0
 31
0.0
  0
ARC
  5
1FC
100
AcDbEntity
  8
ADF70-1605
370
              15
390
0
  6
STYLE_12
 62
               7
100
AcDbCircle
 10
591.3812557291817
 20
-465.59362566315804
 30
0.0
 40
1.9999999999999691
100
AcDbArc
 50
129.99999999997925
 51
179.0180904185944
  0
LINE
  5
1FD
100
AcDbEntity
  8
ADF70-1605
370
              15
390
0
  6
STYLE_12
 62
               7
100
AcDbLine
 10
590.09568050980761
 20
-464.06153677691873
 30
0.0
 11
606.65508037296081
 21
-450.1665504592288
 31
0.0
  0
LINE
  5
1FE
100
AcDbEntity
  8
ADF70-1605
370
              15
390
0
  6
STYLE_12
 62
               7
100
AcDbLine
 10
541.38278626422971
 20
-464.06153677691782
 30
0.0
 11
528.03071064931464
 21
-452.85781505299201
 31
0.0
  0
ARC
  5
1FF
100
AcDbEntity
  8
ADF70-1605
370
              15
390
0
  6
STYLE_12
 62
               7
100
AcDbCircle
 10
519.0316841137028
 20
-463.58243725665807
 30
0.0
 40
13.999999999999952
100
AcDbArc
 50
50.000000000028621
 51
86.999999999994387
  0
ARC
  5
200
100
AcDbEntity
  8
ADF70-1605
370
              15
390
0
  6
STYLE_12
 62
               7
100
AcDbCircle
 10
540.09721104485698
 20
-465.59362566315576
 30
0.0
 40
1.999999999999835
100
AcDbArc
 50
0.9819095814057188
 51
50.000000000025743
  0
LINE
  5
201
100
AcDbEntity
  8
ADF70-1605
370
              15
390
0
  6
STYLE_12
 62
               7
100
AcDbLine
 10
589.38154941778885
 20
-493.0
 30
0.0
 11
542.09691735624801
 21
-493.0327864052947
 31
0.0
  0
ARC
  5
202
100
AcDbEntity
  8
ADF70-1605
370
              15
390
0
  6
STYLE_12
 62
               7
100
AcDbCircle
 10
392.28349885864191
 20
-430.90416534333872
 30
0.0
 40
11.999999999999815
100
AcDbArc
 50
197.69225308271788
 51
266.99999999999432
  0
ARC
  5
203
100
AcDbEntity
  8
ADF70-1605
370
              15
390
0
  6
STYLE_12
 62
               7
100
AcDbCircle
 10
636.38448317766574
 20
-431.46026942501885
 30
0.0
 40
11.999999999999954
100
AcDbArc
 50
287.77033715928269
 51
350.00270314597981
  0
ARC
  5
204
100
AcDbEntity
  8
ADF70-1605
370
              15
390
0
  6
Continuous
 62
               7
100
AcDbCircle
 10
299.92085268164965
 20
-443.08371261310504
 30
0.0
 40
4.999999999999841
100
AcDbArc
 50
181.00000000000182
 51
269.99999999989575
  0
ARC
  5
205
100
AcDbEntity
  8
ADF70-1605
370
              15
390
0
  6
Continuous
 62
               7
100
AcDbCircle
 10
299.36704827292897
 20
-354.05759078794972
 30
0.0
 40
6.0000000000001927
100
AcDbArc
 50
89.997617769651328
 51
181.00000000000176
  0
ARC
  5
206
100
AcDbEntity
  8
ADF70-1605
370
              15
390
0
  6
STYLE_12
 62
               7
100
AcDbCircle
 10
347.41578692797066
 20
-356.05958854873506
 30
0.0
 40
7.9999999999999023
100
AcDbArc
 50
17.692253082716686
 51
89.997617769651328
  0
ARC
  5
207
100
AcDbEntity
  8
ADF70-1605
370
              15
390
0
  6
STYLE_12
 62
               7
100
AcDbCircle
 10
669.97437301860782
 20
-356.1162035285688
 30
0.0
 40
7.9999999999998561
100
AcDbArc
 50
90.000341063082459
 51
170.00270314598109
  0
ARC
  5
208
100
AcDbEntity
  8
ADF70-1605
370
              15
390
0
  6
Continuous
 62
               7
100
AcDbCircle
 10
454.3380365859598
 20
-502.03278640529288
 30
0.0
 40
5.9999999999999609
100
AcDbArc
 50
228.85522362787788
 51
270.0
  0
LINE
  5
209
100
AcDbEntity
  8
ADF70-1605
370
              15
390
0
  6
Continuous
 62
               7
100
AcDbLine
 10
450.39025287931281
 20
-506.55108296544995
 30
0.0
 11
391.36651707058263
 21
-454.98011159851194
 31
0.0
  0
ARC
  5
20A
100
AcDbEntity
  8
ADF70-1605
370
              15
390
0
  6
Continuous
 62
               7
100
AcDbCircle
 10
386.10280546171589
 20
-461.00450701205273
 30
0.0
 40
8.0000000000007567
100
AcDbArc
 50
48.855223627775544
 51
74.013249150429118
  0
ARC
  5
20B
100
AcDbEntity
  8
ADF70-1605
370
              15
390
0
  6
Continuous
 62
               7
100
AcDbCircle
 10
400.04100481451997
 20
-412.35377256162292
 30
0.0
 40
42.607977273989462
100
AcDbArc
 50
236.99433571231756
 51
254.01324915042804
  0
ARC
  5
20C
100
AcDbEntity
  8
ADF70-1605
370
              15
390
0
  6
Continuous
 62
               7
100
AcDbCircle
 10
807.26139948387572
 20
-502.03278640529288
 30
0.0
 40
6.0
100
AcDbArc
 50
270.0
 51
0.0
  0
LWPOLYLINE
  5
20D
100
AcDbEntity
  8
ADF70-1605
370
              15
390
0
  6
Continuous
 62
               7
100
AcDbPolyline
 90
        8
 70
             129
 10
-720.00000000000068
 20
-351.08789604217964
 42
-0.414213562373095
 10
-717.00000000000068
 20
-348.08789604217964
 10
-203.00000000000068
 20
-348.08789604217964
 42
-0.414213562373095
 10
-200.00000000000068
 20
-351.08789604217964
 10
-200.00000000000068
 20
-445.08789604218009
 42
-0.414213562373095
 10
-203.00000000000068
 20
-448.08789604218009
 10
-717.00000000000068
 20
-448.08789604218009
 42
-0.4142135623730507
 10
-720.00000000000068
 20
-445.08789604218009
  0
LINE
  5
20E
100
AcDbEntity
  8
ADF70-1605
370
              15
390
0
  6
Continuous
 62
               7
100
AcDbLine
 10
-580.00207382547865
 20
-508.08789604218009
 30
0.0
 11
-340.00207382547887
 21
-508.08789604218009
 31
0.0
  0
LINE
  5
20F
100
AcDbEntity
  8
ADF70-1605
370
              15
390
0
  6
Continuous
 62
               7
100
AcDbLine
 10
-340.00207382547887
 20
-508.08789604217964
 30
0.0
 11
-271.33119067832558
 21
-448.08789604218009
 31
0.0
  0
LINE
  5
210
100
AcDbEntity
  8
ADF70-1605
370
              15
390
0
  6
Continuous
 62
               7
100
AcDbLine
 10
-580.00207382547865
 20
-508.08789604217964
 30
0.0
 11
-648.67295697263194
 21
-448.08789604218009
 31
0.0
  0
LINE
  5
211
100
AcDbEntity
  8
ADF70-1605
370
              15
390
0
  6
STYLE_12
 62
               7
100
AcDbLine
 10
-580.00000000000068
 20
-408.08789604217964
 30
0.0
 11
-580.00000000000068
 21
-368.08789604217964
 31
0.0
  0
LWPOLYLINE
  5
212
100
AcDbEntity
  8
ADF70-1605
370
               5
390
0
  6
STYLE_12
 62
               7
100
AcDbPolyline
 90
        9
 70
             129
 10
244.44166666666524
 20
347.83430184137342
 10
664.4416666666641
 20
347.83430184137342
 42
0.4142135623731057
 10
714.4416666666641
 20
397.83430184137524
 10
714.4416666666641
 20
864.83430184137342
 42
0.414213562373095
 10
711.4416666666641
 20
867.83430184137342
 10
197.44166666666342
 20
867.83430184137342
 42
0.414213562373095
 10
194.44166666666342
 20
864.83430184137342
 10
194.44166666666524
 20
397.83430184137524
 42
0.4142135623730817
 10
244.44166666666524
 20
347.83430184137342
  0
CIRCLE
  5
213
100
AcDbEntity
  8
ADF70-1605
370
               5
390
0
  6
STYLE_12
 62
               7
100
AcDbCircle
 10
454.44166666666206
 20
620.59959542919205
 30
0.0
 40
23.043551013696515
  0
CIRCLE
  5
214
100
AcDbEntity
  8
ADF70-1605
370
               5
390
0
  6
STYLE_12
 62
               7
100
AcDbCircle
 10
454.44166666666206
 20
787.79959542919187
 30
0.0
 40
17.5
  0
LINE
  5
215
100
AcDbEntity
  8
ADF70-1605
370
               5
390
0
  6
Continuous
 62
               7
100
AcDbLine
 10
144.48916580985792
 20
867.83430184137342
 30
0.0
 11
764.48916580985792
 21
867.83430184137342
 31
0.0
  0
POLYLINE
  5
216
100
AcDbEntity
  8
ADF70-1605
370
              15
390
0
  6
Continuous
 62
               7
100
AcDb2dPolyline
 66
               1
 10
0.0
 20
0.0
 30
0.0
 70
               1
 75
               5
  0
VERTEX
  5
217
100
AcDbEntity
  8
ADF70-1605
370
              15
390
0
  6
Continuous
 62
               7
100
AcDbVertex
100
AcDb2dVertex
 10
404.48916580985792
 20
847.83430184137342
 30
0.0
  0
VERTEX
  5
218
100
AcDbEntity
  8
ADF70-1605
370
              15
390
0
  6
Continuous
 62
               7
100
AcDbVertex
100
AcDb2dVertex
 10
504.48916580985792
 20
847.83430184137342
 30
0.0
  0
VERTEX
  5
219
100
AcDbEntity
  8
ADF70-1605
370
              15
390
0
  6
Continuous
 62
               7
100
AcDbVertex
100
AcDb2dVertex
 10
504.48916580985792
 20
587.83430184137342
 30
0.0
  0
VERTEX
  5
21A
100
AcDbEntity
  8
ADF70-1605
370
              15
390
0
  6
Continuous
 62
               7
100
AcDbVertex
100
AcDb2dVertex
 10
404.48916580985792
 20
587.83430184137342
 30
0.0
  0
SEQEND
  5
21B
100
AcDbEntity
  8
ADF70-1605
370
              15
390
0
  6
Continuous
 62
               7
  0
POLYLINE
  5
21C
100
AcDbEntity
  8
ADF70-1605
370
              15
390
0
  6
Continuous
 62
               7
100
AcDb2dPolyline
 66
               1
 10
0.0
 20
0.0
 30
0.0
 70
               1
 75
               5
  0
VERTEX
  5
21D
100
AcDbEntity
  8
ADF70-1605
370
              15
390
0
  6
Continuous
 62
               7
100
AcDbVertex
100
AcDb2dVertex
 10
254.48916580985792
 20
867.83430184137342
 30
0.0
  0
VERTEX
  5
21E
100
AcDbEntity
  8
ADF70-1605
370
              15
390
0
  6
Continuous
 62
               7
100
AcDbVertex
100
AcDb2dVertex
 10
654.48916580985792
 20
867.83430184137342
 30
0.0
  0
VERTEX
  5
21F
100
AcDbEntity
  8
ADF70-1605
370
              15
390
0
  6
Continuous
 62
               7
100
AcDbVertex
100
AcDb2dVertex
 10
654.48916580985792
 20
417.83430184137342
 30
0.0
  0
VERTEX
  5
220
100
AcDbEntity
  8
ADF70-1605
370
              15
390
0
  6
Continuous
 62
               7
100
AcDbVertex
100
AcDb2dVertex
 10
254.48916580985792
 20
417.83430184137342
 30
0.0
  0
SEQEND
  5
221
100
AcDbEntity
  8
ADF70-1605
370
              15
390
0
  6
Continuous
 62
               7
  0
LINE
  5
222
100
AcDbEntity
  8
ADF70-1605
370
              15
390
0
  6
STYLE_12
 62
               7
100
AcDbLine
 10
-414.02359239665907
 20
-449.64161939231917
 30
0.0
 11
-304.2505146458966
 21
-442.92771538261877
 31
0.0
  0
LINE
  5
223
100
AcDbEntity
  8
ADF70-1605
370
              15
390
0
  6
STYLE_12
 62
               7
100
AcDbLine
 10
-501.12359430824495
 20
-450.02222069974823
 30
0.0
 11
-416.61266995970595
 21
-450.02222069974823
 31
0.0
  0
LINE
  5
224
100
AcDbEntity
  8
ADF70-1605
370
              15
390
0
  6
STYLE_12
 62
               7
100
AcDbLine
 10
-436.35612225180216
 20
-465.59934785279438
 30
0.0
 11
-436.35612225180216
 21
-493.08789604218009
 31
0.0
  0
LINE
  5
225
100
AcDbEntity
  8
ADF70-1605
370
              15
390
0
  6
STYLE_12
 62
               7
100
AcDbLine
 10
-436.11856953798792
 20
-464.68767482889143
 30
0.0
 11
-483.88143046201617
 21
-464.68187925802431
 31
0.0
  0
LINE
  5
226
100
AcDbEntity
  8
ADF70-1605
370
              15
390
0
  6
STYLE_12
 62
               7
100
AcDbLine
 10
-483.64075431334436
 20
-465.59934785279665
 30
0.0
 11
-483.64075431334436
 21
-493.08789604218009
 31
0.0
  0
ARC
  5
227
100
AcDbEntity
  8
ADF70-1605
370
              15
390
0
  6
STYLE_12
 62
               7
100
AcDbCircle
 10
-485.64046062473585
 20
-465.63362128538347
 30
0.0
 40
2.0000000000000622
100
AcDbArc
 50
0.981909581405607
 51
50.000000000015774
  0
LINE
  5
228
100
AcDbEntity
  8
ADF70-1605
370
              15
390
0
  6
STYLE_12
 62
               7
100
AcDbLine
 10
-484.35488540536176
 20
-464.10153239914416
 30
0.0
 11
-497.73175283542082
 21
-452.89781067521335
 31
0.0
  0
LINE
  5
229
100
AcDbEntity
  8
ADF70-1605
370
              15
390
0
  6
STYLE_12
 62
               7
100
AcDbLine
 10
-435.64199115978386
 20
-464.10153239914325
 30
0.0
 11
-422.28991554486879
 21
-452.89781067521744
 31
0.0
  0
ARC
  5
22A
100
AcDbEntity
  8
ADF70-1605
370
              15
390
0
  6
STYLE_12
 62
               7
100
AcDbCircle
 10
-413.29088900925694
 20
-463.6224328788835
 30
0.0
 40
13.999999999999911
100
AcDbArc
 50
93.000000000005613
 51
129.99999999997067
  0
ARC
  5
22B
100
AcDbEntity
  8
ADF70-1605
370
              15
390
0
  6
STYLE_12
 62
               7
100
AcDbCircle
 10
-434.35641594041113
 20
-465.6336212853812
 30
0.0
 40
1.999999999999823
100
AcDbArc
 50
129.99999999997425
 51
179.01809041859417
  0
LINE
  5
22C
100
AcDbEntity
  8
ADF70-1605
370
              15
390
0
  6
STYLE_12
 62
               7
100
AcDbLine
 10
-483.64075431334436
 20
-493.08789604218009
 30
0.0
 11
-436.35612225180216
 21
-493.08789604218009
 31
0.0
  0
INSERT
  5
22D
100
AcDbEntity
  8
ADF70-1605
390
0
 62
               7
100
AcDbBlockReference
  2
グループ-2
 10
1674.3942609692251
 20
-3825.8012986816057
 30
0.0
  0
INSERT
  5
22E
100
AcDbEntity
  8
ADF70-1605
390
0
 62
               7
100
AcDbBlockReference
  2
グループ-4
 10
1674.3942609692251
 20
-3825.8012986816057
 30
0.0
  0
LINE
  5
22F
100
AcDbEntity
  8
ADF70-1605
370
              15
390
0
  6
STYLE_12
 62
               7
100
AcDbLine
 10
-560.00000000000068
 20
-388.08789604217964
 30
0.0
 11
-600.00000000000068
 21
-388.08789604217964
 31
0.0
  0
CIRCLE
  5
230
100
AcDbEntity
  8
ADF70-1605
370
              15
390
0
  6
STYLE_12
 62
               7
100
AcDbCircle
 10
-580.00000000000068
 20
-388.08789604217964
 30
0.0
 40
10.0
  0
LINE
  5
231
100
AcDbEntity
  8
ADF70-1605
370
              15
390
0
  6
STYLE_12
 62
               7
100
AcDbLine
 10
-340.00000000000068
 20
-408.08789604217964
 30
0.0
 11
-340.00000000000068
 21
-368.08789604217964
 31
0.0
  0
LINE
  5
232
100
AcDbEntity
  8
ADF70-1605
370
              15
390
0
  6
STYLE_12
 62
               7
100
AcDbLine
 10
-320.00000000000068
 20
-388.08789604217964
 30
0.0
 11
-360.00000000000068
 21
-388.08789604217964
 31
0.0
  0
CIRCLE
  5
233
100
AcDbEntity
  8
ADF70-1605
370
              15
390
0
  6
STYLE_12
 62
               7
100
AcDbCircle
 10
-340.00000000000068
 20
-388.08789604217964
 30
0.0
 40
10.0
  0
DIMENSION
  5
234
100
AcDbEntity
  8
ADF70-1605
370
               5
390
0
  6
Continuous
 62
               7
100
AcDbDimension
  2
*D28
 10
509.0
 20
-493.0327864052947
 30
0.0
 11
504.0
 21
-516.0
 31
0.0
 70
             128
 71
               5
 72
               1
 41
1.0
 42
0.0
  3
Tform線あり
100
AcDbAlignedDimension
 13
555.69402876475215
 23
-508.0327864052947
 33
0.0
 14
553.79094612100016
 24
-493.0327864052947
 34
0.0
 50
90.0
100
AcDbRotatedDimension
1001
ACAD
1000
DSTYLE
1002
{
1070
             279
1070
               2
1070
             340
1005
3D
1070
             174
1070
               0
1070
             147
1040
5.0
1002
}
  0
ENDSEC
  0
SECTION
  2
OBJECTS
  0
DICTIONARY
  5
19
100
AcDbDictionary
280
               0
281
               1
  3
ACAD_GROUP
350
1A
  3
ACAD_MLINESTYLE
350
1B
  3
ACAD_LAYOUT
350
1E
  3
ACAD_PLOTSETTINGS
350
22
  3
ACAD_PLOTSTYLENAME
350
1F
  0
DICTIONARY
  5
1A
102
{ACAD_REACTORS
330
19
102
}
100
AcDbDictionary
280
               0
281
               1
  0
DICTIONARY
  5
1B
102
{ACAD_REACTORS
330
19
102
}
100
AcDbDictionary
280
               0
281
               1
  3
Standard
350
1C
  0
MLINESTYLE
  5
1C
102
{ACAD_REACTORS
330
1B
102
}
100
AcDbMlineStyle
  2
Standard
 70
               0
  3

 62
               0
 51
90.0
 52
90.0
 71
               2
 49
0.5
 62
             256
  6
ByLayer
 49
-0.5
 62
             256
  6
ByLayer
  0
ACDBDICTIONARYWDFLT
  5
1F
102
{ACAD_REACTORS
330
19
102
}
100
AcDbDictionary
281
               1
  3
Normal
350
1D
100
AcDbDictionaryWithDefault
340
1D
  0
ACDBPLACEHOLDER
  5
1D
102
{ACAD_REACTORS
330
1F
102
}
  0
LAYOUT
  5
20
102
{ACAD_REACTORS
330
1E
102
}
100
AcDbPlotSettings
  1

  2

  4

  6

 40
0.0
 41
0.0
 42
0.0
 43
0.0
 44
0.0
 45
0.0
 46
0.0
 47
0.0
 48
0.0
 49
0.0
140
0.0
141
0.0
142
1.0
143
1.0
 70
            1024
 72
               0
 73
               0
 74
               0
  7

 75
               0
147
1.0
148
0.0
149
0.0
100
AcDbLayout
  1
Model
 70
               0
 71
               0
 10
0.0
 20
0.0
 11
0.0
 21
0.0
 12
0.0
 22
0.0
 32
0.0
 14
0.0
 24
0.0
 34
0.0
 15
0.0
 25
0.0
 35
0.0
146
0.0
 13
0.0
 23
0.0
 33
0.0
 16
0.0
 26
0.0
 36
0.0
 17
0.0
 27
0.0
 37
0.0
 76
               0
330
A
331
0
345
0
346
0
  0
LAYOUT
  5
21
102
{ACAD_REACTORS
330
1E
102
}
100
AcDbPlotSettings
  1

  2

  4

  6

 40
0.0
 41
0.0
 42
0.0
 43
0.0
 44
0.0
 45
0.0
 46
0.0
 47
0.0
 48
0.0
 49
0.0
140
0.0
141
0.0
142
1.0
143
1.0
 70
               0
 72
               0
 73
               0
 74
               0
  7

 75
               0
147
1.0
148
0.0
149
0.0
100
AcDbLayout
  1
Layout1
 70
               0
 71
               0
 10
0.0
 20
0.0
 11
0.0
 21
0.0
 12
0.0
 22
0.0
 32
0.0
 14
0.0
 24
0.0
 34
0.0
 15
0.0
 25
0.0
 35
0.0
146
0.0
 13
0.0
 23
0.0
 33
0.0
 16
0.0
 26
0.0
 36
0.0
 17
0.0
 27
0.0
 37
0.0
 76
               0
330
B
331
0
345
0
346
0
  0
DICTIONARY
  5
1E
102
{ACAD_REACTORS
330
19
102
}
100
AcDbDictionary
280
               0
281
               1
  3
Layout1
350
21
  3
Model
350
20
  0
DICTIONARY
  5
22
102
{ACAD_REACTORS
330
19
102
}
100
AcDbDictionary
280
               0
281
               1
  0
ENDSEC
  0
EOF
