  0
SECTION
  2
HEADER
  9
$ACADVER
  1
AC1015
  9
$ACADMAINTVER
 70
               6
  9
$DWGCODEPAGE
  3
ANSI_932
  9
$INSBASE
 10
0.0
 20
0.0
 30
0.0
  9
$EXTMIN
 10
-975.00000000024102
 20
-1431.5255224711136
 30
-14.834305555555556
  9
$EXTMAX
 10
975.00000000024102
 20
1405.9972926412993
 30
14.834305555555556
  9
$LIMMIN
 10
0.0
 20
0.0
  9
$LIMMAX
 10
0.0
 20
0.0
  9
$ORTHOMODE
 70
               0
  9
$REGENMODE
 70
               1
  9
$FILLMODE
 70
               1
  9
$QTEXTMODE
 70
               0
  9
$MIRRTEXT
 70
               1
  9
$LTSCALE
 40
50.799999999999997
  9
$ATTMODE
 70
               1
  9
$TEXTSIZE
 40
0.2
  9
$TRACEWID
 40
1.0
  9
$TEXTSTYLE
  7
Standard
  9
$CLAYER
  8
ADF70-1606
  9
$CELTYPE
  6
Continuous
  9
$CECOLOR
 62
             256
  9
$CELTSCALE
 40
1.0
  9
$DISPSILH
 70
               0
  9
$DIMSCALE
 40
1.0
  9
$DIMASZ
 40
22.4482421875
  9
$DIMEXO
 40
15.875
  9
$DIMDLI
 40
10.16
  9
$DIMRND
 40
0.0
  9
$DIMDLE
 40
1.5874999999999999
  9
$DIMEXE
 40
31.75
  9
$DIMTP
 40
0.0
  9
$DIMTM
 40
0.0
  9
$DIMTXT
 40
24.432617187500004
  9
$DIMCEN
 40
0.0
  9
$DIMTSZ
 40
0.0
  9
$DIMTOL
 70
               0
  9
$DIMLIM
 70
               0
  9
$DIMTIH
 70
               0
  9
$DIMTOH
 70
               0
  9
$DIMSE1
 70
               0
  9
$DIMSE2
 70
               0
  9
$DIMTAD
 70
               1
  9
$DIMZIN
 70
              11
  9
$DIMBLK
  1
VW_SLASH
  9
$DIMASO
 70
               1
  9
$DIMSHO
 70
               1
  9
$DIMPOST
  1
<>
  9
$DIMAPOST
  1
[]
  9
$DIMALT
 70
               0
  9
$DIMALTD
 70
               1
  9
$DIMALTF
 40
1.0
  9
$DIMLFAC
 40
1.0
  9
$DIMTOFL
 70
               1
  9
$DIMTVP
 40
0.0
  9
$DIMTIX
 70
               1
  9
$DIMSOXD
 70
               0
  9
$DIMSAH
 70
               0
  9
$DIMBLK1
  1

  9
$DIMBLK2
  1

  9
$DIMSTYLE
  2
Arch
  9
$DIMCLRD
 70
               0
  9
$DIMCLRE
 70
               0
  9
$DIMCLRT
 70
               0
  9
$DIMTFAC
 40
1.0
  9
$DIMGAP
 40
1.5874999999999999
  9
$DIMJUST
 70
               0
  9
$DIMSD1
 70
               0
  9
$DIMSD2
 70
               0
  9
$DIMTOLJ
 70
               1
  9
$DIMTZIN
 70
              11
  9
$DIMALTZ
 70
              11
  9
$DIMALTTZ
 70
              11
  9
$DIMUPT
 70
               0
  9
$DIMDEC
 70
               1
  9
$DIMTDEC
 70
               1
  9
$DIMALTU
 70
               2
  9
$DIMALTTD
 70
               2
  9
$DIMTXSTY
  7
ＭＳ ゴシック
  9
$DIMAUNIT
 70
               0
  9
$DIMADEC
 70
               2
  9
$DIMALTRND
 40
0.0
  9
$DIMAZIN
 70
               0
  9
$DIMDSEP
 70
              46
  9
$DIMATFIT
 70
               0
  9
$DIMFRAC
 70
               2
  9
$DIMLDRBLK
  1

  9
$DIMLUNIT
 70
               2
  9
$DIMLWD
 70
              -2
  9
$DIMLWE
 70
              -2
  9
$DIMTMOVE
 70
               0
  9
$LUNITS
 70
               2
  9
$LUPREC
 70
               4
  9
$SKETCHINC
 40
0.1
  9
$FILLETRAD
 40
0.0
  9
$AUNITS
 70
               0
  9
$AUPREC
 70
               0
  9
$MENU
  1
acad
  9
$ELEVATION
 40
0.0
  9
$PELEVATION
 40
0.0
  9
$THICKNESS
 40
0.0
  9
$LIMCHECK
 70
               0
  9
$CHAMFERA
 40
0.0
  9
$CHAMFERB
 40
0.0
  9
$CHAMFERC
 40
0.0
  9
$CHAMFERD
 40
0.0
  9
$SKPOLY
 70
               0
  9
$TDCREATE
 40
2456037.604803241
  9
$TDUCREATE
 40
0.000000000
  9
$TDUPDATE
 40
2456037.604803241
  9
$TDUUPDATE
 40
0.000000000
  9
$TDINDWG
 40
0.0000000000
  9
$TDUSRTIMER
 40
0.0000000000
  9
$USRTIMER
 70
               1
  9
$ANGBASE
 50
0.0
  9
$ANGDIR
 70
               0
  9
$PDMODE
 70
               1
  9
$PDSIZE
 40
-2.0
  9
$PLINEWID
 40
0.0
  9
$SPLFRAME
 70
               0
  9
$SPLINETYPE
 70
               6
  9
$SPLINESEGS
 70
               8
  9
$HANDSEED
  5
212
  9
$SURFTAB1
 70
               6
  9
$SURFTAB2
 70
               6
  9
$SURFTYPE
 70
               6
  9
$SURFU
 70
               6
  9
$SURFV
 70
               6
  9
$UCSBASE
  2

  9
$UCSNAME
  2

  9
$UCSORG
 10
0.0
 20
0.0
 30
0.0
  9
$UCSXDIR
 10
1.0
 20
0.0
 30
0.0
  9
$UCSYDIR
 10
0.0
 20
1.0
 30
0.0
  9
$UCSORTHOREF
  2

  9
$UCSORTHOVIEW
 70
               0
  9
$UCSORGTOP
 10
0.0
 20
0.0
 30
0.0
  9
$UCSORGBOTTOM
 10
0.0
 20
0.0
 30
0.0
  9
$UCSORGLEFT
 10
0.0
 20
0.0
 30
0.0
  9
$UCSORGRIGHT
 10
0.0
 20
0.0
 30
0.0
  9
$UCSORGFRONT
 10
0.0
 20
0.0
 30
0.0
  9
$UCSORGBACK
 10
0.0
 20
0.0
 30
0.0
  9
$PUCSBASE
  2

  9
$PUCSNAME
  2

  9
$PUCSORG
 10
0.0
 20
0.0
 30
0.0
  9
$PUCSXDIR
 10
1.0
 20
0.0
 30
0.0
  9
$PUCSYDIR
 10
0.0
 20
1.0
 30
0.0
  9
$PUCSORTHOREF
  2

  9
$PUCSORTHOVIEW
 70
               0
  9
$PUCSORGTOP
 10
0.0
 20
0.0
 30
0.0
  9
$PUCSORGBOTTOM
 10
0.0
 20
0.0
 30
0.0
  9
$PUCSORGLEFT
 10
0.0
 20
0.0
 30
0.0
  9
$PUCSORGRIGHT
 10
0.0
 20
0.0
 30
0.0
  9
$PUCSORGFRONT
 10
0.0
 20
0.0
 30
0.0
  9
$PUCSORGBACK
 10
0.0
 20
0.0
 30
0.0
  9
$USERI1
 70
               0
  9
$USERI2
 70
               0
  9
$USERI3
 70
               0
  9
$USERI4
 70
               0
  9
$USERI5
 70
               0
  9
$USERR1
 40
0.0
  9
$USERR2
 40
0.0
  9
$USERR3
 40
0.0
  9
$USERR4
 40
0.0
  9
$USERR5
 40
0.0
  9
$WORLDVIEW
 70
               1
  9
$SHADEDGE
 70
               3
  9
$SHADEDIF
 70
              70
  9
$TILEMODE
 70
               1
  9
$MAXACTVP
 70
              64
  9
$PINSBASE
 10
0.0
 20
0.0
 30
0.0
  9
$PLIMCHECK
 70
               0
  9
$PEXTMIN
 10
1.0000000000000000E+20
 20
1.0000000000000000E+20
 30
1.0000000000000000E+20
  9
$PEXTMAX
 10
-1.0000000000000000E+20
 20
-1.0000000000000000E+20
 30
-1.0000000000000000E+20
  9
$PLIMMIN
 10
0.0
 20
0.0
  9
$PLIMMAX
 10
12.0
 20
9.0
  9
$UNITMODE
 70
               0
  9
$VISRETAIN
 70
               0
  9
$PLINEGEN
 70
               1
  9
$PSLTSCALE
 70
               0
  9
$TREEDEPTH
 70
            3020
  9
$CMLSTYLE
  2
Standard
  9
$CMLJUST
 70
               0
  9
$CMLSCALE
 40
1.0
  9
$PROXYGRAPHICS
 70
               0
  9
$MEASUREMENT
 70
               1
  9
$CELWEIGHT
370
               0
  9
$ENDCAPS
280
               0
  9
$JOINSTYLE
280
               0
  9
$LWDISPLAY
290
               1
  9
$INSUNITS
 70
               4
  9
$HYPERLINKBASE
  1

  9
$STYLESHEET
  1

  9
$XEDIT
290
               1
  9
$CEPSNTYPE
380
               0
  9
$PSTYLEMODE
290
               1
  9
$FINGERPRINTGUID
  2

  9
$VERSIONGUID
  2

  9
$EXTNAMES
290
               1
  9
$PSVPSCALE
 40
0.0
  0
ENDSEC
  0
SECTION
  2
CLASSES
  0
CLASS
  1
LWPOLYLINE
  2
AcDbPolyline
  3
AutoCAD 2000
 90
        0
280
               0
281
               1
  0
CLASS
  1
IMAGE
  2
AcDbRasterImage
  3
ISM
 90
      127
280
               0
281
               1
  0
CLASS
  1
OLE2FRAME
  2
AcDbOle2Frame
  3
AutoCAD 2000
 90
        0
280
               0
281
               1
  0
CLASS
  1
HATCH
  2
AcDbHatch
  3
AutoCAD 2000
 90
        0
280
               0
281
               1
  0
CLASS
  1
DICTIONARYVAR
  2
AcDbDictionaryVar
  3
AutoCAD 2000
 90
        0
280
               0
281
               0
  0
CLASS
  1
RASTERVARIABLES
  2
AcDbRasterVariables
  3
ISM
 90
        0
280
               0
281
               0
  0
CLASS
  1
IMAGEDEF
  2
AcDbRasterImageDef
  3
ISM
 90
        0
280
               0
281
               0
  0
CLASS
  1
IMAGEDEF_REACTOR
  2
AcDbRasterImageDefReactor
  3
ISM
 90
        1
280
               0
281
               0
  0
CLASS
  1
IDBUFFER
  2
AcDbIdBuffer
  3
AutoCAD 2000
 90
        0
280
               0
281
               0
  0
CLASS
  1
SPATIAL_FILTER
  2
AcDbSpatialFilter
  3
AutoCAD 2000
 90
        0
280
               0
281
               0
  0
CLASS
  1
XRECORD
  2
AcDbXrecord
  3
AutoCAD 2000
 90
        0
280
               0
281
               0
  0
CLASS
  1
SORTENTSTABLE
  2
AcDbSortentsTable
  3
AutoCAD 2000
 90
        0
280
               0
281
               0
  0
CLASS
  1
LAYER_INDEX
  2
AcDbLayerIndex
  3
AutoCAD 2000
 90
        0
280
               0
281
               0
  0
CLASS
  1
SPATIAL_INDEX
  2
AcDbSpatialIndex
  3
AutoCAD 2000
 90
        0
280
               0
281
               0
  0
CLASS
  1
OBJECT_PTR
  2
CAseDLPNTableRecord
  3
"ASE-LPNTableRecord"
 90
        1
280
               0
281
               0
  0
CLASS
  1
LAYOUT
  2
AcDbLayout
  3
AutoCAD 2000
 90
        0
280
               0
281
               0
  0
CLASS
  1
PLOTSETTINGS
  2
AcDbPlotSettings
  3
AutoCAD 2000
 90
        0
280
               0
281
               0
  0
CLASS
  1
ACDBDICTIONARYWDFLT
  2
AcDbDictionaryWithDefault
  3
AutoCAD 2000
 90
        0
280
               0
281
               0
  0
CLASS
  1
ACDBPLACEHOLDER
  2
AcDbPlaceHolder
  3
AutoCAD 2000
 90
        0
280
               0
281
               0
  0
ENDSEC
  0
SECTION
  2
TABLES
  0
TABLE
  2
VPORT
  5
7
100
AcDbSymbolTable
 70
               1
  0
VPORT
  5
15
100
AcDbSymbolTableRecord
100
AcDbViewportTableRecord
  2
*ACTIVE
 70
               0
 10
0.0
 20
0.0
 11
1.0
 21
1.0
 12
0.0
 22
-12.764114914907168
 13
0.0
 23
0.0
 14
1.0
 24
1.0
 15
0.0
 25
0.0
 16
0.0
 26
0.0
 36
1.0
 17
0.0
 27
0.0
 37
0.0
 40
2837.5228151124129
 41
0.688564
 42
50.0
 43
0.0
 44
0.0
 50
0.0
 51
0.0
 71
               0
 72
            2000
 73
               1
 74
               1
 75
               0
 76
               0
 77
               0
 78
               0
281
               0
 65
               0
110
0.0
120
0.0
130
0.0
111
1.0
121
0.0
131
0.0
112
0.0
122
1.0
132
0.0
345
0
346
0
 79
               0
146
0.0
  0
ENDTAB
  0
TABLE
  2
LTYPE
  5
4
100
AcDbSymbolTable
 70
              14
  0
LTYPE
  5
11
100
AcDbSymbolTableRecord
100
AcDbLinetypeTableRecord
  2
ByBlock
 70
              64
  3

 72
              65
 73
               0
 40
0.0
  0
LTYPE
  5
12
100
AcDbSymbolTableRecord
100
AcDbLinetypeTableRecord
  2
ByLayer
 70
              64
  3

 72
              65
 73
               0
 40
0.0
  0
LTYPE
  5
13
100
AcDbSymbolTableRecord
100
AcDbLinetypeTableRecord
  2
Continuous
 70
              64
  3
Solid line
 72
              65
 73
               0
 40
0.0
  0
LTYPE
  5
34
100
AcDbSymbolTableRecord
100
AcDbLinetypeTableRecord
  2
STYLE_01
 70
               0
  3

 72
              65
 73
               2
 40
0.3749999999999999
 49
0.2499999999999999
 74
               0
 49
-0.125
 74
               0
  0
LTYPE
  5
35
100
AcDbSymbolTableRecord
100
AcDbLinetypeTableRecord
  2
STYLE_02
 70
               0
  3

 72
              65
 73
               2
 40
0.6944250000000001
 49
0.48607
 74
               0
 49
-0.2083550000000001
 74
               0
  0
LTYPE
  5
36
100
AcDbSymbolTableRecord
100
AcDbLinetypeTableRecord
  2
STYLE_03
 70
               0
  3

 72
              65
 73
               2
 40
1.25
 49
1.0416400000000001
 74
               0
 49
-0.2083599999999999
 74
               0
  0
LTYPE
  5
37
100
AcDbSymbolTableRecord
100
AcDbLinetypeTableRecord
  2
STYLE_04
 70
               0
  3

 72
              65
 73
               2
 40
1.5277099999999999
 49
1.3194249999999998
 74
               0
 49
-0.208285
 74
               0
  0
LTYPE
  5
38
100
AcDbSymbolTableRecord
100
AcDbLinetypeTableRecord
  2
STYLE_05
 70
               0
  3

 72
              65
 73
               2
 40
0.20828
 49
0.069425
 74
               0
 49
-0.138855
 74
               0
  0
LTYPE
  5
39
100
AcDbSymbolTableRecord
100
AcDbLinetypeTableRecord
  2
STYLE_06
 70
               0
  3

 72
              65
 73
               4
 40
1.0416400000000001
 49
0.625
 74
               0
 49
-0.20828
 74
               0
 49
0.06943
 74
               0
 49
-0.13893
 74
               0
  0
LTYPE
  5
3A
100
AcDbSymbolTableRecord
100
AcDbLinetypeTableRecord
  2
STYLE_07
 70
               0
  3

 72
              65
 73
               6
 40
1.875
 49
0.625
 74
               0
 49
-0.20828
 74
               0
 49
0.6250000000000001
 74
               0
 49
-0.2083599999999999
 74
               0
 49
0.06943
 74
               0
 49
-0.1389299999999999
 74
               0
  0
LTYPE
  5
3B
100
AcDbSymbolTableRecord
100
AcDbLinetypeTableRecord
  2
STYLE_08
 70
               0
  3

 72
              65
 73
               6
 40
1.25
 49
0.625
 74
               0
 49
-0.20828
 74
               0
 49
0.06943
 74
               0
 49
-0.13893
 74
               0
 49
0.0694299999999999
 74
               0
 49
-0.13893
 74
               0
  0
LTYPE
  5
3C
100
AcDbSymbolTableRecord
100
AcDbLinetypeTableRecord
  2
STYLE_09
 70
               0
  3

 72
              65
 73
               4
 40
5.0
 49
3.75
 74
               0
 49
-0.2777849999999998
 74
               0
 49
0.6944300000000003
 74
               0
 49
-0.2777849999999998
 74
               0
  0
LTYPE
  5
3D
100
AcDbSymbolTableRecord
100
AcDbLinetypeTableRecord
  2
STYLE_10
 70
               0
  3

 72
              65
 73
               6
 40
5.9375
 49
3.75
 74
               0
 49
-0.2777849999999998
 74
               0
 49
0.6944300000000003
 74
               0
 49
-0.2777849999999998
 74
               0
 49
0.625
 74
               0
 49
-0.3125
 74
               0
  0
LTYPE
  5
3E
100
AcDbSymbolTableRecord
100
AcDbLinetypeTableRecord
  2
STYLE_11
 70
               0
  3

 72
              65
 73
               2
 40
0.0694444881889764
 49
0.0347222440944882
 74
               0
 49
-0.0347222440944882
 74
               0
  0
ENDTAB
  0
TABLE
  2
LAYER
  5
2
100
AcDbSymbolTable
 70
               5
  0
LAYER
  5
14
100
AcDbSymbolTableRecord
100
AcDbLayerTableRecord
  2
0
 70
               0
 62
               7
  6
Continuous
290
               1
370
              -3
390
1D
  0
LAYER
  5
3F
100
AcDbSymbolTableRecord
100
AcDbLayerTableRecord
  2
Defpoints
 70
               0
 62
               7
  6
Continuous
290
               0
370
              -3
390
1D
  0
LAYER
  5
40
100
AcDbSymbolTableRecord
100
AcDbLayerTableRecord
  2
template
 70
               0
 62
               7
  6
Continuous
290
               1
370
              -3
390
1D
  0
LAYER
  5
41
100
AcDbSymbolTableRecord
100
AcDbLayerTableRecord
  2
notes
 70
               0
 62
               7
  6
Continuous
290
               1
370
              -3
390
1D
  0
LAYER
  5
42
100
AcDbSymbolTableRecord
100
AcDbLayerTableRecord
  2
ADF70-1606
 70
               0
 62
               7
  6
Continuous
290
               1
370
              -3
390
1D
  0
ENDTAB
  0
TABLE
  2
STYLE
  5
3
100
AcDbSymbolTable
 70
               2
  0
STYLE
  5
17
100
AcDbSymbolTableRecord
100
AcDbTextStyleTableRecord
  2
Standard
 70
               0
 40
0.0
 41
1.0
 50
0.0
 71
               0
 42
0.0
  3
txt
  4
BIGFONT.SHX
  0
STYLE
  5
33
100
AcDbSymbolTableRecord
100
AcDbTextStyleTableRecord
  2
ＭＳ ゴシック
 70
               0
 40
0.0
 41
1.0
 50
0.0
 71
               0
 42
0.0
  3

  4
ＭＳ ゴシック
1001
ACAD
1000
ＭＳ ゴシック
1071
        0
  0
ENDTAB
  0
TABLE
  2
VIEW
  5
5
100
AcDbSymbolTable
 70
               0
  0
ENDTAB
  0
TABLE
  2
UCS
  5
6
100
AcDbSymbolTable
 70
               0
  0
ENDTAB
  0
TABLE
  2
APPID
  5
8
100
AcDbSymbolTable
 70
               1
  0
APPID
  5
16
100
AcDbSymbolTableRecord
100
AcDbRegAppTableRecord
  2
ACAD
 70
               0
  0
ENDTAB
  0
TABLE
  2
DIMSTYLE
  5
9
100
AcDbSymbolTable
 70
               3
100
AcDbDimStyleTable
 71
               0
  0
DIMSTYLE
105
18
100
AcDbSymbolTableRecord
100
AcDbDimStyleTableRecord
  2
Standard
 70
               0
  3

  4

 40
1.0
 41
0.18
 42
0.0625
 43
0.38
 44
0.18
 45
0.0
 46
0.0
 47
0.0
 48
0.0
 71
               0
 72
               0
 73
               1
 74
               1
 75
               0
 76
               0
 77
               0
 78
               0
 79
               0
140
0.18
141
0.09
142
0.0
143
25.399999999999999
144
1.0
145
0.0
146
1.0
147
0.09
148
0.0
170
               0
171
               2
172
               0
173
               0
174
               0
175
               0
176
               0
177
               0
178
               0
179
               0
271
               4
272
               4
273
               2
274
               2
275
               0
276
               0
277
               2
278
              46
279
               0
280
               0
281
               0
282
               0
283
               1
284
               0
285
               0
286
               0
288
               0
289
               3
340
17
341
0
342
0
343
0
344
0
371
              -2
372
              -2
  0
DIMSTYLE
105
4B
100
AcDbSymbolTableRecord
100
AcDbDimStyleTableRecord
  2
Tform線あり
 70
               0
  3
<>
  4
[]
 40
1.0
 41
9.9993896484374982
 42
24.999999999999996
 43
0.9999999999999999
 44
0.0
 45
0.0
 46
0.0
 47
0.0
 48
0.0
 71
               0
 72
               0
 73
               0
 74
               0
 75
               0
 76
               0
 77
               1
 78
              11
 79
               0
140
24.432617187500004
141
0.0
142
0.0
143
1.0
144
1.0
145
0.0
146
0.8
147
0.4999999999999999
148
0.0
170
               0
171
               1
172
               1
173
               0
174
               1
175
               0
176
               0
177
               0
178
               0
179
               2
271
               1
272
               1
273
               2
274
               2
275
               0
276
               2
277
               2
278
              46
279
               0
280
               0
281
               0
282
               0
283
               1
284
              11
285
              11
286
              11
288
               0
289
               0
340
33
341
43
342
43
343
0
344
0
371
              -2
372
              -2
  0
DIMSTYLE
105
55
100
AcDbSymbolTableRecord
100
AcDbDimStyleTableRecord
  2
Arch
 70
               0
  3
<>
  4
[]
 40
1.0
 41
22.4482421875
 42
15.875
 43
10.16
 44
31.75
 45
0.0
 46
1.5874999999999999
 47
0.0
 48
0.0
 71
               0
 72
               0
 73
               0
 74
               0
 75
               0
 76
               0
 77
               1
 78
              11
 79
               0
140
24.432617187500004
141
0.0
142
0.0
143
1.0
144
1.0
145
0.0
146
1.0
147
1.5874999999999999
148
0.0
170
               0
171
               1
172
               1
173
               0
174
               1
175
               0
176
               0
177
               0
178
               0
179
               2
271
               1
272
               1
273
               2
274
               2
275
               0
276
               2
277
               2
278
              46
279
               0
280
               0
281
               0
282
               0
283
               1
284
              11
285
              11
286
              11
288
               0
289
               0
340
33
341
51
342
4C
343
0
344
0
371
              -2
372
              -2
  0
ENDTAB
  0
TABLE
  2
BLOCK_RECORD
  5
1
100
AcDbSymbolTable
 70
              19
  0
BLOCK_RECORD
  5
A
100
AcDbSymbolTableRecord
100
AcDbBlockTableRecord
  2
*MODEL_SPACE
340
20
  0
BLOCK_RECORD
  5
B
100
AcDbSymbolTableRecord
100
AcDbBlockTableRecord
  2
*PAPER_SPACE
340
21
  0
BLOCK_RECORD
  5
43
100
AcDbSymbolTableRecord
100
AcDbBlockTableRecord
  2
_DOT
340
0
  0
BLOCK_RECORD
  5
4C
100
AcDbSymbolTableRecord
100
AcDbBlockTableRecord
  2
VW_SLASH
340
0
  0
BLOCK_RECORD
  5
51
100
AcDbSymbolTableRecord
100
AcDbBlockTableRecord
  2
VW_FILLEDARROW
340
0
  0
BLOCK_RECORD
  5
23
100
AcDbSymbolTableRecord
100
AcDbBlockTableRecord
  2
グループ
340
0
102
{BLKREFS
331
12D
102
}
  0
BLOCK_RECORD
  5
24
100
AcDbSymbolTableRecord
100
AcDbBlockTableRecord
  2
*D4
340
0
  0
BLOCK_RECORD
  5
25
100
AcDbSymbolTableRecord
100
AcDbBlockTableRecord
  2
*D5
340
0
  0
BLOCK_RECORD
  5
26
100
AcDbSymbolTableRecord
100
AcDbBlockTableRecord
  2
*D6
340
0
  0
BLOCK_RECORD
  5
27
100
AcDbSymbolTableRecord
100
AcDbBlockTableRecord
  2
*D7
340
0
  0
BLOCK_RECORD
  5
28
100
AcDbSymbolTableRecord
100
AcDbBlockTableRecord
  2
*D8
340
0
  0
BLOCK_RECORD
  5
29
100
AcDbSymbolTableRecord
100
AcDbBlockTableRecord
  2
*D9
340
0
  0
BLOCK_RECORD
  5
2A
100
AcDbSymbolTableRecord
100
AcDbBlockTableRecord
  2
*D10
340
0
  0
BLOCK_RECORD
  5
2B
100
AcDbSymbolTableRecord
100
AcDbBlockTableRecord
  2
*D11
340
0
  0
BLOCK_RECORD
  5
2C
100
AcDbSymbolTableRecord
100
AcDbBlockTableRecord
  2
*D12
340
0
  0
BLOCK_RECORD
  5
2D
100
AcDbSymbolTableRecord
100
AcDbBlockTableRecord
  2
*D13
340
0
  0
BLOCK_RECORD
  5
2E
100
AcDbSymbolTableRecord
100
AcDbBlockTableRecord
  2
*D14
340
0
  0
BLOCK_RECORD
  5
2F
100
AcDbSymbolTableRecord
100
AcDbBlockTableRecord
  2
*D15
340
0
  0
BLOCK_RECORD
  5
30
100
AcDbSymbolTableRecord
100
AcDbBlockTableRecord
  2
*D16
340
0
  0
BLOCK_RECORD
  5
31
100
AcDbSymbolTableRecord
100
AcDbBlockTableRecord
  2
*D17
340
0
  0
BLOCK_RECORD
  5
32
100
AcDbSymbolTableRecord
100
AcDbBlockTableRecord
  2
*D18
340
0
  0
ENDTAB
  0
ENDSEC
  0
SECTION
  2
BLOCKS
  0
BLOCK
  5
D
100
AcDbEntity
  8
0
390
0
100
AcDbBlockBegin
  2
*MODEL_SPACE
 70
               0
 10
0.0
 20
0.0
 30
0.0
  3
*MODEL_SPACE
  1

  0
ENDBLK
  5
E
100
AcDbEntity
  8
0
390
0
100
AcDbBlockEnd
  0
BLOCK
  5
F
100
AcDbEntity
 67
               1
  8
0
390
0
100
AcDbBlockBegin
  2
*PAPER_SPACE
 70
               0
 10
0.0
 20
0.0
 30
0.0
  3
*PAPER_SPACE
  1

  0
ENDBLK
  5
10
100
AcDbEntity
 67
               1
  8
0
390
0
100
AcDbBlockEnd
  0
BLOCK
  5
44
100
AcDbEntity
  8
0
390
0
100
AcDbBlockBegin
  2
_DOT
 70
               0
 10
0.0
 20
0.0
 30
0.0
  3
_DOT
  1

  0
POLYLINE
  5
45
100
AcDbEntity
  8
0
370
              -2
390
0
  6
ByBlock
 62
               0
100
AcDb2dPolyline
 66
               1
 10
0.0
 20
0.0
 30
0.0
 70
               1
 40
0.5
 41
0.5
  0
VERTEX
  5
46
100
AcDbEntity
  8
0
370
              -2
390
0
  6
ByBlock
 62
               0
100
AcDbVertex
100
AcDb2dVertex
 10
-0.25
 20
0.0
 30
0.0
 42
1.0
  0
VERTEX
  5
47
100
AcDbEntity
  8
0
370
              -2
390
0
  6
ByBlock
 62
               0
100
AcDbVertex
100
AcDb2dVertex
 10
0.25
 20
0.0
 30
0.0
 42
1.0
  0
SEQEND
  5
48
100
AcDbEntity
  8
0
390
0
  0
LINE
  5
49
100
AcDbEntity
  8
0
370
              -2
390
0
  6
ByBlock
 62
               0
100
AcDbLine
 10
-0.5
 20
0.0
 30
0.0
 11
-1.0
 21
0.0
 31
0.0
  0
ENDBLK
  5
4A
100
AcDbEntity
  8
0
390
0
100
AcDbBlockEnd
  0
BLOCK
  5
4D
100
AcDbEntity
  8
0
370
              -2
390
0
  6
ByBlock
 62
               0
100
AcDbBlockBegin
  2
VW_SLASH
 70
               0
 10
0.0
 20
0.0
 30
0.0
  3
VW_SLASH
  1

  0
LINE
  5
4E
100
AcDbEntity
  8
0
370
              -2
390
0
  6
ByBlock
 62
               0
100
AcDbLine
 10
0.0
 20
0.0
 30
0.0
 11
-1.0
 21
0.0
 31
0.0
  0
LINE
  5
4F
100
AcDbEntity
  8
0
370
              20
390
0
  6
ByBlock
 62
               0
100
AcDbLine
 10
-0.4987813153181721
 20
-0.4987813153181719
 30
0.0
 11
0.4987813153181721
 21
0.4987813153181719
 31
0.0
  0
ENDBLK
  5
50
100
AcDbEntity
  8
0
390
0
100
AcDbBlockEnd
  0
BLOCK
  5
52
100
AcDbEntity
  8
0
370
              -2
390
0
  6
ByBlock
 62
               0
100
AcDbBlockBegin
  2
VW_FILLEDARROW
 70
               0
 10
0.0
 20
0.0
 30
0.0
  3
VW_FILLEDARROW
  1

  0
SOLID
  5
53
100
AcDbEntity
  8
0
370
              -2
390
0
 62
               0
100
AcDbTrace
 10
0.0
 20
0.0
 30
0.0
 11
-1.4107666015625
 21
-0.3780137715974714
 31
0.0
 12
-1.4107666015625
 22
0.3780137715974717
 32
0.0
 13
-1.4107666015625
 23
0.3780137715974717
 33
0.0
  0
ENDBLK
  5
54
100
AcDbEntity
  8
0
390
0
100
AcDbBlockEnd
  0
BLOCK
  5
56
100
AcDbEntity
  8
template
390
0
100
AcDbBlockBegin
  2
グループ
 70
               0
 10
0.0
 20
0.0
 30
0.0
  3
グループ
  1

  0
LWPOLYLINE
  5
57
100
AcDbEntity
  8
0
370
              15
390
0
  6
Continuous
 62
               7
100
AcDbPolyline
 90
        8
 70
             129
 10
-3268.2483612739456
 20
4842.7164409266898
 10
-3268.2483612739456
 20
4836.7190522331139
 10
-3277.7495581919488
 20
4836.7190522331139
 10
-3277.7495581919488
 20
4812.2680889696048
 10
-3286.1049354537317
 20
4812.2680889696048
 10
-3286.1049354537317
 20
4836.7190522331139
 10
-3295.4378924000412
 20
4836.7190522331139
 10
-3295.4378924000412
 20
4842.7164409266898
  0
LWPOLYLINE
  5
58
100
AcDbEntity
  8
0
370
              15
390
0
  6
Continuous
 62
               7
100
AcDbPolyline
 90
      101
 70
             128
 10
-3255.5200694433888
 20
4841.9881924337533
 10
-3255.5047194146064
 20
4841.9925531904373
 42
-0.0222221607825145
 10
-3255.2147148379327
 20
4842.0611776556834
 10
-3255.198921073913
 20
4842.0641810787856
 42
-0.0146883565579
 10
-3254.9362183687149
 20
4842.1061842657291
 42
-0.0127458844179801
 10
-3254.6715794015486
 20
4842.133721233803
 10
-3254.609124323249
 20
4842.13861465639
 42
-0.019809901857504
 10
-3254.2182752137819
 20
4842.1536998137863
 10
-3254.1664637443282
 20
4842.1536460381212
 42
-0.014761738276637
 10
-3253.6718402833453
 20
4842.1385260128764
 10
-3253.599148828489
 20
4842.1341534059902
 42
-0.0162624548993615
 10
-3253.2089951990147
 20
4842.0979205307167
 10
-3253.0874628077545
 20
4842.0826339717205
 42
-0.0080020874679746
 10
-3252.9418837766643
 20
4842.0619511244513
 10
-3252.9035643060552
 20
4842.0558798466382
 42
-0.0053821929660163
 10
-3252.835080200754
 20
4842.0442723228189
 10
-3253.5614858999525
 20
4839.863343867105
 42
0.0108667757435804
 10
-3253.6288029700713
 20
4839.876530982322
 10
-3253.6662709932734
 20
4839.8830287249193
 42
0.0170663203290944
 10
-3253.809487780195
 20
4839.9028583222125
 10
-3253.8773631128715
 20
4839.9099054927992
 42
0.0220162375261708
 10
-3254.1577425207274
 20
4839.9265878535698
 10
-3254.2355980877833
 20
4839.9277872208359
 42
0.0282606915784514
 10
-3254.5712344113572
 20
4839.9139839438667
 10
-3254.615147685141
 20
4839.9096839538615
 42
0.016967721368696
 10
-3254.8610721800878
 20
4839.8771469043104
 42
0.0190576269853152
 10
-3255.1039801426573
 20
4839.8270000322073
 10
-3255.1102393307792
 20
4839.8254570580948
 42
0.0213685642870294
 10
-3255.3606238152679
 20
4839.7522567729857
 10
-3255.3661137101731
 20
4839.7503937769307
 42
0.0237595297601809
 10
-3255.6196085950605
 20
4839.6507092550401
 10
-3255.6247106691017
 20
4839.6484174795569
 42
0.0261857468820299
 10
-3255.8768814453374
 20
4839.5188811421795
 10
-3255.8873076344153
 20
4839.5128156677165
 42
0.0272553062012051
 10
-3256.1237374096563
 20
4839.3574434617703
 10
-3256.1585004231679
 20
4839.3317823136767
 42
0.0325996893187352
 10
-3256.3086557668175
 20
4839.2050344407071
 10
-3256.3323651959563
 20
4839.1822164121795
 42
0.0138050960656498
 10
-3256.4242483521512
 20
4839.0887667506413
 42
0.0125280103785623
 10
-3256.5110908849756
 20
4838.990603424053
 10
-3256.5347713298929
 20
4838.9624449258545
 42
0.0205218024765799
 10
-3256.6598714054071
 20
4838.8006516116247
 10
-3256.6823377458936
 20
4838.7689918817987
 42
0.0163110129574341
 10
-3256.8380481251361
 20
4838.5336614467424
 10
-3256.8407720211958
 20
4838.5292376847428
 42
0.0131897341922305
 10
-3256.9875725421102
 20
4838.2761055923629
 10
-3256.9892726374683
 20
4838.2729873532426
 42
0.01078955760611
 10
-3257.1270493396642
 20
4838.006772143638
 10
-3257.1277822292041
 20
4838.005277910961
 42
0.0091371507212387
 10
-3257.2562621778488
 20
4837.7307527132125
 10
-3257.2860078092626
 20
4837.6640462060432
 42
0.0135418326344817
 10
-3257.4577217483229
 20
4837.2491084208041
 10
-3257.4913265567693
 20
4837.161242278491
 42
0.0092834542411402
 10
-3257.6625556166896
 20
4836.6873437801878
 10
-3257.6881727444056
 20
4836.6121027103991
 42
0.0054261043584267
 10
-3257.7958108927005
 20
4836.2843387373287
 10
-3257.813336878894
 20
4836.2289505750477
 42
0.0008225090827307
 10
-3257.8820069307076
 20
4836.0106818169497
 10
-3258.866696062641
 20
4832.9857905236931
 10
-3255.6340722225673
 20
4832.9857905236931
 10
-3256.1382646524207
 20
4831.0813122253412
 10
-3259.3943209344043
 20
4831.0813122253412
 10
-3265.2234699667579
 20
4812.2680891593363
 10
-3267.0485675770683
 20
4812.2680891593363
 10
-3261.2138895415674
 20
4831.0813122253412
 10
-3263.6190059106075
 20
4831.0813122253412
 10
-3263.114813480754
 20
4832.9857905236931
 10
-3260.6862646698041
 20
4832.9857905236931
 10
-3259.8261097516156
 20
4835.6222035243918
 42
-0.0005863560617955
 10
-3259.7893750734393
 20
4835.7390299445979
 10
-3259.7132872397515
 20
4835.9800222440699
 42
-0.0087522378922648
 10
-3259.5138190962889
 20
4836.5752983312341
 10
-3259.4215548208681
 20
4836.8354384997674
 42
-0.0077400953832105
 10
-3259.1636211617501
 20
4837.528443177277
 10
-3259.1478561901881
 20
4837.5688740606201
 42
-0.0082369946335068
 10
-3258.9007717195591
 20
4838.1729531268593
 42
-0.008572523836695
 10
-3258.633525623567
 20
4838.7683791661229
 10
-3258.531896022545
 20
4838.9848002681392
 42
-0.0168109410604115
 10
-3258.2449515938192
 20
4839.5460077942353
 10
-3258.1191082033774
 20
4839.7729718272012
 42
-0.0007817726864417
 10
-3258.0648238533036
 20
4839.8705160722639
 10
-3258.0646955472716
 20
4839.870745781026
 42
-0.0036626142129822
 10
-3258.0098076832651
 20
4839.9673436609683
 42
-0.0080221150677032
 10
-3257.9526834278763
 20
4840.0626228956926
 10
-3257.9219834764972
 20
4840.1120138448441
 42
-0.0202139325571601
 10
-3257.7943277366953
 20
4840.299995445519
 10
-3257.7402602715028
 20
4840.3730743097658
 42
-0.024932379181423
 10
-3257.4810974777993
 20
4840.6891195519029
 10
-3257.4569576636568
 20
4840.7157338248326
 42
-0.0242132121529548
 10
-3257.1172769221112
 20
4841.0556173110408
 10
-3257.0693653493699
 20
4841.0991264472177
 42
-0.0251017527861816
 10
-3256.7853836487229
 20
4841.3321191929881
 10
-3256.7839381719155
 20
4841.3331884505624
 42
-0.0130868069039563
 10
-3256.4856775219523
 20
4841.5419689191094
 10
-3256.4841157028013
 20
4841.5430023593899
 42
-0.0290329526379343
 10
-3256.1730045614158
 20
4841.7238278610139
 10
-3256.1431589994208
 20
4841.7389302438578
 42
-0.0160250190048503
 10
-3255.8772545856655
 20
4841.8629463540665
 42
-0.0267600374793423
 10
-3255.6019785082044
 20
4841.9636946746123
 10
-3255.5752425886758
 20
4841.9718872334406
 42
-0.0049981587629109
 10
-3255.5200694433888
 20
4841.9881924337533
 42
-0.0049981587629109
  0
LWPOLYLINE
  5
59
100
AcDbEntity
  8
0
370
              15
390
0
  6
Continuous
 62
               7
100
AcDbPolyline
 90
      118
 70
             128
 10
-3235.7057018789419
 20
4832.9118071958655
 10
-3233.8305799544423
 20
4832.9118071958655
 10
-3234.6686188600424
 20
4830.2302406694662
 42
-0.001058722913664
 10
-3234.6371630444396
 20
4830.2671452028562
 10
-3234.5789689538383
 20
4830.3351274589968
 42
-0.007187474038008
 10
-3234.4285937357149
 20
4830.5057681510552
 10
-3234.2868709624781
 20
4830.6620042923396
 42
-0.0148118053523879
 10
-3233.8367416697897
 20
4831.1296181383286
 10
-3233.749519334845
 20
4831.2150154592237
 42
-0.0086273358679918
 10
-3233.4139705338548
 20
4831.532391093222
 10
-3233.3701368176321
 20
4831.5724407375519
 42
-0.0103138323128016
 10
-3233.1121131153959
 20
4831.7986038748932
 10
-3233.0663387091035
 20
4831.8370859221241
 42
-0.006020674858146
 10
-3232.8934906449567
 20
4831.9788805729077
 10
-3232.8914595140945
 20
4831.9805062785199
 42
-0.0067069027323964
 10
-3232.7191666994081
 20
4832.1146569123339
 10
-3232.7166179334658
 20
4832.1165870822215
 42
-0.0076184352037281
 10
-3232.5457126676106
 20
4832.2419619574539
 42
-0.0089652861646417
 10
-3232.3707517048761
 20
4832.3615952177861
 10
-3232.3343999847525
 20
4832.3855064312547
 42
-0.0156916245962523
 10
-3232.1384404875707
 20
4832.5057689177429
 42
-0.0023299011074429
 10
-3231.9381784435591
 20
4832.618946857302
 10
-3231.922794311211
 20
4832.627546852349
 42
-0.0107669341466393
 10
-3231.6885574860848
 20
4832.7519469857107
 10
-3231.6662926850349
 20
4832.763163735648
 42
-0.0078058045921818
 10
-3231.3827025670894
 20
4832.9005251912831
 10
-3231.3727954793731
 20
4832.905134319155
 42
-0.0181829330469301
 10
-3231.0624860747512
 20
4833.0359980602534
 10
-3231.0084306321937
 20
4833.0565131801932
 42
-0.0208411536026093
 10
-3230.6593456647406
 20
4833.172603642688
 10
-3230.6449895646233
 20
4833.1767220876391
 42
-0.022279981713492
 10
-3230.3162697706957
 20
4833.2553636537814
 10
-3230.3073808074641
 20
4833.2570756643654
 42
-0.0215509523879333
 10
-3229.990909839179
 20
4833.303991352901
 10
-3229.9484278781329
 20
4833.3084288796917
 42
-0.0182545924883448
 10
-3229.7143190988245
 20
4833.3242727050829
 10
-3229.6749180824781
 20
4833.3254972501618
 42
-0.0072962856527
 10
-3229.5189952027877
 20
4833.3280665786842
 10
-3229.4898955321951
 20
4833.3281214140879
 42
-0.0059227516345965
 10
-3229.3921460330712
 20
4833.3271477022972
 10
-3229.3629038156701
 20
4833.3265099356959
 42
-0.0011833111984478
 10
-3229.3236525318666
 20
4833.3255609313837
 10
-3230.119039127474
 20
4830.7868269862847
 42
0.0143932051618625
 10
-3230.1454405098302
 20
4830.7970259563326
 10
-3230.1527124822414
 20
4830.799597175188
 42
0.0234388603415096
 10
-3230.1945433481719
 20
4830.8122164109018
 10
-3230.2032250110865
 20
4830.8143973729075
 42
0.0199162743014031
 10
-3230.2635138451592
 20
4830.8270141082421
 10
-3230.2843277829725
 20
4830.8305113076713
 42
0.0293643550723625
 10
-3230.387402641727
 20
4830.8416613533236
 10
-3230.4120878224521
 20
4830.8428729703428
 42
0.0214606686827589
 10
-3230.565228738385
 20
4830.8438115307617
 10
-3230.5746006492227
 20
4830.843466619217
 42
0.0167564054183918
 10
-3230.7461208403424
 20
4830.8313895768479
 10
-3230.75458063309
 20
4830.8305082364213
 42
0.0137677553235091
 10
-3230.9419339463448
 20
4830.8057589278787
 10
-3230.9492856858624
 20
4830.8045810079093
 42
0.0118497261504225
 10
-3231.1497834499564
 20
4830.7675636577223
 10
-3231.1559334572112
 20
4830.7662767950005
 42
0.0106421143856052
 10
-3231.3668143444947
 20
4830.717444419427
 10
-3231.3717231528854
 20
4830.7161970767411
 42
0.0099746379696425
 10
-3231.5901816220589
 20
4830.6560225484227
 10
-3231.6517296622178
 20
4830.6377406697957
 42
0.0191613675852229
 10
-3231.9877141247366
 20
4830.5237632895069
 10
-3232.0757738974753
 20
4830.4900763791848
 42
0.0205274080146481
 10
-3232.46108066938
 20
4830.3242479713572
 10
-3232.5187299513682
 20
4830.2965800067814
 42
0.018125691220368
 10
-3232.777006892029
 20
4830.1608961878073
 10
-3232.8299622753375
 20
4830.1305785745963
 42
0.014070924240234
 10
-3232.974917209971
 20
4830.0420839011585
 10
-3233.0011660785863
 20
4830.0250270824454
 42
0.0086667884422832
 10
-3233.0900922401324
 20
4829.9650244145596
 42
0.0036408191976646
 10
-3233.1775254780691
 20
4829.9028435568371
 10
-3233.2127523526342
 20
4829.8774026108549
 42
0.0052260781301654
 10
-3233.3689810500696
 20
4829.7620702241875
 10
-3233.385187906285
 20
4829.7498421136024
 42
0.0050024435885956
 10
-3233.5711912493116
 20
4829.6065595453656
 10
-3233.586509405859
 20
4829.5945135228949
 42
0.0136138710269043
 10
-3233.7969506741761
 20
4829.4195470179884
 10
-3233.8306185499778
 20
4829.3899680452669
 42
0.0172815186916221
 10
-3234.0950220916375
 20
4829.1409713726453
 10
-3234.0975844374825
 20
4829.1383855554959
 42
0.0189403857997035
 10
-3234.3481662360573
 20
4828.8655802906969
 10
-3234.3807977296133
 20
4828.8272363591768
 42
0.0185044199524576
 10
-3234.5727541685778
 20
4828.5839877780727
 42
0.0088565243866662
 10
-3234.7512142751839
 20
4828.3304713579555
 10
-3234.7603922548551
 20
4828.3169299781621
 42
0.0157195347217994
 10
-3234.9436128611856
 20
4828.0274077688518
 10
-3234.9896958031309
 20
4827.949255571807
 42
0.0095451879801232
 10
-3235.1547813532575
 20
4827.6566609294696
 10
-3235.1659292721897
 20
4827.6359902573322
 42
0.010035170625559
 10
-3235.2979730213465
 20
4827.378934696846
 42
0.0086935915405788
 10
-3235.4203041731516
 20
4827.1171015514165
 10
-3235.4236249145547
 20
4827.1096592284703
 42
0.0072580174877436
 10
-3235.5439713665064
 20
4826.8290672368703
 10
-3235.5472329998061
 20
4826.8211472108687
 42
0.0060005122611407
 10
-3235.6664336681506
 20
4826.5215375402595
 10
-3235.6696446464903
 20
4826.5131760123595
 42
0.0049017786990111
 10
-3235.7885448053521
 20
4826.1942470317435
 10
-3235.7917106117384
 20
4826.185494094525
 42
0.0039415167595875
 10
-3235.911146889765
 20
4825.8469520321978
 10
-3235.9142779924468
 20
4825.8378488312355
 42
0.0031035838770017
 10
-3236.0350827781349
 20
4825.4794089694788
 10
-3236.0381928226707
 20
4825.4699883480871
 42
0.0025070747153289
 10
-3236.161094174005
 20
4825.0913411310821
 10
-3236.1983880704111
 20
4824.9744494658898
 42
0.0029081910275171
 10
-3236.3904063682185
 20
4824.360285807611
 10
-3236.4312095367395
 20
4824.2270625653218
 42
0.0009266453731666
 10
-3236.6996269110532
 20
4823.3448381054022
 10
-3236.720514383614
 20
4823.2757262264286
 42
-0.0005809993663441
 10
-3236.9978510642859
 20
4822.3619181195245
 10
-3237.0641328625939
 20
4822.144433187249
 42
-0.0012018708158275
 10
-3237.211117171988
 20
4821.6662705228437
 10
-3237.2634370235769
 20
4821.4975113819019
 42
-0.0002691059567715
 10
-3237.3070065047218
 20
4821.3572437616358
 10
-3240.1399624030109
 20
4812.2680891593363
 10
-3241.9579512949895
 20
4812.2680891593363
 10
-3235.7057018789419
 20
4832.9118071958655
  0
SPLINE
  5
5A
100
AcDbEntity
  8
0
370
              15
390
0
  6
Continuous
 62
               7
100
AcDbSpline
210
0.0
220
0.0
230
1.0
 70
              13
 71
               2
 72
             782
 73
             779
 74
               0
 42
0.000001
 43
0.000001
 40
0.0
 40
0.0
 40
0.0
 40
1.0
 40
1.0
 40
2.0
 40
2.0
 40
3.0
 40
3.0
 40
4.0
 40
4.0
 40
5.0
 40
5.0
 40
6.0
 40
6.0
 40
7.0
 40
7.0
 40
8.0
 40
8.0
 40
9.0
 40
9.0
 40
10.0
 40
10.0
 40
11.0
 40
11.0
 40
12.0
 40
12.0
 40
13.0
 40
13.0
 40
14.0
 40
14.0
 40
15.0
 40
15.0
 40
16.0
 40
16.0
 40
17.0
 40
17.0
 40
18.0
 40
18.0
 40
19.0
 40
19.0
 40
20.0
 40
20.0
 40
21.0
 40
21.0
 40
22.0
 40
22.0
 40
23.0
 40
23.0
 40
24.0
 40
24.0
 40
25.0
 40
25.0
 40
26.0
 40
26.0
 40
27.0
 40
27.0
 40
28.0
 40
28.0
 40
29.0
 40
29.0
 40
30.0
 40
30.0
 40
31.0
 40
31.0
 40
32.0
 40
32.0
 40
33.0
 40
33.0
 40
34.0
 40
34.0
 40
35.0
 40
35.0
 40
36.0
 40
36.0
 40
37.0
 40
37.0
 40
38.0
 40
38.0
 40
39.0
 40
39.0
 40
40.0
 40
40.0
 40
41.0
 40
41.0
 40
42.0
 40
42.0
 40
43.0
 40
43.0
 40
44.0
 40
44.0
 40
45.0
 40
45.0
 40
46.0
 40
46.0
 40
47.0
 40
47.0
 40
48.0
 40
48.0
 40
49.0
 40
49.0
 40
50.0
 40
50.0
 40
51.0
 40
51.0
 40
52.0
 40
52.0
 40
53.0
 40
53.0
 40
54.0
 40
54.0
 40
55.0
 40
55.0
 40
56.0
 40
56.0
 40
57.0
 40
57.0
 40
58.0
 40
58.0
 40
59.0
 40
59.0
 40
60.0
 40
60.0
 40
61.0
 40
61.0
 40
62.0
 40
62.0
 40
63.0
 40
63.0
 40
64.0
 40
64.0
 40
65.0
 40
65.0
 40
66.0
 40
66.0
 40
67.0
 40
67.0
 40
68.0
 40
68.0
 40
69.0
 40
69.0
 40
70.0
 40
70.0
 40
71.0
 40
71.0
 40
72.0
 40
72.0
 40
73.0
 40
73.0
 40
74.0
 40
74.0
 40
75.0
 40
75.0
 40
76.0
 40
76.0
 40
77.0
 40
77.0
 40
78.0
 40
78.0
 40
79.0
 40
79.0
 40
80.0
 40
80.0
 40
81.0
 40
81.0
 40
82.0
 40
82.0
 40
83.0
 40
83.0
 40
84.0
 40
84.0
 40
85.0
 40
85.0
 40
86.0
 40
86.0
 40
87.0
 40
87.0
 40
88.0
 40
88.0
 40
89.0
 40
89.0
 40
90.0
 40
90.0
 40
91.0
 40
91.0
 40
92.0
 40
92.0
 40
93.0
 40
93.0
 40
94.0
 40
94.0
 40
95.0
 40
95.0
 40
96.0
 40
96.0
 40
97.0
 40
97.0
 40
98.0
 40
98.0
 40
99.0
 40
99.0
 40
100.0
 40
100.0
 40
101.0
 40
101.0
 40
102.0
 40
102.0
 40
103.0
 40
103.0
 40
104.0
 40
104.0
 40
105.0
 40
105.0
 40
106.0
 40
106.0
 40
107.0
 40
107.0
 40
108.0
 40
108.0
 40
109.0
 40
109.0
 40
110.0
 40
110.0
 40
111.0
 40
111.0
 40
112.0
 40
112.0
 40
113.0
 40
113.0
 40
114.0
 40
114.0
 40
115.0
 40
115.0
 40
116.0
 40
116.0
 40
117.0
 40
117.0
 40
118.0
 40
118.0
 40
119.0
 40
119.0
 40
120.0
 40
120.0
 40
121.0
 40
121.0
 40
122.0
 40
122.0
 40
123.0
 40
123.0
 40
124.0
 40
124.0
 40
125.0
 40
125.0
 40
126.0
 40
126.0
 40
127.0
 40
127.0
 40
128.0
 40
128.0
 40
129.0
 40
129.0
 40
130.0
 40
130.0
 40
131.0
 40
131.0
 40
132.0
 40
132.0
 40
133.0
 40
133.0
 40
134.0
 40
134.0
 40
135.0
 40
135.0
 40
136.0
 40
136.0
 40
137.0
 40
137.0
 40
138.0
 40
138.0
 40
139.0
 40
139.0
 40
140.0
 40
140.0
 40
141.0
 40
141.0
 40
142.0
 40
142.0
 40
143.0
 40
143.0
 40
144.0
 40
144.0
 40
145.0
 40
145.0
 40
146.0
 40
146.0
 40
147.0
 40
147.0
 40
148.0
 40
148.0
 40
149.0
 40
149.0
 40
150.0
 40
150.0
 40
151.0
 40
151.0
 40
152.0
 40
152.0
 40
153.0
 40
153.0
 40
154.0
 40
154.0
 40
155.0
 40
155.0
 40
156.0
 40
156.0
 40
157.0
 40
157.0
 40
158.0
 40
158.0
 40
159.0
 40
159.0
 40
160.0
 40
160.0
 40
161.0
 40
161.0
 40
162.0
 40
162.0
 40
163.0
 40
163.0
 40
164.0
 40
164.0
 40
165.0
 40
165.0
 40
166.0
 40
166.0
 40
167.0
 40
167.0
 40
168.0
 40
168.0
 40
169.0
 40
169.0
 40
170.0
 40
170.0
 40
171.0
 40
171.0
 40
172.0
 40
172.0
 40
173.0
 40
173.0
 40
174.0
 40
174.0
 40
175.0
 40
175.0
 40
176.0
 40
176.0
 40
177.0
 40
177.0
 40
178.0
 40
178.0
 40
179.0
 40
179.0
 40
180.0
 40
180.0
 40
181.0
 40
181.0
 40
182.0
 40
182.0
 40
183.0
 40
183.0
 40
184.0
 40
184.0
 40
185.0
 40
185.0
 40
186.0
 40
186.0
 40
187.0
 40
187.0
 40
188.0
 40
188.0
 40
189.0
 40
189.0
 40
190.0
 40
190.0
 40
191.0
 40
191.0
 40
192.0
 40
192.0
 40
193.0
 40
193.0
 40
194.0
 40
194.0
 40
195.0
 40
195.0
 40
196.0
 40
196.0
 40
197.0
 40
197.0
 40
198.0
 40
198.0
 40
199.0
 40
199.0
 40
200.0
 40
200.0
 40
201.0
 40
201.0
 40
202.0
 40
202.0
 40
203.0
 40
203.0
 40
204.0
 40
204.0
 40
205.0
 40
205.0
 40
206.0
 40
206.0
 40
207.0
 40
207.0
 40
208.0
 40
208.0
 40
209.0
 40
209.0
 40
210.0
 40
210.0
 40
211.0
 40
211.0
 40
212.0
 40
212.0
 40
213.0
 40
213.0
 40
214.0
 40
214.0
 40
215.0
 40
215.0
 40
216.0
 40
216.0
 40
217.0
 40
217.0
 40
218.0
 40
218.0
 40
219.0
 40
219.0
 40
220.0
 40
220.0
 40
221.0
 40
221.0
 40
222.0
 40
222.0
 40
223.0
 40
223.0
 40
224.0
 40
224.0
 40
225.0
 40
225.0
 40
226.0
 40
226.0
 40
227.0
 40
227.0
 40
228.0
 40
228.0
 40
229.0
 40
229.0
 40
230.0
 40
230.0
 40
231.0
 40
231.0
 40
232.0
 40
232.0
 40
233.0
 40
233.0
 40
234.0
 40
234.0
 40
235.0
 40
235.0
 40
236.0
 40
236.0
 40
237.0
 40
237.0
 40
238.0
 40
238.0
 40
239.0
 40
239.0
 40
240.0
 40
240.0
 40
241.0
 40
241.0
 40
242.0
 40
242.0
 40
243.0
 40
243.0
 40
244.0
 40
244.0
 40
245.0
 40
245.0
 40
246.0
 40
246.0
 40
247.0
 40
247.0
 40
248.0
 40
248.0
 40
249.0
 40
249.0
 40
250.0
 40
250.0
 40
251.0
 40
251.0
 40
252.0
 40
252.0
 40
253.0
 40
253.0
 40
254.0
 40
254.0
 40
255.0
 40
255.0
 40
256.0
 40
256.0
 40
257.0
 40
257.0
 40
258.0
 40
258.0
 40
259.0
 40
259.0
 40
260.0
 40
260.0
 40
261.0
 40
261.0
 40
262.0
 40
262.0
 40
263.0
 40
263.0
 40
264.0
 40
264.0
 40
265.0
 40
265.0
 40
266.0
 40
266.0
 40
267.0
 40
267.0
 40
268.0
 40
268.0
 40
269.0
 40
269.0
 40
270.0
 40
270.0
 40
271.0
 40
271.0
 40
272.0
 40
272.0
 40
273.0
 40
273.0
 40
274.0
 40
274.0
 40
275.0
 40
275.0
 40
276.0
 40
276.0
 40
277.0
 40
277.0
 40
278.0
 40
278.0
 40
279.0
 40
279.0
 40
280.0
 40
280.0
 40
281.0
 40
281.0
 40
282.0
 40
282.0
 40
283.0
 40
283.0
 40
284.0
 40
284.0
 40
285.0
 40
285.0
 40
286.0
 40
286.0
 40
287.0
 40
287.0
 40
288.0
 40
288.0
 40
289.0
 40
289.0
 40
290.0
 40
290.0
 40
291.0
 40
291.0
 40
292.0
 40
292.0
 40
293.0
 40
293.0
 40
294.0
 40
294.0
 40
295.0
 40
295.0
 40
296.0
 40
296.0
 40
297.0
 40
297.0
 40
298.0
 40
298.0
 40
299.0
 40
299.0
 40
300.0
 40
300.0
 40
301.0
 40
301.0
 40
302.0
 40
302.0
 40
303.0
 40
303.0
 40
304.0
 40
304.0
 40
305.0
 40
305.0
 40
306.0
 40
306.0
 40
307.0
 40
307.0
 40
308.0
 40
308.0
 40
309.0
 40
309.0
 40
310.0
 40
310.0
 40
311.0
 40
311.0
 40
312.0
 40
312.0
 40
313.0
 40
313.0
 40
314.0
 40
314.0
 40
315.0
 40
315.0
 40
316.0
 40
316.0
 40
317.0
 40
317.0
 40
318.0
 40
318.0
 40
319.0
 40
319.0
 40
320.0
 40
320.0
 40
321.0
 40
321.0
 40
322.0
 40
322.0
 40
323.0
 40
323.0
 40
324.0
 40
324.0
 40
325.0
 40
325.0
 40
326.0
 40
326.0
 40
327.0
 40
327.0
 40
328.0
 40
328.0
 40
329.0
 40
329.0
 40
330.0
 40
330.0
 40
331.0
 40
331.0
 40
332.0
 40
332.0
 40
333.0
 40
333.0
 40
334.0
 40
334.0
 40
335.0
 40
335.0
 40
336.0
 40
336.0
 40
337.0
 40
337.0
 40
338.0
 40
338.0
 40
339.0
 40
339.0
 40
340.0
 40
340.0
 40
341.0
 40
341.0
 40
342.0
 40
342.0
 40
343.0
 40
343.0
 40
344.0
 40
344.0
 40
345.0
 40
345.0
 40
346.0
 40
346.0
 40
347.0
 40
347.0
 40
348.0
 40
348.0
 40
349.0
 40
349.0
 40
350.0
 40
350.0
 40
351.0
 40
351.0
 40
352.0
 40
352.0
 40
353.0
 40
353.0
 40
354.0
 40
354.0
 40
355.0
 40
355.0
 40
356.0
 40
356.0
 40
357.0
 40
357.0
 40
358.0
 40
358.0
 40
359.0
 40
359.0
 40
360.0
 40
360.0
 40
361.0
 40
361.0
 40
362.0
 40
362.0
 40
363.0
 40
363.0
 40
364.0
 40
364.0
 40
365.0
 40
365.0
 40
366.0
 40
366.0
 40
367.0
 40
367.0
 40
368.0
 40
368.0
 40
369.0
 40
369.0
 40
370.0
 40
370.0
 40
371.0
 40
371.0
 40
372.0
 40
372.0
 40
373.0
 40
373.0
 40
374.0
 40
374.0
 40
375.0
 40
375.0
 40
376.0
 40
376.0
 40
377.0
 40
377.0
 40
378.0
 40
378.0
 40
379.0
 40
379.0
 40
380.0
 40
380.0
 40
381.0
 40
381.0
 40
382.0
 40
382.0
 40
383.0
 40
383.0
 40
384.0
 40
384.0
 40
385.0
 40
385.0
 40
386.0
 40
386.0
 40
387.0
 40
387.0
 40
388.0
 40
388.0
 40
389.0
 40
389.0
 40
389.0
 10
-3225.3769974282091
 20
4832.9227335592286
 30
0.0
 41
1.0
 10
-3224.5585733194885
 20
4832.9227335592286
 30
0.0
 41
1.0
 10
-3223.7401492107683
 20
4832.9227335592286
 30
0.0
 41
1.0
 10
-3224.1539029462851
 20
4831.5801072949789
 30
0.0
 41
1.0
 10
-3224.567656681802
 20
4830.2374810307292
 30
0.0
 41
1.0
 10
-3224.549317186591
 20
4830.2661818037068
 30
0.0
 41
0.9999957264351972
 10
-3224.5308101897162
 20
4830.2947748539254
 30
0.0
 41
1.0
 10
-3224.5003808656224
 20
4830.3417877322336
 30
0.0
 41
1.0
 10
-3224.4699515415286
 20
4830.3888006105426
 30
0.0
 41
1.0
 10
-3224.3905858964299
 20
4830.5114194174357
 30
0.0
 41
0.9995394069080941
 10
-3224.3039275048927
 20
4830.6289974791571
 30
0.0
 41
1.0
 10
-3224.268170642622
 20
4830.6775123717662
 30
0.0
 41
1.0
 10
-3224.2324137803507
 20
4830.7260272643753
 30
0.0
 41
1.0
 10
-3224.0986871125338
 20
4830.9074675395004
 30
0.0
 41
0.9994460617142971
 10
-3223.9531866312445
 20
4831.079609937151
 30
0.0
 41
1.0
 10
-3223.9487984502657
 20
4831.0848016175387
 30
0.0
 41
1.0
 10
-3223.9444102692869
 20
4831.0899932979255
 30
0.0
 41
1.0
 10
-3223.8076861499526
 20
4831.2517523348051
 30
0.0
 41
0.9994359394935245
 10
-3223.6604119196054
 20
4831.4039685359658
 30
0.0
 41
1.0
 10
-3223.6580285656464
 20
4831.406431866345
 30
0.0
 41
1.0
 10
-3223.655645211687
 20
4831.4088951967242
 30
0.0
 41
1.0
 10
-3223.5131376892523
 20
4831.5561847371318
 30
0.0
 41
0.9995293688568003
 10
-3223.361866008272
 20
4831.6944579492938
 30
0.0
 41
1.0
 10
-3223.3425722490174
 20
4831.7120938349371
 30
0.0
 41
1.0
 10
-3223.3232784897627
 20
4831.7297297205805
 30
0.0
 41
1.0
 10
-3223.2105943272986
 20
4831.8327311614512
 30
0.0
 41
0.9997087614803174
 10
-3223.0930714383348
 20
4831.9301754422559
 30
0.0
 41
1.0
 10
-3223.0739053651523
 20
4831.94606702077
 30
0.0
 41
1.0
 10
-3223.0547392919693
 20
4831.9619585992841
 30
0.0
 41
1.0
 10
-3222.9755485493847
 20
4832.0276197230505
 30
0.0
 41
0.9999595338695864
 10
-3222.8951892785244
 20
4832.0918454537095
 30
0.0
 41
1.0
 10
-3222.8148300076591
 20
4832.1560711843722
 30
0.0
 41
0.9999749417507013
 10
-3222.7335694733038
 20
4832.2191527383275
 30
0.0
 41
1.0
 10
-3222.7125833271675
 20
4832.2354440256086
 30
0.0
 41
1.0
 10
-3222.6915971810317
 20
4832.2517353128897
 30
0.0
 41
1.0
 10
-3222.6070292957302
 20
4832.3173843227305
 30
0.0
 41
0.9999792037117256
 10
-3222.5216216959234
 20
4832.3819371044028
 30
0.0
 41
1.0
 10
-3222.5007968700666
 20
4832.3976769266192
 30
0.0
 41
1.0
 10
-3222.4799720442093
 20
4832.4134167488355
 30
0.0
 41
1.0
 10
-3222.4362140963076
 20
4832.4464898859296
 30
0.0
 41
0.9999993374209227
 10
-3222.392532410011
 20
4832.4796636814708
 30
0.0
 41
1.0
 10
-3222.3488507238394
 20
4832.5128374769156
 30
0.0
 41
0.9999160953814544
 10
-3222.3043243128914
 20
4832.5448685421343
 30
0.0
 41
1.0
 10
-3222.2715024255003
 20
4832.5684796976984
 30
0.0
 41
1.0
 10
-3222.2386805381088
 20
4832.5920908532626
 30
0.0
 41
1.0
 10
-3222.1285103523546
 20
4832.6713442296277
 30
0.0
 41
0.9980964527231457
 10
-3222.0094213588554
 20
4832.736431702484
 30
0.0
 41
1.0
 10
-3221.972388751924
 20
4832.7566716820793
 30
0.0
 41
1.0
 10
-3221.9353561449921
 20
4832.7769116616746
 30
0.0
 41
1.0
 10
-3221.7560291317182
 20
4832.8749219123756
 30
0.0
 41
0.9984572810573758
 10
-3221.5669405653616
 20
4832.9524441737212
 30
0.0
 41
1.0
 10
-3221.5632942959628
 20
4832.9539390660602
 30
0.0
 41
1.0
 10
-3221.5596480265644
 20
4832.9554339583992
 30
0.0
 41
1.0
 10
-3221.3778519989996
 20
4833.0299664350678
 30
0.0
 41
0.9987838528035394
 10
-3221.1895993404437
 20
4833.0862320752331
 30
0.0
 41
1.0
 10
-3221.1853613912481
 20
4833.0874987289226
 30
0.0
 41
1.0
 10
-3221.1811234420529
 20
4833.0887653826112
 30
0.0
 41
1.0
 10
-3221.0013466818882
 20
4833.1424977153974
 30
0.0
 41
0.9990652816207496
 10
-3220.8176007501688
 20
4833.1805013949406
 30
0.0
 41
1.0
 10
-3220.812412349137
 20
4833.1815744980468
 30
0.0
 41
1.0
 10
-3220.8072239481057
 20
4833.1826476011538
 30
0.0
 41
1.0
 10
-3220.6338548184517
 20
4833.2185050744829
 30
0.0
 41
0.9992909934269647
 10
-3220.4582790519944
 20
4833.2412155069487
 30
0.0
 41
1.0
 10
-3220.2827032855457
 20
4833.2639259394145
 30
0.0
 41
0.9994553539447536
 10
-3220.1060118524611
 20
4833.2750052436204
 30
0.0
 41
1.0
 10
-3220.0705774446515
 20
4833.2772271316699
 30
0.0
 41
1.0
 10
-3220.0351430368423
 20
4833.2794490197184
 30
0.0
 41
1.0
 10
-3219.8689172702771
 20
4833.2898720821295
 30
0.0
 41
0.9990928098294366
 10
-3219.7024074783794
 20
4833.2861124408955
 30
0.0
 41
1.0
 10
-3219.6638456431265
 20
4833.2852417493632
 30
0.0
 41
1.0
 10
-3219.625283807874
 20
4833.2843710578309
 30
0.0
 41
1.0
 10
-3219.5358976864964
 20
4833.2823527996616
 30
0.0
 41
0.9998382089203342
 10
-3219.4466420036906
 20
4833.2771206731322
 30
0.0
 41
1.0
 10
-3219.4462120974622
 20
4833.2770954722291
 30
0.0
 41
1.0
 10
-3219.4457821912333
 20
4833.2770702713269
 30
0.0
 41
1.0
 10
-3219.3573863208949
 20
4833.2718885466029
 30
0.0
 41
0.9997558016758744
 10
-3219.2693057437036
 20
4833.2628060312372
 30
0.0
 41
1.0
 10
-3219.2688296052784
 20
4833.2627569337546
 30
0.0
 41
1.0
 10
-3219.2683534668527
 20
4833.262707836273
 30
0.0
 41
1.0
 10
-3219.1812251665083
 20
4833.2537235158716
 30
0.0
 41
0.9996565144181635
 10
-3219.0946873131606
 20
4833.240186209182
 30
0.0
 41
1.0
 10
-3219.0942213877806
 20
4833.2401133234507
 30
0.0
 41
1.0
 10
-3219.0937554624011
 20
4833.2400404377186
 30
0.0
 41
1.0
 10
-3219.0081494598148
 20
4833.2266489024923
 30
0.0
 41
0.9995321806868118
 10
-3218.9235223794904
 20
4833.2080484140643
 30
0.0
 41
1.0
 10
-3218.9231331849178
 20
4833.2079628715983
 30
0.0
 41
1.0
 10
-3218.9227439903452
 20
4833.2078773291323
 30
0.0
 41
1.0
 10
-3218.8388952991622
 20
4833.1894479256343
 30
0.0
 41
0.9993819199223063
 10
-3218.7565487649663
 20
4833.1651725423744
 30
0.0
 41
1.0
 10
-3218.7563103314651
 20
4833.1651022532642
 30
0.0
 41
1.0
 10
-3218.7560718979644
 20
4833.165031964154
 30
0.0
 41
1.0
 10
-3218.674202230769
 20
4833.1408971591136
 30
0.0
 41
0.9992088568505286
 10
-3218.5945097117819
 20
4833.1103319233189
 30
0.0
 41
1.0
 10
-3218.5148287209045
 20
4833.079772322586
 30
0.0
 41
0.9990226101772954
 10
-3218.4381580509958
 20
4833.0422948909709
 30
0.0
 41
1.0
 10
-3218.3614989091957
 20
4833.0048230944167
 30
0.0
 41
0.9988424273972512
 10
-3218.2887952819847
 20
4832.9601583191643
 30
0.0
 41
1.0
 10
-3218.2885275736057
 20
4832.9599938550928
 30
0.0
 41
1.0
 10
-3218.2882598652268
 20
4832.9598293910203
 30
0.0
 41
1.0
 10
-3218.2150208212602
 20
4832.9148356876267
 30
0.0
 41
0.9986928844489337
 10
-3218.1467579545501
 20
4832.8625999533469
 30
0.0
 41
1.0
 10
-3218.1461766623252
 20
4832.8621551401175
 30
0.0
 41
1.0
 10
-3218.1455953701006
 20
4832.861710326888
 30
0.0
 41
1.0
 10
-3218.0761699189457
 20
4832.8085849661529
 30
0.0
 41
0.9986007262276151
 10
-3218.012743749176
 20
4832.7484241964557
 30
0.0
 41
1.0
 10
-3218.0118493337204
 20
4832.7475758286218
 30
0.0
 41
1.0
 10
-3218.0109549182644
 20
4832.746727460788
 30
0.0
 41
1.0
 10
-3217.9457399175835
 20
4832.6848699554248
 30
0.0
 41
0.9985581491380757
 10
-3217.8875323058819
 20
4832.6163774651532
 30
0.0
 41
1.0
 10
-3217.8782738522859
 20
4832.6054831074507
 30
0.0
 41
1.0
 10
-3217.86901539869
 20
4832.5945887497492
 30
0.0
 41
1.0
 10
-3217.7922908797955
 20
4832.5043075440735
 30
0.0
 41
0.9970460233517544
 10
-3217.7302989786381
 20
4832.4033404598949
 30
0.0
 41
1.0
 10
-3217.7158296135572
 20
4832.3797740008113
 30
0.0
 41
1.0
 10
-3217.7013602484762
 20
4832.3562075417276
 30
0.0
 41
1.0
 10
-3217.661623548463
 20
4832.2914878176935
 30
0.0
 41
0.99884688166367
 10
-3217.6282771777142
 20
4832.2232553652702
 30
0.0
 41
1.0
 10
-3217.6212411552215
 20
4832.2088584441299
 30
0.0
 41
1.0
 10
-3217.6142051327283
 20
4832.1944615229895
 30
0.0
 41
1.0
 10
-3217.5949308069667
 20
4832.1550229128516
 30
0.0
 41
0.9998431189997844
 10
-3217.5770654794678
 20
4832.114926358403
 30
0.0
 41
1.0
 10
-3217.5592001519171
 20
4832.0748298038361
 30
0.0
 41
0.9999989990006267
 10
-3217.5412214285539
 20
4832.0347839663846
 30
0.0
 41
1.0
 10
-3217.5350491169584
 20
4832.0210357495689
 30
0.0
 41
1.0
 10
-3217.5288768053624
 20
4832.0072875327533
 30
0.0
 41
1.0
 10
-3217.4985534587563
 20
4831.9397452615549
 30
0.0
 41
0.99987903563212
 10
-3217.4703455786125
 20
4831.8712925096042
 30
0.0
 41
1.0
 10
-3217.4635103973283
 20
4831.8547054081764
 30
0.0
 41
1.0
 10
-3217.456675216044
 20
4831.8381183067486
 30
0.0
 41
1.0
 10
-3217.4331175536686
 20
4831.7809503518747
 30
0.0
 41
0.9998227574562311
 10
-3217.4117288052757
 20
4831.7229360435886
 30
0.0
 41
1.0
 10
-3217.3903400568861
 20
4831.6649217353124
 30
0.0
 41
0.9996797971039592
 10
-3217.3719137719272
 20
4831.6058996161937
 30
0.0
 41
1.0
 10
-3217.3680099692015
 20
4831.5933951580246
 30
0.0
 41
1.0
 10
-3217.3641061664757
 20
4831.5808906998554
 30
0.0
 41
1.0
 10
-3217.3378722760654
 20
4831.4968596644003
 30
0.0
 41
0.9979274938733693
 10
-3217.3226477525868
 20
4831.4101553057426
 30
0.0
 41
1.0
 10
-3217.3204240653263
 20
4831.3974913049251
 30
0.0
 41
1.0
 10
-3217.3182003780657
 20
4831.3848273041076
 30
0.0
 41
1.0
 10
-3217.3072704383662
 20
4831.322580796812
 30
0.0
 41
0.9994985982136867
 10
-3217.3003022731891
 20
4831.2597672956645
 30
0.0
 41
1.0
 10
-3217.2933341080125
 20
4831.1969537945261
 30
0.0
 41
0.9996372611202712
 10
-3217.2897582422447
 20
4831.1338562158462
 30
0.0
 41
1.0
 10
-3217.2895896647551
 20
4831.1308815987613
 30
0.0
 41
1.0
 10
-3217.2894210872655
 20
4831.1279069816756
 30
0.0
 41
1.0
 10
-3217.285508066519
 20
4831.058860168825
 30
0.0
 41
0.9997730630736329
 10
-3217.2845397530314
 20
4830.9897093448089
 30
0.0
 41
1.0
 10
-3217.2844826466135
 20
4830.9856311656604
 30
0.0
 41
1.0
 10
-3217.2844255401951
 20
4830.9815529865118
 30
0.0
 41
1.0
 10
-3217.2833430138717
 20
4830.9042458041513
 30
0.0
 41
0.9998772614072243
 10
-3217.2846831006036
 20
4830.8269426575444
 30
0.0
 41
1.0
 10
-3217.2847723638015
 20
4830.821793493752
 30
0.0
 41
1.0
 10
-3217.2848616269998
 20
4830.8166443299597
 30
0.0
 41
1.0
 10
-3217.2863802401271
 20
4830.7290428557671
 30
0.0
 41
0.9999415567323836
 10
-3217.289792550373
 20
4830.6414946940922
 30
0.0
 41
1.0
 10
-3217.2900338710492
 20
4830.6353032343341
 30
0.0
 41
1.0
 10
-3217.2902751917254
 20
4830.6291117745759
 30
0.0
 41
1.0
 10
-3217.2941701433228
 20
4830.5291806934038
 30
0.0
 41
0.999971681041793
 10
-3217.2995687264397
 20
4830.4293195552127
 30
0.0
 41
1.0
 10
-3217.3027815252281
 20
4830.3698903055647
 30
0.0
 41
1.0
 10
-3217.3059943240164
 20
4830.3104610559176
 30
0.0
 41
1.0
 10
-3217.3140682331727
 20
4830.1611126545804
 30
0.0
 41
0.999981912989252
 10
-3217.3239380247878
 20
4830.0118721768904
 30
0.0
 41
1.0
 10
-3217.3338078164043
 20
4829.8626316991786
 30
0.0
 41
1.0
 10
-3217.3362471369683
 20
4829.8254386533299
 30
0.0
 41
1.0
 10
-3217.313548903217
 20
4829.8641796505235
 30
0.0
 41
0.9999982128145417
 10
-3217.2907043444288
 20
4829.9028345445367
 30
0.0
 41
1.0
 10
-3217.2637947845205
 20
4829.9483677586322
 30
0.0
 41
1.0
 10
-3217.2368852246118
 20
4829.9939009727277
 30
0.0
 41
1.0
 10
-3217.160221546093
 20
4830.1236222947855
 30
0.0
 41
0.9998609190058643
 10
-3217.0792742332378
 20
4830.2507146767048
 30
0.0
 41
1.0
 10
-3217.0496259117435
 20
4830.2972644096826
 30
0.0
 41
1.0
 10
-3217.0199775902488
 20
4830.3438141426595
 30
0.0
 41
1.0
 10
-3216.9377053700168
 20
4830.4729867126471
 30
0.0
 41
0.9999067609733138
 10
-3216.8519363605596
 20
4830.5998644020774
 30
0.0
 41
1.0
 10
-3216.8495316573735
 20
4830.6034216681101
 30
0.0
 41
1.0
 10
-3216.8471269541878
 20
4830.6069789341427
 30
0.0
 41
1.0
 10
-3216.7661673511116
 20
4830.7267420914968
 30
0.0
 41
0.9998784952147228
 10
-3216.6815137414142
 20
4830.8439233082281
 30
0.0
 41
1.0
 10
-3216.5968601317286
 20
4830.9611045249412
 30
0.0
 41
0.9998532968284429
 10
-3216.5082425109163
 20
4831.0753174333995
 30
0.0
 41
1.0
 10
-3216.4882807219246
 20
4831.1010447544195
 30
0.0
 41
1.0
 10
-3216.468318932933
 20
4831.1267720754404
 30
0.0
 41
1.0
 10
-3216.3498348831749
 20
4831.2794776864093
 30
0.0
 41
0.9991551975794042
 10
-3216.2192104335454
 20
4831.4219372484986
 30
0.0
 41
1.0
 10
-3216.2157008175632
 20
4831.4257648501261
 30
0.0
 41
1.0
 10
-3216.2121912015809
 20
4831.4295924517528
 30
0.0
 41
1.0
 10
-3216.0885859839195
 20
4831.5643968105842
 30
0.0
 41
0.999741814418097
 10
-3215.9589838442216
 20
4831.6934462211948
 30
0.0
 41
1.0
 10
-3215.8293817045214
 20
4831.8224956318063
 30
0.0
 41
0.9989238204634922
 10
-3215.6883791562732
 20
4831.9389805938445
 30
0.0
 41
1.0
 10
-3215.6431314781312
 20
4831.976360585455
 30
0.0
 41
1.0
 10
-3215.5978837999892
 20
4832.0137405770656
 30
0.0
 41
1.0
 10
-3215.4576437427691
 20
4832.1295956303547
 30
0.0
 41
0.9990825084096303
 10
-3215.3080038101652
 20
4832.2330246281872
 30
0.0
 41
1.0
 10
-3215.2979584461009
 20
4832.2399678412712
 30
0.0
 41
1.0
 10
-3215.287913082037
 20
4832.2469110543561
 30
0.0
 41
1.0
 10
-3215.1583638775483
 20
4832.3364536260287
 30
0.0
 41
0.9998164899826288
 10
-3215.0254796741856
 20
4832.420967867537
 30
0.0
 41
1.0
 10
-3215.013634113669
 20
4832.4285016340564
 30
0.0
 41
1.0
 10
-3215.0017885531524
 20
4832.4360354005767
 30
0.0
 41
1.0
 10
-3214.8925954708234
 20
4832.5054821090453
 30
0.0
 41
0.9997473449130477
 10
-3214.7803915135596
 20
4832.5699510668692
 30
0.0
 41
1.0
 10
-3214.6681875562849
 20
4832.6344200246986
 30
0.0
 41
0.9999327861147219
 10
-3214.5545189455115
 20
4832.6962700163858
 30
0.0
 41
1.0
 10
-3214.5539669429681
 20
4832.6965703750557
 30
0.0
 41
1.0
 10
-3214.5534149404252
 20
4832.6968707337246
 30
0.0
 41
1.0
 10
-3214.4386423245396
 20
4832.7593214427652
 30
0.0
 41
0.9996956420484113
 10
-3214.3209289986985
 20
4832.8160349097398
 30
0.0
 41
1.0
 10
-3214.2904885938024
 20
4832.8307008864713
 30
0.0
 41
1.0
 10
-3214.2600481889067
 20
4832.8453668632028
 30
0.0
 41
1.0
 10
-3214.1570710821661
 20
4832.8949805216444
 30
0.0
 41
0.9998070570177605
 10
-3214.0522246932296
 20
4832.9405111085434
 30
0.0
 41
1.0
 10
-3213.9473783042959
 20
4832.9860416954416
 30
0.0
 41
0.9997827436146817
 10
-3213.840725367701
 20
4833.0271628667479
 30
0.0
 41
1.0
 10
-3213.8215025180589
 20
4833.0345744403839
 30
0.0
 41
1.0
 10
-3213.8022796684163
 20
4833.0419860140209
 30
0.0
 41
1.0
 10
-3213.6571810325404
 20
4833.0979303325985
 30
0.0
 41
0.9988031841978129
 10
-3213.5073106699328
 20
4833.1394303967672
 30
0.0
 41
1.0
 10
-3213.4823934215701
 20
4833.1463301425738
 30
0.0
 41
1.0
 10
-3213.4574761732074
 20
4833.1532298883803
 30
0.0
 41
1.0
 10
-3213.2902061475625
 20
4833.199548030786
 30
0.0
 41
0.9984748040550449
 10
-3213.1188492389165
 20
4833.2271422630511
 30
0.0
 41
1.0
 10
-3213.1141101026706
 20
4833.2279054235642
 30
0.0
 41
1.0
 10
-3213.1093709664242
 20
4833.2286685840772
 30
0.0
 41
1.0
 10
-3212.947492330271
 20
4833.2547364953152
 30
0.0
 41
0.9984436495481147
 10
-3212.7837175865425
 20
4833.2626144491342
 30
0.0
 41
1.0
 10
-3212.7620203784104
 20
4833.263658136334
 30
0.0
 41
1.0
 10
-3212.7403231702783
 20
4833.2647018235339
 30
0.0
 41
1.0
 10
-3212.6199428428172
 20
4833.2704924029531
 30
0.0
 41
0.9987954789335518
 10
-3212.4995745979081
 20
4833.2644558752108
 30
0.0
 41
1.0
 10
-3212.4796098054139
 20
4833.2634546308727
 30
0.0
 41
1.0
 10
-3212.4596450129197
 20
4833.2624533865337
 30
0.0
 41
1.0
 10
-3212.3792063529982
 20
4833.2584193474686
 30
0.0
 41
0.9997941595877432
 10
-3212.2989975749042
 20
4833.2511252815475
 30
0.0
 41
1.0
 10
-3212.2187887968194
 20
4833.2438312156273
 30
0.0
 41
0.9998589466235702
 10
-3212.1388702499712
 20
4833.2338473611781
 30
0.0
 41
1.0
 10
-3212.1064640481545
 20
4833.229799004258
 30
0.0
 41
1.0
 10
-3212.0740578463383
 20
4833.2257506473379
 30
0.0
 41
1.0
 10
-3211.9293268958654
 20
4833.2076700790494
 30
0.0
 41
0.9993495063249309
 10
-3211.7862756520967
 20
4833.1792043693067
 30
0.0
 41
1.0
 10
-3211.7533419549563
 20
4833.1726509060945
 30
0.0
 41
1.0
 10
-3211.7204082578164
 20
4833.1660974428823
 30
0.0
 41
1.0
 10
-3211.6111144345991
 20
4833.1443491087448
 30
0.0
 41
0.9996788715560111
 10
-3211.5030628626359
 20
4833.1170913093792
 30
0.0
 41
1.0
 10
-3211.5009998601026
 20
4833.1165708828084
 30
0.0
 41
1.0
 10
-3211.4989368575698
 20
4833.1160504562367
 30
0.0
 41
1.0
 10
-3211.3950112906869
 20
4833.0898335100192
 30
0.0
 41
0.9995480654491087
 10
-3211.29284905545
 20
4833.0574185533915
 30
0.0
 41
1.0
 10
-3211.2911594133193
 20
4833.0568824484772
 30
0.0
 41
1.0
 10
-3211.2894697711886
 20
4833.0563463435628
 30
0.0
 41
1.0
 10
-3211.1906868202173
 20
4833.0250035967665
 30
0.0
 41
0.9993867959457183
 10
-3211.0943396617777
 20
4832.9868242274779
 30
0.0
 41
1.0
 10
-3211.093096712691
 20
4832.9863316855808
 30
0.0
 41
1.0
 10
-3211.0918537636044
 20
4832.9858391436837
 30
0.0
 41
1.0
 10
-3210.997992503334
 20
4832.9486448581874
 30
0.0
 41
0.9992050256521589
 10
-3210.9073928283024
 20
4832.9040909589494
 30
0.0
 41
1.0
 10
-3210.90665814559
 20
4832.9037296664883
 30
0.0
 41
1.0
 10
-3210.9059234628771
 20
4832.9033683740272
 30
0.0
 41
1.0
 10
-3210.8167931532694
 20
4832.8595370597104
 30
0.0
 41
0.9990222350741593
 10
-3210.7318830918753
 20
4832.8080037920117
 30
0.0
 41
1.0
 10
-3210.7316992065912
 20
4832.8078921891065
 30
0.0
 41
1.0
 10
-3210.7315153213071
 20
4832.8077805862004
 30
0.0
 41
1.0
 10
-3210.6469730304821
 20
4832.7564705243149
 30
0.0
 41
0.9988642743803037
 10
-3210.5676984958627
 20
4832.6973463367885
 30
0.0
 41
1.0
 10
-3210.4884239612456
 20
4832.6382221492659
 30
0.0
 41
0.9987681233307516
 10
-3210.415400176968
 20
4832.5715314578638
 30
0.0
 41
1.0
 10
-3210.4150712490018
 20
4832.5712310566487
 30
0.0
 41
1.0
 10
-3210.4147423210356
 20
4832.5709306554345
 30
0.0
 41
1.0
 10
-3210.3410606808307
 20
4832.5036391616086
 30
0.0
 41
0.9987496570896921
 10
-3210.2744668755022
 20
4832.4293263475201
 30
0.0
 41
1.0
 10
-3210.273694705741
 20
4832.4284646741617
 30
0.0
 41
1.0
 10
-3210.2729225359799
 20
4832.4276030008023
 30
0.0
 41
1.0
 10
-3210.2047843911309
 20
4832.3515668399996
 30
0.0
 41
0.9988147669824843
 10
-3210.1443621369053
 20
4832.2692658331562
 30
0.0
 41
1.0
 10
-3210.1432428108283
 20
4832.2677412018047
 30
0.0
 41
1.0
 10
-3210.1421234847512
 20
4832.2662165704533
 30
0.0
 41
1.0
 10
-3210.0794625783724
 20
4832.1808663009069
 30
0.0
 41
0.998945263621898
 10
-3210.0248956654073
 20
4832.0901276117438
 30
0.0
 41
1.0
 10
-3210.0235469393228
 20
4832.0878848307193
 30
0.0
 41
1.0
 10
-3210.022198213238
 20
4832.0856420496948
 30
0.0
 41
1.0
 10
-3209.9649338481086
 20
4831.9904177984918
 30
0.0
 41
0.999104643606886
 10
-3209.9159246347858
 20
4831.8906933654644
 30
0.0
 41
1.0
 10
-3209.9144607731951
 20
4831.8877146853902
 30
0.0
 41
1.0
 10
-3209.9129969116038
 20
4831.8847360053151
 30
0.0
 41
1.0
 10
-3209.8610599751041
 20
4831.7790542121484
 30
0.0
 41
0.9992763831101157
 10
-3209.8173068465462
 20
4831.6697301501854
 30
0.0
 41
1.0
 10
-3209.8158275768837
 20
4831.6660339626533
 30
0.0
 41
1.0
 10
-3209.8143483072208
 20
4831.6623377751212
 30
0.0
 41
1.0
 10
-3209.7676366393366
 20
4831.5456213380894
 30
0.0
 41
0.9994163472885732
 10
-3209.7290036081472
 20
4831.4259877496297
 30
0.0
 41
1.0
 10
-3209.7277654559002
 20
4831.4221536058467
 30
0.0
 41
1.0
 10
-3209.7265273036533
 20
4831.4183194620637
 30
0.0
 41
1.0
 10
-3209.6866437426397
 20
4831.2948134005965
 30
0.0
 41
0.9997268055890388
 10
-3209.6525756867259
 20
4831.1695783686391
 30
0.0
 41
1.0
 10
-3209.6516455064557
 20
4831.1661590025269
 30
0.0
 41
1.0
 10
-3209.650715326185
 20
4831.1627396364147
 30
0.0
 41
1.0
 10
-3209.6185076308147
 20
4831.0443433366936
 30
0.0
 41
0.999670131900034
 10
-3209.5924220140432
 20
4830.9244493834249
 30
0.0
 41
1.0
 10
-3209.5663363972735
 20
4830.8045554301625
 30
0.0
 41
0.9995785451110428
 10
-3209.5472528199334
 20
4830.6833496691315
 30
0.0
 41
1.0
 10
-3209.543033037759
 20
4830.6565485143628
 30
0.0
 41
1.0
 10
-3209.5388132555845
 20
4830.6297473595941
 30
0.0
 41
1.0
 10
-3209.5122382796471
 20
4830.4609613858947
 30
0.0
 41
0.9979925101216917
 10
-3209.5072126937212
 20
4830.2901700578059
 30
0.0
 41
1.0
 10
-3209.5063878812966
 20
4830.2621393343343
 30
0.0
 41
1.0
 10
-3209.5055630688721
 20
4830.2341086108618
 30
0.0
 41
1.0
 10
-3209.5021871077938
 20
4830.1193787297234
 30
0.0
 41
0.9995314902261976
 10
-3209.5058372999329
 20
4830.0046572459614
 30
0.0
 41
1.0
 10
-3209.5094874920715
 20
4829.8899357622149
 30
0.0
 41
0.9996245486944936
 10
-3209.5194165872031
 20
4829.7755864910796
 30
0.0
 41
1.0
 10
-3209.5195796351973
 20
4829.7737087349478
 30
0.0
 41
1.0
 10
-3209.519742683191
 20
4829.7718309788161
 30
0.0
 41
1.0
 10
-3209.5299978743105
 20
4829.6537261954236
 30
0.0
 41
0.9997286095001411
 10
-3209.5457431978834
 20
4829.5362272865141
 30
0.0
 41
1.0
 10
-3209.5461366905329
 20
4829.5332908618184
 30
0.0
 41
1.0
 10
-3209.5465301831828
 20
4829.5303544371218
 30
0.0
 41
1.0
 10
-3209.5630624920527
 20
4829.4069826788345
 30
0.0
 41
0.9998265533969154
 10
-3209.5841779507878
 20
4829.2843122040322
 30
0.0
 41
1.0
 10
-3209.5848544929249
 20
4829.2803818255261
 30
0.0
 41
1.0
 10
-3209.5855310350616
 20
4829.27645144702
 30
0.0
 41
1.0
 10
-3209.6079995780715
 20
4829.1459202152
 30
0.0
 41
0.9999022530855463
 10
-3209.6341090426781
 20
4829.0160682465794
 30
0.0
 41
1.0
 10
-3209.6350876838433
 20
4829.011201104192
 30
0.0
 41
1.0
 10
-3209.6360663250089
 20
4829.0063339618046
 30
0.0
 41
1.0
 10
-3209.6641330719513
 20
4828.8667477083854
 30
0.0
 41
0.9999524761934753
 10
-3209.6949160407771
 20
4828.7277352152596
 30
0.0
 41
1.0
 10
-3209.696192147956
 20
4828.72197245594
 30
0.0
 41
1.0
 10
-3209.6974682551354
 20
4828.7162096966213
 30
0.0
 41
1.0
 10
-3209.7308034383177
 20
4828.5656716848662
 30
0.0
 41
0.9999813588726623
 10
-3209.7659744391112
 20
4828.4155519722226
 30
0.0
 41
1.0
 10
-3209.7675283645708
 20
4828.4089193817872
 30
0.0
 41
1.0
 10
-3209.7690822900304
 20
4828.4022867913518
 30
0.0
 41
1.0
 10
-3209.8073611417362
 20
4828.2389018978629
 30
0.0
 41
0.9999955237693722
 10
-3209.8466170196803
 20
4828.0757489944099
 30
0.0
 41
1.0
 10
-3209.8588986553341
 20
4828.0247048038045
 30
0.0
 41
1.0
 10
-3209.8711802909884
 20
4827.9736606131992
 30
0.0
 41
1.0
 10
-3209.9349994402351
 20
4827.7084193285555
 30
0.0
 41
0.9999993604138685
 10
-3209.9994183874023
 20
4827.4433230778768
 30
0.0
 41
1.0
 10
-3210.0041372229512
 20
4827.4239041698293
 30
0.0
 41
1.0
 10
-3210.0088560585
 20
4827.4044852617808
 30
0.0
 41
1.0
 10
-3210.0827126767517
 20
4827.1005511950552
 30
0.0
 41
0.9999659914737473
 10
-3210.1615722726283
 20
4826.7978766485303
 30
0.0
 41
1.0
 10
-3210.1665249615676
 20
4826.7788675113143
 30
0.0
 41
1.0
 10
-3210.1714776505069
 20
4826.7598583740983
 30
0.0
 41
1.0
 10
-3210.2602426242515
 20
4826.4191655531831
 30
0.0
 41
0.9999441976026018
 10
-3210.3561856572255
 20
4826.0804241278456
 30
0.0
 41
1.0
 10
-3210.3728861756463
 20
4826.0214604153352
 30
0.0
 41
1.0
 10
-3210.3895866940666
 20
4825.9624967028249
 30
0.0
 41
1.0
 10
-3210.5189307638748
 20
4825.505827852493
 30
0.0
 41
0.9999625120734047
 10
-3210.6561635312059
 20
4825.0514673184707
 30
0.0
 41
1.0
 10
-3210.6919534742824
 20
4824.9329712918643
 30
0.0
 41
1.0
 10
-3210.7277434173589
 20
4824.8144752652588
 30
0.0
 41
1.0
 10
-3210.802263621395
 20
4824.5677481871708
 30
0.0
 41
0.9999793386315657
 10
-3210.879949644549
 20
4824.3219995478812
 30
0.0
 41
1.0
 10
-3210.9576356676866
 20
4824.0762509086453
 30
0.0
 41
1.0
 10
-3210.9684152265572
 20
4824.0422330042711
 30
0.0
 41
1.0
 10
-3212.8187882798265
 20
4818.1551610818042
 30
0.0
 41
1.0
 10
-3214.6691613330959
 20
4812.2680891593363
 30
0.0
 41
1.0
 10
-3215.6304180231191
 20
4812.2680891593363
 30
0.0
 41
1.0
 10
-3216.5916747131428
 20
4812.2680891593363
 30
0.0
 41
1.0
 10
-3214.972729934464
 20
4817.4161176611251
 30
0.0
 41
1.0
 10
-3213.3537851557858
 20
4822.5641461629148
 30
0.0
 41
1.0
 10
-3213.3086193326162
 20
4822.7081773851696
 30
0.0
 41
1.0
 10
-3213.2634535094467
 20
4822.8522086074245
 30
0.0
 41
1.0
 10
-3213.0931490920939
 20
4823.3952996365588
 30
0.0
 41
0.9999911657907682
 10
-3212.9274162803945
 20
4823.9398031679812
 30
0.0
 41
1.0
 10
-3212.8977203368854
 20
4824.0373671080606
 30
0.0
 41
1.0
 10
-3212.8680243933763
 20
4824.1349310481401
 30
0.0
 41
1.0
 10
-3212.7616834687251
 20
4824.4843066993071
 30
0.0
 41
0.9999952428183134
 10
-3212.6574998793894
 20
4824.834331723694
 30
0.0
 41
1.0
 10
-3212.6524404090533
 20
4824.8513299979813
 30
0.0
 41
1.0
 10
-3212.6473809387176
 20
4824.8683282722686
 30
0.0
 41
1.0
 10
-3212.5533162900424
 20
4825.1843567481164
 30
0.0
 41
0.9999931687533173
 10
-3212.4615904521906
 20
4825.5010719613147
 30
0.0
 41
1.0
 10
-3212.4566551877188
 20
4825.5181126706284
 30
0.0
 41
1.0
 10
-3212.4517199232473
 20
4825.5351533799412
 30
0.0
 41
1.0
 10
-3212.3698646142911
 20
4825.8177871746739
 30
0.0
 41
0.9999893840781884
 10
-3212.29061738786
 20
4826.1011633038315
 30
0.0
 41
1.0
 10
-3212.2113701613971
 20
4826.3845394331001
 30
0.0
 41
0.9999833980063888
 10
-3212.1353939206519
 20
4826.6688100161427
 30
0.0
 41
1.0
 10
-3212.1263899839396
 20
4826.7024988945832
 30
0.0
 41
1.0
 10
-3212.1173860472277
 20
4826.7361877730236
 30
0.0
 41
1.0
 10
-3212.0484214983599
 20
4826.9942236053239
 30
0.0
 41
0.9999233658065064
 10
-3211.9858665271295
 20
4827.2538877640845
 30
0.0
 41
1.0
 10
-3211.9233115559095
 20
4827.513551922807
 30
0.0
 41
1.0
 10
-3211.8838281370518
 20
4827.6773585872324
 30
0.0
 41
1.0
 10
-3211.8788495330864
 20
4827.698013549053
 30
0.0
 41
1.0
 10
-3211.873870929121
 20
4827.7186685108736
 30
0.0
 41
1.0
 10
-3211.8443447181958
 20
4827.8411652516534
 30
0.0
 41
0.9999868670843687
 10
-3211.8160756341981
 20
4827.9639581973042
 30
0.0
 41
1.0
 10
-3211.8121781470372
 20
4827.9808877847354
 30
0.0
 41
1.0
 10
-3211.8082806598763
 20
4827.9978173721656
 30
0.0
 41
1.0
 10
-3211.7878065502073
 20
4828.0867511429278
 30
0.0
 41
0.9999778173352452
 10
-3211.7685189520862
 20
4828.1759497601797
 30
0.0
 41
1.0
 10
-3211.7492313539615
 20
4828.2651483774525
 30
0.0
 41
0.9999602692859595
 10
-3211.7315369953326
 20
4828.3546766658774
 30
0.0
 41
1.0
 10
-3211.7283331632589
 20
4828.3708871207436
 30
0.0
 41
1.0
 10
-3211.7251293311851
 20
4828.387097575609
 30
0.0
 41
1.0
 10
-3211.7010273084002
 20
4828.5090467738028
 30
0.0
 41
0.9995617985320999
 10
-3211.6841839611834
 20
4828.6322085214897
 30
0.0
 41
1.0
 10
-3211.6817194712762
 20
4828.6502293388621
 30
0.0
 41
1.0
 10
-3211.679254981369
 20
4828.6682501562345
 30
0.0
 41
1.0
 10
-3211.6589717203206
 20
4828.8165652059397
 30
0.0
 41
0.9991121410640624
 10
-3211.6512463667314
 20
4828.9660613047508
 30
0.0
 41
1.0
 10
-3211.6503275767072
 20
4828.9838411413211
 30
0.0
 41
1.0
 10
-3211.6494087866827
 20
4829.0016209778914
 30
0.0
 41
1.0
 10
-3211.643521013144
 20
4829.1155574035465
 30
0.0
 41
0.998979249490999
 10
-3211.6479401052602
 20
4829.2295602394552
 30
0.0
 41
1.0
 10
-3211.6485880771288
 20
4829.2462764853808
 30
0.0
 41
1.0
 10
-3211.6492360489974
 20
4829.2629927313055
 30
0.0
 41
1.0
 10
-3211.6523591973769
 20
4829.3435630753411
 30
0.0
 41
0.9997820295394285
 10
-3211.6588431947534
 20
4829.4239327970981
 30
0.0
 41
1.0
 10
-3211.6653271921286
 20
4829.5043025188397
 30
0.0
 41
0.9998335105972834
 10
-3211.6747393876376
 20
4829.5843821352637
 30
0.0
 41
1.0
 10
-3211.6763343123157
 20
4829.5979518657605
 30
0.0
 41
1.0
 10
-3211.6779292369938
 20
4829.6115215962582
 30
0.0
 41
1.0
 10
-3211.690531281859
 20
4829.7187406736812
 30
0.0
 41
0.9996876457879169
 10
-3211.7084751946586
 20
4829.8251961014039
 30
0.0
 41
1.0
 10
-3211.7107068578025
 20
4829.8384358366384
 30
0.0
 41
1.0
 10
-3211.7129385209469
 20
4829.851675571872
 30
0.0
 41
1.0
 10
-3211.7267343423664
 20
4829.9335217158232
 30
0.0
 41
0.9995547496495582
 10
-3211.7453876642603
 20
4830.0143992130234
 30
0.0
 41
1.0
 10
-3211.7457616211323
 20
4830.0160206237306
 30
0.0
 41
1.0
 10
-3211.7461355780038
 20
4830.0176420344378
 30
0.0
 41
1.0
 10
-3211.7640409861547
 20
4830.0952767102226
 30
0.0
 41
0.9994899427173142
 10
-3211.7868658948328
 20
4830.1716099930491
 30
0.0
 41
1.0
 10
-3211.7873244215716
 20
4830.173143442832
 30
0.0
 41
1.0
 10
-3211.7877829483109
 20
4830.174676892615
 30
0.0
 41
1.0
 10
-3211.8096908035118
 20
4830.2479432758837
 30
0.0
 41
0.9993784877591089
 10
-3211.8367064386184
 20
4830.3194839810421
 30
0.0
 41
1.0
 10
-3211.8372381295967
 20
4830.3208919637664
 30
0.0
 41
1.0
 10
-3211.837769820575
 20
4830.3222999464906
 30
0.0
 41
1.0
 10
-3211.8637220737269
 20
4830.3910246862051
 30
0.0
 41
0.9992430832255563
 10
-3211.8949386088843
 20
4830.4575238382695
 30
0.0
 41
1.0
 10
-3211.8955207249401
 20
4830.4587638933854
 30
0.0
 41
1.0
 10
-3211.8961028409963
 20
4830.4600039485013
 30
0.0
 41
1.0
 10
-3211.926155144045
 20
4830.5240229903402
 30
0.0
 41
0.9990789632797719
 10
-3211.9615857708204
 20
4830.5852296020876
 30
0.0
 41
1.0
 10
-3211.9621814770035
 20
4830.5862586879484
 30
0.0
 41
1.0
 10
-3211.9627771831865
 20
4830.5872877738093
 30
0.0
 41
1.0
 10
-3211.9970163975977
 20
4830.6464362138395
 30
0.0
 41
0.9988874801116017
 10
-3212.0366756736294
 20
4830.7020959262554
 30
0.0
 41
1.0
 10
-3212.0372311996948
 20
4830.702875577932
 30
0.0
 41
1.0
 10
-3212.0377867257603
 20
4830.7036552296086
 30
0.0
 41
1.0
 10
-3212.0763349496624
 20
4830.757755638675
 30
0.0
 41
0.9986762060693123
 10
-3212.120237420937
 20
4830.8076093531126
 30
0.0
 41
1.0
 10
-3212.1206813812682
 20
4830.808113494928
 30
0.0
 41
1.0
 10
-3212.1211253415995
 20
4830.8086176367442
 30
0.0
 41
1.0
 10
-3212.1641398922125
 20
4830.8574630675512
 30
0.0
 41
0.9984621642490742
 10
-3212.2122974489912
 20
4830.9012463680228
 30
0.0
 41
1.0
 10
-3212.2125440835084
 20
4830.9014706001872
 30
0.0
 41
1.0
 10
-3212.2127907180256
 20
4830.9016948323506
 30
0.0
 41
1.0
 10
-3212.2604550057713
 20
4830.9450296684954
 30
0.0
 41
0.9982724693849506
 10
-3212.3128736376107
 20
4830.9824740190106
 30
0.0
 41
1.0
 10
-3212.3652922694509
 20
4831.0199183695277
 30
0.0
 41
0.9981399180160496
 10
-3212.4218783328438
 20
4831.0507048889713
 30
0.0
 41
1.0
 10
-3212.421923994923
 20
4831.0507297321292
 30
0.0
 41
1.0
 10
-3212.4219696570021
 20
4831.0507545752862
 30
0.0
 41
1.0
 10
-3212.4786470445533
 20
4831.0815907810447
 30
0.0
 41
0.9980927086835114
 10
-3212.5386923956207
 20
4831.1052075898979
 30
0.0
 41
1.0
 10
-3212.5391325653318
 20
4831.1053807157732
 30
0.0
 41
1.0
 10
-3212.5395727350424
 20
4831.1055538416476
 30
0.0
 41
1.0
 10
-3212.6004984255324
 20
4831.1295169022496
 30
0.0
 41
0.9981411356563924
 10
-3212.6638869469293
 20
4831.1458895437545
 30
0.0
 41
1.0
 10
-3212.6647690636319
 20
4831.1461173859607
 30
0.0
 41
1.0
 10
-3212.665651180334
 20
4831.146345228166
 30
0.0
 41
1.0
 10
-3212.7308039351346
 20
4831.1631735540814
 30
0.0
 41
0.9983031812937512
 10
-3212.7974713641265
 20
4831.1723129152579
 30
0.0
 41
1.0
 10
-3212.8063423895346
 20
4831.1735290339293
 30
0.0
 41
1.0
 10
-3212.8152134149432
 20
4831.1747451526016
 30
0.0
 41
1.0
 10
-3212.8695630574452
 20
4831.1821958825922
 30
0.0
 41
0.9983887708263852
 10
-3212.9244069067363
 20
4831.1834405562258
 30
0.0
 41
1.0
 10
-3212.9324703119646
 20
4831.1836235541014
 30
0.0
 41
1.0
 10
-3212.9405337171929
 20
4831.183806551976
 30
0.0
 41
1.0
 10
-3212.9792507560401
 20
4831.1846852298586
 30
0.0
 41
0.9998869563081521
 10
-3213.0179767092318
 20
4831.1843993604989
 30
0.0
 41
1.0
 10
-3213.0567026624944
 20
4831.1841134911392
 30
0.0
 41
0.9999972320129963
 10
-3213.0954268417627
 20
4831.1836453916094
 30
0.0
 41
1.0
 10
-3213.1147798582838
 20
4831.1834114515204
 30
0.0
 41
1.0
 10
-3213.1341328748049
 20
4831.1831775114315
 30
0.0
 41
1.0
 10
-3213.2115630871745
 20
4831.1822415317238
 30
0.0
 41
0.9997304945087101
 10
-3213.2888663934109
 20
4831.1777124379378
 30
0.0
 41
1.0
 10
-3213.2979160351165
 20
4831.1771822319479
 30
0.0
 41
1.0
 10
-3213.3069656768221
 20
4831.176652025958
 30
0.0
 41
1.0
 10
-3213.4023682664692
 20
4831.1710625201922
 30
0.0
 41
0.9997888306414816
 10
-3213.4974606023102
 20
4831.1615575557025
 30
0.0
 41
1.0
 10
-3213.5061816638831
 20
4831.1606858410705
 30
0.0
 41
1.0
 10
-3213.5149027254561
 20
4831.1598141264385
 30
0.0
 41
1.0
 10
-3213.6274371844438
 20
4831.1485657326857
 30
0.0
 41
0.9984170238189087
 10
-3213.7379963317935
 20
4831.1247496507503
 30
0.0
 41
1.0
 10
-3213.7743774627784
 20
4831.1169126149452
 30
0.0
 41
1.0
 10
-3213.8107585937632
 20
4831.1090755791392
 30
0.0
 41
1.0
 10
-3213.9259496621871
 20
4831.0842617126291
 30
0.0
 41
0.9976592854202161
 10
-3214.0366778285952
 20
4831.0439630354813
 30
0.0
 41
1.0
 10
-3214.147405995006
 20
4831.0036643583308
 30
0.0
 41
0.9993255074353459
 10
-3214.2548777937986
 20
4830.9553474598379
 30
0.0
 41
1.0
 10
-3214.2595029727181
 20
4830.9532680836401
 30
0.0
 41
1.0
 10
-3214.2641281516371
 20
4830.9511887074423
 30
0.0
 41
1.0
 10
-3214.3808503082764
 20
4830.8987130565492
 30
0.0
 41
0.9976475078274958
 10
-3214.4892976525889
 20
4830.8307650668894
 30
0.0
 41
1.0
 10
-3214.5076400467278
 20
4830.8192725880726
 30
0.0
 41
1.0
 10
-3214.5259824408668
 20
4830.8077801092559
 30
0.0
 41
1.0
 10
-3214.610184632415
 20
4830.7550229884891
 30
0.0
 41
0.9995131336405961
 10
-3214.6909323473642
 20
4830.6971167765405
 30
0.0
 41
1.0
 10
-3214.7716800623234
 20
4830.6392105645864
 30
0.0
 41
0.999581010760645
 10
-3214.8489417100541
 20
4830.5767288821189
 30
0.0
 41
1.0
 10
-3214.8519117412625
 20
4830.5743270106559
 30
0.0
 41
1.0
 10
-3214.8548817724704
 20
4830.5719251391929
 30
0.0
 41
1.0
 10
-3214.9380834826111
 20
4830.5046397138049
 30
0.0
 41
0.9996617837955225
 10
-3215.0176741697396
 20
4830.4331192582513
 30
0.0
 41
1.0
 10
-3215.029804920634
 20
4830.4222185252456
 30
0.0
 41
1.0
 10
-3215.0419356715279
 20
4830.4113177922391
 30
0.0
 41
1.0
 10
-3215.1102111989212
 20
4830.3499651767697
 30
0.0
 41
0.9997267750051416
 10
-3215.1755447071901
 20
4830.2854886402583
 30
0.0
 41
1.0
 10
-3215.2408782154721
 20
4830.2210121037351
 30
0.0
 41
0.9999667288964662
 10
-3215.305151158645
 20
4830.1554782968133
 30
0.0
 41
1.0
 10
-3215.3739786064079
 20
4830.0853006380676
 30
0.0
 41
1.0
 10
-3215.4428060541704
 20
4830.0151229793209
 30
0.0
 41
1.0
 10
-3215.6447338928656
 20
4829.8092338549131
 30
0.0
 41
0.9988205335175158
 10
-3215.8257395098426
 20
4829.5847296228549
 30
0.0
 41
1.0
 10
-3215.8563794747497
 20
4829.5467263724222
 30
0.0
 41
1.0
 10
-3215.8870194396563
 20
4829.5087231219895
 30
0.0
 41
1.0
 10
-3216.1293049864421
 20
4829.2082123890723
 30
0.0
 41
0.9997077826755522
 10
-3216.3567829375447
 20
4828.8963425948605
 30
0.0
 41
1.0
 10
-3216.358506352678
 20
4828.893979811477
 30
0.0
 41
1.0
 10
-3216.3602297678117
 20
4828.8916170280936
 30
0.0
 41
1.0
 10
-3216.5911545491872
 20
4828.5750216671058
 30
0.0
 41
0.9989147567077432
 10
-3216.7916180520779
 20
4828.2383122059055
 30
0.0
 41
1.0
 10
-3216.8163591973835
 20
4828.1967556253558
 30
0.0
 41
1.0
 10
-3216.8411003426886
 20
4828.1551990448061
 30
0.0
 41
1.0
 10
-3216.9963116413192
 20
4827.8944976603643
 30
0.0
 41
0.9997476598181841
 10
-3217.1396566288217
 20
4827.6270879117947
 30
0.0
 41
1.0
 10
-3217.283001616328
 20
4827.3596781632177
 30
0.0
 41
0.9996258967110016
 10
-3217.4115098682564
 20
4827.0848302266004
 30
0.0
 41
1.0
 10
-3217.4247097777161
 20
4827.0565988264834
 30
0.0
 41
1.0
 10
-3217.4379096871762
 20
4827.0283674263665
 30
0.0
 41
1.0
 10
-3217.5781184081629
 20
4826.7284950284411
 30
0.0
 41
0.9998735413943399
 10
-3217.7087197548831
 20
4826.4243154289743
 30
0.0
 41
1.0
 10
-3217.7121625829323
 20
4826.4162968435357
 30
0.0
 41
1.0
 10
-3217.7156054109819
 20
4826.4082782580963
 30
0.0
 41
1.0
 10
-3217.8393211015996
 20
4826.1201358295166
 30
0.0
 41
0.9999377418857824
 10
-3217.9565759037782
 20
4825.8293043618323
 30
0.0
 41
1.0
 10
-3218.0738307059646
 20
4825.538472894129
 30
0.0
 41
0.9999508299507837
 10
-3218.1852946493354
 20
4825.2453732173235
 30
0.0
 41
1.0
 10
-3218.1883754179958
 20
4825.2372721913653
 30
0.0
 41
1.0
 10
-3218.1914561866561
 20
4825.229171165407
 30
0.0
 41
1.0
 10
-3218.3090816673475
 20
4824.919869436686
 30
0.0
 41
0.9999609228439349
 10
-3218.4212202702288
 20
4824.6085364206519
 30
0.0
 41
1.0
 10
-3218.42417628058
 20
4824.6003295802384
 30
0.0
 41
1.0
 10
-3218.4271322909312
 20
4824.5921227398239
 30
0.0
 41
1.0
 10
-3218.5451829144959
 20
4824.2643760430146
 30
0.0
 41
0.9999674607400547
 10
-3218.6579304405564
 20
4823.9347674230421
 30
0.0
 41
1.0
 10
-3218.7093288311207
 20
4823.7845082273443
 30
0.0
 41
1.0
 10
-3218.7607272216856
 20
4823.6342490316465
 30
0.0
 41
1.0
 10
-3218.8767378284438
 20
4823.2951010491433
 30
0.0
 41
0.9999287532307861
 10
-3218.9846192324262
 20
4822.953280310132
 30
0.0
 41
1.0
 10
-3219.0310964885875
 20
4822.8060177656916
 30
0.0
 41
1.0
 10
-3219.0775737447484
 20
4822.6587552212504
 30
0.0
 41
1.0
 10
-3219.0925006364232
 20
4822.6114595710733
 30
0.0
 41
0.9999998222696922
 10
-3219.1073711451272
 20
4822.5641461629148
 30
0.0
 41
1.0
 10
-3220.7280272819226
 20
4817.4161176611251
 30
0.0
 41
1.0
 10
-3222.3486834187183
 20
4812.2680891593363
 30
0.0
 41
1.0
 10
-3223.2539918626089
 20
4812.2680891593363
 30
0.0
 41
1.0
 10
-3224.1593003065
 20
4812.2680891593363
 30
0.0
 41
1.0
 10
-3222.307215895114
 20
4818.1551610818042
 30
0.0
 41
1.0
 10
-3220.4551314837281
 20
4824.0422330042711
 30
0.0
 41
1.0
 10
-3220.4450097254253
 20
4824.0742762177206
 30
0.0
 41
1.0
 10
-3220.3724020565755
 20
4824.3045757595464
 30
0.0
 41
1.0
 10
-3220.2997943877217
 20
4824.5348753013859
 30
0.0
 41
0.9999825681977034
 10
-3220.2299113485055
 20
4824.766016196465
 30
0.0
 41
1.0
 10
-3220.1816202863547
 20
4824.9257407799287
 30
0.0
 41
1.0
 10
-3220.1333292242039
 20
4825.0854653633914
 30
0.0
 41
1.0
 10
-3220.0361768708904
 20
4825.4068005851568
 30
0.0
 41
0.9999672528963125
 10
-3219.9442380652536
 20
4825.7296661307873
 30
0.0
 41
1.0
 10
-3219.9414491815896
 20
4825.7394599761574
 30
0.0
 41
1.0
 10
-3219.9386602979257
 20
4825.7492538215265
 30
0.0
 41
1.0
 10
-3219.8522992596354
 20
4826.0525316763578
 30
0.0
 41
0.9999899749142572
 10
-3219.7686576500955
 20
4826.3565707648268
 30
0.0
 41
1.0
 10
-3219.7585517310768
 20
4826.3933060025101
 30
0.0
 41
1.0
 10
-3219.748445812058
 20
4826.4300412401926
 30
0.0
 41
1.0
 10
-3219.6850160405597
 20
4826.6606098532811
 30
0.0
 41
0.9999214200502229
 10
-3219.6273866121828
 20
4826.8926961954876
 30
0.0
 41
1.0
 10
-3219.6146207600095
 20
4826.9441070808552
 30
0.0
 41
1.0
 10
-3219.6018549078358
 20
4826.9955179662229
 30
0.0
 41
1.0
 10
-3219.5697571838132
 20
4827.1247825376668
 30
0.0
 41
0.9999828681668965
 10
-3219.5391749318101
 20
4827.2544140121645
 30
0.0
 41
1.0
 10
-3219.5085926798147
 20
4827.3840454866331
 30
0.0
 41
0.9999389844482164
 10
-3219.4808816910336
 20
4827.5143209424941
 30
0.0
 41
1.0
 10
-3219.4737439473092
 20
4827.5478770463505
 30
0.0
 41
1.0
 10
-3219.4666062035849
 20
4827.581433150207
 30
0.0
 41
1.0
 10
-3219.4246197273551
 20
4827.7788208137827
 30
0.0
 41
0.9998933699441713
 10
-3219.3884154629473
 20
4827.9773504215709
 30
0.0
 41
1.0
 10
-3219.3870426377334
 20
4827.984878442252
 30
0.0
 41
1.0
 10
-3219.3856698125201
 20
4827.992406462934
 30
0.0
 41
1.0
 10
-3219.3467198976855
 20
4828.2059921120835
 30
0.0
 41
0.999685030519355
 10
-3219.3185362214249
 20
4828.421263117536
 30
0.0
 41
1.0
 10
-3219.3165411880564
 20
4828.4365014716514
 30
0.0
 41
1.0
 10
-3219.3145461546883
 20
4828.4517398257667
 30
0.0
 41
1.0
 10
-3219.2871382922303
 20
4828.6610850529141
 30
0.0
 41
0.9994697936707508
 10
-3219.2734137330094
 20
4828.8717702482518
 30
0.0
 41
1.0
 10
-3219.2729366637595
 20
4828.8790937204631
 30
0.0
 41
1.0
 10
-3219.2724595945101
 20
4828.8864171926743
 30
0.0
 41
1.0
 10
-3219.2596891737894
 20
4829.0824554435821
 30
0.0
 41
0.9991804893135979
 10
-3219.2628174900628
 20
4829.2788842935552
 30
0.0
 41
1.0
 10
-3219.2629013688847
 20
4829.2841510949602
 30
0.0
 41
1.0
 10
-3219.2629852477066
 20
4829.2894178963652
 30
0.0
 41
1.0
 10
-3219.2659458063354
 20
4829.4753131435209
 30
0.0
 41
0.9988448329322209
 10
-3219.2867373519593
 20
4829.660065733362
 30
0.0
 41
1.0
 10
-3219.2883314256624
 20
4829.674230589133
 30
0.0
 41
1.0
 10
-3219.2899254993654
 20
4829.6883954449049
 30
0.0
 41
1.0
 10
-3219.3075288975833
 20
4829.8448183231958
 30
0.0
 41
0.998550320945956
 10
-3219.3418451698826
 20
4829.9984425072853
 30
0.0
 41
1.0
 10
-3219.3494311619547
 20
4830.0324028346895
 30
0.0
 41
1.0
 10
-3219.3570171540268
 20
4830.0663631620928
 30
0.0
 41
1.0
 10
-3219.3761614421828
 20
4830.1520666913784
 30
0.0
 41
0.999103678136864
 10
-3219.402486303833
 20
4830.2358437786997
 30
0.0
 41
1.0
 10
-3219.4064685292924
 20
4830.2485169412212
 30
0.0
 41
1.0
 10
-3219.4104507547518
 20
4830.2611901037426
 30
0.0
 41
1.0
 10
-3219.4288111654832
 20
4830.319620866022
 30
0.0
 41
0.9998874504368721
 10
-3219.4489163731628
 20
4830.3774744682478
 30
0.0
 41
1.0
 10
-3219.4690215808396
 20
4830.4353280704663
 30
0.0
 41
0.9994041637543712
 10
-3219.4930701937765
 20
4830.491656774363
 30
0.0
 41
1.0
 10
-3219.497266978
 20
4830.5014868388425
 30
0.0
 41
1.0
 10
-3219.5014637622235
 20
4830.5113169033229
 30
0.0
 41
1.0
 10
-3219.5293425932164
 20
4830.5766170692859
 30
0.0
 41
0.9991846840705849
 10
-3219.5623989499113
 20
4830.6394551005724
 30
0.0
 41
1.0
 10
-3219.5635355563045
 20
4830.6416157170243
 30
0.0
 41
1.0
 10
-3219.5646721626981
 20
4830.6437763334761
 30
0.0
 41
1.0
 10
-3219.5954553066022
 20
4830.7022931318488
 30
0.0
 41
0.9989253167922462
 10
-3219.6315247306593
 20
4830.7577080602423
 30
0.0
 41
1.0
 10
-3219.632578855334
 20
4830.7593275550053
 30
0.0
 41
1.0
 10
-3219.6336329800083
 20
4830.7609470497682
 30
0.0
 41
1.0
 10
-3219.6675941547128
 20
4830.8131229886312
 30
0.0
 41
0.9986467172837001
 10
-3219.7067913073515
 20
4830.8614890222625
 30
0.0
 41
1.0
 10
-3219.7076654360526
 20
4830.862567624541
 30
0.0
 41
1.0
 10
-3219.7085395647532
 20
4830.8636462268187
 30
0.0
 41
1.0
 10
-3219.7459884599912
 20
4830.9098550558947
 30
0.0
 41
0.9984001104262714
 10
-3219.7884151905064
 20
4830.9515401632607
 30
0.0
 41
1.0
 10
-3219.7890023286154
 20
4830.9521170381413
 30
0.0
 41
1.0
 10
-3219.7895894667249
 20
4830.9526939130228
 30
0.0
 41
1.0
 10
-3219.8308419210248
 20
4830.9932252706303
 30
0.0
 41
0.9982442159083131
 10
-3219.8765980223588
 20
4831.0285938318893
 30
0.0
 41
1.0
 10
-3219.8768128178217
 20
4831.0287598645336
 30
0.0
 41
1.0
 10
-3219.8770276132846
 20
4831.0289258971779
 30
0.0
 41
1.0
 10
-3219.9223541236956
 20
4831.0639623931502
 30
0.0
 41
0.9982450060839292
 10
-3219.9715051027661
 20
4831.0933941761832
 30
0.0
 41
1.0
 10
-3220.0206560818397
 20
4831.1228259592181
 30
0.0
 41
0.9983922639631142
 10
-3220.072822388006
 20
4831.1465055938725
 30
0.0
 41
1.0
 10
-3220.0730492653288
 20
4831.1466085793527
 30
0.0
 41
1.0
 10
-3220.0732761426516
 20
4831.1467115648338
 30
0.0
 41
1.0
 10
-3220.1258962034644
 20
4831.1705971704496
 30
0.0
 41
0.9986517147148524
 10
-3220.1807091763335
 20
4831.1888982895716
 30
0.0
 41
1.0
 10
-3220.1813870977612
 20
4831.1891246360028
 30
0.0
 41
1.0
 10
-3220.1820650191894
 20
4831.1893509824349
 30
0.0
 41
1.0
 10
-3220.2382338349089
 20
4831.2081047944193
 30
0.0
 41
0.9989435598952992
 10
-3220.2958872220593
 20
4831.2216224966533
 30
0.0
 41
1.0
 10
-3220.2969673416437
 20
4831.2218757469072
 30
0.0
 41
1.0
 10
-3220.2980474612277
 20
4831.2221289971603
 30
0.0
 41
1.0
 10
-3220.3578610875361
 20
4831.2361531998995
 30
0.0
 41
0.9992249241238763
 10
-3220.4185925964298
 20
4831.2454285426147
 30
0.0
 41
1.0
 10
-3220.4200062847258
 20
4831.2456444510235
 30
0.0
 41
1.0
 10
-3220.4214199730222
 20
4831.2458603594323
 30
0.0
 41
1.0
 10
-3220.4849788585011
 20
4831.2555675189633
 30
0.0
 41
0.9994396597830835
 10
-3220.5490447950401
 20
4831.2610004413082
 30
0.0
 41
1.0
 10
-3220.5681854625172
 20
4831.2626236090273
 30
0.0
 41
1.0
 10
-3220.5873261299939
 20
4831.2642467767455
 30
0.0
 41
1.0
 10
-3220.6896734014845
 20
4831.2729260345286
 30
0.0
 41
0.998769340312216
 10
-3220.7923770250686
 20
4831.2714229710764
 30
0.0
 41
1.0
 10
-3220.8026313593032
 20
4831.2712728993019
 30
0.0
 41
1.0
 10
-3220.8128856935377
 20
4831.2711228275275
 30
0.0
 41
1.0
 10
-3220.9224414597115
 20
4831.2695194832404
 30
0.0
 41
0.9989753644964092
 10
-3221.0314034597232
 20
4831.2580164763149
 30
0.0
 41
1.0
 10
-3221.1403654597402
 20
4831.2465134693903
 30
0.0
 41
0.9983190067303847
 10
-3221.2472642707039
 20
4831.2224784776035
 30
0.0
 41
1.0
 10
-3221.2561652223112
 20
4831.22047719904
 30
0.0
 41
1.0
 10
-3221.2650661739181
 20
4831.2184759204774
 30
0.0
 41
1.0
 10
-3221.3897668880927
 20
4831.1904383715664
 30
0.0
 41
0.9985539388303485
 10
-3221.5107366417647
 20
4831.1491746955235
 30
0.0
 41
1.0
 10
-3221.51308207273
 20
4831.148374651706
 30
0.0
 41
1.0
 10
-3221.5154275036953
 20
4831.1475746078886
 30
0.0
 41
1.0
 10
-3221.6410881192924
 20
4831.1047108442117
 30
0.0
 41
0.9988468746495522
 10
-3221.7620584615952
 20
4831.0499927591482
 30
0.0
 41
1.0
 10
-3221.7652412835832
 20
4831.048553084589
 30
0.0
 41
1.0
 10
-3221.7684241055713
 20
4831.0471134100289
 30
0.0
 41
1.0
 10
-3221.8957600918493
 20
4830.9895159758471
 30
0.0
 41
0.9991322885916966
 10
-3222.0178606759064
 20
4830.9215206436638
 30
0.0
 41
1.0
 10
-3222.0354626869421
 20
4830.9117184416791
 30
0.0
 41
1.0
 10
-3222.0530646979782
 20
4830.9019162396935
 30
0.0
 41
1.0
 10
-3222.1552413790405
 20
4830.8450161239098
 30
0.0
 41
0.9993860037849893
 10
-3222.2531823831241
 20
4830.7811001083155
 30
0.0
 41
1.0
 10
-3222.2588006959891
 20
4830.7774336136126
 30
0.0
 41
1.0
 10
-3222.264419008854
 20
4830.7737671189097
 30
0.0
 41
1.0
 10
-3222.3511233872105
 20
4830.7171840927194
 30
0.0
 41
0.9998821494951927
 10
-3222.4360497630105
 20
4830.6579658626506
 30
0.0
 41
1.0
 10
-3222.5209761388064
 20
4830.5987476325854
 30
0.0
 41
0.9997976482745741
 10
-3222.6034517692055
 20
4830.5361612245488
 30
0.0
 41
1.0
 10
-3222.6180880340212
 20
4830.5250545347608
 30
0.0
 41
1.0
 10
-3222.6327242988368
 20
4830.5139478449728
 30
0.0
 41
1.0
 10
-3222.7444724588627
 20
4830.429148057362
 30
0.0
 41
0.999809163079936
 10
-3222.8528227369125
 20
4830.3400477066416
 30
0.0
 41
1.0
 10
-3222.8658284893727
 20
4830.3293526062098
 30
0.0
 41
1.0
 10
-3222.8788342418329
 20
4830.3186575057771
 30
0.0
 41
1.0
 10
-3223.0131960248091
 20
4830.2081669541894
 30
0.0
 41
0.9995035112317445
 10
-3223.1403319025667
 20
4830.0894331371801
 30
0.0
 41
1.0
 10
-3223.1499792129621
 20
4830.0804233910148
 30
0.0
 41
1.0
 10
-3223.1596265233575
 20
4830.0714136448487
 30
0.0
 41
1.0
 10
-3223.2830495861203
 20
4829.9561472730957
 30
0.0
 41
0.9994630424298606
 10
-3223.3986579919019
 20
4829.8330445298625
 30
0.0
 41
1.0
 10
-3223.4023408306648
 20
4829.8291229503593
 30
0.0
 41
1.0
 10
-3223.4060236694272
 20
4829.8252013708552
 30
0.0
 41
1.0
 10
-3223.5142663976731
 20
4829.7099417866402
 30
0.0
 41
0.9995160693751967
 10
-3223.6151324272178
 20
4829.5881743687551
 30
0.0
 41
1.0
 10
-3223.6170661473043
 20
4829.5858399445406
 30
0.0
 41
1.0
 10
-3223.6189998673904
 20
4829.5835055203252
 30
0.0
 41
1.0
 10
-3223.7159984567602
 20
4829.4664069508699
 30
0.0
 41
0.9996561470513691
 10
-3223.8067246754163
 20
4829.3443841884327
 30
0.0
 41
1.0
 10
-3223.8128823413244
 20
4829.3361023993821
 30
0.0
 41
1.0
 10
-3223.8190400072326
 20
4829.3278206103314
 30
0.0
 41
1.0
 10
-3223.8974508940887
 20
4829.2223614259747
 30
0.0
 41
0.9998349055172934
 10
-3223.9719781760141
 20
4829.1141228423203
 30
0.0
 41
1.0
 10
-3224.0465054579381
 20
4829.0058842586686
 30
0.0
 41
0.999972810956383
 10
-3224.1194283538111
 20
4828.8965583331701
 30
0.0
 41
1.0
 10
-3224.1207435692459
 20
4828.8945865636333
 30
0.0
 41
1.0
 10
-3224.1220587846801
 20
4828.8926147940965
 30
0.0
 41
1.0
 10
-3224.1976121115158
 20
4828.7793453293816
 30
0.0
 41
0.9999972147443951
 10
-3224.2726299218998
 20
4828.6657204865305
 30
0.0
 41
1.0
 10
-3224.277601464466
 20
4828.6581903981432
 30
0.0
 41
1.0
 10
-3224.2825730070326
 20
4828.6506603097559
 30
0.0
 41
1.0
 10
-3224.3675339026381
 20
4828.5219752899957
 30
0.0
 41
0.9999371979005717
 10
-3224.449589252029
 20
4828.3914183762408
 30
0.0
 41
1.0
 10
-3224.4530981364042
 20
4828.3858354481545
 30
0.0
 41
1.0
 10
-3224.4566070207793
 20
4828.3802525200681
 30
0.0
 41
1.0
 10
-3224.5456801389091
 20
4828.238529750156
 30
0.0
 41
0.9998272025610483
 10
-3224.6294235297928
 20
4828.093593873411
 30
0.0
 41
1.0
 10
-3224.6446387018154
 20
4828.0672607589568
 30
0.0
 41
1.0
 10
-3224.6598538738381
 20
4828.0409276445025
 30
0.0
 41
1.0
 10
-3224.7740276087652
 20
4827.8433255388509
 30
0.0
 41
0.999521721483921
 10
-3224.8757672983261
 20
4827.6390432109811
 30
0.0
 41
1.0
 10
-3224.8834108609681
 20
4827.6236957612637
 30
0.0
 41
1.0
 10
-3224.8910544236101
 20
4827.6083483115472
 30
0.0
 41
1.0
 10
-3224.9779597161869
 20
4827.4338518534914
 30
0.0
 41
0.9998269762607777
 10
-3225.0583141824554
 20
4827.2562435667751
 30
0.0
 41
1.0
 10
-3225.1386686487322
 20
4827.0786352800415
 30
0.0
 41
0.999894474738691
 10
-3225.2138294432903
 20
4826.8987675544267
 30
0.0
 41
1.0
 10
-3225.2187831128795
 20
4826.8869128995138
 30
0.0
 41
1.0
 10
-3225.2237367824691
 20
4826.875058244601
 30
0.0
 41
1.0
 10
-3225.3043838430331
 20
4826.6820613045566
 30
0.0
 41
0.9999506734409187
 10
-3225.3811813719317
 20
4826.487500499712
 30
0.0
 41
1.0
 10
-3225.3957813371858
 20
4826.4505125779488
 30
0.0
 41
1.0
 10
-3225.4103813024399
 20
4826.4135246561846
 30
0.0
 41
1.0
 10
-3225.457978900803
 20
4826.2929396949385
 30
0.0
 41
0.9999912393924011
 10
-3225.5045653448578
 20
4826.17196049216
 30
0.0
 41
1.0
 10
-3225.5511517889026
 20
4826.0509812894043
 30
0.0
 41
0.9999927113940464
 10
-3225.5968130832794
 20
4825.9296498819485
 30
0.0
 41
1.0
 10
-3225.6107815146743
 20
4825.8925328999558
 30
0.0
 41
1.0
 10
-3225.6247499460696
 20
4825.8554159179639
 30
0.0
 41
1.0
 10
-3225.6983481032594
 20
4825.6598505464653
 30
0.0
 41
0.9999487550948806
 10
-3225.7679717282299
 20
4825.4628351812835
 30
0.0
 41
1.0
 10
-3225.7915653381547
 20
4825.3960718710259
 30
0.0
 41
1.0
 10
-3225.8151589480794
 20
4825.3293085607675
 30
0.0
 41
1.0
 10
-3225.9098445824625
 20
4825.0613747259085
 30
0.0
 41
0.9999808436947527
 10
-3226.0012061711168
 20
4824.7922892946062
 30
0.0
 41
1.0
 10
-3226.0925677597602
 20
4824.5232038633349
 30
0.0
 41
0.9999873932923143
 10
-3226.1812224684809
 20
4824.2532145083151
 30
0.0
 41
1.0
 10
-3226.2013148253482
 20
4824.1920251755691
 30
0.0
 41
1.0
 10
-3226.221407182215
 20
4824.1308358428232
 30
0.0
 41
1.0
 10
-3226.3502466046739
 20
4823.7384678222988
 30
0.0
 41
0.9999794883037594
 10
-3226.4740493896347
 20
4823.3444816160109
 30
0.0
 41
1.0
 10
-3226.4852016490649
 20
4823.308991005797
 30
0.0
 41
1.0
 10
-3226.4963539084952
 20
4823.2735003955831
 30
0.0
 41
1.0
 10
-3226.6389120724325
 20
4822.8198276433714
 30
0.0
 41
0.9999982761724705
 10
-3226.7797845124178
 20
4822.3656286213427
 30
0.0
 41
1.0
 10
-3228.3679248449903
 20
4817.3168588903391
 30
0.0
 41
1.0
 10
-3229.9560651775628
 20
4812.2680891593363
 30
0.0
 41
1.0
 10
-3230.9048157890393
 20
4812.2680891593363
 30
0.0
 41
1.0
 10
-3231.8535664005158
 20
4812.2680891593363
 30
0.0
 41
1.0
 10
-3228.6152819143626
 20
4822.5954113592825
 30
0.0
 41
1.0
 10
-3225.3769974282091
 20
4832.9227335592286
 30
0.0
 41
1.0
  0
LWPOLYLINE
  5
5B
100
AcDbEntity
  8
0
370
              15
390
0
  6
Continuous
 62
               7
100
AcDbPolyline
 90
      232
 70
             128
 10
-3251.0805432020361
 20
4831.838390727713
 42
0.0004370800650206
 10
-3251.1334203761312
 20
4831.7697240884272
 10
-3251.1727046072356
 20
4831.7186169755605
 42
0.0030481992152952
 10
-3251.3030433244035
 20
4831.5468952831516
 10
-3251.3415549961055
 20
4831.4955084994281
 42
0.0042058245752087
 10
-3251.5455400467272
 20
4831.2185027544201
 10
-3251.5979451692756
 20
4831.1460699075742
 42
0.0120948898742917
 10
-3251.8939890860665
 20
4830.7153203029802
 10
-3251.9901815851595
 20
4830.5678395677996
 42
0.0141601263946277
 10
-3252.2938256320813
 20
4830.0721702310648
 10
-3252.3333628994787
 20
4830.0033262636825
 42
0.0071131081299974
 10
-3252.5386352227456
 20
4829.6338234647947
 42
0.0068458791025163
 10
-3252.733514749611
 20
4829.2587319012728
 10
-3252.7403266120464
 20
4829.2451701875943
 42
0.0064120880290933
 10
-3252.9384688620921
 20
4828.8377457126735
 10
-3252.9460035476077
 20
4828.8217338559552
 42
0.0058857236461913
 10
-3253.1487589395042
 20
4828.3773577448628
 10
-3253.1569338657732
 20
4828.3588675912852
 42
0.0053189741881492
 10
-3253.3656381784281
 20
4827.8729041173983
 10
-3253.374385984122
 20
4827.8519222391715
 42
0.0047503650412284
 10
-3253.5903597102651
 20
4827.3197228059817
 10
-3253.5996279586207
 20
4827.2962464298544
 42
0.004207176216217
 10
-3253.8241753423454
 20
4826.7131528357941
 10
-3253.8339247446975
 20
4826.6871866609144
 42
0.0036680086486339
 10
-3254.0683793879948
 20
4826.0485512764244
 10
-3254.0785871678572
 20
4826.0201027420389
 42
0.0032573142627232
 10
-3254.3242194538025
 20
4825.3212500823483
 10
-3254.392869974678
 20
4825.1217869981938
 42
0.0026133366641995
 10
-3254.7413151734227
 20
4824.0919237145608
 10
-3254.8045719609172
 20
4823.9016928791871
 42
0.0020592950738385
 10
-3255.0184350298905
 20
4823.2495892265542
 10
-3255.0214868210669
 20
4823.2401527381035
 42
0.0025609928532166
 10
-3255.2233073225393
 20
4822.6050075157791
 10
-3255.2258986896522
 20
4822.5967051748821
 42
0.0031362356237796
 10
-3255.4153894753431
 20
4821.9759423186588
 10
-3255.4175205182764
 20
4821.9688010124273
 42
0.0037229918034354
 10
-3255.594320905197
 20
4821.3598157104734
 10
-3255.5959994944069
 20
4821.3538688202862
 42
0.0043077623712953
 10
-3255.7597402964684
 20
4820.7540500885298
 42
0.0047654161829733
 10
-3255.9125690189985
 20
4820.1513639995692
 10
-3255.9470336278237
 20
4820.0098022224774
 42
0.0112969368444231
 10
-3256.1428979859661
 20
4819.1181100618569
 10
-3256.1709043750634
 20
4818.9752820157555
 42
0.0130056762572599
 10
-3256.3717416187101
 20
4817.788340944111
 10
-3256.3922813688569
 20
4817.6442628306349
 42
0.0138721532145066
 10
-3256.495984373395
 20
4816.7374333448079
 10
-3256.5152798613026
 20
4816.5139356228856
 42
0.0071254697004882
 10
-3256.5486265072259
 20
4816.0507486140359
 10
-3256.5535874813913
 20
4815.9647446194349
 42
0.0028881799197792
 10
-3256.5687257746786
 20
4815.6730029096325
 42
0.0060297297122382
 10
-3256.5786579744527
 20
4815.381053973585
 10
-3256.5797202561212
 20
4815.332661601592
 42
0.0229523164127498
 10
-3256.571989228336
 20
4815.0099067553019
 10
-3256.5677634548165
 20
4814.9495032213008
 42
0.012367330067207
 10
-3256.5486848082974
 20
4814.7483824961109
 42
0.0128577674485945
 10
-3256.5194894178908
 20
4814.5484846461832
 10
-3256.5123635445038
 20
4814.5071558315867
 42
0.0285717853744726
 10
-3256.4478695428093
 20
4814.2290396802773
 10
-3256.4342010191417
 20
4814.1823849107968
 42
0.0316283099179037
 10
-3256.3183904392272
 20
4813.8633704089707
 10
-3256.3153417474718
 20
4813.8563840366451
 42
0.0338984824225733
 10
-3256.165910036505
 20
4813.5688180724555
 10
-3256.1636013071343
 20
4813.5650270431779
 42
0.0350228718371742
 10
-3255.9812410164614
 20
4813.3079750585039
 10
-3255.9803557646828
 20
4813.306895980736
 42
0.0347476747546814
 10
-3255.7659310774461
 20
4813.0797109335199
 42
0.0331337701911562
 10
-3255.5226877517025
 20
4812.8835822714436
 10
-3255.5215876531838
 20
4812.8828095682693
 42
0.0305233319078011
 10
-3255.25304295761
 20
4812.7176813981778
 10
-3255.2498129131091
 20
4812.7159573863155
 42
0.0273744481179042
 10
-3254.9572592015329
 20
4812.5798192424245
 10
-3254.9521546663973
 20
4812.5777756579555
 42
0.0240964406187811
 10
-3254.6366775907582
 20
4812.4687919316757
 10
-3254.6300942615417
 20
4812.466867191999
 42
0.0209636179834153
 10
-3254.2926941088799
 20
4812.3833990440644
 10
-3254.2850616484402
 20
4812.3818471310651
 42
0.0181388704667819
 10
-3253.9267392564502
 20
4812.3224310378519
 10
-3253.9184584080635
 20
4812.3213648540341
 42
0.0156086547605647
 10
-3253.540271043862
 20
4812.2846286674567
 10
-3253.497075791543
 20
4812.2817901649778
 42
0.0137148329016286
 10
-3253.1694026462487
 20
4812.269269909727
 10
-3253.1234664563499
 20
4812.2687754766121
 42
0.0051057823873155
 10
-3252.8873208697305
 20
4812.2686452222024
 42
0.0052256693318697
 10
-3252.6512235859404
 20
4812.2733940466669
 10
-3252.5809968022022
 20
4812.2755410126811
 42
0.0161507179049833
 10
-3252.2052597240927
 20
4812.2991913830092
 10
-3252.1852467637282
 20
4812.3011015782959
 42
0.0101216737837184
 10
-3251.7712195422596
 20
4812.3490945086578
 10
-3251.7371662528108
 20
4812.3537422054706
 42
0.0245291776400789
 10
-3251.2603765972772
 20
4812.4428172835424
 10
-3251.1755532817319
 20
4812.4630132038938
 42
0.0143509212555431
 10
-3250.8189221777961
 20
4812.5588178376711
 42
0.0156557857034523
 10
-3250.4687061130644
 20
4812.6758290534908
 10
-3250.4612048985741
 20
4812.6785992152436
 42
0.0170137333620518
 10
-3250.1046089029019
 20
4812.8242568301121
 10
-3250.0975049804852
 20
4812.8274446656796
 42
0.0183105364405005
 10
-3249.73815531233
 20
4813.0047797074967
 10
-3249.7312085476801
 20
4813.0085301423751
 42
0.0194899958130563
 10
-3249.372727806704
 20
4813.2205091242604
 10
-3249.3657139273591
 20
4813.2250344665608
 42
0.0204869852949376
 10
-3249.0116996252609
 20
4813.4745544816506
 10
-3249.0044340166787
 20
4813.480134546995
 42
0.0212516938562311
 10
-3248.6584440855668
 20
4813.7700385438939
 10
-3248.6119273915024
 20
4813.8125058539772
 42
0.0215248918246972
 10
-3248.351901222607
 20
4814.0712701329785
 10
-3248.3068714882152
 20
4814.1201142543405
 42
0.0114578554940319
 10
-3248.1520793345494
 20
4814.295937187786
 10
-3248.1408847985599
 20
4814.3092559513352
 42
0.0061531305111373
 10
-3248.0144101525684
 20
4814.4635454846375
 42
0.0006325587118654
 10
-3247.8900316681843
 20
4814.6195488606054
 10
-3247.8669915333649
 20
4814.6485223809723
 42
0.0041897761525387
 10
-3247.6985361294219
 20
4814.8640417569959
 10
-3247.6400740095005
 20
4814.9401431040196
 42
0.0092993880038648
 10
-3247.3634620822813
 20
4815.3144218678972
 10
-3247.2810675890828
 20
4815.4303588714647
 42
0.0159321727082677
 10
-3246.9344611064353
 20
4815.9525330922279
 10
-3246.8901049710153
 20
4816.0242126565281
 42
0.0085547317034567
 10
-3246.6555932057199
 20
4816.4180876057035
 42
0.0084601156883397
 10
-3246.4346170283052
 20
4816.8197144546839
 10
-3246.4265015544479
 20
4816.8350741370086
 42
0.0081429654280773
 10
-3246.2032522840059
 20
4817.2747956495587
 10
-3246.1943921198263
 20
4817.2929744915682
 42
0.0076574581351038
 10
-3245.9679846092299
 20
4817.7761573668868
 10
-3245.9585049685356
 20
4817.7972218451241
 42
0.0070682724200001
 10
-3245.7280600607405
 20
4818.3292591498775
 10
-3245.7180697767471
 20
4818.3532483389172
 42
0.0064559514450779
 10
-3245.482736568566
 20
4818.9395606054359
 10
-3245.4723272104011
 20
4818.9664955308781
 42
0.0058311413910135
 10
-3245.2312804736434
 20
4819.6125276252469
 10
-3245.2205253962507
 20
4819.6424119664225
 42
0.005231242582772
 10
-3244.9729441181985
 20
4820.3536143802903
 10
-3244.9619002818299
 20
4820.386441092327
 42
0.0046680544795593
 10
-3244.7069718541097
 20
4821.1682674080366
 10
-3244.6649797040477
 20
4821.301250645387
 42
0.0041666856440211
 10
-3244.4616936916568
 20
4821.9642194203789
 10
-3244.4240312509933
 20
4822.0908005280326
 42
0.0015170975167657
 10
-3244.3028446725802
 20
4822.502668879526
 42
-0.000488799313676
 10
-3244.1825048996225
 20
4822.9147872910025
 10
-3244.1060276419621
 20
4823.17574467751
 42
0.0002583378926776
 10
-3243.832813072037
 20
4824.1098013802111
 10
-3243.7510402223525
 20
4824.3899006401634
 42
0.0006636169669015
 10
-3243.5571724623096
 20
4825.0572535638585
 10
-3243.5520758078983
 20
4825.0748851469607
 42
0.0010589131330012
 10
-3243.3706271070459
 20
4825.7076164897881
 10
-3243.3656450365602
 20
4825.7251293968257
 42
0.0015655524456608
 10
-3243.1973748293831
 20
4826.3237460760083
 10
-3243.1925446288997
 20
4826.3411382351915
 42
0.0021640440496301
 10
-3243.0382546569817
 20
4826.9061652529626
 10
-3243.0336204375312
 20
4826.9234299830332
 42
0.0028763871859939
 10
-3242.8941047194985
 20
4827.4553979338034
 10
-3242.889718855306
 20
4827.4725219120555
 42
0.0037310511934574
 10
-3242.7657621634944
 20
4827.9719695059821
 10
-3242.7616869432009
 20
4827.9889297772461
 42
0.0047652197762886
 10
-3242.6540630426971
 20
4828.4564075455328
 10
-3242.6503724433687
 20
4828.4731671007057
 42
0.0060276699293434
 10
-3242.5598423442202
 20
4828.9092428958265
 10
-3242.5566236539348
 20
4828.9257441101154
 42
0.0075824337740377
 10
-3242.4839343445155
 20
4829.3310112745621
 10
-3242.4812889671302
 20
4829.3471662220427
 42
0.0095130624609282
 10
-3242.4271737315039
 20
4829.7222555750841
 10
-3242.4201875076201
 20
4829.7781891332124
 42
0.0121054653250573
 10
-3242.3935961770439
 20
4830.043084961675
 10
-3242.3927296872839
 20
4830.0544884046085
 42
0.0069050827394832
 10
-3242.3776408692465
 20
4830.2974296314478
 10
-3242.376505569579
 20
4830.3209558884682
 42
0.0169063976649388
 10
-3242.3736782905976
 20
4830.5171486157933
 10
-3242.3748489421287
 20
4830.5774843771378
 42
0.0052007732909993
 10
-3242.377102390722
 20
4830.6530777672942
 42
0.0054038123331206
 10
-3242.3970659025649
 20
4830.7730960633271
 10
-3242.4021517584315
 20
4830.801754549886
 42
0.011205046050003
 10
-3242.437536120492
 20
4830.978080988235
 10
-3242.4553610825305
 20
4831.0576225749455
 42
0.0240764468015577
 10
-3242.5462584486768
 20
4831.3878596104478
 10
-3242.5648172114898
 20
4831.4444797754404
 42
0.0256812331832588
 10
-3242.708180131679
 20
4831.816203981698
 10
-3242.7135895574988
 20
4831.8283353166844
 42
0.0268360501214945
 10
-3242.8830167983506
 20
4832.1593284507089
 10
-3242.8885532059849
 20
4832.1688481210194
 42
0.0274670231745214
 10
-3243.0807541823988
 20
4832.4611354959379
 10
-3243.0861354823624
 20
4832.4684146434802
 42
0.0275035967123552
 10
-3243.2977083619235
 20
4832.7239305337835
 10
-3243.3027778628889
 20
4832.7294096214127
 42
0.026955767353495
 10
-3243.5301814063296
 20
4832.9500519073763
 10
-3243.5349244641134
 20
4832.9541818618382
 42
0.0259124802232409
 10
-3243.7744792955427
 20
4833.1418723889892
 10
-3243.7790101407272
 20
4833.1450578913218
 42
0.024516215299602
 10
-3244.0269264938197
 20
4833.3017909004302
 10
-3244.0314530401374
 20
4833.3043510976277
 42
0.0229282588831327
 10
-3244.2838725969714
 20
4833.43221929013
 10
-3244.288653090809
 20
4833.4343715898922
 42
0.0212984135694573
 10
-3244.5416910432696
 20
4833.5355705071343
 10
-3244.5469953282386
 20
4833.5374340698936
 42
0.0197555462362805
 10
-3244.7967736659621
 20
4833.6142494878586
 42
0.0183511896813336
 10
-3245.0517023914267
 20
4833.6718323948244
 10
-3245.1380675881483
 20
4833.6880351852096
 42
0.0338057877136376
 10
-3245.4235749374088
 20
4833.7218435903505
 10
-3245.5145803424707
 20
4833.7264232456128
 42
0.0091990524537274
 10
-3245.6204274510847
 20
4833.729799101533
 42
0.0028333980837165
 10
-3245.726341367209
 20
4833.73062720905
 10
-3245.727256820127
 20
4833.7306291788736
 42
-0.0023619827790556
 10
-3245.8350028352297
 20
4833.7313700199529
 10
-3245.8714080054087
 20
4833.7317923264163
 42
0.000882459846336
 10
-3246.0519639950603
 20
4833.7335681046525
 10
-3246.0958254276647
 20
4833.7339220661797
 42
0.0038132665768729
 10
-3246.3641083235884
 20
4833.7340410022462
 10
-3246.3806419783368
 20
4833.7339222361024
 42
0.0060665569350828
 10
-3246.6819224699339
 20
4833.7281019366819
 10
-3246.6961728019533
 20
4833.7276536287145
 42
0.0080356953319845
 10
-3247.0256315182442
 20
4833.7119859066506
 10
-3247.0377015333797
 20
4833.7112173237074
 42
0.0098996399104052
 10
-3247.3904646180545
 20
4833.6817320945065
 10
-3247.4005103274058
 20
4833.6806917983104
 42
0.0117740981394015
 10
-3247.771667185772
 20
4833.6333995507775
 10
-3247.7798898822366
 20
4833.63215443421
 42
0.0137435215117447
 10
-3248.1644787017226
 20
4833.5630574606485
 10
-3248.1711357408453
 20
4833.5616715644146
 42
0.0158359869388861
 10
-3248.564132834651
 20
4833.4667794759334
 10
-3248.5695460215147
 20
4833.4652895350637
 42
0.0180554124025279
 10
-3248.9658610661327
 20
4833.3406515188235
 10
-3248.9704178542106
 20
4833.3390354825588
 42
0.0203657431274273
 10
-3249.3648953720099
 20
4833.1807751410488
 10
-3249.3690389110293
 20
4833.1789135196013
 42
0.0226819684648168
 10
-3249.7564749672401
 20
4832.9832709409256
 10
-3249.7606747582513
 20
4832.9809053490098
 42
0.0248634984614869
 10
-3250.1358566994322
 20
4832.7442787030623
 10
-3250.1840516282177
 20
4832.7104216612361
 42
0.0267044190890339
 10
-3250.4583443251331
 20
4832.4949812853692
 42
0.0139303002200905
 10
-3250.7145114910618
 20
4832.2577424444662
 10
-3250.7193648767925
 20
4832.2529897815966
 42
0.0283460963433784
 10
-3250.9634374710117
 20
4831.9852591211611
 10
-3251.0031059761764
 20
4831.9364575436784
 42
0.0070695364811471
 10
-3251.0805432020361
 20
4831.838390727713
 42
0.0070695364811471
  0
LWPOLYLINE
  5
5C
100
AcDbEntity
  8
0
370
              15
390
0
  6
Continuous
 62
               7
100
AcDbPolyline
 90
      226
 70
             128
 10
-3254.6093636392825
 20
4816.1168019215293
 42
-0.0026277636603783
 10
-3254.6094415230823
 20
4816.1835738472764
 10
-3254.6092241648503
 20
4816.2367290647162
 42
-0.0088680296738841
 10
-3254.6054475485575
 20
4816.4097448471075
 10
-3254.6031011894447
 20
4816.4690248725728
 42
-0.0077381705603701
 10
-3254.5870550786785
 20
4816.7602853684175
 10
-3254.5861871675088
 20
4816.7725736020548
 42
-0.0068872530528156
 10
-3254.5595550877588
 20
4817.0877953541449
 10
-3254.5583508635746
 20
4817.1000363331423
 42
-0.006213002145897
 10
-3254.5207571467431
 20
4817.4389060244112
 10
-3254.5192532432116
 20
4817.4510798962983
 42
-0.0056726929672385
 10
-3254.4703313837081
 20
4817.8132751184203
 10
-3254.4685579380648
 20
4817.8253689186567
 42
-0.0052341884503201
 10
-3254.4079473518036
 20
4818.2105621741839
 10
-3254.4059293630285
 20
4818.222567104167
 42
-0.0049768450164199
 10
-3254.3331906815934
 20
4818.6304116716447
 10
-3254.3089416668799
 20
4818.7589596546059
 42
-0.0089029805626233
 10
-3254.1718608150863
 20
4819.420735102025
 10
-3254.139115439767
 20
4819.5657665325516
 42
-0.008031825709496
 10
-3253.9095668254299
 20
4820.5114761643927
 10
-3253.8975818989784
 20
4820.5576067995953
 42
-0.0074265721314347
 10
-3253.6135703601262
 20
4821.5876713779835
 10
-3253.5936908170165
 20
4821.6558054385487
 42
-0.0069711922703898
 10
-3253.2663862385048
 20
4822.722073178893
 10
-3253.2064342913845
 20
4822.9080945373089
 42
-0.005207042289569
 10
-3252.97700906614
 20
4823.595366614295
 10
-3252.9597278740298
 20
4823.6453938947334
 42
-0.0009167004450664
 10
-3252.7566359866782
 20
4824.2298497430656
 42
-0.0025162726949639
 10
-3252.5495383564307
 20
4824.8128910071855
 10
-3252.5123137446139
 20
4824.9160405531238
 42
-0.002821268145409
 10
-3252.2641378256471
 20
4825.5917711853053
 10
-3252.2543070628926
 20
4825.6180786299929
 42
-0.0031964916819114
 10
-3252.0180148052341
 20
4826.2382833921092
 10
-3252.0083803512553
 20
4826.2630933822011
 42
-0.0036281836456402
 10
-3251.783274390134
 20
4826.8305340631459
 10
-3251.7738359799569
 20
4826.8538314946973
 42
-0.0041269166822021
 10
-3251.5592182833175
 20
4827.3712723906265
 10
-3251.5265853269061
 20
4827.4481508369654
 42
-0.0047472213064575
 10
-3251.369540521343
 20
4827.8085723048716
 10
-3251.3626464400959
 20
4827.8239929022902
 42
-0.002565165996894
 10
-3251.2142884062846
 20
4828.1513209579516
 42
-0.0057144635004314
 10
-3251.0605387125379
 20
4828.476130631263
 10
-3251.0325080071461
 20
4828.5336390136381
 42
-0.0065388068380621
 10
-3250.8490409793721
 20
4828.8978715103731
 10
-3250.8405825235777
 20
4828.914131089773
 42
-0.0074510843026063
 10
-3250.6644002777157
 20
4829.2408193708652
 10
-3250.6562206071867
 20
4829.2554601481306
 42
-0.0084648979854238
 10
-3250.4865867540848
 20
4829.547369159096
 10
-3250.4787306275798
 20
4829.5603761507755
 42
-0.0095638542792283
 10
-3250.3148951800022
 20
4829.8202650227249
 10
-3250.3074202363309
 20
4829.8316343841798
 42
-0.0107191626796015
 10
-3250.1486186559432
 20
4830.0622456187248
 10
-3250.1416019222029
 20
4830.0719817111021
 42
-0.0118458573886515
 10
-3249.9870538236996
 20
4830.2760539064002
 42
-0.0129184518172
 10
-3249.8226012000791
 20
4830.4722144225916
 10
-3249.7924564277337
 20
4830.5063405014707
 42
-0.0217742579622667
 10
-3249.6158441053994
 20
4830.6895472717197
 10
-3249.6050985609477
 20
4830.6997641049147
 42
-0.0097266568653053
 10
-3249.4390409420835
 20
4830.8516116793598
 42
-0.018772090574373
 10
-3249.2646933661904
 20
4830.9936805327516
 10
-3249.2339873755041
 20
4831.0168396151576
 42
-0.0179428207518699
 10
-3249.0015666555237
 20
4831.1793917922569
 10
-3248.9979143286055
 20
4831.1817557271461
 42
-0.0170047877701136
 10
-3248.7621506910773
 20
4831.3232162412969
 10
-3248.7583677023244
 20
4831.3253145463368
 42
-0.0160190788338149
 10
-3248.5214591546955
 20
4831.4469658483213
 42
-0.015110286149989
 10
-3248.2774273722548
 20
4831.5536486243727
 10
-3248.2250408700374
 20
4831.5746887572695
 42
-0.0271945441899635
 10
-3247.8663783109882
 20
4831.6965535679728
 10
-3247.7973135104849
 20
4831.7159031092442
 42
-0.0237596594022445
 10
-3247.3815166634686
 20
4831.8113538212237
 10
-3247.3134538097538
 20
4831.8236085093477
 42
-0.0213715440579984
 10
-3247.0275788782928
 20
4831.8625555408607
 10
-3246.9674317120976
 20
4831.8681452555593
 42
-0.0101465655823705
 10
-3246.7999391800804
 20
4831.8802887988259
 10
-3246.790598793898
 20
4831.880775713822
 42
-0.0100375910865802
 10
-3246.6414446933195
 20
4831.8855515317482
 10
-3246.6311854236587
 20
4831.8856739707626
 42
-0.0103625633372659
 10
-3246.5024774289841
 20
4831.8845425372356
 10
-3246.4802117777131
 20
4831.8838851787705
 42
-0.0115689250192724
 10
-3246.3961610401893
 20
4831.8794556725261
 42
-0.0072438037365775
 10
-3246.3123227607452
 20
4831.8718664727767
 10
-3246.2955222512774
 20
4831.8700999300527
 42
-0.021791731311685
 10
-3246.1789524879632
 20
4831.8526800373311
 10
-3246.1133523973967
 20
4831.839933428917
 42
-0.0332943556761744
 10
-3245.9089602323693
 20
4831.7858931376095
 10
-3245.8787876638253
 20
4831.7757250604927
 42
-0.0184824084793216
 10
-3245.7402826073539
 20
4831.7232740451045
 42
-0.0198002050741795
 10
-3245.6062082668545
 20
4831.6603899849051
 10
-3245.6043216294775
 20
4831.6594121980252
 42
-0.021224234300209
 10
-3245.4721826870782
 20
4831.583649459234
 10
-3245.4703673915319
 20
4831.5825036570241
 42
-0.0226090605802032
 10
-3245.3418634903105
 20
4831.493024013459
 10
-3245.3400190485727
 20
4831.4916117604716
 42
-0.0238457052273445
 10
-3245.2168369672795
 20
4831.3876158646099
 10
-3245.2148842387205
 20
4831.3858009868436
 42
-0.0248160564168148
 10
-3245.09868273142
 20
4831.2665263856343
 10
-3245.0965790980181
 20
4831.26414105193
 42
-0.0254109591451965
 10
-3244.9889738801498
 20
4831.1288526659628
 10
-3244.9867258582381
 20
4831.1257111175655
 42
-0.0255528488259782
 10
-3244.8892791794406
 20
4830.9736840633304
 10
-3244.8869480795247
 20
4830.9696024517234
 42
-0.0252146793188486
 10
-3244.8011670535138
 20
4830.8001002057226
 10
-3244.7988648143582
 20
4830.7949181238137
 42
-0.0244265635980435
 10
-3244.7262101205956
 20
4830.6071715517637
 10
-3244.7169637191305
 20
4830.5793061334361
 42
-0.0231319612924561
 10
-3244.6710409401362
 20
4830.4160050866276
 42
-0.0112130424396416
 10
-3244.6364049175968
 20
4830.2498014864323
 10
-3244.6352023924856
 20
4830.2433048995517
 42
-0.0210527881282997
 10
-3244.6095159171155
 20
4830.062249254117
 10
-3244.6060053222927
 20
4830.0268437055629
 42
-0.0190029892415086
 10
-3244.5905638487475
 20
4829.7733078592728
 10
-3244.5897538723038
 20
4829.7378322449222
 42
-0.0137974553662348
 10
-3244.591302725139
 20
4829.4128008381958
 10
-3244.5921481800947
 20
4829.3866820935973
 42
-0.0081336634220354
 10
-3244.6070075153175
 20
4829.0813346259965
 42
-0.007352692359739
 10
-3244.631316048692
 20
4828.7765863817131
 10
-3244.6325774724751
 20
4828.7632497070445
 42
-0.0066886138705245
 10
-3244.6683130585193
 20
4828.4326636635678
 10
-3244.6699701479915
 20
4828.4190420445557
 42
-0.0061359187342238
 10
-3244.7178207500397
 20
4828.0622780644717
 10
-3244.7198582511151
 20
4828.0483832616264
 42
-0.0056698610050879
 10
-3244.7805085818886
 20
4827.6651046927518
 10
-3244.7829140152053
 20
4827.6509455735577
 42
-0.0052721077279116
 10
-3244.8570462160005
 20
4827.2408182339059
 10
-3244.859809364847
 20
4827.2264015984947
 42
-0.0049289272183387
 10
-3244.94810348294
 20
4826.7890930874055
 10
-3244.9512159776295
 20
4826.7744242345561
 42
-0.0047415956698312
 10
-3245.0544539691596
 20
4826.3096274771533
 10
-3245.0892221795211
 20
4826.159820381763
 42
-0.0084404470903297
 10
-3245.2792386230972
 20
4825.399596357217
 10
-3245.2853653110787
 20
4825.3767322330787
 42
-0.0039635940256784
 10
-3245.5068189953599
 20
4824.5757433688414
 10
-3245.5201957905424
 20
4824.5288117522396
 42
-0.0072475040835461
 10
-3245.7876426784096
 20
4823.6395920358354
 10
-3245.8578550052262
 20
4823.4178516858974
 42
-0.0051345458834425
 10
-3246.1446143772919
 20
4822.5435264980651
 10
-3246.1661406440626
 20
4822.480100230925
 42
-0.0019150016595329
 10
-3246.421674050926
 20
4821.7365511107091
 10
-3246.4281416553708
 20
4821.7179636456485
 42
-0.0021524362752365
 10
-3246.6766197063862
 20
4821.0136378240804
 10
-3246.68583012709
 20
4820.9878842457583
 42
-0.0024331286814025
 10
-3246.9220853861184
 20
4820.337284937661
 10
-3246.9311333387
 20
4820.3127416312218
 42
-0.0027449721783849
 10
-3247.1557479095045
 20
4819.7136117523814
 10
-3247.1646379169197
 20
4819.6902891624695
 42
-0.0031083229771749
 10
-3247.3781804035066
 20
4819.1403651249493
 10
-3247.3869165351994
 20
4819.1182754090487
 42
-0.0035311343268766
 10
-3247.5899577207738
 20
4818.6152922833617
 10
-3247.5985430599035
 20
4818.5944495598951
 42
-0.004024564094755
 10
-3247.7916548637158
 20
4818.1361402372586
 10
-3247.8000909773441
 20
4818.1165608691281
 42
-0.0046015135840679
 10
-3247.9838472704828
 20
4817.7006558395442
 10
-3247.9921334483347
 20
4817.6823587000399
 42
-0.0052768638270867
 10
-3248.167110967267
 20
4817.3065858158225
 10
-3248.175243177895
 20
4817.2895924772765
 42
-0.0060672675644193
 10
-3248.3420227906599
 20
4816.9516768541644
 10
-3248.3499922711708
 20
4816.9360115951094
 42
-0.006990464887063
 10
-3248.5091606651426
 20
4816.6336757885038
 10
-3248.5169520647173
 20
4816.6193652393431
 42
-0.0080637022787598
 10
-3248.6691039250991
 20
4816.3503299361237
 10
-3248.676692957742
 20
4816.3374020705032
 42
-0.0093006455648086
 10
-3248.8224336342619
 20
4816.0993876720195
 10
-3248.8297843010037
 20
4816.0878697028493
 42
-0.0107060778079541
 10
-3248.9697328444445
 20
4815.8785993854672
 10
-3248.976794612724
 20
4815.8685138429018
 42
-0.0122723111428868
 10
-3249.1115883309221
 20
4815.6857205134129
 10
-3249.111914554494
 20
4815.6853001255804
 42
-0.014183631964216
 10
-3249.2554961574497
 20
4815.5107303677732
 10
-3249.2624439130882
 20
4815.5027553675236
 42
-0.0175957477229596
 10
-3249.4023500811363
 20
4815.3531344791045
 42
-0.0080466359670306
 10
-3249.5498138461703
 20
4815.2108119509494
 10
-3249.5958483906843
 20
4815.1677915128621
 42
-0.0269600260419043
 10
-3249.8491286366643
 20
4814.9554682543549
 10
-3249.9156957729656
 20
4814.9055168397281
 42
-0.0178362839748037
 10
-3250.1556402626202
 20
4814.7384989134753
 10
-3250.1628852336371
 20
4814.7338304012601
 42
-0.0174650732640188
 10
-3250.399221431062
 20
4814.5929694363113
 42
-0.0169240130158792
 10
-3250.644687676901
 20
4814.4686771765428
 10
-3250.6906738324774
 20
4814.4473152209666
 42
-0.0318883036839449
 10
-3251.0410246880924
 20
4814.3109769114581
 10
-3251.1093902232651
 20
4814.2892762909805
 42
-0.0284435909895892
 10
-3251.4854403495528
 20
4814.1930588555069
 10
-3251.5205985100374
 20
4814.1861652596808
 42
-0.0243909341022775
 10
-3251.8340419709707
 20
4814.1404442286484
 10
-3251.8843226977524
 20
4814.1355986817462
 42
-0.0196639292934379
 10
-3252.0999182752694
 20
4814.1233503962339
 10
-3252.1517423464302
 20
4814.1224471354972
 42
-0.0100501510673592
 10
-3252.2641656280966
 20
4814.1227475338492
 10
-3252.2958254895357
 20
4814.1234686057369
 42
-0.0019752031029222
 10
-3252.3449178261226
 20
4814.1247807659438
 10
-3252.3476781293339
 20
4814.1248654577703
 42
0.0065378751981542
 10
-3252.3912547040991
 20
4814.1256323489852
 42
-0.0167974694473763
 10
-3252.4347855270548
 20
4814.1272922475137
 10
-3252.438864866293
 20
4814.1275852584067
 42
-0.0081283276280736
 10
-3252.4904246640012
 20
4814.1321322520407
 10
-3252.5021642379102
 20
4814.1333601696224
 42
-0.0126703440171959
 10
-3252.5768825337045
 20
4814.1430949606947
 10
-3252.5996704013805
 20
4814.1466532166096
 42
-0.0117852088448458
 10
-3252.7192093871872
 20
4814.1682162117613
 10
-3252.7745898389758
 20
4814.1795597520013
 42
-0.0251774592299561
 10
-3253.0014338779874
 20
4814.2380577614358
 10
-3253.0461530678413
 20
4814.2520245807718
 42
-0.0146525199861176
 10
-3253.2325460553729
 20
4814.316291107968
 42
-0.0166929435881534
 10
-3253.4145237114867
 20
4814.3920982410164
 10
-3253.419180342773
 20
4814.3942231416368
 42
-0.0191684358438928
 10
-3253.6043639740278
 20
4814.48745922543
 10
-3253.6076965597795
 20
4814.4893004729802
 42
-0.0221181781792273
 10
-3253.7910068636793
 20
4814.6014339713483
 10
-3253.7933566676902
 20
4814.6030182693412
 42
-0.0254984685378318
 10
-3253.9696468180728
 20
4814.7354294193092
 10
-3253.9921289657768
 20
4814.7541817282472
 42
-0.0292492648838213
 10
-3254.1168979046201
 20
4814.8712745278899
 42
-0.0159048957509137
 10
-3254.2307379020676
 20
4814.9992945194872
 10
-3254.2320566926492
 20
4815.0008761325098
 42
-0.0343813379608627
 10
-3254.3346939542744
 20
4815.142747458277
 10
-3254.3661854856373
 20
4815.1932508503751
 42
-0.0369117275709775
 10
-3254.4520779875338
 20
4815.3567280913212
 42
-0.0191751379888566
 10
-3254.5192713730912
 20
4815.5291326973274
 10
-3254.5210346968506
 20
4815.534226042002
 42
-0.0378178042212591
 10
-3254.5708294156343
 20
4815.7231668180821
 10
-3254.5768247113642
 20
4815.755727436278
 42
-0.0184846046457542
 10
-3254.5975419106594
 20
4815.8974802568264
 42
-0.0179866351325229
 10
-3254.6078749157332
 20
4816.0403710699193
 10
-3254.6079313581786
 20
4816.0419287565192
 42
-0.0085497186141093
 10
-3254.6093636392825
 20
4816.1168019215293
 42
-0.0085497186141093
  0
ENDBLK
  5
5D
100
AcDbEntity
  8
template
390
0
100
AcDbBlockEnd
  0
BLOCK
  5
5E
100
AcDbEntity
  8
notes
390
0
100
AcDbBlockBegin
  2
*D4
 70
               1
 10
0.0
 20
0.0
 30
0.0
  3
*D4
  1

  0
LINE
  5
5F
100
AcDbEntity
  8
0
370
              -2
390
0
  6
Continuous
 62
               0
100
AcDbLine
 10
-820.94789612707063
 20
733.77536799841164
 30
0.0
 11
-820.94789612707063
 21
908.77536799841164
 31
0.0
  0
LINE
  5
60
100
AcDbEntity
  8
0
370
              -2
390
0
  6
Continuous
 62
               0
100
AcDbLine
 10
-70.947896127071544
 20
733.77536799841164
 30
0.0
 11
-70.947896127071544
 21
908.77536799841164
 31
0.0
  0
LINE
  5
61
100
AcDbEntity
  8
0
370
              -2
390
0
  6
Continuous
 62
               0
100
AcDbLine
 10
-820.94789612707063
 20
908.77536799841164
 30
0.0
 11
-70.947896127071544
 21
908.77536799841164
 31
0.0
  0
CIRCLE
  5
62
102
{ACAD_REACTORS
330
63
102
}
100
AcDbEntity
  8
0
370
              -2
390
0
  6
Continuous
 62
               0
100
AcDbCircle
 10
-820.94789612707063
 20
908.77536799841164
 30
0.0
 40
4.99969482421875
  0
HATCH
  5
63
100
AcDbEntity
  8
0
370
              -2
390
0
  6
Continuous
 62
               0
100
AcDbHatch
 10
0.0
 20
0.0
 30
0.0
210
0.0
220
0.0
230
1.0
  2
SOLID
 70
               1
 71
               1
 91
        1
 92
        1
 93
        1
 72
               2
 10
-820.94789612707063
 20
908.77536799841164
 40
4.99969482421875
 50
0.0
 51
360.0
 73
               0
 97
        1
330
62
 75
               0
 76
               1
 98
        1
 10
0.0
 20
0.0
  0
CIRCLE
  5
64
102
{ACAD_REACTORS
330
65
102
}
100
AcDbEntity
  8
0
370
              -2
390
0
  6
Continuous
 62
               0
100
AcDbCircle
 10
-70.947896127071544
 20
908.77536799841164
 30
0.0
 40
4.99969482421875
  0
HATCH
  5
65
100
AcDbEntity
  8
0
370
              -2
390
0
  6
Continuous
 62
               0
100
AcDbHatch
 10
0.0
 20
0.0
 30
0.0
210
0.0
220
0.0
230
1.0
  2
SOLID
 70
               1
 71
               1
 91
        1
 92
        1
 93
        1
 72
               2
 10
-70.947896127071544
 20
908.77536799841164
 40
4.99969482421875
 50
0.0
 51
360.0
 73
               0
 97
        1
330
64
 75
               0
 76
               1
 98
        1
 10
0.0
 20
0.0
  0
MTEXT
  5
66
100
AcDbEntity
  8
0
390
0
 62
               0
100
AcDbMText
 10
-469.76039780924657
 20
942.65298518591135
 30
0.0
 40
24.432617187500004
 41
0.0
 71
               1
 72
               1
  1
750
  7
ＭＳ ゴシック
 73
               1
 44
0.7828267384257843
  0
POINT
  5
67
100
AcDbEntity
  8
Defpoints
370
               0
390
0
 62
               0
100
AcDbPoint
 10
-70.947896127071544
 20
708.77536799841164
 30
0.0
  0
POINT
  5
68
100
AcDbEntity
  8
Defpoints
370
               0
390
0
 62
               0
100
AcDbPoint
 10
-820.94789612707063
 20
708.77536799841164
 30
0.0
  0
POINT
  5
69
100
AcDbEntity
  8
Defpoints
370
               0
390
0
 62
               0
100
AcDbPoint
 10
-820.94789612707063
 20
908.77536799841164
 30
0.0
  0
ENDBLK
  5
6A
100
AcDbEntity
  8
notes
390
0
100
AcDbBlockEnd
  0
BLOCK
  5
6B
100
AcDbEntity
  8
notes
390
0
100
AcDbBlockBegin
  2
*D5
 70
               1
 10
0.0
 20
0.0
 30
0.0
  3
*D5
  1

  0
LINE
  5
6C
100
AcDbEntity
  8
0
370
              -2
390
0
  6
Continuous
 62
               0
100
AcDbLine
 10
-95.947896127071544
 20
758.77536799841164
 30
0.0
 11
9.0521038729284555
 21
758.77536799841164
 31
0.0
  0
LINE
  5
6D
100
AcDbEntity
  8
0
370
              -2
390
0
  6
Continuous
 62
               0
100
AcDbLine
 10
-95.947896127071544
 20
338.77536799841164
 30
0.0
 11
9.0521038729284555
 21
338.77536799841164
 31
0.0
  0
LINE
  5
6E
100
AcDbEntity
  8
0
370
              -2
390
0
  6
Continuous
 62
               0
100
AcDbLine
 10
9.0521038729284555
 20
758.77536799841164
 30
0.0
 11
9.0521038729284555
 21
338.77536799841164
 31
0.0
  0
CIRCLE
  5
6F
102
{ACAD_REACTORS
330
70
102
}
100
AcDbEntity
  8
0
370
              -2
390
0
  6
Continuous
 62
               0
100
AcDbCircle
 10
9.0521038729284555
 20
758.77536799841164
 30
0.0
 40
4.99969482421875
  0
HATCH
  5
70
100
AcDbEntity
  8
0
370
              -2
390
0
  6
Continuous
 62
               0
100
AcDbHatch
 10
0.0
 20
0.0
 30
0.0
210
0.0
220
0.0
230
1.0
  2
SOLID
 70
               1
 71
               1
 91
        1
 92
        1
 93
        1
 72
               2
 10
9.0521038729284555
 20
758.77536799841164
 40
4.99969482421875
 50
0.0
 51
360.0
 73
               0
 97
        1
330
6F
 75
               0
 76
               1
 98
        1
 10
0.0
 20
0.0
  0
CIRCLE
  5
71
102
{ACAD_REACTORS
330
72
102
}
100
AcDbEntity
  8
0
370
              -2
390
0
  6
Continuous
 62
               0
100
AcDbCircle
 10
9.0521038729284555
 20
338.77536799841164
 30
0.0
 40
4.99969482421875
  0
HATCH
  5
72
100
AcDbEntity
  8
0
370
              -2
390
0
  6
Continuous
 62
               0
100
AcDbHatch
 10
0.0
 20
0.0
 30
0.0
210
0.0
220
0.0
230
1.0
  2
SOLID
 70
               1
 71
               1
 91
        1
 92
        1
 93
        1
 72
               2
 10
9.0521038729284555
 20
338.77536799841164
 40
4.99969482421875
 50
0.0
 51
360.0
 73
               0
 97
        1
330
71
 75
               0
 76
               1
 98
        1
 10
0.0
 20
0.0
  0
MTEXT
  5
73
100
AcDbEntity
  8
0
390
0
 62
               0
100
AcDbMText
 10
-24.825513314571253
 20
524.9628663162357
 30
0.0
 40
24.432617187500004
 41
0.0
 71
               1
 72
               1
  1
420
  7
ＭＳ ゴシック
 11
0.0
 21
1.0
 31
0.0
 73
               1
 44
0.7828267384257843
  0
POINT
  5
74
100
AcDbEntity
  8
Defpoints
370
               0
390
0
 62
               0
100
AcDbPoint
 10
-120.94789612707154
 20
338.77536799841164
 30
0.0
  0
POINT
  5
75
100
AcDbEntity
  8
Defpoints
370
               0
390
0
 62
               0
100
AcDbPoint
 10
-120.94789612707154
 20
758.77536799841164
 30
0.0
  0
POINT
  5
76
100
AcDbEntity
  8
Defpoints
370
               0
390
0
 62
               0
100
AcDbPoint
 10
9.0521038729284555
 20
758.77536799841164
 30
0.0
  0
ENDBLK
  5
77
100
AcDbEntity
  8
notes
390
0
100
AcDbBlockEnd
  0
BLOCK
  5
78
100
AcDbEntity
  8
notes
390
0
100
AcDbBlockBegin
  2
*D6
 70
               1
 10
0.0
 20
0.0
 30
0.0
  3
*D6
  1

  0
LINE
  5
79
100
AcDbEntity
  8
0
370
              -2
390
0
  6
Continuous
 62
               0
100
AcDbLine
 10
-780.94608441702076
 20
314.78520336387828
 30
0.0
 11
-780.94608441702076
 21
238.77536799841255
 31
0.0
  0
LINE
  5
7A
100
AcDbEntity
  8
0
370
              -2
390
0
  6
Continuous
 62
               0
100
AcDbLine
 10
-110.94475408913786
 20
314.78621461351577
 30
0.0
 11
-110.94475408913786
 21
238.77536799841255
 31
0.0
  0
LINE
  5
7B
100
AcDbEntity
  8
0
370
              -2
390
0
  6
Continuous
 62
               0
100
AcDbLine
 10
-780.94608441702076
 20
238.77536799841255
 30
0.0
 11
-110.94475408913786
 21
238.77536799841255
 31
0.0
  0
CIRCLE
  5
7C
102
{ACAD_REACTORS
330
7D
102
}
100
AcDbEntity
  8
0
370
              -2
390
0
  6
Continuous
 62
               0
100
AcDbCircle
 10
-780.94608441702076
 20
238.77536799841255
 30
0.0
 40
4.99969482421875
  0
HATCH
  5
7D
100
AcDbEntity
  8
0
370
              -2
390
0
  6
Continuous
 62
               0
100
AcDbHatch
 10
0.0
 20
0.0
 30
0.0
210
0.0
220
0.0
230
1.0
  2
SOLID
 70
               1
 71
               1
 91
        1
 92
        1
 93
        1
 72
               2
 10
-780.94608441702076
 20
238.77536799841255
 40
4.99969482421875
 50
0.0
 51
360.0
 73
               0
 97
        1
330
7C
 75
               0
 76
               1
 98
        1
 10
0.0
 20
0.0
  0
CIRCLE
  5
7E
102
{ACAD_REACTORS
330
7F
102
}
100
AcDbEntity
  8
0
370
              -2
390
0
  6
Continuous
 62
               0
100
AcDbCircle
 10
-110.94475408913786
 20
238.77536799841255
 30
0.0
 40
4.99969482421875
  0
HATCH
  5
7F
100
AcDbEntity
  8
0
370
              -2
390
0
  6
Continuous
 62
               0
100
AcDbHatch
 10
0.0
 20
0.0
 30
0.0
210
0.0
220
0.0
230
1.0
  2
SOLID
 70
               1
 71
               1
 91
        1
 92
        1
 93
        1
 72
               2
 10
-110.94475408913786
 20
238.77536799841255
 40
4.99969482421875
 50
0.0
 51
360.0
 73
               0
 97
        1
330
7E
 75
               0
 76
               1
 98
        1
 10
0.0
 20
0.0
  0
MTEXT
  5
80
100
AcDbEntity
  8
0
390
0
 62
               0
100
AcDbMText
 10
-469.75792093525524
 20
272.65298518591226
 30
0.0
 40
24.432617187500004
 41
0.0
 71
               1
 72
               1
  1
670
  7
ＭＳ ゴシック
 73
               1
 44
0.7828267384257843
  0
POINT
  5
81
100
AcDbEntity
  8
Defpoints
370
               0
390
0
 62
               0
100
AcDbPoint
 10
-110.94475408913786
 20
339.78621461351577
 30
0.0
  0
POINT
  5
82
100
AcDbEntity
  8
Defpoints
370
               0
390
0
 62
               0
100
AcDbPoint
 10
-780.94608441702076
 20
339.78520336387828
 30
0.0
  0
POINT
  5
83
100
AcDbEntity
  8
Defpoints
370
               0
390
0
 62
               0
100
AcDbPoint
 10
-780.94608441702076
 20
238.77536799841255
 30
0.0
  0
ENDBLK
  5
84
100
AcDbEntity
  8
notes
390
0
100
AcDbBlockEnd
  0
BLOCK
  5
85
100
AcDbEntity
  8
notes
390
0
100
AcDbBlockBegin
  2
*D7
 70
               1
 10
0.0
 20
0.0
 30
0.0
  3
*D7
  1

  0
LINE
  5
86
100
AcDbEntity
  8
0
370
              -2
390
0
  6
Continuous
 62
               0
100
AcDbLine
 10
-795.94789612707063
 20
758.77536799841164
 30
0.0
 11
-900.94789612707063
 21
758.77536799841164
 31
0.0
  0
LINE
  5
87
100
AcDbEntity
  8
0
370
              -2
390
0
  6
Continuous
 62
               0
100
AcDbLine
 10
-842.13577972488292
 20
678.77560691292547
 30
0.0
 11
-900.94789612707063
 21
678.77560691292547
 31
0.0
  0
LINE
  5
88
100
AcDbEntity
  8
0
370
              -2
390
0
  6
Continuous
 62
               0
100
AcDbLine
 10
-900.94789612707063
 20
758.77536799841164
 30
0.0
 11
-900.94789612707063
 21
678.77560691292547
 31
0.0
  0
CIRCLE
  5
89
102
{ACAD_REACTORS
330
8A
102
}
100
AcDbEntity
  8
0
370
              -2
390
0
  6
Continuous
 62
               0
100
AcDbCircle
 10
-900.94789612707063
 20
758.77536799841164
 30
0.0
 40
4.99969482421875
  0
HATCH
  5
8A
100
AcDbEntity
  8
0
370
              -2
390
0
  6
Continuous
 62
               0
100
AcDbHatch
 10
0.0
 20
0.0
 30
0.0
210
0.0
220
0.0
230
1.0
  2
SOLID
 70
               1
 71
               1
 91
        1
 92
        1
 93
        1
 72
               2
 10
-900.94789612707063
 20
758.77536799841164
 40
4.99969482421875
 50
0.0
 51
360.0
 73
               0
 97
        1
330
89
 75
               0
 76
               1
 98
        1
 10
0.0
 20
0.0
  0
CIRCLE
  5
8B
102
{ACAD_REACTORS
330
8C
102
}
100
AcDbEntity
  8
0
370
              -2
390
0
  6
Continuous
 62
               0
100
AcDbCircle
 10
-900.94789612707063
 20
678.77560691292547
 30
0.0
 40
4.99969482421875
  0
HATCH
  5
8C
100
AcDbEntity
  8
0
370
              -2
390
0
  6
Continuous
 62
               0
100
AcDbHatch
 10
0.0
 20
0.0
 30
0.0
210
0.0
220
0.0
230
1.0
  2
SOLID
 70
               1
 71
               1
 91
        1
 92
        1
 93
        1
 72
               2
 10
-900.94789612707063
 20
678.77560691292547
 40
4.99969482421875
 50
0.0
 51
360.0
 73
               0
 97
        1
330
8B
 75
               0
 76
               1
 98
        1
 10
0.0
 20
0.0
  0
MTEXT
  5
8D
100
AcDbEntity
  8
0
390
0
 62
               0
100
AcDbMText
 10
-934.82551331457034
 20
699.12499999999909
 30
0.0
 40
24.432617187500004
 41
0.0
 71
               1
 72
               1
  1
80
  7
ＭＳ ゴシック
 11
0.0
 21
1.0
 31
0.0
 73
               1
 44
0.7828267384257843
  0
POINT
  5
8E
100
AcDbEntity
  8
Defpoints
370
               0
390
0
 62
               0
100
AcDbPoint
 10
-817.13577972488292
 20
678.77560691292547
 30
0.0
  0
POINT
  5
8F
100
AcDbEntity
  8
Defpoints
370
               0
390
0
 62
               0
100
AcDbPoint
 10
-770.94789612707063
 20
758.77536799841164
 30
0.0
  0
POINT
  5
90
100
AcDbEntity
  8
Defpoints
370
               0
390
0
 62
               0
100
AcDbPoint
 10
-900.94789612707063
 20
758.77536799841164
 30
0.0
  0
ENDBLK
  5
91
100
AcDbEntity
  8
notes
390
0
100
AcDbBlockEnd
  0
BLOCK
  5
92
100
AcDbEntity
  8
notes
390
0
100
AcDbBlockBegin
  2
*D8
 70
               1
 10
0.0
 20
0.0
 30
0.0
  3
*D8
  1

  0
LINE
  5
93
100
AcDbEntity
  8
0
370
              -2
390
0
  6
Continuous
 62
               0
100
AcDbLine
 10
-845.94789612707063
 20
678.77560691292547
 30
0.0
 11
-900.94789612707063
 21
678.77560691292547
 31
0.0
  0
LINE
  5
94
100
AcDbEntity
  8
0
370
              -2
390
0
  6
Continuous
 62
               0
100
AcDbLine
 10
-844.93769098273424
 20
378.77536799841346
 30
0.0
 11
-900.94789612707063
 21
378.77536799841346
 31
0.0
  0
LINE
  5
95
100
AcDbEntity
  8
0
370
              -2
390
0
  6
Continuous
 62
               0
100
AcDbLine
 10
-900.94789612707063
 20
678.77560691292547
 30
0.0
 11
-900.94789612707063
 21
378.77536799841346
 31
0.0
  0
CIRCLE
  5
96
102
{ACAD_REACTORS
330
97
102
}
100
AcDbEntity
  8
0
370
              -2
390
0
  6
Continuous
 62
               0
100
AcDbCircle
 10
-900.94789612707063
 20
678.77560691292547
 30
0.0
 40
4.99969482421875
  0
HATCH
  5
97
100
AcDbEntity
  8
0
370
              -2
390
0
  6
Continuous
 62
               0
100
AcDbHatch
 10
0.0
 20
0.0
 30
0.0
210
0.0
220
0.0
230
1.0
  2
SOLID
 70
               1
 71
               1
 91
        1
 92
        1
 93
        1
 72
               2
 10
-900.94789612707063
 20
678.77560691292547
 40
4.99969482421875
 50
0.0
 51
360.0
 73
               0
 97
        1
330
96
 75
               0
 76
               1
 98
        1
 10
0.0
 20
0.0
  0
CIRCLE
  5
98
102
{ACAD_REACTORS
330
99
102
}
100
AcDbEntity
  8
0
370
              -2
390
0
  6
Continuous
 62
               0
100
AcDbCircle
 10
-900.94789612707063
 20
378.77536799841346
 30
0.0
 40
4.99969482421875
  0
HATCH
  5
99
100
AcDbEntity
  8
0
370
              -2
390
0
  6
Continuous
 62
               0
100
AcDbHatch
 10
0.0
 20
0.0
 30
0.0
210
0.0
220
0.0
230
1.0
  2
SOLID
 70
               1
 71
               1
 91
        1
 92
        1
 93
        1
 72
               2
 10
-900.94789612707063
 20
378.77536799841346
 40
4.99969482421875
 50
0.0
 51
360.0
 73
               0
 97
        1
330
98
 75
               0
 76
               1
 98
        1
 10
0.0
 20
0.0
  0
MTEXT
  5
9A
100
AcDbEntity
  8
0
390
0
 62
               0
100
AcDbMText
 10
-934.82551331457034
 20
504.96298577349353
 30
0.0
 40
24.432617187500004
 41
0.0
 71
               1
 72
               1
  1
300
  7
ＭＳ ゴシック
 11
0.0
 21
1.0
 31
0.0
 73
               1
 44
0.7828267384257843
  0
POINT
  5
9B
100
AcDbEntity
  8
Defpoints
370
               0
390
0
 62
               0
100
AcDbPoint
 10
-819.93769098273424
 20
378.77536799841346
 30
0.0
  0
POINT
  5
9C
100
AcDbEntity
  8
Defpoints
370
               0
390
0
 62
               0
100
AcDbPoint
 10
-820.94789612707063
 20
678.77560691292547
 30
0.0
  0
POINT
  5
9D
100
AcDbEntity
  8
Defpoints
370
               0
390
0
 62
               0
100
AcDbPoint
 10
-900.94789612707063
 20
678.77560691292547
 30
0.0
  0
ENDBLK
  5
9E
100
AcDbEntity
  8
notes
390
0
100
AcDbBlockEnd
  0
BLOCK
  5
9F
100
AcDbEntity
  8
notes
390
0
100
AcDbBlockBegin
  2
*D9
 70
               1
 10
0.0
 20
0.0
 30
0.0
  3
*D9
  1

  0
LINE
  5
A0
100
AcDbEntity
  8
0
370
              -2
390
0
  6
Continuous
 62
               0
100
AcDbLine
 10
731.00286073313009
 20
-578.22242484590788
 30
0.0
 11
731.00286073313009
 21
-658.22242484590606
 31
0.0
  0
LINE
  5
A1
100
AcDbEntity
  8
0
370
              -2
390
0
  6
Continuous
 62
               0
100
AcDbLine
 10
501.00286073312964
 20
-578.22283597622209
 30
0.0
 11
501.00286073312964
 21
-658.22242484590606
 31
0.0
  0
LINE
  5
A2
100
AcDbEntity
  8
0
370
              -2
390
0
  6
Continuous
 62
               0
100
AcDbLine
 10
731.00286073313009
 20
-658.22242484590606
 30
0.0
 11
501.00286073312964
 21
-658.22242484590606
 31
0.0
  0
CIRCLE
  5
A3
102
{ACAD_REACTORS
330
A4
102
}
100
AcDbEntity
  8
0
370
              -2
390
0
  6
Continuous
 62
               0
100
AcDbCircle
 10
731.00286073313009
 20
-658.22242484590606
 30
0.0
 40
4.99969482421875
  0
HATCH
  5
A4
100
AcDbEntity
  8
0
370
              -2
390
0
  6
Continuous
 62
               0
100
AcDbHatch
 10
0.0
 20
0.0
 30
0.0
210
0.0
220
0.0
230
1.0
  2
SOLID
 70
               1
 71
               1
 91
        1
 92
        1
 93
        1
 72
               2
 10
731.00286073313009
 20
-658.22242484590606
 40
4.99969482421875
 50
0.0
 51
360.0
 73
               0
 97
        1
330
A3
 75
               0
 76
               1
 98
        1
 10
0.0
 20
0.0
  0
CIRCLE
  5
A5
102
{ACAD_REACTORS
330
A6
102
}
100
AcDbEntity
  8
0
370
              -2
390
0
  6
Continuous
 62
               0
100
AcDbCircle
 10
501.00286073312964
 20
-658.22242484590606
 30
0.0
 40
4.99969482421875
  0
HATCH
  5
A6
100
AcDbEntity
  8
0
370
              -2
390
0
  6
Continuous
 62
               0
100
AcDbHatch
 10
0.0
 20
0.0
 30
0.0
210
0.0
220
0.0
230
1.0
  2
SOLID
 70
               1
 71
               1
 91
        1
 92
        1
 93
        1
 72
               2
 10
501.00286073312964
 20
-658.22242484590606
 40
4.99969482421875
 50
0.0
 51
360.0
 73
               0
 97
        1
330
A5
 75
               0
 76
               1
 98
        1
 10
0.0
 20
0.0
  0
MTEXT
  5
A7
100
AcDbEntity
  8
0
390
0
 62
               0
100
AcDbMText
 10
592.19035905095416
 20
-624.34480765840635
 30
0.0
 40
24.432617187500004
 41
0.0
 71
               1
 72
               1
  1
230
  7
ＭＳ ゴシック
 73
               1
 44
0.7828267384257843
  0
POINT
  5
A8
100
AcDbEntity
  8
Defpoints
370
               0
390
0
 62
               0
100
AcDbPoint
 10
501.00286073312964
 20
-553.22283597622209
 30
0.0
  0
POINT
  5
A9
100
AcDbEntity
  8
Defpoints
370
               0
390
0
 62
               0
100
AcDbPoint
 10
731.00286073313009
 20
-553.22242484590788
 30
0.0
  0
POINT
  5
AA
100
AcDbEntity
  8
Defpoints
370
               0
390
0
 62
               0
100
AcDbPoint
 10
731.00286073313009
 20
-658.22242484590606
 30
0.0
  0
ENDBLK
  5
AB
100
AcDbEntity
  8
notes
390
0
100
AcDbBlockEnd
  0
BLOCK
  5
AC
100
AcDbEntity
  8
notes
390
0
100
AcDbBlockBegin
  2
*D10
 70
               1
 10
0.0
 20
0.0
 30
0.0
  3
*D10
  1

  0
LINE
  5
AD
100
AcDbEntity
  8
0
370
              -2
390
0
  6
Continuous
 62
               0
100
AcDbLine
 10
731.00286073312827
 20
-437.82713928453359
 30
0.0
 11
731.00286073312827
 21
-356.7224248459097
 31
0.0
  0
LINE
  5
AE
100
AcDbEntity
  8
0
370
              -2
390
0
  6
Continuous
 62
               0
100
AcDbLine
 10
691.00286073312827
 20
-432.1017635430353
 30
0.0
 11
691.00286073312827
 21
-356.7224248459097
 31
0.0
  0
LINE
  5
AF
100
AcDbEntity
  8
0
370
              -2
390
0
  6
Continuous
 62
               0
100
AcDbLine
 10
731.00286073312827
 20
-356.7224248459097
 30
0.0
 11
691.00286073312827
 21
-356.7224248459097
 31
0.0
  0
CIRCLE
  5
B0
102
{ACAD_REACTORS
330
B1
102
}
100
AcDbEntity
  8
0
370
              -2
390
0
  6
Continuous
 62
               0
100
AcDbCircle
 10
731.00286073312827
 20
-356.7224248459097
 30
0.0
 40
4.99969482421875
  0
HATCH
  5
B1
100
AcDbEntity
  8
0
370
              -2
390
0
  6
Continuous
 62
               0
100
AcDbHatch
 10
0.0
 20
0.0
 30
0.0
210
0.0
220
0.0
230
1.0
  2
SOLID
 70
               1
 71
               1
 91
        1
 92
        1
 93
        1
 72
               2
 10
731.00286073312827
 20
-356.7224248459097
 40
4.99969482421875
 50
0.0
 51
360.0
 73
               0
 97
        1
330
B0
 75
               0
 76
               1
 98
        1
 10
0.0
 20
0.0
  0
CIRCLE
  5
B2
102
{ACAD_REACTORS
330
B3
102
}
100
AcDbEntity
  8
0
370
              -2
390
0
  6
Continuous
 62
               0
100
AcDbCircle
 10
691.00286073312827
 20
-356.7224248459097
 30
0.0
 40
4.99969482421875
  0
HATCH
  5
B3
100
AcDbEntity
  8
0
370
              -2
390
0
  6
Continuous
 62
               0
100
AcDbHatch
 10
0.0
 20
0.0
 30
0.0
210
0.0
220
0.0
230
1.0
  2
SOLID
 70
               1
 71
               1
 91
        1
 92
        1
 93
        1
 72
               2
 10
691.00286073312827
 20
-356.7224248459097
 40
4.99969482421875
 50
0.0
 51
360.0
 73
               0
 97
        1
330
B2
 75
               0
 76
               1
 98
        1
 10
0.0
 20
0.0
  0
MTEXT
  5
B4
100
AcDbEntity
  8
0
390
0
 62
               0
100
AcDbMText
 10
695.12786073312827
 20
-322.84480765840999
 30
0.0
 40
24.432617187500004
 41
0.0
 71
               1
 72
               1
  1
40
  7
ＭＳ ゴシック
 73
               1
 44
0.7828267384257843
  0
POINT
  5
B5
100
AcDbEntity
  8
Defpoints
370
               0
390
0
 62
               0
100
AcDbPoint
 10
691.00286073312827
 20
-457.1017635430353
 30
0.0
  0
POINT
  5
B6
100
AcDbEntity
  8
Defpoints
370
               0
390
0
 62
               0
100
AcDbPoint
 10
731.00286073312827
 20
-462.82713928453359
 30
0.0
  0
POINT
  5
B7
100
AcDbEntity
  8
Defpoints
370
               0
390
0
 62
               0
100
AcDbPoint
 10
731.00286073312827
 20
-356.7224248459097
 30
0.0
  0
ENDBLK
  5
B8
100
AcDbEntity
  8
notes
390
0
100
AcDbBlockEnd
  0
BLOCK
  5
B9
100
AcDbEntity
  8
notes
390
0
100
AcDbBlockBegin
  2
*D11
 70
               1
 10
0.0
 20
0.0
 30
0.0
  3
*D11
  1

  0
LINE
  5
BA
100
AcDbEntity
  8
0
370
              -2
390
0
  6
Continuous
 62
               0
100
AcDbLine
 10
500.63099788821683
 20
-456.7224248459097
 30
0.0
 11
499.61041250483777
 21
-456.7224248459097
 31
0.0
  0
LINE
  5
BB
100
AcDbEntity
  8
0
370
              -2
390
0
  6
Continuous
 62
               0
100
AcDbLine
 10
500.63099788821683
 20
-526.7224248459097
 30
0.0
 11
499.61041250483777
 21
-526.7224248459097
 31
0.0
  0
LINE
  5
BC
100
AcDbEntity
  8
0
370
              -2
390
0
  6
Continuous
 62
               0
100
AcDbLine
 10
499.61041250483777
 20
-456.7224248459097
 30
0.0
 11
499.61041250483777
 21
-321.6206613028744
 31
0.0
  0
LINE
  5
BD
100
AcDbEntity
  8
0
370
              -2
390
0
  6
Continuous
 62
               0
100
AcDbLine
 10
499.61041250483777
 20
-456.7224248459097
 30
0.0
 11
499.61041250483777
 21
-526.7224248459097
 31
0.0
  0
CIRCLE
  5
BE
102
{ACAD_REACTORS
330
BF
102
}
100
AcDbEntity
  8
0
370
              -2
390
0
  6
Continuous
 62
               0
100
AcDbCircle
 10
499.61041250483777
 20
-456.7224248459097
 30
0.0
 40
4.99969482421875
  0
HATCH
  5
BF
100
AcDbEntity
  8
0
370
              -2
390
0
  6
Continuous
 62
               0
100
AcDbHatch
 10
0.0
 20
0.0
 30
0.0
210
0.0
220
0.0
230
1.0
  2
SOLID
 70
               1
 71
               1
 91
        1
 92
        1
 93
        1
 72
               2
 10
499.61041250483777
 20
-456.7224248459097
 40
4.99969482421875
 50
0.0
 51
360.0
 73
               0
 97
        1
330
BE
 75
               0
 76
               1
 98
        1
 10
0.0
 20
0.0
  0
CIRCLE
  5
C0
102
{ACAD_REACTORS
330
C1
102
}
100
AcDbEntity
  8
0
370
              -2
390
0
  6
Continuous
 62
               0
100
AcDbCircle
 10
499.61041250483777
 20
-526.7224248459097
 30
0.0
 40
4.99969482421875
  0
HATCH
  5
C1
100
AcDbEntity
  8
0
370
              -2
390
0
  6
Continuous
 62
               0
100
AcDbHatch
 10
0.0
 20
0.0
 30
0.0
210
0.0
220
0.0
230
1.0
  2
SOLID
 70
               1
 71
               1
 91
        1
 92
        1
 93
        1
 72
               2
 10
499.61041250483777
 20
-526.7224248459097
 40
4.99969482421875
 50
0.0
 51
360.0
 73
               0
 97
        1
330
C0
 75
               0
 76
               1
 98
        1
 10
0.0
 20
0.0
  0
MTEXT
  5
C2
100
AcDbEntity
  8
0
390
0
 62
               0
100
AcDbMText
 10
465.7327953173376
 20
-448.6206613028744
 30
0.0
 40
24.432617187500004
 41
0.0
 71
               1
 72
               1
  1
70(深さ)
  7
ＭＳ ゴシック
 11
0.0
 21
1.0
 31
0.0
 73
               1
 44
0.7828267384257843
  0
POINT
  5
C3
100
AcDbEntity
  8
Defpoints
370
               0
390
0
 62
               0
100
AcDbPoint
 10
475.63099788821683
 20
-526.7224248459097
 30
0.0
  0
POINT
  5
C4
100
AcDbEntity
  8
Defpoints
370
               0
390
0
 62
               0
100
AcDbPoint
 10
475.63099788821683
 20
-456.7224248459097
 30
0.0
  0
POINT
  5
C5
100
AcDbEntity
  8
Defpoints
370
               0
390
0
 62
               0
100
AcDbPoint
 10
499.61041250483777
 20
-456.7224248459097
 30
0.0
  0
ENDBLK
  5
C6
100
AcDbEntity
  8
notes
390
0
100
AcDbBlockEnd
  0
BLOCK
  5
C7
100
AcDbEntity
  8
notes
390
0
100
AcDbBlockBegin
  2
*D12
 70
               1
 10
0.0
 20
0.0
 30
0.0
  3
*D12
  1

  0
LINE
  5
C8
100
AcDbEntity
  8
0
370
              -2
390
0
  6
Continuous
 62
               0
100
AcDbLine
 10
-545.94890904343083
 20
765.86353207473894
 30
0.0
 11
-545.94890904343083
 21
858.77536799841164
 31
0.0
  0
LINE
  5
C9
100
AcDbEntity
  8
0
370
              -2
390
0
  6
Continuous
 62
               0
100
AcDbLine
 10
-445.94890904342992
 20
768.36353207473894
 30
0.0
 11
-445.94890904342992
 21
858.77536799841164
 31
0.0
  0
LINE
  5
CA
100
AcDbEntity
  8
0
370
              -2
390
0
  6
Continuous
 62
               0
100
AcDbLine
 10
-545.94890904343083
 20
858.77536799841164
 30
0.0
 11
-445.94890904342992
 21
858.77536799841164
 31
0.0
  0
CIRCLE
  5
CB
102
{ACAD_REACTORS
330
CC
102
}
100
AcDbEntity
  8
0
370
              -2
390
0
  6
Continuous
 62
               0
100
AcDbCircle
 10
-545.94890904343083
 20
858.77536799841164
 30
0.0
 40
4.99969482421875
  0
HATCH
  5
CC
100
AcDbEntity
  8
0
370
              -2
390
0
  6
Continuous
 62
               0
100
AcDbHatch
 10
0.0
 20
0.0
 30
0.0
210
0.0
220
0.0
230
1.0
  2
SOLID
 70
               1
 71
               1
 91
        1
 92
        1
 93
        1
 72
               2
 10
-545.94890904343083
 20
858.77536799841164
 40
4.99969482421875
 50
0.0
 51
360.0
 73
               0
 97
        1
330
CB
 75
               0
 76
               1
 98
        1
 10
0.0
 20
0.0
  0
CIRCLE
  5
CD
102
{ACAD_REACTORS
330
CE
102
}
100
AcDbEntity
  8
0
370
              -2
390
0
  6
Continuous
 62
               0
100
AcDbCircle
 10
-445.94890904342992
 20
858.77536799841164
 30
0.0
 40
4.99969482421875
  0
HATCH
  5
CE
100
AcDbEntity
  8
0
370
              -2
390
0
  6
Continuous
 62
               0
100
AcDbHatch
 10
0.0
 20
0.0
 30
0.0
210
0.0
220
0.0
230
1.0
  2
SOLID
 70
               1
 71
               1
 91
        1
 92
        1
 93
        1
 72
               2
 10
-445.94890904342992
 20
858.77536799841164
 40
4.99969482421875
 50
0.0
 51
360.0
 73
               0
 97
        1
330
CD
 75
               0
 76
               1
 98
        1
 10
0.0
 20
0.0
  0
MTEXT
  5
CF
100
AcDbEntity
  8
0
390
0
 62
               0
100
AcDbMText
 10
-519.76141072560677
 20
892.65298518591135
 30
0.0
 40
24.432617187500004
 41
0.0
 71
               1
 72
               1
  1
100
  7
ＭＳ ゴシック
 73
               1
 44
0.7828267384257843
  0
POINT
  5
D0
100
AcDbEntity
  8
Defpoints
370
               0
390
0
 62
               0
100
AcDbPoint
 10
-445.94890904342992
 20
743.36353207473894
 30
0.0
  0
POINT
  5
D1
100
AcDbEntity
  8
Defpoints
370
               0
390
0
 62
               0
100
AcDbPoint
 10
-545.94890904343083
 20
740.86353207473894
 30
0.0
  0
POINT
  5
D2
100
AcDbEntity
  8
Defpoints
370
               0
390
0
 62
               0
100
AcDbPoint
 10
-545.94890904343083
 20
858.77536799841164
 30
0.0
  0
ENDBLK
  5
D3
100
AcDbEntity
  8
notes
390
0
100
AcDbBlockEnd
  0
BLOCK
  5
D4
100
AcDbEntity
  8
notes
390
0
100
AcDbBlockBegin
  2
*D13
 70
               1
 10
0.0
 20
0.0
 30
0.0
  3
*D13
  1

  0
LINE
  5
D5
100
AcDbEntity
  8
0
370
              -2
390
0
  6
Continuous
 62
               0
100
AcDbLine
 10
-445.94890904342992
 20
768.36353207473894
 30
0.0
 11
-445.94890904342992
 21
858.77536799841164
 31
0.0
  0
LINE
  5
D6
100
AcDbEntity
  8
0
370
              -2
390
0
  6
Continuous
 62
               0
100
AcDbLine
 10
-345.94890904342992
 20
765.86353207473894
 30
0.0
 11
-345.94890904342992
 21
858.77536799841164
 31
0.0
  0
LINE
  5
D7
100
AcDbEntity
  8
0
370
              -2
390
0
  6
Continuous
 62
               0
100
AcDbLine
 10
-445.94890904342992
 20
858.77536799841164
 30
0.0
 11
-345.94890904342992
 21
858.77536799841164
 31
0.0
  0
CIRCLE
  5
D8
102
{ACAD_REACTORS
330
D9
102
}
100
AcDbEntity
  8
0
370
              -2
390
0
  6
Continuous
 62
               0
100
AcDbCircle
 10
-445.94890904342992
 20
858.77536799841164
 30
0.0
 40
4.99969482421875
  0
HATCH
  5
D9
100
AcDbEntity
  8
0
370
              -2
390
0
  6
Continuous
 62
               0
100
AcDbHatch
 10
0.0
 20
0.0
 30
0.0
210
0.0
220
0.0
230
1.0
  2
SOLID
 70
               1
 71
               1
 91
        1
 92
        1
 93
        1
 72
               2
 10
-445.94890904342992
 20
858.77536799841164
 40
4.99969482421875
 50
0.0
 51
360.0
 73
               0
 97
        1
330
D8
 75
               0
 76
               1
 98
        1
 10
0.0
 20
0.0
  0
CIRCLE
  5
DA
102
{ACAD_REACTORS
330
DB
102
}
100
AcDbEntity
  8
0
370
              -2
390
0
  6
Continuous
 62
               0
100
AcDbCircle
 10
-345.94890904342992
 20
858.77536799841164
 30
0.0
 40
4.99969482421875
  0
HATCH
  5
DB
100
AcDbEntity
  8
0
370
              -2
390
0
  6
Continuous
 62
               0
100
AcDbHatch
 10
0.0
 20
0.0
 30
0.0
210
0.0
220
0.0
230
1.0
  2
SOLID
 70
               1
 71
               1
 91
        1
 92
        1
 93
        1
 72
               2
 10
-345.94890904342992
 20
858.77536799841164
 40
4.99969482421875
 50
0.0
 51
360.0
 73
               0
 97
        1
330
DA
 75
               0
 76
               1
 98
        1
 10
0.0
 20
0.0
  0
MTEXT
  5
DC
100
AcDbEntity
  8
0
390
0
 62
               0
100
AcDbMText
 10
-419.76141072560586
 20
892.65298518591135
 30
0.0
 40
24.432617187500004
 41
0.0
 71
               1
 72
               1
  1
100
  7
ＭＳ ゴシック
 73
               1
 44
0.7828267384257843
  0
POINT
  5
DD
100
AcDbEntity
  8
Defpoints
370
               0
390
0
 62
               0
100
AcDbPoint
 10
-345.94890904342992
 20
740.86353207473894
 30
0.0
  0
POINT
  5
DE
100
AcDbEntity
  8
Defpoints
370
               0
390
0
 62
               0
100
AcDbPoint
 10
-445.94890904342992
 20
743.36353207473894
 30
0.0
  0
POINT
  5
DF
100
AcDbEntity
  8
Defpoints
370
               0
390
0
 62
               0
100
AcDbPoint
 10
-445.94890904342992
 20
858.77536799841164
 30
0.0
  0
ENDBLK
  5
E0
100
AcDbEntity
  8
notes
390
0
100
AcDbBlockEnd
  0
BLOCK
  5
E1
100
AcDbEntity
  8
notes
390
0
100
AcDbBlockBegin
  2
*D14
 70
               1
 10
0.0
 20
0.0
 30
0.0
  3
*D14
  1

  0
LINE
  5
E2
100
AcDbEntity
  8
0
370
              -2
390
0
  6
Continuous
 62
               0
100
AcDbLine
 10
382.46700418220416
 20
453.77536799841164
 30
0.0
 11
382.46700418220416
 21
370.99999999999909
 31
0.0
  0
LINE
  5
E3
100
AcDbEntity
  8
0
370
              -2
390
0
  6
Continuous
 62
               0
100
AcDbLine
 10
632.46700418220416
 20
453.77536799841164
 30
0.0
 11
632.46700418220416
 21
370.99999999999909
 31
0.0
  0
LINE
  5
E4
100
AcDbEntity
  8
0
370
              -2
390
0
  6
Continuous
 62
               0
100
AcDbLine
 10
382.46700418220416
 20
370.99999999999909
 30
0.0
 11
632.46700418220416
 21
370.99999999999909
 31
0.0
  0
CIRCLE
  5
E5
102
{ACAD_REACTORS
330
E6
102
}
100
AcDbEntity
  8
0
370
              -2
390
0
  6
Continuous
 62
               0
100
AcDbCircle
 10
382.46700418220416
 20
370.99999999999909
 30
0.0
 40
4.99969482421875
  0
HATCH
  5
E6
100
AcDbEntity
  8
0
370
              -2
390
0
  6
Continuous
 62
               0
100
AcDbHatch
 10
0.0
 20
0.0
 30
0.0
210
0.0
220
0.0
230
1.0
  2
SOLID
 70
               1
 71
               1
 91
        1
 92
        1
 93
        1
 72
               2
 10
382.46700418220416
 20
370.99999999999909
 40
4.99969482421875
 50
0.0
 51
360.0
 73
               0
 97
        1
330
E5
 75
               0
 76
               1
 98
        1
 10
0.0
 20
0.0
  0
CIRCLE
  5
E7
102
{ACAD_REACTORS
330
E8
102
}
100
AcDbEntity
  8
0
370
              -2
390
0
  6
Continuous
 62
               0
100
AcDbCircle
 10
632.46700418220416
 20
370.99999999999909
 30
0.0
 40
4.99969482421875
  0
HATCH
  5
E8
100
AcDbEntity
  8
0
370
              -2
390
0
  6
Continuous
 62
               0
100
AcDbHatch
 10
0.0
 20
0.0
 30
0.0
210
0.0
220
0.0
230
1.0
  2
SOLID
 70
               1
 71
               1
 91
        1
 92
        1
 93
        1
 72
               2
 10
632.46700418220416
 20
370.99999999999909
 40
4.99969482421875
 50
0.0
 51
360.0
 73
               0
 97
        1
330
E7
 75
               0
 76
               1
 98
        1
 10
0.0
 20
0.0
  0
MTEXT
  5
E9
100
AcDbEntity
  8
0
390
0
 62
               0
100
AcDbMText
 10
483.65450250002868
 20
404.8776171874988
 30
0.0
 40
24.432617187500004
 41
0.0
 71
               1
 72
               1
  1
250
  7
ＭＳ ゴシック
 73
               1
 44
0.7828267384257843
  0
POINT
  5
EA
100
AcDbEntity
  8
Defpoints
370
               0
390
0
 62
               0
100
AcDbPoint
 10
632.46700418220416
 20
478.77536799841164
 30
0.0
  0
POINT
  5
EB
100
AcDbEntity
  8
Defpoints
370
               0
390
0
 62
               0
100
AcDbPoint
 10
382.46700418220416
 20
478.77536799841164
 30
0.0
  0
POINT
  5
EC
100
AcDbEntity
  8
Defpoints
370
               0
390
0
 62
               0
100
AcDbPoint
 10
382.46700418220416
 20
370.99999999999909
 30
0.0
  0
ENDBLK
  5
ED
100
AcDbEntity
  8
notes
390
0
100
AcDbBlockEnd
  0
BLOCK
  5
EE
100
AcDbEntity
  8
notes
390
0
100
AcDbBlockBegin
  2
*D15
 70
               1
 10
0.0
 20
0.0
 30
0.0
  3
*D15
  1

  0
LINE
  5
EF
100
AcDbEntity
  8
0
370
              -2
390
0
  6
Continuous
 62
               0
100
AcDbLine
 10
657.46700418220416
 20
478.77536799841164
 30
0.0
 11
723.3670041822038
 21
478.77536799841164
 31
0.0
  0
LINE
  5
F0
100
AcDbEntity
  8
0
370
              -2
390
0
  6
Continuous
 62
               0
100
AcDbLine
 10
657.46700418220416
 20
738.77536799841164
 30
0.0
 11
723.3670041822038
 21
738.77536799841164
 31
0.0
  0
LINE
  5
F1
100
AcDbEntity
  8
0
370
              -2
390
0
  6
Continuous
 62
               0
100
AcDbLine
 10
723.3670041822038
 20
478.77536799841164
 30
0.0
 11
723.3670041822038
 21
738.77536799841164
 31
0.0
  0
CIRCLE
  5
F2
102
{ACAD_REACTORS
330
F3
102
}
100
AcDbEntity
  8
0
370
              -2
390
0
  6
Continuous
 62
               0
100
AcDbCircle
 10
723.3670041822038
 20
478.77536799841164
 30
0.0
 40
4.99969482421875
  0
HATCH
  5
F3
100
AcDbEntity
  8
0
370
              -2
390
0
  6
Continuous
 62
               0
100
AcDbHatch
 10
0.0
 20
0.0
 30
0.0
210
0.0
220
0.0
230
1.0
  2
SOLID
 70
               1
 71
               1
 91
        1
 92
        1
 93
        1
 72
               2
 10
723.3670041822038
 20
478.77536799841164
 40
4.99969482421875
 50
0.0
 51
360.0
 73
               0
 97
        1
330
F2
 75
               0
 76
               1
 98
        1
 10
0.0
 20
0.0
  0
CIRCLE
  5
F4
102
{ACAD_REACTORS
330
F5
102
}
100
AcDbEntity
  8
0
370
              -2
390
0
  6
Continuous
 62
               0
100
AcDbCircle
 10
723.3670041822038
 20
738.77536799841164
 30
0.0
 40
4.99969482421875
  0
HATCH
  5
F5
100
AcDbEntity
  8
0
370
              -2
390
0
  6
Continuous
 62
               0
100
AcDbHatch
 10
0.0
 20
0.0
 30
0.0
210
0.0
220
0.0
230
1.0
  2
SOLID
 70
               1
 71
               1
 91
        1
 92
        1
 93
        1
 72
               2
 10
723.3670041822038
 20
738.77536799841164
 40
4.99969482421875
 50
0.0
 51
360.0
 73
               0
 97
        1
330
F4
 75
               0
 76
               1
 98
        1
 10
0.0
 20
0.0
  0
MTEXT
  5
F6
100
AcDbEntity
  8
0
390
0
 62
               0
100
AcDbMText
 10
689.48938699470364
 20
584.9628663162357
 30
0.0
 40
24.432617187500004
 41
0.0
 71
               1
 72
               1
  1
260
  7
ＭＳ ゴシック
 11
0.0
 21
1.0
 31
0.0
 73
               1
 44
0.7828267384257843
  0
POINT
  5
F7
100
AcDbEntity
  8
Defpoints
370
               0
390
0
 62
               0
100
AcDbPoint
 10
632.46700418220416
 20
738.77536799841164
 30
0.0
  0
POINT
  5
F8
100
AcDbEntity
  8
Defpoints
370
               0
390
0
 62
               0
100
AcDbPoint
 10
632.46700418220416
 20
478.77536799841164
 30
0.0
  0
POINT
  5
F9
100
AcDbEntity
  8
Defpoints
370
               0
390
0
 62
               0
100
AcDbPoint
 10
723.3670041822038
 20
478.77536799841164
 30
0.0
  0
ENDBLK
  5
FA
100
AcDbEntity
  8
notes
390
0
100
AcDbBlockEnd
  0
BLOCK
  5
FB
100
AcDbEntity
  8
notes
390
0
100
AcDbBlockBegin
  2
*D16
 70
               1
 10
0.0
 20
0.0
 30
0.0
  3
*D16
  1

  0
LINE
  5
FC
100
AcDbEntity
  8
0
370
              -2
390
0
  6
Continuous
 62
               0
100
AcDbLine
 10
657.46700418220416
 20
738.77536799841164
 30
0.0
 11
723.3670041822038
 21
738.77536799841164
 31
0.0
  0
LINE
  5
FD
100
AcDbEntity
  8
0
370
              -2
390
0
  6
Continuous
 62
               0
100
AcDbLine
 10
657.46700418220416
 20
758.77536799841164
 30
0.0
 11
723.3670041822038
 21
758.77536799841164
 31
0.0
  0
LINE
  5
FE
100
AcDbEntity
  8
0
370
              -2
390
0
  6
Continuous
 62
               0
100
AcDbLine
 10
723.3670041822038
 20
758.77536799841164
 30
0.0
 11
723.3670041822038
 21
801.74999999999909
 31
0.0
  0
LINE
  5
FF
100
AcDbEntity
  8
0
370
              -2
390
0
  6
Continuous
 62
               0
100
AcDbLine
 10
723.3670041822038
 20
738.77536799841164
 30
0.0
 11
723.3670041822038
 21
758.77536799841164
 31
0.0
  0
CIRCLE
  5
100
102
{ACAD_REACTORS
330
101
102
}
100
AcDbEntity
  8
0
370
              -2
390
0
  6
Continuous
 62
               0
100
AcDbCircle
 10
723.3670041822038
 20
738.77536799841164
 30
0.0
 40
4.99969482421875
  0
HATCH
  5
101
100
AcDbEntity
  8
0
370
              -2
390
0
  6
Continuous
 62
               0
100
AcDbHatch
 10
0.0
 20
0.0
 30
0.0
210
0.0
220
0.0
230
1.0
  2
SOLID
 70
               1
 71
               1
 91
        1
 92
        1
 93
        1
 72
               2
 10
723.3670041822038
 20
738.77536799841164
 40
4.99969482421875
 50
0.0
 51
360.0
 73
               0
 97
        1
330
100
 75
               0
 76
               1
 98
        1
 10
0.0
 20
0.0
  0
CIRCLE
  5
102
102
{ACAD_REACTORS
330
103
102
}
100
AcDbEntity
  8
0
370
              -2
390
0
  6
Continuous
 62
               0
100
AcDbCircle
 10
723.3670041822038
 20
758.77536799841164
 30
0.0
 40
4.99969482421875
  0
HATCH
  5
103
100
AcDbEntity
  8
0
370
              -2
390
0
  6
Continuous
 62
               0
100
AcDbHatch
 10
0.0
 20
0.0
 30
0.0
210
0.0
220
0.0
230
1.0
  2
SOLID
 70
               1
 71
               1
 91
        1
 92
        1
 93
        1
 72
               2
 10
723.3670041822038
 20
758.77536799841164
 40
4.99969482421875
 50
0.0
 51
360.0
 73
               0
 97
        1
330
102
 75
               0
 76
               1
 98
        1
 10
0.0
 20
0.0
  0
MTEXT
  5
104
100
AcDbEntity
  8
0
390
0
 62
               0
100
AcDbMText
 10
689.48938699470364
 20
769.99999999999909
 30
0.0
 40
24.432617187500004
 41
0.0
 71
               1
 72
               1
  1
20
  7
ＭＳ ゴシック
 11
0.0
 21
1.0
 31
0.0
 73
               1
 44
0.7828267384257843
  0
POINT
  5
105
100
AcDbEntity
  8
Defpoints
370
               0
390
0
 62
               0
100
AcDbPoint
 10
632.46700418220416
 20
758.77536799841164
 30
0.0
  0
POINT
  5
106
100
AcDbEntity
  8
Defpoints
370
               0
390
0
 62
               0
100
AcDbPoint
 10
632.46700418220416
 20
738.77536799841164
 30
0.0
  0
POINT
  5
107
100
AcDbEntity
  8
Defpoints
370
               0
390
0
 62
               0
100
AcDbPoint
 10
723.3670041822038
 20
738.77536799841164
 30
0.0
  0
ENDBLK
  5
108
100
AcDbEntity
  8
notes
390
0
100
AcDbBlockEnd
  0
BLOCK
  5
109
100
AcDbEntity
  8
notes
390
0
100
AcDbBlockBegin
  2
*D17
 70
               1
 10
0.0
 20
0.0
 30
0.0
  3
*D17
  1

  0
LINE
  5
10A
100
AcDbEntity
  8
0
370
              -2
390
0
  6
Continuous
 62
               0
100
AcDbLine
 10
-51.9213167580956
 20
-457.14682988514051
 30
0.0
 11
20.386347247895173
 21
-457.14682988514051
 31
0.0
  0
LINE
  5
10B
100
AcDbEntity
  8
0
370
              -2
390
0
  6
Continuous
 62
               0
100
AcDbLine
 10
-51.9213167580956
 20
-557.14682988514232
 30
0.0
 11
20.386347247895173
 21
-557.14682988514232
 31
0.0
  0
LINE
  5
10C
100
AcDbEntity
  8
0
370
              -2
390
0
  6
Continuous
 62
               0
100
AcDbLine
 10
20.386347247895173
 20
-457.14682988514051
 30
0.0
 11
20.386347247895173
 21
-557.14682988514232
 31
0.0
  0
CIRCLE
  5
10D
102
{ACAD_REACTORS
330
10E
102
}
100
AcDbEntity
  8
0
370
              -2
390
0
  6
Continuous
 62
               0
100
AcDbCircle
 10
20.386347247895173
 20
-457.14682988514051
 30
0.0
 40
4.99969482421875
  0
HATCH
  5
10E
100
AcDbEntity
  8
0
370
              -2
390
0
  6
Continuous
 62
               0
100
AcDbHatch
 10
0.0
 20
0.0
 30
0.0
210
0.0
220
0.0
230
1.0
  2
SOLID
 70
               1
 71
               1
 91
        1
 92
        1
 93
        1
 72
               2
 10
20.386347247895173
 20
-457.14682988514051
 40
4.99969482421875
 50
0.0
 51
360.0
 73
               0
 97
        1
330
10D
 75
               0
 76
               1
 98
        1
 10
0.0
 20
0.0
  0
CIRCLE
  5
10F
102
{ACAD_REACTORS
330
110
102
}
100
AcDbEntity
  8
0
370
              -2
390
0
  6
Continuous
 62
               0
100
AcDbCircle
 10
20.386347247895173
 20
-557.14682988514232
 30
0.0
 40
4.99969482421875
  0
HATCH
  5
110
100
AcDbEntity
  8
0
370
              -2
390
0
  6
Continuous
 62
               0
100
AcDbHatch
 10
0.0
 20
0.0
 30
0.0
210
0.0
220
0.0
230
1.0
  2
SOLID
 70
               1
 71
               1
 91
        1
 92
        1
 93
        1
 72
               2
 10
20.386347247895173
 20
-557.14682988514232
 40
4.99969482421875
 50
0.0
 51
360.0
 73
               0
 97
        1
330
10F
 75
               0
 76
               1
 98
        1
 10
0.0
 20
0.0
  0
MTEXT
  5
111
100
AcDbEntity
  8
0
390
0
 62
               0
100
AcDbMText
 10
-13.491269939604535
 20
-530.95933156731735
 30
0.0
 40
24.432617187500004
 41
0.0
 71
               1
 72
               1
  1
100
  7
ＭＳ ゴシック
 11
0.0
 21
1.0
 31
0.0
 73
               1
 44
0.7828267384257843
  0
POINT
  5
112
100
AcDbEntity
  8
Defpoints
370
               0
390
0
 62
               0
100
AcDbPoint
 10
-76.9213167580956
 20
-557.14682988514232
 30
0.0
  0
POINT
  5
113
100
AcDbEntity
  8
Defpoints
370
               0
390
0
 62
               0
100
AcDbPoint
 10
-76.9213167580956
 20
-457.14682988514051
 30
0.0
  0
POINT
  5
114
100
AcDbEntity
  8
Defpoints
370
               0
390
0
 62
               0
100
AcDbPoint
 10
20.386347247895173
 20
-457.14682988514051
 30
0.0
  0
ENDBLK
  5
115
100
AcDbEntity
  8
notes
390
0
100
AcDbBlockEnd
  0
BLOCK
  5
116
100
AcDbEntity
  8
notes
390
0
100
AcDbBlockBegin
  2
*D18
 70
               1
 10
0.0
 20
0.0
 30
0.0
  3
*D18
  1

  0
LINE
  5
117
100
AcDbEntity
  8
0
370
              -2
390
0
  6
Continuous
 62
               0
100
AcDbLine
 10
464.80600460026244
 20
-553.22242484590788
 30
0.0
 11
440.0
 21
-553.22242484590788
 31
0.0
  0
LINE
  5
118
100
AcDbEntity
  8
0
370
              -2
390
0
  6
Continuous
 62
               0
100
AcDbLine
 10
464.70649471773504
 20
-558.22242484590788
 30
0.0
 11
440.0
 21
-558.22242484590788
 31
0.0
  0
LINE
  5
119
100
AcDbEntity
  8
0
370
              -2
390
0
  6
Continuous
 62
               0
100
AcDbLine
 10
440.0
 20
-558.22242484590788
 30
0.0
 11
440.0
 21
-585.875
 31
0.0
  0
LINE
  5
11A
100
AcDbEntity
  8
0
370
              -2
390
0
  6
Continuous
 62
               0
100
AcDbLine
 10
440.0
 20
-553.22242484590788
 30
0.0
 11
440.0
 21
-558.22242484590788
 31
0.0
  0
CIRCLE
  5
11B
102
{ACAD_REACTORS
330
11C
102
}
100
AcDbEntity
  8
0
370
              -2
390
0
  6
Continuous
 62
               0
100
AcDbCircle
 10
440.0
 20
-553.22242484590788
 30
0.0
 40
4.99969482421875
  0
HATCH
  5
11C
100
AcDbEntity
  8
0
370
              -2
390
0
  6
Continuous
 62
               0
100
AcDbHatch
 10
0.0
 20
0.0
 30
0.0
210
0.0
220
0.0
230
1.0
  2
SOLID
 70
               1
 71
               1
 91
        1
 92
        1
 93
        1
 72
               2
 10
440.0
 20
-553.22242484590788
 40
4.99969482421875
 50
0.0
 51
360.0
 73
               0
 97
        1
330
11B
 75
               0
 76
               1
 98
        1
 10
0.0
 20
0.0
  0
CIRCLE
  5
11D
102
{ACAD_REACTORS
330
11E
102
}
100
AcDbEntity
  8
0
370
              -2
390
0
  6
Continuous
 62
               0
100
AcDbCircle
 10
440.0
 20
-558.22242484590788
 30
0.0
 40
4.99969482421875
  0
HATCH
  5
11E
100
AcDbEntity
  8
0
370
              -2
390
0
  6
Continuous
 62
               0
100
AcDbHatch
 10
0.0
 20
0.0
 30
0.0
210
0.0
220
0.0
230
1.0
  2
SOLID
 70
               1
 71
               1
 91
        1
 92
        1
 93
        1
 72
               2
 10
440.0
 20
-558.22242484590788
 40
4.99969482421875
 50
0.0
 51
360.0
 73
               0
 97
        1
330
11D
 75
               0
 76
               1
 98
        1
 10
0.0
 20
0.0
  0
MTEXT
  5
11F
100
AcDbEntity
  8
0
390
0
 62
               0
100
AcDbMText
 10
406.12238281249984
 20
-585.875
 30
0.0
 40
24.432617187500004
 41
0.0
 71
               1
 72
               1
  1
5
  7
ＭＳ ゴシック
 11
0.0
 21
1.0
 31
0.0
 73
               1
 44
0.7828267384257843
  0
POINT
  5
120
100
AcDbEntity
  8
Defpoints
370
               0
390
0
 62
               0
100
AcDbPoint
 10
489.70649471773504
 20
-558.22242484590788
 30
0.0
  0
POINT
  5
121
100
AcDbEntity
  8
Defpoints
370
               0
390
0
 62
               0
100
AcDbPoint
 10
489.80600460026244
 20
-553.22242484590788
 30
0.0
  0
POINT
  5
122
100
AcDbEntity
  8
Defpoints
370
               0
390
0
 62
               0
100
AcDbPoint
 10
440.0
 20
-553.22242484590788
 30
0.0
  0
ENDBLK
  5
123
100
AcDbEntity
  8
notes
390
0
100
AcDbBlockEnd
  0
ENDSEC
  0
SECTION
  2
ENTITIES
  0
MTEXT
  5
124
100
AcDbEntity
  8
template
390
0
 62
               7
100
AcDbMText
 10
-967.99999999975898
 20
-1147.4176292337006
 30
0.0
 40
16.288411458333332
 41
0.0
 71
               1
 72
               1
  1
品名
  7
ＭＳ ゴシック
 73
               1
 44
0.7828267384257843
  0
MTEXT
  5
125
100
AcDbEntity
  8
template
390
0
 62
               7
100
AcDbMText
 10
-967.99999999975898
 20
-1232.4176292337006
 30
0.0
 40
16.288411458333332
 41
0.0
 71
               1
 72
               1
  1
仕様
  7
ＭＳ ゴシック
 73
               1
 44
0.7828267384257843
  0
MTEXT
  5
126
100
AcDbEntity
  8
template
390
0
 62
               7
100
AcDbMText
 10
-914.99999999975898
 20
-1176.000090171201
 30
0.0
 40
24.432617187500004
 41
0.0
 71
               1
 72
               1
  1
洗面器･手洗器 -CATALANO,Roma-
  7
ＭＳ ゴシック
 73
               1
 44
0.7828267384257843
  0
LINE
  5
127
100
AcDbEntity
  8
template
370
               5
390
0
  6
Continuous
 62
               7
100
AcDbLine
 10
974.99999999975898
 20
-1224.0027073587007
 30
0.0
 11
-975.00000000024102
 21
-1224.0027073587007
 31
0.0
  0
LWPOLYLINE
  5
128
100
AcDbEntity
  8
template
370
               5
390
0
  6
Continuous
 62
               7
100
AcDbPolyline
 90
        5
 70
             128
 10
975.00000000024102
 20
1405.9972926412993
 10
-974.99999999975898
 20
1405.9972926412993
 10
-974.99999999975898
 20
-1394.0027073587007
 10
975.00000000024102
 20
-1394.0027073587007
 10
975.00000000024102
 20
1405.9972926412993
  0
LINE
  5
129
100
AcDbEntity
  8
template
370
               5
390
0
  6
Continuous
 62
               7
100
AcDbLine
 10
974.99999999975898
 20
-1139.0027073587007
 30
0.0
 11
-975.00000000024102
 21
-1139.0027073587007
 31
0.0
  0
LINE
  5
12A
100
AcDbEntity
  8
template
370
               5
390
0
  6
Continuous
 62
               7
100
AcDbLine
 10
975.00000000024102
 20
-1309.0027073587007
 30
0.0
 11
222.00000000024102
 21
-1309.0027073587007
 31
0.0
  0
MTEXT
  5
12B
100
AcDbEntity
  8
template
390
0
 62
               7
100
AcDbMText
 10
-974.99999999955617
 20
-1405.8565294155578
 30
0.0
 40
21.717881944444446
 41
0.0
 71
               1
 72
               1
  1
100707SH
  7
ＭＳ ゴシック
 73
               1
 44
0.7828267384257843
  0
MTEXT
  5
12C
100
AcDbEntity
  8
template
390
0
 62
               7
100
AcDbMText
 10
251.87140625250095
 20
-1338.9131018320086
 30
0.0
 40
24.432617187500004
 41
0.0
 71
               1
 72
               1
  1
大洋金物株式会社 ティーフォルム事業部
  7
ＭＳ ゴシック
 73
               1
 44
0.7828267384257843
  0
INSERT
  5
12D
100
AcDbEntity
  8
template
390
0
 62
               7
100
AcDbBlockReference
  2
グループ
 10
4155.6768690770205
 20
-6177.2061619503756
 30
0.0
  0
MTEXT
  5
12E
100
AcDbEntity
  8
template
390
0
 62
               7
100
AcDbMText
 10
784.00000000050022
 20
-1261.000090171201
 30
0.0
 40
24.432617187500004
 41
0.0
 71
               1
 72
               1
  1
1:10
  7
ＭＳ ゴシック
 73
               1
 44
0.7828267384257843
  0
MTEXT
  5
12F
100
AcDbEntity
  8
template
390
0
 62
               7
100
AcDbMText
 10
731.00000000050022
 20
-1232.4176292337006
 30
0.0
 40
16.288411458333332
 41
0.0
 71
               1
 72
               1
  1
縮尺
  7
ＭＳ ゴシック
 73
               1
 44
0.7828267384257843
  0
LINE
  5
130
100
AcDbEntity
  8
template
370
               5
390
0
  6
Continuous
 62
               7
100
AcDbLine
 10
724.00000000050022
 20
-1309.0027073587007
 30
0.0
 11
724.00000000050022
 21
-1224.0027073587007
 31
0.0
  0
MTEXT
  5
131
100
AcDbEntity
  8
template
390
0
 62
               7
100
AcDbMText
 10
480.00000000050022
 20
-1232.4176292337006
 30
0.0
 40
16.288411458333332
 41
0.0
 71
               1
 72
               1
  1
容量
  7
ＭＳ ゴシック
 73
               1
 44
0.7828267384257843
  0
MTEXT
  5
132
100
AcDbEntity
  8
template
390
0
 62
               7
100
AcDbMText
 10
533.00000000050022
 20
-1261.000090171201
 30
0.0
 40
24.432617187500004
 41
0.0
 71
               1
 72
               1
  1
11.8L
  7
ＭＳ ゴシック
 73
               1
 44
0.7828267384257843
  0
LINE
  5
133
100
AcDbEntity
  8
template
370
               5
390
0
  6
Continuous
 62
               7
100
AcDbLine
 10
473.00000000050022
 20
-1309.0027073587007
 30
0.0
 11
473.00000000050022
 21
-1224.0027073587007
 31
0.0
  0
MTEXT
  5
134
100
AcDbEntity
  8
template
390
0
 62
               7
100
AcDbMText
 10
229.00000000050022
 20
-1147.4176292337006
 30
0.0
 40
16.288411458333332
 41
0.0
 71
               1
 72
               1
  1
品番
  7
ＭＳ ゴシック
 73
               1
 44
0.7828267384257843
  0
MTEXT
  5
135
100
AcDbEntity
  8
template
390
0
 62
               7
100
AcDbMText
 10
229.00000000050022
 20
-1232.4176292337006
 30
0.0
 40
16.288411458333332
 41
0.0
 71
               1
 72
               1
  1
重量
  7
ＭＳ ゴシック
 73
               1
 44
0.7828267384257843
  0
MTEXT
  5
136
100
AcDbEntity
  8
template
390
0
 62
               7
100
AcDbMText
 10
282.00000000050022
 20
-1176.000090171201
 30
0.0
 40
24.432617187500004
 41
0.0
 71
               1
 72
               1
  1
ADF70-1606
  7
ＭＳ ゴシック
 73
               1
 44
0.7828267384257843
  0
MTEXT
  5
137
100
AcDbEntity
  8
template
390
0
 62
               7
100
AcDbMText
 10
282.00000000050022
 20
-1261.000090171201
 30
0.0
 40
24.432617187500004
 41
0.0
 71
               1
 72
               1
  1
18.2kg
  7
ＭＳ ゴシック
 73
               1
 44
0.7828267384257843
  0
LINE
  5
138
100
AcDbEntity
  8
template
370
               5
390
0
  6
Continuous
 62
               7
100
AcDbLine
 10
222.00000000050022
 20
-1394.0027073587007
 30
0.0
 11
222.00000000050022
 21
-1139.0027073587007
 31
0.0
  0
MTEXT
  5
139
100
AcDbEntity
  8
template
390
0
 62
               7
100
AcDbMText
 10
-914.99999999975989
 20
-1261.0000901712001
 30
0.0
 40
24.432617187500004
 41
0.0
 71
               1
 72
               1
  1
カウンター置き/オーバーフローなし/\P陶器,背面釉薬あり/ホワイト
  7
ＭＳ ゴシック
 73
               1
 44
1.3047112307096407
  0
MTEXT
  5
13A
100
AcDbEntity
  8
notes
390
0
 62
               7
100
AcDbMText
 10
-816.44004877578118
 20
141.50624777593748
 30
0.0
 40
24.432617187500004
 41
835.82639602367647
 71
               1
 72
               1
  1
＝φ30もしくはφ35の水栓取付用穴あけ加工を承ります。\P   必要な場合、ご注文の際にご指示ください。
  7
ＭＳ ゴシック
 73
               1
 44
1.0437689845677123
  0
MTEXT
  5
13B
100
AcDbEntity
  8
notes
390
0
 62
               7
100
AcDbMText
 10
371.47758122420919
 20
962.58077513302578
 30
0.0
 40
24.432617187500004
 41
0.0
 71
               1
 72
               1
  1
カウンター切込寸法
  7
ＭＳ ゴシック
 73
               1
 44
0.7828267384257843
  0
DIMENSION
  5
13C
100
AcDbEntity
  8
notes
370
               5
390
0
  6
Continuous
 62
               7
100
AcDbDimension
  2
*D4
 10
-820.94789612707063
 20
908.77536799841164
 30
0.0
 11
-445.94789612707063
 21
908.77536799841164
 31
0.0
 71
               5
 72
               1
 41
1.0
 42
0.0
  3
Tform線あり
100
AcDbAlignedDimension
 13
-70.947896127071544
 23
708.77536799841164
 33
0.0
 14
-820.94789612707063
 24
708.77536799841164
 34
0.0
100
AcDbRotatedDimension
1001
ACAD
1000
DSTYLE
1002
{
1070
             279
1070
               2
1070
             340
1005
33
1070
             147
1040
5.0
1002
}
  0
DIMENSION
  5
13D
100
AcDbEntity
  8
notes
370
               5
390
0
  6
Continuous
 62
               7
100
AcDbDimension
  2
*D5
 10
9.0521038729284555
 20
758.77536799841164
 30
0.0
 11
9.0521038729284555
 21
548.77536799841164
 31
0.0
 71
               5
 72
               1
 41
1.0
 42
0.0
  3
Tform線あり
100
AcDbAlignedDimension
 13
-120.94789612707154
 23
338.77536799841164
 33
0.0
 14
-120.94789612707154
 24
758.77536799841164
 34
0.0
 50
90.0
100
AcDbRotatedDimension
1001
ACAD
1000
DSTYLE
1002
{
1070
             279
1070
               2
1070
             340
1005
33
1070
             147
1040
5.0
1002
}
  0
DIMENSION
  5
13E
100
AcDbEntity
  8
notes
370
               5
390
0
  6
Continuous
 62
               7
100
AcDbDimension
  2
*D6
 10
-780.94608441702076
 20
238.77536799841255
 30
0.0
 11
-445.94541925307931
 21
238.77536799841255
 31
0.0
 71
               5
 72
               1
 41
1.0
 42
0.0
  3
Tform線あり
100
AcDbAlignedDimension
 13
-110.94475408913786
 23
339.78621461351577
 33
0.0
 14
-780.94608441702076
 24
339.78520336387828
 34
0.0
100
AcDbRotatedDimension
1001
ACAD
1000
DSTYLE
1002
{
1070
             279
1070
               2
1070
             340
1005
33
1070
             147
1040
5.0
1002
}
  0
DIMENSION
  5
13F
100
AcDbEntity
  8
notes
370
               5
390
0
  6
Continuous
 62
               7
100
AcDbDimension
  2
*D7
 10
-900.94789612707063
 20
758.77536799841164
 30
0.0
 11
-905.94789612707063
 21
714.99999999999909
 31
0.0
 70
             128
 71
               5
 72
               1
 41
1.0
 42
0.0
  3
Tform線あり
100
AcDbAlignedDimension
 13
-817.13577972488292
 23
678.77560691292547
 33
0.0
 14
-770.94789612707063
 24
758.77536799841164
 34
0.0
 50
90.0
100
AcDbRotatedDimension
1001
ACAD
1000
DSTYLE
1002
{
1070
             279
1070
               2
1070
             340
1005
33
1070
             147
1040
5.0
1002
}
  0
DIMENSION
  5
140
100
AcDbEntity
  8
notes
370
               5
390
0
  6
Continuous
 62
               7
100
AcDbDimension
  2
*D8
 10
-900.94789612707063
 20
678.77560691292547
 30
0.0
 11
-900.94789612707063
 21
528.77548745566946
 31
0.0
 71
               5
 72
               1
 41
1.0
 42
0.0
  3
Tform線あり
100
AcDbAlignedDimension
 13
-819.93769098273424
 23
378.77536799841346
 33
0.0
 14
-820.94789612707063
 24
678.77560691292547
 34
0.0
 50
90.0
100
AcDbRotatedDimension
1001
ACAD
1000
DSTYLE
1002
{
1070
             279
1070
               2
1070
             340
1005
33
1070
             147
1040
5.0
1002
}
  0
DIMENSION
  5
141
100
AcDbEntity
  8
notes
370
               5
390
0
  6
Continuous
 62
               7
100
AcDbDimension
  2
*D9
 10
731.00286073313009
 20
-658.22242484590606
 30
0.0
 11
616.00286073312964
 21
-658.22242484590606
 31
0.0
 71
               5
 72
               1
 41
1.0
 42
0.0
  3
Tform線あり
100
AcDbAlignedDimension
 13
501.00286073312964
 23
-553.22283597622209
 33
0.0
 14
731.00286073313009
 24
-553.22242484590788
 34
0.0
100
AcDbRotatedDimension
1001
ACAD
1000
DSTYLE
1002
{
1070
             279
1070
               2
1070
             340
1005
33
1070
             147
1040
5.0
1002
}
  0
DIMENSION
  5
142
100
AcDbEntity
  8
notes
370
               5
390
0
  6
Continuous
 62
               7
100
AcDbDimension
  2
*D10
 10
731.00286073312827
 20
-356.7224248459097
 30
0.0
 11
711.00286073312827
 21
-356.7224248459097
 31
0.0
 71
               5
 72
               1
 41
1.0
 42
0.0
  3
Tform線あり
100
AcDbAlignedDimension
 13
691.00286073312827
 23
-457.1017635430353
 33
0.0
 14
731.00286073312827
 24
-462.82713928453359
 34
0.0
100
AcDbRotatedDimension
1001
ACAD
1000
DSTYLE
1002
{
1070
             279
1070
               2
1070
             340
1005
33
1070
             147
1040
5.0
1002
}
  0
DIMENSION
  5
143
100
AcDbEntity
  8
notes
370
               5
390
0
  6
Continuous
 62
               7
100
AcDbDimension
  2
*D11
 10
499.61041250483777
 20
-456.7224248459097
 30
0.0
 11
504.61041250483777
 21
-448.6206613028744
 31
0.0
 70
             128
 71
               5
 72
               1
 41
1.0
 42
0.0
  3
Tform線あり
100
AcDbAlignedDimension
 13
475.63099788821683
 23
-526.7224248459097
 33
0.0
 14
475.63099788821683
 24
-456.7224248459097
 34
0.0
 50
90.0
100
AcDbRotatedDimension
1001
ACAD
1000
DSTYLE
1002
{
1070
             279
1070
               2
1070
             340
1005
33
1070
               3
1000
<>(深さ)
1070
             174
1070
               0
1070
             147
1040
5.0
1002
}
  0
DIMENSION
  5
144
100
AcDbEntity
  8
notes
370
               5
390
0
  6
Continuous
 62
               7
100
AcDbDimension
  2
*D12
 10
-545.94890904343083
 20
858.77536799841164
 30
0.0
 11
-495.94890904343083
 21
858.77536799841164
 31
0.0
 71
               5
 72
               1
 41
1.0
 42
0.0
  3
Tform線あり
100
AcDbAlignedDimension
 13
-445.94890904342992
 23
743.36353207473894
 33
0.0
 14
-545.94890904343083
 24
740.86353207473894
 34
0.0
100
AcDbRotatedDimension
1001
ACAD
1000
DSTYLE
1002
{
1070
             279
1070
               2
1070
             340
1005
33
1070
             147
1040
5.0
1002
}
  0
DIMENSION
  5
145
100
AcDbEntity
  8
notes
370
               5
390
0
  6
Continuous
 62
               7
100
AcDbDimension
  2
*D13
 10
-445.94890904342992
 20
858.77536799841164
 30
0.0
 11
-395.94890904342992
 21
858.77536799841164
 31
0.0
 71
               5
 72
               1
 41
1.0
 42
0.0
  3
Tform線あり
100
AcDbAlignedDimension
 13
-345.94890904342992
 23
740.86353207473894
 33
0.0
 14
-445.94890904342992
 24
743.36353207473894
 34
0.0
100
AcDbRotatedDimension
1001
ACAD
1000
DSTYLE
1002
{
1070
             279
1070
               2
1070
             340
1005
33
1070
             147
1040
5.0
1002
}
  0
DIMENSION
  5
146
100
AcDbEntity
  8
notes
370
               5
390
0
  6
Continuous
 62
               7
100
AcDbDimension
  2
*D14
 10
382.46700418220416
 20
370.99999999999909
 30
0.0
 11
507.46700418220416
 21
370.99999999999909
 31
0.0
 71
               5
 72
               1
 41
1.0
 42
0.0
  3
Tform線あり
100
AcDbAlignedDimension
 13
632.46700418220416
 23
478.77536799841164
 33
0.0
 14
382.46700418220416
 24
478.77536799841164
 34
0.0
100
AcDbRotatedDimension
1001
ACAD
1000
DSTYLE
1002
{
1070
             279
1070
               2
1070
             340
1005
33
1070
             147
1040
5.0
1002
}
  0
DIMENSION
  5
147
100
AcDbEntity
  8
notes
370
               5
390
0
  6
Continuous
 62
               7
100
AcDbDimension
  2
*D15
 10
723.3670041822038
 20
478.77536799841164
 30
0.0
 11
723.3670041822038
 21
608.77536799841164
 31
0.0
 71
               5
 72
               1
 41
1.0
 42
0.0
  3
Tform線あり
100
AcDbAlignedDimension
 13
632.46700418220416
 23
738.77536799841164
 33
0.0
 14
632.46700418220416
 24
478.77536799841164
 34
0.0
 50
90.0
100
AcDbRotatedDimension
1001
ACAD
1000
DSTYLE
1002
{
1070
             279
1070
               2
1070
             340
1005
33
1070
             147
1040
5.0
1002
}
  0
DIMENSION
  5
148
100
AcDbEntity
  8
notes
370
               5
390
0
  6
Continuous
 62
               7
100
AcDbDimension
  2
*D16
 10
723.3670041822038
 20
738.77536799841164
 30
0.0
 11
728.3670041822038
 21
769.99999999999909
 31
0.0
 70
             128
 71
               5
 72
               1
 41
1.0
 42
0.0
  3
Tform線あり
100
AcDbAlignedDimension
 13
632.46700418220416
 23
758.77536799841164
 33
0.0
 14
632.46700418220416
 24
738.77536799841164
 34
0.0
 50
90.0
100
AcDbRotatedDimension
1001
ACAD
1000
DSTYLE
1002
{
1070
             279
1070
               2
1070
             340
1005
33
1070
             174
1070
               0
1070
             147
1040
5.0
1002
}
  0
CIRCLE
  5
149
100
AcDbEntity
  8
notes
370
              15
390
0
  6
STYLE_01
 62
               7
100
AcDbCircle
 10
-835.61365275210483
 20
126.0
 30
0.0
 40
15.0
  0
MTEXT
  5
14A
100
AcDbEntity
  8
notes
390
0
 62
               7
100
AcDbMText
 10
115.50370465940659
 20
141.50624777593748
 30
0.0
 40
24.432617187500004
 41
764.7717154610109
 71
               1
 72
               1
  1
※陶器製品には寸法公差があります。\P  洗面器の収め方をご確認の上、必ず現物を合わせて\P  カウンターに切込を行ってください。
  7
ＭＳ ゴシック
 73
               1
 44
1.0437689845677123
  0
DIMENSION
  5
14B
100
AcDbEntity
  8
notes
370
               5
390
0
  6
Continuous
 62
               7
100
AcDbDimension
  2
*D17
 10
20.386347247895173
 20
-457.14682988514051
 30
0.0
 11
20.386347247895173
 21
-507.14682988514141
 31
0.0
 71
               5
 72
               1
 41
1.0
 42
0.0
  3
Tform線あり
100
AcDbAlignedDimension
 13
-76.9213167580956
 23
-557.14682988514232
 33
0.0
 14
-76.9213167580956
 24
-457.14682988514051
 34
0.0
 50
90.0
100
AcDbRotatedDimension
1001
ACAD
1000
DSTYLE
1002
{
1070
             279
1070
               2
1070
             340
1005
33
1070
             147
1040
5.0
1002
}
  0
DIMENSION
  5
14C
100
AcDbEntity
  8
notes
370
               5
390
0
  6
Continuous
 62
               7
100
AcDbDimension
  2
*D18
 10
440.0
 20
-553.22242484590788
 30
0.0
 11
435.0
 21
-570.0
 31
0.0
 70
             128
 71
               5
 72
               1
 41
1.0
 42
0.0
  3
Tform線あり
100
AcDbAlignedDimension
 13
489.70649471773504
 23
-558.22242484590788
 33
0.0
 14
489.80600460026244
 24
-553.22242484590788
 34
0.0
 50
90.0
100
AcDbRotatedDimension
1001
ACAD
1000
DSTYLE
1002
{
1070
             279
1070
               2
1070
             340
1005
33
1070
             174
1070
               0
1070
             147
1040
5.0
1002
}
  0
CIRCLE
  5
14D
100
AcDbEntity
  8
ADF70-1606
370
              15
390
0
  6
Continuous
 62
               7
100
AcDbCircle
 10
-445.94890904342992
 20
528.7654589609092
 30
0.0
 40
38.999999999999091
  0
CIRCLE
  5
14E
100
AcDbEntity
  8
ADF70-1606
370
              15
390
0
  6
Continuous
 62
               7
100
AcDbCircle
 10
-445.94890904342992
 20
528.76545896090738
 30
0.0
 40
23.043551013695833
  0
LINE
  5
14F
100
AcDbEntity
  8
ADF70-1606
370
              15
390
0
  6
Continuous
 62
               7
100
AcDbLine
 10
-770.94789612707063
 20
338.77536799841346
 30
0.0
 11
-120.94789612707154
 21
338.77536799841346
 31
0.0
  0
LINE
  5
150
100
AcDbEntity
  8
ADF70-1606
370
              15
390
0
  6
Continuous
 62
               7
100
AcDbLine
 10
-70.947896127071544
 20
388.77536799841164
 30
0.0
 11
-70.947896127071544
 21
708.77536799841164
 31
0.0
  0
ARC
  5
151
100
AcDbEntity
  8
ADF70-1606
370
              15
390
0
  6
Continuous
 62
               7
100
AcDbCircle
 10
-120.94789612707154
 20
708.77536799841164
 30
0.0
 40
50.0
100
AcDbArc
 50
0.0
 51
90.0
  0
ARC
  5
152
100
AcDbEntity
  8
ADF70-1606
370
              15
390
0
  6
Continuous
 62
               7
100
AcDbCircle
 10
-120.94789612707154
 20
388.77536799841164
 30
0.0
 40
50.0
100
AcDbArc
 50
270.0
 51
0.0
  0
LINE
  5
153
100
AcDbEntity
  8
ADF70-1606
370
              15
390
0
  6
Continuous
 62
               7
100
AcDbLine
 10
-120.94789612707154
 20
758.77536799841164
 30
0.0
 11
-770.94789612707063
 21
758.77536799841164
 31
0.0
  0
ARC
  5
154
100
AcDbEntity
  8
ADF70-1606
370
              15
390
0
  6
Continuous
 62
               7
100
AcDbCircle
 10
-770.94789612707063
 20
708.77536799841164
 30
0.0
 40
50.0
100
AcDbArc
 50
90.0
 51
180.0
  0
LINE
  5
155
100
AcDbEntity
  8
ADF70-1606
370
              15
390
0
  6
Continuous
 62
               7
100
AcDbLine
 10
-820.94789612707063
 20
708.77536799841164
 30
0.0
 11
-820.94789612707063
 21
388.77536799841164
 31
0.0
  0
ARC
  5
156
100
AcDbEntity
  8
ADF70-1606
370
              15
390
0
  6
Continuous
 62
               7
100
AcDbCircle
 10
-770.94789612707063
 20
388.77536799841164
 30
0.0
 40
50.0
100
AcDbArc
 50
180.0
 51
270.0
  0
LWPOLYLINE
  5
157
100
AcDbEntity
  8
ADF70-1606
370
              15
390
0
  6
Continuous
 62
               7
100
AcDbPolyline
 90
        9
 70
             129
 10
-740.94608441702349
 20
678.77560691292547
 10
-150.94475408914059
 20
678.77560691292729
 42
-0.4142135623731018
 10
-110.94475408914059
 20
638.77560691292911
 10
-110.94475408913786
 20
418.77536799841346
 42
-0.414213562373095
 10
-150.94475408913786
 20
378.77536799841346
 10
-740.94608441702076
 20
378.77536799841346
 42
-0.414213562373115
 10
-780.94608441702076
 20
418.77536799841164
 10
-780.94608441702349
 20
638.77560691292547
 42
-0.414213562373095
 10
-740.94608441702349
 20
678.77560691292547
  0
LWPOLYLINE
  5
158
100
AcDbEntity
  8
ADF70-1606
370
              15
390
0
  6
Continuous
 62
               7
100
AcDbPolyline
 90
        9
 70
             129
 10
-740.94608441702349
 20
668.67061413328247
 10
-150.94475408914059
 20
668.67061413328247
 42
-0.4142135623731217
 10
-121.0497468687845
 20
638.77560691292911
 10
-121.04974686878268
 20
418.77536799841346
 42
-0.4142135623731129
 10
-150.94475408913786
 20
388.88036077805646
 10
-740.94608441702076
 20
388.88036077805646
 42
-0.414213562373095
 10
-770.84109163737594
 20
418.77536799841164
 10
-770.84109163737958
 20
638.77560691292729
 42
-0.414213562373095
 10
-740.94608441702349
 20
668.67061413328247
  0
CIRCLE
  5
159
100
AcDbEntity
  8
ADF70-1606
370
              15
390
0
  6
STYLE_01
 62
               7
100
AcDbCircle
 10
-445.94890904342992
 20
715.86353207473894
 30
0.0
 40
17.5
  0
CIRCLE
  5
15A
100
AcDbEntity
  8
ADF70-1606
370
              15
390
0
  6
STYLE_01
 62
               7
100
AcDbCircle
 10
-345.94890904342992
 20
715.86353207473894
 30
0.0
 40
15.0
  0
CIRCLE
  5
15B
100
AcDbEntity
  8
ADF70-1606
370
              15
390
0
  6
STYLE_01
 62
               7
100
AcDbCircle
 10
-545.94890904343083
 20
715.86353207473894
 30
0.0
 40
15.000000000000909
  0
POLYLINE
  5
15C
100
AcDbEntity
  8
ADF70-1606
370
              15
390
0
  6
Continuous
 62
               7
100
AcDb3dPolyline
 66
               1
 10
0.0
 20
0.0
 30
0.0
 70
               8
  0
VERTEX
  5
15D
100
AcDbEntity
  8
ADF70-1606
370
              15
390
0
  6
Continuous
 62
               7
100
AcDbVertex
100
AcDb3dPolylineVertex
 10
312.82055677234939
 20
-554.7573283300153
 30
-0.0000000000004547
 70
              32
  0
VERTEX
  5
15E
100
AcDbEntity
  8
ADF70-1606
370
              15
390
0
  6
Continuous
 62
               7
100
AcDbVertex
100
AcDb3dPolylineVertex
 10
311.21597038880782
 20
-462.82713529702505
 30
-0.0000000000004547
 70
              32
  0
SEQEND
  5
15F
100
AcDbEntity
  8
ADF70-1606
370
              15
390
0
  6
Continuous
 62
               7
  0
ARC
  5
160
100
AcDbEntity
  8
ADF70-1606
370
              15
390
0
  6
Continuous
 62
               7
100
AcDbCircle
 10
314.82025218585522
 20
-554.7224248459097
 30
0.0
 40
2.0000000000002616
100
AcDbArc
 50
180.99996192787884
 51
270.0
  0
SPLINE
  5
161
100
AcDbEntity
  8
ADF70-1606
370
              15
390
0
  6
Continuous
 62
               7
100
AcDbSpline
210
0.0
220
0.0
230
1.0
 70
               4
 71
               2
 72
               8
 73
               5
 74
               0
 42
0.000001
 43
0.000001
 40
0.0
 40
0.0
 40
0.0
 40
0.5
 40
0.5
 40
1.0
 40
1.0
 40
1.0
 10
311.21597038880782
 20
-462.82713529702323
 30
-0.0000000000000011
 41
1.0
 10
311.17206167249833
 20
-460.31151082978613
 30
-0.0000000000000011
 41
0.9222010359308012
 10
312.93555535202768
 20
-458.51696783784701
 30
-0.0000000000000008
 41
1.0
 10
314.6990490315543
 20
-456.72242484590879
 30
-0.0000000000000005
 41
0.9222010359308012
 10
317.21505669894714
 20
-456.72242484590879
 30
-0.0
 41
1.0
  0
POLYLINE
  5
162
100
AcDbEntity
  8
ADF70-1606
370
              15
390
0
  6
Continuous
 62
               7
100
AcDb3dPolyline
 66
               1
 10
0.0
 20
0.0
 30
0.0
 70
               8
  0
VERTEX
  5
163
100
AcDbEntity
  8
ADF70-1606
370
              15
390
0
  6
Continuous
 62
               7
100
AcDbVertex
100
AcDb3dPolylineVertex
 10
465.03462305802213
 20
-531.26670995578206
 30
0.0
 70
              32
  0
VERTEX
  5
164
100
AcDbEntity
  8
ADF70-1606
370
              15
390
0
  6
Continuous
 62
               7
100
AcDbVertex
100
AcDb3dPolylineVertex
 10
476.32586008290718
 20
-540.80379149683449
 30
0.0
 70
              32
  0
SEQEND
  5
165
100
AcDbEntity
  8
ADF70-1606
370
              15
390
0
  6
Continuous
 62
               7
  0
ARC
  5
166
100
AcDbEntity
  8
ADF70-1606
370
              15
390
0
  6
STYLE_01
 62
               7
100
AcDbCircle
 10
473.0995098825274
 20
-544.62356431527678
 30
0.0
 40
5.0
100
AcDbArc
 50
0.0
 51
49.814074834290977
  0
ARC
  5
167
100
AcDbEntity
  8
ADF70-1606
370
              15
390
0
  6
STYLE_01
 62
               7
100
AcDbCircle
 10
657.82245488395847
 20
-464.7224248459097
 30
0.0
 40
8.0
100
AcDbArc
 50
90.0
 51
170.00000000004744
  0
POLYLINE
  5
168
100
AcDbEntity
  8
ADF70-1606
370
              15
390
0
  6
Continuous
 62
               7
100
AcDb3dPolyline
 66
               1
 10
0.0
 20
0.0
 30
0.0
 70
               8
  0
VERTEX
  5
169
100
AcDbEntity
  8
ADF70-1606
370
              15
390
0
  6
Continuous
 62
               7
100
AcDbVertex
100
AcDb3dPolylineVertex
 10
731.00286073312827
 20
-462.82713928453359
 30
0.0
 70
              32
  0
VERTEX
  5
16A
100
AcDbEntity
  8
ADF70-1606
370
              15
390
0
  6
Continuous
 62
               7
100
AcDbVertex
100
AcDb3dPolylineVertex
 10
729.39821329128199
 20
-554.75732965878251
 30
0.0
 70
              32
  0
SEQEND
  5
16B
100
AcDbEntity
  8
ADF70-1606
370
              15
390
0
  6
Continuous
 62
               7
  0
ARC
  5
16C
100
AcDbEntity
  8
ADF70-1606
370
              15
390
0
  6
Continuous
 62
               7
100
AcDbCircle
 10
727.39851790096827
 20
-554.72242484590606
 30
0.0
 40
2.0
100
AcDbArc
 50
270.0
 51
359.00000000002427
  0
POLYLINE
  5
16D
100
AcDbEntity
  8
ADF70-1606
370
              15
390
0
  6
Continuous
 62
               7
100
AcDb3dPolyline
 66
               1
 10
0.0
 20
0.0
 30
0.0
 70
               8
  0
VERTEX
  5
16E
100
AcDbEntity
  8
ADF70-1606
370
              15
390
0
  6
Continuous
 62
               7
100
AcDbVertex
100
AcDb3dPolylineVertex
 10
731.00286073313009
 20
-462.82713928452722
 30
-0.0000000000002926
 70
              32
  0
VERTEX
  5
16F
100
AcDbEntity
  8
ADF70-1606
370
              15
390
0
  6
Continuous
 62
               7
100
AcDbVertex
100
AcDb3dPolylineVertex
 10
730.90567542329927
 20
-461.64188506151277
 30
-0.0000000000002927
 70
              32
  0
VERTEX
  5
170
100
AcDbEntity
  8
ADF70-1606
370
              15
390
0
  6
Continuous
 62
               7
100
AcDbVertex
100
AcDb3dPolylineVertex
 10
730.57663187942262
 20
-460.49908022084492
 30
-0.0000000000002927
 70
              32
  0
VERTEX
  5
171
100
AcDbEntity
  8
ADF70-1606
370
              15
390
0
  6
Continuous
 62
               7
100
AcDbVertex
100
AcDb3dPolylineVertex
 10
730.02865669189896
 20
-459.44362024932616
 30
-0.0000000000002928
 70
              32
  0
VERTEX
  5
172
100
AcDbEntity
  8
ADF70-1606
370
              15
390
0
  6
Continuous
 62
               7
100
AcDbVertex
100
AcDb3dPolylineVertex
 10
729.28327725711597
 20
-458.51696926010572
 30
-0.000000000000293
 70
              32
  0
VERTEX
  5
173
100
AcDbEntity
  8
ADF70-1606
370
              15
390
0
  6
Continuous
 62
               7
100
AcDbVertex
100
AcDb3dPolylineVertex
 10
728.36977606617484
 20
-457.75553106053212
 30
-0.0000000000002932
 70
              32
  0
VERTEX
  5
174
100
AcDbEntity
  8
ADF70-1606
370
              15
390
0
  6
Continuous
 62
               7
100
AcDbVertex
100
AcDb3dPolylineVertex
 10
727.32404033201192
 20
-457.18921901588328
 30
-0.0000000000002934
 70
              32
  0
VERTEX
  5
175
100
AcDbEntity
  8
ADF70-1606
370
              15
390
0
  6
Continuous
 62
               7
100
AcDbVertex
100
AcDb3dPolylineVertex
 10
726.1871521477201
 20
-456.84028089237472
 30
-0.0000000000002936
 70
              32
  0
VERTEX
  5
176
100
AcDbEntity
  8
ADF70-1606
370
              15
390
0
  6
Continuous
 62
               7
100
AcDbVertex
100
AcDb3dPolylineVertex
 10
725.00377456219167
 20
-456.72242484590606
 30
-0.0000000000002938
 70
              32
  0
SEQEND
  5
177
100
AcDbEntity
  8
ADF70-1606
370
              15
390
0
  6
Continuous
 62
               7
  0
ARC
  5
178
100
AcDbEntity
  8
ADF70-1606
370
              15
390
0
  6
STYLE_01
 62
               7
100
AcDbCircle
 10
456.00084249695874
 20
-541.96207384741865
 30
0.0
 40
13.999999999999755
100
AcDbArc
 50
49.814074834293812
 51
86.375741372463622
  0
LINE
  5
179
100
AcDbEntity
  8
ADF70-1606
370
              15
390
0
  6
STYLE_01
 62
               7
100
AcDbLine
 10
458.97862744477834
 20
-528.28242484590828
 30
0.0
 11
543.22039232024463
 21
-528.28242484590828
 31
0.0
  0
LINE
  5
17A
100
AcDbEntity
  8
ADF70-1606
370
              15
390
0
  6
STYLE_01
 62
               7
100
AcDbLine
 10
478.09950988252649
 20
-542.3018950905298
 30
0.0
 11
524.09950988250921
 21
-542.3018950905298
 31
0.0
  0
LINE
  5
17B
100
AcDbEntity
  8
ADF70-1606
370
              15
390
0
  6
STYLE_01
 62
               7
100
AcDbLine
 10
478.0995098825274
 20
-553.22242484590788
 30
0.0
 11
524.09950988250921
 21
-553.22242484590788
 31
0.0
  0
LINE
  5
17C
100
AcDbEntity
  8
ADF70-1606
370
              15
390
0
  6
Continuous
 62
               7
100
AcDbLine
 10
708.42915105929615
 20
-471.72242484590879
 30
0.0
 11
708.42915105929615
 21
-456.72242484590879
 31
0.0
  0
LINE
  5
17D
100
AcDbEntity
  8
ADF70-1606
370
              15
390
0
  6
Continuous
 62
               7
100
AcDbLine
 10
314.82025218585522
 20
-556.72242484590879
 30
0.0
 11
320.88946182722293
 21
-556.72242484591061
 31
0.0
  0
LINE
  5
17E
100
AcDbEntity
  8
ADF70-1606
370
              15
390
0
  6
Continuous
 62
               7
100
AcDbLine
 10
727.39851790096827
 20
-556.72242484590879
 30
0.0
 11
721.32930695343248
 21
-556.72242484590879
 31
0.0
  0
POLYLINE
  5
17F
100
AcDbEntity
  8
ADF70-1606
370
              15
390
0
  6
Continuous
 62
               7
100
AcDb3dPolyline
 66
               1
 10
0.0
 20
0.0
 30
0.0
 70
               8
  0
VERTEX
  5
180
100
AcDbEntity
  8
ADF70-1606
370
              15
390
0
  6
Continuous
 62
               7
100
AcDbVertex
100
AcDb3dPolylineVertex
 10
631.37980694460066
 20
-558.22242484590788
 30
-0.0000000000000005
 70
              32
  0
VERTEX
  5
181
100
AcDbEntity
  8
ADF70-1606
370
              15
390
0
  6
Continuous
 62
               7
100
AcDbVertex
100
AcDb3dPolylineVertex
 10
625.19939775952253
 20
-558.22242484590788
 30
-0.0000000000000022
 70
              32
  0
SEQEND
  5
182
100
AcDbEntity
  8
ADF70-1606
370
              15
390
0
  6
Continuous
 62
               7
  0
POLYLINE
  5
183
100
AcDbEntity
  8
ADF70-1606
370
              15
390
0
  6
Continuous
 62
               7
100
AcDb3dPolyline
 66
               1
 10
0.0
 20
0.0
 30
0.0
 70
               8
  0
VERTEX
  5
184
100
AcDbEntity
  8
ADF70-1606
370
              15
390
0
  6
Continuous
 62
               7
100
AcDbVertex
100
AcDb3dPolylineVertex
 10
631.37980694460066
 20
-558.22242484590788
 30
-0.0000000000000005
 70
              32
  0
VERTEX
  5
185
100
AcDbEntity
  8
ADF70-1606
370
              15
390
0
  6
Continuous
 62
               7
100
AcDbVertex
100
AcDb3dPolylineVertex
 10
721.32930695343248
 20
-556.72242484591061
 30
0.0
 70
              32
  0
SEQEND
  5
186
100
AcDbEntity
  8
ADF70-1606
370
              15
390
0
  6
Continuous
 62
               7
  0
POLYLINE
  5
187
100
AcDbEntity
  8
ADF70-1606
370
              15
390
0
  6
Continuous
 62
               7
100
AcDb3dPolyline
 66
               1
 10
0.0
 20
0.0
 30
0.0
 70
               8
  0
VERTEX
  5
188
100
AcDbEntity
  8
ADF70-1606
370
              15
390
0
  6
Continuous
 62
               7
100
AcDbVertex
100
AcDb3dPolylineVertex
 10
355.99962200551136
 20
-558.22242484590788
 30
0.0000000001575156
 70
              32
  0
VERTEX
  5
189
100
AcDbEntity
  8
ADF70-1606
370
              15
390
0
  6
Continuous
 62
               7
100
AcDbVertex
100
AcDb3dPolylineVertex
 10
349.66494670158181
 20
-558.22242484590788
 30
0.0000000000003691
 70
              32
  0
SEQEND
  5
18A
100
AcDbEntity
  8
ADF70-1606
370
              15
390
0
  6
Continuous
 62
               7
  0
ARC
  5
18B
100
AcDbEntity
  8
ADF70-1606
370
              15
390
0
  6
STYLE_01
 62
               7
100
AcDbCircle
 10
344.49046814367421
 20
-464.7224248459097
 30
0.0
 40
8.000000000000103
100
AcDbArc
 50
10.000000000005022
 51
89.999999999999986
  0
ARC
  5
18C
100
AcDbEntity
  8
ADF70-1606
370
              15
390
0
  6
STYLE_01
 62
               7
100
AcDbCircle
 10
344.49046814367421
 20
-464.7224248459097
 30
0.0
 40
8.000000000000103
100
AcDbArc
 50
10.000000000005022
 51
89.999999999999986
  0
POLYLINE
  5
18D
100
AcDbEntity
  8
ADF70-1606
370
              15
390
0
  6
Continuous
 62
               7
100
AcDb3dPolyline
 66
               1
 10
0.0
 20
0.0
 30
0.0
 70
               8
  0
VERTEX
  5
18E
100
AcDbEntity
  8
ADF70-1606
370
              15
390
0
  6
Continuous
 62
               7
100
AcDbVertex
100
AcDb3dPolylineVertex
 10
369.58544160262545
 20
-514.28041791066971
 30
0.000000000826355
 70
              32
  0
VERTEX
  5
18F
100
AcDbEntity
  8
ADF70-1606
370
              15
390
0
  6
Continuous
 62
               7
100
AcDbVertex
100
AcDb3dPolylineVertex
 10
367.77692072641139
 20
-513.85066679523788
 30
0.0000000008408843
 70
              32
  0
VERTEX
  5
190
100
AcDbEntity
  8
ADF70-1606
370
              15
390
0
  6
Continuous
 62
               7
100
AcDbVertex
100
AcDb3dPolylineVertex
 10
366.05646986597594
 20
-513.14676153332675
 30
0.0000000008486273
 70
              32
  0
VERTEX
  5
191
100
AcDbEntity
  8
ADF70-1606
370
              15
390
0
  6
Continuous
 62
               7
100
AcDbVertex
100
AcDb3dPolylineVertex
 10
364.46537307702465
 20
-512.18559308341446
 30
0.0000000008493981
 70
              32
  0
VERTEX
  5
192
100
AcDbEntity
  8
ADF70-1606
370
              15
390
0
  6
Continuous
 62
               7
100
AcDbVertex
100
AcDb3dPolylineVertex
 10
363.04181042617756
 20
-510.99022570890975
 30
0.0000000008431783
 70
              32
  0
VERTEX
  5
193
100
AcDbEntity
  8
ADF70-1606
370
              15
390
0
  6
Continuous
 62
               7
100
AcDbVertex
100
AcDb3dPolylineVertex
 10
361.81994181949676
 20
-509.58934352652341
 30
0.0000000008301171
 70
              32
  0
VERTEX
  5
194
100
AcDbEntity
  8
ADF70-1606
370
              15
390
0
  6
Continuous
 62
               7
100
AcDbVertex
100
AcDb3dPolylineVertex
 10
360.82908729906148
 20
-508.01656220025779
 30
0.0000000008105279
 70
              32
  0
VERTEX
  5
195
100
AcDbEntity
  8
ADF70-1606
370
              15
390
0
  6
Continuous
 62
               7
100
AcDbVertex
100
AcDb3dPolylineVertex
 10
360.09302347724542
 20
-506.30962229764464
 30
0.0000000007848809
 70
              32
  0
VERTEX
  5
196
100
AcDbEntity
  8
ADF70-1606
370
              15
390
0
  6
Continuous
 62
               7
100
AcDbVertex
100
AcDb3dPolylineVertex
 10
359.62941299151362
 20
-504.50948366452849
 30
0.0000000007537913
 70
              32
  0
SEQEND
  5
197
100
AcDbEntity
  8
ADF70-1606
370
              15
390
0
  6
Continuous
 62
               7
  0
POLYLINE
  5
198
100
AcDbEntity
  8
ADF70-1606
370
              15
390
0
  6
Continuous
 62
               7
100
AcDb3dPolyline
 66
               1
 10
0.0
 20
0.0
 30
0.0
 70
               8
  0
VERTEX
  5
199
100
AcDbEntity
  8
ADF70-1606
370
              15
390
0
  6
Continuous
 62
               7
100
AcDbVertex
100
AcDb3dPolylineVertex
 10
537.16439670701266
 20
-531.26670995578206
 30
0.0
 70
              32
  0
VERTEX
  5
19A
100
AcDbEntity
  8
ADF70-1606
370
              15
390
0
  6
Continuous
 62
               7
100
AcDbVertex
100
AcDb3dPolylineVertex
 10
525.87315968212943
 20
-540.80379149683358
 30
0.0
 70
              32
  0
SEQEND
  5
19B
100
AcDbEntity
  8
ADF70-1606
370
              15
390
0
  6
Continuous
 62
               7
  0
ARC
  5
19C
100
AcDbEntity
  8
ADF70-1606
370
              15
390
0
  6
STYLE_01
 62
               7
100
AcDbCircle
 10
529.09950988250921
 20
-544.62356431527405
 30
0.0
 40
5.0000000000001217
100
AcDbArc
 50
130.18592516570905
 51
180.0
  0
ARC
  5
19D
100
AcDbEntity
  8
ADF70-1606
370
              15
390
0
  6
STYLE_01
 62
               7
100
AcDbCircle
 10
546.19817726807787
 20
-541.96207384741865
 30
0.0
 40
14.000000000000208
100
AcDbArc
 50
93.62425862753642
 51
130.18592516570618
  0
POLYLINE
  5
19E
100
AcDbEntity
  8
ADF70-1606
370
              15
390
0
  6
Continuous
 62
               7
100
AcDb3dPolyline
 66
               1
 10
0.0
 20
0.0
 30
0.0
 70
               8
  0
VERTEX
  5
19F
100
AcDbEntity
  8
ADF70-1606
370
              15
390
0
  6
Continuous
 62
               7
100
AcDbVertex
100
AcDb3dPolylineVertex
 10
642.6867538859201
 20
-504.49108687811167
 30
-0.0000000033884014
 70
              32
  0
VERTEX
  5
1A0
100
AcDbEntity
  8
ADF70-1606
370
              15
390
0
  6
Continuous
 62
               7
100
AcDbVertex
100
AcDb3dPolylineVertex
 10
642.22314340018829
 20
-506.29122551122782
 30
-0.00000000248524
 70
              32
  0
VERTEX
  5
1A1
100
AcDbEntity
  8
ADF70-1606
370
              15
390
0
  6
Continuous
 62
               7
100
AcDbVertex
100
AcDb3dPolylineVertex
 10
641.48707957837223
 20
-507.99816541384098
 30
-0.0000000016561753
 70
              32
  0
VERTEX
  5
1A2
100
AcDbEntity
  8
ADF70-1606
370
              15
390
0
  6
Continuous
 62
               7
100
AcDbVertex
100
AcDb3dPolylineVertex
 10
640.49622505793695
 20
-509.57094674010659
 30
-0.0000000009211014
 70
              32
  0
VERTEX
  5
1A3
100
AcDbEntity
  8
ADF70-1606
370
              15
390
0
  6
Continuous
 62
               7
100
AcDbVertex
100
AcDb3dPolylineVertex
 10
639.27435645125615
 20
-510.97182892249293
 30
-0.0000000002976573
 70
              32
  0
VERTEX
  5
1A4
100
AcDbEntity
  8
ADF70-1606
370
              15
390
0
  6
Continuous
 62
               7
100
AcDbVertex
100
AcDb3dPolylineVertex
 10
637.85079380040906
 20
-512.16719629699764
 30
0.0000000001991968
 70
              32
  0
VERTEX
  5
1A5
100
AcDbEntity
  8
ADF70-1606
370
              15
390
0
  6
Continuous
 62
               7
100
AcDbVertex
100
AcDb3dPolylineVertex
 10
636.25969701145777
 20
-513.12836474690994
 30
0.0000000005575384
 70
              32
  0
VERTEX
  5
1A6
100
AcDbEntity
  8
ADF70-1606
370
              15
390
0
  6
Continuous
 62
               7
100
AcDbVertex
100
AcDb3dPolylineVertex
 10
634.53924615102233
 20
-513.83227000882107
 30
0.0000000007687687
 70
              32
  0
VERTEX
  5
1A7
100
AcDbEntity
  8
ADF70-1606
370
              15
390
0
  6
Continuous
 62
               7
100
AcDbVertex
100
AcDb3dPolylineVertex
 10
632.73072527480826
 20
-514.2620211242529
 30
0.000000000827819
 70
              32
  0
SEQEND
  5
1A8
100
AcDbEntity
  8
ADF70-1606
370
              15
390
0
  6
Continuous
 62
               7
  0
POLYLINE
  5
1A9
100
AcDbEntity
  8
ADF70-1606
370
              15
390
0
  6
Continuous
 62
               7
100
AcDb3dPolyline
 66
               1
 10
0.0
 20
0.0
 30
0.0
 70
               8
  0
VERTEX
  5
1AA
100
AcDbEntity
  8
ADF70-1606
370
              15
390
0
  6
Continuous
 62
               7
100
AcDbVertex
100
AcDb3dPolylineVertex
 10
349.66494670158181
 20
-558.22242484590788
 30
0.0000000000003691
 70
              32
  0
VERTEX
  5
1AB
100
AcDbEntity
  8
ADF70-1606
370
              15
390
0
  6
Continuous
 62
               7
100
AcDbVertex
100
AcDb3dPolylineVertex
 10
320.88946182722293
 20
-556.72242484591061
 30
0.0
 70
              32
  0
SEQEND
  5
1AC
100
AcDbEntity
  8
ADF70-1606
370
              15
390
0
  6
Continuous
 62
               7
  0
POLYLINE
  5
1AD
100
AcDbEntity
  8
ADF70-1606
370
              15
390
0
  6
Continuous
 62
               7
100
AcDb3dPolyline
 66
               1
 10
0.0
 20
0.0
 30
0.0
 70
               8
  0
VERTEX
  5
1AE
100
AcDbEntity
  8
ADF70-1606
370
              15
390
0
  6
Continuous
 62
               7
100
AcDbVertex
100
AcDb3dPolylineVertex
 10
-70.922230587158992
 20
-463.25154432376712
 30
0.0
 70
              32
  0
VERTEX
  5
1AF
100
AcDbEntity
  8
ADF70-1606
370
              15
390
0
  6
Continuous
 62
               7
100
AcDbVertex
100
AcDb3dPolylineVertex
 10
-72.526878029005275
 20
-555.18173469801604
 30
0.0
 70
              32
  0
SEQEND
  5
1B0
100
AcDbEntity
  8
ADF70-1606
370
              15
390
0
  6
Continuous
 62
               7
  0
ARC
  5
1B1
100
AcDbEntity
  8
ADF70-1606
370
              15
390
0
  6
Continuous
 62
               7
100
AcDbCircle
 10
-74.526573419318993
 20
-555.14682988514051
 30
0.0
 40
2.0
100
AcDbArc
 50
270.0
 51
359.00000000002427
  0
POLYLINE
  5
1B2
100
AcDbEntity
  8
ADF70-1606
370
              15
390
0
  6
Continuous
 62
               7
100
AcDb3dPolyline
 66
               1
 10
0.0
 20
0.0
 30
0.0
 70
               8
  0
VERTEX
  5
1B3
100
AcDbEntity
  8
ADF70-1606
370
              15
390
0
  6
Continuous
 62
               7
100
AcDbVertex
100
AcDb3dPolylineVertex
 10
-70.922230587157173
 20
-463.25154432376166
 30
-0.0000000000002926
 70
              32
  0
VERTEX
  5
1B4
100
AcDbEntity
  8
ADF70-1606
370
              15
390
0
  6
Continuous
 62
               7
100
AcDbVertex
100
AcDb3dPolylineVertex
 10
-71.019415896987994
 20
-462.0662901007463
 30
-0.0000000000002927
 70
              32
  0
VERTEX
  5
1B5
100
AcDbEntity
  8
ADF70-1606
370
              15
390
0
  6
Continuous
 62
               7
100
AcDbVertex
100
AcDb3dPolylineVertex
 10
-71.348459440864644
 20
-460.92348526007936
 30
-0.0000000000002927
 70
              32
  0
VERTEX
  5
1B6
100
AcDbEntity
  8
ADF70-1606
370
              15
390
0
  6
Continuous
 62
               7
100
AcDbVertex
100
AcDb3dPolylineVertex
 10
-71.896434628388306
 20
-459.86802528855969
 30
-0.0000000000002928
 70
              32
  0
VERTEX
  5
1B7
100
AcDbEntity
  8
ADF70-1606
370
              15
390
0
  6
Continuous
 62
               7
100
AcDbVertex
100
AcDb3dPolylineVertex
 10
-72.641814063171296
 20
-458.94137429933926
 30
-0.000000000000293
 70
              32
  0
VERTEX
  5
1B8
100
AcDbEntity
  8
ADF70-1606
370
              15
390
0
  6
Continuous
 62
               7
100
AcDbVertex
100
AcDb3dPolylineVertex
 10
-73.555315254112429
 20
-458.17993609976565
 30
-0.0000000000002932
 70
              32
  0
VERTEX
  5
1B9
100
AcDbEntity
  8
ADF70-1606
370
              15
390
0
  6
Continuous
 62
               7
100
AcDbVertex
100
AcDb3dPolylineVertex
 10
-74.601050988275347
 20
-457.61362405511773
 30
-0.0000000000002934
 70
              32
  0
VERTEX
  5
1BA
100
AcDbEntity
  8
ADF70-1606
370
              15
390
0
  6
Continuous
 62
               7
100
AcDbVertex
100
AcDb3dPolylineVertex
 10
-75.737939172567167
 20
-457.26468593160916
 30
-0.0000000000002936
 70
              32
  0
VERTEX
  5
1BB
100
AcDbEntity
  8
ADF70-1606
370
              15
390
0
  6
Continuous
 62
               7
100
AcDbVertex
100
AcDb3dPolylineVertex
 10
-76.9213167580956
 20
-457.14682988514051
 30
-0.0000000000002938
 70
              32
  0
SEQEND
  5
1BC
100
AcDbEntity
  8
ADF70-1606
370
              15
390
0
  6
Continuous
 62
               7
  0
LINE
  5
1BD
100
AcDbEntity
  8
ADF70-1606
370
              15
390
0
  6
Continuous
 62
               7
100
AcDbLine
 10
-74.826584355200794
 20
-557.14682988514232
 30
0.0
 11
-80.895795302736587
 21
-557.14682988514232
 31
0.0
  0
POLYLINE
  5
1BE
100
AcDbEntity
  8
ADF70-1606
370
              15
390
0
  6
Continuous
 62
               7
100
AcDb3dPolyline
 66
               1
 10
0.0
 20
0.0
 30
0.0
 70
               8
  0
VERTEX
  5
1BF
100
AcDbEntity
  8
ADF70-1606
370
              15
390
0
  6
Continuous
 62
               7
100
AcDbVertex
100
AcDb3dPolylineVertex
 10
-820.96049358695018
 20
-463.25154432376712
 30
0.0
 70
              32
  0
VERTEX
  5
1C0
100
AcDbEntity
  8
ADF70-1606
370
              15
390
0
  6
Continuous
 62
               7
100
AcDbVertex
100
AcDb3dPolylineVertex
 10
-819.35584614510481
 20
-555.18173469801604
 30
0.0
 70
              32
  0
SEQEND
  5
1C1
100
AcDbEntity
  8
ADF70-1606
370
              15
390
0
  6
Continuous
 62
               7
  0
ARC
  5
1C2
100
AcDbEntity
  8
ADF70-1606
370
              15
390
0
  6
Continuous
 62
               7
100
AcDbCircle
 10
-817.35615075479109
 20
-555.14682988514051
 30
0.0
 40
1.9999999999991021
100
AcDbArc
 50
180.99999999997615
 51
270.0
  0
POLYLINE
  5
1C3
100
AcDbEntity
  8
ADF70-1606
370
              15
390
0
  6
Continuous
 62
               7
100
AcDb3dPolyline
 66
               1
 10
0.0
 20
0.0
 30
0.0
 70
               8
  0
VERTEX
  5
1C4
100
AcDbEntity
  8
ADF70-1606
370
              15
390
0
  6
Continuous
 62
               7
100
AcDbVertex
100
AcDb3dPolylineVertex
 10
-820.960493586952
 20
-463.25154432376166
 30
-0.0000000000002926
 70
              32
  0
VERTEX
  5
1C5
100
AcDbEntity
  8
ADF70-1606
370
              15
390
0
  6
Continuous
 62
               7
100
AcDbVertex
100
AcDb3dPolylineVertex
 10
-820.86330827712118
 20
-462.0662901007463
 30
-0.0000000000002927
 70
              32
  0
VERTEX
  5
1C6
100
AcDbEntity
  8
ADF70-1606
370
              15
390
0
  6
Continuous
 62
               7
100
AcDbVertex
100
AcDb3dPolylineVertex
 10
-820.53426473324544
 20
-460.92348526007936
 30
-0.0000000000002927
 70
              32
  0
VERTEX
  5
1C7
100
AcDbEntity
  8
ADF70-1606
370
              15
390
0
  6
Continuous
 62
               7
100
AcDbVertex
100
AcDb3dPolylineVertex
 10
-819.98628954572087
 20
-459.86802528855969
 30
-0.0000000000002928
 70
              32
  0
VERTEX
  5
1C8
100
AcDbEntity
  8
ADF70-1606
370
              15
390
0
  6
Continuous
 62
               7
100
AcDbVertex
100
AcDb3dPolylineVertex
 10
-819.24091011093878
 20
-458.94137429933926
 30
-0.000000000000293
 70
              32
  0
VERTEX
  5
1C9
100
AcDbEntity
  8
ADF70-1606
370
              15
390
0
  6
Continuous
 62
               7
100
AcDbVertex
100
AcDb3dPolylineVertex
 10
-818.32740891999674
 20
-458.17993609976565
 30
-0.0000000000002932
 70
              32
  0
VERTEX
  5
1CA
100
AcDbEntity
  8
ADF70-1606
370
              15
390
0
  6
Continuous
 62
               7
100
AcDbVertex
100
AcDb3dPolylineVertex
 10
-817.28167318583473
 20
-457.61362405511773
 30
-0.0000000000002934
 70
              32
  0
VERTEX
  5
1CB
100
AcDbEntity
  8
ADF70-1606
370
              15
390
0
  6
Continuous
 62
               7
100
AcDbVertex
100
AcDb3dPolylineVertex
 10
-816.14478500154291
 20
-457.26468593160916
 30
-0.0000000000002936
 70
              32
  0
VERTEX
  5
1CC
100
AcDbEntity
  8
ADF70-1606
370
              15
390
0
  6
Continuous
 62
               7
100
AcDbVertex
100
AcDb3dPolylineVertex
 10
-814.96140741601448
 20
-457.14682988514051
 30
-0.0000000000002938
 70
              32
  0
SEQEND
  5
1CD
100
AcDbEntity
  8
ADF70-1606
370
              15
390
0
  6
Continuous
 62
               7
  0
LINE
  5
1CE
100
AcDbEntity
  8
ADF70-1606
370
              15
390
0
  6
Continuous
 62
               7
100
AcDbLine
 10
-79.860493586952543
 20
-557.14682988514232
 30
0.0
 11
-817.35615075479109
 21
-557.14682988514051
 31
0.0
  0
LINE
  5
1CF
100
AcDbEntity
  8
ADF70-1606
370
              15
390
0
  6
Continuous
 62
               7
100
AcDbLine
 10
-814.96140741601448
 20
-457.14682988514051
 30
0.0
 11
-76.860493586952543
 21
-457.14682988514051
 31
0.0
  0
ARC
  5
1D0
100
AcDbEntity
  8
ADF70-1606
370
              15
390
0
  6
STYLE_01
 62
               7
100
AcDbCircle
 10
-417.94789612708792
 20
-545.18068381017838
 30
0.0
 40
5.0000000000001217
100
AcDbArc
 50
130.18592516570905
 51
180.0
  0
ARC
  5
1D1
100
AcDbEntity
  8
ADF70-1606
370
              15
390
0
  6
STYLE_01
 62
               7
100
AcDbCircle
 10
-400.84922874151925
 20
-542.51919334232025
 30
0.0
 40
14.000000000000208
100
AcDbArc
 50
93.62425862753642
 51
130.18592516570379
  0
LINE
  5
1D2
100
AcDbEntity
  8
ADF70-1606
370
              15
390
0
  6
STYLE_01
 62
               7
100
AcDbLine
 10
-403.82701368933886
 20
-528.83954434080988
 30
0.0
 11
-488.06877856480423
 21
-528.83954434080988
 31
0.0
  0
LINE
  5
1D3
100
AcDbEntity
  8
ADF70-1606
370
              15
390
0
  6
STYLE_01
 62
               7
100
AcDbLine
 10
-468.94789612706882
 20
-542.8590145854314
 30
0.0
 11
-422.94789612708701
 21
-542.8590145854314
 31
0.0
  0
LINE
  5
1D4
100
AcDbEntity
  8
ADF70-1606
370
              15
390
0
  6
STYLE_01
 62
               7
100
AcDbLine
 10
-422.94789612708701
 20
-553.22242484590788
 30
0.0
 11
-469.0
 21
-553.22242484590788
 31
0.0
  0
ARC
  5
1D5
100
AcDbEntity
  8
ADF70-1606
370
              15
390
0
  6
STYLE_01
 62
               7
100
AcDbCircle
 10
-473.94789612706882
 20
-545.18068381017565
 30
0.0
 40
5.0
100
AcDbArc
 50
0.0
 51
49.814074834290977
  0
ARC
  5
1D6
100
AcDbEntity
  8
ADF70-1606
370
              15
390
0
  6
STYLE_01
 62
               7
100
AcDbCircle
 10
-491.04656351263748
 20
-542.51919334232025
 30
0.0
 40
13.999999999999755
100
AcDbArc
 50
49.814074834293812
 51
86.375741372463622
  0
CIRCLE
  5
1D7
100
AcDbEntity
  8
ADF70-1606
370
               5
390
0
  6
STYLE_01
 62
               7
100
AcDbCircle
 10
507.47341455754258
 20
528.76545896090738
 30
0.0
 40
23.043551013696288
  0
LINE
  5
1D8
100
AcDbEntity
  8
ADF70-1606
370
               5
390
0
  6
STYLE_01
 62
               7
100
AcDbLine
 10
182.47442747390232
 20
338.77536799841346
 30
0.0
 11
832.47442747390096
 21
338.77536799841346
 31
0.0
  0
LINE
  5
1D9
100
AcDbEntity
  8
ADF70-1606
370
               5
390
0
  6
STYLE_01
 62
               7
100
AcDbLine
 10
882.47442747390096
 20
388.77536799841164
 30
0.0
 11
882.47442747390096
 21
708.77536799841164
 31
0.0
  0
ARC
  5
1DA
100
AcDbEntity
  8
ADF70-1606
370
               5
390
0
  6
STYLE_01
 62
               7
100
AcDbCircle
 10
832.47442747390096
 20
708.77536799841164
 30
0.0
 40
50.0
100
AcDbArc
 50
0.0
 51
90.0
  0
ARC
  5
1DB
100
AcDbEntity
  8
ADF70-1606
370
               5
390
0
  6
STYLE_01
 62
               7
100
AcDbCircle
 10
832.47442747390096
 20
388.77536799841164
 30
0.0
 40
50.0
100
AcDbArc
 50
270.0
 51
0.0
  0
LINE
  5
1DC
100
AcDbEntity
  8
ADF70-1606
370
               5
390
0
  6
STYLE_01
 62
               7
100
AcDbLine
 10
832.47442747390096
 20
758.77536799841164
 30
0.0
 11
182.47442747390232
 21
758.77536799841164
 31
0.0
  0
ARC
  5
1DD
100
AcDbEntity
  8
ADF70-1606
370
               5
390
0
  6
STYLE_01
 62
               7
100
AcDbCircle
 10
182.47442747390232
 20
708.77536799841164
 30
0.0
 40
50.0
100
AcDbArc
 50
90.0
 51
180.0
  0
LINE
  5
1DE
100
AcDbEntity
  8
ADF70-1606
370
               5
390
0
  6
STYLE_01
 62
               7
100
AcDbLine
 10
132.47442747390232
 20
708.77536799841164
 30
0.0
 11
132.47442747390232
 21
388.77536799841164
 31
0.0
  0
ARC
  5
1DF
100
AcDbEntity
  8
ADF70-1606
370
               5
390
0
  6
STYLE_01
 62
               7
100
AcDbCircle
 10
182.47442747390232
 20
388.77536799841164
 30
0.0
 40
50.0
100
AcDbArc
 50
180.0
 51
270.0
  0
CIRCLE
  5
1E0
100
AcDbEntity
  8
ADF70-1606
370
               5
390
0
  6
STYLE_01
 62
               7
100
AcDbCircle
 10
507.47341455754258
 20
715.86353207473894
 30
0.0
 40
17.5
  0
CIRCLE
  5
1E1
100
AcDbEntity
  8
ADF70-1606
370
               5
390
0
  6
STYLE_01
 62
               7
100
AcDbCircle
 10
607.47341455754258
 20
715.86353207473894
 30
0.0
 40
15.0
  0
CIRCLE
  5
1E2
100
AcDbEntity
  8
ADF70-1606
370
               5
390
0
  6
STYLE_01
 62
               7
100
AcDbCircle
 10
407.47341455754258
 20
715.86353207473894
 30
0.0
 40
15.0
  0
POLYLINE
  5
1E3
100
AcDbEntity
  8
ADF70-1606
370
              15
390
0
  6
Continuous
 62
               7
100
AcDb2dPolyline
 66
               1
 10
0.0
 20
0.0
 30
0.0
 70
               1
 75
               5
  0
VERTEX
  5
1E4
100
AcDbEntity
  8
ADF70-1606
370
              15
390
0
  6
Continuous
 62
               7
100
AcDbVertex
100
AcDb2dVertex
 10
382.46700418220416
 20
738.77536799841164
 30
0.0
  0
VERTEX
  5
1E5
100
AcDbEntity
  8
ADF70-1606
370
              15
390
0
  6
Continuous
 62
               7
100
AcDbVertex
100
AcDb2dVertex
 10
632.46700418220416
 20
738.77536799841164
 30
0.0
  0
VERTEX
  5
1E6
100
AcDbEntity
  8
ADF70-1606
370
              15
390
0
  6
Continuous
 62
               7
100
AcDbVertex
100
AcDb2dVertex
 10
632.46700418220416
 20
478.77536799841164
 30
0.0
  0
VERTEX
  5
1E7
100
AcDbEntity
  8
ADF70-1606
370
              15
390
0
  6
Continuous
 62
               7
100
AcDbVertex
100
AcDb2dVertex
 10
382.46700418220416
 20
478.77536799841164
 30
0.0
  0
SEQEND
  5
1E8
100
AcDbEntity
  8
ADF70-1606
370
              15
390
0
  6
Continuous
 62
               7
  0
LINE
  5
1E9
100
AcDbEntity
  8
ADF70-1606
370
              15
390
0
  6
STYLE_01
 62
               7
100
AcDbLine
 10
-761.04309851264316
 20
-514.8191406191545
 30
0.0
 11
-490.161580513849
 21
-528.54719258752993
 31
0.0
  0
LINE
  5
1EA
100
AcDbEntity
  8
ADF70-1606
370
              15
390
0
  6
STYLE_01
 62
               7
100
AcDbLine
 10
-778.25636609769481
 20
-463.89035891948242
 30
0.0
 11
-770.99912712375499
 21
-505.04820637301327
 31
0.0
  0
LINE
  5
1EB
100
AcDbEntity
  8
ADF70-1606
370
              15
390
0
  6
STYLE_01
 62
               7
100
AcDbLine
 10
-482.01278295157499
 20
-531.82382945068184
 30
0.0
 11
-470.72154592668903
 21
-541.36091099173245
 31
0.0
  0
LINE
  5
1EC
100
AcDbEntity
  8
ADF70-1606
370
              15
390
0
  6
STYLE_01
 62
               7
100
AcDbLine
 10
-409.88300930258174
 20
-531.82382945068093
 30
0.0
 11
-421.1742463274677
 21
-541.36091099173609
 31
0.0
  0
ARC
  5
1ED
100
AcDbEntity
  8
ADF70-1606
370
              15
390
0
  6
STYLE_01
 62
               7
100
AcDbCircle
 10
-786.13482812179336
 20
-465.2795443408113
 30
0.0
 40
7.9999999999997344
100
AcDbArc
 50
9.999999999952573
 51
90.0
  0
POLYLINE
  5
1EE
100
AcDbEntity
  8
ADF70-1606
370
              15
390
0
  6
Continuous
 62
               7
100
AcDb3dPolyline
 66
               1
 10
0.0
 20
0.0
 30
0.0
 70
               8
  0
VERTEX
  5
1EF
100
AcDbEntity
  8
ADF70-1606
370
              15
390
0
  6
Continuous
 62
               7
100
AcDbVertex
100
AcDb3dPolylineVertex
 10
-770.99912712375499
 20
-505.04820637301327
 30
-0.0000000033884014
 70
              32
  0
VERTEX
  5
1F0
100
AcDbEntity
  8
ADF70-1606
370
              15
390
0
  6
Continuous
 62
               7
100
AcDbVertex
100
AcDb3dPolylineVertex
 10
-770.53551663802318
 20
-506.84834500612942
 30
-0.00000000248524
 70
              32
  0
VERTEX
  5
1F1
100
AcDbEntity
  8
ADF70-1606
370
              15
390
0
  6
Continuous
 62
               7
100
AcDbVertex
100
AcDb3dPolylineVertex
 10
-769.79945281620712
 20
-508.55528490874258
 30
-0.0000000016561753
 70
              32
  0
VERTEX
  5
1F2
100
AcDbEntity
  8
ADF70-1606
370
              15
390
0
  6
Continuous
 62
               7
100
AcDbVertex
100
AcDb3dPolylineVertex
 10
-768.80859829577184
 20
-510.12806623500819
 30
-0.0000000009211014
 70
              32
  0
VERTEX
  5
1F3
100
AcDbEntity
  8
ADF70-1606
370
              15
390
0
  6
Continuous
 62
               7
100
AcDbVertex
100
AcDb3dPolylineVertex
 10
-767.58672968909104
 20
-511.52894841739453
 30
-0.0000000002976573
 70
              32
  0
VERTEX
  5
1F4
100
AcDbEntity
  8
ADF70-1606
370
              15
390
0
  6
Continuous
 62
               7
100
AcDbVertex
100
AcDb3dPolylineVertex
 10
-766.16316703824396
 20
-512.72431579189924
 30
0.0000000001991968
 70
              32
  0
VERTEX
  5
1F5
100
AcDbEntity
  8
ADF70-1606
370
              15
390
0
  6
Continuous
 62
               7
100
AcDbVertex
100
AcDb3dPolylineVertex
 10
-764.57207024929266
 20
-513.68548424181154
 30
0.0000000005575384
 70
              32
  0
VERTEX
  5
1F6
100
AcDbEntity
  8
ADF70-1606
370
              15
390
0
  6
Continuous
 62
               7
100
AcDbVertex
100
AcDb3dPolylineVertex
 10
-762.85161938885722
 20
-514.38938950372267
 30
0.0000000007687687
 70
              32
  0
VERTEX
  5
1F7
100
AcDbEntity
  8
ADF70-1606
370
              15
390
0
  6
Continuous
 62
               7
100
AcDbVertex
100
AcDb3dPolylineVertex
 10
-761.04309851264316
 20
-514.8191406191545
 30
0.000000000827819
 70
              32
  0
SEQEND
  5
1F8
100
AcDbEntity
  8
ADF70-1606
370
              15
390
0
  6
Continuous
 62
               7
  0
LINE
  5
1F9
100
AcDbEntity
  8
ADF70-1606
370
              15
390
0
  6
STYLE_01
 62
               7
100
AcDbLine
 10
-130.85269374151267
 20
-514.8191406191545
 30
0.0
 11
-401.73421174030682
 21
-528.54719258752993
 31
0.0
  0
LINE
  5
1FA
100
AcDbEntity
  8
ADF70-1606
370
              15
390
0
  6
STYLE_01
 62
               7
100
AcDbLine
 10
-113.63942615646101
 20
-463.89035891948242
 30
0.0
 11
-120.89666513040083
 21
-505.04820637301327
 31
0.0
  0
ARC
  5
1FB
100
AcDbEntity
  8
ADF70-1606
370
              15
390
0
  6
STYLE_01
 62
               7
100
AcDbCircle
 10
-105.76096413236246
 20
-465.2795443408113
 30
0.0
 40
8.0
100
AcDbArc
 50
90.0
 51
170.00000000004744
  0
POLYLINE
  5
1FC
100
AcDbEntity
  8
ADF70-1606
370
              15
390
0
  6
Continuous
 62
               7
100
AcDb3dPolyline
 66
               1
 10
0.0
 20
0.0
 30
0.0
 70
               8
  0
VERTEX
  5
1FD
100
AcDbEntity
  8
ADF70-1606
370
              15
390
0
  6
Continuous
 62
               7
100
AcDbVertex
100
AcDb3dPolylineVertex
 10
-120.89666513040083
 20
-505.04820637301327
 30
-0.0000000033884014
 70
              32
  0
VERTEX
  5
1FE
100
AcDbEntity
  8
ADF70-1606
370
              15
390
0
  6
Continuous
 62
               7
100
AcDbVertex
100
AcDb3dPolylineVertex
 10
-121.36027561613264
 20
-506.84834500612942
 30
-0.00000000248524
 70
              32
  0
VERTEX
  5
1FF
100
AcDbEntity
  8
ADF70-1606
370
              15
390
0
  6
Continuous
 62
               7
100
AcDbVertex
100
AcDb3dPolylineVertex
 10
-122.0963394379487
 20
-508.55528490874258
 30
-0.0000000016561753
 70
              32
  0
VERTEX
  5
200
100
AcDbEntity
  8
ADF70-1606
370
              15
390
0
  6
Continuous
 62
               7
100
AcDbVertex
100
AcDb3dPolylineVertex
 10
-123.08719395838398
 20
-510.12806623500819
 30
-0.0000000009211014
 70
              32
  0
VERTEX
  5
201
100
AcDbEntity
  8
ADF70-1606
370
              15
390
0
  6
Continuous
 62
               7
100
AcDbVertex
100
AcDb3dPolylineVertex
 10
-124.30906256506478
 20
-511.52894841739453
 30
-0.0000000002976573
 70
              32
  0
VERTEX
  5
202
100
AcDbEntity
  8
ADF70-1606
370
              15
390
0
  6
Continuous
 62
               7
100
AcDbVertex
100
AcDb3dPolylineVertex
 10
-125.73262521591187
 20
-512.72431579189924
 30
0.0000000001991968
 70
              32
  0
VERTEX
  5
203
100
AcDbEntity
  8
ADF70-1606
370
              15
390
0
  6
Continuous
 62
               7
100
AcDbVertex
100
AcDb3dPolylineVertex
 10
-127.32372200486316
 20
-513.68548424181154
 30
0.0000000005575384
 70
              32
  0
VERTEX
  5
204
100
AcDbEntity
  8
ADF70-1606
370
              15
390
0
  6
Continuous
 62
               7
100
AcDbVertex
100
AcDb3dPolylineVertex
 10
-129.04417286529861
 20
-514.38938950372267
 30
0.0000000007687687
 70
              32
  0
VERTEX
  5
205
100
AcDbEntity
  8
ADF70-1606
370
              15
390
0
  6
Continuous
 62
               7
100
AcDbVertex
100
AcDb3dPolylineVertex
 10
-130.85269374151267
 20
-514.8191406191545
 30
0.000000000827819
 70
              32
  0
SEQEND
  5
206
100
AcDbEntity
  8
ADF70-1606
370
              15
390
0
  6
Continuous
 62
               7
  0
LINE
  5
207
100
AcDbEntity
  8
ADF70-1606
370
              15
390
0
  6
STYLE_01
 62
               7
100
AcDbLine
 10
352.36893016777185
 20
-463.33323942457355
 30
0.0
 11
359.62941299151362
 21
-504.50948366452849
 31
0.0
  0
LINE
  5
208
100
AcDbEntity
  8
ADF70-1606
370
              15
390
0
  6
STYLE_01
 62
               7
100
AcDbLine
 10
369.58544160262545
 20
-514.28041791066971
 30
0.0
 11
456.88582549574721
 21
-527.99007309262834
 31
0.0
  0
LINE
  5
209
100
AcDbEntity
  8
ADF70-1606
370
              15
390
0
  6
STYLE_01
 62
               7
100
AcDbLine
 10
545.3131942692894
 20
-527.99007309262834
 30
0.0
 11
632.73072527480826
 21
-514.2620211242529
 31
0.0
  0
LINE
  5
20A
100
AcDbEntity
  8
ADF70-1606
370
              15
390
0
  6
STYLE_01
 62
               7
100
AcDbLine
 10
642.6867538859201
 20
-504.49108687811167
 30
0.0
 11
649.94399285985992
 21
-463.33323942458082
 31
0.0
  0
LINE
  5
20B
100
AcDbEntity
  8
ADF70-1606
370
              15
390
0
  6
Continuous
 62
               7
100
AcDbLine
 10
673.42915105929615
 20
-456.72242484590879
 30
0.0
 11
673.42915105929615
 21
-471.72242484590879
 31
0.0
  0
LINE
  5
20C
100
AcDbEntity
  8
ADF70-1606
370
              15
390
0
  6
Continuous
 62
               7
100
AcDbLine
 10
317.21505669894714
 20
-456.72242484590879
 30
0.0
 11
725.00377456219167
 21
-456.72242484590606
 31
0.0
  0
LINE
  5
20D
100
AcDbEntity
  8
ADF70-1606
370
               5
390
0
  6
STYLE_01
 62
               7
100
AcDbLine
 10
478.0995098825274
 20
-544.62356431527678
 30
0.0
 11
478.0995098825274
 21
-553.22242484590788
 31
0.0
  0
LINE
  5
20E
100
AcDbEntity
  8
ADF70-1606
370
               5
390
0
  6
Continuous
 62
               7
100
AcDbLine
 10
355.99962200551136
 20
-558.22242484590788
 30
0.0
 11
625.19939775952253
 21
-558.22242484590788
 31
0.0
  0
LINE
  5
20F
100
AcDbEntity
  8
ADF70-1606
370
               5
390
0
  6
STYLE_01
 62
               7
100
AcDbLine
 10
524.09950988250921
 20
-544.62356431527405
 30
0.0
 11
524.09950988250921
 21
-553.22242484590788
 31
0.0
  0
LINE
  5
210
100
AcDbEntity
  8
ADF70-1606
370
               5
390
0
  6
STYLE_01
 62
               7
100
AcDbLine
 10
-468.94789612706882
 20
-545.18068381017565
 30
0.0
 11
-468.94789612706882
 21
-553.22242484590788
 31
0.0
  0
LINE
  5
211
100
AcDbEntity
  8
ADF70-1606
370
               5
390
0
  6
Continuous
 62
               7
100
AcDbLine
 10
-422.94789612708792
 20
-545.18068381017838
 30
0.0
 11
-422.94789612708701
 21
-553.22242484590788
 31
0.0
  0
ENDSEC
  0
SECTION
  2
OBJECTS
  0
DICTIONARY
  5
19
100
AcDbDictionary
280
               0
281
               1
  3
ACAD_GROUP
350
1A
  3
ACAD_MLINESTYLE
350
1B
  3
ACAD_LAYOUT
350
1E
  3
ACAD_PLOTSETTINGS
350
22
  3
ACAD_PLOTSTYLENAME
350
1F
  0
DICTIONARY
  5
1A
102
{ACAD_REACTORS
330
19
102
}
100
AcDbDictionary
280
               0
281
               1
  0
DICTIONARY
  5
1B
102
{ACAD_REACTORS
330
19
102
}
100
AcDbDictionary
280
               0
281
               1
  3
Standard
350
1C
  0
MLINESTYLE
  5
1C
102
{ACAD_REACTORS
330
1B
102
}
100
AcDbMlineStyle
  2
Standard
 70
               0
  3

 62
               0
 51
90.0
 52
90.0
 71
               2
 49
0.5
 62
             256
  6
ByLayer
 49
-0.5
 62
             256
  6
ByLayer
  0
ACDBDICTIONARYWDFLT
  5
1F
102
{ACAD_REACTORS
330
19
102
}
100
AcDbDictionary
281
               1
  3
Normal
350
1D
100
AcDbDictionaryWithDefault
340
1D
  0
ACDBPLACEHOLDER
  5
1D
102
{ACAD_REACTORS
330
1F
102
}
  0
LAYOUT
  5
20
102
{ACAD_REACTORS
330
1E
102
}
100
AcDbPlotSettings
  1

  2

  4

  6

 40
0.0
 41
0.0
 42
0.0
 43
0.0
 44
0.0
 45
0.0
 46
0.0
 47
0.0
 48
0.0
 49
0.0
140
0.0
141
0.0
142
1.0
143
1.0
 70
            1024
 72
               0
 73
               0
 74
               0
  7

 75
               0
147
1.0
148
0.0
149
0.0
100
AcDbLayout
  1
Model
 70
               0
 71
               0
 10
0.0
 20
0.0
 11
0.0
 21
0.0
 12
0.0
 22
0.0
 32
0.0
 14
0.0
 24
0.0
 34
0.0
 15
0.0
 25
0.0
 35
0.0
146
0.0
 13
0.0
 23
0.0
 33
0.0
 16
0.0
 26
0.0
 36
0.0
 17
0.0
 27
0.0
 37
0.0
 76
               0
330
A
331
0
345
0
346
0
  0
LAYOUT
  5
21
102
{ACAD_REACTORS
330
1E
102
}
100
AcDbPlotSettings
  1

  2

  4

  6

 40
0.0
 41
0.0
 42
0.0
 43
0.0
 44
0.0
 45
0.0
 46
0.0
 47
0.0
 48
0.0
 49
0.0
140
0.0
141
0.0
142
1.0
143
1.0
 70
               0
 72
               0
 73
               0
 74
               0
  7

 75
               0
147
1.0
148
0.0
149
0.0
100
AcDbLayout
  1
Layout1
 70
               0
 71
               0
 10
0.0
 20
0.0
 11
0.0
 21
0.0
 12
0.0
 22
0.0
 32
0.0
 14
0.0
 24
0.0
 34
0.0
 15
0.0
 25
0.0
 35
0.0
146
0.0
 13
0.0
 23
0.0
 33
0.0
 16
0.0
 26
0.0
 36
0.0
 17
0.0
 27
0.0
 37
0.0
 76
               0
330
B
331
0
345
0
346
0
  0
DICTIONARY
  5
1E
102
{ACAD_REACTORS
330
19
102
}
100
AcDbDictionary
280
               0
281
               1
  3
Layout1
350
21
  3
Model
350
20
  0
DICTIONARY
  5
22
102
{ACAD_REACTORS
330
19
102
}
100
AcDbDictionary
280
               0
281
               1
  0
ENDSEC
  0
EOF
