  0
SECTION
  2
HEADER
  9
$ACADVER
  1
AC1015
  9
$ACADMAINTVER
 70
               6
  9
$DWGCODEPAGE
  3
ANSI_932
  9
$INSBASE
 10
0.0
 20
0.0
 30
0.0
  9
$EXTMIN
 10
-975.00000000024102
 20
-1431.5255224711136
 30
-14.834305555555556
  9
$EXTMAX
 10
975.00000000024102
 20
1405.9972926412995
 30
14.834305555555556
  9
$LIMMIN
 10
0.0
 20
0.0
  9
$LIMMAX
 10
0.0
 20
0.0
  9
$ORTHOMODE
 70
               0
  9
$REGENMODE
 70
               1
  9
$FILLMODE
 70
               1
  9
$QTEXTMODE
 70
               0
  9
$MIRRTEXT
 70
               1
  9
$LTSCALE
 40
50.799999999999997
  9
$ATTMODE
 70
               1
  9
$TEXTSIZE
 40
0.2
  9
$TRACEWID
 40
1.0
  9
$TEXTSTYLE
  7
Standard
  9
$CLAYER
  8
notes
  9
$CELTYPE
  6
Continuous
  9
$CECOLOR
 62
             256
  9
$CELTSCALE
 40
1.0
  9
$DISPSILH
 70
               0
  9
$DIMSCALE
 40
1.0
  9
$DIMASZ
 40
22.4482421875
  9
$DIMEXO
 40
15.875
  9
$DIMDLI
 40
10.16
  9
$DIMRND
 40
0.0
  9
$DIMDLE
 40
1.5874999999999999
  9
$DIMEXE
 40
31.75
  9
$DIMTP
 40
0.0
  9
$DIMTM
 40
0.0
  9
$DIMTXT
 40
24.432617187500004
  9
$DIMCEN
 40
0.0
  9
$DIMTSZ
 40
0.0
  9
$DIMTOL
 70
               0
  9
$DIMLIM
 70
               0
  9
$DIMTIH
 70
               0
  9
$DIMTOH
 70
               0
  9
$DIMSE1
 70
               0
  9
$DIMSE2
 70
               0
  9
$DIMTAD
 70
               1
  9
$DIMZIN
 70
              11
  9
$DIMBLK
  1
VW_SLASH
  9
$DIMASO
 70
               1
  9
$DIMSHO
 70
               1
  9
$DIMPOST
  1
<>
  9
$DIMAPOST
  1
[]
  9
$DIMALT
 70
               0
  9
$DIMALTD
 70
               1
  9
$DIMALTF
 40
1.0
  9
$DIMLFAC
 40
1.0
  9
$DIMTOFL
 70
               1
  9
$DIMTVP
 40
0.0
  9
$DIMTIX
 70
               1
  9
$DIMSOXD
 70
               0
  9
$DIMSAH
 70
               0
  9
$DIMBLK1
  1

  9
$DIMBLK2
  1

  9
$DIMSTYLE
  2
Arch
  9
$DIMCLRD
 70
               0
  9
$DIMCLRE
 70
               0
  9
$DIMCLRT
 70
               0
  9
$DIMTFAC
 40
1.0
  9
$DIMGAP
 40
1.5874999999999999
  9
$DIMJUST
 70
               0
  9
$DIMSD1
 70
               0
  9
$DIMSD2
 70
               0
  9
$DIMTOLJ
 70
               1
  9
$DIMTZIN
 70
              11
  9
$DIMALTZ
 70
              11
  9
$DIMALTTZ
 70
              11
  9
$DIMUPT
 70
               0
  9
$DIMDEC
 70
               1
  9
$DIMTDEC
 70
               1
  9
$DIMALTU
 70
               2
  9
$DIMALTTD
 70
               2
  9
$DIMTXSTY
  7
ＭＳ ゴシック
  9
$DIMAUNIT
 70
               0
  9
$DIMADEC
 70
               2
  9
$DIMALTRND
 40
0.0
  9
$DIMAZIN
 70
               0
  9
$DIMDSEP
 70
              46
  9
$DIMATFIT
 70
               0
  9
$DIMFRAC
 70
               2
  9
$DIMLDRBLK
  1

  9
$DIMLUNIT
 70
               2
  9
$DIMLWD
 70
              -2
  9
$DIMLWE
 70
              -2
  9
$DIMTMOVE
 70
               0
  9
$LUNITS
 70
               2
  9
$LUPREC
 70
               4
  9
$SKETCHINC
 40
0.1
  9
$FILLETRAD
 40
0.0
  9
$AUNITS
 70
               0
  9
$AUPREC
 70
               0
  9
$MENU
  1
acad
  9
$ELEVATION
 40
0.0
  9
$PELEVATION
 40
0.0
  9
$THICKNESS
 40
0.0
  9
$LIMCHECK
 70
               0
  9
$CHAMFERA
 40
0.0
  9
$CHAMFERB
 40
0.0
  9
$CHAMFERC
 40
0.0
  9
$CHAMFERD
 40
0.0
  9
$SKPOLY
 70
               0
  9
$TDCREATE
 40
2456037.611817129
  9
$TDUCREATE
 40
0.000000000
  9
$TDUPDATE
 40
2456037.611817129
  9
$TDUUPDATE
 40
0.000000000
  9
$TDINDWG
 40
0.0000000000
  9
$TDUSRTIMER
 40
0.0000000000
  9
$USRTIMER
 70
               1
  9
$ANGBASE
 50
0.0
  9
$ANGDIR
 70
               0
  9
$PDMODE
 70
               1
  9
$PDSIZE
 40
-2.0
  9
$PLINEWID
 40
0.0
  9
$SPLFRAME
 70
               0
  9
$SPLINETYPE
 70
               6
  9
$SPLINESEGS
 70
               8
  9
$HANDSEED
  5
1D0
  9
$SURFTAB1
 70
               6
  9
$SURFTAB2
 70
               6
  9
$SURFTYPE
 70
               6
  9
$SURFU
 70
               6
  9
$SURFV
 70
               6
  9
$UCSBASE
  2

  9
$UCSNAME
  2

  9
$UCSORG
 10
0.0
 20
0.0
 30
0.0
  9
$UCSXDIR
 10
1.0
 20
0.0
 30
0.0
  9
$UCSYDIR
 10
0.0
 20
1.0
 30
0.0
  9
$UCSORTHOREF
  2

  9
$UCSORTHOVIEW
 70
               0
  9
$UCSORGTOP
 10
0.0
 20
0.0
 30
0.0
  9
$UCSORGBOTTOM
 10
0.0
 20
0.0
 30
0.0
  9
$UCSORGLEFT
 10
0.0
 20
0.0
 30
0.0
  9
$UCSORGRIGHT
 10
0.0
 20
0.0
 30
0.0
  9
$UCSORGFRONT
 10
0.0
 20
0.0
 30
0.0
  9
$UCSORGBACK
 10
0.0
 20
0.0
 30
0.0
  9
$PUCSBASE
  2

  9
$PUCSNAME
  2

  9
$PUCSORG
 10
0.0
 20
0.0
 30
0.0
  9
$PUCSXDIR
 10
1.0
 20
0.0
 30
0.0
  9
$PUCSYDIR
 10
0.0
 20
1.0
 30
0.0
  9
$PUCSORTHOREF
  2

  9
$PUCSORTHOVIEW
 70
               0
  9
$PUCSORGTOP
 10
0.0
 20
0.0
 30
0.0
  9
$PUCSORGBOTTOM
 10
0.0
 20
0.0
 30
0.0
  9
$PUCSORGLEFT
 10
0.0
 20
0.0
 30
0.0
  9
$PUCSORGRIGHT
 10
0.0
 20
0.0
 30
0.0
  9
$PUCSORGFRONT
 10
0.0
 20
0.0
 30
0.0
  9
$PUCSORGBACK
 10
0.0
 20
0.0
 30
0.0
  9
$USERI1
 70
               0
  9
$USERI2
 70
               0
  9
$USERI3
 70
               0
  9
$USERI4
 70
               0
  9
$USERI5
 70
               0
  9
$USERR1
 40
0.0
  9
$USERR2
 40
0.0
  9
$USERR3
 40
0.0
  9
$USERR4
 40
0.0
  9
$USERR5
 40
0.0
  9
$WORLDVIEW
 70
               1
  9
$SHADEDGE
 70
               3
  9
$SHADEDIF
 70
              70
  9
$TILEMODE
 70
               1
  9
$MAXACTVP
 70
              64
  9
$PINSBASE
 10
0.0
 20
0.0
 30
0.0
  9
$PLIMCHECK
 70
               0
  9
$PEXTMIN
 10
1.0000000000000000E+20
 20
1.0000000000000000E+20
 30
1.0000000000000000E+20
  9
$PEXTMAX
 10
-1.0000000000000000E+20
 20
-1.0000000000000000E+20
 30
-1.0000000000000000E+20
  9
$PLIMMIN
 10
0.0
 20
0.0
  9
$PLIMMAX
 10
12.0
 20
9.0
  9
$UNITMODE
 70
               0
  9
$VISRETAIN
 70
               0
  9
$PLINEGEN
 70
               1
  9
$PSLTSCALE
 70
               0
  9
$TREEDEPTH
 70
            3020
  9
$CMLSTYLE
  2
Standard
  9
$CMLJUST
 70
               0
  9
$CMLSCALE
 40
1.0
  9
$PROXYGRAPHICS
 70
               0
  9
$MEASUREMENT
 70
               1
  9
$CELWEIGHT
370
               0
  9
$ENDCAPS
280
               0
  9
$JOINSTYLE
280
               0
  9
$LWDISPLAY
290
               1
  9
$INSUNITS
 70
               4
  9
$HYPERLINKBASE
  1

  9
$STYLESHEET
  1

  9
$XEDIT
290
               1
  9
$CEPSNTYPE
380
               0
  9
$PSTYLEMODE
290
               1
  9
$FINGERPRINTGUID
  2

  9
$VERSIONGUID
  2

  9
$EXTNAMES
290
               1
  9
$PSVPSCALE
 40
0.0
  0
ENDSEC
  0
SECTION
  2
CLASSES
  0
CLASS
  1
LWPOLYLINE
  2
AcDbPolyline
  3
AutoCAD 2000
 90
        0
280
               0
281
               1
  0
CLASS
  1
IMAGE
  2
AcDbRasterImage
  3
ISM
 90
      127
280
               0
281
               1
  0
CLASS
  1
OLE2FRAME
  2
AcDbOle2Frame
  3
AutoCAD 2000
 90
        0
280
               0
281
               1
  0
CLASS
  1
HATCH
  2
AcDbHatch
  3
AutoCAD 2000
 90
        0
280
               0
281
               1
  0
CLASS
  1
DICTIONARYVAR
  2
AcDbDictionaryVar
  3
AutoCAD 2000
 90
        0
280
               0
281
               0
  0
CLASS
  1
RASTERVARIABLES
  2
AcDbRasterVariables
  3
ISM
 90
        0
280
               0
281
               0
  0
CLASS
  1
IMAGEDEF
  2
AcDbRasterImageDef
  3
ISM
 90
        0
280
               0
281
               0
  0
CLASS
  1
IMAGEDEF_REACTOR
  2
AcDbRasterImageDefReactor
  3
ISM
 90
        1
280
               0
281
               0
  0
CLASS
  1
IDBUFFER
  2
AcDbIdBuffer
  3
AutoCAD 2000
 90
        0
280
               0
281
               0
  0
CLASS
  1
SPATIAL_FILTER
  2
AcDbSpatialFilter
  3
AutoCAD 2000
 90
        0
280
               0
281
               0
  0
CLASS
  1
XRECORD
  2
AcDbXrecord
  3
AutoCAD 2000
 90
        0
280
               0
281
               0
  0
CLASS
  1
SORTENTSTABLE
  2
AcDbSortentsTable
  3
AutoCAD 2000
 90
        0
280
               0
281
               0
  0
CLASS
  1
LAYER_INDEX
  2
AcDbLayerIndex
  3
AutoCAD 2000
 90
        0
280
               0
281
               0
  0
CLASS
  1
SPATIAL_INDEX
  2
AcDbSpatialIndex
  3
AutoCAD 2000
 90
        0
280
               0
281
               0
  0
CLASS
  1
OBJECT_PTR
  2
CAseDLPNTableRecord
  3
"ASE-LPNTableRecord"
 90
        1
280
               0
281
               0
  0
CLASS
  1
LAYOUT
  2
AcDbLayout
  3
AutoCAD 2000
 90
        0
280
               0
281
               0
  0
CLASS
  1
PLOTSETTINGS
  2
AcDbPlotSettings
  3
AutoCAD 2000
 90
        0
280
               0
281
               0
  0
CLASS
  1
ACDBDICTIONARYWDFLT
  2
AcDbDictionaryWithDefault
  3
AutoCAD 2000
 90
        0
280
               0
281
               0
  0
CLASS
  1
ACDBPLACEHOLDER
  2
AcDbPlaceHolder
  3
AutoCAD 2000
 90
        0
280
               0
281
               0
  0
ENDSEC
  0
SECTION
  2
TABLES
  0
TABLE
  2
VPORT
  5
7
100
AcDbSymbolTable
 70
               1
  0
VPORT
  5
15
100
AcDbSymbolTableRecord
100
AcDbViewportTableRecord
  2
*ACTIVE
 70
               0
 10
0.0
 20
0.0
 11
1.0
 21
1.0
 12
0.0
 22
-12.764114914907168
 13
0.0
 23
0.0
 14
1.0
 24
1.0
 15
0.0
 25
0.0
 16
0.0
 26
0.0
 36
1.0
 17
0.0
 27
0.0
 37
0.0
 40
2837.5228151124129
 41
0.688564
 42
50.0
 43
0.0
 44
0.0
 50
0.0
 51
0.0
 71
               0
 72
            2000
 73
               1
 74
               1
 75
               0
 76
               0
 77
               0
 78
               0
281
               0
 65
               0
110
0.0
120
0.0
130
0.0
111
1.0
121
0.0
131
0.0
112
0.0
122
1.0
132
0.0
345
0
346
0
 79
               0
146
0.0
  0
ENDTAB
  0
TABLE
  2
LTYPE
  5
4
100
AcDbSymbolTable
 70
              15
  0
LTYPE
  5
11
100
AcDbSymbolTableRecord
100
AcDbLinetypeTableRecord
  2
ByBlock
 70
              64
  3

 72
              65
 73
               0
 40
0.0
  0
LTYPE
  5
12
100
AcDbSymbolTableRecord
100
AcDbLinetypeTableRecord
  2
ByLayer
 70
              64
  3

 72
              65
 73
               0
 40
0.0
  0
LTYPE
  5
13
100
AcDbSymbolTableRecord
100
AcDbLinetypeTableRecord
  2
Continuous
 70
              64
  3
Solid line
 72
              65
 73
               0
 40
0.0
  0
LTYPE
  5
35
100
AcDbSymbolTableRecord
100
AcDbLinetypeTableRecord
  2
STYLE_01
 70
               0
  3

 72
              65
 73
               2
 40
0.3749999999999999
 49
0.2499999999999999
 74
               0
 49
-0.125
 74
               0
  0
LTYPE
  5
36
100
AcDbSymbolTableRecord
100
AcDbLinetypeTableRecord
  2
STYLE_02
 70
               0
  3

 72
              65
 73
               2
 40
0.6944250000000001
 49
0.48607
 74
               0
 49
-0.2083550000000001
 74
               0
  0
LTYPE
  5
37
100
AcDbSymbolTableRecord
100
AcDbLinetypeTableRecord
  2
STYLE_03
 70
               0
  3

 72
              65
 73
               2
 40
1.25
 49
1.0416400000000001
 74
               0
 49
-0.2083599999999999
 74
               0
  0
LTYPE
  5
38
100
AcDbSymbolTableRecord
100
AcDbLinetypeTableRecord
  2
STYLE_04
 70
               0
  3

 72
              65
 73
               2
 40
1.5277099999999999
 49
1.3194249999999998
 74
               0
 49
-0.208285
 74
               0
  0
LTYPE
  5
39
100
AcDbSymbolTableRecord
100
AcDbLinetypeTableRecord
  2
STYLE_05
 70
               0
  3

 72
              65
 73
               2
 40
0.20828
 49
0.069425
 74
               0
 49
-0.138855
 74
               0
  0
LTYPE
  5
3A
100
AcDbSymbolTableRecord
100
AcDbLinetypeTableRecord
  2
STYLE_06
 70
               0
  3

 72
              65
 73
               4
 40
1.0416400000000001
 49
0.625
 74
               0
 49
-0.20828
 74
               0
 49
0.06943
 74
               0
 49
-0.13893
 74
               0
  0
LTYPE
  5
3B
100
AcDbSymbolTableRecord
100
AcDbLinetypeTableRecord
  2
STYLE_07
 70
               0
  3

 72
              65
 73
               6
 40
1.875
 49
0.625
 74
               0
 49
-0.20828
 74
               0
 49
0.6250000000000001
 74
               0
 49
-0.2083599999999999
 74
               0
 49
0.06943
 74
               0
 49
-0.1389299999999999
 74
               0
  0
LTYPE
  5
3C
100
AcDbSymbolTableRecord
100
AcDbLinetypeTableRecord
  2
STYLE_08
 70
               0
  3

 72
              65
 73
               6
 40
1.25
 49
0.625
 74
               0
 49
-0.20828
 74
               0
 49
0.06943
 74
               0
 49
-0.13893
 74
               0
 49
0.0694299999999999
 74
               0
 49
-0.13893
 74
               0
  0
LTYPE
  5
3D
100
AcDbSymbolTableRecord
100
AcDbLinetypeTableRecord
  2
STYLE_09
 70
               0
  3

 72
              65
 73
               4
 40
5.0
 49
3.75
 74
               0
 49
-0.2777849999999998
 74
               0
 49
0.6944300000000003
 74
               0
 49
-0.2777849999999998
 74
               0
  0
LTYPE
  5
3E
100
AcDbSymbolTableRecord
100
AcDbLinetypeTableRecord
  2
STYLE_10
 70
               0
  3

 72
              65
 73
               6
 40
5.9375
 49
3.75
 74
               0
 49
-0.2777849999999998
 74
               0
 49
0.6944300000000003
 74
               0
 49
-0.2777849999999998
 74
               0
 49
0.625
 74
               0
 49
-0.3125
 74
               0
  0
LTYPE
  5
3F
100
AcDbSymbolTableRecord
100
AcDbLinetypeTableRecord
  2
STYLE_11
 70
               0
  3

 72
              65
 73
               2
 40
0.0694444881889764
 49
0.0347222440944882
 74
               0
 49
-0.0347222440944882
 74
               0
  0
LTYPE
  5
40
100
AcDbSymbolTableRecord
100
AcDbLinetypeTableRecord
  2
STYLE_12
 70
               0
  3

 72
              65
 73
               2
 40
0.3937007874015748
 49
0.1968503937007874
 74
               0
 49
-0.1968503937007874
 74
               0
  0
ENDTAB
  0
TABLE
  2
LAYER
  5
2
100
AcDbSymbolTable
 70
               5
  0
LAYER
  5
14
100
AcDbSymbolTableRecord
100
AcDbLayerTableRecord
  2
0
 70
               0
 62
               7
  6
Continuous
290
               1
370
              -3
390
1D
  0
LAYER
  5
41
100
AcDbSymbolTableRecord
100
AcDbLayerTableRecord
  2
Defpoints
 70
               0
 62
               7
  6
Continuous
290
               0
370
              -3
390
1D
  0
LAYER
  5
42
100
AcDbSymbolTableRecord
100
AcDbLayerTableRecord
  2
template
 70
               0
 62
               7
  6
Continuous
290
               1
370
              -3
390
1D
  0
LAYER
  5
43
100
AcDbSymbolTableRecord
100
AcDbLayerTableRecord
  2
notes
 70
               0
 62
               7
  6
Continuous
290
               1
370
              -3
390
1D
  0
LAYER
  5
44
100
AcDbSymbolTableRecord
100
AcDbLayerTableRecord
  2
ADF70-1607
 70
               0
 62
               7
  6
Continuous
290
               1
370
              -3
390
1D
  0
ENDTAB
  0
TABLE
  2
STYLE
  5
3
100
AcDbSymbolTable
 70
               2
  0
STYLE
  5
17
100
AcDbSymbolTableRecord
100
AcDbTextStyleTableRecord
  2
Standard
 70
               0
 40
0.0
 41
1.0
 50
0.0
 71
               0
 42
0.0
  3
txt
  4
BIGFONT.SHX
  0
STYLE
  5
34
100
AcDbSymbolTableRecord
100
AcDbTextStyleTableRecord
  2
ＭＳ ゴシック
 70
               0
 40
0.0
 41
1.0
 50
0.0
 71
               0
 42
0.0
  3

  4
ＭＳ ゴシック
1001
ACAD
1000
ＭＳ ゴシック
1071
        0
  0
ENDTAB
  0
TABLE
  2
VIEW
  5
5
100
AcDbSymbolTable
 70
               0
  0
ENDTAB
  0
TABLE
  2
UCS
  5
6
100
AcDbSymbolTable
 70
               0
  0
ENDTAB
  0
TABLE
  2
APPID
  5
8
100
AcDbSymbolTable
 70
               1
  0
APPID
  5
16
100
AcDbSymbolTableRecord
100
AcDbRegAppTableRecord
  2
ACAD
 70
               0
  0
ENDTAB
  0
TABLE
  2
DIMSTYLE
  5
9
100
AcDbSymbolTable
 70
               3
100
AcDbDimStyleTable
 71
               0
  0
DIMSTYLE
105
18
100
AcDbSymbolTableRecord
100
AcDbDimStyleTableRecord
  2
Standard
 70
               0
  3

  4

 40
1.0
 41
0.18
 42
0.0625
 43
0.38
 44
0.18
 45
0.0
 46
0.0
 47
0.0
 48
0.0
 71
               0
 72
               0
 73
               1
 74
               1
 75
               0
 76
               0
 77
               0
 78
               0
 79
               0
140
0.18
141
0.09
142
0.0
143
25.399999999999999
144
1.0
145
0.0
146
1.0
147
0.09
148
0.0
170
               0
171
               2
172
               0
173
               0
174
               0
175
               0
176
               0
177
               0
178
               0
179
               0
271
               4
272
               4
273
               2
274
               2
275
               0
276
               0
277
               2
278
              46
279
               0
280
               0
281
               0
282
               0
283
               1
284
               0
285
               0
286
               0
288
               0
289
               3
340
17
341
0
342
0
343
0
344
0
371
              -2
372
              -2
  0
DIMSTYLE
105
4D
100
AcDbSymbolTableRecord
100
AcDbDimStyleTableRecord
  2
Tform
 70
               0
  3
<>
  4
[]
 40
1.0
 41
9.9993896484374982
 42
24.999999999999996
 43
0.9999999999999999
 44
0.0
 45
0.0
 46
0.0
 47
0.0
 48
0.0
 71
               0
 72
               0
 73
               0
 74
               0
 75
               0
 76
               0
 77
               1
 78
              11
 79
               0
140
24.432617187500004
141
0.0
142
0.0
143
1.0
144
1.0
145
0.0
146
0.8
147
0.4999999999999999
148
0.0
170
               0
171
               1
172
               1
173
               0
174
               1
175
               0
176
               0
177
               0
178
               0
179
               2
271
               1
272
               1
273
               2
274
               2
275
               0
276
               2
277
               2
278
              46
279
               0
280
               0
281
               0
282
               0
283
               1
284
              11
285
              11
286
              11
288
               0
289
               0
340
34
341
45
342
45
343
0
344
0
371
              -2
372
              -2
  0
DIMSTYLE
105
57
100
AcDbSymbolTableRecord
100
AcDbDimStyleTableRecord
  2
Arch
 70
               0
  3
<>
  4
[]
 40
1.0
 41
22.4482421875
 42
15.875
 43
10.16
 44
31.75
 45
0.0
 46
1.5874999999999999
 47
0.0
 48
0.0
 71
               0
 72
               0
 73
               0
 74
               0
 75
               0
 76
               0
 77
               1
 78
              11
 79
               0
140
24.432617187500004
141
0.0
142
0.0
143
1.0
144
1.0
145
0.0
146
1.0
147
1.5874999999999999
148
0.0
170
               0
171
               1
172
               1
173
               0
174
               1
175
               0
176
               0
177
               0
178
               0
179
               2
271
               1
272
               1
273
               2
274
               2
275
               0
276
               2
277
               2
278
              46
279
               0
280
               0
281
               0
282
               0
283
               1
284
              11
285
              11
286
              11
288
               0
289
               0
340
34
341
53
342
4E
343
0
344
0
371
              -2
372
              -2
  0
ENDTAB
  0
TABLE
  2
BLOCK_RECORD
  5
1
100
AcDbSymbolTable
 70
              20
  0
BLOCK_RECORD
  5
A
100
AcDbSymbolTableRecord
100
AcDbBlockTableRecord
  2
*MODEL_SPACE
340
20
  0
BLOCK_RECORD
  5
B
100
AcDbSymbolTableRecord
100
AcDbBlockTableRecord
  2
*PAPER_SPACE
340
21
  0
BLOCK_RECORD
  5
45
100
AcDbSymbolTableRecord
100
AcDbBlockTableRecord
  2
_DOT
340
0
  0
BLOCK_RECORD
  5
4E
100
AcDbSymbolTableRecord
100
AcDbBlockTableRecord
  2
VW_SLASH
340
0
  0
BLOCK_RECORD
  5
53
100
AcDbSymbolTableRecord
100
AcDbBlockTableRecord
  2
VW_FILLEDARROW
340
0
  0
BLOCK_RECORD
  5
23
100
AcDbSymbolTableRecord
100
AcDbBlockTableRecord
  2
グループ
340
0
102
{BLKREFS
331
12B
102
}
  0
BLOCK_RECORD
  5
24
100
AcDbSymbolTableRecord
100
AcDbBlockTableRecord
  2
*D4
340
0
  0
BLOCK_RECORD
  5
25
100
AcDbSymbolTableRecord
100
AcDbBlockTableRecord
  2
*D5
340
0
  0
BLOCK_RECORD
  5
26
100
AcDbSymbolTableRecord
100
AcDbBlockTableRecord
  2
*D6
340
0
  0
BLOCK_RECORD
  5
27
100
AcDbSymbolTableRecord
100
AcDbBlockTableRecord
  2
*D7
340
0
  0
BLOCK_RECORD
  5
28
100
AcDbSymbolTableRecord
100
AcDbBlockTableRecord
  2
*D8
340
0
  0
BLOCK_RECORD
  5
29
100
AcDbSymbolTableRecord
100
AcDbBlockTableRecord
  2
*D9
340
0
  0
BLOCK_RECORD
  5
2A
100
AcDbSymbolTableRecord
100
AcDbBlockTableRecord
  2
*D10
340
0
  0
BLOCK_RECORD
  5
2B
100
AcDbSymbolTableRecord
100
AcDbBlockTableRecord
  2
*D11
340
0
  0
BLOCK_RECORD
  5
2C
100
AcDbSymbolTableRecord
100
AcDbBlockTableRecord
  2
*D12
340
0
  0
BLOCK_RECORD
  5
2D
100
AcDbSymbolTableRecord
100
AcDbBlockTableRecord
  2
*D13
340
0
  0
BLOCK_RECORD
  5
2E
100
AcDbSymbolTableRecord
100
AcDbBlockTableRecord
  2
*D14
340
0
  0
BLOCK_RECORD
  5
2F
100
AcDbSymbolTableRecord
100
AcDbBlockTableRecord
  2
*D15
340
0
  0
BLOCK_RECORD
  5
30
100
AcDbSymbolTableRecord
100
AcDbBlockTableRecord
  2
*D16
340
0
  0
BLOCK_RECORD
  5
31
100
AcDbSymbolTableRecord
100
AcDbBlockTableRecord
  2
*D17
340
0
  0
BLOCK_RECORD
  5
32
100
AcDbSymbolTableRecord
100
AcDbBlockTableRecord
  2
グループ-1
340
0
102
{BLKREFS
331
1C2
102
}
  0
BLOCK_RECORD
  5
33
100
AcDbSymbolTableRecord
100
AcDbBlockTableRecord
  2
グループ-2
340
0
102
{BLKREFS
331
1C3
102
}
  0
ENDTAB
  0
ENDSEC
  0
SECTION
  2
BLOCKS
  0
BLOCK
  5
D
100
AcDbEntity
  8
0
390
0
100
AcDbBlockBegin
  2
*MODEL_SPACE
 70
               0
 10
0.0
 20
0.0
 30
0.0
  3
*MODEL_SPACE
  1

  0
ENDBLK
  5
E
100
AcDbEntity
  8
0
390
0
100
AcDbBlockEnd
  0
BLOCK
  5
F
100
AcDbEntity
 67
               1
  8
0
390
0
100
AcDbBlockBegin
  2
*PAPER_SPACE
 70
               0
 10
0.0
 20
0.0
 30
0.0
  3
*PAPER_SPACE
  1

  0
ENDBLK
  5
10
100
AcDbEntity
 67
               1
  8
0
390
0
100
AcDbBlockEnd
  0
BLOCK
  5
46
100
AcDbEntity
  8
0
390
0
100
AcDbBlockBegin
  2
_DOT
 70
               0
 10
0.0
 20
0.0
 30
0.0
  3
_DOT
  1

  0
POLYLINE
  5
47
100
AcDbEntity
  8
0
370
              -2
390
0
  6
ByBlock
 62
               0
100
AcDb2dPolyline
 66
               1
 10
0.0
 20
0.0
 30
0.0
 70
               1
 40
0.5
 41
0.5
  0
VERTEX
  5
48
100
AcDbEntity
  8
0
370
              -2
390
0
  6
ByBlock
 62
               0
100
AcDbVertex
100
AcDb2dVertex
 10
-0.25
 20
0.0
 30
0.0
 42
1.0
  0
VERTEX
  5
49
100
AcDbEntity
  8
0
370
              -2
390
0
  6
ByBlock
 62
               0
100
AcDbVertex
100
AcDb2dVertex
 10
0.25
 20
0.0
 30
0.0
 42
1.0
  0
SEQEND
  5
4A
100
AcDbEntity
  8
0
390
0
  0
LINE
  5
4B
100
AcDbEntity
  8
0
370
              -2
390
0
  6
ByBlock
 62
               0
100
AcDbLine
 10
-0.5
 20
0.0
 30
0.0
 11
-1.0
 21
0.0
 31
0.0
  0
ENDBLK
  5
4C
100
AcDbEntity
  8
0
390
0
100
AcDbBlockEnd
  0
BLOCK
  5
4F
100
AcDbEntity
  8
0
370
              -2
390
0
  6
ByBlock
 62
               0
100
AcDbBlockBegin
  2
VW_SLASH
 70
               0
 10
0.0
 20
0.0
 30
0.0
  3
VW_SLASH
  1

  0
LINE
  5
50
100
AcDbEntity
  8
0
370
              -2
390
0
  6
ByBlock
 62
               0
100
AcDbLine
 10
0.0
 20
0.0
 30
0.0
 11
-1.0
 21
0.0
 31
0.0
  0
LINE
  5
51
100
AcDbEntity
  8
0
370
              20
390
0
  6
ByBlock
 62
               0
100
AcDbLine
 10
-0.4987813153181721
 20
-0.4987813153181719
 30
0.0
 11
0.4987813153181721
 21
0.4987813153181719
 31
0.0
  0
ENDBLK
  5
52
100
AcDbEntity
  8
0
390
0
100
AcDbBlockEnd
  0
BLOCK
  5
54
100
AcDbEntity
  8
0
370
              -2
390
0
  6
ByBlock
 62
               0
100
AcDbBlockBegin
  2
VW_FILLEDARROW
 70
               0
 10
0.0
 20
0.0
 30
0.0
  3
VW_FILLEDARROW
  1

  0
SOLID
  5
55
100
AcDbEntity
  8
0
370
              -2
390
0
 62
               0
100
AcDbTrace
 10
0.0
 20
0.0
 30
0.0
 11
-1.4107666015625
 21
-0.3780137715974714
 31
0.0
 12
-1.4107666015625
 22
0.3780137715974717
 32
0.0
 13
-1.4107666015625
 23
0.3780137715974717
 33
0.0
  0
ENDBLK
  5
56
100
AcDbEntity
  8
0
390
0
100
AcDbBlockEnd
  0
BLOCK
  5
58
100
AcDbEntity
  8
template
390
0
100
AcDbBlockBegin
  2
グループ
 70
               0
 10
0.0
 20
0.0
 30
0.0
  3
グループ
  1

  0
LWPOLYLINE
  5
59
100
AcDbEntity
  8
0
370
              15
390
0
  6
Continuous
 62
               7
100
AcDbPolyline
 90
        8
 70
             129
 10
-3868.0739662390929
 20
-4231.0830009027459
 10
-3868.0739662390929
 20
-4237.0803895963218
 10
-3877.5751631570961
 20
-4237.0803895963218
 10
-3877.5751631570961
 20
-4261.5313528598308
 10
-3885.930540418879
 20
-4261.5313528598308
 10
-3885.930540418879
 20
-4237.0803895963218
 10
-3895.2634973651884
 20
-4237.0803895963218
 10
-3895.2634973651884
 20
-4231.0830009027459
  0
LWPOLYLINE
  5
5A
100
AcDbEntity
  8
0
370
              15
390
0
  6
Continuous
 62
               7
100
AcDbPolyline
 90
      101
 70
             128
 10
-3855.3456744085361
 20
-4231.8112493956824
 10
-3855.3303243797495
 20
-4231.8068886389965
 42
-0.0222221607797632
 10
-3855.0403198030799
 20
-4231.7382641737531
 10
-3855.0245260390839
 20
-4231.7352607506555
 42
-0.0146883565577218
 10
-3854.7618233338621
 20
-4231.6932575637065
 42
-0.0127458844188049
 10
-3854.4971843667054
 20
-4231.6657205956335
 10
-3854.4347292883963
 20
-4231.6608271730456
 42
-0.0198099018557334
 10
-3854.0438801789164
 20
-4231.6457420156485
 10
-3853.9920687094755
 20
-4231.6457957913135
 42
-0.0147617382768012
 10
-3853.4974452485044
 20
-4231.6609158165593
 10
-3853.4247537936135
 20
-4231.6652884234481
 42
-0.0162624549001905
 10
-3853.0346001641619
 20
-4231.7015212987189
 10
-3852.9130677729045
 20
-4231.7168078577151
 42
-0.0080020874662598
 10
-3852.7674887418116
 20
-4231.7374907049834
 10
-3852.7291692712515
 20
-4231.7435619827893
 42
-0.0053821929670981
 10
-3852.6606851659012
 20
-4231.7551695066168
 10
-3853.3870908650997
 20
-4233.9360979623307
 42
0.0108667757459282
 10
-3853.454407935274
 20
-4233.9229108471036
 10
-3853.4918759584207
 20
-4233.9164131045163
 42
0.0170663203320631
 10
-3853.6350927453486
 20
-4233.8965835072231
 10
-3853.7029680780188
 20
-4233.8895363366373
 42
0.0220162375292033
 10
-3853.9833474858742
 20
-4233.8728539758667
 10
-3854.0612030529278
 20
-4233.8716546086007
 42
0.0282606915793342
 10
-3854.3968393765044
 20
-4233.8854578855689
 10
-3854.4407526502787
 20
-4233.8897578755732
 42
0.016967721371426
 10
-3854.6866771452351
 20
-4233.9222949251252
 42
0.019057626987286
 10
-3854.9295851078168
 20
-4233.972441797232
 10
-3854.9358442959265
 20
-4233.9739847713408
 42
0.0213685642836415
 10
-3855.1862287804106
 20
-4234.0471850564472
 10
-3855.1917186753203
 20
-4234.0490480525041
 42
0.0237595297583199
 10
-3855.4452135602196
 20
-4234.1487325744001
 10
-3855.4503156342489
 20
-4234.1510243498778
 42
0.0261857468805914
 10
-3855.702486410476
 20
-4234.2805606872516
 10
-3855.7129125995652
 20
-4234.286626161721
 42
0.0272553062020309
 10
-3855.9493423748036
 20
-4234.4419983676653
 10
-3855.9841053883115
 20
-4234.4676595157562
 42
0.0325996893197785
 10
-3856.1342607319648
 20
-4234.5944073887295
 10
-3856.1579701610922
 20
-4234.6172254172461
 42
0.0138050960655457
 10
-3856.2498533172984
 20
-4234.7106750787934
 42
0.0125280103831872
 10
-3856.3366958501233
 20
-4234.8088384053835
 10
-3856.3603762950402
 20
-4234.8369969035812
 42
0.0205218024727216
 10
-3856.4854763705607
 20
-4234.99879021782
 10
-3856.5079427110409
 20
-4235.030449947637
 42
0.0163110129582118
 10
-3856.6636530902897
 20
-4235.2657803827024
 10
-3856.666376986343
 20
-4235.2702041446919
 42
0.0131897341901084
 10
-3856.813177507252
 20
-4235.5233362370618
 10
-3856.8148776026155
 20
-4235.5264544761922
 42
0.0107895576065604
 10
-3856.9526543048219
 20
-4235.7926696858185
 10
-3856.9533871943513
 20
-4235.7941639184737
 42
0.0091371507199739
 10
-3857.081867143002
 20
-4236.0686891162359
 10
-3857.1116127744099
 20
-4236.1353956233925
 42
0.0135418326361892
 10
-3857.2833267134852
 20
-4236.5503334086707
 10
-3857.3169315219184
 20
-4236.6381995509491
 42
0.0092834542403574
 10
-3857.4881605818368
 20
-4237.1120980492478
 10
-3857.5137777095497
 20
-4237.1873391190265
 42
0.0054261043582016
 10
-3857.6214158578478
 20
-4237.5151030921061
 10
-3857.6389418440854
 20
-4237.570491254527
 42
0.000822509084013
 10
-3857.7076118958548
 20
-4237.7887600124859
 10
-3858.6923010277883
 20
-4240.8136513057425
 10
-3855.4596771877145
 20
-4240.8136513057425
 10
-3855.963869617568
 20
-4242.7181296040944
 10
-3859.2199258995515
 20
-4242.7181296040944
 10
-3865.0490749319051
 20
-4261.5313526700993
 10
-3866.8741725422155
 20
-4261.5313526700993
 10
-3861.0394945067146
 20
-4242.7181296040944
 10
-3863.4446108757547
 20
-4242.7181296040944
 10
-3862.9404184459013
 20
-4240.8136513057425
 10
-3860.5118696349514
 20
-4240.8136513057425
 10
-3859.6517147167629
 20
-4238.1772383050429
 42
-0.0005863560664345
 10
-3859.6149800386224
 20
-4238.0604118849533
 10
-3859.5388922048987
 20
-4237.8194195853666
 42
-0.0087522378922632
 10
-3859.3394240614384
 20
-4237.2241434982097
 10
-3859.2471597860335
 20
-4236.964003329721
 42
-0.0077400953829827
 10
-3858.9892261268974
 20
-4236.2709986521586
 10
-3858.9734611553199
 20
-4236.2305677687764
 42
-0.0082369946327703
 10
-3858.7263766847063
 20
-4235.6264887025773
 42
-0.0085725238364472
 10
-3858.4591305887066
 20
-4235.0310626632963
 10
-3858.3575009876931
 20
-4234.8146415612973
 42
-0.0168109410604367
 10
-3858.0705565589665
 20
-4234.2534340351995
 10
-3857.9447131685524
 20
-4234.0264700022835
 42
-0.0007817726901607
 10
-3857.8904288184508
 20
-4233.9289257571718
 10
-3857.8903005124257
 20
-4233.9286960484214
 42
-0.0036626142123286
 10
-3857.8354126484123
 20
-4233.8320981684665
 42
-0.0080221150693315
 10
-3857.7782883930063
 20
-4233.7368189337149
 10
-3857.7475884416444
 20
-4233.6874279845915
 42
-0.0202139325579059
 10
-3857.6199327018426
 20
-4233.4994463839166
 10
-3857.5658652366501
 20
-4233.4263675196689
 42
-0.0249323791806399
 10
-3857.3067024429279
 20
-4233.1103222775109
 10
-3857.282562628804
 20
-4233.0837080046022
 42
-0.0242132121540294
 10
-3856.9428818872616
 20
-4232.7438245183985
 10
-3856.8949703145117
 20
-4232.7003153822125
 42
-0.0251017527855253
 10
-3856.6109886138702
 20
-4232.4673226364475
 10
-3856.6095431370582
 20
-4232.4662533788696
 42
-0.0130868069033949
 10
-3856.3112824870996
 20
-4232.2574729103262
 10
-3856.3097206679586
 20
-4232.2564394700521
 42
-0.0290329526397561
 10
-3855.9986095265631
 20
-4232.0756139684217
 10
-3855.9687639645854
 20
-4232.060511585586
 42
-0.0160250190050177
 10
-3855.7028595508127
 20
-4231.9364954753692
 42
-0.0267600374775007
 10
-3855.4275834733344
 20
-4231.8357471548179
 10
-3855.400847553823
 20
-4231.827554595995
 42
-0.0049981587671553
 10
-3855.3456744085361
 20
-4231.8112493956824
 42
-0.0049981587671553
  0
LWPOLYLINE
  5
5B
100
AcDbEntity
  8
0
370
              15
390
0
  6
Continuous
 62
               7
100
AcDbPolyline
 90
      118
 70
             128
 10
-3835.5313068440892
 20
-4240.8876346335692
 10
-3833.6561849195896
 20
-4240.8876346335692
 10
-3834.4942238251897
 20
-4243.5692011599695
 42
-0.0010587229205786
 10
-3834.4627680096655
 20
-4243.5322966266704
 10
-3834.4045739189855
 20
-4243.4643143704388
 42
-0.0071874740387747
 10
-3834.254198700894
 20
-4243.2936736784168
 10
-3834.1124759276254
 20
-4243.137437537096
 42
-0.0148118053514576
 10
-3833.6623466349156
 20
-4242.6698236910861
 10
-3833.5751243000095
 20
-4242.5844263702284
 42
-0.008627335868707
 10
-3833.2395754990021
 20
-4242.2670507362127
 10
-3833.1957417827803
 20
-4242.2270010918837
 42
-0.0103138323108988
 10
-3832.9377180805432
 20
-4242.0008379545416
 10
-3832.8919436742112
 20
-4241.962355907277
 42
-0.0060206748535007
 10
-3832.719095610104
 20
-4241.8205612565271
 10
-3832.7170644792145
 20
-4241.818935550893
 42
-0.0067069027280752
 10
-3832.5447716645554
 20
-4241.6847849171008
 10
-3832.5422228986381
 20
-4241.6828547472323
 42
-0.007618435204599
 10
-3832.3713176327578
 20
-4241.5574798719827
 42
-0.0089652861652417
 10
-3832.1963566700151
 20
-4241.4378466116432
 10
-3832.1600049498747
 20
-4241.4139353981636
 42
-0.0156916245939701
 10
-3831.964045452718
 20
-4241.2936729116918
 42
-0.0023299011083602
 10
-3831.7637834087677
 20
-4241.1804949721682
 10
-3831.7483992763582
 20
-4241.1718949770866
 42
-0.0107669341456535
 10
-3831.5141624512466
 20
-4241.0474948437313
 10
-3831.4918976501822
 20
-4241.0362780937867
 42
-0.0078058045888252
 10
-3831.2083075322353
 20
-4240.8989166381507
 10
-3831.1984004445203
 20
-4240.8943075102798
 42
-0.0181829330466022
 10
-3830.8880910399089
 20
-4240.7634437691859
 10
-3830.8340355973378
 20
-4240.7429286492415
 42
-0.020841153603847
 10
-3830.4849506298879
 20
-4240.6268381867485
 10
-3830.470594529771
 20
-4240.6227197417984
 42
-0.022279981716157
 10
-3830.141874735843
 20
-4240.5440781756542
 10
-3830.1329857726078
 20
-4240.5423661650693
 42
-0.0215509523887471
 10
-3829.8165148043263
 20
-4240.4954504765356
 10
-3829.774032843281
 20
-4240.4910129497448
 42
-0.0182545924861148
 10
-3829.5399240639717
 20
-4240.4751691243528
 10
-3829.5005230476254
 20
-4240.4739445792738
 42
-0.0072962856556354
 10
-3829.3446001679349
 20
-4240.4713752507523
 10
-3829.3155004973746
 20
-4240.4713204153486
 42
-0.0059227516314492
 10
-3829.2177509982184
 20
-4240.4722941271384
 10
-3829.1885087804644
 20
-4240.472931893748
 42
-0.0011833111934223
 10
-3829.1492574970139
 20
-4240.4738808980519
 10
-3829.9446440926213
 20
-4243.0126148431509
 42
0.0143932051747838
 10
-3829.9710454749825
 20
-4243.0024158731021
 10
-3829.9783174473887
 20
-4242.9998446542486
 42
0.0234388603485112
 10
-3830.0201483133237
 20
-4242.987225418532
 10
-3830.0288299762337
 20
-4242.9850444565272
 42
0.0199162742973748
 10
-3830.0891188103083
 20
-4242.9724277211935
 10
-3830.1099327481197
 20
-4242.9689305217635
 42
0.0293643550620405
 10
-3830.2130076068797
 20
-4242.9577804761102
 10
-3830.2376927875994
 20
-4242.9565688590919
 42
0.0214606686830382
 10
-3830.3908337035359
 20
-4242.9556302986748
 10
-3830.40020561437
 20
-4242.9559752102195
 42
0.0167564054170366
 10
-3830.571725805496
 20
-4242.9680522525887
 10
-3830.5801855982372
 20
-4242.9689335930143
 42
0.013767755322977
 10
-3830.767538911502
 20
-4242.9936829015578
 10
-3830.7748906510096
 20
-4242.9948608215254
 42
0.0118497261479752
 10
-3830.9753884151087
 20
-4243.0318781717142
 10
-3830.9815384223584
 20
-4243.0331650344351
 42
0.0106421143882992
 10
-3831.1924193096447
 20
-4243.0819974100104
 10
-3831.1973281180326
 20
-4243.0832447526955
 42
0.0099746379725724
 10
-3831.4157865872153
 20
-4243.1434192810157
 10
-3831.4773346273651
 20
-4243.1617011596409
 42
0.0191613675873216
 10
-3831.8133190898884
 20
-4243.2756785399306
 10
-3831.9013788626226
 20
-4243.30936545025
 42
0.0205274080146204
 10
-3832.2866856345272
 20
-4243.4751938580775
 10
-3832.3443349165054
 20
-4243.5028618226479
 42
0.0181256912186668
 10
-3832.6026118571763
 20
-4243.6385456416283
 10
-3832.6555672404975
 20
-4243.6688632548467
 42
0.0140709242415068
 10
-3832.8005221751182
 20
-4243.7573579282771
 10
-3832.8267710437322
 20
-4243.7744147469894
 42
0.0086667884351171
 10
-3832.9156972052797
 20
-4243.8344174148751
 42
0.0036408191970928
 10
-3833.003130443295
 20
-4243.896598272655
 10
-3833.0383573177814
 20
-4243.9220392185807
 42
0.0052260781286384
 10
-3833.1945860151754
 20
-4244.0373716052172
 10
-3833.2107928714322
 20
-4244.0495997158332
 42
0.0050024435897636
 10
-3833.3967962145039
 20
-4244.1928822841055
 10
-3833.4121143710063
 20
-4244.2049283065408
 42
0.0136138710257689
 10
-3833.6225556393297
 20
-4244.3798948114518
 10
-3833.656223515125
 20
-4244.4094737841679
 42
0.0172815186918914
 10
-3833.9206270567906
 20
-4244.6584704567949
 10
-3833.9231894026298
 20
-4244.6610562739388
 42
0.0189403857976794
 10
-3834.1737712012086
 20
-4244.9338615387423
 10
-3834.2064026947496
 20
-4244.9722054702461
 42
0.0185044199502189
 10
-3834.3983591337251
 20
-4245.2154540513638
 42
0.0088565243899014
 10
-3834.5768192403625
 20
-4245.4689704715265
 10
-3834.5859972200024
 20
-4245.4825118512736
 42
0.0157195347223013
 10
-3834.769217826331
 20
-4245.7720340605802
 10
-3834.815300768269
 20
-4245.8501862576131
 42
0.0095451879801719
 10
-3834.9803863184047
 20
-4246.142780899967
 10
-3834.9915342373288
 20
-4246.1634515720889
 42
0.0100351706247047
 10
-3835.1235779864937
 20
-4246.4205071325887
 42
0.0086935915405908
 10
-3835.245909138298
 20
-4246.6823402780165
 10
-3835.2492298797019
 20
-4246.6897826009654
 42
0.007258017486555
 10
-3835.3695763316427
 20
-4246.9703745925381
 10
-3835.3728379649533
 20
-4246.978294618566
 42
0.0060005122610863
 10
-3835.4920386332979
 20
-4247.2779042891771
 10
-3835.4952496116375
 20
-4247.2862658170761
 42
0.0049017786983853
 10
-3835.6141497704984
 20
-4247.6051947976903
 10
-3835.6173155768856
 20
-4247.6139477349116
 42
0.0039415167607794
 10
-3835.7367518549436
 20
-4247.9524897973297
 10
-3835.7398829575941
 20
-4247.961592998201
 42
0.003103583876597
 10
-3835.860687743279
 20
-4248.3200328599469
 10
-3835.8637977878179
 20
-4248.3294534813485
 42
0.0025070747149137
 10
-3835.9866991391318
 20
-4248.7081006982899
 10
-3836.0239930355583
 20
-4248.8249923635458
 42
0.0029081910294713
 10
-3836.2160113333803
 20
-4249.4391560218719
 10
-3836.2568145018868
 20
-4249.5723792641129
 42
0.0009266453736534
 10
-3836.52523187619
 20
-4250.4546037239998
 10
-3836.5461193486858
 20
-4250.523715602757
 42
-0.0005809993668816
 10
-3836.8234560294331
 20
-4251.4375237099121
 10
-3836.8897378277284
 20
-4251.6550086421448
 42
-0.0012018708176923
 10
-3837.0367221371353
 20
-4252.133171306592
 10
-3837.0890419887382
 20
-4252.3019304475793
 42
-0.000269105961155
 10
-3837.1326114698691
 20
-4252.4421980677998
 10
-3839.9655673681582
 20
-4261.5313526700993
 10
-3841.7835562601367
 20
-4261.5313526700993
 10
-3835.5313068440892
 20
-4240.8876346335692
  0
SPLINE
  5
5C
100
AcDbEntity
  8
0
370
              15
390
0
  6
Continuous
 62
               7
100
AcDbSpline
210
0.0
220
0.0
230
1.0
 70
              13
 71
               2
 72
             782
 73
             779
 74
               0
 42
0.000001
 43
0.000001
 40
0.0
 40
0.0
 40
0.0
 40
1.0
 40
1.0
 40
2.0
 40
2.0
 40
3.0
 40
3.0
 40
4.0
 40
4.0
 40
5.0
 40
5.0
 40
6.0
 40
6.0
 40
7.0
 40
7.0
 40
8.0
 40
8.0
 40
9.0
 40
9.0
 40
10.0
 40
10.0
 40
11.0
 40
11.0
 40
12.0
 40
12.0
 40
13.0
 40
13.0
 40
14.0
 40
14.0
 40
15.0
 40
15.0
 40
16.0
 40
16.0
 40
17.0
 40
17.0
 40
18.0
 40
18.0
 40
19.0
 40
19.0
 40
20.0
 40
20.0
 40
21.0
 40
21.0
 40
22.0
 40
22.0
 40
23.0
 40
23.0
 40
24.0
 40
24.0
 40
25.0
 40
25.0
 40
26.0
 40
26.0
 40
27.0
 40
27.0
 40
28.0
 40
28.0
 40
29.0
 40
29.0
 40
30.0
 40
30.0
 40
31.0
 40
31.0
 40
32.0
 40
32.0
 40
33.0
 40
33.0
 40
34.0
 40
34.0
 40
35.0
 40
35.0
 40
36.0
 40
36.0
 40
37.0
 40
37.0
 40
38.0
 40
38.0
 40
39.0
 40
39.0
 40
40.0
 40
40.0
 40
41.0
 40
41.0
 40
42.0
 40
42.0
 40
43.0
 40
43.0
 40
44.0
 40
44.0
 40
45.0
 40
45.0
 40
46.0
 40
46.0
 40
47.0
 40
47.0
 40
48.0
 40
48.0
 40
49.0
 40
49.0
 40
50.0
 40
50.0
 40
51.0
 40
51.0
 40
52.0
 40
52.0
 40
53.0
 40
53.0
 40
54.0
 40
54.0
 40
55.0
 40
55.0
 40
56.0
 40
56.0
 40
57.0
 40
57.0
 40
58.0
 40
58.0
 40
59.0
 40
59.0
 40
60.0
 40
60.0
 40
61.0
 40
61.0
 40
62.0
 40
62.0
 40
63.0
 40
63.0
 40
64.0
 40
64.0
 40
65.0
 40
65.0
 40
66.0
 40
66.0
 40
67.0
 40
67.0
 40
68.0
 40
68.0
 40
69.0
 40
69.0
 40
70.0
 40
70.0
 40
71.0
 40
71.0
 40
72.0
 40
72.0
 40
73.0
 40
73.0
 40
74.0
 40
74.0
 40
75.0
 40
75.0
 40
76.0
 40
76.0
 40
77.0
 40
77.0
 40
78.0
 40
78.0
 40
79.0
 40
79.0
 40
80.0
 40
80.0
 40
81.0
 40
81.0
 40
82.0
 40
82.0
 40
83.0
 40
83.0
 40
84.0
 40
84.0
 40
85.0
 40
85.0
 40
86.0
 40
86.0
 40
87.0
 40
87.0
 40
88.0
 40
88.0
 40
89.0
 40
89.0
 40
90.0
 40
90.0
 40
91.0
 40
91.0
 40
92.0
 40
92.0
 40
93.0
 40
93.0
 40
94.0
 40
94.0
 40
95.0
 40
95.0
 40
96.0
 40
96.0
 40
97.0
 40
97.0
 40
98.0
 40
98.0
 40
99.0
 40
99.0
 40
100.0
 40
100.0
 40
101.0
 40
101.0
 40
102.0
 40
102.0
 40
103.0
 40
103.0
 40
104.0
 40
104.0
 40
105.0
 40
105.0
 40
106.0
 40
106.0
 40
107.0
 40
107.0
 40
108.0
 40
108.0
 40
109.0
 40
109.0
 40
110.0
 40
110.0
 40
111.0
 40
111.0
 40
112.0
 40
112.0
 40
113.0
 40
113.0
 40
114.0
 40
114.0
 40
115.0
 40
115.0
 40
116.0
 40
116.0
 40
117.0
 40
117.0
 40
118.0
 40
118.0
 40
119.0
 40
119.0
 40
120.0
 40
120.0
 40
121.0
 40
121.0
 40
122.0
 40
122.0
 40
123.0
 40
123.0
 40
124.0
 40
124.0
 40
125.0
 40
125.0
 40
126.0
 40
126.0
 40
127.0
 40
127.0
 40
128.0
 40
128.0
 40
129.0
 40
129.0
 40
130.0
 40
130.0
 40
131.0
 40
131.0
 40
132.0
 40
132.0
 40
133.0
 40
133.0
 40
134.0
 40
134.0
 40
135.0
 40
135.0
 40
136.0
 40
136.0
 40
137.0
 40
137.0
 40
138.0
 40
138.0
 40
139.0
 40
139.0
 40
140.0
 40
140.0
 40
141.0
 40
141.0
 40
142.0
 40
142.0
 40
143.0
 40
143.0
 40
144.0
 40
144.0
 40
145.0
 40
145.0
 40
146.0
 40
146.0
 40
147.0
 40
147.0
 40
148.0
 40
148.0
 40
149.0
 40
149.0
 40
150.0
 40
150.0
 40
151.0
 40
151.0
 40
152.0
 40
152.0
 40
153.0
 40
153.0
 40
154.0
 40
154.0
 40
155.0
 40
155.0
 40
156.0
 40
156.0
 40
157.0
 40
157.0
 40
158.0
 40
158.0
 40
159.0
 40
159.0
 40
160.0
 40
160.0
 40
161.0
 40
161.0
 40
162.0
 40
162.0
 40
163.0
 40
163.0
 40
164.0
 40
164.0
 40
165.0
 40
165.0
 40
166.0
 40
166.0
 40
167.0
 40
167.0
 40
168.0
 40
168.0
 40
169.0
 40
169.0
 40
170.0
 40
170.0
 40
171.0
 40
171.0
 40
172.0
 40
172.0
 40
173.0
 40
173.0
 40
174.0
 40
174.0
 40
175.0
 40
175.0
 40
176.0
 40
176.0
 40
177.0
 40
177.0
 40
178.0
 40
178.0
 40
179.0
 40
179.0
 40
180.0
 40
180.0
 40
181.0
 40
181.0
 40
182.0
 40
182.0
 40
183.0
 40
183.0
 40
184.0
 40
184.0
 40
185.0
 40
185.0
 40
186.0
 40
186.0
 40
187.0
 40
187.0
 40
188.0
 40
188.0
 40
189.0
 40
189.0
 40
190.0
 40
190.0
 40
191.0
 40
191.0
 40
192.0
 40
192.0
 40
193.0
 40
193.0
 40
194.0
 40
194.0
 40
195.0
 40
195.0
 40
196.0
 40
196.0
 40
197.0
 40
197.0
 40
198.0
 40
198.0
 40
199.0
 40
199.0
 40
200.0
 40
200.0
 40
201.0
 40
201.0
 40
202.0
 40
202.0
 40
203.0
 40
203.0
 40
204.0
 40
204.0
 40
205.0
 40
205.0
 40
206.0
 40
206.0
 40
207.0
 40
207.0
 40
208.0
 40
208.0
 40
209.0
 40
209.0
 40
210.0
 40
210.0
 40
211.0
 40
211.0
 40
212.0
 40
212.0
 40
213.0
 40
213.0
 40
214.0
 40
214.0
 40
215.0
 40
215.0
 40
216.0
 40
216.0
 40
217.0
 40
217.0
 40
218.0
 40
218.0
 40
219.0
 40
219.0
 40
220.0
 40
220.0
 40
221.0
 40
221.0
 40
222.0
 40
222.0
 40
223.0
 40
223.0
 40
224.0
 40
224.0
 40
225.0
 40
225.0
 40
226.0
 40
226.0
 40
227.0
 40
227.0
 40
228.0
 40
228.0
 40
229.0
 40
229.0
 40
230.0
 40
230.0
 40
231.0
 40
231.0
 40
232.0
 40
232.0
 40
233.0
 40
233.0
 40
234.0
 40
234.0
 40
235.0
 40
235.0
 40
236.0
 40
236.0
 40
237.0
 40
237.0
 40
238.0
 40
238.0
 40
239.0
 40
239.0
 40
240.0
 40
240.0
 40
241.0
 40
241.0
 40
242.0
 40
242.0
 40
243.0
 40
243.0
 40
244.0
 40
244.0
 40
245.0
 40
245.0
 40
246.0
 40
246.0
 40
247.0
 40
247.0
 40
248.0
 40
248.0
 40
249.0
 40
249.0
 40
250.0
 40
250.0
 40
251.0
 40
251.0
 40
252.0
 40
252.0
 40
253.0
 40
253.0
 40
254.0
 40
254.0
 40
255.0
 40
255.0
 40
256.0
 40
256.0
 40
257.0
 40
257.0
 40
258.0
 40
258.0
 40
259.0
 40
259.0
 40
260.0
 40
260.0
 40
261.0
 40
261.0
 40
262.0
 40
262.0
 40
263.0
 40
263.0
 40
264.0
 40
264.0
 40
265.0
 40
265.0
 40
266.0
 40
266.0
 40
267.0
 40
267.0
 40
268.0
 40
268.0
 40
269.0
 40
269.0
 40
270.0
 40
270.0
 40
271.0
 40
271.0
 40
272.0
 40
272.0
 40
273.0
 40
273.0
 40
274.0
 40
274.0
 40
275.0
 40
275.0
 40
276.0
 40
276.0
 40
277.0
 40
277.0
 40
278.0
 40
278.0
 40
279.0
 40
279.0
 40
280.0
 40
280.0
 40
281.0
 40
281.0
 40
282.0
 40
282.0
 40
283.0
 40
283.0
 40
284.0
 40
284.0
 40
285.0
 40
285.0
 40
286.0
 40
286.0
 40
287.0
 40
287.0
 40
288.0
 40
288.0
 40
289.0
 40
289.0
 40
290.0
 40
290.0
 40
291.0
 40
291.0
 40
292.0
 40
292.0
 40
293.0
 40
293.0
 40
294.0
 40
294.0
 40
295.0
 40
295.0
 40
296.0
 40
296.0
 40
297.0
 40
297.0
 40
298.0
 40
298.0
 40
299.0
 40
299.0
 40
300.0
 40
300.0
 40
301.0
 40
301.0
 40
302.0
 40
302.0
 40
303.0
 40
303.0
 40
304.0
 40
304.0
 40
305.0
 40
305.0
 40
306.0
 40
306.0
 40
307.0
 40
307.0
 40
308.0
 40
308.0
 40
309.0
 40
309.0
 40
310.0
 40
310.0
 40
311.0
 40
311.0
 40
312.0
 40
312.0
 40
313.0
 40
313.0
 40
314.0
 40
314.0
 40
315.0
 40
315.0
 40
316.0
 40
316.0
 40
317.0
 40
317.0
 40
318.0
 40
318.0
 40
319.0
 40
319.0
 40
320.0
 40
320.0
 40
321.0
 40
321.0
 40
322.0
 40
322.0
 40
323.0
 40
323.0
 40
324.0
 40
324.0
 40
325.0
 40
325.0
 40
326.0
 40
326.0
 40
327.0
 40
327.0
 40
328.0
 40
328.0
 40
329.0
 40
329.0
 40
330.0
 40
330.0
 40
331.0
 40
331.0
 40
332.0
 40
332.0
 40
333.0
 40
333.0
 40
334.0
 40
334.0
 40
335.0
 40
335.0
 40
336.0
 40
336.0
 40
337.0
 40
337.0
 40
338.0
 40
338.0
 40
339.0
 40
339.0
 40
340.0
 40
340.0
 40
341.0
 40
341.0
 40
342.0
 40
342.0
 40
343.0
 40
343.0
 40
344.0
 40
344.0
 40
345.0
 40
345.0
 40
346.0
 40
346.0
 40
347.0
 40
347.0
 40
348.0
 40
348.0
 40
349.0
 40
349.0
 40
350.0
 40
350.0
 40
351.0
 40
351.0
 40
352.0
 40
352.0
 40
353.0
 40
353.0
 40
354.0
 40
354.0
 40
355.0
 40
355.0
 40
356.0
 40
356.0
 40
357.0
 40
357.0
 40
358.0
 40
358.0
 40
359.0
 40
359.0
 40
360.0
 40
360.0
 40
361.0
 40
361.0
 40
362.0
 40
362.0
 40
363.0
 40
363.0
 40
364.0
 40
364.0
 40
365.0
 40
365.0
 40
366.0
 40
366.0
 40
367.0
 40
367.0
 40
368.0
 40
368.0
 40
369.0
 40
369.0
 40
370.0
 40
370.0
 40
371.0
 40
371.0
 40
372.0
 40
372.0
 40
373.0
 40
373.0
 40
374.0
 40
374.0
 40
375.0
 40
375.0
 40
376.0
 40
376.0
 40
377.0
 40
377.0
 40
378.0
 40
378.0
 40
379.0
 40
379.0
 40
380.0
 40
380.0
 40
381.0
 40
381.0
 40
382.0
 40
382.0
 40
383.0
 40
383.0
 40
384.0
 40
384.0
 40
385.0
 40
385.0
 40
386.0
 40
386.0
 40
387.0
 40
387.0
 40
388.0
 40
388.0
 40
389.0
 40
389.0
 40
389.0
 10
-3825.2026023933563
 20
-4240.876708270207
 30
0.0
 41
1.0
 10
-3824.3841782846357
 20
-4240.876708270207
 30
0.0
 41
1.0
 10
-3823.5657541759156
 20
-4240.876708270207
 30
0.0
 41
1.0
 10
-3823.9795079114324
 20
-4242.2193345344567
 30
0.0
 41
1.0
 10
-3824.3932616469492
 20
-4243.5619607987064
 30
0.0
 41
1.0
 10
-3824.3749221517651
 20
-4243.5332600257707
 30
0.0
 41
0.9999957264363231
 10
-3824.3564151549181
 20
-4243.5046669755939
 30
0.0
 41
1.0
 10
-3824.325985830797
 20
-4243.457654097243
 30
0.0
 41
1.0
 10
-3824.2955565066759
 20
-4243.4106412188921
 30
0.0
 41
1.0
 10
-3824.2161908615653
 20
-4243.2880224119845
 30
0.0
 41
0.9995394069082475
 10
-3824.1295324700163
 20
-4243.1704443502467
 30
0.0
 41
1.0
 10
-3824.0937756077569
 20
-4243.1219294576531
 30
0.0
 41
1.0
 10
-3824.0580187454975
 20
-4243.0734145650604
 30
0.0
 41
1.0
 10
-3823.9242920776833
 20
-4242.8919742899388
 30
0.0
 41
0.99944606171434
 10
-3823.7787915963918
 20
-4242.7198318922847
 30
0.0
 41
1.0
 10
-3823.7744034154184
 20
-4242.7146402119033
 30
0.0
 41
1.0
 10
-3823.7700152344446
 20
-4242.7094485315229
 30
0.0
 41
1.0
 10
-3823.6332911151017
 20
-4242.5476894946323
 30
0.0
 41
0.9994359394934549
 10
-3823.4860168847526
 20
-4242.3954732934708
 30
0.0
 41
1.0
 10
-3823.4836335307996
 20
-4242.3930099630979
 30
0.0
 41
1.0
 10
-3823.4812501768465
 20
-4242.3905466327251
 30
0.0
 41
1.0
 10
-3823.3387426544023
 20
-4242.2432570923065
 30
0.0
 41
0.9995293688567872
 10
-3823.1874709734193
 20
-4242.1049838801409
 30
0.0
 41
1.0
 10
-3823.1681772141583
 20
-4242.0873479944921
 30
0.0
 41
1.0
 10
-3823.1488834548977
 20
-4242.0697121088433
 30
0.0
 41
1.0
 10
-3823.036199292434
 20
-4241.9667106679744
 30
0.0
 41
0.9997087614803391
 10
-3822.9186764034821
 20
-4241.8692663871789
 30
0.0
 41
1.0
 10
-3822.8995103303096
 20
-4241.8533748086738
 30
0.0
 41
1.0
 10
-3822.880344257137
 20
-4241.8374832301679
 30
0.0
 41
1.0
 10
-3822.8011535145292
 20
-4241.7718221063833
 30
0.0
 41
0.9999595338695294
 10
-3822.7207942436717
 20
-4241.707596375727
 30
0.0
 41
1.0
 10
-3822.6404349728241
 20
-4241.643370645078
 30
0.0
 41
0.9999749417510435
 10
-3822.5591744384874
 20
-4241.5802890911364
 30
0.0
 41
1.0
 10
-3822.5381882922943
 20
-4241.5639978038107
 30
0.0
 41
1.0
 10
-3822.5172021461012
 20
-4241.5477065164851
 30
0.0
 41
1.0
 10
-3822.432634260821
 20
-4241.4820575066624
 30
0.0
 41
0.9999792037125821
 10
-3822.3472266610706
 20
-4241.4175047250319
 30
0.0
 41
1.0
 10
-3822.3264018350792
 20
-4241.4017649027137
 30
0.0
 41
1.0
 10
-3822.3055770090878
 20
-4241.3860250803955
 30
0.0
 41
1.0
 10
-3822.2618190612247
 20
-4241.3529519433305
 30
0.0
 41
0.9999993374021658
 10
-3822.2181373751582
 20
-4241.3197781479648
 30
0.0
 41
1.0
 10
-3822.1744556890089
 20
-4241.2866043525373
 30
0.0
 41
0.9999160953816708
 10
-3822.1299292780823
 20
-4241.2545732873332
 30
0.0
 41
1.0
 10
-3822.0971073906694
 20
-4241.2309621317527
 30
0.0
 41
1.0
 10
-3822.0642855032561
 20
-4241.2073509761731
 30
0.0
 41
1.0
 10
-3821.9541153174964
 20
-4241.1280975998043
 30
0.0
 41
0.9980964527232683
 10
-3821.8350263239972
 20
-4241.0630101269489
 30
0.0
 41
1.0
 10
-3821.7979937170671
 20
-4241.0427701473545
 30
0.0
 41
1.0
 10
-3821.760961110137
 20
-4241.022530167761
 30
0.0
 41
1.0
 10
-3821.5816340968654
 20
-4240.9245199170609
 30
0.0
 41
0.9984572810573366
 10
-3821.3925455305089
 20
-4240.8469976557153
 30
0.0
 41
1.0
 10
-3821.3888992611146
 20
-4240.8455027633781
 30
0.0
 41
1.0
 10
-3821.3852529917203
 20
-4240.844007871041
 30
0.0
 41
1.0
 10
-3821.2034569641496
 20
-4240.7694753943688
 30
0.0
 41
0.9987838528032835
 10
-3821.0152043055909
 20
-4240.7132097542035
 30
0.0
 41
1.0
 10
-3821.0109663563921
 20
-4240.7119431005131
 30
0.0
 41
1.0
 10
-3821.0067284071933
 20
-4240.7106764468226
 30
0.0
 41
1.0
 10
-3820.8269516470305
 20
-4240.6569441140373
 30
0.0
 41
0.9990652816207502
 10
-3820.6432057153161
 20
-4240.618940434495
 30
0.0
 41
1.0
 10
-3820.638017314287
 20
-4240.6178673313889
 30
0.0
 41
1.0
 10
-3820.6328289132575
 20
-4240.6167942282827
 30
0.0
 41
1.0
 10
-3820.4594597836012
 20
-4240.5809367549527
 30
0.0
 41
0.999290993427062
 10
-3820.2838840171416
 20
-4240.558226322486
 30
0.0
 41
1.0
 10
-3820.1083082506802
 20
-4240.5355158900202
 30
0.0
 41
0.9994553539449267
 10
-3819.9316168175842
 20
-4240.5244365858134
 30
0.0
 41
1.0
 10
-3819.8961824097878
 20
-4240.5222146977649
 30
0.0
 41
1.0
 10
-3819.8607480019914
 20
-4240.5199928097172
 30
0.0
 41
1.0
 10
-3819.6945222354266
 20
-4240.5095697473062
 30
0.0
 41
0.999092809829302
 10
-3819.5280124435267
 20
-4240.513329388541
 30
0.0
 41
1.0
 10
-3819.4894506082592
 20
-4240.5142000800734
 30
0.0
 41
1.0
 10
-3819.4508887729921
 20
-4240.5150707716066
 30
0.0
 41
1.0
 10
-3819.3615026516286
 20
-4240.5170890297759
 30
0.0
 41
0.9998382089205355
 10
-3819.2722469688379
 20
-4240.5223211563043
 30
0.0
 41
1.0
 10
-3819.2718170626067
 20
-4240.5223463572074
 30
0.0
 41
1.0
 10
-3819.2713871563756
 20
-4240.5223715581105
 30
0.0
 41
1.0
 10
-3819.1829912860408
 20
-4240.5275532828327
 30
0.0
 41
0.9997558016757843
 10
-3819.0949107088509
 20
-4240.5366357981984
 30
0.0
 41
1.0
 10
-3819.0944345704193
 20
-4240.536684895681
 30
0.0
 41
1.0
 10
-3819.0939584319872
 20
-4240.5367339931636
 30
0.0
 41
1.0
 10
-3819.0068301316469
 20
-4240.545718313565
 30
0.0
 41
0.9996565144180347
 10
-3818.9202922783079
 20
-4240.5592556202537
 30
0.0
 41
1.0
 10
-3818.9198263529315
 20
-4240.5593285059849
 30
0.0
 41
1.0
 10
-3818.9193604275551
 20
-4240.5594013917162
 30
0.0
 41
1.0
 10
-3818.8337544249662
 20
-4240.5727929269424
 30
0.0
 41
0.9995321806865523
 10
-3818.7491273446376
 20
-4240.5913934153723
 30
0.0
 41
1.0
 10
-3818.7487381500678
 20
-4240.5914789578383
 30
0.0
 41
1.0
 10
-3818.7483489554979
 20
-4240.5915645003033
 30
0.0
 41
1.0
 10
-3818.6645002643113
 20
-4240.6099939038004
 30
0.0
 41
0.9993819199218281
 10
-3818.5821537301135
 20
-4240.6342692870621
 30
0.0
 41
1.0
 10
-3818.5819152966087
 20
-4240.6343395761742
 30
0.0
 41
1.0
 10
-3818.5816768631034
 20
-4240.6344098652853
 30
0.0
 41
1.0
 10
-3818.4998071959121
 20
-4240.6585446703248
 30
0.0
 41
0.9992088568505341
 10
-3818.4201146769292
 20
-4240.6891099061177
 30
0.0
 41
1.0
 10
-3818.3404336860476
 20
-4240.7196695068515
 30
0.0
 41
0.9990226101774052
 10
-3818.263763016143
 20
-4240.7571469384648
 30
0.0
 41
1.0
 10
-3818.1871038743479
 20
-4240.7946187350153
 30
0.0
 41
0.9988424273968962
 10
-3818.1144002471397
 20
-4240.8392835102668
 30
0.0
 41
1.0
 10
-3818.1141325387571
 20
-4240.8394479743411
 30
0.0
 41
1.0
 10
-3818.113864830374
 20
-4240.8396124384153
 30
0.0
 41
1.0
 10
-3818.0406257863988
 20
-4240.8846061418162
 30
0.0
 41
0.9986928844490073
 10
-3817.972362919681
 20
-4240.9368418761023
 30
0.0
 41
1.0
 10
-3817.9717816274642
 20
-4240.9372866893254
 30
0.0
 41
1.0
 10
-3817.9712003352479
 20
-4240.9377315025486
 30
0.0
 41
1.0
 10
-3817.9017748840952
 20
-4240.9908568632809
 30
0.0
 41
0.9986007262276837
 10
-3817.8383487143319
 20
-4241.0510176329708
 30
0.0
 41
1.0
 10
-3817.8374542988718
 20
-4241.0518660008092
 30
0.0
 41
1.0
 10
-3817.8365598834116
 20
-4241.0527143686468
 30
0.0
 41
1.0
 10
-3817.7713448827321
 20
-4241.114571874009
 30
0.0
 41
0.998558149138286
 10
-3817.713137271031
 20
-4241.1830643642797
 30
0.0
 41
1.0
 10
-3817.7038788174341
 20
-4241.1939587219822
 30
0.0
 41
1.0
 10
-3817.6946203638372
 20
-4241.2048530796856
 30
0.0
 41
1.0
 10
-3817.617895844945
 20
-4241.2951342853594
 30
0.0
 41
0.9970460233518375
 10
-3817.5559039437876
 20
-4241.396101369538
 30
0.0
 41
1.0
 10
-3817.5414345787003
 20
-4241.4196678286316
 30
0.0
 41
1.0
 10
-3817.5269652136126
 20
-4241.4432342877262
 30
0.0
 41
1.0
 10
-3817.4872285136057
 20
-4241.5079540117513
 30
0.0
 41
0.998846881664044
 10
-3817.4538821428614
 20
-4241.5761864641645
 30
0.0
 41
1.0
 10
-3817.4468461203705
 20
-4241.5905833853012
 30
0.0
 41
1.0
 10
-3817.4398100978792
 20
-4241.6049803064379
 30
0.0
 41
1.0
 10
-3817.4205357721062
 20
-4241.6444189166023
 30
0.0
 41
0.9998431189999671
 10
-3817.4026704446151
 20
-4241.6845154710336
 30
0.0
 41
1.0
 10
-3817.3848051171071
 20
-4241.7246120255022
 30
0.0
 41
0.9999989989983461
 10
-3817.3668263937893
 20
-4241.7646578628537
 30
0.0
 41
1.0
 10
-3817.3606540821493
 20
-4241.7784060797685
 30
0.0
 41
1.0
 10
-3817.3544817705097
 20
-4241.7921542966833
 30
0.0
 41
1.0
 10
-3817.3241584238954
 20
-4241.8596965678998
 30
0.0
 41
0.9998790356323146
 10
-3817.2959505437548
 20
-4241.9281493198441
 30
0.0
 41
1.0
 10
-3817.2891153624732
 20
-4241.9447364212647
 30
0.0
 41
1.0
 10
-3817.2822801811922
 20
-4241.9613235226843
 30
0.0
 41
1.0
 10
-3817.2587225188163
 20
-4242.0184914775591
 30
0.0
 41
0.999822757456148
 10
-3817.237333770423
 20
-4242.0765057858462
 30
0.0
 41
1.0
 10
-3817.215945022032
 20
-4242.1345200941296
 30
0.0
 41
0.9996797971043112
 10
-3817.1975187370758
 20
-4242.1935422132374
 30
0.0
 41
1.0
 10
-3817.1936149343492
 20
-4242.2060466714083
 30
0.0
 41
1.0
 10
-3817.189711131623
 20
-4242.2185511295802
 30
0.0
 41
1.0
 10
-3817.1634772412121
 20
-4242.3025821650353
 30
0.0
 41
0.9979274938729926
 10
-3817.1482527177327
 20
-4242.3892865237021
 30
0.0
 41
1.0
 10
-3817.1460290304708
 20
-4242.4019505245269
 30
0.0
 41
1.0
 10
-3817.1438053432089
 20
-4242.4146145253517
 30
0.0
 41
1.0
 10
-3817.1328754035112
 20
-4242.4768610326437
 30
0.0
 41
0.9994985982139234
 10
-3817.1259072383364
 20
-4242.5396745337712
 30
0.0
 41
1.0
 10
-3817.1189390731606
 20
-4242.6024880348996
 30
0.0
 41
0.9996372611202273
 10
-3817.1153632073929
 20
-4242.6655856135694
 30
0.0
 41
1.0
 10
-3817.1151946299028
 20
-4242.6685602306643
 30
0.0
 41
1.0
 10
-3817.1150260524128
 20
-4242.6715348477592
 30
0.0
 41
1.0
 10
-3817.1111130316667
 20
-4242.7405816606188
 30
0.0
 41
0.9997730630738869
 10
-3817.1101447181782
 20
-4242.8097324846658
 30
0.0
 41
1.0
 10
-3817.1100876117603
 20
-4242.8138106637944
 30
0.0
 41
1.0
 10
-3817.1100305053424
 20
-4242.8178888429238
 30
0.0
 41
1.0
 10
-3817.108947979018
 20
-4242.8951960252316
 30
0.0
 41
0.9998772614072288
 10
-3817.110288065749
 20
-4242.972499171784
 30
0.0
 41
1.0
 10
-3817.1103773289478
 20
-4242.97764833563
 30
0.0
 41
1.0
 10
-3817.1104665921471
 20
-4242.982797499476
 30
0.0
 41
1.0
 10
-3817.1119852052752
 20
-4243.0703989736876
 30
0.0
 41
0.9999415567324669
 10
-3817.1153975155221
 20
-4243.1579471353816
 30
0.0
 41
1.0
 10
-3817.1156388361974
 20
-4243.1641385951207
 30
0.0
 41
1.0
 10
-3817.1158801568727
 20
-4243.1703300548597
 30
0.0
 41
1.0
 10
-3817.1197751084746
 20
-4243.2702611361019
 30
0.0
 41
0.9999716810429191
 10
-3817.1251736915942
 20
-4243.370122274363
 30
0.0
 41
1.0
 10
-3817.1283864903808
 20
-4243.4295515239737
 30
0.0
 41
1.0
 10
-3817.1315992891673
 20
-4243.4889807735844
 30
0.0
 41
1.0
 10
-3817.1396731983223
 20
-4243.638329174888
 30
0.0
 41
0.9999819129914324
 10
-3817.1495429899351
 20
-4243.7875696525462
 30
0.0
 41
1.0
 10
-3817.1594127815515
 20
-4243.9368101302571
 30
0.0
 41
1.0
 10
-3817.1618521021155
 20
-4243.9740031761066
 30
0.0
 41
1.0
 10
-3817.1391538682128
 20
-4243.9352621786566
 30
0.0
 41
0.9999982128245297
 10
-3817.1163093094833
 20
-4243.8966072847415
 30
0.0
 41
1.0
 10
-3817.0893997496214
 20
-4243.8510740707252
 30
0.0
 41
1.0
 10
-3817.062490189759
 20
-4243.8055408567088
 30
0.0
 41
1.0
 10
-3816.985826511228
 20
-4243.675819534631
 30
0.0
 41
0.999860919005732
 10
-3816.9048791983719
 20
-4243.5487271527099
 30
0.0
 41
1.0
 10
-3816.8752308768826
 20
-4243.5021774197412
 30
0.0
 41
1.0
 10
-3816.8455825553938
 20
-4243.4556276867725
 30
0.0
 41
1.0
 10
-3816.7633103351704
 20
-4243.3264551167995
 30
0.0
 41
0.9999067609731949
 10
-3816.6775413257069
 20
-4243.1995774273582
 30
0.0
 41
1.0
 10
-3816.6751366225035
 20
-4243.1960201613001
 30
0.0
 41
1.0
 10
-3816.6727319193005
 20
-4243.192462895242
 30
0.0
 41
1.0
 10
-3816.5917723162406
 20
-4243.0726997379143
 30
0.0
 41
0.9998784952149742
 10
-3816.5071187065614
 20
-4242.9555185212084
 30
0.0
 41
1.0
 10
-3816.4224650968808
 20
-4242.8383373045008
 30
0.0
 41
0.9998532968281423
 10
-3816.3338474760603
 20
-4242.7241243960334
 30
0.0
 41
1.0
 10
-3816.3138856870705
 20
-4242.6983970750152
 30
0.0
 41
1.0
 10
-3816.2939238980807
 20
-4242.6726697539971
 30
0.0
 41
1.0
 10
-3816.1754398483195
 20
-4242.5199641430245
 30
0.0
 41
0.9991551975794711
 10
-3816.0448153986927
 20
-4242.3775045809371
 30
0.0
 41
1.0
 10
-3816.0413057827154
 20
-4242.3736769793159
 30
0.0
 41
1.0
 10
-3816.0377961667382
 20
-4242.3698493776938
 30
0.0
 41
1.0
 10
-3815.9141909490727
 20
-4242.235045018856
 30
0.0
 41
0.9997418144181
 10
-3815.7845888093689
 20
-4242.1059956082408
 30
0.0
 41
1.0
 10
-3815.6549866696682
 20
-4241.9769461976275
 30
0.0
 41
0.9989238204632386
 10
-3815.5139841214168
 20
-4241.8604612355894
 30
0.0
 41
1.0
 10
-3815.4687364432784
 20
-4241.8230812439815
 30
0.0
 41
1.0
 10
-3815.4234887651396
 20
-4241.7857012523737
 30
0.0
 41
1.0
 10
-3815.2832487079208
 20
-4241.6698461990836
 30
0.0
 41
0.9990825084095751
 10
-3815.1336087753125
 20
-4241.5664172012475
 30
0.0
 41
1.0
 10
-3815.1235634112581
 20
-4241.5594739881699
 30
0.0
 41
1.0
 10
-3815.1135180472043
 20
-4241.5525307750922
 30
0.0
 41
1.0
 10
-3814.9839688427055
 20
-4241.4629882034133
 30
0.0
 41
0.9998164899827655
 10
-3814.8510846393328
 20
-4241.3784739618986
 30
0.0
 41
1.0
 10
-3814.8392390788131
 20
-4241.3709401953765
 30
0.0
 41
1.0
 10
-3814.8273935182938
 20
-4241.3634064288553
 30
0.0
 41
1.0
 10
-3814.7182004359629
 20
-4241.2939597203858
 30
0.0
 41
0.999747344912986
 10
-3814.6059964787069
 20
-4241.2294907625665
 30
0.0
 41
1.0
 10
-3814.4937925214458
 20
-4241.1650218047444
 30
0.0
 41
0.9999327861141126
 10
-3814.3801239106692
 20
-4241.1031718130562
 30
0.0
 41
1.0
 10
-3814.3795719081209
 20
-4241.1028714543836
 30
0.0
 41
1.0
 10
-3814.3790199055725
 20
-4241.102571095711
 30
0.0
 41
1.0
 10
-3814.2642472896914
 20
-4241.0401203866732
 30
0.0
 41
0.9996956420483417
 10
-3814.1465339638557
 20
-4240.9834069197004
 30
0.0
 41
1.0
 10
-3814.1160935589569
 20
-4240.968740942968
 30
0.0
 41
1.0
 10
-3814.0856531540576
 20
-4240.9540749662347
 30
0.0
 41
1.0
 10
-3813.9826760473156
 20
-4240.9044613077922
 30
0.0
 41
0.9998070570175356
 10
-3813.8778296583769
 20
-4240.8589307208922
 30
0.0
 41
1.0
 10
-3813.7729832694317
 20
-4240.8134001339895
 30
0.0
 41
0.9997827436147612
 10
-3813.6663303328264
 20
-4240.7722789626796
 30
0.0
 41
1.0
 10
-3813.6471074831952
 20
-4240.7648673890471
 30
0.0
 41
1.0
 10
-3813.6278846335636
 20
-4240.7574558154147
 30
0.0
 41
1.0
 10
-3813.4827859976922
 20
-4240.701511496839
 30
0.0
 41
0.998803184197708
 10
-3813.3329156350892
 20
-4240.6600114326711
 30
0.0
 41
1.0
 10
-3813.3079983867228
 20
-4240.6531116868628
 30
0.0
 41
1.0
 10
-3813.283081138356
 20
-4240.6462119410553
 30
0.0
 41
1.0
 10
-3813.115811112712
 20
-4240.5998937986496
 30
0.0
 41
0.9984748040550722
 10
-3812.9444542040637
 20
-4240.5722995663846
 30
0.0
 41
1.0
 10
-3812.939715067816
 20
-4240.5715364058715
 30
0.0
 41
1.0
 10
-3812.9349759315683
 20
-4240.5707732453584
 30
0.0
 41
1.0
 10
-3812.7730972954155
 20
-4240.5447053341195
 30
0.0
 41
0.9984436495477753
 10
-3812.6093225516897
 20
-4240.5368273803015
 30
0.0
 41
1.0
 10
-3812.587625343554
 20
-4240.5357836931016
 30
0.0
 41
1.0
 10
-3812.5659281354183
 20
-4240.5347400059018
 30
0.0
 41
1.0
 10
-3812.4455478079608
 20
-4240.5289494264825
 30
0.0
 41
0.9987954789335669
 10
-3812.3251795630554
 20
-4240.5349859542248
 30
0.0
 41
1.0
 10
-3812.3052147705712
 20
-4240.5359871985629
 30
0.0
 41
1.0
 10
-3812.285249978087
 20
-4240.536988442901
 30
0.0
 41
1.0
 10
-3812.2048113181559
 20
-4240.5410224819661
 30
0.0
 41
0.9997941595876776
 10
-3812.1246025400515
 20
-4240.5483165478881
 30
0.0
 41
1.0
 10
-3812.044393761958
 20
-4240.5556106138092
 30
0.0
 41
0.9998589466239325
 10
-3811.9644752151075
 20
-4240.5655944682585
 30
0.0
 41
1.0
 10
-3811.9320690132963
 20
-4240.5696428251777
 30
0.0
 41
1.0
 10
-3811.8996628114855
 20
-4240.5736911820977
 30
0.0
 41
1.0
 10
-3811.7549318610149
 20
-4240.5917717503862
 30
0.0
 41
0.9993495063249276
 10
-3811.6118806172499
 20
-4240.6202374601271
 30
0.0
 41
1.0
 10
-3811.5789469201009
 20
-4240.6267909233411
 30
0.0
 41
1.0
 10
-3811.5460132229523
 20
-4240.633344386556
 30
0.0
 41
1.0
 10
-3811.4367193997437
 20
-4240.6550927206918
 30
0.0
 41
0.9996788715561153
 10
-3811.3286678277832
 20
-4240.6823505200555
 30
0.0
 41
1.0
 10
-3811.3266048252472
 20
-4240.6828709466281
 30
0.0
 41
1.0
 10
-3811.3245418227111
 20
-4240.6833913731998
 30
0.0
 41
1.0
 10
-3811.2206162558296
 20
-4240.7096083194183
 30
0.0
 41
0.9995480654493189
 10
-3811.1184540205973
 20
-4240.7420232760433
 30
0.0
 41
1.0
 10
-3811.1167643784684
 20
-4240.7425593809567
 30
0.0
 41
1.0
 10
-3811.1150747363395
 20
-4240.743095485871
 30
0.0
 41
1.0
 10
-3811.0162917853663
 20
-4240.7744382326682
 30
0.0
 41
0.9993867959454992
 10
-3810.9199446269249
 20
-4240.8126176019578
 30
0.0
 41
1.0
 10
-3810.9187016778433
 20
-4240.8131101438521
 30
0.0
 41
1.0
 10
-3810.9174587287616
 20
-4240.8136026857474
 30
0.0
 41
1.0
 10
-3810.8235974684862
 20
-4240.8507969712455
 30
0.0
 41
0.9992050256523376
 10
-3810.7329977934496
 20
-4240.8953508704853
 30
0.0
 41
1.0
 10
-3810.7322631107418
 20
-4240.8957121629437
 30
0.0
 41
1.0
 10
-3810.7315284280344
 20
-4240.8960734554021
 30
0.0
 41
1.0
 10
-3810.6423981184212
 20
-4240.9399047697216
 30
0.0
 41
0.9990222350741389
 10
-3810.5574880570225
 20
-4240.991438037423
 30
0.0
 41
1.0
 10
-3810.5573041717307
 20
-4240.9915496403337
 30
0.0
 41
1.0
 10
-3810.5571202864394
 20
-4240.9916612432435
 30
0.0
 41
1.0
 10
-3810.4725779956202
 20
-4241.042971305128
 30
0.0
 41
0.9988642743809479
 10
-3810.39330346101
 20
-4241.1020954926462
 30
0.0
 41
1.0
 10
-3810.3140289263952
 20
-4241.1612196801671
 30
0.0
 41
0.9987681233307846
 10
-3810.2410051421239
 20
-4241.2279103715637
 30
0.0
 41
1.0
 10
-3810.2406762141536
 20
-4241.2282107727824
 30
0.0
 41
1.0
 10
-3810.2403472861829
 20
-4241.2285111740002
 30
0.0
 41
1.0
 10
-3810.1666656459747
 20
-4241.2958026678298
 30
0.0
 41
0.9987496570899437
 10
-3810.1000718406481
 20
-4241.3701154819164
 30
0.0
 41
1.0
 10
-3810.0992996708874
 20
-4241.3709771552749
 30
0.0
 41
1.0
 10
-3810.0985275011271
 20
-4241.3718388286325
 30
0.0
 41
1.0
 10
-3810.0303893562791
 20
-4241.4478749894342
 30
0.0
 41
0.9988147669825713
 10
-3809.9699671020553
 20
-4241.5301759962758
 30
0.0
 41
1.0
 10
-3809.9688477759769
 20
-4241.5317006276291
 30
0.0
 41
1.0
 10
-3809.9677284498985
 20
-4241.5332252589824
 30
0.0
 41
1.0
 10
-3809.9050675435228
 20
-4241.6185755285223
 30
0.0
 41
0.998945263621511
 10
-3809.8505006305659
 20
-4241.7093142176718
 30
0.0
 41
1.0
 10
-3809.8491519044755
 20
-4241.7115569987054
 30
0.0
 41
1.0
 10
-3809.8478031783852
 20
-4241.7137997797399
 30
0.0
 41
1.0
 10
-3809.7905388132517
 20
-4241.8090240309521
 30
0.0
 41
0.9991046436070797
 10
-3809.7415295999258
 20
-4241.9087484639867
 30
0.0
 41
1.0
 10
-3809.7400657383387
 20
-4241.9117271440537
 30
0.0
 41
1.0
 10
-3809.7386018767511
 20
-4241.9147058241206
 30
0.0
 41
1.0
 10
-3809.68666494025
 20
-4242.0203876172891
 30
0.0
 41
0.9992763831100828
 10
-3809.6429118116998
 20
-4242.1297116792339
 30
0.0
 41
1.0
 10
-3809.6414325420337
 20
-4242.1334078667742
 30
0.0
 41
1.0
 10
-3809.6399532723681
 20
-4242.1371040543145
 30
0.0
 41
1.0
 10
-3809.5932416044889
 20
-4242.2538204913308
 30
0.0
 41
0.9994163472884188
 10
-3809.5546085732972
 20
-4242.3734540797986
 30
0.0
 41
1.0
 10
-3809.5533704210475
 20
-4242.3772882235899
 30
0.0
 41
1.0
 10
-3809.5521322687982
 20
-4242.3811223673811
 30
0.0
 41
1.0
 10
-3809.5122487077833
 20
-4242.5046284288528
 30
0.0
 41
0.9997268055890286
 10
-3809.4781806518731
 20
-4242.6298634607965
 30
0.0
 41
1.0
 10
-3809.4772504716057
 20
-4242.6332828268969
 30
0.0
 41
1.0
 10
-3809.4763202913387
 20
-4242.6367021929973
 30
0.0
 41
1.0
 10
-3809.4441125959615
 20
-4242.7550984927466
 30
0.0
 41
0.9996701319000529
 10
-3809.4180269791905
 20
-4242.8749924460108
 30
0.0
 41
1.0
 10
-3809.3919413624208
 20
-4242.9948863992713
 30
0.0
 41
0.9995785451110235
 10
-3809.3728577850784
 20
-4243.1160921603168
 30
0.0
 41
1.0
 10
-3809.3686380029058
 20
-4243.1428933150746
 30
0.0
 41
1.0
 10
-3809.3644182207336
 20
-4243.1696944698324
 30
0.0
 41
1.0
 10
-3809.3378432447944
 20
-4243.3384804435373
 30
0.0
 41
0.9979925101215622
 10
-3809.3328176588684
 20
-4243.5092717716307
 30
0.0
 41
1.0
 10
-3809.3319928464434
 20
-4243.5373024951214
 30
0.0
 41
1.0
 10
-3809.3311680340189
 20
-4243.5653332186121
 30
0.0
 41
1.0
 10
-3809.3277920729424
 20
-4243.6800630997232
 30
0.0
 41
0.9995314902264225
 10
-3809.3314422650801
 20
-4243.7947845834742
 30
0.0
 41
1.0
 10
-3809.3350924572187
 20
-4243.9095060672262
 30
0.0
 41
0.9996245486944526
 10
-3809.3450215523499
 20
-4244.0238553383506
 30
0.0
 41
1.0
 10
-3809.3451846003441
 20
-4244.025733094486
 30
0.0
 41
1.0
 10
-3809.3453476483382
 20
-4244.0276108506205
 30
0.0
 41
1.0
 10
-3809.3556028394582
 20
-4244.1457156340193
 30
0.0
 41
0.9997286095000869
 10
-3809.3713481630302
 20
-4244.2632145429152
 30
0.0
 41
1.0
 10
-3809.3717416556801
 20
-4244.2661509676145
 30
0.0
 41
1.0
 10
-3809.37213514833
 20
-4244.2690873923129
 30
0.0
 41
1.0
 10
-3809.3886674572009
 20
-4244.3924591506066
 30
0.0
 41
0.9998265533969165
 10
-3809.4097829159368
 20
-4244.5151296254135
 30
0.0
 41
1.0
 10
-3809.4104594580731
 20
-4244.5190600039141
 30
0.0
 41
1.0
 10
-3809.4111360002089
 20
-4244.5229903824147
 30
0.0
 41
1.0
 10
-3809.4336045432133
 20
-4244.6535216142056
 30
0.0
 41
0.9999022530851045
 10
-3809.4597140078263
 20
-4244.7833735828626
 30
0.0
 41
1.0
 10
-3809.4606926489914
 20
-4244.7882407252473
 30
0.0
 41
1.0
 10
-3809.4616712901561
 20
-4244.793107867632
 30
0.0
 41
1.0
 10
-3809.4897380370885
 20
-4244.9326941210056
 30
0.0
 41
0.9999524761940295
 10
-3809.5205210059235
 20
-4245.0717066141733
 30
0.0
 41
1.0
 10
-3809.5217971131033
 20
-4245.0774693734938
 30
0.0
 41
1.0
 10
-3809.5230732202826
 20
-4245.0832321328144
 30
0.0
 41
1.0
 10
-3809.5564084034795
 20
-4245.2337701446304
 30
0.0
 41
0.9999813588714427
 10
-3809.5915794042708
 20
-4245.3838898572658
 30
0.0
 41
1.0
 10
-3809.593133329724
 20
-4245.3905224476748
 30
0.0
 41
1.0
 10
-3809.5946872551776
 20
-4245.3971550380838
 30
0.0
 41
1.0
 10
-3809.632966106883
 20
-4245.56053993157
 30
0.0
 41
0.9999955237724781
 10
-3809.6722219848598
 20
-4245.7236928351613
 30
0.0
 41
1.0
 10
-3809.6845036204977
 20
-4245.7747370256993
 30
0.0
 41
1.0
 10
-3809.6967852561356
 20
-4245.8257812162374
 30
0.0
 41
1.0
 10
-3809.7606044053655
 20
-4246.0910225008101
 30
0.0
 41
0.9999993604816885
 10
-3809.8250233525259
 20
-4246.3561187514615
 30
0.0
 41
1.0
 10
-3809.8297421880866
 20
-4246.3755376595582
 30
0.0
 41
1.0
 10
-3809.8344610236472
 20
-4246.3949565676539
 30
0.0
 41
1.0
 10
-3809.9083176419158
 20
-4246.698890634445
 30
0.0
 41
0.9999659914731049
 10
-3809.9871772378092
 20
-4247.0015651810354
 30
0.0
 41
1.0
 10
-3809.9921299267316
 20
-4247.0205743181868
 30
0.0
 41
1.0
 10
-3809.9970826156541
 20
-4247.0395834553374
 30
0.0
 41
1.0
 10
-3810.0858475893965
 20
-4247.3802762762461
 30
0.0
 41
0.9999441976022028
 10
-3810.1817906223464
 20
-4247.7190177014973
 30
0.0
 41
1.0
 10
-3810.1984911407799
 20
-4247.777981414054
 30
0.0
 41
1.0
 10
-3810.2151916592138
 20
-4247.8369451266117
 30
0.0
 41
1.0
 10
-3810.3445357290298
 20
-4248.2936139769708
 30
0.0
 41
0.9999625120732372
 10
-3810.4817684963555
 20
-4248.7479745109731
 30
0.0
 41
1.0
 10
-3810.5175584394328
 20
-4248.8664705375813
 30
0.0
 41
1.0
 10
-3810.5533483825102
 20
-4248.9849665641905
 30
0.0
 41
1.0
 10
-3810.6278685865545
 20
-4249.2316936423031
 30
0.0
 41
0.9999793386325544
 10
-3810.7055546096963
 20
-4249.4774422815535
 30
0.0
 41
1.0
 10
-3810.7832406328339
 20
-4249.7231909207894
 30
0.0
 41
1.0
 10
-3810.7940201917045
 20
-4249.7572088251645
 30
0.0
 41
1.0
 10
-3812.6443932449738
 20
-4255.6442807476324
 30
0.0
 41
1.0
 10
-3814.4947662982431
 20
-4261.5313526700993
 30
0.0
 41
1.0
 10
-3815.4560229882663
 20
-4261.5313526700993
 30
0.0
 41
1.0
 10
-3816.41727967829
 20
-4261.5313526700993
 30
0.0
 41
1.0
 10
-3814.7983348996113
 20
-4256.3833241683096
 30
0.0
 41
1.0
 10
-3813.179390120933
 20
-4251.2352956665209
 30
0.0
 41
1.0
 10
-3813.1342242977535
 20
-4251.0912644442324
 30
0.0
 41
1.0
 10
-3813.0890584745734
 20
-4250.9472332219448
 30
0.0
 41
1.0
 10
-3812.9187540572175
 20
-4250.4041421928032
 30
0.0
 41
0.9999911657912854
 10
-3812.7530212455417
 20
-4249.8596386614554
 30
0.0
 41
1.0
 10
-3812.7233253020568
 20
-4249.7620747214569
 30
0.0
 41
1.0
 10
-3812.6936293585723
 20
-4249.6645107814575
 30
0.0
 41
1.0
 10
-3812.5872884338769
 20
-4249.3151351301412
 30
0.0
 41
0.9999952428169457
 10
-3812.4831048445367
 20
-4248.9651101057416
 30
0.0
 41
1.0
 10
-3812.478045374206
 20
-4248.9481118314734
 30
0.0
 41
1.0
 10
-3812.4729859038757
 20
-4248.9311135572052
 30
0.0
 41
1.0
 10
-3812.3789212551947
 20
-4248.6150850813356
 30
0.0
 41
0.9999931687510706
 10
-3812.2871954173379
 20
-4248.2983698681219
 30
0.0
 41
1.0
 10
-3812.2822601528846
 20
-4248.2813291588727
 30
0.0
 41
1.0
 10
-3812.2773248884314
 20
-4248.2642884496236
 30
0.0
 41
1.0
 10
-3812.1954695794702
 20
-4247.9816546548736
 30
0.0
 41
0.999989384081403
 10
-3812.1162223530073
 20
-4247.6982785256041
 30
0.0
 41
1.0
 10
-3812.0369751265575
 20
-4247.4149023963819
 30
0.0
 41
0.9999833980065467
 10
-3811.9609988858042
 20
-4247.1306318133129
 30
0.0
 41
1.0
 10
-3811.9519949490809
 20
-4247.0969429348306
 30
0.0
 41
1.0
 10
-3811.9429910123577
 20
-4247.0632540563483
 30
0.0
 41
1.0
 10
-3811.8740264634894
 20
-4246.8052182240463
 30
0.0
 41
0.9999233658066525
 10
-3811.8114714922767
 20
-4246.5455540653511
 30
0.0
 41
1.0
 10
-3811.7489165210568
 20
-4246.2858899066287
 30
0.0
 41
1.0
 10
-3811.709433102199
 20
-4246.1220832422023
 30
0.0
 41
1.0
 10
-3811.7044544982245
 20
-4246.1014282803426
 30
0.0
 41
1.0
 10
-3811.6994758942496
 20
-4246.0807733184838
 30
0.0
 41
1.0
 10
-3811.6699496833439
 20
-4245.9582765777841
 30
0.0
 41
0.9999868670857411
 10
-3811.6416805993454
 20
-4245.8354836321314
 30
0.0
 41
1.0
 10
-3811.6377831121863
 20
-4245.8185540447084
 30
0.0
 41
1.0
 10
-3811.6338856250277
 20
-4245.8016244572864
 30
0.0
 41
1.0
 10
-3811.6134115153482
 20
-4245.7126906864823
 30
0.0
 41
0.999977817334182
 10
-3811.5941239172334
 20
-4245.623492069255
 30
0.0
 41
1.0
 10
-3811.5748363191178
 20
-4245.534293452024
 30
0.0
 41
0.9999602692862546
 10
-3811.5571419604962
 20
-4245.444765163641
 30
0.0
 41
1.0
 10
-3811.5539381284143
 20
-4245.4285547087347
 30
0.0
 41
1.0
 10
-3811.5507342963324
 20
-4245.4123442538275
 30
0.0
 41
1.0
 10
-3811.5266322735461
 20
-4245.2903950556265
 30
0.0
 41
0.9995617985320928
 10
-3811.5097889263288
 20
-4245.1672333079323
 30
0.0
 41
1.0
 10
-3811.5073244364226
 20
-4245.1492124905672
 30
0.0
 41
1.0
 10
-3811.5048599465163
 20
-4245.1311916732029
 30
0.0
 41
1.0
 10
-3811.4845766854678
 20
-4244.9828766234968
 30
0.0
 41
0.9991121410640751
 10
-3811.4768513318786
 20
-4244.8333805246848
 30
0.0
 41
1.0
 10
-3811.4759325418545
 20
-4244.81560068812
 30
0.0
 41
1.0
 10
-3811.4750137518304
 20
-4244.7978208515542
 30
0.0
 41
1.0
 10
-3811.4691259782908
 20
-4244.68388442589
 30
0.0
 41
0.9989792494908331
 10
-3811.4735450704075
 20
-4244.5698815899796
 30
0.0
 41
1.0
 10
-3811.4741930422765
 20
-4244.5531653440448
 30
0.0
 41
1.0
 10
-3811.4748410141456
 20
-4244.5364490981101
 30
0.0
 41
1.0
 10
-3811.4779641625255
 20
-4244.4558787540627
 30
0.0
 41
0.9997820295391999
 10
-3811.4844481599007
 20
-4244.3755090323375
 30
0.0
 41
1.0
 10
-3811.490932157275
 20
-4244.2951393106096
 30
0.0
 41
0.9998335105974204
 10
-3811.5003443527876
 20
-4244.2150596941519
 30
0.0
 41
1.0
 10
-3811.5019392774643
 20
-4244.2014899636652
 30
0.0
 41
1.0
 10
-3811.5035342021411
 20
-4244.1879202331784
 30
0.0
 41
1.0
 10
-3811.5161362470049
 20
-4244.0807011557654
 30
0.0
 41
0.9996876457878563
 10
-3811.5340801597999
 20
-4243.974245728069
 30
0.0
 41
1.0
 10
-3811.5363118229479
 20
-4243.9610059928118
 30
0.0
 41
1.0
 10
-3811.5385434860955
 20
-4243.9477662575546
 30
0.0
 41
1.0
 10
-3811.552339307515
 20
-4243.8659201135997
 30
0.0
 41
0.9995547496492261
 10
-3811.5709926294076
 20
-4243.7850426164123
 30
0.0
 41
1.0
 10
-3811.5713665862795
 20
-4243.7834212057032
 30
0.0
 41
1.0
 10
-3811.5717405431519
 20
-4243.7817997949942
 30
0.0
 41
1.0
 10
-3811.5896459513024
 20
-4243.7041651192103
 30
0.0
 41
0.9994899427172943
 10
-3811.61247085998
 20
-4243.6278318363866
 30
0.0
 41
1.0
 10
-3811.6129293867225
 20
-4243.6262983865927
 30
0.0
 41
1.0
 10
-3811.613387913465
 20
-4243.6247649367979
 30
0.0
 41
1.0
 10
-3811.6352957686609
 20
-4243.5514985535465
 30
0.0
 41
0.9993784877591405
 10
-3811.6623114037657
 20
-4243.4799578483926
 30
0.0
 41
1.0
 10
-3811.662843094743
 20
-4243.4785498656702
 30
0.0
 41
1.0
 10
-3811.6633747857209
 20
-4243.4771418829478
 30
0.0
 41
1.0
 10
-3811.689327038875
 20
-4243.4084171432269
 30
0.0
 41
0.9992430832254433
 10
-3811.7205435740316
 20
-4243.3419179911652
 30
0.0
 41
1.0
 10
-3811.7211256900887
 20
-4243.3406779360466
 30
0.0
 41
1.0
 10
-3811.7217078061458
 20
-4243.3394378809289
 30
0.0
 41
1.0
 10
-3811.7517601091909
 20
-4243.2754188390963
 30
0.0
 41
0.999078963279469
 10
-3811.7871907359677
 20
-4243.2142122273481
 30
0.0
 41
1.0
 10
-3811.7877864421471
 20
-4243.2131831414936
 30
0.0
 41
1.0
 10
-3811.788382148326
 20
-4243.21215405564
 30
0.0
 41
1.0
 10
-3811.8226213627436
 20
-4243.1530056156007
 30
0.0
 41
0.9988874801120985
 10
-3811.8622806387766
 20
-4243.0973459031811
 30
0.0
 41
1.0
 10
-3811.862836164838
 20
-4243.0965662515109
 30
0.0
 41
1.0
 10
-3811.8633916908989
 20
-4243.0957865998407
 30
0.0
 41
1.0
 10
-3811.9019399148065
 20
-4243.0416861907643
 30
0.0
 41
0.9986762060686776
 10
-3811.9458423860842
 20
-4242.9918324763239
 30
0.0
 41
1.0
 10
-3811.946286346415
 20
-4242.9913283345086
 30
0.0
 41
1.0
 10
-3811.9467303067463
 20
-4242.9908241926933
 30
0.0
 41
1.0
 10
-3811.9897448573574
 20
-4242.9419787618881
 30
0.0
 41
0.9984621642489273
 10
-3812.0379024141384
 20
-4242.8981954614137
 30
0.0
 41
1.0
 10
-3812.038149048657
 20
-4242.8979712292485
 30
0.0
 41
1.0
 10
-3812.0383956831752
 20
-4242.8977469970832
 30
0.0
 41
1.0
 10
-3812.0860599709185
 20
-4242.8544121609411
 30
0.0
 41
0.9982724693855355
 10
-3812.1384786027579
 20
-4242.8169678104241
 30
0.0
 41
1.0
 10
-3812.190897234595
 20
-4242.7795234599098
 30
0.0
 41
0.9981399180171099
 10
-3812.2474832979788
 20
-4242.7487369404698
 30
0.0
 41
1.0
 10
-3812.2475289600643
 20
-4242.7487120973092
 30
0.0
 41
1.0
 10
-3812.2475746221494
 20
-4242.7486872541485
 30
0.0
 41
1.0
 10
-3812.3042520096992
 20
-4242.7178510483918
 30
0.0
 41
0.9980927086836217
 10
-3812.3642973607652
 20
-4242.6942342395396
 30
0.0
 41
1.0
 10
-3812.3647375304772
 20
-4242.6940611136642
 30
0.0
 41
1.0
 10
-3812.3651777001896
 20
-4242.6938879877889
 30
0.0
 41
1.0
 10
-3812.4261033906769
 20
-4242.6699249271869
 30
0.0
 41
0.9981411356561514
 10
-3812.4894919120729
 20
-4242.6535522856821
 30
0.0
 41
1.0
 10
-3812.4903740287773
 20
-4242.6533244434759
 30
0.0
 41
1.0
 10
-3812.4912561454812
 20
-4242.6530966012697
 30
0.0
 41
1.0
 10
-3812.5564089002851
 20
-4242.6362682753534
 30
0.0
 41
0.9983031812934873
 10
-3812.6230763292815
 20
-4242.6271289141769
 30
0.0
 41
1.0
 10
-3812.6319473546837
 20
-4242.6259127955054
 30
0.0
 41
1.0
 10
-3812.6408183800859
 20
-4242.6246966768349
 30
0.0
 41
1.0
 10
-3812.6951680225898
 20
-4242.6172459468435
 30
0.0
 41
0.9983887708263687
 10
-3812.7500118718835
 20
-4242.6160012732098
 30
0.0
 41
1.0
 10
-3812.7580752770946
 20
-4242.6158182753352
 30
0.0
 41
1.0
 10
-3812.7661386823061
 20
-4242.6156352774606
 30
0.0
 41
1.0
 10
-3812.80485572117
 20
-4242.6147565995761
 30
0.0
 41
0.9998869563079921
 10
-3812.843581674379
 20
-4242.6150424689358
 30
0.0
 41
1.0
 10
-3812.8823076276685
 20
-4242.6153283382964
 30
0.0
 41
0.9999972320060252
 10
-3812.9210318069645
 20
-4242.6157964378262
 30
0.0
 41
1.0
 10
-3812.9403848234583
 20
-4242.6160303779143
 30
0.0
 41
1.0
 10
-3812.9597378399521
 20
-4242.6162643180032
 30
0.0
 41
1.0
 10
-3813.0371680523222
 20
-4242.6172002977119
 30
0.0
 41
0.9997304945087489
 10
-3813.1144713585591
 20
-4242.6217293914979
 30
0.0
 41
1.0
 10
-3813.1235210002642
 20
-4242.6222595974878
 30
0.0
 41
1.0
 10
-3813.1325706419693
 20
-4242.6227898034776
 30
0.0
 41
1.0
 10
-3813.227973231616
 20
-4242.6283793092434
 30
0.0
 41
0.9997888306415136
 10
-3813.3230655674588
 20
-4242.6378842737322
 30
0.0
 41
1.0
 10
-3813.3317866290308
 20
-4242.6387559883642
 30
0.0
 41
1.0
 10
-3813.3405076906033
 20
-4242.6396277029962
 30
0.0
 41
1.0
 10
-3813.453042149592
 20
-4242.6508760967499
 30
0.0
 41
0.9984170238191233
 10
-3813.5636012969453
 20
-4242.6746921786862
 30
0.0
 41
1.0
 10
-3813.5999824279274
 20
-4242.6825292144913
 30
0.0
 41
1.0
 10
-3813.6363635589096
 20
-4242.6903662502964
 30
0.0
 41
1.0
 10
-3813.7515546273353
 20
-4242.7151801168075
 30
0.0
 41
0.9976592854198816
 10
-3813.8622827937425
 20
-4242.7554787939553
 30
0.0
 41
1.0
 10
-3813.9730109601433
 20
-4242.7957774711003
 30
0.0
 41
0.9993255074352967
 10
-3814.080482758935
 20
-4242.8440943695932
 30
0.0
 41
1.0
 10
-3814.0851079378599
 20
-4242.8461737457937
 30
0.0
 41
1.0
 10
-3814.0897331167844
 20
-4242.8482531219943
 30
0.0
 41
1.0
 10
-3814.2064552734191
 20
-4242.9007287728846
 30
0.0
 41
0.9976475078273601
 10
-3814.3149026177311
 20
-4242.9686767625435
 30
0.0
 41
1.0
 10
-3814.3332450118696
 20
-4242.9801692413603
 30
0.0
 41
1.0
 10
-3814.3515874060081
 20
-4242.9916617201779
 30
0.0
 41
1.0
 10
-3814.4357895975563
 20
-4243.0444188409438
 30
0.0
 41
0.9995131336407445
 10
-3814.5165373125114
 20
-4243.1023250528951
 30
0.0
 41
1.0
 10
-3814.5972850274625
 20
-4243.1602312648429
 30
0.0
 41
0.9995810107605357
 10
-3814.6745466751927
 20
-4243.2227129473104
 30
0.0
 41
1.0
 10
-3814.6775167064052
 20
-4243.225114818777
 30
0.0
 41
1.0
 10
-3814.6804867376177
 20
-4243.2275166902436
 30
0.0
 41
1.0
 10
-3814.7636884477738
 20
-4243.2948021156435
 30
0.0
 41
0.9996617837952586
 10
-3814.8432791349082
 20
-4243.3663225712035
 30
0.0
 41
1.0
 10
-3814.8554098857776
 20
-4243.3772233041873
 30
0.0
 41
1.0
 10
-3814.8675406366474
 20
-4243.3881240371711
 30
0.0
 41
1.0
 10
-3814.9358161640494
 20
-4243.4494766526486
 30
0.0
 41
0.9997267750053315
 10
-3815.0011496723373
 20
-4243.5139531891782
 30
0.0
 41
1.0
 10
-3815.0664831806271
 20
-4243.5784297257087
 30
0.0
 41
0.9999667288961885
 10
-3815.13075612378
 20
-4243.6439635326096
 30
0.0
 41
1.0
 10
-3815.1995835715488
 20
-4243.7141411913617
 30
0.0
 41
1.0
 10
-3815.2684110193177
 20
-4243.7843188501138
 30
0.0
 41
1.0
 10
-3815.4703388580137
 20
-4243.9902079745243
 30
0.0
 41
0.9988205335175892
 10
-3815.6513444749967
 20
-4244.214712206588
 30
0.0
 41
1.0
 10
-3815.6819844399001
 20
-4244.2527154570162
 30
0.0
 41
1.0
 10
-3815.7126244048036
 20
-4244.2907187074452
 30
0.0
 41
1.0
 10
-3815.9549099515939
 20
-4244.5912294403679
 30
0.0
 41
0.9997077826755952
 10
-3816.1823879027011
 20
-4244.9030992345861
 30
0.0
 41
1.0
 10
-3816.1841113178298
 20
-4244.9054620179631
 30
0.0
 41
1.0
 10
-3816.1858347329589
 20
-4244.9078248013411
 30
0.0
 41
1.0
 10
-3816.4167595143281
 20
-4245.2244201623207
 30
0.0
 41
0.9989147567078245
 10
-3816.6172230172083
 20
-4245.5611296235029
 30
0.0
 41
1.0
 10
-3816.6419641625116
 20
-4245.602686204049
 30
0.0
 41
1.0
 10
-3816.6667053078149
 20
-4245.644242784595
 30
0.0
 41
1.0
 10
-3816.8219166064559
 20
-4245.904944169054
 30
0.0
 41
0.9997476598181297
 10
-3816.965261593969
 20
-4246.1723539176419
 30
0.0
 41
1.0
 10
-3817.1086065814748
 20
-4246.439763666217
 30
0.0
 41
0.9996258967110179
 10
-3817.2371148334096
 20
-4246.7146116028462
 30
0.0
 41
1.0
 10
-3817.2503147428615
 20
-4246.7428430029468
 30
0.0
 41
1.0
 10
-3817.2635146523139
 20
-4246.7710744030483
 30
0.0
 41
1.0
 10
-3817.4037233733115
 20
-4247.0709468009964
 30
0.0
 41
0.9998735413946075
 10
-3817.5343247200303
 20
-4247.3751264004604
 30
0.0
 41
1.0
 10
-3817.5377675480863
 20
-4247.3831449859154
 30
0.0
 41
1.0
 10
-3817.5412103761423
 20
-4247.3911635713694
 30
0.0
 41
1.0
 10
-3817.6649260667459
 20
-4247.6793059999163
 30
0.0
 41
0.9999377418861913
 10
-3817.7821808689255
 20
-4247.9701374676024
 30
0.0
 41
1.0
 10
-3817.8994356710928
 20
-4248.2609689352594
 30
0.0
 41
0.9999508299508358
 10
-3818.0108996144622
 20
-4248.5540686120585
 30
0.0
 41
1.0
 10
-3818.0139803831325
 20
-4248.5621696380431
 30
0.0
 41
1.0
 10
-3818.0170611518033
 20
-4248.5702706640277
 30
0.0
 41
1.0
 10
-3818.1346866324966
 20
-4248.8795723927542
 30
0.0
 41
0.9999609228437461
 10
-3818.2468252353638
 20
-4249.1909054087491
 30
0.0
 41
1.0
 10
-3818.2497812457214
 20
-4249.19911224918
 30
0.0
 41
1.0
 10
-3818.2527372560785
 20
-4249.2073190896117
 30
0.0
 41
1.0
 10
-3818.3707878796558
 20
-4249.5350657864601
 30
0.0
 41
0.9999674607407055
 10
-3818.4835354057309
 20
-4249.8646744064717
 30
0.0
 41
1.0
 10
-3818.5349337962871
 20
-4250.0149336021459
 30
0.0
 41
1.0
 10
-3818.5863321868433
 20
-4250.1651927978191
 30
0.0
 41
1.0
 10
-3818.7023427936019
 20
-4250.5043407803259
 30
0.0
 41
0.9999287532308825
 10
-3818.8102241975735
 20
-4250.8461615193046
 30
0.0
 41
1.0
 10
-3818.8567014537384
 20
-4250.9934240637585
 30
0.0
 41
1.0
 10
-3818.9031787099038
 20
-4251.1406866082125
 30
0.0
 41
1.0
 10
-3818.9181056015718
 20
-4251.1879822583669
 30
0.0
 41
0.9999998222927218
 10
-3818.9329761102745
 20
-4251.2352956665209
 30
0.0
 41
1.0
 10
-3820.5536322470698
 20
-4256.3833241683096
 30
0.0
 41
1.0
 10
-3822.1742883838656
 20
-4261.5313526700993
 30
0.0
 41
1.0
 10
-3823.0795968277562
 20
-4261.5313526700993
 30
0.0
 41
1.0
 10
-3823.9849052716472
 20
-4261.5313526700993
 30
0.0
 41
1.0
 10
-3822.1328208602613
 20
-4255.6442807476324
 30
0.0
 41
1.0
 10
-3820.2807364488754
 20
-4249.7572088251645
 30
0.0
 41
1.0
 10
-3820.2706146905725
 20
-4249.7251656117151
 30
0.0
 41
1.0
 10
-3820.1980070217228
 20
-4249.4948660698892
 30
0.0
 41
1.0
 10
-3820.1253993528753
 20
-4249.2645665280706
 30
0.0
 41
0.9999825681978608
 10
-3820.0555163136664
 20
-4249.0334256330143
 30
0.0
 41
1.0
 10
-3820.0072252514988
 20
-4248.8737010494951
 30
0.0
 41
1.0
 10
-3819.9589341893311
 20
-4248.7139764659769
 30
0.0
 41
1.0
 10
-3819.8617818360271
 20
-4248.3926412442452
 30
0.0
 41
0.9999672528965236
 10
-3819.7698430304008
 20
-4248.0697756986483
 30
0.0
 41
1.0
 10
-3819.7670541467423
 20
-4248.0599818532992
 30
0.0
 41
1.0
 10
-3819.7642652630843
 20
-4248.0501880079501
 30
0.0
 41
1.0
 10
-3819.6779042247754
 20
-4247.7469101530551
 30
0.0
 41
0.9999899749127149
 10
-3819.5942626152428
 20
-4247.4428710646098
 30
0.0
 41
1.0
 10
-3819.5841566962217
 20
-4247.4061358269182
 30
0.0
 41
1.0
 10
-3819.5740507772007
 20
-4247.3694005892266
 30
0.0
 41
1.0
 10
-3819.5106210057043
 20
-4247.1388319761454
 30
0.0
 41
0.9999214200504313
 10
-3819.4529915773301
 20
-4246.906745633948
 30
0.0
 41
1.0
 10
-3819.4402257251477
 20
-4246.8553347485449
 30
0.0
 41
1.0
 10
-3819.4274598729658
 20
-4246.8039238631418
 30
0.0
 41
1.0
 10
-3819.3953621489518
 20
-4246.6746592917334
 30
0.0
 41
0.999982868165048
 10
-3819.3647798969573
 20
-4246.5450278172711
 30
0.0
 41
1.0
 10
-3819.3341976449592
 20
-4246.4153963427943
 30
0.0
 41
0.999938984448195
 10
-3819.3064866561685
 20
-4246.2851208868842
 30
0.0
 41
1.0
 10
-3819.2993489124501
 20
-4246.2515647830569
 30
0.0
 41
1.0
 10
-3819.2922111687321
 20
-4246.2180086792287
 30
0.0
 41
1.0
 10
-3819.2502246925055
 20
-4246.0206210156684
 30
0.0
 41
0.9998933699438707
 10
-3819.2140204281
 20
-4245.8220914078956
 30
0.0
 41
1.0
 10
-3819.2126476028834
 20
-4245.8145633871991
 30
0.0
 41
1.0
 10
-3819.2112747776673
 20
-4245.8070353665016
 30
0.0
 41
1.0
 10
-3819.1723248628323
 20
-4245.5934497173484
 30
0.0
 41
0.9996850305193504
 10
-3819.1441411865735
 20
-4245.3781787119087
 30
0.0
 41
1.0
 10
-3819.1421461532059
 20
-4245.3629403577997
 30
0.0
 41
1.0
 10
-3819.1401511198383
 20
-4245.3477020036917
 30
0.0
 41
1.0
 10
-3819.1127432573762
 20
-4245.1383567765197
 30
0.0
 41
0.9994697936706247
 10
-3819.0990186981567
 20
-4244.9276715811848
 30
0.0
 41
1.0
 10
-3819.0985416289068
 20
-4244.9203481089708
 30
0.0
 41
1.0
 10
-3819.0980645596569
 20
-4244.9130246367567
 30
0.0
 41
1.0
 10
-3819.0852941389367
 20
-4244.7169863858444
 30
0.0
 41
0.999180489313614
 10
-3819.0884224552101
 20
-4244.5205575358796
 30
0.0
 41
1.0
 10
-3819.088506334032
 20
-4244.5152907344655
 30
0.0
 41
1.0
 10
-3819.0885902128543
 20
-4244.5100239330513
 30
0.0
 41
1.0
 10
-3819.0915507714822
 20
-4244.3241286859002
 30
0.0
 41
0.9988448329318972
 10
-3819.1123423171066
 20
-4244.1393760960727
 30
0.0
 41
1.0
 10
-3819.1139363908092
 20
-4244.1252112403054
 30
0.0
 41
1.0
 10
-3819.1155304645117
 20
-4244.1110463845389
 30
0.0
 41
1.0
 10
-3819.1331338627292
 20
-4243.9546235062453
 30
0.0
 41
0.9985503209457174
 10
-3819.1674501350299
 20
-4243.8009993221513
 30
0.0
 41
1.0
 10
-3819.1750361271006
 20
-4243.7670389947525
 30
0.0
 41
1.0
 10
-3819.1826221191718
 20
-4243.7330786673538
 30
0.0
 41
1.0
 10
-3819.2017664073296
 20
-4243.6473751380572
 30
0.0
 41
0.9991036781366272
 10
-3819.2280912689803
 20
-4243.5635980507368
 30
0.0
 41
1.0
 10
-3819.2320734944433
 20
-4243.5509248882045
 30
0.0
 41
1.0
 10
-3819.2360557199058
 20
-4243.538251725673
 30
0.0
 41
1.0
 10
-3819.2544161306387
 20
-4243.47982096339
 30
0.0
 41
0.9998874504368819
 10
-3819.27452133831
 20
-4243.4219673611879
 30
0.0
 41
1.0
 10
-3819.2946265459868
 20
-4243.3641137589711
 30
0.0
 41
0.9994041637547841
 10
-3819.3186751589178
 20
-4243.3077850550872
 30
0.0
 41
1.0
 10
-3819.3228719431463
 20
-4243.2979549905958
 30
0.0
 41
1.0
 10
-3819.3270687273744
 20
-4243.2881249261036
 30
0.0
 41
1.0
 10
-3819.3549475583686
 20
-4243.2228247601361
 30
0.0
 41
0.999184684069697
 10
-3819.3880039150586
 20
-4243.1599867288642
 30
0.0
 41
1.0
 10
-3819.3891405214513
 20
-4243.1578261124141
 30
0.0
 41
1.0
 10
-3819.390277127844
 20
-4243.1556654959641
 30
0.0
 41
1.0
 10
-3819.4210602717512
 20
-4243.0971486975841
 30
0.0
 41
0.9989253167920843
 10
-3819.4571296958065
 20
-4243.0417337691933
 30
0.0
 41
1.0
 10
-3819.458183820484
 20
-4243.0401142744258
 30
0.0
 41
1.0
 10
-3819.4592379451615
 20
-4243.0384947796583
 30
0.0
 41
1.0
 10
-3819.493199119865
 20
-4242.9863188407971
 30
0.0
 41
0.9986467172834155
 10
-3819.5323962724988
 20
-4242.9379528071731
 30
0.0
 41
1.0
 10
-3819.533270401203
 20
-4242.93687420489
 30
0.0
 41
1.0
 10
-3819.5341445299073
 20
-4242.9357956026079
 30
0.0
 41
1.0
 10
-3819.5715934251398
 20
-4242.8895867735382
 30
0.0
 41
0.9984001104259943
 10
-3819.6140201556536
 20
-4242.8479016661749
 30
0.0
 41
1.0
 10
-3819.6146072937613
 20
-4242.8473247912953
 30
0.0
 41
1.0
 10
-3819.615194431869
 20
-4242.8467479164156
 30
0.0
 41
1.0
 10
-3819.6564468861693
 20
-4242.806216558808
 30
0.0
 41
0.9982442159084125
 10
-3819.7022029875061
 20
-4242.7708479975463
 30
0.0
 41
1.0
 10
-3819.702417782968
 20
-4242.7706819649029
 30
0.0
 41
1.0
 10
-3819.7026325784304
 20
-4242.7705159322595
 30
0.0
 41
1.0
 10
-3819.7479590888438
 20
-4242.7354794362836
 30
0.0
 41
0.9982450060834882
 10
-3819.7971100679133
 20
-4242.7060476532515
 30
0.0
 41
1.0
 10
-3819.8462610469915
 20
-4242.6766158702148
 30
0.0
 41
0.998392263963417
 10
-3819.8984273531601
 20
-4242.6529362355595
 30
0.0
 41
1.0
 10
-3819.8986542304792
 20
-4242.6528332500802
 30
0.0
 41
1.0
 10
-3819.8988811077988
 20
-4242.6527302646018
 30
0.0
 41
1.0
 10
-3819.9515011686103
 20
-4242.6288446589861
 30
0.0
 41
0.9986517147154043
 10
-3820.0063141414748
 20
-4242.6105435398649
 30
0.0
 41
1.0
 10
-3820.0069920629057
 20
-4242.6103171934319
 30
0.0
 41
1.0
 10
-3820.0076699843366
 20
-4242.6100908469998
 30
0.0
 41
1.0
 10
-3820.063838800063
 20
-4242.5913370350145
 30
0.0
 41
0.9989435598957531
 10
-3820.1214921872179
 20
-4242.5778193327787
 30
0.0
 41
1.0
 10
-3820.1225723067964
 20
-4242.5775660825266
 30
0.0
 41
1.0
 10
-3820.123652426375
 20
-4242.5773128322744
 30
0.0
 41
1.0
 10
-3820.1834660526856
 20
-4242.5632886295352
 30
0.0
 41
0.9992249241243356
 10
-3820.2441975615784
 20
-4242.55401328682
 30
0.0
 41
1.0
 10
-3820.2456112498739
 20
-4242.5537973784121
 30
0.0
 41
1.0
 10
-3820.2470249381695
 20
-4242.5535814700033
 30
0.0
 41
1.0
 10
-3820.3105838236488
 20
-4242.5438743104733
 30
0.0
 41
0.9994396597836006
 10
-3820.3746497601865
 20
-4242.5384413881275
 30
0.0
 41
1.0
 10
-3820.3937904276636
 20
-4242.5368182204093
 30
0.0
 41
1.0
 10
-3820.4129310951412
 20
-4242.5351950526901
 30
0.0
 41
1.0
 10
-3820.5152783666281
 20
-4242.5265157949079
 30
0.0
 41
0.9987693403123065
 10
-3820.6179819902086
 20
-4242.5280188583592
 30
0.0
 41
1.0
 10
-3820.6282363244436
 20
-4242.5281689301337
 30
0.0
 41
1.0
 10
-3820.6384906586786
 20
-4242.5283190019081
 30
0.0
 41
1.0
 10
-3820.7480464248551
 20
-4242.5299223461952
 30
0.0
 41
0.9989753644966622
 10
-3820.8570084248704
 20
-4242.5414253531198
 30
0.0
 41
1.0
 10
-3820.9659704248847
 20
-4242.5529283600454
 30
0.0
 41
0.9983190067306578
 10
-3821.0728692358502
 20
-4242.5769633518321
 30
0.0
 41
1.0
 10
-3821.0817701874576
 20
-4242.5789646303947
 30
0.0
 41
1.0
 10
-3821.0906711390653
 20
-4242.5809659089573
 30
0.0
 41
1.0
 10
-3821.2153718532445
 20
-4242.6090034578701
 30
0.0
 41
0.998553938830509
 10
-3821.3363416069215
 20
-4242.6502671339149
 30
0.0
 41
1.0
 10
-3821.3386870378818
 20
-4242.6510671777305
 30
0.0
 41
1.0
 10
-3821.3410324688425
 20
-4242.651867221547
 30
0.0
 41
1.0
 10
-3821.4666930844432
 20
-4242.6947309852249
 30
0.0
 41
0.9988468746492059
 10
-3821.5876634267447
 20
-4242.7494490702884
 30
0.0
 41
1.0
 10
-3821.5908462487314
 20
-4242.7508887448475
 30
0.0
 41
1.0
 10
-3821.5940290707185
 20
-4242.7523284194067
 30
0.0
 41
1.0
 10
-3821.7213650570006
 20
-4242.8099258535913
 30
0.0
 41
0.9991322885919172
 10
-3821.8434656410627
 20
-4242.8779211857764
 30
0.0
 41
1.0
 10
-3821.8610676521039
 20
-4242.8877233877647
 30
0.0
 41
1.0
 10
-3821.8786696631446
 20
-4242.8975255897531
 30
0.0
 41
1.0
 10
-3821.9808463442027
 20
-4242.954425705534
 30
0.0
 41
0.9993860037848819
 10
-3822.0787873482714
 20
-4243.0183417211192
 30
0.0
 41
1.0
 10
-3822.0844056611336
 20
-4243.0220082158212
 30
0.0
 41
1.0
 10
-3822.0900239739958
 20
-4243.0256747105223
 30
0.0
 41
1.0
 10
-3822.176728352355
 20
-4243.0822577367144
 30
0.0
 41
0.9998821494953772
 10
-3822.2616547281577
 20
-4243.1414759667841
 30
0.0
 41
1.0
 10
-3822.3465811039687
 20
-4243.2006941968602
 30
0.0
 41
0.9997976482743531
 10
-3822.4290567343705
 20
-4243.2632806049005
 30
0.0
 41
1.0
 10
-3822.4436929991771
 20
-4243.2743872946812
 30
0.0
 41
1.0
 10
-3822.4583292639841
 20
-4243.2854939844628
 30
0.0
 41
1.0
 10
-3822.5700774239917
 20
-4243.3702937720609
 30
0.0
 41
0.9998091630800052
 10
-3822.6784277020261
 20
-4243.4593941227658
 30
0.0
 41
1.0
 10
-3822.6914334545031
 20
-4243.4700892232122
 30
0.0
 41
1.0
 10
-3822.7044392069802
 20
-4243.4807843236576
 30
0.0
 41
1.0
 10
-3822.8388009899622
 20
-4243.5912748752517
 30
0.0
 41
0.9995035112317822
 10
-3822.9659368677276
 20
-4243.7100086922674
 30
0.0
 41
1.0
 10
-3822.9755841781162
 20
-4243.7190184384272
 30
0.0
 41
1.0
 10
-3822.9852314885052
 20
-4243.728028184586
 30
0.0
 41
1.0
 10
-3823.1086545512717
 20
-4243.8432945563436
 30
0.0
 41
0.9994630424298985
 10
-3823.2242629570492
 20
-4243.9663972995731
 30
0.0
 41
1.0
 10
-3823.2279457958207
 20
-4243.9703188790863
 30
0.0
 41
1.0
 10
-3823.2316286345922
 20
-4243.9742404585995
 30
0.0
 41
1.0
 10
-3823.3398713628335
 20
-4244.0895000428081
 30
0.0
 41
0.9995160693749157
 10
-3823.440737392365
 20
-4244.2112674606815
 30
0.0
 41
1.0
 10
-3823.4426711124479
 20
-4244.2136018848923
 30
0.0
 41
1.0
 10
-3823.4446048325312
 20
-4244.2159363091032
 30
0.0
 41
1.0
 10
-3823.5416034218956
 20
-4244.3330348785521
 30
0.0
 41
0.9996561470514677
 10
-3823.6323296405635
 20
-4244.4550576410029
 30
0.0
 41
1.0
 10
-3823.6384873064626
 20
-4244.4633394300417
 30
0.0
 41
1.0
 10
-3823.6446449723621
 20
-4244.4716212190806
 30
0.0
 41
1.0
 10
-3823.7230558592337
 20
-4244.5770804034573
 30
0.0
 41
0.9998349055173046
 10
-3823.7975831411613
 20
-4244.6853189871154
 30
0.0
 41
1.0
 10
-3823.8721104230908
 20
-4244.7935575707743
 30
0.0
 41
0.9999728109571632
 10
-3823.9450333190257
 20
-4244.9028834963665
 30
0.0
 41
1.0
 10
-3823.9463485344268
 20
-4244.9048552658523
 30
0.0
 41
1.0
 10
-3823.9476637498274
 20
-4244.9068270353382
 30
0.0
 41
1.0
 10
-3824.0232170765212
 20
-4245.0200964998394
 30
0.0
 41
0.9999972147276209
 10
-3824.0982348869461
 20
-4245.1337213427514
 30
0.0
 41
1.0
 10
-3824.1032064295632
 20
-4245.141251431216
 30
0.0
 41
1.0
 10
-3824.1081779721799
 20
-4245.1487815196797
 30
0.0
 41
1.0
 10
-3824.1931388677876
 20
-4245.2774665394436
 30
0.0
 41
0.9999371979004879
 10
-3824.2751942171976
 20
-4245.4080234532303
 30
0.0
 41
1.0
 10
-3824.2787031015623
 20
-4245.4136063812994
 30
0.0
 41
1.0
 10
-3824.2822119859266
 20
-4245.4191893093684
 30
0.0
 41
1.0
 10
-3824.3712851040495
 20
-4245.5609120792678
 30
0.0
 41
0.9998272025612432
 10
-3824.4550284949378
 20
-4245.7058479560201
 30
0.0
 41
1.0
 10
-3824.4702436669613
 20
-4245.7321810704761
 30
0.0
 41
1.0
 10
-3824.4854588389853
 20
-4245.7585141849322
 30
0.0
 41
1.0
 10
-3824.5996325739147
 20
-4245.9561162905875
 30
0.0
 41
0.9995217214838297
 10
-3824.7013722634701
 20
-4246.1603986184491
 30
0.0
 41
1.0
 10
-3824.7090158261035
 20
-4246.1757460681474
 30
0.0
 41
1.0
 10
-3824.7166593887364
 20
-4246.1910935178466
 30
0.0
 41
1.0
 10
-3824.8035646813337
 20
-4246.3655899759433
 30
0.0
 41
0.9998269762606288
 10
-3824.8839191476027
 20
-4246.5431982626615
 30
0.0
 41
1.0
 10
-3824.9642736138626
 20
-4246.7208065493578
 30
0.0
 41
0.999894474738786
 10
-3825.0394344084275
 20
-4246.9006742749852
 30
0.0
 41
1.0
 10
-3825.0443880780285
 20
-4246.9125289299263
 30
0.0
 41
1.0
 10
-3825.0493417476291
 20
-4246.9243835848665
 30
0.0
 41
1.0
 10
-3825.1299888081703
 20
-4247.1173805248563
 30
0.0
 41
0.9999506734407954
 10
-3825.2067863370789
 20
-4247.3119413297245
 30
0.0
 41
1.0
 10
-3825.2213863023385
 20
-4247.3489292515023
 30
0.0
 41
1.0
 10
-3825.235986267598
 20
-4247.3859171732793
 30
0.0
 41
1.0
 10
-3825.2835838659557
 20
-4247.5065021345108
 30
0.0
 41
0.999991239395124
 10
-3825.3301703100051
 20
-4247.6274813372765
 30
0.0
 41
1.0
 10
-3825.3767567540399
 20
-4247.7484605400059
 30
0.0
 41
0.9999927113931375
 10
-3825.4224180484462
 20
-4247.8697919475389
 30
0.0
 41
1.0
 10
-3825.4363864798315
 20
-4247.9069089295053
 30
0.0
 41
1.0
 10
-3825.4503549112169
 20
-4247.9440259114717
 30
0.0
 41
1.0
 10
-3825.5239530684089
 20
-4248.1395912829794
 30
0.0
 41
0.9999487550951628
 10
-3825.5935766933694
 20
-4248.3366066481294
 30
0.0
 41
1.0
 10
-3825.6171703033128
 20
-4248.4033699584397
 30
0.0
 41
1.0
 10
-3825.6407639132563
 20
-4248.4701332687509
 30
0.0
 41
1.0
 10
-3825.7354495476361
 20
-4248.7380671035999
 30
0.0
 41
0.9999808436935788
 10
-3825.826811136264
 20
-4249.0071525348285
 30
0.0
 41
1.0
 10
-3825.9181727249006
 20
-4249.2762379660799
 30
0.0
 41
0.9999873932928273
 10
-3826.0068274336154
 20
-4249.5462273210824
 30
0.0
 41
1.0
 10
-3826.026919790489
 20
-4249.6074166538474
 30
0.0
 41
1.0
 10
-3826.0470121473622
 20
-4249.6686059866133
 30
0.0
 41
1.0
 10
-3826.1758515698189
 20
-4250.0609740071286
 30
0.0
 41
0.9999794883023713
 10
-3826.2996543547774
 20
-4250.4549602134111
 30
0.0
 41
1.0
 10
-3826.3108066141945
 20
-4250.4904508235832
 30
0.0
 41
1.0
 10
-3826.3219588736115
 20
-4250.5259414337543
 30
0.0
 41
1.0
 10
-3826.4645170375607
 20
-4250.9796141860079
 30
0.0
 41
0.9999982761853319
 10
-3826.605389477565
 20
-4251.4338132080929
 30
0.0
 41
1.0
 10
-3828.1935298101375
 20
-4256.4825829390957
 30
0.0
 41
1.0
 10
-3829.78167014271
 20
-4261.5313526700993
 30
0.0
 41
1.0
 10
-3830.7304207541865
 20
-4261.5313526700993
 30
0.0
 41
1.0
 10
-3831.679171365663
 20
-4261.5313526700993
 30
0.0
 41
1.0
 10
-3828.4408868795099
 20
-4251.2040304701532
 30
0.0
 41
1.0
 10
-3825.2026023933563
 20
-4240.876708270207
 30
0.0
 41
1.0
  0
LWPOLYLINE
  5
5D
100
AcDbEntity
  8
0
370
              15
390
0
  6
Continuous
 62
               7
100
AcDbPolyline
 90
      232
 70
             128
 10
-3850.9061481671833
 20
-4241.9610511017227
 42
0.0004370800755937
 10
-3850.9590253413503
 20
-4242.0297177411012
 10
-3850.9983095723828
 20
-4242.0808248538751
 42
0.0030481992195271
 10
-3851.1286482895152
 20
-4242.2525465462368
 10
-3851.1671599612528
 20
-4242.3039333300076
 42
0.0042058245765601
 10
-3851.371145011959
 20
-4242.5809390751319
 10
-3851.4235501344228
 20
-4242.6533719218623
 42
0.0120948898735385
 10
-3851.7195940511806
 20
-4243.0841215264054
 10
-3851.8157865503017
 20
-4243.2316022616287
 42
0.014160126394487
 10
-3852.1194305972285
 20
-4243.7272715983718
 10
-3852.1589678646583
 20
-4243.7961155658104
 42
0.0071131081292227
 10
-3852.3642401878928
 20
-4244.165618364641
 42
0.0068458790993097
 10
-3852.5591197147387
 20
-4244.5407099281219
 10
-3852.5659315771936
 20
-4244.5542716418404
 42
0.0064120880293455
 10
-3852.7640738272307
 20
-4244.9616961167449
 10
-3852.7716085127549
 20
-4244.9777079734813
 42
0.0058857236446338
 10
-3852.9743639046224
 20
-4245.4220840845064
 10
-3852.9825388309205
 20
-4245.4405742381496
 42
0.0053189741886137
 10
-3853.1912431435935
 20
-4245.9265377120819
 10
-3853.1999909492692
 20
-4245.9475195902642
 42
0.0047503650423255
 10
-3853.4159646754042
 20
-4246.4797190234349
 10
-3853.4252329237679
 20
-4246.5031953995822
 42
0.0042071762173963
 10
-3853.6497803075076
 20
-4247.0862889936825
 10
-3853.6595297098447
 20
-4247.1122551685212
 42
0.0036680086476048
 10
-3853.8939843531484
 20
-4247.7508905530294
 10
-3853.9041921330045
 20
-4247.7793390873967
 42
0.0032573142628467
 10
-3854.1498244189534
 20
-4248.4781917470982
 10
-3854.2184749398207
 20
-4248.6776548312291
 42
0.0026133366646483
 10
-3854.5669201385699
 20
-4249.7075181148748
 10
-3854.6301769260685
 20
-4249.8977489502613
 42
0.0020592950751257
 10
-3854.8440399950377
 20
-4250.5498526028805
 10
-3854.8470917862091
 20
-4250.5592890913158
 42
0.0025609928539076
 10
-3855.0489122876866
 20
-4251.1944343136565
 10
-3855.0515036548159
 20
-4251.2027366546054
 42
0.0031362356241579
 10
-3855.2409944404903
 20
-4251.8234995107769
 10
-3855.2431254834278
 20
-4251.830640817022
 42
0.0037229918040579
 10
-3855.4199258703443
 20
-4252.4396261189613
 10
-3855.4216044595532
 20
-4252.445573009144
 42
0.0043077623705752
 10
-3855.5853452616157
 20
-4253.045391740905
 42
0.0047654161817341
 10
-3855.7381739841326
 20
-4253.648077829811
 10
-3855.7726385929709
 20
-4253.7896396069573
 42
0.0112969368438209
 10
-3855.968502951112
 20
-4254.6813317675706
 10
-3855.9965093402107
 20
-4254.8241598136792
 42
0.0130056762572012
 10
-3856.1973465838573
 20
-4256.0111008853246
 10
-3856.2178863340037
 20
-4256.1551789987961
 42
0.0138721532135319
 10
-3856.3215893385423
 20
-4257.0620084846269
 10
-3856.3408848264435
 20
-4257.2855062064727
 42
0.0071254696989103
 10
-3856.3742314723731
 20
-4257.7486932153988
 10
-3856.3791924465336
 20
-4257.8346972099089
 42
0.002888179919241
 10
-3856.3943307398258
 20
-4258.1264389198022
 42
0.0060297297128712
 10
-3856.4042629396008
 20
-4258.4183878558897
 10
-3856.4053252212689
 20
-4258.4667802278527
 42
0.0229523164151822
 10
-3856.3975941934832
 20
-4258.7895350741337
 10
-3856.3933684199633
 20
-4258.8499386081439
 42
0.0123673300662594
 10
-3856.3742897734446
 20
-4259.0510593333247
 42
0.0128577674474512
 10
-3856.3450943830376
 20
-4259.2509571832543
 10
-3856.3379685096511
 20
-4259.292285997848
 42
0.0285717853751505
 10
-3856.2734745079556
 20
-4259.5704021491611
 10
-3856.2598059842885
 20
-4259.6170569186406
 42
0.0316283099160473
 10
-3856.1439954043744
 20
-4259.9360714204649
 10
-3856.1409467126173
 20
-4259.9430577927942
 42
0.033898482425189
 10
-3855.9915150016523
 20
-4260.2306237569792
 10
-3855.9892062722838
 20
-4260.2344147862523
 42
0.0350228718354376
 10
-3855.8068459816086
 20
-4260.4914667709327
 10
-3855.8059607298296
 20
-4260.4925458487014
 42
0.0347476747560579
 10
-3855.5915360425934
 20
-4260.7197308959167
 42
0.0331337701895852
 10
-3855.3482927168529
 20
-4260.9158595579902
 10
-3855.3471926183311
 20
-4260.9166322611663
 42
0.0305233319087526
 10
-3855.078647922749
 20
-4261.0817604312633
 10
-3855.0754178782563
 20
-4261.0834844431211
 42
0.0273744481156961
 10
-3854.7828641666697
 20
-4261.2196225870166
 10
-3854.7777596315445
 20
-4261.221666171481
 42
0.0240964406179611
 10
-3854.462282555904
 20
-4261.3306498977599
 10
-3854.4556992266889
 20
-4261.3325746374367
 42
0.0209636179792291
 10
-3854.118299074044
 20
-4261.4160427853676
 10
-3854.1106666135875
 20
-4261.4175946983705
 42
0.0181388704704449
 10
-3853.7523442215997
 20
-4261.4770107915829
 10
-3853.7440633732108
 20
-4261.4780769754016
 42
0.0156086547595101
 10
-3853.3658760090079
 20
-4261.5148131619781
 10
-3853.3226807567157
 20
-4261.5176516644551
 42
0.0137148329021572
 10
-3852.995007611396
 20
-4261.5301719197087
 10
-3852.9490714214462
 20
-4261.5306663528236
 42
0.0051057823914854
 10
-3852.7129258348778
 20
-4261.5307966072323
 42
0.0052256693304222
 10
-3852.4768285510522
 20
-4261.5260477827678
 10
-3852.4066017673495
 20
-4261.5239008167546
 42
0.0161507179059355
 10
-3852.0308646892499
 20
-4261.5002504464283
 10
-3852.0108517288754
 20
-4261.4983402511407
 42
0.0101216737833481
 10
-3851.5968245073886
 20
-4261.4503473207751
 10
-3851.562771217958
 20
-4261.4456996239651
 42
0.0245291776393209
 10
-3851.0859815624017
 20
-4261.3566245458878
 10
-3851.0011582468937
 20
-4261.3364286255455
 42
0.0143509212565134
 10
-3850.6445271429434
 20
-4261.2406239917636
 42
0.0156557857026418
 10
-3850.2943110782285
 20
-4261.1236127759503
 10
-3850.2868098637214
 20
-4261.1208426141911
 42
0.0170137333628966
 10
-3849.9302138680414
 20
-4260.9751849993208
 10
-3849.9231099456324
 20
-4260.9719971637569
 42
0.0183105364415053
 10
-3849.5637602774659
 20
-4260.7946621219317
 10
-3849.5568135128274
 20
-4260.7909116870596
 42
0.0194899958156841
 10
-3849.1983327718431
 20
-4260.5789327051689
 10
-3849.1913188925064
 20
-4260.5744073628739
 42
0.0204869852958876
 10
-3848.8373045904109
 20
-4260.3248873477869
 10
-3848.830038981826
 20
-4260.3193072824397
 42
0.0212516938567947
 10
-3848.4840490507154
 20
-4260.0294032855436
 10
-3848.4375323566387
 20
-4259.9869359754493
 42
0.021524891826646
 10
-3848.1775061877543
 20
-4259.7281716964571
 10
-3848.1324764533706
 20
-4259.6793275751043
 42
0.0114578554944348
 10
-3847.9776842996966
 20
-4259.5035046416488
 10
-3847.9664897637185
 20
-4259.4901858781141
 42
0.0061531305130355
 10
-3847.8400151177157
 20
-4259.3358963447981
 42
0.0006325587117119
 10
-3847.7156366336244
 20
-4259.1798929691977
 10
-3847.6925964985121
 20
-4259.1509194484624
 42
0.0041897761560351
 10
-3847.5241410945114
 20
-4258.9354000723642
 10
-3847.4656789746477
 20
-4258.859298725416
 42
0.0092993880038305
 10
-3847.1890670474231
 20
-4258.4850199615312
 10
-3847.1066725542228
 20
-4258.3690829579609
 42
0.0159321727078605
 10
-3846.7600660715825
 20
-4257.8469087372077
 10
-3846.715709936183
 20
-4257.7752291729412
 42
0.0085547317016734
 10
-3846.4811981708672
 20
-4257.3813542237331
 42
0.0084601156887261
 10
-3846.2602219934179
 20
-4256.9797273746872
 10
-3846.2521065195951
 20
-4256.9643676924279
 42
0.0081429654279043
 10
-3846.0288572491659
 20
-4256.5246461799034
 10
-3846.0199970849735
 20
-4256.5064673378674
 42
0.0076574581322296
 10
-3845.7935895743999
 20
-4256.0232844626007
 10
-3845.7841099336829
 20
-4256.0022199843115
 42
0.007068272420334
 10
-3845.5536650258682
 20
-4255.4701826795108
 10
-3845.5436747418944
 20
-4255.4461934905185
 42
0.006455951444018
 10
-3845.3083415337096
 20
-4254.8598812239898
 10
-3845.2979321755483
 20
-4254.8329462985566
 42
0.005831141390697
 10
-3845.0568854387866
 20
-4254.1869142041769
 10
-3845.0461303613979
 20
-4254.1570298630131
 42
0.0052312425817372
 10
-3844.7985490833421
 20
-4253.4458274491344
 10
-3844.7875052469772
 20
-4253.4130007371095
 42
0.0046680544793631
 10
-3844.5325768192433
 20
-4252.6311744213572
 10
-3844.4905846691995
 20
-4252.4981911840632
 42
0.0041666856439028
 10
-3844.2872986568041
 20
-4251.8352224090568
 10
-3844.2496362160882
 20
-4251.7086413012275
 42
0.0015170975171271
 10
-3844.1284496377275
 20
-4251.2967729499087
 42
-0.0004887993124693
 10
-3844.0081098646515
 20
-4250.8846545380284
 10
-3843.9316326071093
 20
-4250.6236971519265
 42
0.0002583378930268
 10
-3843.6584180370828
 20
-4249.6896404488762
 10
-3843.576645187416
 20
-4249.4095411889839
 42
0.0006636169673511
 10
-3843.3827774274569
 20
-4248.7421882655763
 10
-3843.3776807731083
 20
-4248.7245566826905
 42
0.0010589131327718
 10
-3843.1962320721932
 20
-4248.0918253396485
 10
-3843.1912500016851
 20
-4248.0743124325318
 42
0.0015655524461838
 10
-3843.0229797945303
 20
-4247.4756957534273
 10
-3843.0181495941106
 20
-4247.4583035944752
 42
0.0021640440472573
 10
-3842.863859622129
 20
-4246.893276576473
 10
-3842.8592254027035
 20
-4246.8760118464952
 42
0.0028763871843945
 10
-3842.7197096846457
 20
-4246.3440438956322
 10
-3842.7153238204742
 20
-4246.3269199174611
 42
0.0037310511955962
 10
-3842.5913671286417
 20
-4245.8274723234535
 10
-3842.5872919083577
 20
-4245.8105120522296
 42
0.004765219777426
 10
-3842.4796680078443
 20
-4245.3430342839038
 10
-3842.4759774085187
 20
-4245.3262747287426
 42
0.0060276699305339
 10
-3842.3854473093675
 20
-4244.8901989336091
 10
-3842.3822286190784
 20
-4244.8736977193003
 42
0.0075824337764716
 10
-3842.3095393096628
 20
-4244.4684305548735
 10
-3842.3068939322793
 20
-4244.452275607402
 42
0.0095130624610909
 10
-3842.2527786966511
 20
-4244.0771862543515
 10
-3842.2457924727692
 20
-4244.0212526962387
 42
0.0121054653239974
 10
-3842.2192011421912
 20
-4243.7563568677615
 10
-3842.218334652433
 20
-4243.7449534248517
 42
0.0069050827388128
 10
-3842.2032458343938
 20
-4243.5020121979869
 10
-3842.2021105347267
 20
-4243.4784859409765
 42
0.0169063976650826
 10
-3842.1992832557448
 20
-4243.2822932136423
 10
-3842.2004539072768
 20
-4243.2219574522496
 42
0.0052007732939962
 10
-3842.2027073558693
 20
-4243.1463640621405
 42
0.0054038123294041
 10
-3842.2226708677013
 20
-4243.0263457661695
 10
-3842.2277567235788
 20
-4242.9976872795496
 42
0.0112050460434343
 10
-3842.2631410856334
 20
-4242.8213608412279
 10
-3842.2809660476778
 20
-4242.7418192544901
 42
0.0240764468020381
 10
-3842.3718634138258
 20
-4242.4115822189824
 10
-3842.390422176637
 20
-4242.3549620539952
 42
0.0256812331833024
 10
-3842.5337850968263
 20
-4241.9832378477377
 10
-3842.5391945226506
 20
-4241.9711065127412
 42
0.0268360501223614
 10
-3842.7086217634978
 20
-4241.6401133787267
 10
-3842.7141581711339
 20
-4241.6305937084126
 42
0.0274670231714985
 10
-3842.906359147546
 20
-4241.3383063334968
 10
-3842.9117404474987
 20
-4241.3310271859691
 42
0.0275035967098383
 10
-3843.1233133270707
 20
-4241.0755112956522
 10
-3843.1283828280311
 20
-4241.0700322080284
 42
0.0269557673533411
 10
-3843.3557863714768
 20
-4240.8493899220593
 10
-3843.3605294292679
 20
-4240.8452599675911
 42
0.0259124802218681
 10
-3843.60008426069
 20
-4240.6575694404455
 10
-3843.6046151058722
 20
-4240.6543839381147
 42
0.0245162152989177
 10
-3843.852531458967
 20
-4240.4976509290054
 10
-3843.857058005286
 20
-4240.495090731808
 42
0.0229282588841329
 10
-3844.1094775621186
 20
-4240.3672225393057
 10
-3844.1142580559558
 20
-4240.3650702395435
 42
0.02129841357018
 10
-3844.3672960084168
 20
-4240.2638713223014
 10
-3844.3726002933645
 20
-4240.2620077595493
 42
0.0197555462315258
 10
-3844.6223786311093
 20
-4240.1851923415761
 42
0.0183511896772414
 10
-3844.8773073565612
 20
-4240.1276094346131
 10
-3844.9636725532891
 20
-4240.1114066442269
 42
0.0338057877139826
 10
-3845.2491799025561
 20
-4240.077598239086
 10
-3845.3401853076107
 20
-4240.0730185838238
 42
0.0091990524516018
 10
-3845.4460324162319
 20
-4240.0696427279017
 42
0.0028333980730852
 10
-3845.5519463321853
 20
-4240.0688146203856
 10
-3845.5528617852742
 20
-4240.0688126505611
 42
-0.0023619827810034
 10
-3845.6606078003515
 20
-4240.0680718094836
 10
-3845.697012970556
 20
-4240.0676495030202
 42
0.0008824598492689
 10
-3845.8775689605923
 20
-4240.0658737247795
 10
-3845.921430392812
 20
-4240.0655197632559
 42
0.0038132665768128
 10
-3846.1897132887048
 20
-4240.0654008271895
 10
-3846.2062469434841
 20
-4240.0655195933332
 42
0.0060665569311591
 10
-3846.5075274350629
 20
-4240.0713398927528
 10
-3846.5217777671005
 20
-4240.0717882007211
 42
0.0080356953333543
 10
-3846.8512364834105
 20
-4240.0874559227868
 10
-3846.863306498527
 20
-4240.0882245057292
 42
0.0098996399115755
 10
-3847.2160695831699
 20
-4240.1177097349264
 10
-3847.226115292553
 20
-4240.1187500311253
 42
0.0117740981360345
 10
-3847.5972721508897
 20
-4240.1660422786535
 10
-3847.6054948473839
 20
-4240.1672873952257
 42
0.0137435215157277
 10
-3847.9900836668749
 20
-4240.236384368789
 10
-3847.9967407059926
 20
-4240.237770265021
 42
0.015835986939737
 10
-3848.3897377997996
 20
-4240.3326623535031
 10
-3848.395150986662
 20
-4240.334152294372
 42
0.0180554124037959
 10
-3848.791466031274
 20
-4240.4587903106112
 10
-3848.7960228193579
 20
-4240.4604063468778
 42
0.0203657431289061
 10
-3849.1905003371762
 20
-4240.6186666883968
 10
-3849.1946438761765
 20
-4240.6205283098352
 42
0.0226819684647754
 10
-3849.5820799323828
 20
-4240.8161708885073
 10
-3849.5862797233985
 20
-4240.8185364804258
 42
0.024863498460297
 10
-3849.9614616645808
 20
-4241.0551631263734
 10
-3850.0096565933618
 20
-4241.0890201681968
 42
0.0267044190884492
 10
-3850.2839492902804
 20
-4241.3044605440664
 42
0.0139303002190422
 10
-3850.5401164562199
 20
-4241.5416993849803
 10
-3850.5449698419397
 20
-4241.546452047839
 42
0.0283460963444623
 10
-3850.7890424361672
 20
-4241.8141827082836
 10
-3850.8287109413236
 20
-4241.8629842857572
 42
0.0070695364812227
 10
-3850.9061481671833
 20
-4241.9610511017227
 42
0.0070695364812227
  0
LWPOLYLINE
  5
5E
100
AcDbEntity
  8
0
370
              15
390
0
  6
Continuous
 62
               7
100
AcDbPolyline
 90
      226
 70
             128
 10
-3854.4349686044297
 20
-4257.6826399079064
 42
-0.0026277636691823
 10
-3854.43504648823
 20
-4257.6158679822847
 10
-3854.4348291299975
 20
-4257.5627127647203
 42
-0.0088680296701717
 10
-3854.4310525137043
 20
-4257.3896969823072
 10
-3854.428706154592
 20
-4257.3304169568637
 42
-0.0077381705630788
 10
-3854.4126600438317
 20
-4257.0391564610991
 10
-3854.411792132656
 20
-4257.02686822738
 42
-0.006887253050768
 10
-3854.3851600529056
 20
-4256.7116464752862
 10
-3854.3839558287218
 20
-4256.6994054962925
 42
-0.0062130021503583
 10
-3854.3463621118913
 20
-4256.3605358050345
 10
-3854.3448582083588
 20
-4256.3483619331382
 42
-0.0056726929685964
 10
-3854.2959363488585
 20
-4255.9861667110381
 10
-3854.2941629032121
 20
-4255.9740729107789
 42
-0.0052341884491056
 10
-3854.23355231695
 20
-4255.5888796552463
 10
-3854.2315343281757
 20
-4255.5768747252678
 42
-0.0049768450174071
 10
-3854.1587956467511
 20
-4255.1690301578446
 10
-3854.1345466320272
 20
-4255.0404821748298
 42
-0.0089029805631589
 10
-3853.9974657802318
 20
-4254.3787067274025
 10
-3853.9647204049143
 20
-4254.233675296884
 42
-0.0080318257099169
 10
-3853.7351717905722
 20
-4253.287965665023
 10
-3853.7231868641256
 20
-4253.2418350298403
 42
-0.0074265721315058
 10
-3853.4391753252789
 20
-4252.2117704514721
 10
-3853.4192957821565
 20
-4252.1436363908633
 42
-0.0069711922701399
 10
-3853.091991203652
 20
-4251.0773686505427
 10
-3853.0320392565454
 20
-4250.8913472921686
 42
-0.0052070422891852
 10
-3852.8026140312872
 20
-4250.2040752151406
 10
-3852.785332839107
 20
-4250.1540479345012
 42
-0.0009167004449528
 10
-3852.5822409518255
 20
-4249.5695920863691
 42
-0.0025162726950577
 10
-3852.375143321573
 20
-4248.9865508222347
 10
-3852.3379187097562
 20
-4248.8834012762982
 42
-0.0028212681448826
 10
-3852.0897427907944
 20
-4248.2076706441294
 10
-3852.0799120280162
 20
-4248.1813631993791
 42
-0.0031964916819852
 10
-3851.8436197703813
 20
-4247.5611584373264
 10
-3851.8339853163825
 20
-4247.5363484471836
 42
-0.0036281836442459
 10
-3851.6088793552813
 20
-4246.9689077662897
 10
-3851.599440945115
 20
-4246.9456103347648
 42
-0.0041269166818927
 10
-3851.3848232484647
 20
-4246.4281694388083
 10
-3851.3521902920347
 20
-4246.3512909924257
 42
-0.0047472213055336
 10
-3851.1951454864902
 20
-4245.9908695245649
 10
-3851.1882514052418
 20
-4245.9754489271436
 42
-0.0025651660004485
 10
-3851.0398933714318
 20
-4245.648120871484
 42
-0.0057144634992182
 10
-3850.8861436776706
 20
-4245.3233111981417
 10
-3850.8581129722575
 20
-4245.2658028157221
 42
-0.0065388068372417
 10
-3850.6746459445194
 20
-4244.9015703190626
 10
-3850.666187488745
 20
-4244.8853107397008
 42
-0.0074510843033031
 10
-3850.4900052428629
 20
-4244.5586224585704
 10
-3850.4818255723417
 20
-4244.5439816813187
 42
-0.0084648979855517
 10
-3850.312191719232
 20
-4244.2520726703406
 10
-3850.3043355927407
 20
-4244.2390656786838
 42
-0.0095638542805761
 10
-3850.1405001451494
 20
-4243.9791768067107
 10
-3850.1330252014759
 20
-4243.9678074452522
 42
-0.010719162680459
 10
-3849.9742236210905
 20
-4243.7371962107109
 10
-3849.9672068873683
 20
-4243.727460118359
 42
-0.0118458573914395
 10
-3849.8126587888469
 20
-4243.5233879230364
 42
-0.0129184518181008
 10
-3849.64820616524
 20
-4243.3272274068586
 10
-3849.6180613928796
 20
-4243.2931013279622
 42
-0.0217742579649027
 10
-3849.4414490705467
 20
-4243.109894557716
 10
-3849.4307035260817
 20
-4243.0996777245091
 42
-0.0097266568634955
 10
-3849.2646459072307
 20
-4242.9478301500749
 42
-0.0187720905724989
 10
-3849.0902983313363
 20
-4242.8057612966832
 10
-3849.0595923406754
 20
-4242.7826022142963
 42
-0.0179428207518869
 10
-3848.8271716206709
 20
-4242.6200500371779
 10
-3848.8235192937514
 20
-4242.6176861022877
 42
-0.0170047877696291
 10
-3848.5877556562245
 20
-4242.4762255881396
 10
-3848.5839726674762
 20
-4242.4741272831025
 42
-0.0160190788376537
 10
-3848.3470641198428
 20
-4242.3524759811153
 42
-0.0151102861510833
 10
-3848.1030323374034
 20
-4242.2457932050629
 10
-3848.0506458351847
 20
-4242.2247530721652
 42
-0.027194544187077
 10
-3847.6919832761178
 20
-4242.1028882614573
 10
-3847.6229184756394
 20
-4242.0835387201932
 42
-0.0237596594025399
 10
-3847.2071216286158
 20
-4241.9880880082119
 10
-3847.1390587748883
 20
-4241.9758333200862
 42
-0.021371544054527
 10
-3846.8531838434401
 20
-4241.9368862885749
 10
-3846.7930366772221
 20
-4241.9312965738745
 42
-0.0101465655843792
 10
-3846.6255441452277
 20
-4241.9191530306107
 10
-3846.6162037590025
 20
-4241.9186661156118
 42
-0.0100375910879758
 10
-3846.4670496584667
 20
-4241.9138902976883
 10
-3846.4567903887933
 20
-4241.913767858674
 42
-0.0103625633403555
 10
-3846.3280823941313
 20
-4241.9148992922001
 10
-3846.3058167428703
 20
-4241.9155566506652
 42
-0.0115689250278054
 10
-3846.2217660053366
 20
-4241.9199861569105
 42
-0.0072438037450146
 10
-3846.1379277259061
 20
-4241.9275753566581
 10
-3846.1211272164246
 20
-4241.9293418993839
 42
-0.0217917313161198
 10
-3846.0045574531187
 20
-4241.9467617921027
 10
-3845.9389573625454
 20
-4241.9595084005186
 42
-0.0332943556773239
 10
-3845.7345651975165
 20
-4242.0135486918261
 10
-3845.7043926289452
 20
-4242.023716768952
 42
-0.0184824084834863
 10
-3845.5658875725012
 20
-4242.0761677843311
 42
-0.0198002050688784
 10
-3845.4318132320036
 20
-4242.1390518445287
 10
-3845.4299265946247
 20
-4242.1400296314096
 42
-0.0212242342984718
 10
-3845.2977876522259
 20
-4242.2157923702007
 10
-3845.2959723566792
 20
-4242.2169381724116
 42
-0.022609060581426
 10
-3845.1674684554632
 20
-4242.3064178159711
 10
-3845.1656240137199
 20
-4242.3078300689631
 42
-0.0238457052240835
 10
-3845.0424419324336
 20
-4242.4118259648194
 10
-3845.0404892038678
 20
-4242.413640842592
 42
-0.0248160564101354
 10
-3844.9242876965614
 20
-4242.5329154438068
 10
-3844.9221840631653
 20
-4242.5353007775047
 42
-0.0254109591461216
 10
-3844.814578845308
 20
-4242.6705891634574
 10
-3844.8123308233853
 20
-4242.6737307118701
 42
-0.0255528488272524
 10
-3844.7148841445828
 20
-4242.8257577661134
 10
-3844.7125530446719
 20
-4242.8298393777122
 42
-0.0252146793202987
 10
-3844.6267720186588
 20
-4242.9993416237194
 10
-3844.6244697795055
 20
-4243.004523705622
 42
-0.0244265635971531
 10
-3844.5518150857479
 20
-4243.1922702776574
 10
-3844.5425686842736
 20
-4243.2201356960122
 42
-0.023131961288234
 10
-3844.4966459052835
 20
-4243.383436742808
 42
-0.0112130424339121
 10
-3844.4620098827399
 20
-4243.549640343027
 10
-3844.4608073576328
 20
-4243.5561369298848
 42
-0.02105278812642
 10
-3844.4351208822623
 20
-4243.7371925753196
 10
-3844.43161028744
 20
-4243.7725981238727
 42
-0.0190029892403713
 10
-3844.4161688138952
 20
-4244.0261339701428
 10
-3844.4153588374511
 20
-4244.0616095845144
 42
-0.0137974553654452
 10
-3844.4169076902867
 20
-4244.386640991248
 10
-3844.4177531452424
 20
-4244.4127597358465
 42
-0.0081336634212691
 10
-3844.4326124804647
 20
-4244.71810720344
 42
-0.0073526923603629
 10
-3844.4569210138375
 20
-4245.0228554477017
 10
-3844.4581824376223
 20
-4245.0361921223903
 42
-0.0066886138670869
 10
-3844.4939180236693
 20
-4245.3667781658924
 10
-3844.4955751131388
 20
-4245.380399784879
 42
-0.0061359187369508
 10
-3844.5434257151846
 20
-4245.7371637649449
 10
-3844.5454632162623
 20
-4245.7510585678083
 42
-0.0056698610056815
 10
-3844.6061135470341
 20
-4246.134337136672
 10
-3844.6085189803525
 20
-4246.148496255877
 42
-0.0052721077289765
 10
-3844.6826511811473
 20
-4246.5586235955288
 10
-3844.6854143299943
 20
-4246.5730402309409
 42
-0.0049289272187851
 10
-3844.7737084480937
 20
-4247.0103487420611
 10
-3844.7768209427768
 20
-4247.0250175948795
 42
-0.0047415956713371
 10
-3844.88005893431
 20
-4247.4898143522951
 10
-3844.9148271446684
 20
-4247.6396214476736
 42
-0.0084404470900361
 10
-3845.1048435882512
 20
-4248.399845472245
 10
-3845.110970276226
 20
-4248.4227095963579
 42
-0.0039635940251409
 10
-3845.3324239605217
 20
-4249.2236984606461
 10
-3845.3458007556897
 20
-4249.270630077197
 42
-0.0072475040835576
 10
-3845.6132476435523
 20
-4250.1598497935875
 10
-3845.6834599703725
 20
-4250.3815901435364
 42
-0.0051345458823545
 10
-3845.9702193424391
 20
-4251.2559153313705
 10
-3845.9917456092057
 20
-4251.3193415984979
 42
-0.0019150016610766
 10
-3846.2472790160732
 20
-4252.0628907187265
 10
-3846.2537466204699
 20
-4252.0814781836498
 42
-0.0021524362746079
 10
-3846.5022246715334
 20
-4252.7858040053561
 10
-3846.5114350922177
 20
-4252.8115575836237
 42
-0.0024331286818788
 10
-3846.7476903512656
 20
-4253.4621568917755
 10
-3846.7567383038477
 20
-4253.4867001982157
 42
-0.0027449721785442
 10
-3846.9813528746517
 20
-4254.0858300770542
 10
-3846.9902428820342
 20
-4254.1091526668806
 42
-0.003108322977541
 10
-3847.2037853686538
 20
-4254.6590767044863
 10
-3847.2125215003002
 20
-4254.6811664202705
 42
-0.0035311343289538
 10
-3847.415562685921
 20
-4255.184149546074
 10
-3847.4241480250462
 20
-4255.2049922695296
 42
-0.0040245640943239
 10
-3847.6172598288631
 20
-4255.6633015921761
 10
-3847.6256959424691
 20
-4255.6828809602548
 42
-0.0046015135850603
 10
-3847.80945223563
 20
-4256.0987859898905
 10
-3847.8177384134488
 20
-4256.1170831293221
 42
-0.0052768638268132
 10
-3847.9927159324143
 20
-4256.4928560136132
 10
-3848.0008481430432
 20
-4256.5098493521609
 42
-0.0060672675638771
 10
-3848.1676277558072
 20
-4256.8477649752704
 10
-3848.1755972362967
 20
-4256.8634302342834
 42
-0.00699046488734
 10
-3848.3347656302899
 20
-4257.165766040931
 10
-3848.34255702991
 20
-4257.1800765901753
 42
-0.0080637022743881
 10
-3848.4947088902463
 20
-4257.449111893312
 10
-3848.5022979228752
 20
-4257.4620397589088
 42
-0.0093006455661349
 10
-3848.6480385994091
 20
-4257.7000541574162
 10
-3848.6553892661541
 20
-4257.7115721265918
 42
-0.0107060778053494
 10
-3848.7953378095917
 20
-4257.9208424439676
 10
-3848.8023995778658
 20
-4257.9309279865256
 42
-0.0122723111425558
 10
-3848.9371932960694
 20
-4258.1137213160237
 10
-3848.9375195196249
 20
-4258.1141417038352
 42
-0.0141836319613704
 10
-3849.0811011225969
 20
-4258.2887114616624
 10
-3849.0880488782468
 20
-4258.2966864619248
 42
-0.0175957477196067
 10
-3849.2279550462836
 20
-4258.4463073503321
 42
-0.0080466359663552
 10
-3849.3754188113212
 20
-4258.5886298784908
 10
-3849.4214533558315
 20
-4258.6316503165745
 42
-0.0269600260405509
 10
-3849.6747336018129
 20
-4258.8439735750817
 10
-3849.7413007381133
 20
-4258.8939249897085
 42
-0.0178362839749525
 10
-3849.9812452277674
 20
-4259.0609429159595
 10
-3849.988490198763
 20
-4259.065611428161
 42
-0.0174650732658813
 10
-3850.2248263962092
 20
-4259.2064723931235
 42
-0.0169240130166271
 10
-3850.4702926420605
 20
-4259.3307646528983
 10
-3850.5162787976246
 20
-4259.3521266084681
 42
-0.0318883036824494
 10
-3850.8666296532519
 20
-4259.4884649179803
 10
-3850.934995188406
 20
-4259.5101655384524
 42
-0.0284435909903883
 10
-3851.3110453147001
 20
-4259.6063829739287
 10
-3851.3462034751924
 20
-4259.6132765697557
 42
-0.0243909341028125
 10
-3851.659646936118
 20
-4259.6589976007872
 10
-3851.7099276629015
 20
-4259.6638431476904
 42
-0.0196639292895418
 10
-3851.9255232404166
 20
-4259.6760914332026
 10
-3851.9773473116011
 20
-4259.6769946939394
 42
-0.0100501510669358
 10
-3852.0897705932439
 20
-4259.6766942955855
 10
-3852.1214304545692
 20
-4259.6759732237006
 42
-0.0019752031246013
 10
-3852.1705227912698
 20
-4259.6746610634909
 10
-3852.1732830945002
 20
-4259.6745763716644
 42
0.0065378752084562
 10
-3852.2168596692463
 20
-4259.6738094804496
 42
-0.0167974694668665
 10
-3852.2603904921775
 20
-4259.6721495819238
 10
-3852.2644698314402
 20
-4259.6718565710289
 42
-0.0081283276282342
 10
-3852.3160296292085
 20
-4259.6673095773876
 10
-3852.3277692030574
 20
-4259.6660816598123
 42
-0.012670344023168
 10
-3852.4024874988409
 20
-4259.6563468687427
 10
-3852.4252753665278
 20
-4259.652788612826
 42
-0.011785208841389
 10
-3852.5448143523699
 20
-4259.631225617667
 10
-3852.600194804123
 20
-4259.6198820774343
 42
-0.0251774592294087
 10
-3852.8270388431183
 20
-4259.5613840680062
 10
-3852.8717580330053
 20
-4259.5474172486593
 42
-0.014652519987221
 10
-3853.0581510205202
 20
-4259.4831507214676
 42
-0.0166929435852483
 10
-3853.2401286766526
 20
-4259.4073435884111
 10
-3853.2447853079202
 20
-4259.4052186877998
 42
-0.0191684358394656
 10
-3853.4299689391742
 20
-4259.3119826040074
 10
-3853.4333015249267
 20
-4259.3101413564564
 42
-0.0221181781790953
 10
-3853.6166118288465
 20
-4259.1980078580727
 10
-3853.6189616328375
 20
-4259.1964235600935
 42
-0.0254984685360355
 10
-3853.7952517832277
 20
-4259.064012410121
 10
-3853.8177339309204
 20
-4259.0452601011921
 42
-0.0292492648853172
 10
-3853.9425028697674
 20
-4258.9281673015448
 42
-0.0159048957499984
 10
-3854.0563428672126
 20
-4258.8001473099512
 10
-3854.0576616577964
 20
-4258.7985656969258
 42
-0.0343813379557066
 10
-3854.1602989194266
 20
-4258.6566943711505
 10
-3854.19179045078
 20
-4258.6061909790678
 42
-0.0369117275734717
 10
-3854.2776829526811
 20
-4258.4427137381135
 42
-0.0191751379913992
 10
-3854.3448763382453
 20
-4258.2703091320882
 10
-3854.3466396619979
 20
-4258.2652157874327
 42
-0.0378178042222715
 10
-3854.3964343807816
 20
-4258.0762750113527
 10
-3854.4024296765151
 20
-4258.0437143931367
 42
-0.0184846046435551
 10
-3854.4231468758067
 20
-4257.9019615726102
 42
-0.0179866351322826
 10
-3854.4334798808795
 20
-4257.7590707595464
 10
-3854.4335363233258
 20
-4257.7575130729165
 42
-0.0085497186137789
 10
-3854.4349686044297
 20
-4257.6826399079064
 42
-0.0085497186137789
  0
ENDBLK
  5
5F
100
AcDbEntity
  8
template
390
0
100
AcDbBlockEnd
  0
BLOCK
  5
60
100
AcDbEntity
  8
notes
390
0
100
AcDbBlockBegin
  2
*D4
 70
               1
 10
0.0
 20
0.0
 30
0.0
  3
*D4
  1

  0
LINE
  5
61
100
AcDbEntity
  8
0
370
              -2
390
0
  6
Continuous
 62
               0
100
AcDbLine
 10
689.54843835746851
 20
-601.24440572382082
 30
0.0
 11
689.54843835746851
 21
-685.32708559904631
 31
0.0
  0
LINE
  5
62
100
AcDbEntity
  8
0
370
              -2
390
0
  6
Continuous
 62
               0
100
AcDbLine
 10
459.54843835747033
 20
-601.24440572382082
 30
0.0
 11
459.54843835747033
 21
-685.32708559904631
 31
0.0
  0
LINE
  5
63
100
AcDbEntity
  8
0
370
              -2
390
0
  6
Continuous
 62
               0
100
AcDbLine
 10
689.54843835746851
 20
-685.32708559904631
 30
0.0
 11
459.54843835747033
 21
-685.32708559904631
 31
0.0
  0
CIRCLE
  5
64
102
{ACAD_REACTORS
330
65
102
}
100
AcDbEntity
  8
0
370
              -2
390
0
  6
Continuous
 62
               0
100
AcDbCircle
 10
689.54843835746851
 20
-685.32708559904631
 30
0.0
 40
4.99969482421875
  0
HATCH
  5
65
100
AcDbEntity
  8
0
370
              -2
390
0
  6
Continuous
 62
               0
100
AcDbHatch
 10
0.0
 20
0.0
 30
0.0
210
0.0
220
0.0
230
1.0
  2
SOLID
 70
               1
 71
               1
 91
        1
 92
        1
 93
        1
 72
               2
 10
689.54843835746851
 20
-685.32708559904631
 40
4.99969482421875
 50
0.0
 51
360.0
 73
               0
 97
        1
330
64
 75
               0
 76
               1
 98
        1
 10
0.0
 20
0.0
  0
CIRCLE
  5
66
102
{ACAD_REACTORS
330
67
102
}
100
AcDbEntity
  8
0
370
              -2
390
0
  6
Continuous
 62
               0
100
AcDbCircle
 10
459.54843835747033
 20
-685.32708559904631
 30
0.0
 40
4.99969482421875
  0
HATCH
  5
67
100
AcDbEntity
  8
0
370
              -2
390
0
  6
Continuous
 62
               0
100
AcDbHatch
 10
0.0
 20
0.0
 30
0.0
210
0.0
220
0.0
230
1.0
  2
SOLID
 70
               1
 71
               1
 91
        1
 92
        1
 93
        1
 72
               2
 10
459.54843835747033
 20
-685.32708559904631
 40
4.99969482421875
 50
0.0
 51
360.0
 73
               0
 97
        1
330
66
 75
               0
 76
               1
 98
        1
 10
0.0
 20
0.0
  0
MTEXT
  5
68
100
AcDbEntity
  8
0
390
0
 62
               0
100
AcDbMText
 10
550.73593667529349
 20
-651.44946841154615
 30
0.0
 40
24.432617187500004
 41
0.0
 71
               1
 72
               1
  1
230
  7
ＭＳ ゴシック
 73
               1
 44
0.7828267384257843
  0
POINT
  5
69
100
AcDbEntity
  8
Defpoints
370
               0
390
0
 62
               0
100
AcDbPoint
 10
459.54843835747033
 20
-576.24440572382082
 30
0.0
  0
POINT
  5
6A
100
AcDbEntity
  8
Defpoints
370
               0
390
0
 62
               0
100
AcDbPoint
 10
689.54843835746851
 20
-576.24440572382082
 30
0.0
  0
POINT
  5
6B
100
AcDbEntity
  8
Defpoints
370
               0
390
0
 62
               0
100
AcDbPoint
 10
689.54843835746851
 20
-685.32708559904631
 30
0.0
  0
ENDBLK
  5
6C
100
AcDbEntity
  8
notes
390
0
100
AcDbBlockEnd
  0
BLOCK
  5
6D
100
AcDbEntity
  8
notes
390
0
100
AcDbBlockBegin
  2
*D5
 70
               1
 10
0.0
 20
0.0
 30
0.0
  3
*D5
  1

  0
LINE
  5
6E
100
AcDbEntity
  8
0
370
              -2
390
0
  6
Continuous
 62
               0
100
AcDbLine
 10
461.92710553019515
 20
-481.32708559904631
 30
0.0
 11
453.92710553019515
 21
-481.32708559904631
 31
0.0
  0
LINE
  5
6F
100
AcDbEntity
  8
0
370
              -2
390
0
  6
Continuous
 62
               0
100
AcDbLine
 10
461.92710553019515
 20
-551.30399459350792
 30
0.0
 11
453.92710553019515
 21
-551.30399459350792
 31
0.0
  0
LINE
  5
70
100
AcDbEntity
  8
0
370
              -2
390
0
  6
Continuous
 62
               0
100
AcDbLine
 10
453.92710553019515
 20
-481.32708559904631
 30
0.0
 11
453.92710553019515
 21
-350.75201805710003
 31
0.0
  0
LINE
  5
71
100
AcDbEntity
  8
0
370
              -2
390
0
  6
Continuous
 62
               0
100
AcDbLine
 10
453.92710553019515
 20
-481.32708559904631
 30
0.0
 11
453.92710553019515
 21
-551.30399459350792
 31
0.0
  0
CIRCLE
  5
72
102
{ACAD_REACTORS
330
73
102
}
100
AcDbEntity
  8
0
370
              -2
390
0
  6
Continuous
 62
               0
100
AcDbCircle
 10
453.92710553019515
 20
-481.32708559904631
 30
0.0
 40
4.99969482421875
  0
HATCH
  5
73
100
AcDbEntity
  8
0
370
              -2
390
0
  6
Continuous
 62
               0
100
AcDbHatch
 10
0.0
 20
0.0
 30
0.0
210
0.0
220
0.0
230
1.0
  2
SOLID
 70
               1
 71
               1
 91
        1
 92
        1
 93
        1
 72
               2
 10
453.92710553019515
 20
-481.32708559904631
 40
4.99969482421875
 50
0.0
 51
360.0
 73
               0
 97
        1
330
72
 75
               0
 76
               1
 98
        1
 10
0.0
 20
0.0
  0
CIRCLE
  5
74
102
{ACAD_REACTORS
330
75
102
}
100
AcDbEntity
  8
0
370
              -2
390
0
  6
Continuous
 62
               0
100
AcDbCircle
 10
453.92710553019515
 20
-551.30399459350792
 30
0.0
 40
4.99969482421875
  0
HATCH
  5
75
100
AcDbEntity
  8
0
370
              -2
390
0
  6
Continuous
 62
               0
100
AcDbHatch
 10
0.0
 20
0.0
 30
0.0
210
0.0
220
0.0
230
1.0
  2
SOLID
 70
               1
 71
               1
 91
        1
 92
        1
 93
        1
 72
               2
 10
453.92710553019515
 20
-551.30399459350792
 40
4.99969482421875
 50
0.0
 51
360.0
 73
               0
 97
        1
330
74
 75
               0
 76
               1
 98
        1
 10
0.0
 20
0.0
  0
MTEXT
  5
76
100
AcDbEntity
  8
0
390
0
 62
               0
100
AcDbMText
 10
420.04948834269544
 20
-477.75201805710003
 30
0.0
 40
24.432617187500004
 41
0.0
 71
               1
 72
               1
  1
70(深さ)
  7
ＭＳ ゴシック
 11
0.0
 21
1.0
 31
0.0
 73
               1
 44
0.7828267384257843
  0
POINT
  5
77
100
AcDbEntity
  8
Defpoints
370
               0
390
0
 62
               0
100
AcDbPoint
 10
486.92710553019515
 20
-551.30399459350792
 30
0.0
  0
POINT
  5
78
100
AcDbEntity
  8
Defpoints
370
               0
390
0
 62
               0
100
AcDbPoint
 10
486.92710553019515
 20
-481.32708559904631
 30
0.0
  0
POINT
  5
79
100
AcDbEntity
  8
Defpoints
370
               0
390
0
 62
               0
100
AcDbPoint
 10
453.92710553019515
 20
-481.32708559904631
 30
0.0
  0
ENDBLK
  5
7A
100
AcDbEntity
  8
notes
390
0
100
AcDbBlockEnd
  0
BLOCK
  5
7B
100
AcDbEntity
  8
notes
390
0
100
AcDbBlockBegin
  2
*D6
 70
               1
 10
0.0
 20
0.0
 30
0.0
  3
*D6
  1

  0
LINE
  5
7C
100
AcDbEntity
  8
0
370
              -2
390
0
  6
Continuous
 62
               0
100
AcDbLine
 10
-168.8882347405206
 20
734.59511228450538
 30
0.0
 11
-43.888234740520602
 21
734.59511228450538
 31
0.0
  0
LINE
  5
7D
100
AcDbEntity
  8
0
370
              -2
390
0
  6
Continuous
 62
               0
100
AcDbLine
 10
-168.8882347405206
 20
314.59511228450538
 30
0.0
 11
-43.888234740520602
 21
314.59511228450538
 31
0.0
  0
LINE
  5
7E
100
AcDbEntity
  8
0
370
              -2
390
0
  6
Continuous
 62
               0
100
AcDbLine
 10
-43.888234740520602
 20
734.59511228450538
 30
0.0
 11
-43.888234740520602
 21
314.59511228450538
 31
0.0
  0
CIRCLE
  5
7F
102
{ACAD_REACTORS
330
80
102
}
100
AcDbEntity
  8
0
370
              -2
390
0
  6
Continuous
 62
               0
100
AcDbCircle
 10
-43.888234740520602
 20
734.59511228450538
 30
0.0
 40
4.99969482421875
  0
HATCH
  5
80
100
AcDbEntity
  8
0
370
              -2
390
0
  6
Continuous
 62
               0
100
AcDbHatch
 10
0.0
 20
0.0
 30
0.0
210
0.0
220
0.0
230
1.0
  2
SOLID
 70
               1
 71
               1
 91
        1
 92
        1
 93
        1
 72
               2
 10
-43.888234740520602
 20
734.59511228450538
 40
4.99969482421875
 50
0.0
 51
360.0
 73
               0
 97
        1
330
7F
 75
               0
 76
               1
 98
        1
 10
0.0
 20
0.0
  0
CIRCLE
  5
81
102
{ACAD_REACTORS
330
82
102
}
100
AcDbEntity
  8
0
370
              -2
390
0
  6
Continuous
 62
               0
100
AcDbCircle
 10
-43.888234740520602
 20
314.59511228450538
 30
0.0
 40
4.99969482421875
  0
HATCH
  5
82
100
AcDbEntity
  8
0
370
              -2
390
0
  6
Continuous
 62
               0
100
AcDbHatch
 10
0.0
 20
0.0
 30
0.0
210
0.0
220
0.0
230
1.0
  2
SOLID
 70
               1
 71
               1
 91
        1
 92
        1
 93
        1
 72
               2
 10
-43.888234740520602
 20
314.59511228450538
 40
4.99969482421875
 50
0.0
 51
360.0
 73
               0
 97
        1
330
81
 75
               0
 76
               1
 98
        1
 10
0.0
 20
0.0
  0
MTEXT
  5
83
100
AcDbEntity
  8
0
390
0
 62
               0
100
AcDbMText
 10
-77.765851928020311
 20
500.7826106023299
 30
0.0
 40
24.432617187500004
 41
0.0
 71
               1
 72
               1
  1
420
  7
ＭＳ ゴシック
 11
0.0
 21
1.0
 31
0.0
 73
               1
 44
0.7828267384257843
  0
POINT
  5
84
100
AcDbEntity
  8
Defpoints
370
               0
390
0
 62
               0
100
AcDbPoint
 10
-193.8882347405206
 20
314.59511228450538
 30
0.0
  0
POINT
  5
85
100
AcDbEntity
  8
Defpoints
370
               0
390
0
 62
               0
100
AcDbPoint
 10
-193.8882347405206
 20
734.59511228450538
 30
0.0
  0
POINT
  5
86
100
AcDbEntity
  8
Defpoints
370
               0
390
0
 62
               0
100
AcDbPoint
 10
-43.888234740520602
 20
734.59511228450538
 30
0.0
  0
ENDBLK
  5
87
100
AcDbEntity
  8
notes
390
0
100
AcDbBlockEnd
  0
BLOCK
  5
88
100
AcDbEntity
  8
notes
390
0
100
AcDbBlockBegin
  2
*D7
 70
               1
 10
0.0
 20
0.0
 30
0.0
  3
*D7
  1

  0
LINE
  5
89
100
AcDbEntity
  8
0
370
              -2
390
0
  6
Continuous
 62
               0
100
AcDbLine
 10
-143.8882347405206
 20
709.59511228450538
 30
0.0
 11
-143.8882347405206
 21
884.59511228450538
 31
0.0
  0
LINE
  5
8A
100
AcDbEntity
  8
0
370
              -2
390
0
  6
Continuous
 62
               0
100
AcDbLine
 10
-743.88823474051969
 20
709.59511228450538
 30
0.0
 11
-743.88823474051969
 21
884.59511228450538
 31
0.0
  0
LINE
  5
8B
100
AcDbEntity
  8
0
370
              -2
390
0
  6
Continuous
 62
               0
100
AcDbLine
 10
-143.8882347405206
 20
884.59511228450538
 30
0.0
 11
-743.88823474051969
 21
884.59511228450538
 31
0.0
  0
CIRCLE
  5
8C
102
{ACAD_REACTORS
330
8D
102
}
100
AcDbEntity
  8
0
370
              -2
390
0
  6
Continuous
 62
               0
100
AcDbCircle
 10
-143.8882347405206
 20
884.59511228450538
 30
0.0
 40
4.99969482421875
  0
HATCH
  5
8D
100
AcDbEntity
  8
0
370
              -2
390
0
  6
Continuous
 62
               0
100
AcDbHatch
 10
0.0
 20
0.0
 30
0.0
210
0.0
220
0.0
230
1.0
  2
SOLID
 70
               1
 71
               1
 91
        1
 92
        1
 93
        1
 72
               2
 10
-143.8882347405206
 20
884.59511228450538
 40
4.99969482421875
 50
0.0
 51
360.0
 73
               0
 97
        1
330
8C
 75
               0
 76
               1
 98
        1
 10
0.0
 20
0.0
  0
CIRCLE
  5
8E
102
{ACAD_REACTORS
330
8F
102
}
100
AcDbEntity
  8
0
370
              -2
390
0
  6
Continuous
 62
               0
100
AcDbCircle
 10
-743.88823474051969
 20
884.59511228450538
 30
0.0
 40
4.99969482421875
  0
HATCH
  5
8F
100
AcDbEntity
  8
0
370
              -2
390
0
  6
Continuous
 62
               0
100
AcDbHatch
 10
0.0
 20
0.0
 30
0.0
210
0.0
220
0.0
230
1.0
  2
SOLID
 70
               1
 71
               1
 91
        1
 92
        1
 93
        1
 72
               2
 10
-743.88823474051969
 20
884.59511228450538
 40
4.99969482421875
 50
0.0
 51
360.0
 73
               0
 97
        1
330
8E
 75
               0
 76
               1
 98
        1
 10
0.0
 20
0.0
  0
MTEXT
  5
90
100
AcDbEntity
  8
0
390
0
 62
               0
100
AcDbMText
 10
-467.70073642269654
 20
918.47272947200531
 30
0.0
 40
24.432617187500004
 41
0.0
 71
               1
 72
               1
  1
600
  7
ＭＳ ゴシック
 73
               1
 44
0.7828267384257843
  0
POINT
  5
91
100
AcDbEntity
  8
Defpoints
370
               0
390
0
 62
               0
100
AcDbPoint
 10
-743.88823474051969
 20
684.59511228450538
 30
0.0
  0
POINT
  5
92
100
AcDbEntity
  8
Defpoints
370
               0
390
0
 62
               0
100
AcDbPoint
 10
-143.8882347405206
 20
684.59511228450538
 30
0.0
  0
POINT
  5
93
100
AcDbEntity
  8
Defpoints
370
               0
390
0
 62
               0
100
AcDbPoint
 10
-143.8882347405206
 20
884.59511228450538
 30
0.0
  0
ENDBLK
  5
94
100
AcDbEntity
  8
notes
390
0
100
AcDbBlockEnd
  0
BLOCK
  5
95
100
AcDbEntity
  8
notes
390
0
100
AcDbBlockBegin
  2
*D8
 70
               1
 10
0.0
 20
0.0
 30
0.0
  3
*D8
  1

  0
LINE
  5
96
100
AcDbEntity
  8
0
370
              -2
390
0
  6
Continuous
 62
               0
100
AcDbLine
 10
-718.88823474051969
 20
734.59511228450538
 30
0.0
 11
-843.88823474051969
 21
734.59511228450538
 31
0.0
  0
LINE
  5
97
100
AcDbEntity
  8
0
370
              -2
390
0
  6
Continuous
 62
               0
100
AcDbLine
 10
-765.07611833833198
 20
654.59535119902012
 30
0.0
 11
-843.88823474051969
 21
654.59535119902012
 31
0.0
  0
LINE
  5
98
100
AcDbEntity
  8
0
370
              -2
390
0
  6
Continuous
 62
               0
100
AcDbLine
 10
-843.88823474051969
 20
734.59511228450538
 30
0.0
 11
-843.88823474051969
 21
654.59535119902012
 31
0.0
  0
CIRCLE
  5
99
102
{ACAD_REACTORS
330
9A
102
}
100
AcDbEntity
  8
0
370
              -2
390
0
  6
Continuous
 62
               0
100
AcDbCircle
 10
-843.88823474051969
 20
734.59511228450538
 30
0.0
 40
4.99969482421875
  0
HATCH
  5
9A
100
AcDbEntity
  8
0
370
              -2
390
0
  6
Continuous
 62
               0
100
AcDbHatch
 10
0.0
 20
0.0
 30
0.0
210
0.0
220
0.0
230
1.0
  2
SOLID
 70
               1
 71
               1
 91
        1
 92
        1
 93
        1
 72
               2
 10
-843.88823474051969
 20
734.59511228450538
 40
4.99969482421875
 50
0.0
 51
360.0
 73
               0
 97
        1
330
99
 75
               0
 76
               1
 98
        1
 10
0.0
 20
0.0
  0
CIRCLE
  5
9B
102
{ACAD_REACTORS
330
9C
102
}
100
AcDbEntity
  8
0
370
              -2
390
0
  6
Continuous
 62
               0
100
AcDbCircle
 10
-843.88823474051969
 20
654.59535119902012
 30
0.0
 40
4.99969482421875
  0
HATCH
  5
9C
100
AcDbEntity
  8
0
370
              -2
390
0
  6
Continuous
 62
               0
100
AcDbHatch
 10
0.0
 20
0.0
 30
0.0
210
0.0
220
0.0
230
1.0
  2
SOLID
 70
               1
 71
               1
 91
        1
 92
        1
 93
        1
 72
               2
 10
-843.88823474051969
 20
654.59535119902012
 40
4.99969482421875
 50
0.0
 51
360.0
 73
               0
 97
        1
330
9B
 75
               0
 76
               1
 98
        1
 10
0.0
 20
0.0
  0
MTEXT
  5
9D
100
AcDbEntity
  8
0
390
0
 62
               0
100
AcDbMText
 10
-877.7658519280194
 20
678.72023174176275
 30
0.0
 40
24.432617187500004
 41
0.0
 71
               1
 72
               1
  1
80
  7
ＭＳ ゴシック
 11
0.0
 21
1.0
 31
0.0
 73
               1
 44
0.7828267384257843
  0
POINT
  5
9E
100
AcDbEntity
  8
Defpoints
370
               0
390
0
 62
               0
100
AcDbPoint
 10
-740.07611833833198
 20
654.59535119902012
 30
0.0
  0
POINT
  5
9F
100
AcDbEntity
  8
Defpoints
370
               0
390
0
 62
               0
100
AcDbPoint
 10
-693.88823474051969
 20
734.59511228450538
 30
0.0
  0
POINT
  5
A0
100
AcDbEntity
  8
Defpoints
370
               0
390
0
 62
               0
100
AcDbPoint
 10
-843.88823474051969
 20
734.59511228450538
 30
0.0
  0
ENDBLK
  5
A1
100
AcDbEntity
  8
notes
390
0
100
AcDbBlockEnd
  0
BLOCK
  5
A2
100
AcDbEntity
  8
notes
390
0
100
AcDbBlockBegin
  2
*D9
 70
               1
 10
0.0
 20
0.0
 30
0.0
  3
*D9
  1

  0
LINE
  5
A3
100
AcDbEntity
  8
0
370
              -2
390
0
  6
Continuous
 62
               0
100
AcDbLine
 10
-768.88823474051969
 20
654.59535119902012
 30
0.0
 11
-843.88823474051969
 21
654.59535119902012
 31
0.0
  0
LINE
  5
A4
100
AcDbEntity
  8
0
370
              -2
390
0
  6
Continuous
 62
               0
100
AcDbLine
 10
-768.88823474051969
 20
354.59535119902012
 30
0.0
 11
-843.88823474051969
 21
354.59535119902012
 31
0.0
  0
LINE
  5
A5
100
AcDbEntity
  8
0
370
              -2
390
0
  6
Continuous
 62
               0
100
AcDbLine
 10
-843.88823474051969
 20
654.59535119902012
 30
0.0
 11
-843.88823474051969
 21
354.59535119902012
 31
0.0
  0
CIRCLE
  5
A6
102
{ACAD_REACTORS
330
A7
102
}
100
AcDbEntity
  8
0
370
              -2
390
0
  6
Continuous
 62
               0
100
AcDbCircle
 10
-843.88823474051969
 20
654.59535119902012
 30
0.0
 40
4.99969482421875
  0
HATCH
  5
A7
100
AcDbEntity
  8
0
370
              -2
390
0
  6
Continuous
 62
               0
100
AcDbHatch
 10
0.0
 20
0.0
 30
0.0
210
0.0
220
0.0
230
1.0
  2
SOLID
 70
               1
 71
               1
 91
        1
 92
        1
 93
        1
 72
               2
 10
-843.88823474051969
 20
654.59535119902012
 40
4.99969482421875
 50
0.0
 51
360.0
 73
               0
 97
        1
330
A6
 75
               0
 76
               1
 98
        1
 10
0.0
 20
0.0
  0
CIRCLE
  5
A8
102
{ACAD_REACTORS
330
A9
102
}
100
AcDbEntity
  8
0
370
              -2
390
0
  6
Continuous
 62
               0
100
AcDbCircle
 10
-843.88823474051969
 20
354.59535119902012
 30
0.0
 40
4.99969482421875
  0
HATCH
  5
A9
100
AcDbEntity
  8
0
370
              -2
390
0
  6
Continuous
 62
               0
100
AcDbHatch
 10
0.0
 20
0.0
 30
0.0
210
0.0
220
0.0
230
1.0
  2
SOLID
 70
               1
 71
               1
 91
        1
 92
        1
 93
        1
 72
               2
 10
-843.88823474051969
 20
354.59535119902012
 40
4.99969482421875
 50
0.0
 51
360.0
 73
               0
 97
        1
330
A8
 75
               0
 76
               1
 98
        1
 10
0.0
 20
0.0
  0
MTEXT
  5
AA
100
AcDbEntity
  8
0
390
0
 62
               0
100
AcDbMText
 10
-877.7658519280194
 20
480.78284951684464
 30
0.0
 40
24.432617187500004
 41
0.0
 71
               1
 72
               1
  1
300
  7
ＭＳ ゴシック
 11
0.0
 21
1.0
 31
0.0
 73
               1
 44
0.7828267384257843
  0
POINT
  5
AB
100
AcDbEntity
  8
Defpoints
370
               0
390
0
 62
               0
100
AcDbPoint
 10
-743.88823474051969
 20
354.59535119902012
 30
0.0
  0
POINT
  5
AC
100
AcDbEntity
  8
Defpoints
370
               0
390
0
 62
               0
100
AcDbPoint
 10
-743.88823474051969
 20
654.59535119902012
 30
0.0
  0
POINT
  5
AD
100
AcDbEntity
  8
Defpoints
370
               0
390
0
 62
               0
100
AcDbPoint
 10
-843.88823474051969
 20
654.59535119902012
 30
0.0
  0
ENDBLK
  5
AE
100
AcDbEntity
  8
notes
390
0
100
AcDbBlockEnd
  0
BLOCK
  5
AF
100
AcDbEntity
  8
notes
390
0
100
AcDbBlockBegin
  2
*D10
 70
               1
 10
0.0
 20
0.0
 30
0.0
  3
*D10
  1

  0
LINE
  5
B0
100
AcDbEntity
  8
0
370
              -2
390
0
  6
Continuous
 62
               0
100
AcDbLine
 10
689.97466721117553
 20
-462.4087090321309
 30
0.0
 11
689.97466721117553
 21
-381.30399459350792
 31
0.0
  0
LINE
  5
B1
100
AcDbEntity
  8
0
370
              -2
390
0
  6
Continuous
 62
               0
100
AcDbLine
 10
650.0
 20
-462.4087090321309
 30
0.0
 11
650.0
 21
-381.30399459350792
 31
0.0
  0
LINE
  5
B2
100
AcDbEntity
  8
0
370
              -2
390
0
  6
Continuous
 62
               0
100
AcDbLine
 10
689.97466721117553
 20
-381.30399459350792
 30
0.0
 11
650.0
 21
-381.30399459350792
 31
0.0
  0
CIRCLE
  5
B3
102
{ACAD_REACTORS
330
B4
102
}
100
AcDbEntity
  8
0
370
              -2
390
0
  6
Continuous
 62
               0
100
AcDbCircle
 10
689.97466721117553
 20
-381.30399459350792
 30
0.0
 40
4.99969482421875
  0
HATCH
  5
B4
100
AcDbEntity
  8
0
370
              -2
390
0
  6
Continuous
 62
               0
100
AcDbHatch
 10
0.0
 20
0.0
 30
0.0
210
0.0
220
0.0
230
1.0
  2
SOLID
 70
               1
 71
               1
 91
        1
 92
        1
 93
        1
 72
               2
 10
689.97466721117553
 20
-381.30399459350792
 40
4.99969482421875
 50
0.0
 51
360.0
 73
               0
 97
        1
330
B3
 75
               0
 76
               1
 98
        1
 10
0.0
 20
0.0
  0
CIRCLE
  5
B5
102
{ACAD_REACTORS
330
B6
102
}
100
AcDbEntity
  8
0
370
              -2
390
0
  6
Continuous
 62
               0
100
AcDbCircle
 10
650.0
 20
-381.30399459350792
 30
0.0
 40
4.99969482421875
  0
HATCH
  5
B6
100
AcDbEntity
  8
0
370
              -2
390
0
  6
Continuous
 62
               0
100
AcDbHatch
 10
0.0
 20
0.0
 30
0.0
210
0.0
220
0.0
230
1.0
  2
SOLID
 70
               1
 71
               1
 91
        1
 92
        1
 93
        1
 72
               2
 10
650.0
 20
-381.30399459350792
 40
4.99969482421875
 50
0.0
 51
360.0
 73
               0
 97
        1
330
B5
 75
               0
 76
               1
 98
        1
 10
0.0
 20
0.0
  0
MTEXT
  5
B7
100
AcDbEntity
  8
0
390
0
 62
               0
100
AcDbMText
 10
654.11233360558799
 20
-347.42637740600776
 30
0.0
 40
24.432617187500004
 41
0.0
 71
               1
 72
               1
  1
40
  7
ＭＳ ゴシック
 73
               1
 44
0.7828267384257843
  0
POINT
  5
B8
100
AcDbEntity
  8
Defpoints
370
               0
390
0
 62
               0
100
AcDbPoint
 10
650.0
 20
-487.4087090321309
 30
0.0
  0
POINT
  5
B9
100
AcDbEntity
  8
Defpoints
370
               0
390
0
 62
               0
100
AcDbPoint
 10
689.97466721117553
 20
-487.4087090321309
 30
0.0
  0
POINT
  5
BA
100
AcDbEntity
  8
Defpoints
370
               0
390
0
 62
               0
100
AcDbPoint
 10
689.97466721117553
 20
-381.30399459350792
 30
0.0
  0
ENDBLK
  5
BB
100
AcDbEntity
  8
notes
390
0
100
AcDbBlockEnd
  0
BLOCK
  5
BC
100
AcDbEntity
  8
notes
390
0
100
AcDbBlockBegin
  2
*D11
 70
               1
 10
0.0
 20
0.0
 30
0.0
  3
*D11
  1

  0
LINE
  5
BD
100
AcDbEntity
  8
0
370
              -2
390
0
  6
Continuous
 62
               0
100
AcDbLine
 10
-543.8892476568808
 20
739.37964366089636
 30
0.0
 11
-543.8892476568808
 21
834.59511228450538
 31
0.0
  0
LINE
  5
BE
100
AcDbEntity
  8
0
370
              -2
390
0
  6
Continuous
 62
               0
100
AcDbLine
 10
-443.8892476568808
 20
741.87964366089636
 30
0.0
 11
-443.8892476568808
 21
834.59511228450538
 31
0.0
  0
LINE
  5
BF
100
AcDbEntity
  8
0
370
              -2
390
0
  6
Continuous
 62
               0
100
AcDbLine
 10
-543.8892476568808
 20
834.59511228450538
 30
0.0
 11
-443.8892476568808
 21
834.59511228450538
 31
0.0
  0
CIRCLE
  5
C0
102
{ACAD_REACTORS
330
C1
102
}
100
AcDbEntity
  8
0
370
              -2
390
0
  6
Continuous
 62
               0
100
AcDbCircle
 10
-543.8892476568808
 20
834.59511228450538
 30
0.0
 40
4.99969482421875
  0
HATCH
  5
C1
100
AcDbEntity
  8
0
370
              -2
390
0
  6
Continuous
 62
               0
100
AcDbHatch
 10
0.0
 20
0.0
 30
0.0
210
0.0
220
0.0
230
1.0
  2
SOLID
 70
               1
 71
               1
 91
        1
 92
        1
 93
        1
 72
               2
 10
-543.8892476568808
 20
834.59511228450538
 40
4.99969482421875
 50
0.0
 51
360.0
 73
               0
 97
        1
330
C0
 75
               0
 76
               1
 98
        1
 10
0.0
 20
0.0
  0
CIRCLE
  5
C2
102
{ACAD_REACTORS
330
C3
102
}
100
AcDbEntity
  8
0
370
              -2
390
0
  6
Continuous
 62
               0
100
AcDbCircle
 10
-443.8892476568808
 20
834.59511228450538
 30
0.0
 40
4.99969482421875
  0
HATCH
  5
C3
100
AcDbEntity
  8
0
370
              -2
390
0
  6
Continuous
 62
               0
100
AcDbHatch
 10
0.0
 20
0.0
 30
0.0
210
0.0
220
0.0
230
1.0
  2
SOLID
 70
               1
 71
               1
 91
        1
 92
        1
 93
        1
 72
               2
 10
-443.8892476568808
 20
834.59511228450538
 40
4.99969482421875
 50
0.0
 51
360.0
 73
               0
 97
        1
330
C2
 75
               0
 76
               1
 98
        1
 10
0.0
 20
0.0
  0
MTEXT
  5
C4
100
AcDbEntity
  8
0
390
0
 62
               0
100
AcDbMText
 10
-517.70174933905673
 20
868.47272947200531
 30
0.0
 40
24.432617187500004
 41
0.0
 71
               1
 72
               1
  1
100
  7
ＭＳ ゴシック
 73
               1
 44
0.7828267384257843
  0
POINT
  5
C5
100
AcDbEntity
  8
Defpoints
370
               0
390
0
 62
               0
100
AcDbPoint
 10
-443.8892476568808
 20
716.87964366089636
 30
0.0
  0
POINT
  5
C6
100
AcDbEntity
  8
Defpoints
370
               0
390
0
 62
               0
100
AcDbPoint
 10
-543.8892476568808
 20
714.37964366089636
 30
0.0
  0
POINT
  5
C7
100
AcDbEntity
  8
Defpoints
370
               0
390
0
 62
               0
100
AcDbPoint
 10
-543.8892476568808
 20
834.59511228450538
 30
0.0
  0
ENDBLK
  5
C8
100
AcDbEntity
  8
notes
390
0
100
AcDbBlockEnd
  0
BLOCK
  5
C9
100
AcDbEntity
  8
notes
390
0
100
AcDbBlockBegin
  2
*D12
 70
               1
 10
0.0
 20
0.0
 30
0.0
  3
*D12
  1

  0
LINE
  5
CA
100
AcDbEntity
  8
0
370
              -2
390
0
  6
Continuous
 62
               0
100
AcDbLine
 10
-443.8892476568808
 20
741.87964366089636
 30
0.0
 11
-443.8892476568808
 21
834.59511228450538
 31
0.0
  0
LINE
  5
CB
100
AcDbEntity
  8
0
370
              -2
390
0
  6
Continuous
 62
               0
100
AcDbLine
 10
-343.8892476568808
 20
739.37964366089636
 30
0.0
 11
-343.8892476568808
 21
834.59511228450538
 31
0.0
  0
LINE
  5
CC
100
AcDbEntity
  8
0
370
              -2
390
0
  6
Continuous
 62
               0
100
AcDbLine
 10
-443.8892476568808
 20
834.59511228450538
 30
0.0
 11
-343.8892476568808
 21
834.59511228450538
 31
0.0
  0
CIRCLE
  5
CD
102
{ACAD_REACTORS
330
CE
102
}
100
AcDbEntity
  8
0
370
              -2
390
0
  6
Continuous
 62
               0
100
AcDbCircle
 10
-443.8892476568808
 20
834.59511228450538
 30
0.0
 40
4.99969482421875
  0
HATCH
  5
CE
100
AcDbEntity
  8
0
370
              -2
390
0
  6
Continuous
 62
               0
100
AcDbHatch
 10
0.0
 20
0.0
 30
0.0
210
0.0
220
0.0
230
1.0
  2
SOLID
 70
               1
 71
               1
 91
        1
 92
        1
 93
        1
 72
               2
 10
-443.8892476568808
 20
834.59511228450538
 40
4.99969482421875
 50
0.0
 51
360.0
 73
               0
 97
        1
330
CD
 75
               0
 76
               1
 98
        1
 10
0.0
 20
0.0
  0
CIRCLE
  5
CF
102
{ACAD_REACTORS
330
D0
102
}
100
AcDbEntity
  8
0
370
              -2
390
0
  6
Continuous
 62
               0
100
AcDbCircle
 10
-343.8892476568808
 20
834.59511228450538
 30
0.0
 40
4.99969482421875
  0
HATCH
  5
D0
100
AcDbEntity
  8
0
370
              -2
390
0
  6
Continuous
 62
               0
100
AcDbHatch
 10
0.0
 20
0.0
 30
0.0
210
0.0
220
0.0
230
1.0
  2
SOLID
 70
               1
 71
               1
 91
        1
 92
        1
 93
        1
 72
               2
 10
-343.8892476568808
 20
834.59511228450538
 40
4.99969482421875
 50
0.0
 51
360.0
 73
               0
 97
        1
330
CF
 75
               0
 76
               1
 98
        1
 10
0.0
 20
0.0
  0
MTEXT
  5
D1
100
AcDbEntity
  8
0
390
0
 62
               0
100
AcDbMText
 10
-417.70174933905673
 20
868.47272947200531
 30
0.0
 40
24.432617187500004
 41
0.0
 71
               1
 72
               1
  1
100
  7
ＭＳ ゴシック
 73
               1
 44
0.7828267384257843
  0
POINT
  5
D2
100
AcDbEntity
  8
Defpoints
370
               0
390
0
 62
               0
100
AcDbPoint
 10
-343.8892476568808
 20
714.37964366089636
 30
0.0
  0
POINT
  5
D3
100
AcDbEntity
  8
Defpoints
370
               0
390
0
 62
               0
100
AcDbPoint
 10
-443.8892476568808
 20
716.87964366089636
 30
0.0
  0
POINT
  5
D4
100
AcDbEntity
  8
Defpoints
370
               0
390
0
 62
               0
100
AcDbPoint
 10
-443.8892476568808
 20
834.59511228450538
 30
0.0
  0
ENDBLK
  5
D5
100
AcDbEntity
  8
notes
390
0
100
AcDbBlockEnd
  0
BLOCK
  5
D6
100
AcDbEntity
  8
notes
390
0
100
AcDbBlockBegin
  2
*D13
 70
               1
 10
0.0
 20
0.0
 30
0.0
  3
*D13
  1

  0
LINE
  5
D7
100
AcDbEntity
  8
0
370
              -2
390
0
  6
Continuous
 62
               0
100
AcDbLine
 10
-706.34938384935049
 20
291.17280582469857
 30
0.0
 11
-706.34938384935049
 21
214.59511228450583
 31
0.0
  0
LINE
  5
D8
100
AcDbEntity
  8
0
370
              -2
390
0
  6
Continuous
 62
               0
100
AcDbLine
 10
-181.34938384935049
 20
291.19286834552076
 30
0.0
 11
-181.34938384935049
 21
214.59511228450583
 31
0.0
  0
LINE
  5
D9
100
AcDbEntity
  8
0
370
              -2
390
0
  6
Continuous
 62
               0
100
AcDbLine
 10
-706.34938384935049
 20
214.59511228450583
 30
0.0
 11
-181.34938384935049
 21
214.59511228450583
 31
0.0
  0
CIRCLE
  5
DA
102
{ACAD_REACTORS
330
DB
102
}
100
AcDbEntity
  8
0
370
              -2
390
0
  6
Continuous
 62
               0
100
AcDbCircle
 10
-706.34938384935049
 20
214.59511228450583
 30
0.0
 40
4.99969482421875
  0
HATCH
  5
DB
100
AcDbEntity
  8
0
370
              -2
390
0
  6
Continuous
 62
               0
100
AcDbHatch
 10
0.0
 20
0.0
 30
0.0
210
0.0
220
0.0
230
1.0
  2
SOLID
 70
               1
 71
               1
 91
        1
 92
        1
 93
        1
 72
               2
 10
-706.34938384935049
 20
214.59511228450583
 40
4.99969482421875
 50
0.0
 51
360.0
 73
               0
 97
        1
330
DA
 75
               0
 76
               1
 98
        1
 10
0.0
 20
0.0
  0
CIRCLE
  5
DC
102
{ACAD_REACTORS
330
DD
102
}
100
AcDbEntity
  8
0
370
              -2
390
0
  6
Continuous
 62
               0
100
AcDbCircle
 10
-181.34938384935049
 20
214.59511228450583
 30
0.0
 40
4.99969482421875
  0
HATCH
  5
DD
100
AcDbEntity
  8
0
370
              -2
390
0
  6
Continuous
 62
               0
100
AcDbHatch
 10
0.0
 20
0.0
 30
0.0
210
0.0
220
0.0
230
1.0
  2
SOLID
 70
               1
 71
               1
 91
        1
 92
        1
 93
        1
 72
               2
 10
-181.34938384935049
 20
214.59511228450583
 40
4.99969482421875
 50
0.0
 51
360.0
 73
               0
 97
        1
330
DC
 75
               0
 76
               1
 98
        1
 10
0.0
 20
0.0
  0
MTEXT
  5
DE
100
AcDbEntity
  8
0
390
0
 62
               0
100
AcDbMText
 10
-467.66188553152642
 20
248.47272947200599
 30
0.0
 40
24.432617187500004
 41
0.0
 71
               1
 72
               1
  1
525
  7
ＭＳ ゴシック
 73
               1
 44
0.7828267384257843
  0
POINT
  5
DF
100
AcDbEntity
  8
Defpoints
370
               0
390
0
 62
               0
100
AcDbPoint
 10
-181.34938384935049
 20
316.19286834552076
 30
0.0
  0
POINT
  5
E0
100
AcDbEntity
  8
Defpoints
370
               0
390
0
 62
               0
100
AcDbPoint
 10
-706.34938384935049
 20
316.17280582469857
 30
0.0
  0
POINT
  5
E1
100
AcDbEntity
  8
Defpoints
370
               0
390
0
 62
               0
100
AcDbPoint
 10
-706.34938384935049
 20
214.59511228450583
 30
0.0
  0
ENDBLK
  5
E2
100
AcDbEntity
  8
notes
390
0
100
AcDbBlockEnd
  0
BLOCK
  5
E3
100
AcDbEntity
  8
notes
390
0
100
AcDbBlockBegin
  2
*D14
 70
               1
 10
0.0
 20
0.0
 30
0.0
  3
*D14
  1

  0
LINE
  5
E4
100
AcDbEntity
  8
0
370
              -2
390
0
  6
Continuous
 62
               0
100
AcDbLine
 10
595.55061615064915
 20
439.54798194290015
 30
0.0
 11
595.55061615064915
 21
364.54798194290015
 31
0.0
  0
LINE
  5
E5
100
AcDbEntity
  8
0
370
              -2
390
0
  6
Continuous
 62
               0
100
AcDbLine
 10
345.55061615064915
 20
439.54798194290015
 30
0.0
 11
345.55061615064915
 21
364.54798194290015
 31
0.0
  0
LINE
  5
E6
100
AcDbEntity
  8
0
370
              -2
390
0
  6
Continuous
 62
               0
100
AcDbLine
 10
595.55061615064915
 20
364.54798194290015
 30
0.0
 11
345.55061615064915
 21
364.54798194290015
 31
0.0
  0
CIRCLE
  5
E7
102
{ACAD_REACTORS
330
E8
102
}
100
AcDbEntity
  8
0
370
              -2
390
0
  6
Continuous
 62
               0
100
AcDbCircle
 10
595.55061615064915
 20
364.54798194290015
 30
0.0
 40
4.99969482421875
  0
HATCH
  5
E8
100
AcDbEntity
  8
0
370
              -2
390
0
  6
Continuous
 62
               0
100
AcDbHatch
 10
0.0
 20
0.0
 30
0.0
210
0.0
220
0.0
230
1.0
  2
SOLID
 70
               1
 71
               1
 91
        1
 92
        1
 93
        1
 72
               2
 10
595.55061615064915
 20
364.54798194290015
 40
4.99969482421875
 50
0.0
 51
360.0
 73
               0
 97
        1
330
E7
 75
               0
 76
               1
 98
        1
 10
0.0
 20
0.0
  0
CIRCLE
  5
E9
102
{ACAD_REACTORS
330
EA
102
}
100
AcDbEntity
  8
0
370
              -2
390
0
  6
Continuous
 62
               0
100
AcDbCircle
 10
345.55061615064915
 20
364.54798194290015
 30
0.0
 40
4.99969482421875
  0
HATCH
  5
EA
100
AcDbEntity
  8
0
370
              -2
390
0
  6
Continuous
 62
               0
100
AcDbHatch
 10
0.0
 20
0.0
 30
0.0
210
0.0
220
0.0
230
1.0
  2
SOLID
 70
               1
 71
               1
 91
        1
 92
        1
 93
        1
 72
               2
 10
345.55061615064915
 20
364.54798194290015
 40
4.99969482421875
 50
0.0
 51
360.0
 73
               0
 97
        1
330
E9
 75
               0
 76
               1
 98
        1
 10
0.0
 20
0.0
  0
MTEXT
  5
EB
100
AcDbEntity
  8
0
390
0
 62
               0
100
AcDbMText
 10
446.73811446847321
 20
398.42559913040031
 30
0.0
 40
24.432617187500004
 41
0.0
 71
               1
 72
               1
  1
250
  7
ＭＳ ゴシック
 73
               1
 44
0.7828267384257843
  0
POINT
  5
EC
100
AcDbEntity
  8
Defpoints
370
               0
390
0
 62
               0
100
AcDbPoint
 10
345.55061615064915
 20
464.54798194290015
 30
0.0
  0
POINT
  5
ED
100
AcDbEntity
  8
Defpoints
370
               0
390
0
 62
               0
100
AcDbPoint
 10
595.55061615064915
 20
464.54798194290015
 30
0.0
  0
POINT
  5
EE
100
AcDbEntity
  8
Defpoints
370
               0
390
0
 62
               0
100
AcDbPoint
 10
595.55061615064915
 20
364.54798194290015
 30
0.0
  0
ENDBLK
  5
EF
100
AcDbEntity
  8
notes
390
0
100
AcDbBlockEnd
  0
BLOCK
  5
F0
100
AcDbEntity
  8
notes
390
0
100
AcDbBlockBegin
  2
*D15
 70
               1
 10
0.0
 20
0.0
 30
0.0
  3
*D15
  1

  0
LINE
  5
F1
100
AcDbEntity
  8
0
370
              -2
390
0
  6
Continuous
 62
               0
100
AcDbLine
 10
620.55061615064915
 20
464.54798194290015
 30
0.0
 11
695.55061615064915
 21
464.54798194290015
 31
0.0
  0
LINE
  5
F2
100
AcDbEntity
  8
0
370
              -2
390
0
  6
Continuous
 62
               0
100
AcDbLine
 10
620.55061615064915
 20
724.54798194290015
 30
0.0
 11
695.55061615064915
 21
724.54798194290015
 31
0.0
  0
LINE
  5
F3
100
AcDbEntity
  8
0
370
              -2
390
0
  6
Continuous
 62
               0
100
AcDbLine
 10
695.55061615064915
 20
464.54798194290015
 30
0.0
 11
695.55061615064915
 21
724.54798194290015
 31
0.0
  0
CIRCLE
  5
F4
102
{ACAD_REACTORS
330
F5
102
}
100
AcDbEntity
  8
0
370
              -2
390
0
  6
Continuous
 62
               0
100
AcDbCircle
 10
695.55061615064915
 20
464.54798194290015
 30
0.0
 40
4.99969482421875
  0
HATCH
  5
F5
100
AcDbEntity
  8
0
370
              -2
390
0
  6
Continuous
 62
               0
100
AcDbHatch
 10
0.0
 20
0.0
 30
0.0
210
0.0
220
0.0
230
1.0
  2
SOLID
 70
               1
 71
               1
 91
        1
 92
        1
 93
        1
 72
               2
 10
695.55061615064915
 20
464.54798194290015
 40
4.99969482421875
 50
0.0
 51
360.0
 73
               0
 97
        1
330
F4
 75
               0
 76
               1
 98
        1
 10
0.0
 20
0.0
  0
CIRCLE
  5
F6
102
{ACAD_REACTORS
330
F7
102
}
100
AcDbEntity
  8
0
370
              -2
390
0
  6
Continuous
 62
               0
100
AcDbCircle
 10
695.55061615064915
 20
724.54798194290015
 30
0.0
 40
4.99969482421875
  0
HATCH
  5
F7
100
AcDbEntity
  8
0
370
              -2
390
0
  6
Continuous
 62
               0
100
AcDbHatch
 10
0.0
 20
0.0
 30
0.0
210
0.0
220
0.0
230
1.0
  2
SOLID
 70
               1
 71
               1
 91
        1
 92
        1
 93
        1
 72
               2
 10
695.55061615064915
 20
724.54798194290015
 40
4.99969482421875
 50
0.0
 51
360.0
 73
               0
 97
        1
330
F6
 75
               0
 76
               1
 98
        1
 10
0.0
 20
0.0
  0
MTEXT
  5
F8
100
AcDbEntity
  8
0
390
0
 62
               0
100
AcDbMText
 10
661.67299896314898
 20
570.73548026072467
 30
0.0
 40
24.432617187500004
 41
0.0
 71
               1
 72
               1
  1
260
  7
ＭＳ ゴシック
 11
0.0
 21
1.0
 31
0.0
 73
               1
 44
0.7828267384257843
  0
POINT
  5
F9
100
AcDbEntity
  8
Defpoints
370
               0
390
0
 62
               0
100
AcDbPoint
 10
595.55061615064915
 20
724.54798194290015
 30
0.0
  0
POINT
  5
FA
100
AcDbEntity
  8
Defpoints
370
               0
390
0
 62
               0
100
AcDbPoint
 10
595.55061615064915
 20
464.54798194290015
 30
0.0
  0
POINT
  5
FB
100
AcDbEntity
  8
Defpoints
370
               0
390
0
 62
               0
100
AcDbPoint
 10
695.55061615064915
 20
464.54798194290015
 30
0.0
  0
ENDBLK
  5
FC
100
AcDbEntity
  8
notes
390
0
100
AcDbBlockEnd
  0
BLOCK
  5
FD
100
AcDbEntity
  8
notes
390
0
100
AcDbBlockBegin
  2
*D16
 70
               1
 10
0.0
 20
0.0
 30
0.0
  3
*D16
  1

  0
LINE
  5
FE
100
AcDbEntity
  8
0
370
              -2
390
0
  6
Continuous
 62
               0
100
AcDbLine
 10
620.55061615064915
 20
724.54798194290015
 30
0.0
 11
695.55061615064915
 21
724.54798194290015
 31
0.0
  0
LINE
  5
FF
100
AcDbEntity
  8
0
370
              -2
390
0
  6
Continuous
 62
               0
100
AcDbLine
 10
619.85061615064933
 20
734.59511228450538
 30
0.0
 11
695.55061615064915
 21
734.59511228450538
 31
0.0
  0
LINE
  5
100
100
AcDbEntity
  8
0
370
              -2
390
0
  6
Continuous
 62
               0
100
AcDbLine
 10
695.55061615064915
 20
734.59511228450538
 30
0.0
 11
695.55061615064915
 21
773.99798194289997
 31
0.0
  0
LINE
  5
101
100
AcDbEntity
  8
0
370
              -2
390
0
  6
Continuous
 62
               0
100
AcDbLine
 10
695.55061615064915
 20
724.54798194290015
 30
0.0
 11
695.55061615064915
 21
734.59511228450538
 31
0.0
  0
CIRCLE
  5
102
102
{ACAD_REACTORS
330
103
102
}
100
AcDbEntity
  8
0
370
              -2
390
0
  6
Continuous
 62
               0
100
AcDbCircle
 10
695.55061615064915
 20
724.54798194290015
 30
0.0
 40
4.99969482421875
  0
HATCH
  5
103
100
AcDbEntity
  8
0
370
              -2
390
0
  6
Continuous
 62
               0
100
AcDbHatch
 10
0.0
 20
0.0
 30
0.0
210
0.0
220
0.0
230
1.0
  2
SOLID
 70
               1
 71
               1
 91
        1
 92
        1
 93
        1
 72
               2
 10
695.55061615064915
 20
724.54798194290015
 40
4.99969482421875
 50
0.0
 51
360.0
 73
               0
 97
        1
330
102
 75
               0
 76
               1
 98
        1
 10
0.0
 20
0.0
  0
CIRCLE
  5
104
102
{ACAD_REACTORS
330
105
102
}
100
AcDbEntity
  8
0
370
              -2
390
0
  6
Continuous
 62
               0
100
AcDbCircle
 10
695.55061615064915
 20
734.59511228450538
 30
0.0
 40
4.99969482421875
  0
HATCH
  5
105
100
AcDbEntity
  8
0
370
              -2
390
0
  6
Continuous
 62
               0
100
AcDbHatch
 10
0.0
 20
0.0
 30
0.0
210
0.0
220
0.0
230
1.0
  2
SOLID
 70
               1
 71
               1
 91
        1
 92
        1
 93
        1
 72
               2
 10
695.55061615064915
 20
734.59511228450538
 40
4.99969482421875
 50
0.0
 51
360.0
 73
               0
 97
        1
330
104
 75
               0
 76
               1
 98
        1
 10
0.0
 20
0.0
  0
MTEXT
  5
106
100
AcDbEntity
  8
0
390
0
 62
               0
100
AcDbMText
 10
661.67299896314898
 20
742.24798194289997
 30
0.0
 40
24.432617187500004
 41
0.0
 71
               1
 72
               1
  1
10
  7
ＭＳ ゴシック
 11
0.0
 21
1.0
 31
0.0
 73
               1
 44
0.7828267384257843
  0
POINT
  5
107
100
AcDbEntity
  8
Defpoints
370
               0
390
0
 62
               0
100
AcDbPoint
 10
594.85061615064933
 20
734.59511228450538
 30
0.0
  0
POINT
  5
108
100
AcDbEntity
  8
Defpoints
370
               0
390
0
 62
               0
100
AcDbPoint
 10
595.55061615064915
 20
724.54798194290015
 30
0.0
  0
POINT
  5
109
100
AcDbEntity
  8
Defpoints
370
               0
390
0
 62
               0
100
AcDbPoint
 10
695.55061615064915
 20
724.54798194290015
 30
0.0
  0
ENDBLK
  5
10A
100
AcDbEntity
  8
notes
390
0
100
AcDbBlockEnd
  0
BLOCK
  5
10B
100
AcDbEntity
  8
notes
390
0
100
AcDbBlockBegin
  2
*D17
 70
               1
 10
0.0
 20
0.0
 30
0.0
  3
*D17
  1

  0
LINE
  5
10C
100
AcDbEntity
  8
0
370
              -2
390
0
  6
Continuous
 62
               0
100
AcDbLine
 10
-125.14334398273877
 20
-481.32708559904631
 30
0.0
 11
-31.14938384935067
 21
-481.32708559904631
 31
0.0
  0
LINE
  5
10D
100
AcDbEntity
  8
0
370
              -2
390
0
  6
Continuous
 62
               0
100
AcDbLine
 10
-125.14334398273877
 20
-581.32708559904904
 30
0.0
 11
-31.14938384935067
 21
-581.32708559904904
 31
0.0
  0
LINE
  5
10E
100
AcDbEntity
  8
0
370
              -2
390
0
  6
Continuous
 62
               0
100
AcDbLine
 10
-31.14938384935067
 20
-481.32708559904631
 30
0.0
 11
-31.14938384935067
 21
-581.32708559904904
 31
0.0
  0
CIRCLE
  5
10F
102
{ACAD_REACTORS
330
110
102
}
100
AcDbEntity
  8
0
370
              -2
390
0
  6
Continuous
 62
               0
100
AcDbCircle
 10
-31.14938384935067
 20
-481.32708559904631
 30
0.0
 40
4.99969482421875
  0
HATCH
  5
110
100
AcDbEntity
  8
0
370
              -2
390
0
  6
Continuous
 62
               0
100
AcDbHatch
 10
0.0
 20
0.0
 30
0.0
210
0.0
220
0.0
230
1.0
  2
SOLID
 70
               1
 71
               1
 91
        1
 92
        1
 93
        1
 72
               2
 10
-31.14938384935067
 20
-481.32708559904631
 40
4.99969482421875
 50
0.0
 51
360.0
 73
               0
 97
        1
330
10F
 75
               0
 76
               1
 98
        1
 10
0.0
 20
0.0
  0
CIRCLE
  5
111
102
{ACAD_REACTORS
330
112
102
}
100
AcDbEntity
  8
0
370
              -2
390
0
  6
Continuous
 62
               0
100
AcDbCircle
 10
-31.14938384935067
 20
-581.32708559904904
 30
0.0
 40
4.99969482421875
  0
HATCH
  5
112
100
AcDbEntity
  8
0
370
              -2
390
0
  6
Continuous
 62
               0
100
AcDbHatch
 10
0.0
 20
0.0
 30
0.0
210
0.0
220
0.0
230
1.0
  2
SOLID
 70
               1
 71
               1
 91
        1
 92
        1
 93
        1
 72
               2
 10
-31.14938384935067
 20
-581.32708559904904
 40
4.99969482421875
 50
0.0
 51
360.0
 73
               0
 97
        1
330
111
 75
               0
 76
               1
 98
        1
 10
0.0
 20
0.0
  0
MTEXT
  5
113
100
AcDbEntity
  8
0
390
0
 62
               0
100
AcDbMText
 10
-65.027001036850379
 20
-555.13958728122316
 30
0.0
 40
24.432617187500004
 41
0.0
 71
               1
 72
               1
  1
100
  7
ＭＳ ゴシック
 11
0.0
 21
1.0
 31
0.0
 73
               1
 44
0.7828267384257843
  0
POINT
  5
114
100
AcDbEntity
  8
Defpoints
370
               0
390
0
 62
               0
100
AcDbPoint
 10
-150.14334398273877
 20
-581.32708559904904
 30
0.0
  0
POINT
  5
115
100
AcDbEntity
  8
Defpoints
370
               0
390
0
 62
               0
100
AcDbPoint
 10
-150.14334398273877
 20
-481.32708559904631
 30
0.0
  0
POINT
  5
116
100
AcDbEntity
  8
Defpoints
370
               0
390
0
 62
               0
100
AcDbPoint
 10
-31.14938384935067
 20
-481.32708559904631
 30
0.0
  0
ENDBLK
  5
117
100
AcDbEntity
  8
notes
390
0
100
AcDbBlockEnd
  0
BLOCK
  5
118
100
AcDbEntity
  8
ADF70-1607
390
0
100
AcDbBlockBegin
  2
グループ-1
 70
               0
 10
0.0
 20
0.0
 30
0.0
  3
グループ-1
  1

  0
ARC
  5
119
100
AcDbEntity
  8
0
370
              15
390
0
  6
STYLE_12
 62
               7
100
AcDbCircle
 10
-5433.940027770288
 20
-3430.4062794915467
 30
0.0
 40
11.747849367173647
100
AcDbArc
 50
189.01501282106275
 51
267.98498717891118
  0
LINE
  5
11A
100
AcDbEntity
  8
0
370
              15
390
0
  6
STYLE_12
 62
               7
100
AcDbLine
 10
-5453.9733958674215
 20
-3384.4345745389201
 30
0.0
 11
-5445.5427596810887
 21
-3432.2470882702873
 31
0.0
  0
ARC
  5
11B
100
AcDbEntity
  8
0
370
              15
390
0
  6
STYLE_12
 62
               7
100
AcDbCircle
 10
-5461.8518578915182
 20
-3385.8237599602567
 30
0.0
 40
7.9999999999992859
100
AcDbArc
 50
10.000000000009361
 51
79.999999999987423
  0
ENDBLK
  5
11C
100
AcDbEntity
  8
ADF70-1607
390
0
100
AcDbBlockEnd
  0
BLOCK
  5
11D
100
AcDbEntity
  8
ADF70-1607
390
0
100
AcDbBlockBegin
  2
グループ-2
 70
               0
 10
0.0
 20
0.0
 30
0.0
  3
グループ-2
  1

  0
ARC
  5
11E
100
AcDbEntity
  8
0
370
              15
390
0
  6
STYLE_12
 62
               7
100
AcDbCircle
 10
-4964.7636880127475
 20
-3430.4062794915467
 30
0.0
 40
11.747849367172975
100
AcDbArc
 50
272.01501282108438
 51
350.98498717893648
  0
LINE
  5
11F
100
AcDbEntity
  8
0
370
              15
390
0
  6
STYLE_12
 62
               7
100
AcDbLine
 10
-4944.7303199156149
 20
-3384.4345745389201
 30
0.0
 11
-4953.1609561019477
 21
-3432.2470882702873
 31
0.0
  0
ARC
  5
120
100
AcDbEntity
  8
0
370
              15
390
0
  6
STYLE_12
 62
               7
100
AcDbCircle
 10
-4936.8518578915182
 20
-3385.8237599602567
 30
0.0
 40
7.999999999999365
100
AcDbArc
 50
100.00000000001258
 51
169.99999999999068
  0
ENDBLK
  5
121
100
AcDbEntity
  8
ADF70-1607
390
0
100
AcDbBlockEnd
  0
ENDSEC
  0
SECTION
  2
ENTITIES
  0
MTEXT
  5
122
100
AcDbEntity
  8
template
390
0
 62
               7
100
AcDbMText
 10
-967.99999999975898
 20
-1147.4176292337006
 30
0.0
 40
16.288411458333332
 41
0.0
 71
               1
 72
               1
  1
品名
  7
ＭＳ ゴシック
 73
               1
 44
0.7828267384257843
  0
MTEXT
  5
123
100
AcDbEntity
  8
template
390
0
 62
               7
100
AcDbMText
 10
-967.99999999975898
 20
-1232.4176292337006
 30
0.0
 40
16.288411458333332
 41
0.0
 71
               1
 72
               1
  1
仕様
  7
ＭＳ ゴシック
 73
               1
 44
0.7828267384257843
  0
MTEXT
  5
124
100
AcDbEntity
  8
template
390
0
 62
               7
100
AcDbMText
 10
-914.99999999975898
 20
-1176.0000901712006
 30
0.0
 40
24.432617187500004
 41
0.0
 71
               1
 72
               1
  1
洗面器,手洗器 -CATALANO,Roma-
  7
ＭＳ ゴシック
 73
               1
 44
0.7828267384257843
  0
LINE
  5
125
100
AcDbEntity
  8
template
370
               5
390
0
  6
Continuous
 62
               7
100
AcDbLine
 10
974.99999999975898
 20
-1224.0027073587007
 30
0.0
 11
-975.00000000024102
 21
-1224.0027073587007
 31
0.0
  0
LWPOLYLINE
  5
126
100
AcDbEntity
  8
template
370
               5
390
0
  6
Continuous
 62
               7
100
AcDbPolyline
 90
        5
 70
             128
 10
975.00000000024102
 20
1405.9972926412995
 10
-974.99999999975898
 20
1405.9972926412995
 10
-974.99999999975898
 20
-1394.0027073587007
 10
975.00000000024102
 20
-1394.0027073587007
 10
975.00000000024102
 20
1405.9972926412995
  0
LINE
  5
127
100
AcDbEntity
  8
template
370
               5
390
0
  6
Continuous
 62
               7
100
AcDbLine
 10
974.99999999975898
 20
-1139.0027073587007
 30
0.0
 11
-975.00000000024102
 21
-1139.0027073587007
 31
0.0
  0
LINE
  5
128
100
AcDbEntity
  8
template
370
               5
390
0
  6
Continuous
 62
               7
100
AcDbLine
 10
975.00000000024102
 20
-1309.0027073587007
 30
0.0
 11
222.00000000024102
 21
-1309.0027073587007
 31
0.0
  0
MTEXT
  5
129
100
AcDbEntity
  8
template
390
0
 62
               7
100
AcDbMText
 10
-974.99999999955617
 20
-1405.8565294155578
 30
0.0
 40
21.717881944444446
 41
0.0
 71
               1
 72
               1
  1
100707SH
  7
ＭＳ ゴシック
 73
               1
 44
0.7828267384257843
  0
MTEXT
  5
12A
100
AcDbEntity
  8
template
390
0
 62
               7
100
AcDbMText
 10
251.87140625250049
 20
-1338.9131018320086
 30
0.0
 40
24.432617187500004
 41
0.0
 71
               1
 72
               1
  1
大洋金物株式会社 ティーフォルム事業部
  7
ＭＳ ゴシック
 73
               1
 44
0.7828267384257843
  0
INSERT
  5
12B
100
AcDbEntity
  8
template
390
0
 62
               7
100
AcDbBlockReference
  2
グループ
 10
4755.5024740421677
 20
2896.59327987906
 30
0.0
  0
MTEXT
  5
12C
100
AcDbEntity
  8
template
390
0
 62
               7
100
AcDbMText
 10
784.00000000050022
 20
-1261.000090171201
 30
0.0
 40
24.432617187500004
 41
0.0
 71
               1
 72
               1
  1
1:10
  7
ＭＳ ゴシック
 73
               1
 44
0.7828267384257843
  0
MTEXT
  5
12D
100
AcDbEntity
  8
template
390
0
 62
               7
100
AcDbMText
 10
731.00000000050022
 20
-1232.4176292337006
 30
0.0
 40
16.288411458333332
 41
0.0
 71
               1
 72
               1
  1
縮尺
  7
ＭＳ ゴシック
 73
               1
 44
0.7828267384257843
  0
LINE
  5
12E
100
AcDbEntity
  8
template
370
               5
390
0
  6
Continuous
 62
               7
100
AcDbLine
 10
724.00000000050022
 20
-1309.0027073587007
 30
0.0
 11
724.00000000050022
 21
-1224.0027073587007
 31
0.0
  0
MTEXT
  5
12F
100
AcDbEntity
  8
template
390
0
 62
               7
100
AcDbMText
 10
480.00000000050022
 20
-1232.4176292337006
 30
0.0
 40
16.288411458333332
 41
0.0
 71
               1
 72
               1
  1
容量
  7
ＭＳ ゴシック
 73
               1
 44
0.7828267384257843
  0
MTEXT
  5
130
100
AcDbEntity
  8
template
390
0
 62
               7
100
AcDbMText
 10
533.00000000050022
 20
-1261.000090171201
 30
0.0
 40
24.432617187500004
 41
0.0
 71
               1
 72
               1
  1
9.5L
  7
ＭＳ ゴシック
 73
               1
 44
0.7828267384257843
  0
LINE
  5
131
100
AcDbEntity
  8
template
370
               5
390
0
  6
Continuous
 62
               7
100
AcDbLine
 10
473.00000000050022
 20
-1309.0027073587007
 30
0.0
 11
473.00000000050022
 21
-1224.0027073587007
 31
0.0
  0
MTEXT
  5
132
100
AcDbEntity
  8
template
390
0
 62
               7
100
AcDbMText
 10
229.00000000050022
 20
-1147.4176292337006
 30
0.0
 40
16.288411458333332
 41
0.0
 71
               1
 72
               1
  1
品番
  7
ＭＳ ゴシック
 73
               1
 44
0.7828267384257843
  0
MTEXT
  5
133
100
AcDbEntity
  8
template
390
0
 62
               7
100
AcDbMText
 10
229.00000000050022
 20
-1232.4176292337006
 30
0.0
 40
16.288411458333332
 41
0.0
 71
               1
 72
               1
  1
重量
  7
ＭＳ ゴシック
 73
               1
 44
0.7828267384257843
  0
MTEXT
  5
134
100
AcDbEntity
  8
template
390
0
 62
               7
100
AcDbMText
 10
282.00000000050022
 20
-1176.0000901712006
 30
0.0
 40
24.432617187500004
 41
0.0
 71
               1
 72
               1
  1
ADF70-1607
  7
ＭＳ ゴシック
 73
               1
 44
0.7828267384257843
  0
MTEXT
  5
135
100
AcDbEntity
  8
template
390
0
 62
               7
100
AcDbMText
 10
282.00000000050022
 20
-1261.000090171201
 30
0.0
 40
24.432617187500004
 41
0.0
 71
               1
 72
               1
  1
16kg
  7
ＭＳ ゴシック
 73
               1
 44
0.7828267384257843
  0
LINE
  5
136
100
AcDbEntity
  8
template
370
               5
390
0
  6
Continuous
 62
               7
100
AcDbLine
 10
222.00000000050022
 20
-1394.0027073587007
 30
0.0
 11
222.00000000050022
 21
-1139.0027073587007
 31
0.0
  0
MTEXT
  5
137
100
AcDbEntity
  8
template
390
0
 62
               7
100
AcDbMText
 10
-914.99999999975989
 20
-1261.000090171201
 30
0.0
 40
24.432617187500004
 41
0.0
 71
               1
 72
               1
  1
カウンター置き/オーバーフローなし/\P陶器,背面釉薬あり/ホワイト
  7
ＭＳ ゴシック
 73
               1
 44
1.3047112307096407
  0
MTEXT
  5
138
100
AcDbEntity
  8
notes
390
0
 62
               7
100
AcDbMText
 10
-814.38038738923206
 20
117.32599206203122
 30
0.0
 40
24.432617187500004
 41
835.23100353988127
 71
               1
 72
               1
  1
＝φ30もしくはφ35の水栓取付用穴あけ加工を承ります。\P  必要な場合、ご注文の際にご指示ください。
  7
ＭＳ ゴシック
 73
               1
 44
1.0437689845677123
  0
MTEXT
  5
139
100
AcDbEntity
  8
notes
390
0
 62
               7
100
AcDbMText
 10
334.55658567644969
 20
983.40051941911884
 30
0.0
 40
24.432617187500004
 41
0.0
 71
               1
 72
               1
  1
カウンター切込寸法
  7
ＭＳ ゴシック
 73
               1
 44
0.7828267384257843
  0
DIMENSION
  5
13A
100
AcDbEntity
  8
notes
370
               5
390
0
  6
Continuous
 62
               7
100
AcDbDimension
  2
*D4
 10
689.54843835746851
 20
-685.32708559904631
 30
0.0
 11
574.54843835746942
 21
-685.32708559904631
 31
0.0
 71
               5
 72
               1
 41
1.0
 42
0.0
  3
Tform
100
AcDbAlignedDimension
 13
459.54843835747033
 23
-576.24440572382082
 33
0.0
 14
689.54843835746851
 24
-576.24440572382082
 34
0.0
100
AcDbRotatedDimension
1001
ACAD
1000
DSTYLE
1002
{
1070
             279
1070
               2
1070
             340
1005
34
1070
             147
1040
5.0
1002
}
  0
DIMENSION
  5
13B
100
AcDbEntity
  8
notes
370
               5
390
0
  6
Continuous
 62
               7
100
AcDbDimension
  2
*D5
 10
453.92710553019515
 20
-481.32708559904631
 30
0.0
 11
448.92710553019515
 21
-477.75201805710003
 31
0.0
 70
             128
 71
               5
 72
               1
 41
1.0
 42
0.0
  3
Tform
100
AcDbAlignedDimension
 13
486.92710553019515
 23
-551.30399459350792
 33
0.0
 14
486.92710553019515
 24
-481.32708559904631
 34
0.0
 50
90.0
100
AcDbRotatedDimension
1001
ACAD
1000
DSTYLE
1002
{
1070
             279
1070
               2
1070
             340
1005
34
1070
               3
1000
<>(深さ)
1070
             174
1070
               0
1070
             147
1040
5.0
1002
}
  0
DIMENSION
  5
13C
100
AcDbEntity
  8
notes
370
               5
390
0
  6
Continuous
 62
               7
100
AcDbDimension
  2
*D6
 10
-43.888234740520602
 20
734.59511228450538
 30
0.0
 11
-43.888234740520602
 21
524.59511228450538
 31
0.0
 71
               5
 72
               1
 41
1.0
 42
0.0
  3
Tform
100
AcDbAlignedDimension
 13
-193.8882347405206
 23
314.59511228450538
 33
0.0
 14
-193.8882347405206
 24
734.59511228450538
 34
0.0
 50
90.0
100
AcDbRotatedDimension
1001
ACAD
1000
DSTYLE
1002
{
1070
             279
1070
               2
1070
             340
1005
34
1070
             147
1040
5.0
1002
}
  0
DIMENSION
  5
13D
100
AcDbEntity
  8
notes
370
               5
390
0
  6
Continuous
 62
               7
100
AcDbDimension
  2
*D7
 10
-143.8882347405206
 20
884.59511228450538
 30
0.0
 11
-443.8882347405206
 21
884.59511228450538
 31
0.0
 71
               5
 72
               1
 41
1.0
 42
0.0
  3
Tform
100
AcDbAlignedDimension
 13
-743.88823474051969
 23
684.59511228450538
 33
0.0
 14
-143.8882347405206
 24
684.59511228450538
 34
0.0
100
AcDbRotatedDimension
1001
ACAD
1000
DSTYLE
1002
{
1070
             279
1070
               2
1070
             340
1005
34
1070
             147
1040
5.0
1002
}
  0
DIMENSION
  5
13E
100
AcDbEntity
  8
notes
370
               5
390
0
  6
Continuous
 62
               7
100
AcDbDimension
  2
*D8
 10
-843.88823474051969
 20
734.59511228450538
 30
0.0
 11
-843.88823474051969
 21
694.59523174176275
 31
0.0
 71
               5
 72
               1
 41
1.0
 42
0.0
  3
Tform
100
AcDbAlignedDimension
 13
-740.07611833833198
 23
654.59535119902012
 33
0.0
 14
-693.88823474051969
 24
734.59511228450538
 34
0.0
 50
90.0
100
AcDbRotatedDimension
1001
ACAD
1000
DSTYLE
1002
{
1070
             279
1070
               2
1070
             340
1005
34
1070
             147
1040
5.0
1002
}
  0
DIMENSION
  5
13F
100
AcDbEntity
  8
notes
370
               5
390
0
  6
Continuous
 62
               7
100
AcDbDimension
  2
*D9
 10
-843.88823474051969
 20
654.59535119902012
 30
0.0
 11
-843.88823474051969
 21
504.59535119902012
 31
0.0
 71
               5
 72
               1
 41
1.0
 42
0.0
  3
Tform
100
AcDbAlignedDimension
 13
-743.88823474051969
 23
354.59535119902012
 33
0.0
 14
-743.88823474051969
 24
654.59535119902012
 34
0.0
 50
90.0
100
AcDbRotatedDimension
1001
ACAD
1000
DSTYLE
1002
{
1070
             279
1070
               2
1070
             340
1005
34
1070
             147
1040
5.0
1002
}
  0
DIMENSION
  5
140
100
AcDbEntity
  8
notes
370
               5
390
0
  6
Continuous
 62
               7
100
AcDbDimension
  2
*D10
 10
689.97466721117553
 20
-381.30399459350792
 30
0.0
 11
669.98733360558799
 21
-381.30399459350792
 31
0.0
 71
               5
 72
               1
 41
1.0
 42
0.0
  3
Tform
100
AcDbAlignedDimension
 13
650.0
 23
-487.4087090321309
 33
0.0
 14
689.97466721117553
 24
-487.4087090321309
 34
0.0
100
AcDbRotatedDimension
1001
ACAD
1000
DSTYLE
1002
{
1070
             279
1070
               2
1070
             340
1005
34
1070
             147
1040
5.0
1002
}
  0
DIMENSION
  5
141
100
AcDbEntity
  8
notes
370
               5
390
0
  6
Continuous
 62
               7
100
AcDbDimension
  2
*D11
 10
-543.8892476568808
 20
834.59511228450538
 30
0.0
 11
-493.8892476568808
 21
834.59511228450538
 31
0.0
 71
               5
 72
               1
 41
1.0
 42
0.0
  3
Tform
100
AcDbAlignedDimension
 13
-443.8892476568808
 23
716.87964366089636
 33
0.0
 14
-543.8892476568808
 24
714.37964366089636
 34
0.0
100
AcDbRotatedDimension
1001
ACAD
1000
DSTYLE
1002
{
1070
             279
1070
               2
1070
             340
1005
34
1070
             147
1040
5.0
1002
}
  0
DIMENSION
  5
142
100
AcDbEntity
  8
notes
370
               5
390
0
  6
Continuous
 62
               7
100
AcDbDimension
  2
*D12
 10
-443.8892476568808
 20
834.59511228450538
 30
0.0
 11
-393.8892476568808
 21
839.59511228450538
 31
0.0
 70
             128
 71
               5
 72
               1
 41
1.0
 42
0.0
  3
Tform
100
AcDbAlignedDimension
 13
-343.8892476568808
 23
714.37964366089636
 33
0.0
 14
-443.8892476568808
 24
716.87964366089636
 34
0.0
100
AcDbRotatedDimension
1001
ACAD
1000
DSTYLE
1002
{
1070
             279
1070
               2
1070
             340
1005
34
1070
             147
1040
5.0
1002
}
  0
DIMENSION
  5
143
100
AcDbEntity
  8
notes
370
               5
390
0
  6
Continuous
 62
               7
100
AcDbDimension
  2
*D13
 10
-706.34938384935049
 20
214.59511228450583
 30
0.0
 11
-443.84938384935049
 21
214.59511228450583
 31
0.0
 71
               5
 72
               1
 41
1.0
 42
0.0
  3
Tform
100
AcDbAlignedDimension
 13
-181.34938384935049
 23
316.19286834552076
 33
0.0
 14
-706.34938384935049
 24
316.17280582469857
 34
0.0
100
AcDbRotatedDimension
1001
ACAD
1000
DSTYLE
1002
{
1070
             279
1070
               2
1070
             340
1005
34
1070
             147
1040
5.0
1002
}
  0
DIMENSION
  5
144
100
AcDbEntity
  8
notes
370
               5
390
0
  6
Continuous
 62
               7
100
AcDbDimension
  2
*D14
 10
595.55061615064915
 20
364.54798194290015
 30
0.0
 11
470.55061615064915
 21
364.54798194290015
 31
0.0
 71
               5
 72
               1
 41
1.0
 42
0.0
  3
Tform
100
AcDbAlignedDimension
 13
345.55061615064915
 23
464.54798194290015
 33
0.0
 14
595.55061615064915
 24
464.54798194290015
 34
0.0
100
AcDbRotatedDimension
1001
ACAD
1000
DSTYLE
1002
{
1070
             279
1070
               2
1070
             340
1005
34
1070
             147
1040
5.0
1002
}
  0
DIMENSION
  5
145
100
AcDbEntity
  8
notes
370
               5
390
0
  6
Continuous
 62
               7
100
AcDbDimension
  2
*D15
 10
695.55061615064915
 20
464.54798194290015
 30
0.0
 11
695.55061615064915
 21
594.54798194290015
 31
0.0
 71
               5
 72
               1
 41
1.0
 42
0.0
  3
Tform
100
AcDbAlignedDimension
 13
595.55061615064915
 23
724.54798194290015
 33
0.0
 14
595.55061615064915
 24
464.54798194290015
 34
0.0
 50
90.0
100
AcDbRotatedDimension
1001
ACAD
1000
DSTYLE
1002
{
1070
             279
1070
               2
1070
             340
1005
34
1070
             147
1040
5.0
1002
}
  0
DIMENSION
  5
146
100
AcDbEntity
  8
notes
370
               5
390
0
  6
Continuous
 62
               7
100
AcDbDimension
  2
*D16
 10
695.55061615064915
 20
724.54798194290015
 30
0.0
 11
700.55061615064915
 21
742.24798194289997
 31
0.0
 70
             128
 71
               5
 72
               1
 41
1.0
 42
0.0
  3
Tform
100
AcDbAlignedDimension
 13
594.85061615064933
 23
734.59511228450538
 33
0.0
 14
595.55061615064915
 24
724.54798194290015
 34
0.0
 50
90.0
100
AcDbRotatedDimension
1001
ACAD
1000
DSTYLE
1002
{
1070
             279
1070
               2
1070
             340
1005
34
1070
             174
1070
               0
1070
             147
1040
5.0
1002
}
  0
CIRCLE
  5
147
100
AcDbEntity
  8
notes
370
               5
390
0
  6
STYLE_12
 62
               7
100
AcDbCircle
 10
-832.14938384935067
 20
103.24798194289997
 30
0.0
 40
15.0
  0
MTEXT
  5
148
100
AcDbEntity
  8
notes
390
0
 62
               7
100
AcDbMText
 10
99.798529364798924
 20
117.32599206203122
 30
0.0
 40
24.432617187500004
 41
764.7717154610109
 71
               1
 72
               1
  1
※陶器製品には寸法公差があります。\P  洗面器の収め方をご確認の上、必ず現物を合わせて\P  カウンターに切込を行ってください。
  7
ＭＳ ゴシック
 73
               1
 44
1.0437689845677123
  0
DIMENSION
  5
149
100
AcDbEntity
  8
notes
370
               5
390
0
  6
Continuous
 62
               7
100
AcDbDimension
  2
*D17
 10
-31.14938384935067
 20
-481.32708559904631
 30
0.0
 11
-31.14938384935067
 21
-531.32708559904768
 31
0.0
 71
               5
 72
               1
 41
1.0
 42
0.0
  3
Tform
100
AcDbAlignedDimension
 13
-150.14334398273877
 23
-581.32708559904904
 33
0.0
 14
-150.14334398273877
 24
-481.32708559904631
 34
0.0
 50
90.0
100
AcDbRotatedDimension
1001
ACAD
1000
DSTYLE
1002
{
1070
             279
1070
               2
1070
             340
1005
34
1070
             147
1040
5.0
1002
}
  0
LINE
  5
14A
100
AcDbEntity
  8
notes
370
              15
390
0
  6
Continuous
 62
               7
100
AcDbLine
 10
276.18686317699576
 20
-481.30399459350792
 30
0.0
 11
683.9755810402371
 21
-481.30399459350701
 31
0.0
  0
LINE
  5
14B
100
AcDbEntity
  8
notes
370
              15
390
0
  6
Continuous
 62
               7
100
AcDbLine
 10
329.6367531796277
 20
-581.30399459350792
 30
0.0
 11
590.35161342265019
 21
-581.30399459350792
 31
0.0
  0
LINE
  5
14C
100
AcDbEntity
  8
notes
370
              15
390
0
  6
Continuous
 62
               7
100
AcDbLine
 10
-738.14517164086283
 20
-481.32708559904631
 30
0.0
 11
-148.95996639721034
 21
-481.32708559904631
 31
0.0
  0
LINE
  5
14D
100
AcDbEntity
  8
notes
370
              15
390
0
  6
Continuous
 62
               7
100
AcDbLine
 10
-740.53991497963943
 20
-581.32708559904631
 30
0.0
 11
-148.95996639721034
 21
-581.32708559904631
 31
0.0
  0
POLYLINE
  5
14E
100
AcDbEntity
  8
ADF70-1607
370
              15
390
0
  6
Continuous
 62
               7
100
AcDb3dPolyline
 66
               1
 10
0.0
 20
0.0
 30
0.0
 70
               8
  0
VERTEX
  5
14F
100
AcDbEntity
  8
ADF70-1607
370
              15
390
0
  6
Continuous
 62
               7
100
AcDbVertex
100
AcDb3dPolylineVertex
 10
271.79236325039801
 20
-577.83889807761761
 30
-0.0000000000004547
 70
              32
  0
VERTEX
  5
150
100
AcDbEntity
  8
ADF70-1607
370
              15
390
0
  6
Continuous
 62
               7
100
AcDbVertex
100
AcDb3dPolylineVertex
 10
270.18777686685553
 20
-487.40870504462418
 30
-0.0000000000004547
 70
              32
  0
SEQEND
  5
151
100
AcDbEntity
  8
ADF70-1607
370
              15
390
0
  6
Continuous
 62
               7
  0
ARC
  5
152
100
AcDbEntity
  8
ADF70-1607
370
              15
390
0
  6
Continuous
 62
               7
100
AcDbCircle
 10
273.79205866390384
 20
-577.80399459350747
 30
0.0
 40
1.999999999999823
100
AcDbArc
 50
180.99996192790508
 51
270.0
  0
SPLINE
  5
153
100
AcDbEntity
  8
ADF70-1607
370
              15
390
0
  6
Continuous
 62
               7
100
AcDbSpline
210
0.0
220
0.0
230
1.0
 70
               4
 71
               2
 72
               8
 73
               5
 74
               0
 42
0.000001
 43
0.000001
 40
0.0
 40
0.0
 40
0.0
 40
0.5
 40
0.5
 40
1.0
 40
1.0
 40
1.0
 10
270.18777686685644
 20
-487.4087050446351
 30
-0.0000000000000011
 41
1.0
 10
270.14386815053967
 20
-484.8930805773939
 30
-0.0000000000000011
 41
0.9222010359305973
 10
271.90736183006993
 20
-483.09853758544978
 30
-0.0000000000000008
 41
1.0
 10
273.67085550959928
 20
-481.30399459350792
 30
-0.0000000000000005
 41
0.9222010359305973
 10
276.18686317699576
 20
-481.30399459350792
 30
-0.0
 41
1.0
  0
ARC
  5
154
100
AcDbEntity
  8
ADF70-1607
370
              15
390
0
  6
STYLE_01
 62
               7
100
AcDbCircle
 10
303.34837135912585
 20
-489.30399459350747
 30
0.0
 40
8.000000000000103
100
AcDbArc
 50
10.000000000005022
 51
89.999999999999986
  0
ARC
  5
155
100
AcDbEntity
  8
ADF70-1607
370
              15
390
0
  6
STYLE_01
 62
               7
100
AcDbCircle
 10
331.47516260570228
 20
-533.64354477153483
 30
0.0
 40
11.99999999999868
100
AcDbArc
 50
189.9999999999776
 51
266.99999999999415
  0
POLYLINE
  5
156
100
AcDbEntity
  8
ADF70-1607
370
              15
390
0
  6
Continuous
 62
               7
100
AcDb3dPolyline
 66
               1
 10
0.0
 20
0.0
 30
0.0
 70
               8
  0
VERTEX
  5
157
100
AcDbEntity
  8
ADF70-1607
370
              15
390
0
  6
Continuous
 62
               7
100
AcDbVertex
100
AcDb3dPolylineVertex
 10
424.00642953607166
 20
-554.28827970338079
 30
0.0
 70
              32
  0
VERTEX
  5
158
100
AcDbEntity
  8
ADF70-1607
370
              15
390
0
  6
Continuous
 62
               7
100
AcDbVertex
100
AcDb3dPolylineVertex
 10
437.07131636057602
 20
-565.32346483812944
 30
0.0
 70
              32
  0
SEQEND
  5
159
100
AcDbEntity
  8
ADF70-1607
370
              15
390
0
  6
Continuous
 62
               7
  0
POLYLINE
  5
15A
100
AcDbEntity
  8
ADF70-1607
370
              15
390
0
  6
Continuous
 62
               7
100
AcDb3dPolyline
 66
               1
 10
0.0
 20
0.0
 30
0.0
 70
               8
  0
VERTEX
  5
15B
100
AcDbEntity
  8
ADF70-1607
370
              15
390
0
  6
Continuous
 62
               7
100
AcDbVertex
100
AcDb3dPolylineVertex
 10
437.07131636057602
 20
-565.32346483812944
 30
0.0
 70
              32
  0
VERTEX
  5
15C
100
AcDbEntity
  8
ADF70-1607
370
              15
390
0
  6
Continuous
 62
               7
100
AcDbVertex
100
AcDb3dPolylineVertex
 10
437.07131636057602
 20
-576.24440572382082
 30
0.0
 70
              32
  0
SEQEND
  5
15D
100
AcDbEntity
  8
ADF70-1607
370
              15
390
0
  6
Continuous
 62
               7
  0
POLYLINE
  5
15E
100
AcDbEntity
  8
ADF70-1607
370
              15
390
0
  6
Continuous
 62
               7
100
AcDb3dPolyline
 66
               1
 10
0.0
 20
0.0
 30
0.0
 70
               8
  0
VERTEX
  5
15F
100
AcDbEntity
  8
ADF70-1607
370
              15
390
0
  6
Continuous
 62
               7
100
AcDbVertex
100
AcDb3dPolylineVertex
 10
483.07131636055783
 20
-576.24440572382082
 30
0.0
 70
              32
  0
VERTEX
  5
160
100
AcDbEntity
  8
ADF70-1607
370
              15
390
0
  6
Continuous
 62
               7
100
AcDbVertex
100
AcDb3dPolylineVertex
 10
483.07131636055783
 20
-565.32346483812944
 30
0.0
 70
              32
  0
SEQEND
  5
161
100
AcDbEntity
  8
ADF70-1607
370
              15
390
0
  6
Continuous
 62
               7
  0
POLYLINE
  5
162
100
AcDbEntity
  8
ADF70-1607
370
              15
390
0
  6
Continuous
 62
               7
100
AcDb3dPolyline
 66
               1
 10
0.0
 20
0.0
 30
0.0
 70
               8
  0
VERTEX
  5
163
100
AcDbEntity
  8
ADF70-1607
370
              15
390
0
  6
Continuous
 62
               7
100
AcDbVertex
100
AcDb3dPolylineVertex
 10
483.07131636055783
 20
-565.32346483812944
 30
0.0
 70
              32
  0
VERTEX
  5
164
100
AcDbEntity
  8
ADF70-1607
370
              15
390
0
  6
Continuous
 62
               7
100
AcDbVertex
100
AcDb3dPolylineVertex
 10
496.13620318506491
 20
-554.28827970337898
 30
0.0
 70
              32
  0
SEQEND
  5
165
100
AcDbEntity
  8
ADF70-1607
370
              15
390
0
  6
Continuous
 62
               7
  0
ARC
  5
166
100
AcDbEntity
  8
ADF70-1607
370
              15
390
0
  6
STYLE_01
 62
               7
100
AcDbCircle
 10
588.66747011543157
 20
-533.64354477153483
 30
0.0
 40
11.999999999998886
100
AcDbArc
 50
273.00000000000585
 51
350.00000000002103
  0
ARC
  5
167
100
AcDbEntity
  8
ADF70-1607
370
              15
390
0
  6
STYLE_01
 62
               7
100
AcDbCircle
 10
616.79426136200709
 20
-489.30399459350792
 30
0.0
 40
8.0000000000004547
100
AcDbArc
 50
90.0
 51
169.99999999999497
  0
POLYLINE
  5
168
100
AcDbEntity
  8
ADF70-1607
370
              15
390
0
  6
Continuous
 62
               7
100
AcDb3dPolyline
 66
               1
 10
0.0
 20
0.0
 30
0.0
 70
               8
  0
VERTEX
  5
169
100
AcDbEntity
  8
ADF70-1607
370
              15
390
0
  6
Continuous
 62
               7
100
AcDbVertex
100
AcDb3dPolylineVertex
 10
689.97466721117507
 20
-487.40870903212999
 30
0.0
 70
              32
  0
VERTEX
  5
16A
100
AcDbEntity
  8
ADF70-1607
370
              15
390
0
  6
Continuous
 62
               7
100
AcDbVertex
100
AcDb3dPolylineVertex
 10
688.37001976932788
 20
-577.83889940637982
 30
0.0
 70
              32
  0
SEQEND
  5
16B
100
AcDbEntity
  8
ADF70-1607
370
              15
390
0
  6
Continuous
 62
               7
  0
ARC
  5
16C
100
AcDbEntity
  8
ADF70-1607
370
              15
390
0
  6
Continuous
 62
               7
100
AcDbCircle
 10
686.37032437901507
 20
-577.80399459350519
 30
0.0
 40
2.0
100
AcDbArc
 50
270.0
 51
358.99999999999824
  0
POLYLINE
  5
16D
100
AcDbEntity
  8
ADF70-1607
370
              15
390
0
  6
Continuous
 62
               7
100
AcDb3dPolyline
 66
               1
 10
0.0
 20
0.0
 30
0.0
 70
               8
  0
VERTEX
  5
16E
100
AcDbEntity
  8
ADF70-1607
370
              15
390
0
  6
Continuous
 62
               7
100
AcDbVertex
100
AcDb3dPolylineVertex
 10
689.97466721117553
 20
-487.4087090321309
 30
-0.000000000000146
 70
              32
  0
VERTEX
  5
16F
100
AcDbEntity
  8
ADF70-1607
370
              15
390
0
  6
Continuous
 62
               7
100
AcDbVertex
100
AcDb3dPolylineVertex
 10
689.87748190134516
 20
-486.22345480911645
 30
-0.000000000000146
 70
              32
  0
VERTEX
  5
170
100
AcDbEntity
  8
ADF70-1607
370
              15
390
0
  6
Continuous
 62
               7
100
AcDbVertex
100
AcDb3dPolylineVertex
 10
689.54843835746851
 20
-485.08064996844769
 30
-0.000000000000146
 70
              32
  0
VERTEX
  5
171
100
AcDbEntity
  8
ADF70-1607
370
              15
390
0
  6
Continuous
 62
               7
100
AcDbVertex
100
AcDb3dPolylineVertex
 10
689.00046316994485
 20
-484.02518999692893
 30
-0.0000000000001461
 70
              32
  0
VERTEX
  5
172
100
AcDbEntity
  8
ADF70-1607
370
              15
390
0
  6
Continuous
 62
               7
100
AcDbVertex
100
AcDb3dPolylineVertex
 10
688.25508373516232
 20
-483.09853900770759
 30
-0.0000000000001463
 70
              32
  0
VERTEX
  5
173
100
AcDbEntity
  8
ADF70-1607
370
              15
390
0
  6
Continuous
 62
               7
100
AcDbVertex
100
AcDb3dPolylineVertex
 10
687.34158254422118
 20
-482.33710080813398
 30
-0.0000000000001465
 70
              32
  0
VERTEX
  5
174
100
AcDbEntity
  8
ADF70-1607
370
              15
390
0
  6
Continuous
 62
               7
100
AcDbVertex
100
AcDb3dPolylineVertex
 10
686.29584681005826
 20
-481.77078876348423
 30
-0.0000000000001467
 70
              32
  0
VERTEX
  5
175
100
AcDbEntity
  8
ADF70-1607
370
              15
390
0
  6
Continuous
 62
               7
100
AcDbVertex
100
AcDb3dPolylineVertex
 10
685.15895862576599
 20
-481.42185063997567
 30
-0.0000000000001469
 70
              32
  0
VERTEX
  5
176
100
AcDbEntity
  8
ADF70-1607
370
              15
390
0
  6
Continuous
 62
               7
100
AcDbVertex
100
AcDb3dPolylineVertex
 10
683.9755810402371
 20
-481.30399459350701
 30
-0.0000000000001471
 70
              32
  0
SEQEND
  5
177
100
AcDbEntity
  8
ADF70-1607
370
              15
390
0
  6
Continuous
 62
               7
  0
ARC
  5
178
100
AcDbEntity
  8
ADF70-1607
370
              15
390
0
  6
STYLE_01
 62
               7
100
AcDbCircle
 10
414.97264897500645
 20
-564.98364359501738
 30
0.0
 40
14.000000000000341
100
AcDbArc
 50
49.814074834290963
 51
86.375741372452481
  0
ARC
  5
179
100
AcDbEntity
  8
ADF70-1607
370
              15
390
0
  6
STYLE_01
 62
               7
100
AcDbCircle
 10
505.16998374613104
 20
-564.98364359501647
 30
0.0
 40
13.999999999999982
100
AcDbArc
 50
93.624258627551384
 51
130.18592516571144
  0
LINE
  5
17A
100
AcDbEntity
  8
ADF70-1607
370
              15
390
0
  6
STYLE_01
 62
               7
100
AcDbLine
 10
417.95043392282605
 20
-551.30399459350792
 30
0.0
 11
502.19219879829234
 21
-551.30399459350792
 31
0.0
  0
LINE
  5
17B
100
AcDbEntity
  8
ADF70-1607
370
              15
390
0
  6
STYLE_01
 62
               7
100
AcDbLine
 10
437.07131636057602
 20
-565.32346483812944
 30
0.0
 11
483.07131636055783
 21
-565.32346483812944
 31
0.0
  0
LINE
  5
17C
100
AcDbEntity
  8
ADF70-1607
370
              15
390
0
  6
STYLE_01
 62
               7
100
AcDbLine
 10
437.07131636057602
 20
-576.24440572382082
 30
0.0
 11
483.07131636055783
 21
-576.24440572382082
 31
0.0
  0
CIRCLE
  5
17D
100
AcDbEntity
  8
ADF70-1607
370
              15
390
0
  6
Continuous
 62
               7
100
AcDbCircle
 10
-443.8892476568808
 20
504.58520324700112
 30
0.0
 40
38.999999999999091
  0
CIRCLE
  5
17E
100
AcDbEntity
  8
ADF70-1607
370
              15
390
0
  6
Continuous
 62
               7
100
AcDbCircle
 10
-443.8892476568808
 20
504.58520324700021
 30
0.0
 40
23.043551013696742
  0
LWPOLYLINE
  5
17F
100
AcDbEntity
  8
ADF70-1607
370
              15
390
0
  6
Continuous
 62
               7
100
AcDbPolyline
 90
        9
 70
             129
 10
-693.88823474051969
 20
314.59511228450538
 10
-193.8882347405206
 20
314.59511228450538
 42
0.414213562373095
 10
-143.8882347405206
 20
364.59511228450538
 10
-143.8882347405206
 20
684.59511228450538
 42
0.414213562373095
 10
-193.8882347405206
 20
734.59511228450538
 10
-693.88823474051969
 20
734.59511228450538
 42
0.414213562373095
 10
-743.88823474051969
 20
684.59511228450538
 10
-743.88823474051969
 20
364.59511228450538
 42
0.414213562373095
 10
-693.88823474051969
 20
314.59511228450538
  0
CIRCLE
  5
180
100
AcDbEntity
  8
ADF70-1607
370
              15
390
0
  6
STYLE_12
 62
               7
100
AcDbCircle
 10
-443.8892476568808
 20
694.54798194290015
 30
0.0
 40
17.499999999999968
  0
CIRCLE
  5
181
100
AcDbEntity
  8
ADF70-1607
370
              15
390
0
  6
STYLE_12
 62
               7
100
AcDbCircle
 10
-343.8892476568808
 20
694.54798194290015
 30
0.0
 40
17.499999999999968
  0
CIRCLE
  5
182
100
AcDbEntity
  8
ADF70-1607
370
              15
390
0
  6
STYLE_12
 62
               7
100
AcDbCircle
 10
-543.8892476568808
 20
694.54798194290015
 30
0.0
 40
17.499999999999968
  0
LINE
  5
183
100
AcDbEntity
  8
ADF70-1607
370
              15
390
0
  6
Continuous
 62
               7
100
AcDbLine
 10
273.79205866390294
 20
-579.80399459350792
 30
0.0
 11
279.86126830526973
 21
-579.80399459350974
 31
0.0
  0
LINE
  5
184
100
AcDbEntity
  8
ADF70-1607
370
              15
390
0
  6
Continuous
 62
               7
100
AcDbLine
 10
686.37032437901507
 20
-579.80399459350792
 30
0.0
 11
680.30111343147837
 21
-579.80399459350792
 31
0.0
  0
POLYLINE
  5
185
100
AcDbEntity
  8
ADF70-1607
370
              15
390
0
  6
Continuous
 62
               7
100
AcDb3dPolyline
 66
               1
 10
0.0
 20
0.0
 30
0.0
 70
               8
  0
VERTEX
  5
186
100
AcDbEntity
  8
ADF70-1607
370
              15
390
0
  6
Continuous
 62
               7
100
AcDbVertex
100
AcDb3dPolylineVertex
 10
590.35161342265019
 20
-581.30399459350792
 30
-0.0000000000000005
 70
              32
  0
VERTEX
  5
187
100
AcDbEntity
  8
ADF70-1607
370
              15
390
0
  6
Continuous
 62
               7
100
AcDbVertex
100
AcDb3dPolylineVertex
 10
680.30111343147837
 20
-579.80399459350974
 30
0.0
 70
              32
  0
SEQEND
  5
188
100
AcDbEntity
  8
ADF70-1607
370
              15
390
0
  6
Continuous
 62
               7
  0
POLYLINE
  5
189
100
AcDbEntity
  8
ADF70-1607
370
              15
390
0
  6
Continuous
 62
               7
100
AcDb3dPolyline
 66
               1
 10
0.0
 20
0.0
 30
0.0
 70
               8
  0
VERTEX
  5
18A
100
AcDbEntity
  8
ADF70-1607
370
              15
390
0
  6
Continuous
 62
               7
100
AcDbVertex
100
AcDb3dPolylineVertex
 10
329.6367531796277
 20
-581.30399459350792
 30
-0.0000000015623461
 70
              32
  0
VERTEX
  5
18B
100
AcDbEntity
  8
ADF70-1607
370
              15
390
0
  6
Continuous
 62
               7
100
AcDbVertex
100
AcDb3dPolylineVertex
 10
279.86126830526973
 20
-579.80399459350974
 30
-0.0000000000004547
 70
              32
  0
SEQEND
  5
18C
100
AcDbEntity
  8
ADF70-1607
370
              15
390
0
  6
Continuous
 62
               7
  0
POLYLINE
  5
18D
100
AcDbEntity
  8
ADF70-1607
370
              15
390
0
  6
Continuous
 62
               7
100
AcDb3dPolyline
 66
               1
 10
0.0
 20
0.0
 30
0.0
 70
               8
  0
VERTEX
  5
18E
100
AcDbEntity
  8
ADF70-1607
370
              15
390
0
  6
Continuous
 62
               7
100
AcDbVertex
100
AcDb3dPolylineVertex
 10
-144.14425781180216
 20
-487.43180003767384
 30
0.0
 70
              32
  0
VERTEX
  5
18F
100
AcDbEntity
  8
ADF70-1607
370
              15
390
0
  6
Continuous
 62
               7
100
AcDbVertex
100
AcDb3dPolylineVertex
 10
-145.74890525364845
 20
-579.36199041192276
 30
0.0
 70
              32
  0
SEQEND
  5
190
100
AcDbEntity
  8
ADF70-1607
370
              15
390
0
  6
Continuous
 62
               7
  0
ARC
  5
191
100
AcDbEntity
  8
ADF70-1607
370
              15
390
0
  6
Continuous
 62
               7
100
AcDbCircle
 10
-147.74860064396216
 20
-579.32708559904631
 30
0.0
 40
2.0
100
AcDbArc
 50
270.0
 51
359.00000000002427
  0
POLYLINE
  5
192
100
AcDbEntity
  8
ADF70-1607
370
              15
390
0
  6
Continuous
 62
               7
100
AcDb3dPolyline
 66
               1
 10
0.0
 20
0.0
 30
0.0
 70
               8
  0
VERTEX
  5
193
100
AcDbEntity
  8
ADF70-1607
370
              15
390
0
  6
Continuous
 62
               7
100
AcDbVertex
100
AcDb3dPolylineVertex
 10
-144.14425781180034
 20
-487.43180003766747
 30
-0.0000000000002926
 70
              32
  0
VERTEX
  5
194
100
AcDbEntity
  8
ADF70-1607
370
              15
390
0
  6
Continuous
 62
               7
100
AcDbVertex
100
AcDb3dPolylineVertex
 10
-144.24144312163116
 20
-486.24654581465302
 30
-0.0000000000002927
 70
              32
  0
VERTEX
  5
195
100
AcDbEntity
  8
ADF70-1607
370
              15
390
0
  6
Continuous
 62
               7
100
AcDbVertex
100
AcDb3dPolylineVertex
 10
-144.57048666550781
 20
-485.10374097398517
 30
-0.0000000000002927
 70
              32
  0
VERTEX
  5
196
100
AcDbEntity
  8
ADF70-1607
370
              15
390
0
  6
Continuous
 62
               7
100
AcDbVertex
100
AcDb3dPolylineVertex
 10
-145.11846185303148
 20
-484.04828100246641
 30
-0.0000000000002928
 70
              32
  0
VERTEX
  5
197
100
AcDbEntity
  8
ADF70-1607
370
              15
390
0
  6
Continuous
 62
               7
100
AcDbVertex
100
AcDb3dPolylineVertex
 10
-145.86384128781447
 20
-483.12163001324598
 30
-0.000000000000293
 70
              32
  0
VERTEX
  5
198
100
AcDbEntity
  8
ADF70-1607
370
              15
390
0
  6
Continuous
 62
               7
100
AcDbVertex
100
AcDb3dPolylineVertex
 10
-146.7773424787556
 20
-482.36019181367237
 30
-0.0000000000002932
 70
              32
  0
VERTEX
  5
199
100
AcDbEntity
  8
ADF70-1607
370
              15
390
0
  6
Continuous
 62
               7
100
AcDbVertex
100
AcDb3dPolylineVertex
 10
-147.82307821291852
 20
-481.79387976902353
 30
-0.0000000000002934
 70
              32
  0
VERTEX
  5
19A
100
AcDbEntity
  8
ADF70-1607
370
              15
390
0
  6
Continuous
 62
               7
100
AcDbVertex
100
AcDb3dPolylineVertex
 10
-148.95996639721034
 20
-481.44494164551497
 30
-0.0000000000002936
 70
              32
  0
VERTEX
  5
19B
100
AcDbEntity
  8
ADF70-1607
370
              15
390
0
  6
Continuous
 62
               7
100
AcDbVertex
100
AcDb3dPolylineVertex
 10
-150.14334398273877
 20
-481.32708559904631
 30
-0.0000000000002938
 70
              32
  0
SEQEND
  5
19C
100
AcDbEntity
  8
ADF70-1607
370
              15
390
0
  6
Continuous
 62
               7
  0
LINE
  5
19D
100
AcDbEntity
  8
ADF70-1607
370
              15
390
0
  6
Continuous
 62
               7
100
AcDbLine
 10
-147.74860064396216
 20
-581.32708559904904
 30
0.0
 11
-153.81781159149796
 21
-581.32708559904904
 31
0.0
  0
POLYLINE
  5
19E
100
AcDbEntity
  8
ADF70-1607
370
              15
390
0
  6
Continuous
 62
               7
100
AcDb3dPolyline
 66
               1
 10
0.0
 20
0.0
 30
0.0
 70
               8
  0
VERTEX
  5
19F
100
AcDbEntity
  8
ADF70-1607
370
              15
390
0
  6
Continuous
 62
               7
100
AcDbVertex
100
AcDb3dPolylineVertex
 10
-744.14425781179943
 20
-487.43180003767384
 30
0.0
 70
              32
  0
VERTEX
  5
1A0
100
AcDbEntity
  8
ADF70-1607
370
              15
390
0
  6
Continuous
 62
               7
100
AcDbVertex
100
AcDb3dPolylineVertex
 10
-742.53961036995315
 20
-579.36199041192276
 30
0.0
 70
              32
  0
SEQEND
  5
1A1
100
AcDbEntity
  8
ADF70-1607
370
              15
390
0
  6
Continuous
 62
               7
  0
ARC
  5
1A2
100
AcDbEntity
  8
ADF70-1607
370
              15
390
0
  6
Continuous
 62
               7
100
AcDbCircle
 10
-740.53991497963943
 20
-579.32708559904631
 30
0.0
 40
2.0000000000000115
100
AcDbArc
 50
180.99999999997576
 51
270.0
  0
POLYLINE
  5
1A3
100
AcDbEntity
  8
ADF70-1607
370
              15
390
0
  6
Continuous
 62
               7
100
AcDb3dPolyline
 66
               1
 10
0.0
 20
0.0
 30
0.0
 70
               8
  0
VERTEX
  5
1A4
100
AcDbEntity
  8
ADF70-1607
370
              15
390
0
  6
Continuous
 62
               7
100
AcDbVertex
100
AcDb3dPolylineVertex
 10
-744.14425781180125
 20
-487.43180003766747
 30
-0.0000000000002926
 70
              32
  0
VERTEX
  5
1A5
100
AcDbEntity
  8
ADF70-1607
370
              15
390
0
  6
Continuous
 62
               7
100
AcDbVertex
100
AcDb3dPolylineVertex
 10
-744.04707250197043
 20
-486.24654581465302
 30
-0.0000000000002927
 70
              32
  0
VERTEX
  5
1A6
100
AcDbEntity
  8
ADF70-1607
370
              15
390
0
  6
Continuous
 62
               7
100
AcDbVertex
100
AcDb3dPolylineVertex
 10
-743.71802895809378
 20
-485.10374097398517
 30
-0.0000000000002927
 70
              32
  0
VERTEX
  5
1A7
100
AcDbEntity
  8
ADF70-1607
370
              15
390
0
  6
Continuous
 62
               7
100
AcDbVertex
100
AcDb3dPolylineVertex
 10
-743.17005377057012
 20
-484.04828100246641
 30
-0.0000000000002928
 70
              32
  0
VERTEX
  5
1A8
100
AcDbEntity
  8
ADF70-1607
370
              15
390
0
  6
Continuous
 62
               7
100
AcDbVertex
100
AcDb3dPolylineVertex
 10
-742.42467433578713
 20
-483.12163001324598
 30
-0.000000000000293
 70
              32
  0
VERTEX
  5
1A9
100
AcDbEntity
  8
ADF70-1607
370
              15
390
0
  6
Continuous
 62
               7
100
AcDbVertex
100
AcDb3dPolylineVertex
 10
-741.511173144846
 20
-482.36019181367237
 30
-0.0000000000002932
 70
              32
  0
VERTEX
  5
1AA
100
AcDbEntity
  8
ADF70-1607
370
              15
390
0
  6
Continuous
 62
               7
100
AcDbVertex
100
AcDb3dPolylineVertex
 10
-740.46543741068308
 20
-481.79387976902353
 30
-0.0000000000002934
 70
              32
  0
VERTEX
  5
1AB
100
AcDbEntity
  8
ADF70-1607
370
              15
390
0
  6
Continuous
 62
               7
100
AcDbVertex
100
AcDb3dPolylineVertex
 10
-739.32854922639126
 20
-481.44494164551497
 30
-0.0000000000002936
 70
              32
  0
VERTEX
  5
1AC
100
AcDbEntity
  8
ADF70-1607
370
              15
390
0
  6
Continuous
 62
               7
100
AcDbVertex
100
AcDb3dPolylineVertex
 10
-738.14517164086283
 20
-481.32708559904631
 30
-0.0000000000002938
 70
              32
  0
SEQEND
  5
1AD
100
AcDbEntity
  8
ADF70-1607
370
              15
390
0
  6
Continuous
 62
               7
  0
CIRCLE
  5
1AE
100
AcDbEntity
  8
ADF70-1607
370
               5
390
0
  6
STYLE_12
 62
               7
100
AcDbCircle
 10
470.55241900978308
 20
504.58520324700021
 30
0.0
 40
23.043551013696742
  0
LWPOLYLINE
  5
1AF
100
AcDbEntity
  8
ADF70-1607
370
               5
390
0
  6
STYLE_12
 62
               7
100
AcDbPolyline
 90
        9
 70
             129
 10
220.55343192614419
 20
314.59511228450538
 10
720.55343192614055
 20
314.59511228450538
 42
0.414213562373095
 10
770.55343192614055
 20
364.59511228450538
 10
770.55343192614055
 20
684.59511228450538
 42
0.414213562373095
 10
720.55343192614055
 20
734.59511228450538
 10
220.55343192614419
 20
734.59511228450538
 42
0.414213562373095
 10
170.55343192614419
 20
684.59511228450538
 10
170.55343192614419
 20
364.59511228450538
 42
0.414213562373095
 10
220.55343192614419
 20
314.59511228450538
  0
CIRCLE
  5
1B0
100
AcDbEntity
  8
ADF70-1607
370
               5
390
0
  6
STYLE_12
 62
               7
100
AcDbCircle
 10
470.55241900978308
 20
694.54798194290015
 30
0.0
 40
17.499999999999968
  0
CIRCLE
  5
1B1
100
AcDbEntity
  8
ADF70-1607
370
               5
390
0
  6
STYLE_12
 62
               7
100
AcDbCircle
 10
570.55241900978308
 20
694.54798194290015
 30
0.0
 40
17.50000000000027
  0
CIRCLE
  5
1B2
100
AcDbEntity
  8
ADF70-1607
370
               5
390
0
  6
STYLE_12
 62
               7
100
AcDbCircle
 10
370.55241900978308
 20
694.54798194290015
 30
0.0
 40
17.50000000000027
  0
ARC
  5
1B3
100
AcDbEntity
  8
ADF70-1607
370
              15
390
0
  6
STYLE_12
 62
               7
100
AcDbCircle
 10
-398.44618935596009
 20
-564.91012908270523
 30
0.0
 40
13.999999999999982
100
AcDbArc
 50
93.624258627551384
 51
130.1859251657155
  0
LINE
  5
1B4
100
AcDbEntity
  8
ADF70-1607
370
              15
390
0
  6
STYLE_12
 62
               7
100
AcDbLine
 10
-407.47996991702621
 20
-554.21476519106909
 30
0.0
 11
-420.54485674153057
 21
-565.24995032581774
 31
0.0
  0
LINE
  5
1B5
100
AcDbEntity
  8
ADF70-1607
370
              15
390
0
  6
STYLE_12
 62
               7
100
AcDbLine
 10
-399.33117235475402
 20
-550.93812832791627
 30
0.0
 11
-208.84814362100951
 21
-545.55358467627684
 31
0.0
  0
POLYLINE
  5
1B6
100
AcDbEntity
  8
ADF70-1607
370
              15
390
0
  6
STYLE_12
 62
               7
100
AcDb2dPolyline
 66
               1
 10
0.0
 20
0.0
 30
0.0
 70
               1
 75
               5
  0
VERTEX
  5
1B7
100
AcDbEntity
  8
ADF70-1607
370
              15
390
0
  6
STYLE_12
 62
               7
100
AcDbVertex
100
AcDb2dVertex
 10
-466.54485674151147
 20
-565.24995032581774
 30
0.0
  0
VERTEX
  5
1B8
100
AcDbEntity
  8
ADF70-1607
370
              15
390
0
  6
STYLE_12
 62
               7
100
AcDbVertex
100
AcDb2dVertex
 10
-420.54485674153057
 20
-565.24995032581774
 30
0.0
  0
VERTEX
  5
1B9
100
AcDbEntity
  8
ADF70-1607
370
              15
390
0
  6
STYLE_12
 62
               7
100
AcDbVertex
100
AcDb2dVertex
 10
-420.54485674153057
 20
-576.17089121150912
 30
0.0
  0
VERTEX
  5
1BA
100
AcDbEntity
  8
ADF70-1607
370
              15
390
0
  6
STYLE_12
 62
               7
100
AcDbVertex
100
AcDb2dVertex
 10
-466.54485674151147
 20
-576.17089121150912
 30
0.0
  0
SEQEND
  5
1BB
100
AcDbEntity
  8
ADF70-1607
370
              15
390
0
  6
STYLE_12
 62
               7
  0
LINE
  5
1BC
100
AcDbEntity
  8
ADF70-1607
370
              15
390
0
  6
STYLE_12
 62
               7
100
AcDbLine
 10
-485.67479339491729
 20
-551.23048008119622
 30
0.0
 11
-401.42397430378787
 21
-551.23048008119622
 31
0.0
  0
ARC
  5
1BD
100
AcDbEntity
  8
ADF70-1607
370
              15
390
0
  6
STYLE_12
 62
               7
100
AcDbCircle
 10
-488.65257834274053
 20
-564.91012908270523
 30
0.0
 40
13.999999999999885
100
AcDbArc
 50
49.814074834284519
 51
86.375741372448616
  0
LINE
  5
1BE
100
AcDbEntity
  8
ADF70-1607
370
              15
390
0
  6
STYLE_12
 62
               7
100
AcDbLine
 10
-479.6187977816744
 20
-554.21476519106909
 30
0.0
 11
-466.55391095717005
 21
-565.24995032581774
 31
0.0
  0
LINE
  5
1BF
100
AcDbEntity
  8
ADF70-1607
370
              15
390
0
  6
STYLE_12
 62
               7
100
AcDbLine
 10
-487.7675953439466
 20
-550.93812832791627
 30
0.0
 11
-678.85062407769146
 21
-545.55358467627684
 31
0.0
  0
LWPOLYLINE
  5
1C0
100
AcDbEntity
  8
ADF70-1607
370
              15
390
0
  6
Continuous
 62
               7
100
AcDbPolyline
 90
        8
 70
             129
 10
-706.34938384935049
 20
614.59535119902012
 42
-0.414213562373095
 10
-666.34938384935049
 20
654.59535119902012
 10
-221.34938384935049
 20
654.59535119902012
 42
-0.414213562373095
 10
-181.34938384935049
 20
614.59535119902012
 10
-181.34938384935049
 20
394.59535119902012
 42
-0.414213562373095
 10
-221.34938384935049
 20
354.59535119902012
 10
-666.34938384935049
 20
354.59535119902012
 42
-0.414213562373095
 10
-706.34938384935049
 20
394.59535119902012
  0
LWPOLYLINE
  5
1C1
100
AcDbEntity
  8
ADF70-1607
370
              15
390
0
  6
Continuous
 62
               7
100
AcDbPolyline
 90
        8
 70
             129
 10
-695.14938384935067
 20
614.59535119902012
 42
-0.414213562373095
 10
-666.34938384935049
 20
643.3953511990203
 10
-221.34938384935049
 20
643.3953511990203
 42
-0.4142135623731043
 10
-192.54938384935031
 20
614.59535119902012
 10
-192.54938384935031
 20
394.59535119902057
 42
-0.4142135623730904
 10
-221.34938384935049
 20
365.79535119902039
 10
-666.34938384935049
 20
365.79535119902039
 42
-0.4142135623731043
 10
-695.14938384935067
 20
394.59535119902057
  0
INSERT
  5
1C2
100
AcDbEntity
  8
ADF70-1607
390
0
 62
               7
100
AcDbBlockReference
  2
グループ-1
 10
4755.5024740421677
 20
2896.59327987906
 30
0.0
  0
INSERT
  5
1C3
100
AcDbEntity
  8
ADF70-1607
390
0
 62
               7
100
AcDbBlockReference
  2
グループ-2
 10
4755.5024740421677
 20
2896.59327987906
 30
0.0
  0
POLYLINE
  5
1C4
100
AcDbEntity
  8
ADF70-1607
370
              15
390
0
  6
Continuous
 62
               7
100
AcDb2dPolyline
 66
               1
 10
0.0
 20
0.0
 30
0.0
 70
               1
 75
               5
  0
VERTEX
  5
1C5
100
AcDbEntity
  8
ADF70-1607
370
              15
390
0
  6
Continuous
 62
               7
100
AcDbVertex
100
AcDb2dVertex
 10
345.55061615064915
 20
724.54798194290015
 30
0.0
  0
VERTEX
  5
1C6
100
AcDbEntity
  8
ADF70-1607
370
              15
390
0
  6
Continuous
 62
               7
100
AcDbVertex
100
AcDb2dVertex
 10
595.55061615064915
 20
724.54798194290015
 30
0.0
  0
VERTEX
  5
1C7
100
AcDbEntity
  8
ADF70-1607
370
              15
390
0
  6
Continuous
 62
               7
100
AcDbVertex
100
AcDb2dVertex
 10
595.55061615064915
 20
464.54798194290015
 30
0.0
  0
VERTEX
  5
1C8
100
AcDbEntity
  8
ADF70-1607
370
              15
390
0
  6
Continuous
 62
               7
100
AcDbVertex
100
AcDb2dVertex
 10
345.55061615064915
 20
464.54798194290015
 30
0.0
  0
SEQEND
  5
1C9
100
AcDbEntity
  8
ADF70-1607
370
              15
390
0
  6
Continuous
 62
               7
  0
LINE
  5
1CA
100
AcDbEntity
  8
ADF70-1607
370
              15
390
0
  6
Continuous
 62
               7
100
AcDbLine
 10
632.37748190134698
 20
-496.0
 30
0.0
 11
632.37748190134698
 21
-481.0
 31
0.0
  0
LINE
  5
1CB
100
AcDbEntity
  8
ADF70-1607
370
              15
390
0
  6
Continuous
 62
               7
100
AcDbLine
 10
667.37748190134698
 20
-496.0
 30
0.0
 11
667.37748190134698
 21
-481.0
 31
0.0
  0
LINE
  5
1CC
100
AcDbEntity
  8
ADF70-1607
370
              15
390
0
  6
STYLE_01
 62
               7
100
AcDbLine
 10
330.84713113078578
 20
-545.62709918858855
 30
0.0
 11
415.85763197379765
 21
-551.01164284022707
 31
0.0
  0
LINE
  5
1CD
100
AcDbEntity
  8
ADF70-1607
370
              15
390
0
  6
STYLE_01
 62
               7
100
AcDbLine
 10
319.65746956955627
 20
-535.72732290353315
 30
0.0
 11
311.22683338322349
 21
-487.91480917217132
 31
0.0
  0
LINE
  5
1CE
100
AcDbEntity
  8
ADF70-1607
370
              15
390
0
  6
STYLE_01
 62
               7
100
AcDbLine
 10
504.28500074733893
 20
-551.01164284022661
 30
0.0
 11
589.29550159034807
 21
-545.62709918858855
 31
0.0
  0
LINE
  5
1CF
100
AcDbEntity
  8
ADF70-1607
370
              15
390
0
  6
STYLE_01
 62
               7
100
AcDbLine
 10
600.48516315157849
 20
-535.7273229035336
 30
0.0
 11
608.91579933790945
 21
-487.91480917217177
 31
0.0
  0
ENDSEC
  0
SECTION
  2
OBJECTS
  0
DICTIONARY
  5
19
100
AcDbDictionary
280
               0
281
               1
  3
ACAD_GROUP
350
1A
  3
ACAD_MLINESTYLE
350
1B
  3
ACAD_LAYOUT
350
1E
  3
ACAD_PLOTSETTINGS
350
22
  3
ACAD_PLOTSTYLENAME
350
1F
  0
DICTIONARY
  5
1A
102
{ACAD_REACTORS
330
19
102
}
100
AcDbDictionary
280
               0
281
               1
  0
DICTIONARY
  5
1B
102
{ACAD_REACTORS
330
19
102
}
100
AcDbDictionary
280
               0
281
               1
  3
Standard
350
1C
  0
MLINESTYLE
  5
1C
102
{ACAD_REACTORS
330
1B
102
}
100
AcDbMlineStyle
  2
Standard
 70
               0
  3

 62
               0
 51
90.0
 52
90.0
 71
               2
 49
0.5
 62
             256
  6
ByLayer
 49
-0.5
 62
             256
  6
ByLayer
  0
ACDBDICTIONARYWDFLT
  5
1F
102
{ACAD_REACTORS
330
19
102
}
100
AcDbDictionary
281
               1
  3
Normal
350
1D
100
AcDbDictionaryWithDefault
340
1D
  0
ACDBPLACEHOLDER
  5
1D
102
{ACAD_REACTORS
330
1F
102
}
  0
LAYOUT
  5
20
102
{ACAD_REACTORS
330
1E
102
}
100
AcDbPlotSettings
  1

  2

  4

  6

 40
0.0
 41
0.0
 42
0.0
 43
0.0
 44
0.0
 45
0.0
 46
0.0
 47
0.0
 48
0.0
 49
0.0
140
0.0
141
0.0
142
1.0
143
1.0
 70
            1024
 72
               0
 73
               0
 74
               0
  7

 75
               0
147
1.0
148
0.0
149
0.0
100
AcDbLayout
  1
Model
 70
               0
 71
               0
 10
0.0
 20
0.0
 11
0.0
 21
0.0
 12
0.0
 22
0.0
 32
0.0
 14
0.0
 24
0.0
 34
0.0
 15
0.0
 25
0.0
 35
0.0
146
0.0
 13
0.0
 23
0.0
 33
0.0
 16
0.0
 26
0.0
 36
0.0
 17
0.0
 27
0.0
 37
0.0
 76
               0
330
A
331
0
345
0
346
0
  0
LAYOUT
  5
21
102
{ACAD_REACTORS
330
1E
102
}
100
AcDbPlotSettings
  1

  2

  4

  6

 40
0.0
 41
0.0
 42
0.0
 43
0.0
 44
0.0
 45
0.0
 46
0.0
 47
0.0
 48
0.0
 49
0.0
140
0.0
141
0.0
142
1.0
143
1.0
 70
               0
 72
               0
 73
               0
 74
               0
  7

 75
               0
147
1.0
148
0.0
149
0.0
100
AcDbLayout
  1
Layout1
 70
               0
 71
               0
 10
0.0
 20
0.0
 11
0.0
 21
0.0
 12
0.0
 22
0.0
 32
0.0
 14
0.0
 24
0.0
 34
0.0
 15
0.0
 25
0.0
 35
0.0
146
0.0
 13
0.0
 23
0.0
 33
0.0
 16
0.0
 26
0.0
 36
0.0
 17
0.0
 27
0.0
 37
0.0
 76
               0
330
B
331
0
345
0
346
0
  0
DICTIONARY
  5
1E
102
{ACAD_REACTORS
330
19
102
}
100
AcDbDictionary
280
               0
281
               1
  3
Layout1
350
21
  3
Model
350
20
  0
DICTIONARY
  5
22
102
{ACAD_REACTORS
330
19
102
}
100
AcDbDictionary
280
               0
281
               1
  0
ENDSEC
  0
EOF
