  0
SECTION
  2
HEADER
  9
$ACADVER
  1
AC1015
  9
$ACADMAINTVER
 70
               6
  9
$DWGCODEPAGE
  3
ANSI_932
  9
$INSBASE
 10
0.0
 20
0.0
 30
0.0
  9
$EXTMIN
 10
-975.00000000024102
 20
-1431.5255224711136
 30
-14.834305555555556
  9
$EXTMAX
 10
975.00000000024124
 20
1405.9972926413002
 30
14.834305555555556
  9
$LIMMIN
 10
0.0
 20
0.0
  9
$LIMMAX
 10
0.0
 20
0.0
  9
$ORTHOMODE
 70
               0
  9
$REGENMODE
 70
               1
  9
$FILLMODE
 70
               1
  9
$QTEXTMODE
 70
               0
  9
$MIRRTEXT
 70
               1
  9
$LTSCALE
 40
50.799999999999997
  9
$ATTMODE
 70
               1
  9
$TEXTSIZE
 40
0.2
  9
$TRACEWID
 40
1.0
  9
$TEXTSTYLE
  7
Standard
  9
$CLAYER
  8
notes
  9
$CELTYPE
  6
Continuous
  9
$CECOLOR
 62
             256
  9
$CELTSCALE
 40
1.0
  9
$DISPSILH
 70
               0
  9
$DIMSCALE
 40
1.0
  9
$DIMASZ
 40
22.4482421875
  9
$DIMEXO
 40
15.875
  9
$DIMDLI
 40
10.16
  9
$DIMRND
 40
0.0
  9
$DIMDLE
 40
1.5874999999999999
  9
$DIMEXE
 40
31.75
  9
$DIMTP
 40
0.0
  9
$DIMTM
 40
0.0
  9
$DIMTXT
 40
24.432617187500004
  9
$DIMCEN
 40
0.0
  9
$DIMTSZ
 40
0.0
  9
$DIMTOL
 70
               0
  9
$DIMLIM
 70
               0
  9
$DIMTIH
 70
               0
  9
$DIMTOH
 70
               0
  9
$DIMSE1
 70
               0
  9
$DIMSE2
 70
               0
  9
$DIMTAD
 70
               1
  9
$DIMZIN
 70
              11
  9
$DIMBLK
  1
VW_SLASH
  9
$DIMASO
 70
               1
  9
$DIMSHO
 70
               1
  9
$DIMPOST
  1
<>
  9
$DIMAPOST
  1
[]
  9
$DIMALT
 70
               0
  9
$DIMALTD
 70
               1
  9
$DIMALTF
 40
1.0
  9
$DIMLFAC
 40
1.0
  9
$DIMTOFL
 70
               1
  9
$DIMTVP
 40
0.0
  9
$DIMTIX
 70
               1
  9
$DIMSOXD
 70
               0
  9
$DIMSAH
 70
               0
  9
$DIMBLK1
  1

  9
$DIMBLK2
  1

  9
$DIMSTYLE
  2
Arch
  9
$DIMCLRD
 70
               0
  9
$DIMCLRE
 70
               0
  9
$DIMCLRT
 70
               0
  9
$DIMTFAC
 40
1.0
  9
$DIMGAP
 40
1.5874999999999999
  9
$DIMJUST
 70
               0
  9
$DIMSD1
 70
               0
  9
$DIMSD2
 70
               0
  9
$DIMTOLJ
 70
               1
  9
$DIMTZIN
 70
              11
  9
$DIMALTZ
 70
              11
  9
$DIMALTTZ
 70
              11
  9
$DIMUPT
 70
               0
  9
$DIMDEC
 70
               1
  9
$DIMTDEC
 70
               1
  9
$DIMALTU
 70
               2
  9
$DIMALTTD
 70
               2
  9
$DIMTXSTY
  7
ＭＳ ゴシック
  9
$DIMAUNIT
 70
               0
  9
$DIMADEC
 70
               2
  9
$DIMALTRND
 40
0.0
  9
$DIMAZIN
 70
               0
  9
$DIMDSEP
 70
              46
  9
$DIMATFIT
 70
               0
  9
$DIMFRAC
 70
               2
  9
$DIMLDRBLK
  1

  9
$DIMLUNIT
 70
               2
  9
$DIMLWD
 70
              -2
  9
$DIMLWE
 70
              -2
  9
$DIMTMOVE
 70
               0
  9
$LUNITS
 70
               2
  9
$LUPREC
 70
               4
  9
$SKETCHINC
 40
0.1
  9
$FILLETRAD
 40
0.0
  9
$AUNITS
 70
               0
  9
$AUPREC
 70
               0
  9
$MENU
  1
acad
  9
$ELEVATION
 40
0.0
  9
$PELEVATION
 40
0.0
  9
$THICKNESS
 40
0.0
  9
$LIMCHECK
 70
               0
  9
$CHAMFERA
 40
0.0
  9
$CHAMFERB
 40
0.0
  9
$CHAMFERC
 40
0.0
  9
$CHAMFERD
 40
0.0
  9
$SKPOLY
 70
               0
  9
$TDCREATE
 40
2456037.613344907
  9
$TDUCREATE
 40
0.000000000
  9
$TDUPDATE
 40
2456037.613344907
  9
$TDUUPDATE
 40
0.000000000
  9
$TDINDWG
 40
0.0000000000
  9
$TDUSRTIMER
 40
0.0000000000
  9
$USRTIMER
 70
               1
  9
$ANGBASE
 50
0.0
  9
$ANGDIR
 70
               0
  9
$PDMODE
 70
               1
  9
$PDSIZE
 40
-2.0
  9
$PLINEWID
 40
0.0
  9
$SPLFRAME
 70
               0
  9
$SPLINETYPE
 70
               6
  9
$SPLINESEGS
 70
               8
  9
$HANDSEED
  5
203
  9
$SURFTAB1
 70
               6
  9
$SURFTAB2
 70
               6
  9
$SURFTYPE
 70
               6
  9
$SURFU
 70
               6
  9
$SURFV
 70
               6
  9
$UCSBASE
  2

  9
$UCSNAME
  2

  9
$UCSORG
 10
0.0
 20
0.0
 30
0.0
  9
$UCSXDIR
 10
1.0
 20
0.0
 30
0.0
  9
$UCSYDIR
 10
0.0
 20
1.0
 30
0.0
  9
$UCSORTHOREF
  2

  9
$UCSORTHOVIEW
 70
               0
  9
$UCSORGTOP
 10
0.0
 20
0.0
 30
0.0
  9
$UCSORGBOTTOM
 10
0.0
 20
0.0
 30
0.0
  9
$UCSORGLEFT
 10
0.0
 20
0.0
 30
0.0
  9
$UCSORGRIGHT
 10
0.0
 20
0.0
 30
0.0
  9
$UCSORGFRONT
 10
0.0
 20
0.0
 30
0.0
  9
$UCSORGBACK
 10
0.0
 20
0.0
 30
0.0
  9
$PUCSBASE
  2

  9
$PUCSNAME
  2

  9
$PUCSORG
 10
0.0
 20
0.0
 30
0.0
  9
$PUCSXDIR
 10
1.0
 20
0.0
 30
0.0
  9
$PUCSYDIR
 10
0.0
 20
1.0
 30
0.0
  9
$PUCSORTHOREF
  2

  9
$PUCSORTHOVIEW
 70
               0
  9
$PUCSORGTOP
 10
0.0
 20
0.0
 30
0.0
  9
$PUCSORGBOTTOM
 10
0.0
 20
0.0
 30
0.0
  9
$PUCSORGLEFT
 10
0.0
 20
0.0
 30
0.0
  9
$PUCSORGRIGHT
 10
0.0
 20
0.0
 30
0.0
  9
$PUCSORGFRONT
 10
0.0
 20
0.0
 30
0.0
  9
$PUCSORGBACK
 10
0.0
 20
0.0
 30
0.0
  9
$USERI1
 70
               0
  9
$USERI2
 70
               0
  9
$USERI3
 70
               0
  9
$USERI4
 70
               0
  9
$USERI5
 70
               0
  9
$USERR1
 40
0.0
  9
$USERR2
 40
0.0
  9
$USERR3
 40
0.0
  9
$USERR4
 40
0.0
  9
$USERR5
 40
0.0
  9
$WORLDVIEW
 70
               1
  9
$SHADEDGE
 70
               3
  9
$SHADEDIF
 70
              70
  9
$TILEMODE
 70
               1
  9
$MAXACTVP
 70
              64
  9
$PINSBASE
 10
0.0
 20
0.0
 30
0.0
  9
$PLIMCHECK
 70
               0
  9
$PEXTMIN
 10
1.0000000000000000E+20
 20
1.0000000000000000E+20
 30
1.0000000000000000E+20
  9
$PEXTMAX
 10
-1.0000000000000000E+20
 20
-1.0000000000000000E+20
 30
-1.0000000000000000E+20
  9
$PLIMMIN
 10
0.0
 20
0.0
  9
$PLIMMAX
 10
12.0
 20
9.0
  9
$UNITMODE
 70
               0
  9
$VISRETAIN
 70
               0
  9
$PLINEGEN
 70
               1
  9
$PSLTSCALE
 70
               0
  9
$TREEDEPTH
 70
            3020
  9
$CMLSTYLE
  2
Standard
  9
$CMLJUST
 70
               0
  9
$CMLSCALE
 40
1.0
  9
$PROXYGRAPHICS
 70
               0
  9
$MEASUREMENT
 70
               1
  9
$CELWEIGHT
370
               0
  9
$ENDCAPS
280
               0
  9
$JOINSTYLE
280
               0
  9
$LWDISPLAY
290
               1
  9
$INSUNITS
 70
               4
  9
$HYPERLINKBASE
  1

  9
$STYLESHEET
  1

  9
$XEDIT
290
               1
  9
$CEPSNTYPE
380
               0
  9
$PSTYLEMODE
290
               1
  9
$FINGERPRINTGUID
  2

  9
$VERSIONGUID
  2

  9
$EXTNAMES
290
               1
  9
$PSVPSCALE
 40
0.0
  0
ENDSEC
  0
SECTION
  2
CLASSES
  0
CLASS
  1
LWPOLYLINE
  2
AcDbPolyline
  3
AutoCAD 2000
 90
        0
280
               0
281
               1
  0
CLASS
  1
IMAGE
  2
AcDbRasterImage
  3
ISM
 90
      127
280
               0
281
               1
  0
CLASS
  1
OLE2FRAME
  2
AcDbOle2Frame
  3
AutoCAD 2000
 90
        0
280
               0
281
               1
  0
CLASS
  1
HATCH
  2
AcDbHatch
  3
AutoCAD 2000
 90
        0
280
               0
281
               1
  0
CLASS
  1
DICTIONARYVAR
  2
AcDbDictionaryVar
  3
AutoCAD 2000
 90
        0
280
               0
281
               0
  0
CLASS
  1
RASTERVARIABLES
  2
AcDbRasterVariables
  3
ISM
 90
        0
280
               0
281
               0
  0
CLASS
  1
IMAGEDEF
  2
AcDbRasterImageDef
  3
ISM
 90
        0
280
               0
281
               0
  0
CLASS
  1
IMAGEDEF_REACTOR
  2
AcDbRasterImageDefReactor
  3
ISM
 90
        1
280
               0
281
               0
  0
CLASS
  1
IDBUFFER
  2
AcDbIdBuffer
  3
AutoCAD 2000
 90
        0
280
               0
281
               0
  0
CLASS
  1
SPATIAL_FILTER
  2
AcDbSpatialFilter
  3
AutoCAD 2000
 90
        0
280
               0
281
               0
  0
CLASS
  1
XRECORD
  2
AcDbXrecord
  3
AutoCAD 2000
 90
        0
280
               0
281
               0
  0
CLASS
  1
SORTENTSTABLE
  2
AcDbSortentsTable
  3
AutoCAD 2000
 90
        0
280
               0
281
               0
  0
CLASS
  1
LAYER_INDEX
  2
AcDbLayerIndex
  3
AutoCAD 2000
 90
        0
280
               0
281
               0
  0
CLASS
  1
SPATIAL_INDEX
  2
AcDbSpatialIndex
  3
AutoCAD 2000
 90
        0
280
               0
281
               0
  0
CLASS
  1
OBJECT_PTR
  2
CAseDLPNTableRecord
  3
"ASE-LPNTableRecord"
 90
        1
280
               0
281
               0
  0
CLASS
  1
LAYOUT
  2
AcDbLayout
  3
AutoCAD 2000
 90
        0
280
               0
281
               0
  0
CLASS
  1
PLOTSETTINGS
  2
AcDbPlotSettings
  3
AutoCAD 2000
 90
        0
280
               0
281
               0
  0
CLASS
  1
ACDBDICTIONARYWDFLT
  2
AcDbDictionaryWithDefault
  3
AutoCAD 2000
 90
        0
280
               0
281
               0
  0
CLASS
  1
ACDBPLACEHOLDER
  2
AcDbPlaceHolder
  3
AutoCAD 2000
 90
        0
280
               0
281
               0
  0
ENDSEC
  0
SECTION
  2
TABLES
  0
TABLE
  2
VPORT
  5
7
100
AcDbSymbolTable
 70
               1
  0
VPORT
  5
15
100
AcDbSymbolTableRecord
100
AcDbViewportTableRecord
  2
*ACTIVE
 70
               0
 10
0.0
 20
0.0
 11
1.0
 21
1.0
 12
0.0000000000001137
 22
-12.764114914906713
 13
0.0
 23
0.0
 14
1.0
 24
1.0
 15
0.0
 25
0.0
 16
0.0
 26
0.0
 36
1.0
 17
0.0
 27
0.0
 37
0.0
 40
2837.5228151124138
 41
0.688564
 42
50.0
 43
0.0
 44
0.0
 50
0.0
 51
0.0
 71
               0
 72
            2000
 73
               1
 74
               1
 75
               0
 76
               0
 77
               0
 78
               0
281
               0
 65
               0
110
0.0
120
0.0
130
0.0
111
1.0
121
0.0
131
0.0
112
0.0
122
1.0
132
0.0
345
0
346
0
 79
               0
146
0.0
  0
ENDTAB
  0
TABLE
  2
LTYPE
  5
4
100
AcDbSymbolTable
 70
              15
  0
LTYPE
  5
11
100
AcDbSymbolTableRecord
100
AcDbLinetypeTableRecord
  2
ByBlock
 70
              64
  3

 72
              65
 73
               0
 40
0.0
  0
LTYPE
  5
12
100
AcDbSymbolTableRecord
100
AcDbLinetypeTableRecord
  2
ByLayer
 70
              64
  3

 72
              65
 73
               0
 40
0.0
  0
LTYPE
  5
13
100
AcDbSymbolTableRecord
100
AcDbLinetypeTableRecord
  2
Continuous
 70
              64
  3
Solid line
 72
              65
 73
               0
 40
0.0
  0
LTYPE
  5
36
100
AcDbSymbolTableRecord
100
AcDbLinetypeTableRecord
  2
STYLE_01
 70
               0
  3

 72
              65
 73
               2
 40
0.1874999999999999
 49
0.125
 74
               0
 49
-0.0625
 74
               0
  0
LTYPE
  5
37
100
AcDbSymbolTableRecord
100
AcDbLinetypeTableRecord
  2
STYLE_02
 70
               0
  3

 72
              65
 73
               2
 40
0.6944250000000001
 49
0.48607
 74
               0
 49
-0.2083550000000001
 74
               0
  0
LTYPE
  5
38
100
AcDbSymbolTableRecord
100
AcDbLinetypeTableRecord
  2
STYLE_03
 70
               0
  3

 72
              65
 73
               2
 40
1.25
 49
1.0416400000000001
 74
               0
 49
-0.2083599999999999
 74
               0
  0
LTYPE
  5
39
100
AcDbSymbolTableRecord
100
AcDbLinetypeTableRecord
  2
STYLE_04
 70
               0
  3

 72
              65
 73
               2
 40
1.5277099999999999
 49
1.3194249999999998
 74
               0
 49
-0.208285
 74
               0
  0
LTYPE
  5
3A
100
AcDbSymbolTableRecord
100
AcDbLinetypeTableRecord
  2
STYLE_05
 70
               0
  3

 72
              65
 73
               2
 40
0.20828
 49
0.069425
 74
               0
 49
-0.138855
 74
               0
  0
LTYPE
  5
3B
100
AcDbSymbolTableRecord
100
AcDbLinetypeTableRecord
  2
STYLE_06
 70
               0
  3

 72
              65
 73
               4
 40
1.0416400000000001
 49
0.625
 74
               0
 49
-0.20828
 74
               0
 49
0.06943
 74
               0
 49
-0.13893
 74
               0
  0
LTYPE
  5
3C
100
AcDbSymbolTableRecord
100
AcDbLinetypeTableRecord
  2
STYLE_07
 70
               0
  3

 72
              65
 73
               6
 40
1.875
 49
0.625
 74
               0
 49
-0.20828
 74
               0
 49
0.6250000000000001
 74
               0
 49
-0.2083599999999999
 74
               0
 49
0.06943
 74
               0
 49
-0.1389299999999999
 74
               0
  0
LTYPE
  5
3D
100
AcDbSymbolTableRecord
100
AcDbLinetypeTableRecord
  2
STYLE_08
 70
               0
  3

 72
              65
 73
               6
 40
1.25
 49
0.625
 74
               0
 49
-0.20828
 74
               0
 49
0.06943
 74
               0
 49
-0.13893
 74
               0
 49
0.0694299999999999
 74
               0
 49
-0.13893
 74
               0
  0
LTYPE
  5
3E
100
AcDbSymbolTableRecord
100
AcDbLinetypeTableRecord
  2
STYLE_09
 70
               0
  3

 72
              65
 73
               4
 40
5.0
 49
3.75
 74
               0
 49
-0.2777849999999998
 74
               0
 49
0.6944300000000003
 74
               0
 49
-0.2777849999999998
 74
               0
  0
LTYPE
  5
3F
100
AcDbSymbolTableRecord
100
AcDbLinetypeTableRecord
  2
STYLE_10
 70
               0
  3

 72
              65
 73
               6
 40
5.9375
 49
3.75
 74
               0
 49
-0.2777849999999998
 74
               0
 49
0.6944300000000003
 74
               0
 49
-0.2777849999999998
 74
               0
 49
0.625
 74
               0
 49
-0.3125
 74
               0
  0
LTYPE
  5
40
100
AcDbSymbolTableRecord
100
AcDbLinetypeTableRecord
  2
STYLE_11
 70
               0
  3

 72
              65
 73
               2
 40
0.0694444881889764
 49
0.0347222440944882
 74
               0
 49
-0.0347222440944882
 74
               0
  0
LTYPE
  5
41
100
AcDbSymbolTableRecord
100
AcDbLinetypeTableRecord
  2
STYLE_12
 70
               0
  3

 72
              65
 73
               2
 40
0.3937007874015748
 49
0.1968503937007874
 74
               0
 49
-0.1968503937007874
 74
               0
  0
ENDTAB
  0
TABLE
  2
LAYER
  5
2
100
AcDbSymbolTable
 70
               5
  0
LAYER
  5
14
100
AcDbSymbolTableRecord
100
AcDbLayerTableRecord
  2
0
 70
               0
 62
               7
  6
Continuous
290
               1
370
              -3
390
1D
  0
LAYER
  5
42
100
AcDbSymbolTableRecord
100
AcDbLayerTableRecord
  2
Defpoints
 70
               0
 62
               7
  6
Continuous
290
               0
370
              -3
390
1D
  0
LAYER
  5
43
100
AcDbSymbolTableRecord
100
AcDbLayerTableRecord
  2
template
 70
               0
 62
               7
  6
Continuous
290
               1
370
              -3
390
1D
  0
LAYER
  5
44
100
AcDbSymbolTableRecord
100
AcDbLayerTableRecord
  2
notes
 70
               0
 62
               7
  6
Continuous
290
               1
370
              -3
390
1D
  0
LAYER
  5
45
100
AcDbSymbolTableRecord
100
AcDbLayerTableRecord
  2
ADF70-1608
 70
               0
 62
               7
  6
Continuous
290
               1
370
              -3
390
1D
  0
ENDTAB
  0
TABLE
  2
STYLE
  5
3
100
AcDbSymbolTable
 70
               2
  0
STYLE
  5
17
100
AcDbSymbolTableRecord
100
AcDbTextStyleTableRecord
  2
Standard
 70
               0
 40
0.0
 41
1.0
 50
0.0
 71
               0
 42
0.0
  3
txt
  4
BIGFONT.SHX
  0
STYLE
  5
35
100
AcDbSymbolTableRecord
100
AcDbTextStyleTableRecord
  2
ＭＳ ゴシック
 70
               0
 40
0.0
 41
1.0
 50
0.0
 71
               0
 42
0.0
  3

  4
ＭＳ ゴシック
1001
ACAD
1000
ＭＳ ゴシック
1071
        0
  0
ENDTAB
  0
TABLE
  2
VIEW
  5
5
100
AcDbSymbolTable
 70
               0
  0
ENDTAB
  0
TABLE
  2
UCS
  5
6
100
AcDbSymbolTable
 70
               0
  0
ENDTAB
  0
TABLE
  2
APPID
  5
8
100
AcDbSymbolTable
 70
               1
  0
APPID
  5
16
100
AcDbSymbolTableRecord
100
AcDbRegAppTableRecord
  2
ACAD
 70
               0
  0
ENDTAB
  0
TABLE
  2
DIMSTYLE
  5
9
100
AcDbSymbolTable
 70
               3
100
AcDbDimStyleTable
 71
               0
  0
DIMSTYLE
105
18
100
AcDbSymbolTableRecord
100
AcDbDimStyleTableRecord
  2
Standard
 70
               0
  3

  4

 40
1.0
 41
0.18
 42
0.0625
 43
0.38
 44
0.18
 45
0.0
 46
0.0
 47
0.0
 48
0.0
 71
               0
 72
               0
 73
               1
 74
               1
 75
               0
 76
               0
 77
               0
 78
               0
 79
               0
140
0.18
141
0.09
142
0.0
143
25.399999999999999
144
1.0
145
0.0
146
1.0
147
0.09
148
0.0
170
               0
171
               2
172
               0
173
               0
174
               0
175
               0
176
               0
177
               0
178
               0
179
               0
271
               4
272
               4
273
               2
274
               2
275
               0
276
               0
277
               2
278
              46
279
               0
280
               0
281
               0
282
               0
283
               1
284
               0
285
               0
286
               0
288
               0
289
               3
340
17
341
0
342
0
343
0
344
0
371
              -2
372
              -2
  0
DIMSTYLE
105
4E
100
AcDbSymbolTableRecord
100
AcDbDimStyleTableRecord
  2
Tform線あり
 70
               0
  3
<>
  4
[]
 40
1.0
 41
9.9993896484374982
 42
24.999999999999996
 43
0.9999999999999999
 44
0.0
 45
0.0
 46
0.0
 47
0.0
 48
0.0
 71
               0
 72
               0
 73
               0
 74
               0
 75
               0
 76
               0
 77
               1
 78
              11
 79
               0
140
24.432617187500004
141
0.0
142
0.0
143
1.0
144
1.0
145
0.0
146
0.8
147
0.4999999999999999
148
0.0
170
               0
171
               1
172
               1
173
               0
174
               1
175
               0
176
               0
177
               0
178
               0
179
               2
271
               1
272
               1
273
               2
274
               2
275
               0
276
               2
277
               2
278
              46
279
               0
280
               0
281
               0
282
               0
283
               1
284
              11
285
              11
286
              11
288
               0
289
               0
340
35
341
46
342
46
343
0
344
0
371
              -2
372
              -2
  0
DIMSTYLE
105
58
100
AcDbSymbolTableRecord
100
AcDbDimStyleTableRecord
  2
Arch
 70
               0
  3
<>
  4
[]
 40
1.0
 41
22.4482421875
 42
15.875
 43
10.16
 44
31.75
 45
0.0
 46
1.5874999999999999
 47
0.0
 48
0.0
 71
               0
 72
               0
 73
               0
 74
               0
 75
               0
 76
               0
 77
               1
 78
              11
 79
               0
140
24.432617187500004
141
0.0
142
0.0
143
1.0
144
1.0
145
0.0
146
1.0
147
1.5874999999999999
148
0.0
170
               0
171
               1
172
               1
173
               0
174
               1
175
               0
176
               0
177
               0
178
               0
179
               2
271
               1
272
               1
273
               2
274
               2
275
               0
276
               2
277
               2
278
              46
279
               0
280
               0
281
               0
282
               0
283
               1
284
              11
285
              11
286
              11
288
               0
289
               0
340
35
341
54
342
4F
343
0
344
0
371
              -2
372
              -2
  0
ENDTAB
  0
TABLE
  2
BLOCK_RECORD
  5
1
100
AcDbSymbolTable
 70
              21
  0
BLOCK_RECORD
  5
A
100
AcDbSymbolTableRecord
100
AcDbBlockTableRecord
  2
*MODEL_SPACE
340
20
  0
BLOCK_RECORD
  5
B
100
AcDbSymbolTableRecord
100
AcDbBlockTableRecord
  2
*PAPER_SPACE
340
21
  0
BLOCK_RECORD
  5
46
100
AcDbSymbolTableRecord
100
AcDbBlockTableRecord
  2
_DOT
340
0
  0
BLOCK_RECORD
  5
4F
100
AcDbSymbolTableRecord
100
AcDbBlockTableRecord
  2
VW_SLASH
340
0
  0
BLOCK_RECORD
  5
54
100
AcDbSymbolTableRecord
100
AcDbBlockTableRecord
  2
VW_FILLEDARROW
340
0
  0
BLOCK_RECORD
  5
23
100
AcDbSymbolTableRecord
100
AcDbBlockTableRecord
  2
グループ
340
0
102
{BLKREFS
331
140
102
}
  0
BLOCK_RECORD
  5
24
100
AcDbSymbolTableRecord
100
AcDbBlockTableRecord
  2
*D4
340
0
  0
BLOCK_RECORD
  5
25
100
AcDbSymbolTableRecord
100
AcDbBlockTableRecord
  2
*D5
340
0
  0
BLOCK_RECORD
  5
26
100
AcDbSymbolTableRecord
100
AcDbBlockTableRecord
  2
*D6
340
0
  0
BLOCK_RECORD
  5
27
100
AcDbSymbolTableRecord
100
AcDbBlockTableRecord
  2
*D7
340
0
  0
BLOCK_RECORD
  5
28
100
AcDbSymbolTableRecord
100
AcDbBlockTableRecord
  2
*D8
340
0
  0
BLOCK_RECORD
  5
29
100
AcDbSymbolTableRecord
100
AcDbBlockTableRecord
  2
*D9
340
0
  0
BLOCK_RECORD
  5
2A
100
AcDbSymbolTableRecord
100
AcDbBlockTableRecord
  2
*D10
340
0
  0
BLOCK_RECORD
  5
2B
100
AcDbSymbolTableRecord
100
AcDbBlockTableRecord
  2
*D11
340
0
  0
BLOCK_RECORD
  5
2C
100
AcDbSymbolTableRecord
100
AcDbBlockTableRecord
  2
*D12
340
0
  0
BLOCK_RECORD
  5
2D
100
AcDbSymbolTableRecord
100
AcDbBlockTableRecord
  2
*D13
340
0
  0
BLOCK_RECORD
  5
2E
100
AcDbSymbolTableRecord
100
AcDbBlockTableRecord
  2
*D14
340
0
  0
BLOCK_RECORD
  5
2F
100
AcDbSymbolTableRecord
100
AcDbBlockTableRecord
  2
*D15
340
0
  0
BLOCK_RECORD
  5
30
100
AcDbSymbolTableRecord
100
AcDbBlockTableRecord
  2
*D16
340
0
  0
BLOCK_RECORD
  5
31
100
AcDbSymbolTableRecord
100
AcDbBlockTableRecord
  2
*D17
340
0
  0
BLOCK_RECORD
  5
32
100
AcDbSymbolTableRecord
100
AcDbBlockTableRecord
  2
*D18
340
0
  0
BLOCK_RECORD
  5
33
100
AcDbSymbolTableRecord
100
AcDbBlockTableRecord
  2
グループ-1
340
0
102
{BLKREFS
331
1F0
102
}
  0
BLOCK_RECORD
  5
34
100
AcDbSymbolTableRecord
100
AcDbBlockTableRecord
  2
グループ-2
340
0
102
{BLKREFS
331
1F1
102
}
  0
ENDTAB
  0
ENDSEC
  0
SECTION
  2
BLOCKS
  0
BLOCK
  5
D
100
AcDbEntity
  8
0
390
0
100
AcDbBlockBegin
  2
*MODEL_SPACE
 70
               0
 10
0.0
 20
0.0
 30
0.0
  3
*MODEL_SPACE
  1

  0
ENDBLK
  5
E
100
AcDbEntity
  8
0
390
0
100
AcDbBlockEnd
  0
BLOCK
  5
F
100
AcDbEntity
 67
               1
  8
0
390
0
100
AcDbBlockBegin
  2
*PAPER_SPACE
 70
               0
 10
0.0
 20
0.0
 30
0.0
  3
*PAPER_SPACE
  1

  0
ENDBLK
  5
10
100
AcDbEntity
 67
               1
  8
0
390
0
100
AcDbBlockEnd
  0
BLOCK
  5
47
100
AcDbEntity
  8
0
390
0
100
AcDbBlockBegin
  2
_DOT
 70
               0
 10
0.0
 20
0.0
 30
0.0
  3
_DOT
  1

  0
POLYLINE
  5
48
100
AcDbEntity
  8
0
370
              -2
390
0
  6
ByBlock
 62
               0
100
AcDb2dPolyline
 66
               1
 10
0.0
 20
0.0
 30
0.0
 70
               1
 40
0.5
 41
0.5
  0
VERTEX
  5
49
100
AcDbEntity
  8
0
370
              -2
390
0
  6
ByBlock
 62
               0
100
AcDbVertex
100
AcDb2dVertex
 10
-0.25
 20
0.0
 30
0.0
 42
1.0
  0
VERTEX
  5
4A
100
AcDbEntity
  8
0
370
              -2
390
0
  6
ByBlock
 62
               0
100
AcDbVertex
100
AcDb2dVertex
 10
0.25
 20
0.0
 30
0.0
 42
1.0
  0
SEQEND
  5
4B
100
AcDbEntity
  8
0
390
0
  0
LINE
  5
4C
100
AcDbEntity
  8
0
370
              -2
390
0
  6
ByBlock
 62
               0
100
AcDbLine
 10
-0.5
 20
0.0
 30
0.0
 11
-1.0
 21
0.0
 31
0.0
  0
ENDBLK
  5
4D
100
AcDbEntity
  8
0
390
0
100
AcDbBlockEnd
  0
BLOCK
  5
50
100
AcDbEntity
  8
0
370
              -2
390
0
  6
ByBlock
 62
               0
100
AcDbBlockBegin
  2
VW_SLASH
 70
               0
 10
0.0
 20
0.0
 30
0.0
  3
VW_SLASH
  1

  0
LINE
  5
51
100
AcDbEntity
  8
0
370
              -2
390
0
  6
ByBlock
 62
               0
100
AcDbLine
 10
0.0
 20
0.0
 30
0.0
 11
-1.0
 21
0.0
 31
0.0
  0
LINE
  5
52
100
AcDbEntity
  8
0
370
              20
390
0
  6
ByBlock
 62
               0
100
AcDbLine
 10
-0.4987813153181721
 20
-0.4987813153181719
 30
0.0
 11
0.4987813153181721
 21
0.4987813153181719
 31
0.0
  0
ENDBLK
  5
53
100
AcDbEntity
  8
0
390
0
100
AcDbBlockEnd
  0
BLOCK
  5
55
100
AcDbEntity
  8
0
370
              -2
390
0
  6
ByBlock
 62
               0
100
AcDbBlockBegin
  2
VW_FILLEDARROW
 70
               0
 10
0.0
 20
0.0
 30
0.0
  3
VW_FILLEDARROW
  1

  0
SOLID
  5
56
100
AcDbEntity
  8
0
370
              -2
390
0
 62
               0
100
AcDbTrace
 10
0.0
 20
0.0
 30
0.0
 11
-1.4107666015625
 21
-0.3780137715974714
 31
0.0
 12
-1.4107666015625
 22
0.3780137715974717
 32
0.0
 13
-1.4107666015625
 23
0.3780137715974717
 33
0.0
  0
ENDBLK
  5
57
100
AcDbEntity
  8
0
390
0
100
AcDbBlockEnd
  0
BLOCK
  5
59
100
AcDbEntity
  8
template
390
0
100
AcDbBlockBegin
  2
グループ
 70
               0
 10
0.0
 20
0.0
 30
0.0
  3
グループ
  1

  0
LWPOLYLINE
  5
5A
100
AcDbEntity
  8
0
370
              15
390
0
  6
Continuous
 62
               7
100
AcDbPolyline
 90
        8
 70
             129
 10
-1326.1773529864727
 20
5505.4292556436594
 10
-1326.1773529864727
 20
5499.4318669500835
 10
-1335.6785499044759
 20
5499.4318669500835
 10
-1335.6785499044759
 20
5474.9809036865745
 10
-1344.0339271662588
 20
5474.9809036865745
 10
-1344.0339271662588
 20
5499.4318669500835
 10
-1353.3668841125682
 20
5499.4318669500835
 10
-1353.3668841125682
 20
5505.4292556436594
  0
LWPOLYLINE
  5
5B
100
AcDbEntity
  8
0
370
              15
390
0
  6
Continuous
 62
               7
100
AcDbPolyline
 90
      101
 70
             128
 10
-1313.4490611559158
 20
5504.7010071507229
 10
-1313.433711127125
 20
5504.7053679074097
 42
-0.0222221607812186
 10
-1313.1437065504597
 20
5504.7739923726531
 10
-1313.1279127864839
 20
5504.7769957957471
 42
-0.0146883565601204
 10
-1312.8652100812419
 20
5504.8189989826988
 42
-0.0127458844185941
 10
-1312.6005711140863
 20
5504.8465359507718
 10
-1312.5381160357761
 20
5504.8514293733597
 42
-0.0198099018566788
 10
-1312.1472669262928
 20
5504.8665145307559
 10
-1312.0954554568555
 20
5504.8664607550909
 42
-0.0147617382767857
 10
-1311.6008319958846
 20
5504.8513407298469
 10
-1311.5281405409912
 20
5504.8469681229581
 42
-0.01626245489881
 10
-1311.1379869115417
 20
5504.8107352476864
 10
-1311.0164545203079
 20
5504.7954486886929
 42
-0.0080020874718915
 10
-1310.8708754891909
 20
5504.774765841421
 10
-1310.8325560185945
 20
5504.7686945636096
 42
-0.0053821929684803
 10
-1310.764071913281
 20
5504.7570870397885
 10
-1311.4904776124797
 20
5502.5761585840746
 42
0.0108667757361149
 10
-1311.5577946825931
 20
5502.5893456992917
 10
-1311.5952627058
 20
5502.595843441889
 42
0.0170663203289149
 10
-1311.7384794927077
 20
5502.6156730391804
 10
-1311.8063548253986
 20
5502.6227202097689
 42
0.0220162375261133
 10
-1312.0867342332547
 20
5502.6394025705395
 10
-1312.1645898002996
 20
5502.6406019378055
 42
0.0282606915773565
 10
-1312.5002261238837
 20
5502.6267986608364
 10
-1312.5441393976575
 20
5502.6224986708321
 42
0.0169677213678342
 10
-1312.7900638926151
 20
5502.5899616212801
 42
0.0190576269862115
 10
-1313.0329718551952
 20
5502.5398147491742
 10
-1313.039231043306
 20
5502.5382717750645
 42
0.0213685642847024
 10
-1313.2896155277863
 20
5502.465071489959
 10
-1313.2951054227001
 20
5502.4632084939003
 42
0.0237595297602482
 10
-1313.5486003075966
 20
5502.3635239720061
 10
-1313.5537023816285
 20
5502.3612321965265
 42
0.026185746882086
 10
-1313.8058731578574
 20
5502.2316958591528
 10
-1313.8162993469539
 20
5502.2256303846789
 42
0.0272553062039279
 10
-1314.0527291221838
 20
5502.07025817874
 10
-1314.0874921356922
 20
5502.0445970306482
 42
0.0325996893185889
 10
-1314.2376474793446
 20
5501.9178491576768
 10
-1314.261356908461
 20
5501.8950311291701
 42
0.0138050960628043
 10
-1314.3532400646779
 20
5501.801581467611
 42
0.0125280103803192
 10
-1314.4400825975179
 20
5501.7034181410045
 10
-1314.4637630424199
 20
5501.6752596428241
 42
0.0205218024765772
 10
-1314.5888631179339
 20
5501.5134663285944
 10
-1314.6113294584206
 20
5501.4818065987683
 42
0.0163110129574188
 10
-1314.7670398376699
 20
5501.2464761637011
 10
-1314.7697637337228
 20
5501.2420524017125
 42
0.0131897341909686
 10
-1314.9165642546252
 20
5500.9889203093544
 10
-1314.9182643499953
 20
5500.9858020702122
 42
0.0107895576069169
 10
-1315.0560410522064
 20
5500.7195868605768
 10
-1315.0567739417311
 20
5500.7180926279307
 42
0.0091371507218024
 10
-1315.1852538903904
 20
5500.4435674301503
 10
-1315.2149995217899
 20
5500.3768609230128
 42
0.0135418326350242
 10
-1315.3867134608602
 20
5499.9619231377483
 10
-1315.4203182692972
 20
5499.8740569954589
 42
0.009283454242679
 10
-1315.5915473292166
 20
5499.4001584971575
 10
-1315.617164456932
 20
5499.3249174273706
 42
0.0054261043588347
 10
-1315.7248026052271
 20
5498.9971534542983
 10
-1315.7423285915233
 20
5498.9417652916927
 42
0.0008225090838696
 10
-1315.8109986432346
 20
5498.7234965339194
 10
-1316.7956877751681
 20
5495.6986052406628
 10
-1313.5630639350943
 20
5495.6986052406628
 10
-1314.0672563649478
 20
5493.7941269423109
 10
-1317.3233126469311
 20
5493.7941269423109
 10
-1323.1524616792849
 20
5474.980903876306
 10
-1324.9775592895953
 20
5474.980903876306
 10
-1319.1428812540944
 20
5493.7941269423109
 10
-1321.5479976231345
 20
5493.7941269423109
 10
-1321.0438051932811
 20
5495.6986052406628
 10
-1318.6152563823312
 20
5495.6986052406628
 10
-1317.7551014641426
 20
5498.3350182413615
 42
-0.0005863560685527
 10
-1317.718366786032
 20
5498.4518446613583
 10
-1317.6422789522785
 20
5498.6928369610396
 42
-0.0087522378937732
 10
-1317.4428108088227
 20
5499.2881130481837
 10
-1317.3505465334131
 20
5499.5482532166861
 42
-0.0077400953825622
 10
-1317.0926128742772
 20
5500.2412578942467
 10
-1317.0768479026992
 20
5500.2816887776298
 42
-0.0082369946328563
 10
-1316.8297634320863
 20
5500.8857678438289
 42
-0.0085725238360027
 10
-1316.562517336075
 20
5501.4811938831335
 10
-1316.4608877350774
 20
5501.697614985098
 42
-0.0168109410592338
 10
-1316.1739433063462
 20
5502.2588225112049
 10
-1316.0480999159349
 20
5502.4857865441163
 42
-0.0007817726842671
 10
-1315.9938155658306
 20
5502.5833307892335
 10
-1315.9936872598428
 20
5502.5835604979175
 42
-0.0036626142125806
 10
-1315.9387993957919
 20
5502.6801583779379
 42
-0.0080221150653014
 10
-1315.8816751403886
 20
5502.7754376126859
 10
-1315.850975189024
 20
5502.8248285618138
 42
-0.0202139325554929
 10
-1315.7233194492151
 20
5503.0128101624978
 10
-1315.6692519840296
 20
5503.0858890267355
 42
-0.0249323791806577
 10
-1315.4100891903142
 20
5503.4019342688853
 10
-1315.3859493761834
 20
5503.4285485418022
 42
-0.0242132121542101
 10
-1315.0462686346377
 20
5503.7684320280105
 10
-1314.9983570618897
 20
5503.8119411641937
 42
-0.0251017527842594
 10
-1314.7143753612502
 20
5504.0449339099578
 10
-1314.7129298844495
 20
5504.0460031675275
 42
-0.0130868069033201
 10
-1314.4146692344791
 20
5504.2547836360791
 10
-1314.4131074153299
 20
5504.2558170763587
 42
-0.0290329526377984
 10
-1314.1019962739431
 20
5504.4366425779835
 10
-1314.0721507119661
 20
5504.4517449608184
 42
-0.0160250190058096
 10
-1313.8062462981925
 20
5504.5757610710361
 42
-0.0267600374778515
 10
-1313.5309702207276
 20
5504.6765093915837
 10
-1313.5042343012028
 20
5504.6847019504103
 42
-0.0049981587629261
 10
-1313.4490611559158
 20
5504.7010071507229
 42
-0.0049981587629261
  0
LWPOLYLINE
  5
5C
100
AcDbEntity
  8
0
370
              15
390
0
  6
Continuous
 62
               7
100
AcDbPolyline
 90
      118
 70
             128
 10
-1293.6346935914689
 20
5495.6246219128352
 10
-1291.7595716669694
 20
5495.6246219128352
 10
-1292.5976105725692
 20
5492.9430553864358
 42
-0.0010587229244324
 10
-1292.5661547569919
 20
5492.9799599197968
 10
-1292.5079606663653
 20
5493.0479421759665
 42
-0.0071874740421418
 10
-1292.3575854482804
 20
5493.2185828679812
 10
-1292.2158626750052
 20
5493.3748190093092
 42
-0.0148118053508204
 10
-1291.7657333822913
 20
5493.8424328553228
 10
-1291.6785110474095
 20
5493.927830176156
 42
-0.0086273358695695
 10
-1291.3429622463821
 20
5494.2452058101917
 10
-1291.2991285301598
 20
5494.2852554545216
 42
-0.0103138323110631
 10
-1291.0411048279227
 20
5494.5114185918628
 10
-1290.9953304216294
 20
5494.5499006390946
 42
-0.0060206748603753
 10
-1290.8224823574835
 20
5494.6916952898773
 10
-1290.8204512266029
 20
5494.6933209955041
 42
-0.0067069027316927
 10
-1290.6481584119351
 20
5494.8274716293035
 10
-1290.6456096459785
 20
5494.8294017992021
 42
-0.0076184352032808
 10
-1290.4747043801376
 20
5494.9547766744236
 42
-0.0089652861673259
 10
-1290.2997434174154
 20
5495.0744099347476
 10
-1290.2633916972584
 20
5495.098321148238
 42
-0.0156916245947544
 10
-1290.067432200098
 20
5495.2185836347126
 42
-0.0023299011072701
 10
-1289.8671701560882
 20
5495.3317615742708
 10
-1289.8517860237382
 20
5495.3403615693187
 42
-0.0107669341480668
 10
-1289.6175491986289
 20
5495.4647617026721
 10
-1289.595284397562
 20
5495.4759784526177
 42
-0.0078058045921524
 10
-1289.3116942796244
 20
5495.6133399082491
 10
-1289.3017871919001
 20
5495.6179490361246
 42
-0.0181829330473596
 10
-1288.9914777872775
 20
5495.7488127772231
 10
-1288.9374223447164
 20
5495.7693278971647
 42
-0.0208411536018618
 10
-1288.5883373772676
 20
5495.8854183596577
 10
-1288.5739812771508
 20
5495.8895368046078
 42
-0.022279981714832
 10
-1288.245261483223
 20
5495.968178370751
 10
-1288.2363725199816
 20
5495.9698903813369
 42
-0.0215509523874049
 10
-1287.9199015517061
 20
5496.0168060698707
 10
-1287.877419590654
 20
5496.0212435966623
 42
-0.018254592487131
 10
-1287.643310811352
 20
5496.0370874220525
 10
-1287.6039097950263
 20
5496.0383119671314
 42
-0.0072962856516023
 10
-1287.4479869153151
 20
5496.0408812956539
 10
-1287.4188872447003
 20
5496.0409361310576
 42
-0.0059227516332619
 10
-1287.321137745598
 20
5496.0399624192669
 10
-1287.2918955279847
 20
5496.0393246526601
 42
-0.0011833112024177
 10
-1287.2526442443937
 20
5496.0383756483534
 10
-1288.0480308400008
 20
5493.4996417032544
 42
0.0143932051564123
 10
-1288.0744322223513
 20
5493.5098406733005
 10
-1288.0817041947687
 20
5493.5124118921576
 42
0.0234388603534998
 10
-1288.1235350607028
 20
5493.5250311278724
 10
-1288.1322167236135
 20
5493.5272120898771
 42
0.0199162743027843
 10
-1288.1925055576914
 20
5493.5398288252127
 10
-1288.2133194954997
 20
5493.5433260246409
 42
0.0293643550709355
 10
-1288.3163943542609
 20
5493.5544760702942
 10
-1288.3410795349791
 20
5493.5556876873125
 42
0.0214606686863273
 10
-1288.494220450933
 20
5493.5566262477305
 10
-1288.5035923617497
 20
5493.5562813361867
 42
0.0167564054160627
 10
-1288.6751125528422
 20
5493.5442042938203
 10
-1288.683572345617
 20
5493.543322953391
 42
0.013767755323374
 10
-1288.8709256588788
 20
5493.5185736448475
 10
-1288.8782773983894
 20
5493.517395724879
 42
0.0118497261508215
 10
-1289.0787751625062
 20
5493.4803783746875
 10
-1289.0849251697382
 20
5493.4790915119702
 42
0.0106421143873501
 10
-1289.2958060570263
 20
5493.4302591363949
 10
-1289.3007148654121
 20
5493.4290117937107
 42
0.0099746379704087
 10
-1289.5191733345896
 20
5493.3688372653914
 10
-1289.5807213747448
 20
5493.3505553867653
 42
0.0191613675853614
 10
-1289.9167058372559
 20
5493.2365780064792
 10
-1290.0047656100057
 20
5493.2028910961535
 42
0.0205274080142774
 10
-1290.3900723819067
 20
5493.0370626883268
 10
-1290.4477216639043
 20
5493.0093947237465
 42
0.0181256912206517
 10
-1290.7059986045556
 20
5492.873710904777
 10
-1290.7589539878725
 20
5492.8433932915605
 42
0.0140709242430737
 10
-1290.903908922498
 20
5492.7548986181282
 10
-1290.9301577911169
 20
5492.7378417994123
 42
0.0086667884441028
 10
-1291.019083952659
 20
5492.6778391315293
 42
0.0036408192048063
 10
-1291.106517190738
 20
5492.615658273704
 10
-1291.1417440651612
 20
5492.5902173278246
 42
0.0052260781303274
 10
-1291.2979727625657
 20
5492.4748849411799
 10
-1291.3141796188117
 20
5492.4626568305721
 42
0.0050024435907957
 10
-1291.5001829618657
 20
5492.3193742623143
 10
-1291.5155011183856
 20
5492.3073282398645
 42
0.0136138710273654
 10
-1291.7259423867101
 20
5492.1323617349517
 10
-1291.7596102625048
 20
5492.1027827622365
 42
0.0172815186907606
 10
-1292.0240138041654
 20
5491.8537860896149
 10
-1292.0265761500098
 20
5491.8512002724656
 42
0.0189403858001071
 10
-1292.2771579485891
 20
5491.5783950076611
 10
-1292.3097894421287
 20
5491.5400510761601
 42
0.0185044199517344
 10
-1292.5017458811049
 20
5491.2968024950424
 42
0.0088565243893496
 10
-1292.6802059877411
 20
5491.0432860748797
 10
-1292.6893839673817
 20
5491.0297446951317
 42
0.015719534722828
 10
-1292.8726045737185
 20
5490.7402224858115
 10
-1292.9186875156429
 20
5490.6620702888022
 42
0.0095451879786738
 10
-1293.0837730657845
 20
5490.3694756464392
 10
-1293.0949209847076
 20
5490.3488049743191
 42
0.0100351706244792
 10
-1293.2269647338733
 20
5490.0917494138157
 42
0.0086935915431161
 10
-1293.3492958856689
 20
5489.8299162684079
 10
-1293.3526166270817
 20
5489.8224739454399
 42
0.0072580174871517
 10
-1293.4729630790357
 20
5489.5418819538345
 10
-1293.4762247123331
 20
5489.5339619278384
 42
0.0060005122624048
 10
-1293.5954253806808
 20
5489.2343522572201
 10
-1293.5986363590173
 20
5489.2259907293292
 42
0.0049017786990705
 10
-1293.7175365178739
 20
5488.9070617487278
 10
-1293.7207023242654
 20
5488.8983088114946
 42
0.0039415167603375
 10
-1293.8401386023293
 20
5488.5597667490601
 10
-1293.8432697049741
 20
5488.5506635482052
 42
0.0031035838757139
 10
-1293.9640744906508
 20
5488.1922236864812
 10
-1293.9671845351975
 20
5488.1828030650568
 42
0.0025070747149027
 10
-1294.0900858865232
 20
5487.8041558480809
 10
-1294.1273797829383
 20
5487.6872641828595
 42
0.0029081910280301
 10
-1294.3193980807573
 20
5487.0731005245407
 10
-1294.3602012492661
 20
5486.9398772822915
 42
0.0009266453730169
 10
-1294.6286186235986
 20
5486.05765282231
 10
-1294.6495060961886
 20
5485.9885409432418
 42
-0.0005809993667024
 10
-1294.9268427768127
 20
5485.0747328364941
 10
-1294.9931245750499
 20
5484.8572479044515
 42
-0.0012018708173055
 10
-1295.1401088845148
 20
5484.3790852398133
 10
-1295.1924287361487
 20
5484.2103260987278
 42
-0.0002691059565395
 10
-1295.2359982172488
 20
5484.0700584786055
 10
-1298.0689541155382
 20
5474.980903876306
 10
-1299.8869430075167
 20
5474.980903876306
 10
-1293.6346935914689
 20
5495.6246219128352
  0
SPLINE
  5
5D
100
AcDbEntity
  8
0
370
              15
390
0
  6
Continuous
 62
               7
100
AcDbSpline
210
0.0
220
0.0
230
1.0
 70
              13
 71
               2
 72
             782
 73
             779
 74
               0
 42
0.000001
 43
0.000001
 40
0.0
 40
0.0
 40
0.0
 40
1.0
 40
1.0
 40
2.0
 40
2.0
 40
3.0
 40
3.0
 40
4.0
 40
4.0
 40
5.0
 40
5.0
 40
6.0
 40
6.0
 40
7.0
 40
7.0
 40
8.0
 40
8.0
 40
9.0
 40
9.0
 40
10.0
 40
10.0
 40
11.0
 40
11.0
 40
12.0
 40
12.0
 40
13.0
 40
13.0
 40
14.0
 40
14.0
 40
15.0
 40
15.0
 40
16.0
 40
16.0
 40
17.0
 40
17.0
 40
18.0
 40
18.0
 40
19.0
 40
19.0
 40
20.0
 40
20.0
 40
21.0
 40
21.0
 40
22.0
 40
22.0
 40
23.0
 40
23.0
 40
24.0
 40
24.0
 40
25.0
 40
25.0
 40
26.0
 40
26.0
 40
27.0
 40
27.0
 40
28.0
 40
28.0
 40
29.0
 40
29.0
 40
30.0
 40
30.0
 40
31.0
 40
31.0
 40
32.0
 40
32.0
 40
33.0
 40
33.0
 40
34.0
 40
34.0
 40
35.0
 40
35.0
 40
36.0
 40
36.0
 40
37.0
 40
37.0
 40
38.0
 40
38.0
 40
39.0
 40
39.0
 40
40.0
 40
40.0
 40
41.0
 40
41.0
 40
42.0
 40
42.0
 40
43.0
 40
43.0
 40
44.0
 40
44.0
 40
45.0
 40
45.0
 40
46.0
 40
46.0
 40
47.0
 40
47.0
 40
48.0
 40
48.0
 40
49.0
 40
49.0
 40
50.0
 40
50.0
 40
51.0
 40
51.0
 40
52.0
 40
52.0
 40
53.0
 40
53.0
 40
54.0
 40
54.0
 40
55.0
 40
55.0
 40
56.0
 40
56.0
 40
57.0
 40
57.0
 40
58.0
 40
58.0
 40
59.0
 40
59.0
 40
60.0
 40
60.0
 40
61.0
 40
61.0
 40
62.0
 40
62.0
 40
63.0
 40
63.0
 40
64.0
 40
64.0
 40
65.0
 40
65.0
 40
66.0
 40
66.0
 40
67.0
 40
67.0
 40
68.0
 40
68.0
 40
69.0
 40
69.0
 40
70.0
 40
70.0
 40
71.0
 40
71.0
 40
72.0
 40
72.0
 40
73.0
 40
73.0
 40
74.0
 40
74.0
 40
75.0
 40
75.0
 40
76.0
 40
76.0
 40
77.0
 40
77.0
 40
78.0
 40
78.0
 40
79.0
 40
79.0
 40
80.0
 40
80.0
 40
81.0
 40
81.0
 40
82.0
 40
82.0
 40
83.0
 40
83.0
 40
84.0
 40
84.0
 40
85.0
 40
85.0
 40
86.0
 40
86.0
 40
87.0
 40
87.0
 40
88.0
 40
88.0
 40
89.0
 40
89.0
 40
90.0
 40
90.0
 40
91.0
 40
91.0
 40
92.0
 40
92.0
 40
93.0
 40
93.0
 40
94.0
 40
94.0
 40
95.0
 40
95.0
 40
96.0
 40
96.0
 40
97.0
 40
97.0
 40
98.0
 40
98.0
 40
99.0
 40
99.0
 40
100.0
 40
100.0
 40
101.0
 40
101.0
 40
102.0
 40
102.0
 40
103.0
 40
103.0
 40
104.0
 40
104.0
 40
105.0
 40
105.0
 40
106.0
 40
106.0
 40
107.0
 40
107.0
 40
108.0
 40
108.0
 40
109.0
 40
109.0
 40
110.0
 40
110.0
 40
111.0
 40
111.0
 40
112.0
 40
112.0
 40
113.0
 40
113.0
 40
114.0
 40
114.0
 40
115.0
 40
115.0
 40
116.0
 40
116.0
 40
117.0
 40
117.0
 40
118.0
 40
118.0
 40
119.0
 40
119.0
 40
120.0
 40
120.0
 40
121.0
 40
121.0
 40
122.0
 40
122.0
 40
123.0
 40
123.0
 40
124.0
 40
124.0
 40
125.0
 40
125.0
 40
126.0
 40
126.0
 40
127.0
 40
127.0
 40
128.0
 40
128.0
 40
129.0
 40
129.0
 40
130.0
 40
130.0
 40
131.0
 40
131.0
 40
132.0
 40
132.0
 40
133.0
 40
133.0
 40
134.0
 40
134.0
 40
135.0
 40
135.0
 40
136.0
 40
136.0
 40
137.0
 40
137.0
 40
138.0
 40
138.0
 40
139.0
 40
139.0
 40
140.0
 40
140.0
 40
141.0
 40
141.0
 40
142.0
 40
142.0
 40
143.0
 40
143.0
 40
144.0
 40
144.0
 40
145.0
 40
145.0
 40
146.0
 40
146.0
 40
147.0
 40
147.0
 40
148.0
 40
148.0
 40
149.0
 40
149.0
 40
150.0
 40
150.0
 40
151.0
 40
151.0
 40
152.0
 40
152.0
 40
153.0
 40
153.0
 40
154.0
 40
154.0
 40
155.0
 40
155.0
 40
156.0
 40
156.0
 40
157.0
 40
157.0
 40
158.0
 40
158.0
 40
159.0
 40
159.0
 40
160.0
 40
160.0
 40
161.0
 40
161.0
 40
162.0
 40
162.0
 40
163.0
 40
163.0
 40
164.0
 40
164.0
 40
165.0
 40
165.0
 40
166.0
 40
166.0
 40
167.0
 40
167.0
 40
168.0
 40
168.0
 40
169.0
 40
169.0
 40
170.0
 40
170.0
 40
171.0
 40
171.0
 40
172.0
 40
172.0
 40
173.0
 40
173.0
 40
174.0
 40
174.0
 40
175.0
 40
175.0
 40
176.0
 40
176.0
 40
177.0
 40
177.0
 40
178.0
 40
178.0
 40
179.0
 40
179.0
 40
180.0
 40
180.0
 40
181.0
 40
181.0
 40
182.0
 40
182.0
 40
183.0
 40
183.0
 40
184.0
 40
184.0
 40
185.0
 40
185.0
 40
186.0
 40
186.0
 40
187.0
 40
187.0
 40
188.0
 40
188.0
 40
189.0
 40
189.0
 40
190.0
 40
190.0
 40
191.0
 40
191.0
 40
192.0
 40
192.0
 40
193.0
 40
193.0
 40
194.0
 40
194.0
 40
195.0
 40
195.0
 40
196.0
 40
196.0
 40
197.0
 40
197.0
 40
198.0
 40
198.0
 40
199.0
 40
199.0
 40
200.0
 40
200.0
 40
201.0
 40
201.0
 40
202.0
 40
202.0
 40
203.0
 40
203.0
 40
204.0
 40
204.0
 40
205.0
 40
205.0
 40
206.0
 40
206.0
 40
207.0
 40
207.0
 40
208.0
 40
208.0
 40
209.0
 40
209.0
 40
210.0
 40
210.0
 40
211.0
 40
211.0
 40
212.0
 40
212.0
 40
213.0
 40
213.0
 40
214.0
 40
214.0
 40
215.0
 40
215.0
 40
216.0
 40
216.0
 40
217.0
 40
217.0
 40
218.0
 40
218.0
 40
219.0
 40
219.0
 40
220.0
 40
220.0
 40
221.0
 40
221.0
 40
222.0
 40
222.0
 40
223.0
 40
223.0
 40
224.0
 40
224.0
 40
225.0
 40
225.0
 40
226.0
 40
226.0
 40
227.0
 40
227.0
 40
228.0
 40
228.0
 40
229.0
 40
229.0
 40
230.0
 40
230.0
 40
231.0
 40
231.0
 40
232.0
 40
232.0
 40
233.0
 40
233.0
 40
234.0
 40
234.0
 40
235.0
 40
235.0
 40
236.0
 40
236.0
 40
237.0
 40
237.0
 40
238.0
 40
238.0
 40
239.0
 40
239.0
 40
240.0
 40
240.0
 40
241.0
 40
241.0
 40
242.0
 40
242.0
 40
243.0
 40
243.0
 40
244.0
 40
244.0
 40
245.0
 40
245.0
 40
246.0
 40
246.0
 40
247.0
 40
247.0
 40
248.0
 40
248.0
 40
249.0
 40
249.0
 40
250.0
 40
250.0
 40
251.0
 40
251.0
 40
252.0
 40
252.0
 40
253.0
 40
253.0
 40
254.0
 40
254.0
 40
255.0
 40
255.0
 40
256.0
 40
256.0
 40
257.0
 40
257.0
 40
258.0
 40
258.0
 40
259.0
 40
259.0
 40
260.0
 40
260.0
 40
261.0
 40
261.0
 40
262.0
 40
262.0
 40
263.0
 40
263.0
 40
264.0
 40
264.0
 40
265.0
 40
265.0
 40
266.0
 40
266.0
 40
267.0
 40
267.0
 40
268.0
 40
268.0
 40
269.0
 40
269.0
 40
270.0
 40
270.0
 40
271.0
 40
271.0
 40
272.0
 40
272.0
 40
273.0
 40
273.0
 40
274.0
 40
274.0
 40
275.0
 40
275.0
 40
276.0
 40
276.0
 40
277.0
 40
277.0
 40
278.0
 40
278.0
 40
279.0
 40
279.0
 40
280.0
 40
280.0
 40
281.0
 40
281.0
 40
282.0
 40
282.0
 40
283.0
 40
283.0
 40
284.0
 40
284.0
 40
285.0
 40
285.0
 40
286.0
 40
286.0
 40
287.0
 40
287.0
 40
288.0
 40
288.0
 40
289.0
 40
289.0
 40
290.0
 40
290.0
 40
291.0
 40
291.0
 40
292.0
 40
292.0
 40
293.0
 40
293.0
 40
294.0
 40
294.0
 40
295.0
 40
295.0
 40
296.0
 40
296.0
 40
297.0
 40
297.0
 40
298.0
 40
298.0
 40
299.0
 40
299.0
 40
300.0
 40
300.0
 40
301.0
 40
301.0
 40
302.0
 40
302.0
 40
303.0
 40
303.0
 40
304.0
 40
304.0
 40
305.0
 40
305.0
 40
306.0
 40
306.0
 40
307.0
 40
307.0
 40
308.0
 40
308.0
 40
309.0
 40
309.0
 40
310.0
 40
310.0
 40
311.0
 40
311.0
 40
312.0
 40
312.0
 40
313.0
 40
313.0
 40
314.0
 40
314.0
 40
315.0
 40
315.0
 40
316.0
 40
316.0
 40
317.0
 40
317.0
 40
318.0
 40
318.0
 40
319.0
 40
319.0
 40
320.0
 40
320.0
 40
321.0
 40
321.0
 40
322.0
 40
322.0
 40
323.0
 40
323.0
 40
324.0
 40
324.0
 40
325.0
 40
325.0
 40
326.0
 40
326.0
 40
327.0
 40
327.0
 40
328.0
 40
328.0
 40
329.0
 40
329.0
 40
330.0
 40
330.0
 40
331.0
 40
331.0
 40
332.0
 40
332.0
 40
333.0
 40
333.0
 40
334.0
 40
334.0
 40
335.0
 40
335.0
 40
336.0
 40
336.0
 40
337.0
 40
337.0
 40
338.0
 40
338.0
 40
339.0
 40
339.0
 40
340.0
 40
340.0
 40
341.0
 40
341.0
 40
342.0
 40
342.0
 40
343.0
 40
343.0
 40
344.0
 40
344.0
 40
345.0
 40
345.0
 40
346.0
 40
346.0
 40
347.0
 40
347.0
 40
348.0
 40
348.0
 40
349.0
 40
349.0
 40
350.0
 40
350.0
 40
351.0
 40
351.0
 40
352.0
 40
352.0
 40
353.0
 40
353.0
 40
354.0
 40
354.0
 40
355.0
 40
355.0
 40
356.0
 40
356.0
 40
357.0
 40
357.0
 40
358.0
 40
358.0
 40
359.0
 40
359.0
 40
360.0
 40
360.0
 40
361.0
 40
361.0
 40
362.0
 40
362.0
 40
363.0
 40
363.0
 40
364.0
 40
364.0
 40
365.0
 40
365.0
 40
366.0
 40
366.0
 40
367.0
 40
367.0
 40
368.0
 40
368.0
 40
369.0
 40
369.0
 40
370.0
 40
370.0
 40
371.0
 40
371.0
 40
372.0
 40
372.0
 40
373.0
 40
373.0
 40
374.0
 40
374.0
 40
375.0
 40
375.0
 40
376.0
 40
376.0
 40
377.0
 40
377.0
 40
378.0
 40
378.0
 40
379.0
 40
379.0
 40
380.0
 40
380.0
 40
381.0
 40
381.0
 40
382.0
 40
382.0
 40
383.0
 40
383.0
 40
384.0
 40
384.0
 40
385.0
 40
385.0
 40
386.0
 40
386.0
 40
387.0
 40
387.0
 40
388.0
 40
388.0
 40
389.0
 40
389.0
 40
389.0
 10
-1283.3059891407361
 20
5495.6355482761983
 30
0.0
 41
1.0
 10
-1282.4875650320157
 20
5495.6355482761983
 30
0.0
 41
1.0
 10
-1281.6691409232953
 20
5495.6355482761983
 30
0.0
 41
1.0
 10
-1282.0828946588122
 20
5494.2929220119486
 30
0.0
 41
1.0
 10
-1282.4966483943288
 20
5492.9502957476989
 30
0.0
 41
1.0
 10
-1282.4783088991328
 20
5492.9789965206537
 30
0.0
 41
0.9999957264400474
 10
-1282.4598019022731
 20
5493.0075895708487
 30
0.0
 41
1.0
 10
-1282.4293725781642
 20
5493.0546024491805
 30
0.0
 41
1.0
 10
-1282.3989432540554
 20
5493.1016153275123
 30
0.0
 41
1.0
 10
-1282.3195776089522
 20
5493.2242341344117
 30
0.0
 41
0.9995394069081552
 10
-1282.2329192174027
 20
5493.3418121961504
 30
0.0
 41
1.0
 10
-1282.1971623551403
 20
5493.3903270887477
 30
0.0
 41
1.0
 10
-1282.1614054928782
 20
5493.438841981344
 30
0.0
 41
1.0
 10
-1282.0276788250621
 20
5493.6202822564692
 30
0.0
 41
0.9994460617142599
 10
-1281.8821783437718
 20
5493.7924246541206
 30
0.0
 41
1.0
 10
-1281.8777901627977
 20
5493.797616334502
 30
0.0
 41
1.0
 10
-1281.8734019818237
 20
5493.8028080148833
 30
0.0
 41
1.0
 10
-1281.7366778624828
 20
5493.9645670517712
 30
0.0
 41
0.9994359394934642
 10
-1281.5894036321324
 20
5494.1167832529354
 30
0.0
 41
1.0
 10
-1281.5870202781825
 20
5494.1192465833046
 30
0.0
 41
1.0
 10
-1281.5846369242324
 20
5494.1217099136747
 30
0.0
 41
1.0
 10
-1281.442129401785
 20
5494.268999454096
 30
0.0
 41
0.9995293688567503
 10
-1281.2908577207988
 20
5494.4072726662635
 30
0.0
 41
1.0
 10
-1281.2715639615344
 20
5494.424908551915
 30
0.0
 41
1.0
 10
-1281.2522702022702
 20
5494.4425444375674
 30
0.0
 41
1.0
 10
-1281.1395860398131
 20
5494.5455458784309
 30
0.0
 41
0.999708761480213
 10
-1281.0220631508616
 20
5494.6429901592255
 30
0.0
 41
1.0
 10
-1281.0028970776643
 20
5494.6588817377515
 30
0.0
 41
1.0
 10
-1280.983731004467
 20
5494.6747733162774
 30
0.0
 41
1.0
 10
-1280.9045402618908
 20
5494.7404344400366
 30
0.0
 41
0.9999595338699572
 10
-1280.8241809910514
 20
5494.8046601706792
 30
0.0
 41
1.0
 10
-1280.7438217201816
 20
5494.8688859013455
 30
0.0
 41
0.9999749417506555
 10
-1280.6625611858531
 20
5494.9319674552789
 30
0.0
 41
1.0
 10
-1280.6415750397034
 20
5494.9482587425709
 30
0.0
 41
1.0
 10
-1280.6205888935538
 20
5494.9645500298629
 30
0.0
 41
1.0
 10
-1280.5360210082381
 20
5495.0301990397147
 30
0.0
 41
0.9999792037125888
 10
-1280.4506134084504
 20
5495.0947518213725
 30
0.0
 41
1.0
 10
-1280.4297885824983
 20
5495.1104916436616
 30
0.0
 41
1.0
 10
-1280.4089637565462
 20
5495.1262314659498
 30
0.0
 41
1.0
 10
-1280.3652058086891
 20
5495.1593046030102
 30
0.0
 41
0.9999993373700186
 10
-1280.3215241225378
 20
5495.1924783984405
 30
0.0
 41
1.0
 10
-1280.2778424363873
 20
5495.2256521938698
 30
0.0
 41
0.9999160953813725
 10
-1280.2333160254684
 20
5495.2576832590676
 30
0.0
 41
1.0
 10
-1280.2004941380521
 20
5495.2812944146499
 30
0.0
 41
1.0
 10
-1280.1676722506359
 20
5495.3049055702322
 30
0.0
 41
1.0
 10
-1280.0575020648787
 20
5495.3841589466001
 30
0.0
 41
0.998096452723048
 10
-1279.9384130713804
 20
5495.4492464194545
 30
0.0
 41
1.0
 10
-1279.9013804644474
 20
5495.4694863990508
 30
0.0
 41
1.0
 10
-1279.8643478575141
 20
5495.489726378647
 30
0.0
 41
1.0
 10
-1279.685020844244
 20
5495.5877366293462
 30
0.0
 41
0.9984572810573891
 10
-1279.4959322778886
 20
5495.6652588906909
 30
0.0
 41
1.0
 10
-1279.4922860084944
 20
5495.6667537830281
 30
0.0
 41
1.0
 10
-1279.4886397390999
 20
5495.6682486753652
 30
0.0
 41
1.0
 10
-1279.3068437115321
 20
5495.7427811520356
 30
0.0
 41
0.9987838528034421
 10
-1279.1185910529707
 20
5495.7990467922027
 30
0.0
 41
1.0
 10
-1279.1143531037692
 20
5495.8003134458941
 30
0.0
 41
1.0
 10
-1279.1101151545677
 20
5495.8015800995845
 30
0.0
 41
1.0
 10
-1278.9303383944084
 20
5495.8553124323689
 30
0.0
 41
0.9990652816208352
 10
-1278.7465924626954
 20
5495.8933161119103
 30
0.0
 41
1.0
 10
-1278.7414040616641
 20
5495.8943892150164
 30
0.0
 41
1.0
 10
-1278.7362156606325
 20
5495.8954623181235
 30
0.0
 41
1.0
 10
-1278.5628465309801
 20
5495.9313197914526
 30
0.0
 41
0.9992909934269495
 10
-1278.3872707645214
 20
5495.9540302239184
 30
0.0
 41
1.0
 10
-1278.2116949980634
 20
5495.9767406563851
 30
0.0
 41
0.9994553539448399
 10
-1278.035003564971
 20
5495.9878199605919
 30
0.0
 41
1.0
 10
-1277.9995691571826
 20
5495.9900418486395
 30
0.0
 41
1.0
 10
-1277.9641347493939
 20
5495.9922637366863
 30
0.0
 41
1.0
 10
-1277.797908982817
 20
5496.0026867990991
 30
0.0
 41
0.9990928098292612
 10
-1277.6313991909064
 20
5495.9989271578652
 30
0.0
 41
1.0
 10
-1277.5928373556355
 20
5495.9980564663319
 30
0.0
 41
1.0
 10
-1277.5542755203646
 20
5495.9971857747987
 30
0.0
 41
1.0
 10
-1277.4648893990043
 20
5495.9951675166303
 30
0.0
 41
0.9998382089205637
 10
-1277.3756337162176
 20
5495.9899353901019
 30
0.0
 41
1.0
 10
-1277.3752038099947
 20
5495.9899101891988
 30
0.0
 41
1.0
 10
-1277.3747739037715
 20
5495.9898849882966
 30
0.0
 41
1.0
 10
-1277.2863780334287
 20
5495.9847032635735
 30
0.0
 41
0.9997558016758347
 10
-1277.1982974562306
 20
5495.9756207482069
 30
0.0
 41
1.0
 10
-1277.1978213178068
 20
5495.9755716507243
 30
0.0
 41
1.0
 10
-1277.1973451793831
 20
5495.9755225532426
 30
0.0
 41
1.0
 10
-1277.1102168790353
 20
5495.9665382328412
 30
0.0
 41
0.9996565144181522
 10
-1277.0236790256877
 20
5495.9530009261516
 30
0.0
 41
1.0
 10
-1277.0232131003095
 20
5495.9529280404204
 30
0.0
 41
1.0
 10
-1277.0227471749311
 20
5495.9528551546882
 30
0.0
 41
1.0
 10
-1276.9371411723444
 20
5495.9394636194629
 30
0.0
 41
0.9995321806866558
 10
-1276.8525140920178
 20
5495.9208631310339
 30
0.0
 41
1.0
 10
-1276.8521248974353
 20
5495.9207775885661
 30
0.0
 41
1.0
 10
-1276.8517357028529
 20
5495.9206920460974
 30
0.0
 41
1.0
 10
-1276.7678870116815
 20
5495.9022626426013
 30
0.0
 41
0.9993819199223641
 10
-1276.6855404774935
 20
5495.8779872593441
 30
0.0
 41
1.0
 10
-1276.6853020439989
 20
5495.8779169702357
 30
0.0
 41
1.0
 10
-1276.6850636105044
 20
5495.8778466811273
 30
0.0
 41
1.0
 10
-1276.6031939433014
 20
5495.8537118760851
 30
0.0
 41
0.9992088568503573
 10
-1276.523501424309
 20
5495.8231466402885
 30
0.0
 41
1.0
 10
-1276.4438204334315
 20
5495.7925870395557
 30
0.0
 41
0.9990226101772879
 10
-1276.3671497635228
 20
5495.7551096079405
 30
0.0
 41
1.0
 10
-1276.2904906217279
 20
5495.7176378113891
 30
0.0
 41
0.9988424273971845
 10
-1276.2177869945194
 20
5495.6729730361385
 30
0.0
 41
1.0
 10
-1276.2175192861366
 20
5495.6728085720642
 30
0.0
 41
1.0
 10
-1276.2172515777538
 20
5495.67264410799
 30
0.0
 41
1.0
 10
-1276.144012533779
 20
5495.62765040459
 30
0.0
 41
0.9986928844492051
 10
-1276.0757496670683
 20
5495.5754146703093
 30
0.0
 41
1.0
 10
-1276.0751683748481
 20
5495.5749698570835
 30
0.0
 41
1.0
 10
-1276.0745870826277
 20
5495.5745250438576
 30
0.0
 41
1.0
 10
-1276.0051616314745
 20
5495.5213996831244
 30
0.0
 41
0.9986007262275777
 10
-1275.9417354617067
 20
5495.461238913429
 30
0.0
 41
1.0
 10
-1275.9408410462488
 20
5495.4603905455933
 30
0.0
 41
1.0
 10
-1275.9399466307912
 20
5495.4595421777576
 30
0.0
 41
1.0
 10
-1275.8747316301076
 20
5495.3976846723917
 30
0.0
 41
0.9985581491379386
 10
-1275.8165240184073
 20
5495.329192182121
 30
0.0
 41
1.0
 10
-1275.807265564812
 20
5495.3182978244204
 30
0.0
 41
1.0
 10
-1275.7980071112167
 20
5495.3074034667188
 30
0.0
 41
1.0
 10
-1275.7212825923234
 20
5495.217122261045
 30
0.0
 41
0.997046023351763
 10
-1275.6592906911651
 20
5495.1161551768646
 30
0.0
 41
1.0
 10
-1275.6448213260837
 20
5495.09258871778
 30
0.0
 41
1.0
 10
-1275.6303519610026
 20
5495.0690222586964
 30
0.0
 41
1.0
 10
-1275.5906152609925
 20
5495.0043025346677
 30
0.0
 41
0.9988468816635416
 10
-1275.5572688902412
 20
5494.9360700822399
 30
0.0
 41
1.0
 10
-1275.5502328677499
 20
5494.9216731611032
 30
0.0
 41
1.0
 10
-1275.5431968452588
 20
5494.9072762399664
 30
0.0
 41
1.0
 10
-1275.523922519488
 20
5494.8678376298085
 30
0.0
 41
0.9998431190000062
 10
-1275.5060571919948
 20
5494.8277410753726
 30
0.0
 41
1.0
 10
-1275.4881918644874
 20
5494.7876445209031
 30
0.0
 41
0.9999989990046792
 10
-1275.4702131410504
 20
5494.7475986832869
 30
0.0
 41
1.0
 10
-1275.4640408294699
 20
5494.7338504665049
 30
0.0
 41
1.0
 10
-1275.4578685178892
 20
5494.7201022497229
 30
0.0
 41
1.0
 10
-1275.4275451712761
 20
5494.6525599785073
 30
0.0
 41
0.9998790356321018
 10
-1275.3993372911405
 20
5494.5841072265757
 30
0.0
 41
1.0
 10
-1275.3925021098548
 20
5494.5675201251452
 30
0.0
 41
1.0
 10
-1275.3856669285694
 20
5494.5509330237146
 30
0.0
 41
1.0
 10
-1275.3621092661908
 20
5494.4937650688316
 30
0.0
 41
0.9998227574563448
 10
-1275.3407205178025
 20
5494.4357507605582
 30
0.0
 41
1.0
 10
-1275.3193317694129
 20
5494.3777364522812
 30
0.0
 41
0.9996797971040177
 10
-1275.300905484454
 20
5494.3187143331634
 30
0.0
 41
1.0
 10
-1275.2970016817285
 20
5494.3062098749942
 30
0.0
 41
1.0
 10
-1275.2930978790027
 20
5494.2937054168251
 30
0.0
 41
1.0
 10
-1275.2668639885921
 20
5494.2096743813645
 30
0.0
 41
0.9979274938738362
 10
-1275.2516394651134
 20
5494.1229700227086
 30
0.0
 41
1.0
 10
-1275.2494157778522
 20
5494.1103060218875
 30
0.0
 41
1.0
 10
-1275.2471920905909
 20
5494.0976420210663
 30
0.0
 41
1.0
 10
-1275.2362621508921
 20
5494.0353955137716
 30
0.0
 41
0.9994985982136968
 10
-1275.2292939857159
 20
5493.9725820126341
 30
0.0
 41
1.0
 10
-1275.2223258205399
 20
5493.9097685115012
 30
0.0
 41
0.9996372611202528
 10
-1275.2187499547717
 20
5493.8466709328177
 30
0.0
 41
1.0
 10
-1275.2185813772821
 20
5493.843696315731
 30
0.0
 41
1.0
 10
-1275.2184127997925
 20
5493.8407216986452
 30
0.0
 41
1.0
 10
-1275.214499779046
 20
5493.7716748858093
 30
0.0
 41
0.9997730630735026
 10
-1275.2135314655582
 20
5493.702524061775
 30
0.0
 41
1.0
 10
-1275.21347435914
 20
5493.6984458826282
 30
0.0
 41
1.0
 10
-1275.2134172527217
 20
5493.6943677034815
 30
0.0
 41
1.0
 10
-1275.2123347263978
 20
5493.6170605211664
 30
0.0
 41
0.9998772614070843
 10
-1275.2136748131297
 20
5493.5397573745759
 30
0.0
 41
1.0
 10
-1275.2137640763283
 20
5493.5346082107526
 30
0.0
 41
1.0
 10
-1275.2138533395268
 20
5493.5294590469293
 30
0.0
 41
1.0
 10
-1275.2153719526566
 20
5493.4418575726813
 30
0.0
 41
0.9999415567324756
 10
-1275.2187842629021
 20
5493.3543094110146
 30
0.0
 41
1.0
 10
-1275.2190255835771
 20
5493.3481179512801
 30
0.0
 41
1.0
 10
-1275.2192669042524
 20
5493.3419264915456
 30
0.0
 41
1.0
 10
-1275.2231618558505
 20
5493.2419954103752
 30
0.0
 41
0.9999716810420974
 10
-1275.2285604389667
 20
5493.142134272186
 30
0.0
 41
1.0
 10
-1275.2317732377562
 20
5493.0827050225162
 30
0.0
 41
1.0
 10
-1275.2349860365457
 20
5493.0232757728472
 30
0.0
 41
1.0
 10
-1275.2430599456995
 20
5492.8739273715501
 30
0.0
 41
0.9999819129908946
 10
-1275.2529297373146
 20
5492.7246868938601
 30
0.0
 41
1.0
 10
-1275.2627995289313
 20
5492.5754464161482
 30
0.0
 41
1.0
 10
-1275.2652388494951
 20
5492.5382533702996
 30
0.0
 41
1.0
 10
-1275.2425406157918
 20
5492.5769943674113
 30
0.0
 41
0.9999982128189655
 10
-1275.2196960570511
 20
5492.6156492613445
 30
0.0
 41
1.0
 10
-1275.1927864970949
 20
5492.6611824755209
 30
0.0
 41
1.0
 10
-1275.1658769371388
 20
5492.7067156896974
 30
0.0
 41
1.0
 10
-1275.089213258613
 20
5492.8364370117661
 30
0.0
 41
0.9998609190060157
 10
-1275.0082659457569
 20
5492.9635293936872
 30
0.0
 41
1.0
 10
-1274.9786176242665
 20
5493.0100791266577
 30
0.0
 41
1.0
 10
-1274.9489693027758
 20
5493.0566288596292
 30
0.0
 41
1.0
 10
-1274.8666970825441
 20
5493.1858014296158
 30
0.0
 41
0.9999067609732235
 10
-1274.7809280730867
 20
5493.3126791190471
 30
0.0
 41
1.0
 10
-1274.7785233698928
 20
5493.3162363850915
 30
0.0
 41
1.0
 10
-1274.7761186666989
 20
5493.319793651136
 30
0.0
 41
1.0
 10
-1274.6951590636379
 20
5493.4395568084674
 30
0.0
 41
0.9998784952151433
 10
-1274.6105054539412
 20
5493.5567380251978
 30
0.0
 41
1.0
 10
-1274.5258518442552
 20
5493.6739192419118
 30
0.0
 41
0.9998532968284029
 10
-1274.4372342234292
 20
5493.7881321503874
 30
0.0
 41
1.0
 10
-1274.417272434443
 20
5493.8138594714001
 30
0.0
 41
1.0
 10
-1274.3973106454571
 20
5493.8395867924137
 30
0.0
 41
1.0
 10
-1274.2788265956963
 20
5493.9922924033854
 30
0.0
 41
0.9991551975794389
 10
-1274.1482021460729
 20
5494.1347519654682
 30
0.0
 41
1.0
 10
-1274.1446925300861
 20
5494.1385795671004
 30
0.0
 41
1.0
 10
-1274.1411829140995
 20
5494.1424071687325
 30
0.0
 41
1.0
 10
-1274.0175776964395
 20
5494.2772115275611
 30
0.0
 41
0.999741814418165
 10
-1273.8879755567486
 20
5494.4062609381645
 30
0.0
 41
1.0
 10
-1273.7583734170526
 20
5494.5353103487732
 30
0.0
 41
0.9989238204633433
 10
-1273.6173708688095
 20
5494.6517953108059
 30
0.0
 41
1.0
 10
-1273.5721231906609
 20
5494.689175302422
 30
0.0
 41
1.0
 10
-1273.5268755125121
 20
5494.726555294038
 30
0.0
 41
1.0
 10
-1273.3866354552947
 20
5494.8424103473262
 30
0.0
 41
0.9990825084095739
 10
-1273.2369955226925
 20
5494.9458393451569
 30
0.0
 41
1.0
 10
-1273.2269501586302
 20
5494.95278255824
 30
0.0
 41
1.0
 10
-1273.2169047945679
 20
5494.9597257713231
 30
0.0
 41
1.0
 10
-1273.0873555900855
 20
5495.049268342992
 30
0.0
 41
0.9998164899825801
 10
-1272.9544713867122
 20
5495.1337825845067
 30
0.0
 41
1.0
 10
-1272.9426258261879
 20
5495.1413163510315
 30
0.0
 41
1.0
 10
-1272.9307802656638
 20
5495.1488501175563
 30
0.0
 41
1.0
 10
-1272.8215871833395
 20
5495.2182968260213
 30
0.0
 41
0.9997473449132167
 10
-1272.7093832260866
 20
5495.2827657838388
 30
0.0
 41
1.0
 10
-1272.5971792688231
 20
5495.3472347416619
 30
0.0
 41
0.9999327861147404
 10
-1272.4835106580613
 20
5495.4090847333428
 30
0.0
 41
1.0
 10
-1272.4829586555068
 20
5495.4093850920181
 30
0.0
 41
1.0
 10
-1272.4824066529522
 20
5495.4096854506943
 30
0.0
 41
1.0
 10
-1272.3676340370648
 20
5495.4721361597358
 30
0.0
 41
0.9996956420484122
 10
-1272.2499207112189
 20
5495.5288496267131
 30
0.0
 41
1.0
 10
-1272.2194803063276
 20
5495.5435156034418
 30
0.0
 41
1.0
 10
-1272.1890399014362
 20
5495.5581815801715
 30
0.0
 41
1.0
 10
-1272.0860627946993
 20
5495.6077952386113
 30
0.0
 41
0.9998070570177576
 10
-1271.9812164057569
 20
5495.6533258255131
 30
0.0
 41
1.0
 10
-1271.8763700168231
 20
5495.6988564124113
 30
0.0
 41
0.9997827436146775
 10
-1271.7697170802244
 20
5495.7399775837184
 30
0.0
 41
1.0
 10
-1271.7504942305839
 20
5495.7473891573545
 30
0.0
 41
1.0
 10
-1271.7312713809433
 20
5495.7548007309906
 30
0.0
 41
1.0
 10
-1271.5861727450676
 20
5495.8107450495681
 30
0.0
 41
0.9988031841977724
 10
-1271.4363023824631
 20
5495.852245113736
 30
0.0
 41
1.0
 10
-1271.411385134104
 20
5495.8591448595416
 30
0.0
 41
1.0
 10
-1271.3864678857451
 20
5495.8660446053473
 30
0.0
 41
1.0
 10
-1271.2191978600947
 20
5495.9123627477557
 30
0.0
 41
0.9984748040549999
 10
-1271.0478409514435
 20
5495.9399569800207
 30
0.0
 41
1.0
 10
-1271.0431018151969
 20
5495.9407201405338
 30
0.0
 41
1.0
 10
-1271.0383626789503
 20
5495.9414833010469
 30
0.0
 41
1.0
 10
-1270.8764840427962
 20
5495.9675512122849
 30
0.0
 41
0.9984436495481333
 10
-1270.7127092990695
 20
5495.9754291661038
 30
0.0
 41
1.0
 10
-1270.6910120909381
 20
5495.9764728533037
 30
0.0
 41
1.0
 10
-1270.6693148828067
 20
5495.9775165405035
 30
0.0
 41
1.0
 10
-1270.5489345553449
 20
5495.9833071199228
 30
0.0
 41
0.9987954789335672
 10
-1270.4285663104351
 20
5495.9772705921805
 30
0.0
 41
1.0
 10
-1270.4086015179564
 20
5495.9762693478424
 30
0.0
 41
1.0
 10
-1270.3886367254777
 20
5495.9752681035052
 30
0.0
 41
1.0
 10
-1270.3081980655415
 20
5495.9712340644401
 30
0.0
 41
0.9997941595876833
 10
-1270.227989287431
 20
5495.9639399985172
 30
0.0
 41
1.0
 10
-1270.1477805093341
 20
5495.9566459325961
 30
0.0
 41
0.999858946623611
 10
-1270.0678619624766
 20
5495.946662078145
 30
0.0
 41
1.0
 10
-1270.0354557606709
 20
5495.9426137212267
 30
0.0
 41
1.0
 10
-1270.0030495588651
 20
5495.9385653643076
 30
0.0
 41
1.0
 10
-1269.8583186083947
 20
5495.9204847960191
 30
0.0
 41
0.9993495063249013
 10
-1269.7152673646317
 20
5495.8920190862782
 30
0.0
 41
1.0
 10
-1269.682333667472
 20
5495.8854656230615
 30
0.0
 41
1.0
 10
-1269.6493999703121
 20
5495.8789121598456
 30
0.0
 41
1.0
 10
-1269.5401061471134
 20
5495.8571638257108
 30
0.0
 41
0.999678871556052
 10
-1269.432054575163
 20
5495.8299060263489
 30
0.0
 41
1.0
 10
-1269.4299915726297
 20
5495.8293855997781
 30
0.0
 41
1.0
 10
-1269.4279285700964
 20
5495.8288651732064
 30
0.0
 41
1.0
 10
-1269.3240030032123
 20
5495.8026482269879
 30
0.0
 41
0.9995480654491196
 10
-1269.221840767977
 20
5495.7702332703611
 30
0.0
 41
1.0
 10
-1269.2201511258472
 20
5495.7696971654468
 30
0.0
 41
1.0
 10
-1269.2184614837172
 20
5495.7691610605325
 30
0.0
 41
1.0
 10
-1269.119678532747
 20
5495.7378183137371
 30
0.0
 41
0.9993867959455851
 10
-1269.0233313743049
 20
5495.6996389444475
 30
0.0
 41
1.0
 10
-1269.0220884252115
 20
5495.6991464025477
 30
0.0
 41
1.0
 10
-1269.020845476118
 20
5495.6986538606479
 30
0.0
 41
1.0
 10
-1268.9269842158521
 20
5495.6614595751525
 30
0.0
 41
0.9992050256522821
 10
-1268.8363845408292
 20
5495.616905675919
 30
0.0
 41
1.0
 10
-1268.8356498581163
 20
5495.6165443834579
 30
0.0
 41
1.0
 10
-1268.8349151754035
 20
5495.6161830909969
 30
0.0
 41
1.0
 10
-1268.7457848657948
 20
5495.5723517766792
 30
0.0
 41
0.9990222350742672
 10
-1268.6608748044023
 20
5495.5208185089814
 30
0.0
 41
1.0
 10
-1268.6606909191196
 20
5495.5207069060762
 30
0.0
 41
1.0
 10
-1268.6605070338371
 20
5495.5205953031718
 30
0.0
 41
1.0
 10
-1268.5759647430068
 20
5495.4692852412827
 30
0.0
 41
0.9988642743803186
 10
-1268.4966902083893
 20
5495.4101610537582
 30
0.0
 41
1.0
 10
-1268.4174156737758
 20
5495.3510368662392
 30
0.0
 41
0.9987681233304481
 10
-1268.3443918895027
 20
5495.2843461748398
 30
0.0
 41
1.0
 10
-1268.3440629615327
 20
5495.284045773622
 30
0.0
 41
1.0
 10
-1268.3437340335627
 20
5495.2837453724042
 30
0.0
 41
1.0
 10
-1268.270052393352
 20
5495.2164538785719
 30
0.0
 41
0.9987496570898957
 10
-1268.2034585880249
 20
5495.1421410644843
 30
0.0
 41
1.0
 10
-1268.2026864182658
 20
5495.1412793911277
 30
0.0
 41
1.0
 10
-1268.2019142485069
 20
5495.1404177177719
 30
0.0
 41
1.0
 10
-1268.133776103658
 20
5495.0643815569692
 30
0.0
 41
0.9988147669824959
 10
-1268.0733538494324
 20
5494.9820805501258
 30
0.0
 41
1.0
 10
-1268.0722345233553
 20
5494.9805559187744
 30
0.0
 41
1.0
 10
-1268.0711151972785
 20
5494.9790312874229
 30
0.0
 41
1.0
 10
-1268.008454290899
 20
5494.8936810178757
 30
0.0
 41
0.9989452636217199
 10
-1267.9538873779386
 20
5494.8029423287198
 30
0.0
 41
1.0
 10
-1267.9525386518519
 20
5494.8006995476917
 30
0.0
 41
1.0
 10
-1267.9511899257652
 20
5494.7984567666645
 30
0.0
 41
1.0
 10
-1267.8939255606331
 20
5494.703232515456
 30
0.0
 41
0.9991046436069637
 10
-1267.8449163473101
 20
5494.6035080824286
 30
0.0
 41
1.0
 10
-1267.8434524857205
 20
5494.6005294023562
 30
0.0
 41
1.0
 10
-1267.8419886241309
 20
5494.5975507222847
 30
0.0
 41
1.0
 10
-1267.7900516876318
 20
5494.4918689291198
 30
0.0
 41
0.9992763831101539
 10
-1267.7462985590751
 20
5494.3825448671605
 30
0.0
 41
1.0
 10
-1267.7448192894112
 20
5494.3788486796257
 30
0.0
 41
1.0
 10
-1267.7433400197474
 20
5494.3751524920908
 30
0.0
 41
1.0
 10
-1267.6966283518655
 20
5494.2584360550682
 30
0.0
 41
0.9994163472882555
 10
-1267.657995320676
 20
5494.1388024666048
 30
0.0
 41
1.0
 10
-1267.65675716843
 20
5494.1349683228245
 30
0.0
 41
1.0
 10
-1267.6555190161841
 20
5494.1311341790442
 30
0.0
 41
1.0
 10
-1267.6156354551683
 20
5494.0076281175716
 30
0.0
 41
0.999726805589005
 10
-1267.5815673992531
 20
5493.8823930856088
 30
0.0
 41
1.0
 10
-1267.5806372189832
 20
5493.8789737194993
 30
0.0
 41
1.0
 10
-1267.5797070387134
 20
5493.8755543533898
 30
0.0
 41
1.0
 10
-1267.5474993433429
 20
5493.757158053666
 30
0.0
 41
0.999670131900019
 10
-1267.5214137265707
 20
5493.6372641003945
 30
0.0
 41
1.0
 10
-1267.4953281097994
 20
5493.5173701471285
 30
0.0
 41
0.9995785451108519
 10
-1267.4762445324607
 20
5493.3961643861012
 30
0.0
 41
1.0
 10
-1267.4720247502869
 20
5493.369363231337
 30
0.0
 41
1.0
 10
-1267.4678049681133
 20
5493.3425620765729
 30
0.0
 41
1.0
 10
-1267.4412299921742
 20
5493.173776102868
 30
0.0
 41
0.997992510121547
 10
-1267.4362044062482
 20
5493.0029847747755
 30
0.0
 41
1.0
 10
-1267.4353795938232
 20
5492.9749540512839
 30
0.0
 41
1.0
 10
-1267.4345547813984
 20
5492.9469233277914
 30
0.0
 41
1.0
 10
-1267.431178820322
 20
5492.8321934466767
 30
0.0
 41
0.9995314902263212
 10
-1267.4348290124603
 20
5492.7174719629311
 30
0.0
 41
1.0
 10
-1267.4384792045996
 20
5492.6027504791682
 30
0.0
 41
0.9996245486944901
 10
-1267.4484082997308
 20
5492.488401208042
 30
0.0
 41
1.0
 10
-1267.4485713477243
 20
5492.4865234519139
 30
0.0
 41
1.0
 10
-1267.448734395718
 20
5492.4846456957857
 30
0.0
 41
1.0
 10
-1267.4589895868376
 20
5492.3665409123942
 30
0.0
 41
0.9997286095001712
 10
-1267.4747349104105
 20
5492.2490420034837
 30
0.0
 41
1.0
 10
-1267.4751284030599
 20
5492.246105578788
 30
0.0
 41
1.0
 10
-1267.4755218957096
 20
5492.2431691540914
 30
0.0
 41
1.0
 10
-1267.4920542045825
 20
5492.1197973957878
 30
0.0
 41
0.9998265533969709
 10
-1267.5131696633139
 20
5491.9971269210073
 30
0.0
 41
1.0
 10
-1267.5138462054513
 20
5491.9931965424985
 30
0.0
 41
1.0
 10
-1267.5145227475887
 20
5491.9892661639897
 30
0.0
 41
1.0
 10
-1267.5369912905951
 20
5491.8587349321879
 30
0.0
 41
0.9999022530853127
 10
-1267.5631007552047
 20
5491.7288829635527
 30
0.0
 41
1.0
 10
-1267.5640793963705
 20
5491.7240158211634
 30
0.0
 41
1.0
 10
-1267.5650580375363
 20
5491.7191486787742
 30
0.0
 41
1.0
 10
-1267.5931247844787
 20
5491.5795624253515
 30
0.0
 41
0.9999524761942266
 10
-1267.6239077533151
 20
5491.4405499321801
 30
0.0
 41
1.0
 10
-1267.625183860489
 20
5491.434787172886
 30
0.0
 41
1.0
 10
-1267.6264599676626
 20
5491.4290244135909
 30
0.0
 41
1.0
 10
-1267.6597951508575
 20
5491.2784864017822
 30
0.0
 41
0.999981358871868
 10
-1267.6949661516546
 20
5491.1283666891213
 30
0.0
 41
1.0
 10
-1267.696520077106
 20
5491.1217340987214
 30
0.0
 41
1.0
 10
-1267.6980740025572
 20
5491.1151015083215
 30
0.0
 41
1.0
 10
-1267.7363528542542
 20
5490.9517166148717
 30
0.0
 41
0.9999955237662724
 10
-1267.775608732223
 20
5490.7885637113131
 30
0.0
 41
1.0
 10
-1267.7878903678693
 20
5490.7375195207405
 30
0.0
 41
1.0
 10
-1267.8001720035154
 20
5490.6864753301688
 30
0.0
 41
1.0
 10
-1267.8639911527266
 20
5490.4212340456706
 30
0.0
 41
0.9999993604405766
 10
-1267.9284100999141
 20
5490.1561377949065
 30
0.0
 41
1.0
 10
-1267.9331289354704
 20
5490.136718886828
 30
0.0
 41
1.0
 10
-1267.9378477710266
 20
5490.1172999787505
 30
0.0
 41
1.0
 10
-1268.0117043892819
 20
5489.8133659120122
 30
0.0
 41
0.9999659914724882
 10
-1268.0905639851753
 20
5489.5106913654217
 30
0.0
 41
1.0
 10
-1268.0955166741046
 20
5489.4916822282448
 30
0.0
 41
1.0
 10
-1268.1004693630339
 20
5489.4726730910679
 30
0.0
 41
1.0
 10
-1268.189234336777
 20
5489.1319802701564
 30
0.0
 41
0.9999441976026355
 10
-1268.2851773697384
 20
5488.7932388448644
 30
0.0
 41
1.0
 10
-1268.301877888166
 20
5488.7342751323295
 30
0.0
 41
1.0
 10
-1268.3185784065936
 20
5488.6753114197945
 30
0.0
 41
1.0
 10
-1268.4479224764127
 20
5488.2186425694244
 30
0.0
 41
0.9999625120731692
 10
-1268.5851552437416
 20
5487.7642820354113
 30
0.0
 41
1.0
 10
-1268.6209451868208
 20
5487.6457860087958
 30
0.0
 41
1.0
 10
-1268.6567351299002
 20
5487.5272899821812
 30
0.0
 41
1.0
 10
-1268.731255333945
 20
5487.2805629040686
 30
0.0
 41
0.999979338630914
 10
-1268.808941357076
 20
5487.0348142648509
 30
0.0
 41
1.0
 10
-1268.8866273802137
 20
5486.789065625615
 30
0.0
 41
1.0
 10
-1268.8974069390845
 20
5486.7550477212408
 30
0.0
 41
1.0
 10
-1270.7477799923536
 20
5480.8679757987738
 30
0.0
 41
1.0
 10
-1272.5981530456229
 20
5474.980903876306
 30
0.0
 41
1.0
 10
-1273.5594097356463
 20
5474.980903876306
 30
0.0
 41
1.0
 10
-1274.5206664256698
 20
5474.980903876306
 30
0.0
 41
1.0
 10
-1272.9017216469915
 20
5480.1289323780948
 30
0.0
 41
1.0
 10
-1271.282776868313
 20
5485.2769608798844
 30
0.0
 41
1.0
 10
-1271.2376110451382
 20
5485.4209921021566
 30
0.0
 41
1.0
 10
-1271.1924452219632
 20
5485.5650233244287
 30
0.0
 41
1.0
 10
-1271.0221408045998
 20
5486.1081143535921
 30
0.0
 41
0.9999911657875832
 10
-1270.8564079929215
 20
5486.6526178849508
 30
0.0
 41
1.0
 10
-1270.8267120494206
 20
5486.750181825003
 30
0.0
 41
1.0
 10
-1270.7970161059195
 20
5486.8477457650552
 30
0.0
 41
1.0
 10
-1270.6906751812612
 20
5487.1971214162495
 30
0.0
 41
0.9999952428155473
 10
-1270.5864915919162
 20
5487.5471464406637
 30
0.0
 41
1.0
 10
-1270.5814321215823
 20
5487.5641447149437
 30
0.0
 41
1.0
 10
-1270.5763726512484
 20
5487.5811429892237
 30
0.0
 41
1.0
 10
-1270.4823080025972
 20
5487.8971714649942
 30
0.0
 41
0.9999931687544077
 10
-1270.3905821647177
 20
5488.2138866782843
 30
0.0
 41
1.0
 10
-1270.385646900254
 20
5488.230927387569
 30
0.0
 41
1.0
 10
-1270.3807116357905
 20
5488.2479680968545
 30
0.0
 41
1.0
 10
-1270.2988563268395
 20
5488.5306018915708
 30
0.0
 41
0.9999893840811092
 10
-1270.2196091003873
 20
5488.8139780208012
 30
0.0
 41
1.0
 10
-1270.1403618739414
 20
5489.0973541500098
 30
0.0
 41
0.9999833980077865
 10
-1270.0643856332119
 20
5489.3816247329887
 30
0.0
 41
1.0
 10
-1270.0553816964796
 20
5489.4153136115046
 30
0.0
 41
1.0
 10
-1270.0463777597472
 20
5489.4490024900206
 30
0.0
 41
1.0
 10
-1269.9774132108814
 20
5489.7070383223163
 30
0.0
 41
0.9999233658063899
 10
-1269.914858239657
 20
5489.9667024810542
 30
0.0
 41
1.0
 10
-1269.8523032684366
 20
5490.2263666397766
 30
0.0
 41
1.0
 10
-1269.812819849579
 20
5490.3901733042021
 30
0.0
 41
1.0
 10
-1269.8078412456061
 20
5490.4108282660536
 30
0.0
 41
1.0
 10
-1269.8028626416335
 20
5490.4314832279051
 30
0.0
 41
1.0
 10
-1269.7733364307155
 20
5490.553979968653
 30
0.0
 41
0.9999868670879181
 10
-1269.7450673467251
 20
5490.6767729142739
 30
0.0
 41
1.0
 10
-1269.7411698595633
 20
5490.6937025017087
 30
0.0
 41
1.0
 10
-1269.7372723724013
 20
5490.7106320891444
 30
0.0
 41
1.0
 10
-1269.7167982627293
 20
5490.7995658599184
 30
0.0
 41
0.9999778173343245
 10
-1269.6975106646137
 20
5490.8887644771494
 30
0.0
 41
1.0
 10
-1269.6782230664992
 20
5490.9779630943749
 30
0.0
 41
0.9999602692859003
 10
-1269.6605287078635
 20
5491.067491382827
 30
0.0
 41
1.0
 10
-1269.6573248757877
 20
5491.0837018377024
 30
0.0
 41
1.0
 10
-1269.6541210437122
 20
5491.0999122925787
 30
0.0
 41
1.0
 10
-1269.6300190209242
 20
5491.2218614907861
 30
0.0
 41
0.9995617985320315
 10
-1269.6131756737068
 20
5491.3450232384866
 30
0.0
 41
1.0
 10
-1269.610711183801
 20
5491.3630440558509
 30
0.0
 41
1.0
 10
-1269.6082466938949
 20
5491.3810648732151
 30
0.0
 41
1.0
 10
-1269.5879634328467
 20
5491.529379922913
 30
0.0
 41
0.9991121410639257
 10
-1269.5802380792584
 20
5491.6788760217205
 30
0.0
 41
1.0
 10
-1269.579319289234
 20
5491.6966558582926
 30
0.0
 41
1.0
 10
-1269.5784004992097
 20
5491.7144356948647
 30
0.0
 41
1.0
 10
-1269.5725127256705
 20
5491.8283721205253
 30
0.0
 41
0.998979249490733
 10
-1269.5769318177875
 20
5491.9423749564248
 30
0.0
 41
1.0
 10
-1269.5775797896561
 20
5491.9590912023523
 30
0.0
 41
1.0
 10
-1269.5782277615247
 20
5491.9758074482788
 30
0.0
 41
1.0
 10
-1269.5813509099044
 20
5492.056377792318
 30
0.0
 41
0.9997820295394866
 10
-1269.5878349072805
 20
5492.1367475140678
 30
0.0
 41
1.0
 10
-1269.5943189046557
 20
5492.2171172358057
 30
0.0
 41
0.9998335105973555
 10
-1269.603731100168
 20
5492.2971968522625
 30
0.0
 41
1.0
 10
-1269.6053260248443
 20
5492.3107665827447
 30
0.0
 41
1.0
 10
-1269.6069209495206
 20
5492.3243363132278
 30
0.0
 41
1.0
 10
-1269.6195229943842
 20
5492.4315553906381
 30
0.0
 41
0.999687645787938
 10
-1269.6374669071829
 20
5492.5380108183572
 30
0.0
 41
1.0
 10
-1269.6396985703284
 20
5492.5512505536008
 30
0.0
 41
1.0
 10
-1269.6419302334739
 20
5492.5644902888434
 30
0.0
 41
1.0
 10
-1269.6557260548955
 20
5492.6463364328056
 30
0.0
 41
0.9995547496493789
 10
-1269.6743793767876
 20
5492.727213929993
 30
0.0
 41
1.0
 10
-1269.6747533336588
 20
5492.7288353406984
 30
0.0
 41
1.0
 10
-1269.6751272905301
 20
5492.7304567514038
 30
0.0
 41
1.0
 10
-1269.6930326986803
 20
5492.808091427185
 30
0.0
 41
0.9994899427175171
 10
-1269.7158576073596
 20
5492.8844247100187
 30
0.0
 41
1.0
 10
-1269.7163161341
 20
5492.8859581598063
 30
0.0
 41
1.0
 10
-1269.7167746608404
 20
5492.8874916095938
 30
0.0
 41
1.0
 10
-1269.7386825160393
 20
5492.9607579928543
 30
0.0
 41
0.9993784877589762
 10
-1269.7656981511454
 20
5493.0322986980118
 30
0.0
 41
1.0
 10
-1269.7662298421224
 20
5493.0337066807324
 30
0.0
 41
1.0
 10
-1269.7667615330993
 20
5493.035114663453
 30
0.0
 41
1.0
 10
-1269.7927137862519
 20
5493.1038394031721
 30
0.0
 41
0.9992430832251749
 10
-1269.8239303214114
 20
5493.1703385552391
 30
0.0
 41
1.0
 10
-1269.8245124374687
 20
5493.1715786103578
 30
0.0
 41
1.0
 10
-1269.825094553526
 20
5493.1728186654764
 30
0.0
 41
1.0
 10
-1269.8551468565736
 20
5493.2368377073135
 30
0.0
 41
0.9990789632796688
 10
-1269.8905774833474
 20
5493.2980443190572
 30
0.0
 41
1.0
 10
-1269.8911731895296
 20
5493.2990734049163
 30
0.0
 41
1.0
 10
-1269.8917688957115
 20
5493.3001024907753
 30
0.0
 41
1.0
 10
-1269.9260081101236
 20
5493.3592509308055
 30
0.0
 41
0.998887480112141
 10
-1269.9656673861564
 20
5493.4149106432251
 30
0.0
 41
1.0
 10
-1269.9662229122198
 20
5493.415690294898
 30
0.0
 41
1.0
 10
-1269.9667784382832
 20
5493.4164699465719
 30
0.0
 41
1.0
 10
-1270.0053266621881
 20
5493.4705703556419
 30
0.0
 41
0.9986762060694475
 10
-1270.0492291334645
 20
5493.5204240700823
 30
0.0
 41
1.0
 10
-1270.0496730937984
 20
5493.5209282119013
 30
0.0
 41
1.0
 10
-1270.0501170541327
 20
5493.5214323537202
 30
0.0
 41
1.0
 10
-1270.0931316047418
 20
5493.5702777845217
 30
0.0
 41
0.9984621642492292
 10
-1270.1412891615182
 20
5493.6140610849925
 30
0.0
 41
1.0
 10
-1270.141535796035
 20
5493.6142853171559
 30
0.0
 41
1.0
 10
-1270.1417824305515
 20
5493.6145095493193
 30
0.0
 41
1.0
 10
-1270.1894467182974
 20
5493.6578443854642
 30
0.0
 41
0.9982724693849721
 10
-1270.2418653501377
 20
5493.6952887359803
 30
0.0
 41
1.0
 10
-1270.2942839819771
 20
5493.7327330864964
 30
0.0
 41
0.9981399180160615
 10
-1270.3508700453692
 20
5493.76351960594
 30
0.0
 41
1.0
 10
-1270.3509157074491
 20
5493.7635444490979
 30
0.0
 41
1.0
 10
-1270.3509613695292
 20
5493.7635692922559
 30
0.0
 41
1.0
 10
-1270.4076387570813
 20
5493.7944054980153
 30
0.0
 41
0.9980927086837282
 10
-1270.4676841081507
 20
5493.8180223068694
 30
0.0
 41
1.0
 10
-1270.4681242778602
 20
5493.8181954327429
 30
0.0
 41
1.0
 10
-1270.4685644475694
 20
5493.8183685586173
 30
0.0
 41
1.0
 10
-1270.5294901380605
 20
5493.8423316192202
 30
0.0
 41
0.998141135656176
 10
-1270.5928786594611
 20
5493.8587042607251
 30
0.0
 41
1.0
 10
-1270.5937607761612
 20
5493.8589321029303
 30
0.0
 41
1.0
 10
-1270.5946428928614
 20
5493.8591599451356
 30
0.0
 41
1.0
 10
-1270.6597956476583
 20
5493.8759882710501
 30
0.0
 41
0.9983031812939449
 10
-1270.726463076647
 20
5493.8851276322266
 30
0.0
 41
1.0
 10
-1270.7353341020594
 20
5493.886343750899
 30
0.0
 41
1.0
 10
-1270.744205127472
 20
5493.8875598695713
 30
0.0
 41
1.0
 10
-1270.7985547699732
 20
5493.8950105995618
 30
0.0
 41
0.9983887708261976
 10
-1270.8533986192633
 20
5493.8962552731955
 30
0.0
 41
1.0
 10
-1270.8614620245025
 20
5493.896438271071
 30
0.0
 41
1.0
 10
-1270.8695254297415
 20
5493.8966212689456
 30
0.0
 41
1.0
 10
-1270.908242468578
 20
5493.8974999468292
 30
0.0
 41
0.9998869563077689
 10
-1270.9469684217588
 20
5493.8972140774686
 30
0.0
 41
1.0
 10
-1270.9856943749191
 20
5493.8969282081089
 30
0.0
 41
0.999997232010388
 10
-1271.0244185540867
 20
5493.8964601085809
 30
0.0
 41
1.0
 10
-1271.0437715707094
 20
5493.896226168491
 30
0.0
 41
1.0
 10
-1271.0631245873321
 20
5493.8959922284012
 30
0.0
 41
1.0
 10
-1271.1405547997158
 20
5493.8950562486934
 30
0.0
 41
0.9997304945085817
 10
-1271.2178581059668
 20
5493.8905271549056
 30
0.0
 41
1.0
 10
-1271.2269077476581
 20
5493.8899969489166
 30
0.0
 41
1.0
 10
-1271.2359573893491
 20
5493.8894667429277
 30
0.0
 41
1.0
 10
-1271.3313599789935
 20
5493.8838772371619
 30
0.0
 41
0.9997888306416355
 10
-1271.4264523148333
 20
5493.8743722726731
 30
0.0
 41
1.0
 10
-1271.4351733764083
 20
5493.8735005580402
 30
0.0
 41
1.0
 10
-1271.4438944379831
 20
5493.8726288434082
 30
0.0
 41
1.0
 10
-1271.5564288969747
 20
5493.8613804496554
 30
0.0
 41
0.9984170238187817
 10
-1271.6669880443285
 20
5493.8375643677182
 30
0.0
 41
1.0
 10
-1271.7033691753104
 20
5493.8297273319131
 30
0.0
 41
1.0
 10
-1271.7397503062921
 20
5493.821890296108
 30
0.0
 41
1.0
 10
-1271.8549413747144
 20
5493.7970764295987
 30
0.0
 41
0.9976592854200409
 10
-1271.965669541122
 20
5493.7567777524509
 30
0.0
 41
1.0
 10
-1272.0763977075187
 20
5493.7164790753059
 30
0.0
 41
0.9993255074354843
 10
-1272.1838695063038
 20
5493.6681621768175
 30
0.0
 41
1.0
 10
-1272.1884946852342
 20
5493.6660828006152
 30
0.0
 41
1.0
 10
-1272.1931198641644
 20
5493.6640034244119
 30
0.0
 41
1.0
 10
-1272.3098420207984
 20
5493.6115277735216
 30
0.0
 41
0.9976475078278239
 10
-1272.4182893651055
 20
5493.5435797838663
 30
0.0
 41
1.0
 10
-1272.4366317592389
 20
5493.5320873050532
 30
0.0
 41
1.0
 10
-1272.4549741533724
 20
5493.5205948262392
 30
0.0
 41
1.0
 10
-1272.5391763449284
 20
5493.4678377054679
 30
0.0
 41
0.9995131336407539
 10
-1272.6199240598912
 20
5493.4099314935102
 30
0.0
 41
1.0
 10
-1272.7006717748502
 20
5493.3520252815561
 30
0.0
 41
0.9995810107606361
 10
-1272.7779334225879
 20
5493.2895435990831
 30
0.0
 41
1.0
 10
-1272.7809034537927
 20
5493.2871417276228
 30
0.0
 41
1.0
 10
-1272.7838734849977
 20
5493.2847398561626
 30
0.0
 41
1.0
 10
-1272.8670751951418
 20
5493.2174544307709
 30
0.0
 41
0.9996617837956286
 10
-1272.9466658822698
 20
5493.1459339752182
 30
0.0
 41
1.0
 10
-1272.9587966331546
 20
5493.1350332422207
 30
0.0
 41
1.0
 10
-1272.9709273840394
 20
5493.1241325092224
 30
0.0
 41
1.0
 10
-1273.0392029114309
 20
5493.0627798937549
 30
0.0
 41
0.9997267750052575
 10
-1273.1045364197171
 20
5492.998303357228
 30
0.0
 41
1.0
 10
-1273.1698699280096
 20
5492.9338268206939
 30
0.0
 41
0.999966728896126
 10
-1273.2341428711795
 20
5492.8682930137757
 30
0.0
 41
1.0
 10
-1273.3029703189386
 20
5492.7981153550336
 30
0.0
 41
1.0
 10
-1273.3717977666977
 20
5492.7279376962906
 30
0.0
 41
1.0
 10
-1273.573725605399
 20
5492.5220485718755
 30
0.0
 41
0.9988205335174166
 10
-1273.7547312223801
 20
5492.2975443398118
 30
0.0
 41
1.0
 10
-1273.7853711872817
 20
5492.2595410893855
 30
0.0
 41
1.0
 10
-1273.8160111521834
 20
5492.2215378389592
 30
0.0
 41
1.0
 10
-1274.0582966989739
 20
5491.9210271060365
 30
0.0
 41
0.9997077826755147
 10
-1274.2857746500808
 20
5491.6091573118183
 30
0.0
 41
1.0
 10
-1274.2874980652095
 20
5491.6067945284412
 30
0.0
 41
1.0
 10
-1274.2892214803385
 20
5491.6044317450633
 30
0.0
 41
1.0
 10
-1274.5201462617033
 20
5491.28783638409
 30
0.0
 41
0.9989147567078884
 10
-1274.7206097645865
 20
5490.951126922907
 30
0.0
 41
1.0
 10
-1274.7453509098918
 20
5490.9095703423573
 30
0.0
 41
1.0
 10
-1274.7700920551972
 20
5490.8680137618076
 30
0.0
 41
1.0
 10
-1274.9253033538328
 20
5490.6073123773576
 30
0.0
 41
0.9997476598182203
 10
-1275.068648341349
 20
5490.3399026287643
 30
0.0
 41
1.0
 10
-1275.2119933288632
 20
5490.0724928801719
 30
0.0
 41
0.9996258967109916
 10
-1275.3405015807923
 20
5489.7976449435528
 30
0.0
 41
1.0
 10
-1275.3537014902395
 20
5489.7694135434631
 30
0.0
 41
1.0
 10
-1275.3669013996864
 20
5489.7411821433725
 30
0.0
 41
1.0
 10
-1275.5071101206877
 20
5489.4413097454162
 30
0.0
 41
0.9998735413943782
 10
-1275.6377114674101
 20
5489.137130145944
 30
0.0
 41
1.0
 10
-1275.6411542954747
 20
5489.129111560469
 30
0.0
 41
1.0
 10
-1275.6445971235394
 20
5489.121092974995
 30
0.0
 41
1.0
 10
-1275.7683128141343
 20
5488.8329505464681
 30
0.0
 41
0.9999377418864854
 10
-1275.8855676163053
 20
5488.542119078802
 30
0.0
 41
1.0
 10
-1276.0028224184725
 20
5488.2512876111459
 30
0.0
 41
0.9999508299506003
 10
-1276.1142863618481
 20
5487.9581879343295
 30
0.0
 41
1.0
 10
-1276.1173671305155
 20
5487.9500869083531
 30
0.0
 41
1.0
 10
-1276.1204478991826
 20
5487.9419858823767
 30
0.0
 41
1.0
 10
-1276.238073379878
 20
5487.6326841536456
 30
0.0
 41
0.9999609228435917
 10
-1276.3502119827556
 20
5487.3213511376225
 30
0.0
 41
1.0
 10
-1276.353167993107
 20
5487.3131442972081
 30
0.0
 41
1.0
 10
-1276.3561240034583
 20
5487.3049374567936
 30
0.0
 41
1.0
 10
-1276.4741746270383
 20
5486.9771907599406
 30
0.0
 41
0.9999674607406601
 10
-1276.5869221531223
 20
5486.6475821398981
 30
0.0
 41
1.0
 10
-1276.6383205436737
 20
5486.4973229442385
 30
0.0
 41
1.0
 10
-1276.6897189342251
 20
5486.3470637485798
 30
0.0
 41
1.0
 10
-1276.8057295409799
 20
5486.0079157660857
 30
0.0
 41
0.999928753230964
 10
-1276.9136109449532
 20
5485.6660950271016
 30
0.0
 41
1.0
 10
-1276.9600882011543
 20
5485.518832482534
 30
0.0
 41
1.0
 10
-1277.0065654573555
 20
5485.3715699379673
 30
0.0
 41
1.0
 10
-1277.0214923490435
 20
5485.3242742877492
 30
0.0
 41
0.9999998223326725
 10
-1277.0363628576545
 20
5485.2769608798844
 30
0.0
 41
1.0
 10
-1278.65701899445
 20
5480.1289323780948
 30
0.0
 41
1.0
 10
-1280.2776751312454
 20
5474.980903876306
 30
0.0
 41
1.0
 10
-1281.1829835751364
 20
5474.980903876306
 30
0.0
 41
1.0
 10
-1282.0882920190272
 20
5474.980903876306
 30
0.0
 41
1.0
 10
-1280.2362076076411
 20
5480.8679757987738
 30
0.0
 41
1.0
 10
-1278.3841231962551
 20
5486.7550477212408
 30
0.0
 41
1.0
 10
-1278.3740014379523
 20
5486.7870909346902
 30
0.0
 41
1.0
 10
-1278.3013937691026
 20
5487.0173904765161
 30
0.0
 41
1.0
 10
-1278.2287861002574
 20
5487.2476900183283
 30
0.0
 41
0.9999825681974539
 10
-1278.1589030610392
 20
5487.4788309134146
 30
0.0
 41
1.0
 10
-1278.1106119988801
 20
5487.6385554969038
 30
0.0
 41
1.0
 10
-1278.0623209367211
 20
5487.7982800803939
 30
0.0
 41
1.0
 10
-1277.9651685834085
 20
5488.1196153021556
 30
0.0
 41
0.9999672528965817
 10
-1277.8732297777806
 20
5488.442480847757
 30
0.0
 41
1.0
 10
-1277.8704408941096
 20
5488.4522746931507
 30
0.0
 41
1.0
 10
-1277.8676520104386
 20
5488.4620685385453
 30
0.0
 41
1.0
 10
-1277.7812909721688
 20
5488.7653463933029
 30
0.0
 41
0.9999899749136494
 10
-1277.6976493626225
 20
5489.0693854817964
 30
0.0
 41
1.0
 10
-1277.6875434436095
 20
5489.106120719458
 30
0.0
 41
1.0
 10
-1277.6774375245964
 20
5489.1428559571204
 30
0.0
 41
1.0
 10
-1277.6140077530906
 20
5489.3734245702381
 30
0.0
 41
0.9999214200505487
 10
-1277.5563783247101
 20
5489.6055109124572
 30
0.0
 41
1.0
 10
-1277.5436124725311
 20
5489.6569217978467
 30
0.0
 41
1.0
 10
-1277.5308466203523
 20
5489.7083326832362
 30
0.0
 41
1.0
 10
-1277.4987488963257
 20
5489.8375972546946
 30
0.0
 41
0.9999828681664793
 10
-1277.4681666443371
 20
5489.9672287291341
 30
0.0
 41
1.0
 10
-1277.4375843923431
 20
5490.0968602035937
 30
0.0
 41
0.9999389844475511
 10
-1277.4098734035513
 20
5490.2271356595065
 30
0.0
 41
1.0
 10
-1277.4027356598317
 20
5490.260691763342
 30
0.0
 41
1.0
 10
-1277.3955979161119
 20
5490.2942478671766
 30
0.0
 41
1.0
 10
-1277.353611439881
 20
5490.4916355307569
 30
0.0
 41
0.999893369944011
 10
-1277.3174071754834
 20
5490.6901651384915
 30
0.0
 41
1.0
 10
-1277.3160343502655
 20
5490.697693159198
 30
0.0
 41
1.0
 10
-1277.3146615250473
 20
5490.7052211799037
 30
0.0
 41
1.0
 10
-1277.2757116102132
 20
5490.9188068290496
 30
0.0
 41
0.9996850305193923
 10
-1277.2475279339537
 20
5491.1340778344911
 30
0.0
 41
1.0
 10
-1277.2455329005847
 20
5491.1493161886119
 30
0.0
 41
1.0
 10
-1277.2435378672155
 20
5491.1645545427327
 30
0.0
 41
1.0
 10
-1277.2161300047565
 20
5491.3738997698856
 30
0.0
 41
0.9994697936706247
 10
-1277.2024054455364
 20
5491.5845849652214
 30
0.0
 41
1.0
 10
-1277.2019283762866
 20
5491.5919084374382
 30
0.0
 41
1.0
 10
-1277.2014513070365
 20
5491.5992319096549
 30
0.0
 41
1.0
 10
-1277.188680886316
 20
5491.7952701605627
 30
0.0
 41
0.9991804893135443
 10
-1277.1918092025896
 20
5491.9916990105248
 30
0.0
 41
1.0
 10
-1277.1918930814118
 20
5491.9969658119398
 30
0.0
 41
1.0
 10
-1277.1919769602339
 20
5492.0022326133549
 30
0.0
 41
1.0
 10
-1277.1949375188626
 20
5492.1881278604951
 30
0.0
 41
0.9988448329322615
 10
-1277.2157290644861
 20
5492.3728804503316
 30
0.0
 41
1.0
 10
-1277.2173231381894
 20
5492.3870453061045
 30
0.0
 41
1.0
 10
-1277.2189172118924
 20
5492.4012101618764
 30
0.0
 41
1.0
 10
-1277.2365206101108
 20
5492.5576330401691
 30
0.0
 41
0.9985503209459506
 10
-1277.2708368824094
 20
5492.711257224255
 30
0.0
 41
1.0
 10
-1277.2784228744806
 20
5492.7452175516555
 30
0.0
 41
1.0
 10
-1277.2860088665518
 20
5492.7791778790552
 30
0.0
 41
1.0
 10
-1277.305153154708
 20
5492.8648814083417
 30
0.0
 41
0.9991036781369826
 10
-1277.3314780163601
 20
5492.9486584956694
 30
0.0
 41
1.0
 10
-1277.335460241816
 20
5492.9613316581799
 30
0.0
 41
1.0
 10
-1277.339442467272
 20
5492.9740048206904
 30
0.0
 41
1.0
 10
-1277.3578028780116
 20
5493.0324355829944
 30
0.0
 41
0.9998874504370094
 10
-1277.3779080856898
 20
5493.0902891852174
 30
0.0
 41
1.0
 10
-1277.3980132933657
 20
5493.1481427874342
 30
0.0
 41
0.9994041637543342
 10
-1277.4220619063026
 20
5493.20447149133
 30
0.0
 41
1.0
 10
-1277.4262586905265
 20
5493.2143015558113
 30
0.0
 41
1.0
 10
-1277.4304554747503
 20
5493.2241316202926
 30
0.0
 41
1.0
 10
-1277.4583343057461
 20
5493.2894317862629
 30
0.0
 41
0.9991846840703289
 10
-1277.4913906624383
 20
5493.352269817542
 30
0.0
 41
1.0
 10
-1277.4925272688338
 20
5493.3544304339975
 30
0.0
 41
1.0
 10
-1277.4936638752292
 20
5493.3565910504531
 30
0.0
 41
1.0
 10
-1277.524447019134
 20
5493.4151078488267
 30
0.0
 41
0.9989253167921309
 10
-1277.5605164431863
 20
5493.470522777212
 30
0.0
 41
1.0
 10
-1277.5615705678624
 20
5493.4721422719776
 30
0.0
 41
1.0
 10
-1277.5626246925387
 20
5493.4737617667424
 30
0.0
 41
1.0
 10
-1277.5965858672437
 20
5493.5259377056072
 30
0.0
 41
0.9986467172830298
 10
-1277.6357830198785
 20
5493.5743037392322
 30
0.0
 41
1.0
 10
-1277.6366571485785
 20
5493.5753823415089
 30
0.0
 41
1.0
 10
-1277.6375312772784
 20
5493.5764609437865
 30
0.0
 41
1.0
 10
-1277.6749801725141
 20
5493.6226697728598
 30
0.0
 41
0.9984001104268443
 10
-1277.7174069030332
 20
5493.6643548802303
 30
0.0
 41
1.0
 10
-1277.7179940411424
 20
5493.664931755111
 30
0.0
 41
1.0
 10
-1277.7185811792517
 20
5493.6655086299925
 30
0.0
 41
1.0
 10
-1277.7598336335511
 20
5493.7060399876
 30
0.0
 41
0.9982442159083078
 10
-1277.8055897348859
 20
5493.741408548859
 30
0.0
 41
1.0
 10
-1277.8058045303458
 20
5493.7415745815006
 30
0.0
 41
1.0
 10
-1277.8060193258057
 20
5493.7417406141421
 30
0.0
 41
1.0
 10
-1277.8513458362208
 20
5493.776777110118
 30
0.0
 41
0.9982450060839636
 10
-1277.9004968152933
 20
5493.8062088931529
 30
0.0
 41
1.0
 10
-1277.9496477943642
 20
5493.8356406761859
 30
0.0
 41
0.9983922639633858
 10
-1278.0018141005307
 20
5493.8593203108412
 30
0.0
 41
1.0
 10
-1278.0020409778549
 20
5493.8594232963223
 30
0.0
 41
1.0
 10
-1278.0022678551788
 20
5493.8595262818035
 30
0.0
 41
1.0
 10
-1278.0548879159971
 20
5493.883411887422
 30
0.0
 41
0.9986517147146874
 10
-1278.1097008888682
 20
5493.901713006544
 30
0.0
 41
1.0
 10
-1278.1103788102923
 20
5493.9019393529743
 30
0.0
 41
1.0
 10
-1278.1110567317164
 20
5493.9021656994046
 30
0.0
 41
1.0
 10
-1278.1672255474464
 20
5493.9209195113926
 30
0.0
 41
0.9989435598947163
 10
-1278.2248789346038
 20
5493.9344372136266
 30
0.0
 41
1.0
 10
-1278.2259590541794
 20
5493.9346904638787
 30
0.0
 41
1.0
 10
-1278.2270391737547
 20
5493.93494371413
 30
0.0
 41
1.0
 10
-1278.2868528000686
 20
5493.948967916871
 30
0.0
 41
0.9992249241239548
 10
-1278.3475843089643
 20
5493.9582432595862
 30
0.0
 41
1.0
 10
-1278.3489979972564
 20
5493.9584591679941
 30
0.0
 41
1.0
 10
-1278.3504116855488
 20
5493.958675076402
 30
0.0
 41
1.0
 10
-1278.4139705710229
 20
5493.968382235932
 30
0.0
 41
0.9994396597832089
 10
-1278.4780365075544
 20
5493.9738151582769
 30
0.0
 41
1.0
 10
-1278.4971771750377
 20
5493.975438325996
 30
0.0
 41
1.0
 10
-1278.5163178425209
 20
5493.9770614937152
 30
0.0
 41
1.0
 10
-1278.6186651140099
 20
5493.9857407514983
 30
0.0
 41
0.998769340312282
 10
-1278.7213687375934
 20
5493.9842376880461
 30
0.0
 41
1.0
 10
-1278.7316230718184
 20
5493.9840876162716
 30
0.0
 41
1.0
 10
-1278.7418774060432
 20
5493.9839375444972
 30
0.0
 41
1.0
 10
-1278.8514331722281
 20
5493.9823342002101
 30
0.0
 41
0.9989753644965451
 10
-1278.9603951722504
 20
5493.9708311932845
 30
0.0
 41
1.0
 10
-1279.0693571722638
 20
5493.9593281863599
 30
0.0
 41
0.9983190067303972
 10
-1279.1762559832255
 20
5493.9352931945741
 30
0.0
 41
1.0
 10
-1279.1851569348355
 20
5493.9332919160106
 30
0.0
 41
1.0
 10
-1279.1940578864453
 20
5493.9312906374471
 30
0.0
 41
1.0
 10
-1279.3187586006206
 20
5493.9032530885361
 30
0.0
 41
0.9985539388303949
 10
-1279.4397283542944
 20
5493.8619894124922
 30
0.0
 41
1.0
 10
-1279.4420737852583
 20
5493.8611893686757
 30
0.0
 41
1.0
 10
-1279.4444192162223
 20
5493.8603893248583
 30
0.0
 41
1.0
 10
-1279.5700798318233
 20
5493.8175255611795
 30
0.0
 41
0.9988468746494806
 10
-1279.6910501741263
 20
5493.762807476116
 30
0.0
 41
1.0
 10
-1279.6942329961125
 20
5493.7613678015568
 30
0.0
 41
1.0
 10
-1279.6974158180985
 20
5493.7599281269986
 30
0.0
 41
1.0
 10
-1279.8247518043736
 20
5493.7023306928177
 30
0.0
 41
0.9991322885918048
 10
-1279.9468523884298
 20
5493.6343353606362
 30
0.0
 41
1.0
 10
-1279.9644543994721
 20
5493.624533158647
 30
0.0
 41
1.0
 10
-1279.9820564105144
 20
5493.6147309566577
 30
0.0
 41
1.0
 10
-1280.084233091575
 20
5493.5578308408758
 30
0.0
 41
0.999386003784882
 10
-1280.1821740956516
 20
5493.4939148252852
 30
0.0
 41
1.0
 10
-1280.1877924085084
 20
5493.4902483305868
 30
0.0
 41
1.0
 10
-1280.1934107213654
 20
5493.4865818358894
 30
0.0
 41
1.0
 10
-1280.2801150997329
 20
5493.4299988096918
 30
0.0
 41
0.9998821494954168
 10
-1280.3650414755375
 20
5493.3707805796203
 30
0.0
 41
1.0
 10
-1280.4499678513394
 20
5493.3115623495505
 30
0.0
 41
0.999797648274618
 10
-1280.5324434817444
 20
5493.2489759415093
 30
0.0
 41
1.0
 10
-1280.5470797465541
 20
5493.2378692517259
 30
0.0
 41
1.0
 10
-1280.5617160113638
 20
5493.2267625619425
 30
0.0
 41
1.0
 10
-1280.6734641713736
 20
5493.1419627743444
 30
0.0
 41
0.9998091630799066
 10
-1280.7818144494033
 20
5493.0528624236404
 30
0.0
 41
1.0
 10
-1280.7948202018815
 20
5493.042167323194
 30
0.0
 41
1.0
 10
-1280.8078259543597
 20
5493.0314722227467
 30
0.0
 41
1.0
 10
-1280.942187737335
 20
5492.92098167116
 30
0.0
 41
0.9995035112316726
 10
-1281.0693236150951
 20
5492.8022478541479
 30
0.0
 41
1.0
 10
-1281.078970925485
 20
5492.7932381079881
 30
0.0
 41
1.0
 10
-1281.0886182358752
 20
5492.7842283618274
 30
0.0
 41
1.0
 10
-1281.2120412986412
 20
5492.6689619900717
 30
0.0
 41
0.9994630424299
 10
-1281.3276497044294
 20
5492.5458592468322
 30
0.0
 41
1.0
 10
-1281.3313325432036
 20
5492.5419376673162
 30
0.0
 41
1.0
 10
-1281.3350153819779
 20
5492.5380160878003
 30
0.0
 41
1.0
 10
-1281.4432581102158
 20
5492.4227565035944
 30
0.0
 41
0.9995160693750199
 10
-1281.5441241397452
 20
5492.3009890857247
 30
0.0
 41
1.0
 10
-1281.5460578598195
 20
5492.2986546615248
 30
0.0
 41
1.0
 10
-1281.547991579894
 20
5492.2963202373239
 30
0.0
 41
1.0
 10
-1281.6449901692686
 20
5492.1792216678623
 30
0.0
 41
0.9996561470515297
 10
-1281.7357163879428
 20
5492.0571989054024
 30
0.0
 41
1.0
 10
-1281.7418740538474
 20
5492.0489171163563
 30
0.0
 41
1.0
 10
-1281.7480317197521
 20
5492.0406353273102
 30
0.0
 41
1.0
 10
-1281.8264426066153
 20
5491.9351761429443
 30
0.0
 41
0.9998349055171392
 10
-1281.9009698885411
 20
5491.8269375592899
 30
0.0
 41
1.0
 10
-1281.975497170461
 20
5491.7186989756447
 30
0.0
 41
0.9999728109564281
 10
-1282.048420066372
 20
5491.6093730500879
 30
0.0
 41
1.0
 10
-1282.0497352817895
 20
5491.6074012805766
 30
0.0
 41
1.0
 10
-1282.0510504972069
 20
5491.6054295110662
 30
0.0
 41
1.0
 10
-1282.1266038239178
 20
5491.4921600465404
 30
0.0
 41
0.9999972147361652
 10
-1282.2016216343113
 20
5491.3785352036757
 30
0.0
 41
1.0
 10
-1282.2065931769353
 20
5491.3710051152011
 30
0.0
 41
1.0
 10
-1282.2115647195594
 20
5491.3634750267256
 30
0.0
 41
1.0
 10
-1282.2965256151861
 20
5491.2347900069335
 30
0.0
 41
0.9999371979005269
 10
-1282.3785809646056
 20
5491.1042330931314
 30
0.0
 41
1.0
 10
-1282.382089848956
 20
5491.0986501650841
 30
0.0
 41
1.0
 10
-1282.3855987333063
 20
5491.0930672370378
 30
0.0
 41
1.0
 10
-1282.4746718514357
 20
5490.9513444671275
 30
0.0
 41
0.9998272025611996
 10
-1282.5584152423137
 20
5490.8064085903916
 30
0.0
 41
1.0
 10
-1282.5736304143393
 20
5490.7800754759319
 30
0.0
 41
1.0
 10
-1282.5888455863651
 20
5490.7537423614722
 30
0.0
 41
1.0
 10
-1282.7030193212947
 20
5490.556140255816
 30
0.0
 41
0.9995217214838927
 10
-1282.8047590108449
 20
5490.3518579279671
 30
0.0
 41
1.0
 10
-1282.8124025734794
 20
5490.3365104782652
 30
0.0
 41
1.0
 10
-1282.8200461361139
 20
5490.3211630285632
 30
0.0
 41
1.0
 10
-1282.9069514287091
 20
5490.1466665704693
 30
0.0
 41
0.9998269762608254
 10
-1282.9873058949827
 20
5489.9690582837447
 30
0.0
 41
1.0
 10
-1283.0676603612592
 20
5489.791449997012
 30
0.0
 41
0.9998944747387285
 10
-1283.142821155828
 20
5489.6115822713718
 30
0.0
 41
1.0
 10
-1283.1477748254138
 20
5489.5997276164671
 30
0.0
 41
1.0
 10
-1283.1527284949998
 20
5489.5878729615615
 30
0.0
 41
1.0
 10
-1283.2333755555578
 20
5489.3948760215308
 30
0.0
 41
0.9999506734406118
 10
-1283.3101730844585
 20
5489.2003152166817
 30
0.0
 41
1.0
 10
-1283.3247730497342
 20
5489.1633272948629
 30
0.0
 41
1.0
 10
-1283.3393730150099
 20
5489.1263393730442
 30
0.0
 41
1.0
 10
-1283.3869706133603
 20
5489.005754411829
 30
0.0
 41
0.9999912393922305
 10
-1283.4335570573844
 20
5488.8847752091297
 30
0.0
 41
1.0
 10
-1283.4801435014019
 20
5488.7637960064467
 30
0.0
 41
0.9999927113968735
 10
-1283.5258047958098
 20
5488.6424645989091
 30
0.0
 41
1.0
 10
-1283.5397732272031
 20
5488.6053476169218
 30
0.0
 41
1.0
 10
-1283.5537416585967
 20
5488.5682306349336
 30
0.0
 41
1.0
 10
-1283.6273398157869
 20
5488.3726652634341
 30
0.0
 41
0.9999487550954131
 10
-1283.6969634407649
 20
5488.1756498982313
 30
0.0
 41
1.0
 10
-1283.7205570506949
 20
5488.1088865879574
 30
0.0
 41
1.0
 10
-1283.7441506606251
 20
5488.0421232776844
 30
0.0
 41
1.0
 10
-1283.8388362949865
 20
5487.7741894428855
 30
0.0
 41
0.9999808436946582
 10
-1283.9301978836438
 20
5487.5051040115759
 30
0.0
 41
1.0
 10
-1284.0215594722863
 20
5487.2360185803072
 30
0.0
 41
0.9999873932900217
 10
-1284.1102141809802
 20
5486.9660292253693
 30
0.0
 41
1.0
 10
-1284.1303065378611
 20
5486.9048398925806
 30
0.0
 41
1.0
 10
-1284.150398894742
 20
5486.8436505597929
 30
0.0
 41
1.0
 10
-1284.2792383172043
 20
5486.4512825392585
 30
0.0
 41
0.999979488303692
 10
-1284.4030411021583
 20
5486.0572963329914
 30
0.0
 41
1.0
 10
-1284.4141933615849
 20
5486.0218057227885
 30
0.0
 41
1.0
 10
-1284.4253456210115
 20
5485.9863151125865
 30
0.0
 41
1.0
 10
-1284.567903784915
 20
5485.5326423604802
 30
0.0
 41
0.9999982761771349
 10
-1284.7087762249446
 20
5485.0784433383124
 30
0.0
 41
1.0
 10
-1286.2969165575173
 20
5480.0296736073087
 30
0.0
 41
1.0
 10
-1287.8850568900898
 20
5474.980903876306
 30
0.0
 41
1.0
 10
-1288.8338075015663
 20
5474.980903876306
 30
0.0
 41
1.0
 10
-1289.7825581130426
 20
5474.980903876306
 30
0.0
 41
1.0
 10
-1286.5442736268892
 20
5485.3082260762521
 30
0.0
 41
1.0
 10
-1283.3059891407361
 20
5495.6355482761983
 30
0.0
 41
1.0
  0
LWPOLYLINE
  5
5E
100
AcDbEntity
  8
0
370
              15
390
0
  6
Continuous
 62
               7
100
AcDbPolyline
 90
      232
 70
             128
 10
-1309.0095349145631
 20
5494.5512054446826
 42
0.0004370800650841
 10
-1309.0624120884152
 20
5494.4825388057134
 10
-1309.1016963197626
 20
5494.4314316925302
 42
0.0030481992150516
 10
-1309.2320350369196
 20
5494.2597100001358
 10
-1309.2705467086323
 20
5494.2083232163977
 42
0.0042058245738063
 10
-1309.4745317592708
 20
5493.9313174713679
 10
-1309.5269368818028
 20
5493.8588846245439
 42
0.0120948898728543
 10
-1309.8229807985535
 20
5493.4281350200108
 10
-1309.9191732976917
 20
5493.2806542847611
 42
0.0141601263954271
 10
-1310.2228173446083
 20
5492.7849849480344
 10
-1310.2623546120317
 20
5492.7161409806076
 42
0.0071131081290909
 10
-1310.4676269352726
 20
5492.3466381817643
 42
0.0068458791009287
 10
-1310.6625064621105
 20
5491.9715466182979
 10
-1310.6693183245734
 20
5491.957984904564
 42
0.006412088028406
 10
-1310.8674605746123
 20
5491.5505604296577
 10
-1310.8749952601347
 20
5491.5345485729249
 42
0.0058857236446114
 10
-1311.0777506520024
 20
5491.090172461898
 10
-1311.0859255783002
 20
5491.0716823082548
 42
0.0053189741907717
 10
-1311.2946298909801
 20
5490.585718834308
 10
-1311.3033776966492
 20
5490.5647369561411
 42
0.0047503650406207
 10
-1311.5193514228033
 20
5490.032537522924
 10
-1311.5286196711481
 20
5490.009061146824
 42
0.0042071762166343
 10
-1311.753167054876
 20
5489.4259675527528
 10
-1311.7629164572245
 20
5489.4000013778841
 42
0.0036680086493301
 10
-1311.9973711005489
 20
5488.7613659933195
 10
-1312.0075788803845
 20
5488.7329174590086
 42
0.0032573142628936
 10
-1312.2532111663459
 20
5488.0340647992707
 10
-1312.3218616872014
 20
5487.8346017151744
 42
0.0026133366649218
 10
-1312.6703068859497
 20
5486.8047384315305
 10
-1312.7335636734574
 20
5486.6145075961158
 42
0.0020592950745697
 10
-1312.9474267424175
 20
5485.9624039435239
 10
-1312.9504785335951
 20
5485.9529674550695
 42
0.0025609928540674
 10
-1313.1522990350663
 20
5485.3178222327488
 10
-1313.1548904021795
 20
5485.3095198918518
 42
0.0031362356244478
 10
-1313.3443811878701
 20
5484.6887570356284
 10
-1313.3465122308073
 20
5484.6816157293842
 42
0.0037229918036218
 10
-1313.5233126177238
 20
5484.0726304274431
 10
-1313.5249912069271
 20
5484.0666835372795
 42
0.0043077623708845
 10
-1313.6887320089954
 20
5483.4668648054994
 42
0.0047654161824243
 10
-1313.8415607315073
 20
5482.8641787166134
 10
-1313.8760253403505
 20
5482.7226169394471
 42
0.011296936845069
 10
-1314.0718896984943
 20
5481.8309247788211
 10
-1314.0998960875907
 20
5481.6880967327252
 42
0.0130056762572903
 10
-1314.3007333312371
 20
5480.5011556610807
 10
-1314.3212730813846
 20
5480.357077547601
 42
0.0138721532153255
 10
-1314.4249760859223
 20
5479.4502480617775
 10
-1314.4442715738312
 20
5479.2267503398407
 42
0.0071254697020807
 10
-1314.4776182197529
 20
5478.7635633310056
 10
-1314.4825791939184
 20
5478.6775593364082
 42
0.0028881799193803
 10
-1314.497717487206
 20
5478.3858176266021
 42
0.0060297297146851
 10
-1314.5076496869813
 20
5478.0938686904856
 10
-1314.5087119686484
 20
5478.0454763185544
 42
0.0229523164148617
 10
-1314.5009809408627
 20
5477.7227214722716
 10
-1314.4967551673424
 20
5477.6623179382541
 42
0.0123673300677959
 10
-1314.4776765208239
 20
5477.4611972130806
 42
0.0128577674473756
 10
-1314.4484811304171
 20
5477.2612993631492
 10
-1314.4413552570309
 20
5477.2199705485564
 42
0.0285717853745867
 10
-1314.3768612553351
 20
5476.9418543972433
 10
-1314.3631927316685
 20
5476.8951996277665
 42
0.0316283099165442
 10
-1314.2473821517544
 20
5476.5761851259404
 10
-1314.2443334599991
 20
5476.5691987536147
 42
0.0338984824238123
 10
-1314.0949017490318
 20
5476.2816327894252
 10
-1314.0925930196636
 20
5476.2778417601521
 42
0.0350228718354006
 10
-1313.9102327289884
 20
5476.0207897754735
 10
-1313.9093474772126
 20
5476.0197106977084
 42
0.034747674753662
 10
-1313.6949227899731
 20
5475.7925256504896
 42
0.0331337701917629
 10
-1313.4516794642279
 20
5475.5963969884124
 10
-1313.4505793657106
 20
5475.595624285239
 42
0.0305233319093861
 10
-1313.1820346701368
 20
5475.4304961151474
 10
-1313.1788046256361
 20
5475.4287721032852
 42
0.0273744481188093
 10
-1312.886250914049
 20
5475.2926339593896
 10
-1312.8811463789243
 20
5475.2905903749252
 42
0.0240964406194527
 10
-1312.565669303279
 20
5475.1816066486435
 10
-1312.5590859740687
 20
5475.1796819089686
 42
0.0209636179831132
 10
-1312.2216858214263
 20
5475.0962137610386
 10
-1312.2140533609672
 20
5475.0946618480348
 42
0.0181388704690533
 10
-1311.8557309689509
 20
5475.0352457548188
 10
-1311.8474501205906
 20
5475.0341795710037
 42
0.0156086547590251
 10
-1311.4692627564193
 20
5474.9974433844282
 10
-1311.4260675040969
 20
5474.9946048819493
 42
0.0137148329006615
 10
-1311.0983943587757
 20
5474.9820846266966
 10
-1311.0524581688396
 20
5474.9815901935817
 42
0.0051057823889519
 10
-1310.8163125822575
 20
5474.9814599391721
 42
0.0052256693323491
 10
-1310.5802152984775
 20
5474.9862087636366
 10
-1310.5099885147297
 20
5474.9883557296507
 42
0.0161507179045717
 10
-1310.1342514366152
 20
5475.0120060999789
 10
-1310.1142384762552
 20
5475.0139162952655
 42
0.0101216737841752
 10
-1309.7002112547675
 20
5475.0619092256302
 10
-1309.6661579653378
 20
5475.0665569224402
 42
0.0245291776407615
 10
-1309.1893683097937
 20
5475.1556320005147
 10
-1309.1045449942478
 20
5475.1758279208652
 42
0.014350921254976
 10
-1308.7479138903232
 20
5475.2716325546407
 42
0.0156557857034217
 10
-1308.3976978256135
 20
5475.3886437704523
 10
-1308.3901966111011
 20
5475.3914139322133
 42
0.0170137333621653
 10
-1308.0336006154175
 20
5475.5370715470863
 10
-1308.0264966930122
 20
5475.5402593826493
 42
0.0183105364415884
 10
-1307.6671470248423
 20
5475.7175944244746
 10
-1307.6602002602071
 20
5475.7213448593448
 42
0.019489995814199
 10
-1307.3017195192131
 20
5475.9333238412419
 10
-1307.2947056398866
 20
5475.9378491835305
 42
0.020486985294295
 10
-1306.9406913377939
 20
5476.1873691986157
 10
-1306.9334257292055
 20
5476.1929492639647
 42
0.0212516938553525
 10
-1306.5874357981058
 20
5476.4828532608526
 10
-1306.5409191040267
 20
5476.5253205709496
 42
0.0215248918252356
 10
-1306.2808929351343
 20
5476.7840848499482
 10
-1306.2358632007515
 20
5476.8329289713001
 42
0.0114578554960932
 10
-1306.0810710470764
 20
5477.0087519047556
 10
-1306.0698765111072
 20
5477.0220706682803
 42
0.0061531305124129
 10
-1305.9434018650954
 20
5477.1763602016072
 42
0.0006325587113389
 10
-1305.819023380735
 20
5477.332363577545
 10
-1305.7959832458921
 20
5477.3613370979419
 42
0.0041897761554786
 10
-1305.6275278419205
 20
5477.5768564740019
 10
-1305.5690657220271
 20
5477.6529578209893
 42
0.0092993880038372
 10
-1305.2924537948054
 20
5478.0272365848705
 10
-1305.2100593016039
 20
5478.1431735884426
 42
0.0159321727087368
 10
-1304.8634528189621
 20
5478.6653478091976
 10
-1304.8190966835725
 20
5478.7370273734487
 42
0.0085547317020271
 10
-1304.5845849182474
 20
5479.1309023226731
 42
0.0084601156889279
 10
-1304.3636087408161
 20
5479.5325291716845
 10
-1304.3554932669749
 20
5479.5478888539783
 42
0.0081429654280543
 10
-1304.1322439965334
 20
5479.9876103665265
 10
-1304.1233838323533
 20
5480.0057892085379
 42
0.0076574581336191
 10
-1303.896976321791
 20
5480.4889720837809
 10
-1303.8874966810631
 20
5480.5100365620938
 42
0.007068272419734
 10
-1303.6570517732603
 20
5481.0420738668654
 10
-1303.6470614892746
 20
5481.0660630558868
 42
0.0064559514443706
 10
-1303.4117282811035
 20
5481.6523753223782
 10
-1303.4013189229279
 20
5481.6793102478478
 42
0.0058311413912623
 10
-1303.1602721861561
 20
5482.3253423422566
 10
-1303.1495171087777
 20
5482.3552266833922
 42
0.0052312425828051
 10
-1302.9019358307319
 20
5483.0664290972418
 10
-1302.8908919943569
 20
5483.0992558092967
 42
0.0046680544797392
 10
-1302.635963566624
 20
5483.8810821250463
 10
-1302.5939714165863
 20
5484.0140653623193
 42
0.0041666856438079
 10
-1302.3906854041838
 20
5484.6770341373485
 10
-1302.3530229635574
 20
5484.8036152448767
 42
0.0015170975142135
 10
-1302.231836385107
 20
5485.2154835964957
 42
-0.0004887993104819
 10
-1302.1114966120012
 20
5485.6276020084797
 10
-1302.0350193544889
 20
5485.8885593944797
 42
0.0002583378928119
 10
-1301.7618047846909
 20
5486.8226160967461
 10
-1301.6800319349213
 20
5487.1027153569903
 42
0.0006636169668597
 10
-1301.4861641748366
 20
5487.7700682808281
 10
-1301.4810675204776
 20
5487.7876998637503
 42
0.0010589131318872
 10
-1301.299618819573
 20
5488.4204312067577
 10
-1301.2946367491109
 20
5488.4379441137135
 42
0.0015655524464142
 10
-1301.1263665419096
 20
5489.036560792978
 10
-1301.1215363414938
 20
5489.0539529519174
 42
0.0021640440468757
 10
-1300.9672463695088
 20
5489.6189799699323
 10
-1300.9626121500812
 20
5489.6362446999174
 42
0.0028763871853498
 10
-1300.8230964320257
 20
5490.1682126507731
 10
-1300.8187105678483
 20
5490.185336628967
 42
0.0037310511943836
 10
-1300.6947538760217
 20
5490.6847842229517
 10
-1300.6906786557367
 20
5490.7017444941803
 42
0.0047652197774129
 10
-1300.5830547552241
 20
5491.1692222625024
 10
-1300.5793641559032
 20
5491.1859818176408
 42
0.0060276699284833
 10
-1300.4888340567472
 20
5491.6220576127962
 10
-1300.4856153664603
 20
5491.6385588270941
 42
0.0075824337763718
 10
-1300.4129260570426
 20
5492.0438259915318
 10
-1300.4102806796598
 20
5492.0599809389978
 42
0.0095130624621759
 10
-1300.3561654440311
 20
5492.4350702920538
 10
-1300.3491792201498
 20
5492.4910038501603
 42
0.0121054653224046
 10
-1300.3225878895705
 20
5492.7558996786447
 10
-1300.3217213998109
 20
5492.7673031215745
 42
0.0069050827388168
 10
-1300.3066325817736
 20
5493.0102443484175
 10
-1300.3054972821051
 20
5493.0337706054634
 42
0.0169063976725064
 10
-1300.3026700031246
 20
5493.229963332763
 10
-1300.3038406546557
 20
5493.2902990941038
 42
0.0052007732912088
 10
-1300.3060941032488
 20
5493.3658924842639
 42
0.005403812329327
 10
-1300.3260576150897
 20
5493.4859107802858
 10
-1300.3311434709581
 20
5493.5145692668557
 42
0.0112050460453977
 10
-1300.3665278330177
 20
5493.6908957051992
 10
-1300.3843527950573
 20
5493.7704372919152
 42
0.0240764468015112
 10
-1300.4752501612036
 20
5494.1006743274174
 10
-1300.4938089240172
 20
5494.1572944924128
 42
0.0256812331824675
 10
-1300.6371718442065
 20
5494.5290186986676
 10
-1300.6425812700288
 20
5494.5411500336595
 42
0.0268360501212518
 10
-1300.8120085108776
 20
5494.8721431676786
 10
-1300.8175449185105
 20
5494.8816628379873
 42
0.0274670231733237
 10
-1301.009745894926
 20
5495.1739502129076
 10
-1301.0151271948891
 20
5495.1812293604498
 42
0.027503596710046
 10
-1301.2267000744505
 20
5495.4367452507531
 10
-1301.231769575413
 20
5495.4422243383788
 42
0.0269557673517534
 10
-1301.4591731188566
 20
5495.662866624346
 10
-1301.4639161766418
 20
5495.6669965788087
 42
0.0259124802222523
 10
-1301.70347100807
 20
5495.8546871059589
 10
-1301.708001853254
 20
5495.8578726082906
 42
0.024516215300782
 10
-1301.9559182063467
 20
5496.0146056173999
 10
-1301.9604447526658
 20
5496.0171658145982
 42
0.0229282588826966
 10
-1302.2128643094984
 20
5496.1450340070996
 10
-1302.2176448033422
 20
5496.1471863068646
 42
0.0212984135703164
 10
-1302.4706827557968
 20
5496.2483852241039
 10
-1302.4759870407665
 20
5496.2502487868642
 42
0.0197555462351759
 10
-1302.7257653784893
 20
5496.3270642048283
 42
0.0183511896794579
 10
-1302.9806941039465
 20
5496.3846471117931
 10
-1303.0670593006778
 20
5496.4008499021793
 42
0.0338057877150886
 10
-1303.3525666499359
 20
5496.4346583073202
 10
-1303.4435720549741
 20
5496.4392379625815
 42
0.0091990524509151
 10
-1303.5494191636117
 20
5496.4426138185027
 42
0.0028333980796609
 10
-1303.6553330796266
 20
5496.4434419260197
 10
-1303.656248532654
 20
5496.4434438958433
 42
-0.0023619827825634
 10
-1303.7639945477106
 20
5496.4441847369226
 10
-1303.8003997179358
 20
5496.444607043386
 42
0.0008824598464067
 10
-1303.9809557077745
 20
5496.446382821624
 10
-1304.0248171401915
 20
5496.4467367831494
 42
0.0038132665767546
 10
-1304.2931000359968
 20
5496.4468557192158
 10
-1304.3096336908638
 20
5496.4467369530721
 42
0.0060665569341528
 10
-1304.6109141824425
 20
5496.4409166536525
 10
-1304.6251645144805
 20
5496.4404683456842
 42
0.0080356953319499
 10
-1304.9546232308098
 20
5496.4248006236185
 10
-1304.966693245907
 20
5496.424032040677
 42
0.0098996399098316
 10
-1305.319456330564
 20
5496.394546811478
 10
-1305.3295020399325
 20
5496.39350651528
 42
0.011774098138369
 10
-1305.7006588982842
 20
5496.3462142677499
 10
-1305.7088815947639
 20
5496.3449691511796
 42
0.0137435215120933
 10
-1306.0934704142542
 20
5496.2758721776172
 10
-1306.1001274533724
 20
5496.2744862813843
 42
0.0158359869386374
 10
-1306.4931245471564
 20
5496.1795941929086
 10
-1306.498537734042
 20
5496.1781042520333
 42
0.0180554124037755
 10
-1306.8948527786681
 20
5496.0534662357895
 10
-1306.8994095667376
 20
5496.0518501995284
 42
0.0203657431283757
 10
-1307.2938870845419
 20
5495.8935898580157
 10
-1307.2980306235563
 20
5495.891728236571
 42
0.0226819684643334
 10
-1307.6854666797653
 20
5495.6960856578962
 10
-1307.6896664707783
 20
5495.6937200659795
 42
0.0248634984611262
 10
-1308.0648484119513
 20
5495.4570934200374
 10
-1308.1130433407452
 20
5495.4232363782048
 42
0.0267044190887478
 10
-1308.3873360376599
 20
5495.2077960023389
 42
0.0139303002208268
 10
-1308.6435032036095
 20
5494.9705571614159
 10
-1308.6483565893195
 20
5494.9658044985663
 42
0.0283460963439879
 10
-1308.8924291835501
 20
5494.698073838118
 10
-1308.9320976887034
 20
5494.6492722606481
 42
0.0070695364811628
 10
-1309.0095349145631
 20
5494.5512054446826
 42
0.0070695364811628
  0
LWPOLYLINE
  5
5F
100
AcDbEntity
  8
0
370
              15
390
0
  6
Continuous
 62
               7
100
AcDbPolyline
 90
      226
 70
             128
 10
-1312.5383553518095
 20
5478.8296166384989
 42
-0.0026277636560264
 10
-1312.5384332356093
 20
5478.8963885643079
 10
-1312.5382158773775
 20
5478.9495437816859
 42
-0.0088680296732015
 10
-1312.5344392610848
 20
5479.1225595640808
 10
-1312.5320929019722
 20
5479.1818395895425
 42
-0.0077381705632662
 10
-1312.5160467912099
 20
5479.4731000853253
 10
-1312.5151788800358
 20
5479.4853883190244
 42
-0.0068872530562246
 10
-1312.4885468002899
 20
5479.8006100710709
 10
-1312.4873425761016
 20
5479.8128510501119
 42
-0.0062130021484181
 10
-1312.4497488592742
 20
5480.1517207413481
 10
-1312.4482449557386
 20
5480.163894613268
 42
-0.0056726929671455
 10
-1312.3993230962369
 20
5480.526089835379
 10
-1312.3975496505921
 20
5480.5381836356264
 42
-0.0052341884498322
 10
-1312.3369390643336
 20
5480.9233768911354
 10
-1312.3349210755555
 20
5480.9353818211366
 42
-0.0049768450170013
 10
-1312.2621823941272
 20
5481.3432263885798
 10
-1312.2379333794074
 20
5481.4717743715755
 42
-0.0089029805620627
 10
-1312.1008525276093
 20
5482.1335498190128
 10
-1312.068107152294
 20
5482.2785812495213
 42
-0.0080318257102556
 10
-1311.8385585379538
 20
5483.2242908813732
 10
-1311.826573611505
 20
5483.270421516565
 42
-0.0074265721326375
 10
-1311.5425620726573
 20
5484.3004860949386
 10
-1311.5226825295381
 20
5484.3686201555365
 42
-0.006971192270337
 10
-1311.1953779510318
 20
5485.4348878958626
 10
-1311.1354260039336
 20
5485.6209092542113
 42
-0.0052070422893944
 10
-1310.906000778667
 20
5486.3081813312647
 10
-1310.8887195864277
 20
5486.3582086120759
 42
-0.0009167004447636
 10
-1310.6856276992053
 20
5486.9426644600353
 42
-0.002516272694371
 10
-1310.4785300689432
 20
5487.525705724197
 10
-1310.4413054571264
 20
5487.6288552701335
 42
-0.002821268145318
 10
-1310.1931295381742
 20
5488.304585902275
 10
-1310.1832987754306
 20
5488.3308933469334
 42
-0.0031964916820394
 10
-1309.9470065177611
 20
5488.9510981090789
 10
-1309.9373720637645
 20
5488.9759080992162
 42
-0.0036281836457492
 10
-1309.712266102661
 20
5489.5433487801156
 10
-1309.7028276925009
 20
5489.5666462116251
 42
-0.0041269166829974
 10
-1309.4882099958445
 20
5490.0840871075961
 10
-1309.455577039434
 20
5490.1609655539332
 42
-0.0047472213052778
 10
-1309.29853223387
 20
5490.5213870218413
 10
-1309.2916381526857
 20
5490.5368076191198
 42
-0.002565165998958
 10
-1309.1432801188116
 20
5490.8641356749213
 42
-0.005714463500282
 10
-1308.9895304250251
 20
5491.1889453483145
 10
-1308.9614997196381
 20
5491.2464537306796
 42
-0.0065388068372597
 10
-1308.7780326918994
 20
5491.6106862273427
 10
-1308.7695742361316
 20
5491.6269458066918
 42
-0.0074510843038796
 10
-1308.5933919902429
 20
5491.9536340878349
 10
-1308.5852123197169
 20
5491.9682748650948
 42
-0.0084648979848022
 10
-1308.4155784666118
 20
5492.2601838760656
 10
-1308.4077223401232
 20
5492.2731908677169
 42
-0.0095638542811844
 10
-1308.2438868925296
 20
5492.5330797396946
 10
-1308.2364119488664
 20
5492.5444491011367
 42
-0.0107191626791488
 10
-1308.0776103684702
 20
5492.7750603356944
 10
-1308.0705936347354
 20
5492.7847964280645
 42
-0.0118458573886919
 10
-1307.9160455362266
 20
5492.9888686233699
 42
-0.0129184518187969
 10
-1307.7515929126378
 20
5493.1850291395258
 10
-1307.7214481402532
 20
5493.2191552184495
 42
-0.0217742579614321
 10
-1307.5448358179267
 20
5493.4023619886893
 10
-1307.5340902734888
 20
5493.4125788218707
 42
-0.0097266568657985
 10
-1307.3680326546105
 20
5493.5644263963295
 42
-0.0187720905719225
 10
-1307.1936850787204
 20
5493.7064952497194
 10
-1307.1629790880572
 20
5493.7296543321072
 42
-0.0179428207540073
 10
-1306.9305583680507
 20
5493.8922065092265
 10
-1306.9269060411289
 20
5493.8945704441185
 42
-0.0170047877693063
 10
-1306.6911424036045
 20
5494.0360309582666
 10
-1306.6873594148599
 20
5494.0381292633019
 42
-0.0160190788335881
 10
-1306.4504508672226
 20
5494.1597805652909
 42
-0.0151102861487043
 10
-1306.2064190847591
 20
5494.2664633413515
 10
-1306.1540325825642
 20
5494.2875034742392
 42
-0.027194544188829
 10
-1305.7953700234993
 20
5494.409368284947
 10
-1305.7263052230242
 20
5494.4287178262102
 42
-0.0237596594030676
 10
-1305.3105083759954
 20
5494.5241685381934
 10
-1305.2424455222676
 20
5494.53642322632
 42
-0.0213715440563486
 10
-1304.9565705908196
 20
5494.5753702578304
 10
-1304.8964234245761
 20
5494.5809599725335
 42
-0.0101465655792871
 10
-1304.7289308926074
 20
5494.5931035157955
 10
-1304.7195905063984
 20
5494.5935904307935
 42
-0.0100375910833624
 10
-1304.5704364058467
 20
5494.5983662487179
 10
-1304.5601771361894
 20
5494.5984886877322
 42
-0.0103625633372612
 10
-1304.4314691415116
 20
5494.5973572542052
 10
-1304.4092034902551
 20
5494.596699895741
 42
-0.0115689250195773
 10
-1304.3251527527166
 20
5494.5922703894958
 42
-0.0072438037390618
 10
-1304.2413144732764
 20
5494.5846811897463
 10
-1304.2245139638046
 20
5494.5829146470223
 42
-0.0217917313101962
 10
-1304.1079442004939
 20
5494.5654947543017
 10
-1304.0423441099258
 20
5494.5527481458867
 42
-0.0332943556772266
 10
-1303.8379519448961
 20
5494.4987078545792
 10
-1303.807779376343
 20
5494.4885397774597
 42
-0.0184824084770001
 10
-1303.6692743198805
 20
5494.4360887620742
 42
-0.0198002050719514
 10
-1303.5351999793847
 20
5494.3732047018766
 10
-1303.5333133420045
 20
5494.3722269149948
 42
-0.0212242342970392
 10
-1303.4011743995918
 20
5494.2964641761955
 10
-1303.3993591040589
 20
5494.2953183739937
 42
-0.0226090605813841
 10
-1303.2708552028398
 20
5494.2058387304305
 10
-1303.2690107610997
 20
5494.2044264774413
 42
-0.0238457052272888
 10
-1303.1458286798029
 20
5494.1004305815759
 10
-1303.1438759512478
 20
5494.0986157038133
 42
-0.0248160564151002
 10
-1303.0276744439439
 20
5493.9793411026003
 10
-1303.0255708105451
 20
5493.9769557688996
 42
-0.0254109591477426
 10
-1302.9179655926803
 20
5493.8416673829379
 10
-1302.9157175707651
 20
5493.8385258345352
 42
-0.0255528488272442
 10
-1302.818270891969
 20
5493.6864987803028
 10
-1302.8159397920517
 20
5493.6824171686931
 42
-0.025214679320374
 10
-1302.7301587660431
 20
5493.5129149226977
 10
-1302.727856526885
 20
5493.5077328407833
 42
-0.0244265635958552
 10
-1302.6552018331238
 20
5493.319986268737
 10
-1302.645955431655
 20
5493.2921208503985
 42
-0.0231319612906095
 10
-1302.6000326526632
 20
5493.1288198035973
 42
-0.0112130424342099
 10
-1302.5653966301245
 20
5492.9626162034074
 10
-1302.5641941050123
 20
5492.9561196165214
 42
-0.0210527881240196
 10
-1302.538507629642
 20
5492.775063971083
 10
-1302.5349970348198
 20
5492.7396584225326
 42
-0.0190029892438299
 10
-1302.5195555612752
 20
5492.4861225762625
 10
-1302.5187455848311
 20
5492.4506469618918
 42
-0.0137974553666123
 10
-1302.5202944376663
 20
5492.1256155551691
 10
-1302.5211398926222
 20
5492.0994968105633
 42
-0.0081336634217547
 10
-1302.5359992278447
 20
5491.7941493429662
 42
-0.007352692357214
 10
-1302.5603077612182
 20
5491.4894010986936
 10
-1302.5615691850021
 20
5491.4760644240141
 42
-0.0066886138703149
 10
-1302.5973047710479
 20
5491.1454783805229
 10
-1302.5989618605186
 20
5491.1318567615253
 42
-0.0061359187343505
 10
-1302.6468124625685
 20
5490.7750927814304
 10
-1302.6488499636421
 20
5490.7611979785961
 42
-0.0056698610056705
 10
-1302.7095002944066
 20
5490.3779194097742
 10
-1302.7119057277323
 20
5490.3637602905274
 42
-0.0052721077289291
 10
-1302.7860379285307
 20
5489.9536329508574
 10
-1302.7888010773738
 20
5489.9392163154644
 42
-0.004928927217677
 10
-1302.8770951954725
 20
5489.5019078043479
 10
-1302.8802076901563
 20
5489.4872389515258
 42
-0.0047415956716913
 10
-1302.9834456816868
 20
5489.022442194123
 10
-1303.0182138920484
 20
5488.8726350987326
 42
-0.0084404470906323
 10
-1303.2082303356169
 20
5488.1124110742139
 10
-1303.2143570236058
 20
5488.0895469500483
 42
-0.0039635940255384
 10
-1303.4358107079004
 20
5487.2885580857637
 10
-1303.4491875030694
 20
5487.2416264692092
 42
-0.0072475040843122
 10
-1303.716634390933
 20
5486.3524067528178
 10
-1303.7868467177557
 20
5486.1306664028598
 42
-0.0051345458836168
 10
-1304.0736060898189
 20
5485.2563412150348
 10
-1304.0951323566023
 20
5485.1929149478583
 42
-0.0019150016596779
 10
-1304.350665763453
 20
5484.4493658276788
 10
-1304.3571333678597
 20
5484.4307783627273
 42
-0.0021524362754267
 10
-1304.6056114189132
 20
5483.7264525410501
 10
-1304.6148218395858
 20
5483.7006989628153
 42
-0.0024331286819358
 10
-1304.8510770986454
 20
5483.0500996546307
 10
-1304.8601250512224
 20
5483.0255563482042
 42
-0.0027449721792191
 10
-1305.0847396220315
 20
5482.4264264693511
 10
-1305.0936296294203
 20
5482.4031038795083
 42
-0.0031083229768222
 10
-1305.3071721160336
 20
5481.853179841919
 10
-1305.3159082477125
 20
5481.8310901260529
 42
-0.0035311343286983
 10
-1305.518949433301
 20
5481.3281070003313
 10
-1305.5275347724298
 20
5481.3072642768675
 42
-0.0040245640941394
 10
-1305.7206465762431
 20
5480.8489549542282
 10
-1305.729082689842
 20
5480.829375586166
 42
-0.0046015135851296
 10
-1305.9128389830098
 20
5480.4134705565139
 10
-1305.9211251608535
 20
5480.3951734170278
 42
-0.005276863826395
 10
-1306.0961026797936
 20
5480.0194005327921
 10
-1306.1042348904002
 20
5480.0024071942917
 42
-0.0060672675661853
 10
-1306.2710145031865
 20
5479.664491571134
 10
-1306.2789839836591
 20
5479.6488263121546
 42
-0.0069904648878781
 10
-1306.4381523776697
 20
5479.3464905054734
 10
-1306.4459437772953
 20
5479.3321799562191
 42
-0.0080637022759529
 10
-1306.5980956376263
 20
5479.0631446530933
 10
-1306.6056846702484
 20
5479.0502167875084
 42
-0.0093006455673573
 10
-1306.7514253467891
 20
5478.8122023889891
 10
-1306.7587760135309
 20
5478.8006844198189
 42
-0.0107060778050207
 10
-1306.8987245569713
 20
5478.5914141024368
 10
-1306.905786325256
 20
5478.5813285598633
 42
-0.012272311141835
 10
-1307.0405800434489
 20
5478.3985352303825
 10
-1307.0409062669955
 20
5478.3981148425828
 42
-0.0141836319651487
 10
-1307.1844878699771
 20
5478.2235450847429
 10
-1307.1914356256211
 20
5478.2155700844878
 42
-0.0175957477237572
 10
-1307.3313417936638
 20
5478.0659491960741
 42
-0.0080466359689515
 10
-1307.4788055586862
 20
5477.92362666793
 10
-1307.5248401032113
 20
5477.8806062298318
 42
-0.0269600260399952
 10
-1307.7781203491948
 20
5477.6682829713218
 10
-1307.8446874854953
 20
5477.618331556695
 42
-0.017836283973648
 10
-1308.0846319751472
 20
5477.4513136304449
 10
-1308.0918769461484
 20
5477.4466451182398
 42
-0.0174650732652361
 10
-1308.328213143589
 20
5477.3057841532809
 42
-0.0169240130161801
 10
-1308.5736793894312
 20
5477.1814918935106
 10
-1308.6196655450044
 20
5477.1601299379363
 42
-0.0318883036833749
 10
-1308.9700164006283
 20
5477.023791628425
 10
-1309.0383819357912
 20
5477.0020910079502
 42
-0.0284435909889833
 10
-1309.4144320620803
 20
5476.9058735724766
 10
-1309.4495902225665
 20
5476.8989799766505
 42
-0.0243909341027397
 10
-1309.7630336834977
 20
5476.8532589456181
 10
-1309.8133144102862
 20
5476.8484133987149
 42
-0.0196639292923409
 10
-1310.0289099877959
 20
5476.8361651132036
 10
-1310.0807340589502
 20
5476.8352618524668
 42
-0.0100501510673813
 10
-1310.1931573406237
 20
5476.8355622508188
 10
-1310.2248172019147
 20
5476.8362833227029
 42
-0.0019752031059856
 10
-1310.2739095386491
 20
5476.8375954829135
 10
-1310.27666984186
 20
5476.837680174739
 42
0.0065378752080624
 10
-1310.3202464166261
 20
5476.8384470659548
 42
-0.0167974694562604
 10
-1310.3637772395491
 20
5476.8401069644806
 10
-1310.36785657882
 20
5476.8403999753764
 42
-0.0081283276191334
 10
-1310.4194163765815
 20
5476.8449469690158
 10
-1310.4311559504372
 20
5476.8461748865921
 42
-0.0126703440172611
 10
-1310.5058742462211
 20
5476.8559096776626
 10
-1310.5286621139076
 20
5476.8594679335793
 42
-0.0117852088441407
 10
-1310.6482010997511
 20
5476.8810309287392
 10
-1310.7035815515028
 20
5476.892374468971
 42
-0.0251774592310427
 10
-1310.9304255905076
 20
5476.9508724784037
 10
-1310.9751447803837
 20
5476.9648392977469
 42
-0.0146525199865328
 10
-1311.1615377679002
 20
5477.0291058249377
 42
-0.0166929435892707
 10
-1311.343515424009
 20
5477.1049129579842
 10
-1311.3481720553
 20
5477.1070378586064
 42
-0.0191684358491125
 10
-1311.5333556865412
 20
5477.2002739423924
 10
-1311.5366882723063
 20
5477.2021151899498
 42
-0.0221181781804293
 10
-1311.719998576209
 20
5477.3142486883207
 10
-1311.7223483802168
 20
5477.3158329863109
 42
-0.0254984685397826
 10
-1311.8986385306046
 20
5477.4482441362834
 10
-1311.9211206782995
 20
5477.4669964452132
 42
-0.0292492648796079
 10
-1312.0458896171472
 20
5477.5840892448596
 42
-0.0159048957509766
 10
-1312.1597296145949
 20
5477.7121092364569
 10
-1312.1610484051766
 20
5477.7136908494795
 42
-0.034381337959235
 10
-1312.2636856668003
 20
5477.8555621752448
 10
-1312.2951771981636
 20
5477.9060655673429
 42
-0.0369117275703581
 10
-1312.3810697000608
 20
5478.0695428082909
 42
-0.0191751379889367
 10
-1312.448263085618
 20
5478.2419474142971
 10
-1312.4500264093774
 20
5478.2470407589717
 42
-0.0378178042198412
 10
-1312.4998211281618
 20
5478.4359815350535
 10
-1312.5058164238917
 20
5478.4685421532477
 42
-0.0184846046459673
 10
-1312.5265336231864
 20
5478.610294973796
 42
-0.0179866351292747
 10
-1312.53686662826
 20
5478.7531857868744
 10
-1312.5369230707058
 20
5478.7547434734888
 42
-0.008549718614115
 10
-1312.5383553518095
 20
5478.8296166384989
 42
-0.008549718614115
  0
ENDBLK
  5
60
100
AcDbEntity
  8
template
390
0
100
AcDbBlockEnd
  0
BLOCK
  5
61
100
AcDbEntity
  8
notes
390
0
100
AcDbBlockBegin
  2
*D4
 70
               1
 10
0.0
 20
0.0
 30
0.0
  3
*D4
  1

  0
LINE
  5
62
100
AcDbEntity
  8
0
370
              -2
390
0
  6
Continuous
 62
               0
100
AcDbLine
 10
685.74845564176144
 20
-609.67331418123649
 30
0.0
 11
685.74845564176144
 21
-690.16729445186957
 31
0.0
  0
LINE
  5
63
100
AcDbEntity
  8
0
370
              -2
390
0
  6
Continuous
 62
               0
100
AcDbLine
 10
455.74845564176121
 20
-609.67331418123649
 30
0.0
 11
455.74845564176121
 21
-690.16729445186957
 31
0.0
  0
LINE
  5
64
100
AcDbEntity
  8
0
370
              -2
390
0
  6
Continuous
 62
               0
100
AcDbLine
 10
685.74845564176144
 20
-690.16729445186957
 30
0.0
 11
455.74845564176121
 21
-690.16729445186957
 31
0.0
  0
CIRCLE
  5
65
102
{ACAD_REACTORS
330
66
102
}
100
AcDbEntity
  8
0
370
              -2
390
0
  6
Continuous
 62
               0
100
AcDbCircle
 10
685.74845564176144
 20
-690.16729445186957
 30
0.0
 40
4.99969482421875
  0
HATCH
  5
66
100
AcDbEntity
  8
0
370
              -2
390
0
  6
Continuous
 62
               0
100
AcDbHatch
 10
0.0
 20
0.0
 30
0.0
210
0.0
220
0.0
230
1.0
  2
SOLID
 70
               1
 71
               1
 91
        1
 92
        1
 93
        1
 72
               2
 10
685.74845564176144
 20
-690.16729445186957
 40
4.99969482421875
 50
0.0
 51
360.0
 73
               0
 97
        1
330
65
 75
               0
 76
               1
 98
        1
 10
0.0
 20
0.0
  0
CIRCLE
  5
67
102
{ACAD_REACTORS
330
68
102
}
100
AcDbEntity
  8
0
370
              -2
390
0
  6
Continuous
 62
               0
100
AcDbCircle
 10
455.74845564176121
 20
-690.16729445186957
 30
0.0
 40
4.99969482421875
  0
HATCH
  5
68
100
AcDbEntity
  8
0
370
              -2
390
0
  6
Continuous
 62
               0
100
AcDbHatch
 10
0.0
 20
0.0
 30
0.0
210
0.0
220
0.0
230
1.0
  2
SOLID
 70
               1
 71
               1
 91
        1
 92
        1
 93
        1
 72
               2
 10
455.74845564176121
 20
-690.16729445186957
 40
4.99969482421875
 50
0.0
 51
360.0
 73
               0
 97
        1
330
67
 75
               0
 76
               1
 98
        1
 10
0.0
 20
0.0
  0
MTEXT
  5
69
100
AcDbEntity
  8
0
390
0
 62
               0
100
AcDbMText
 10
546.93595395958573
 20
-656.28967726436986
 30
0.0
 40
24.432617187500004
 41
0.0
 71
               1
 72
               1
  1
230
  7
ＭＳ ゴシック
 73
               1
 44
0.7828267384257843
  0
POINT
  5
6A
100
AcDbEntity
  8
Defpoints
370
               0
390
0
 62
               0
100
AcDbPoint
 10
455.74845564176121
 20
-584.67331418123649
 30
0.0
  0
POINT
  5
6B
100
AcDbEntity
  8
Defpoints
370
               0
390
0
 62
               0
100
AcDbPoint
 10
685.74845564176144
 20
-584.67331418123649
 30
0.0
  0
POINT
  5
6C
100
AcDbEntity
  8
Defpoints
370
               0
390
0
 62
               0
100
AcDbPoint
 10
685.74845564176144
 20
-690.16729445186957
 30
0.0
  0
ENDBLK
  5
6D
100
AcDbEntity
  8
notes
390
0
100
AcDbBlockEnd
  0
BLOCK
  5
6E
100
AcDbEntity
  8
notes
390
0
100
AcDbBlockBegin
  2
*D5
 70
               1
 10
0.0
 20
0.0
 30
0.0
  3
*D5
  1

  0
LINE
  5
6F
100
AcDbEntity
  8
0
370
              -2
390
0
  6
Continuous
 62
               0
100
AcDbLine
 10
-695.62648988654973
 20
702.75490343168258
 30
0.0
 11
-695.62648988654973
 21
877.75490343168258
 31
0.0
  0
LINE
  5
70
100
AcDbEntity
  8
0
370
              -2
390
0
  6
Continuous
 62
               0
100
AcDbLine
 10
-245.62648988654928
 20
702.75490343168258
 30
0.0
 11
-245.62648988654928
 21
877.75490343168258
 31
0.0
  0
LINE
  5
71
100
AcDbEntity
  8
0
370
              -2
390
0
  6
Continuous
 62
               0
100
AcDbLine
 10
-695.62648988654973
 20
877.75490343168258
 30
0.0
 11
-245.62648988654928
 21
877.75490343168258
 31
0.0
  0
CIRCLE
  5
72
102
{ACAD_REACTORS
330
73
102
}
100
AcDbEntity
  8
0
370
              -2
390
0
  6
Continuous
 62
               0
100
AcDbCircle
 10
-695.62648988654973
 20
877.75490343168258
 30
0.0
 40
4.99969482421875
  0
HATCH
  5
73
100
AcDbEntity
  8
0
370
              -2
390
0
  6
Continuous
 62
               0
100
AcDbHatch
 10
0.0
 20
0.0
 30
0.0
210
0.0
220
0.0
230
1.0
  2
SOLID
 70
               1
 71
               1
 91
        1
 92
        1
 93
        1
 72
               2
 10
-695.62648988654973
 20
877.75490343168258
 40
4.99969482421875
 50
0.0
 51
360.0
 73
               0
 97
        1
330
72
 75
               0
 76
               1
 98
        1
 10
0.0
 20
0.0
  0
CIRCLE
  5
74
102
{ACAD_REACTORS
330
75
102
}
100
AcDbEntity
  8
0
370
              -2
390
0
  6
Continuous
 62
               0
100
AcDbCircle
 10
-245.62648988654928
 20
877.75490343168258
 30
0.0
 40
4.99969482421875
  0
HATCH
  5
75
100
AcDbEntity
  8
0
370
              -2
390
0
  6
Continuous
 62
               0
100
AcDbHatch
 10
0.0
 20
0.0
 30
0.0
210
0.0
220
0.0
230
1.0
  2
SOLID
 70
               1
 71
               1
 91
        1
 92
        1
 93
        1
 72
               2
 10
-245.62648988654928
 20
877.75490343168258
 40
4.99969482421875
 50
0.0
 51
360.0
 73
               0
 97
        1
330
74
 75
               0
 76
               1
 98
        1
 10
0.0
 20
0.0
  0
MTEXT
  5
76
100
AcDbEntity
  8
0
390
0
 62
               0
100
AcDbMText
 10
-494.43899156872476
 20
911.63252061918229
 30
0.0
 40
24.432617187500004
 41
0.0
 71
               1
 72
               1
  1
450
  7
ＭＳ ゴシック
 73
               1
 44
0.7828267384257843
  0
POINT
  5
77
100
AcDbEntity
  8
Defpoints
370
               0
390
0
 62
               0
100
AcDbPoint
 10
-245.62648988654928
 20
677.75490343168258
 30
0.0
  0
POINT
  5
78
100
AcDbEntity
  8
Defpoints
370
               0
390
0
 62
               0
100
AcDbPoint
 10
-695.62648988654973
 20
677.75490343168258
 30
0.0
  0
POINT
  5
79
100
AcDbEntity
  8
Defpoints
370
               0
390
0
 62
               0
100
AcDbPoint
 10
-695.62648988654973
 20
877.75490343168258
 30
0.0
  0
ENDBLK
  5
7A
100
AcDbEntity
  8
notes
390
0
100
AcDbBlockEnd
  0
BLOCK
  5
7B
100
AcDbEntity
  8
notes
390
0
100
AcDbBlockBegin
  2
*D6
 70
               1
 10
0.0
 20
0.0
 30
0.0
  3
*D6
  1

  0
LINE
  5
7C
100
AcDbEntity
  8
0
370
              -2
390
0
  6
Continuous
 62
               0
100
AcDbLine
 10
-270.62648988654928
 20
727.75490343168258
 30
0.0
 11
-145.62648988654928
 21
727.75490343168258
 31
0.0
  0
LINE
  5
7D
100
AcDbEntity
  8
0
370
              -2
390
0
  6
Continuous
 62
               0
100
AcDbLine
 10
-270.62648988654928
 20
307.75490343168076
 30
0.0
 11
-145.62648988654928
 21
307.75490343168076
 31
0.0
  0
LINE
  5
7E
100
AcDbEntity
  8
0
370
              -2
390
0
  6
Continuous
 62
               0
100
AcDbLine
 10
-145.62648988654928
 20
727.75490343168258
 30
0.0
 11
-145.62648988654928
 21
307.75490343168076
 31
0.0
  0
CIRCLE
  5
7F
102
{ACAD_REACTORS
330
80
102
}
100
AcDbEntity
  8
0
370
              -2
390
0
  6
Continuous
 62
               0
100
AcDbCircle
 10
-145.62648988654928
 20
727.75490343168258
 30
0.0
 40
4.99969482421875
  0
HATCH
  5
80
100
AcDbEntity
  8
0
370
              -2
390
0
  6
Continuous
 62
               0
100
AcDbHatch
 10
0.0
 20
0.0
 30
0.0
210
0.0
220
0.0
230
1.0
  2
SOLID
 70
               1
 71
               1
 91
        1
 92
        1
 93
        1
 72
               2
 10
-145.62648988654928
 20
727.75490343168258
 40
4.99969482421875
 50
0.0
 51
360.0
 73
               0
 97
        1
330
7F
 75
               0
 76
               1
 98
        1
 10
0.0
 20
0.0
  0
CIRCLE
  5
81
102
{ACAD_REACTORS
330
82
102
}
100
AcDbEntity
  8
0
370
              -2
390
0
  6
Continuous
 62
               0
100
AcDbCircle
 10
-145.62648988654928
 20
307.75490343168076
 30
0.0
 40
4.99969482421875
  0
HATCH
  5
82
100
AcDbEntity
  8
0
370
              -2
390
0
  6
Continuous
 62
               0
100
AcDbHatch
 10
0.0
 20
0.0
 30
0.0
210
0.0
220
0.0
230
1.0
  2
SOLID
 70
               1
 71
               1
 91
        1
 92
        1
 93
        1
 72
               2
 10
-145.62648988654928
 20
307.75490343168076
 40
4.99969482421875
 50
0.0
 51
360.0
 73
               0
 97
        1
330
81
 75
               0
 76
               1
 98
        1
 10
0.0
 20
0.0
  0
MTEXT
  5
83
100
AcDbEntity
  8
0
390
0
 62
               0
100
AcDbMText
 10
-179.50410707404944
 20
493.94240174950573
 30
0.0
 40
24.432617187500004
 41
0.0
 71
               1
 72
               1
  1
420
  7
ＭＳ ゴシック
 11
0.0
 21
1.0
 31
0.0
 73
               1
 44
0.7828267384257843
  0
POINT
  5
84
100
AcDbEntity
  8
Defpoints
370
               0
390
0
 62
               0
100
AcDbPoint
 10
-295.62648988654928
 20
307.75490343168076
 30
0.0
  0
POINT
  5
85
100
AcDbEntity
  8
Defpoints
370
               0
390
0
 62
               0
100
AcDbPoint
 10
-295.62648988654928
 20
727.75490343168258
 30
0.0
  0
POINT
  5
86
100
AcDbEntity
  8
Defpoints
370
               0
390
0
 62
               0
100
AcDbPoint
 10
-145.62648988654928
 20
727.75490343168258
 30
0.0
  0
ENDBLK
  5
87
100
AcDbEntity
  8
notes
390
0
100
AcDbBlockEnd
  0
BLOCK
  5
88
100
AcDbEntity
  8
notes
390
0
100
AcDbBlockBegin
  2
*D7
 70
               1
 10
0.0
 20
0.0
 30
0.0
  3
*D7
  1

  0
LINE
  5
89
100
AcDbEntity
  8
0
370
              -2
390
0
  6
Continuous
 62
               0
100
AcDbLine
 10
-670.62648988654973
 20
727.75490343168258
 30
0.0
 11
-795.62648988654973
 21
727.75490343168258
 31
0.0
  0
LINE
  5
8A
100
AcDbEntity
  8
0
370
              -2
390
0
  6
Continuous
 62
               0
100
AcDbLine
 10
-720.62648988654973
 20
647.75514234619641
 30
0.0
 11
-795.62648988654973
 21
647.75514234619641
 31
0.0
  0
LINE
  5
8B
100
AcDbEntity
  8
0
370
              -2
390
0
  6
Continuous
 62
               0
100
AcDbLine
 10
-795.62648988654973
 20
727.75490343168258
 30
0.0
 11
-795.62648988654973
 21
647.75514234619641
 31
0.0
  0
CIRCLE
  5
8C
102
{ACAD_REACTORS
330
8D
102
}
100
AcDbEntity
  8
0
370
              -2
390
0
  6
Continuous
 62
               0
100
AcDbCircle
 10
-795.62648988654973
 20
727.75490343168258
 30
0.0
 40
4.99969482421875
  0
HATCH
  5
8D
100
AcDbEntity
  8
0
370
              -2
390
0
  6
Continuous
 62
               0
100
AcDbHatch
 10
0.0
 20
0.0
 30
0.0
210
0.0
220
0.0
230
1.0
  2
SOLID
 70
               1
 71
               1
 91
        1
 92
        1
 93
        1
 72
               2
 10
-795.62648988654973
 20
727.75490343168258
 40
4.99969482421875
 50
0.0
 51
360.0
 73
               0
 97
        1
330
8C
 75
               0
 76
               1
 98
        1
 10
0.0
 20
0.0
  0
CIRCLE
  5
8E
102
{ACAD_REACTORS
330
8F
102
}
100
AcDbEntity
  8
0
370
              -2
390
0
  6
Continuous
 62
               0
100
AcDbCircle
 10
-795.62648988654973
 20
647.75514234619641
 30
0.0
 40
4.99969482421875
  0
HATCH
  5
8F
100
AcDbEntity
  8
0
370
              -2
390
0
  6
Continuous
 62
               0
100
AcDbHatch
 10
0.0
 20
0.0
 30
0.0
210
0.0
220
0.0
230
1.0
  2
SOLID
 70
               1
 71
               1
 91
        1
 92
        1
 93
        1
 72
               2
 10
-795.62648988654973
 20
647.75514234619641
 40
4.99969482421875
 50
0.0
 51
360.0
 73
               0
 97
        1
330
8E
 75
               0
 76
               1
 98
        1
 10
0.0
 20
0.0
  0
MTEXT
  5
90
100
AcDbEntity
  8
0
390
0
 62
               0
100
AcDbMText
 10
-829.5041070740499
 20
671.88002288893949
 30
0.0
 40
24.432617187500004
 41
0.0
 71
               1
 72
               1
  1
80
  7
ＭＳ ゴシック
 11
0.0
 21
1.0
 31
0.0
 73
               1
 44
0.7828267384257843
  0
POINT
  5
91
100
AcDbEntity
  8
Defpoints
370
               0
390
0
 62
               0
100
AcDbPoint
 10
-695.62648988654973
 20
647.75514234619641
 30
0.0
  0
POINT
  5
92
100
AcDbEntity
  8
Defpoints
370
               0
390
0
 62
               0
100
AcDbPoint
 10
-645.62648988654973
 20
727.75490343168258
 30
0.0
  0
POINT
  5
93
100
AcDbEntity
  8
Defpoints
370
               0
390
0
 62
               0
100
AcDbPoint
 10
-795.62648988654973
 20
727.75490343168258
 30
0.0
  0
ENDBLK
  5
94
100
AcDbEntity
  8
notes
390
0
100
AcDbBlockEnd
  0
BLOCK
  5
95
100
AcDbEntity
  8
notes
390
0
100
AcDbBlockBegin
  2
*D8
 70
               1
 10
0.0
 20
0.0
 30
0.0
  3
*D8
  1

  0
LINE
  5
96
100
AcDbEntity
  8
0
370
              -2
390
0
  6
Continuous
 62
               0
100
AcDbLine
 10
-720.62648988654973
 20
647.75514234619641
 30
0.0
 11
-795.62648988654973
 21
647.75514234619641
 31
0.0
  0
LINE
  5
97
100
AcDbEntity
  8
0
370
              -2
390
0
  6
Continuous
 62
               0
100
AcDbLine
 10
-719.61628474221015
 20
347.75490343168076
 30
0.0
 11
-795.62648988654973
 21
347.75490343168076
 31
0.0
  0
LINE
  5
98
100
AcDbEntity
  8
0
370
              -2
390
0
  6
Continuous
 62
               0
100
AcDbLine
 10
-795.62648988654973
 20
647.75514234619641
 30
0.0
 11
-795.62648988654973
 21
347.75490343168076
 31
0.0
  0
CIRCLE
  5
99
102
{ACAD_REACTORS
330
9A
102
}
100
AcDbEntity
  8
0
370
              -2
390
0
  6
Continuous
 62
               0
100
AcDbCircle
 10
-795.62648988654973
 20
647.75514234619641
 30
0.0
 40
4.99969482421875
  0
HATCH
  5
9A
100
AcDbEntity
  8
0
370
              -2
390
0
  6
Continuous
 62
               0
100
AcDbHatch
 10
0.0
 20
0.0
 30
0.0
210
0.0
220
0.0
230
1.0
  2
SOLID
 70
               1
 71
               1
 91
        1
 92
        1
 93
        1
 72
               2
 10
-795.62648988654973
 20
647.75514234619641
 40
4.99969482421875
 50
0.0
 51
360.0
 73
               0
 97
        1
330
99
 75
               0
 76
               1
 98
        1
 10
0.0
 20
0.0
  0
CIRCLE
  5
9B
102
{ACAD_REACTORS
330
9C
102
}
100
AcDbEntity
  8
0
370
              -2
390
0
  6
Continuous
 62
               0
100
AcDbCircle
 10
-795.62648988654973
 20
347.75490343168076
 30
0.0
 40
4.99969482421875
  0
HATCH
  5
9C
100
AcDbEntity
  8
0
370
              -2
390
0
  6
Continuous
 62
               0
100
AcDbHatch
 10
0.0
 20
0.0
 30
0.0
210
0.0
220
0.0
230
1.0
  2
SOLID
 70
               1
 71
               1
 91
        1
 92
        1
 93
        1
 72
               2
 10
-795.62648988654973
 20
347.75490343168076
 40
4.99969482421875
 50
0.0
 51
360.0
 73
               0
 97
        1
330
9B
 75
               0
 76
               1
 98
        1
 10
0.0
 20
0.0
  0
MTEXT
  5
9D
100
AcDbEntity
  8
0
390
0
 62
               0
100
AcDbMText
 10
-829.5041070740499
 20
473.94252120676265
 30
0.0
 40
24.432617187500004
 41
0.0
 71
               1
 72
               1
  1
300
  7
ＭＳ ゴシック
 11
0.0
 21
1.0
 31
0.0
 73
               1
 44
0.7828267384257843
  0
POINT
  5
9E
100
AcDbEntity
  8
Defpoints
370
               0
390
0
 62
               0
100
AcDbPoint
 10
-694.61628474221015
 20
347.75490343168076
 30
0.0
  0
POINT
  5
9F
100
AcDbEntity
  8
Defpoints
370
               0
390
0
 62
               0
100
AcDbPoint
 10
-695.62648988654973
 20
647.75514234619641
 30
0.0
  0
POINT
  5
A0
100
AcDbEntity
  8
Defpoints
370
               0
390
0
 62
               0
100
AcDbPoint
 10
-795.62648988654973
 20
647.75514234619641
 30
0.0
  0
ENDBLK
  5
A1
100
AcDbEntity
  8
notes
390
0
100
AcDbBlockEnd
  0
BLOCK
  5
A2
100
AcDbEntity
  8
notes
390
0
100
AcDbBlockBegin
  2
*D9
 70
               1
 10
0.0
 20
0.0
 30
0.0
  3
*D9
  1

  0
LINE
  5
A3
100
AcDbEntity
  8
0
370
              -2
390
0
  6
Continuous
 62
               0
100
AcDbLine
 10
-655.62467817650031
 20
283.7647387971474
 30
0.0
 11
-655.62467817650031
 21
207.75490343168167
 31
0.0
  0
LINE
  5
A4
100
AcDbEntity
  8
0
370
              -2
390
0
  6
Continuous
 62
               0
100
AcDbLine
 10
-285.62334784861469
 20
283.76575004678398
 30
0.0
 11
-285.62334784861469
 21
207.75490343168167
 31
0.0
  0
LINE
  5
A5
100
AcDbEntity
  8
0
370
              -2
390
0
  6
Continuous
 62
               0
100
AcDbLine
 10
-655.62467817650031
 20
207.75490343168167
 30
0.0
 11
-285.62334784861469
 21
207.75490343168167
 31
0.0
  0
CIRCLE
  5
A6
102
{ACAD_REACTORS
330
A7
102
}
100
AcDbEntity
  8
0
370
              -2
390
0
  6
Continuous
 62
               0
100
AcDbCircle
 10
-655.62467817650031
 20
207.75490343168167
 30
0.0
 40
4.99969482421875
  0
HATCH
  5
A7
100
AcDbEntity
  8
0
370
              -2
390
0
  6
Continuous
 62
               0
100
AcDbHatch
 10
0.0
 20
0.0
 30
0.0
210
0.0
220
0.0
230
1.0
  2
SOLID
 70
               1
 71
               1
 91
        1
 92
        1
 93
        1
 72
               2
 10
-655.62467817650031
 20
207.75490343168167
 40
4.99969482421875
 50
0.0
 51
360.0
 73
               0
 97
        1
330
A6
 75
               0
 76
               1
 98
        1
 10
0.0
 20
0.0
  0
CIRCLE
  5
A8
102
{ACAD_REACTORS
330
A9
102
}
100
AcDbEntity
  8
0
370
              -2
390
0
  6
Continuous
 62
               0
100
AcDbCircle
 10
-285.62334784861469
 20
207.75490343168167
 30
0.0
 40
4.99969482421875
  0
HATCH
  5
A9
100
AcDbEntity
  8
0
370
              -2
390
0
  6
Continuous
 62
               0
100
AcDbHatch
 10
0.0
 20
0.0
 30
0.0
210
0.0
220
0.0
230
1.0
  2
SOLID
 70
               1
 71
               1
 91
        1
 92
        1
 93
        1
 72
               2
 10
-285.62334784861469
 20
207.75490343168167
 40
4.99969482421875
 50
0.0
 51
360.0
 73
               0
 97
        1
330
A8
 75
               0
 76
               1
 98
        1
 10
0.0
 20
0.0
  0
MTEXT
  5
AA
100
AcDbEntity
  8
0
390
0
 62
               0
100
AcDbMText
 10
-494.43651469473298
 20
241.63252061918138
 30
0.0
 40
24.432617187500004
 41
0.0
 71
               1
 72
               1
  1
370
  7
ＭＳ ゴシック
 73
               1
 44
0.7828267384257843
  0
POINT
  5
AB
100
AcDbEntity
  8
Defpoints
370
               0
390
0
 62
               0
100
AcDbPoint
 10
-285.62334784861469
 20
308.76575004678398
 30
0.0
  0
POINT
  5
AC
100
AcDbEntity
  8
Defpoints
370
               0
390
0
 62
               0
100
AcDbPoint
 10
-655.62467817650031
 20
308.7647387971474
 30
0.0
  0
POINT
  5
AD
100
AcDbEntity
  8
Defpoints
370
               0
390
0
 62
               0
100
AcDbPoint
 10
-655.62467817650031
 20
207.75490343168167
 30
0.0
  0
ENDBLK
  5
AE
100
AcDbEntity
  8
notes
390
0
100
AcDbBlockEnd
  0
BLOCK
  5
AF
100
AcDbEntity
  8
notes
390
0
100
AcDbBlockBegin
  2
*D10
 70
               1
 10
0.0
 20
0.0
 30
0.0
  3
*D10
  1

  0
LINE
  5
B0
100
AcDbEntity
  8
0
370
              -2
390
0
  6
Continuous
 62
               0
100
AcDbLine
 10
462.12749847083273
 20
-488.16729445186957
 30
0.0
 11
458.7377037807546
 21
-488.16729445186957
 31
0.0
  0
LINE
  5
B1
100
AcDbEntity
  8
0
370
              -2
390
0
  6
Continuous
 62
               0
100
AcDbLine
 10
462.12749847083273
 20
-558.17290305092229
 30
0.0
 11
458.7377037807546
 21
-558.17290305092229
 31
0.0
  0
LINE
  5
B2
100
AcDbEntity
  8
0
370
              -2
390
0
  6
Continuous
 62
               0
100
AcDbLine
 10
458.7377037807546
 20
-488.16729445186957
 30
0.0
 11
458.7377037807546
 21
-356.00107142175239
 31
0.0
  0
LINE
  5
B3
100
AcDbEntity
  8
0
370
              -2
390
0
  6
Continuous
 62
               0
100
AcDbLine
 10
458.7377037807546
 20
-488.16729445186957
 30
0.0
 11
458.7377037807546
 21
-558.17290305092229
 31
0.0
  0
CIRCLE
  5
B4
102
{ACAD_REACTORS
330
B5
102
}
100
AcDbEntity
  8
0
370
              -2
390
0
  6
Continuous
 62
               0
100
AcDbCircle
 10
458.7377037807546
 20
-488.16729445186957
 30
0.0
 40
4.99969482421875
  0
HATCH
  5
B5
100
AcDbEntity
  8
0
370
              -2
390
0
  6
Continuous
 62
               0
100
AcDbHatch
 10
0.0
 20
0.0
 30
0.0
210
0.0
220
0.0
230
1.0
  2
SOLID
 70
               1
 71
               1
 91
        1
 92
        1
 93
        1
 72
               2
 10
458.7377037807546
 20
-488.16729445186957
 40
4.99969482421875
 50
0.0
 51
360.0
 73
               0
 97
        1
330
B4
 75
               0
 76
               1
 98
        1
 10
0.0
 20
0.0
  0
CIRCLE
  5
B6
102
{ACAD_REACTORS
330
B7
102
}
100
AcDbEntity
  8
0
370
              -2
390
0
  6
Continuous
 62
               0
100
AcDbCircle
 10
458.7377037807546
 20
-558.17290305092229
 30
0.0
 40
4.99969482421875
  0
HATCH
  5
B7
100
AcDbEntity
  8
0
370
              -2
390
0
  6
Continuous
 62
               0
100
AcDbHatch
 10
0.0
 20
0.0
 30
0.0
210
0.0
220
0.0
230
1.0
  2
SOLID
 70
               1
 71
               1
 91
        1
 92
        1
 93
        1
 72
               2
 10
458.7377037807546
 20
-558.17290305092229
 40
4.99969482421875
 50
0.0
 51
360.0
 73
               0
 97
        1
330
B6
 75
               0
 76
               1
 98
        1
 10
0.0
 20
0.0
  0
MTEXT
  5
B8
100
AcDbEntity
  8
0
390
0
 62
               0
100
AcDbMText
 10
424.86008659325466
 20
-483.00107142175239
 30
0.0
 40
24.432617187500004
 41
0.0
 71
               1
 72
               1
  1
70(深さ)
  7
ＭＳ ゴシック
 11
0.0
 21
1.0
 31
0.0
 73
               1
 44
0.7828267384257843
  0
POINT
  5
B9
100
AcDbEntity
  8
Defpoints
370
               0
390
0
 62
               0
100
AcDbPoint
 10
437.12749847083273
 20
-558.17290305092229
 30
0.0
  0
POINT
  5
BA
100
AcDbEntity
  8
Defpoints
370
               0
390
0
 62
               0
100
AcDbPoint
 10
437.12749847083273
 20
-488.16729445186957
 30
0.0
  0
POINT
  5
BB
100
AcDbEntity
  8
Defpoints
370
               0
390
0
 62
               0
100
AcDbPoint
 10
458.7377037807546
 20
-488.16729445186957
 30
0.0
  0
ENDBLK
  5
BC
100
AcDbEntity
  8
notes
390
0
100
AcDbBlockEnd
  0
BLOCK
  5
BD
100
AcDbEntity
  8
notes
390
0
100
AcDbBlockBegin
  2
*D11
 70
               1
 10
0.0
 20
0.0
 30
0.0
  3
*D11
  1

  0
LINE
  5
BE
100
AcDbEntity
  8
0
370
              -2
390
0
  6
Continuous
 62
               0
100
AcDbLine
 10
685.74845564176144
 20
-469.27761748954708
 30
0.0
 11
685.74845564176144
 21
-388.17290305092229
 31
0.0
  0
LINE
  5
BF
100
AcDbEntity
  8
0
370
              -2
390
0
  6
Continuous
 62
               0
100
AcDbLine
 10
645.74845564176144
 20
-469.27761748954708
 30
0.0
 11
645.74845564176144
 21
-388.17290305092229
 31
0.0
  0
LINE
  5
C0
100
AcDbEntity
  8
0
370
              -2
390
0
  6
Continuous
 62
               0
100
AcDbLine
 10
685.74845564176144
 20
-388.17290305092229
 30
0.0
 11
645.74845564176144
 21
-388.17290305092229
 31
0.0
  0
CIRCLE
  5
C1
102
{ACAD_REACTORS
330
C2
102
}
100
AcDbEntity
  8
0
370
              -2
390
0
  6
Continuous
 62
               0
100
AcDbCircle
 10
685.74845564176144
 20
-388.17290305092229
 30
0.0
 40
4.99969482421875
  0
HATCH
  5
C2
100
AcDbEntity
  8
0
370
              -2
390
0
  6
Continuous
 62
               0
100
AcDbHatch
 10
0.0
 20
0.0
 30
0.0
210
0.0
220
0.0
230
1.0
  2
SOLID
 70
               1
 71
               1
 91
        1
 92
        1
 93
        1
 72
               2
 10
685.74845564176144
 20
-388.17290305092229
 40
4.99969482421875
 50
0.0
 51
360.0
 73
               0
 97
        1
330
C1
 75
               0
 76
               1
 98
        1
 10
0.0
 20
0.0
  0
CIRCLE
  5
C3
102
{ACAD_REACTORS
330
C4
102
}
100
AcDbEntity
  8
0
370
              -2
390
0
  6
Continuous
 62
               0
100
AcDbCircle
 10
645.74845564176144
 20
-388.17290305092229
 30
0.0
 40
4.99969482421875
  0
HATCH
  5
C4
100
AcDbEntity
  8
0
370
              -2
390
0
  6
Continuous
 62
               0
100
AcDbHatch
 10
0.0
 20
0.0
 30
0.0
210
0.0
220
0.0
230
1.0
  2
SOLID
 70
               1
 71
               1
 91
        1
 92
        1
 93
        1
 72
               2
 10
645.74845564176144
 20
-388.17290305092229
 40
4.99969482421875
 50
0.0
 51
360.0
 73
               0
 97
        1
330
C3
 75
               0
 76
               1
 98
        1
 10
0.0
 20
0.0
  0
MTEXT
  5
C5
100
AcDbEntity
  8
0
390
0
 62
               0
100
AcDbMText
 10
649.87345564176144
 20
-354.29528586342258
 30
0.0
 40
24.432617187500004
 41
0.0
 71
               1
 72
               1
  1
40
  7
ＭＳ ゴシック
 73
               1
 44
0.7828267384257843
  0
POINT
  5
C6
100
AcDbEntity
  8
Defpoints
370
               0
390
0
 62
               0
100
AcDbPoint
 10
645.74845564176144
 20
-494.27761748954708
 30
0.0
  0
POINT
  5
C7
100
AcDbEntity
  8
Defpoints
370
               0
390
0
 62
               0
100
AcDbPoint
 10
685.74845564176144
 20
-494.27761748954708
 30
0.0
  0
POINT
  5
C8
100
AcDbEntity
  8
Defpoints
370
               0
390
0
 62
               0
100
AcDbPoint
 10
685.74845564176144
 20
-388.17290305092229
 30
0.0
  0
ENDBLK
  5
C9
100
AcDbEntity
  8
notes
390
0
100
AcDbBlockEnd
  0
BLOCK
  5
CA
100
AcDbEntity
  8
notes
390
0
100
AcDbBlockBegin
  2
*D12
 70
               1
 10
0.0
 20
0.0
 30
0.0
  3
*D12
  1

  0
LINE
  5
CB
100
AcDbEntity
  8
0
370
              -2
390
0
  6
Continuous
 62
               0
100
AcDbLine
 10
322.29824594968022
 20
422.75490343168258
 30
0.0
 11
322.29824594968022
 21
347.75490343168258
 31
0.0
  0
LINE
  5
CC
100
AcDbEntity
  8
0
370
              -2
390
0
  6
Continuous
 62
               0
100
AcDbLine
 10
572.29824594968022
 20
422.75490343168258
 30
0.0
 11
572.29824594968022
 21
347.75490343168258
 31
0.0
  0
LINE
  5
CD
100
AcDbEntity
  8
0
370
              -2
390
0
  6
Continuous
 62
               0
100
AcDbLine
 10
322.29824594968022
 20
347.75490343168258
 30
0.0
 11
572.29824594968022
 21
347.75490343168258
 31
0.0
  0
CIRCLE
  5
CE
102
{ACAD_REACTORS
330
CF
102
}
100
AcDbEntity
  8
0
370
              -2
390
0
  6
Continuous
 62
               0
100
AcDbCircle
 10
322.29824594968022
 20
347.75490343168258
 30
0.0
 40
4.99969482421875
  0
HATCH
  5
CF
100
AcDbEntity
  8
0
370
              -2
390
0
  6
Continuous
 62
               0
100
AcDbHatch
 10
0.0
 20
0.0
 30
0.0
210
0.0
220
0.0
230
1.0
  2
SOLID
 70
               1
 71
               1
 91
        1
 92
        1
 93
        1
 72
               2
 10
322.29824594968022
 20
347.75490343168258
 40
4.99969482421875
 50
0.0
 51
360.0
 73
               0
 97
        1
330
CE
 75
               0
 76
               1
 98
        1
 10
0.0
 20
0.0
  0
CIRCLE
  5
D0
102
{ACAD_REACTORS
330
D1
102
}
100
AcDbEntity
  8
0
370
              -2
390
0
  6
Continuous
 62
               0
100
AcDbCircle
 10
572.29824594968022
 20
347.75490343168258
 30
0.0
 40
4.99969482421875
  0
HATCH
  5
D1
100
AcDbEntity
  8
0
370
              -2
390
0
  6
Continuous
 62
               0
100
AcDbHatch
 10
0.0
 20
0.0
 30
0.0
210
0.0
220
0.0
230
1.0
  2
SOLID
 70
               1
 71
               1
 91
        1
 92
        1
 93
        1
 72
               2
 10
572.29824594968022
 20
347.75490343168258
 40
4.99969482421875
 50
0.0
 51
360.0
 73
               0
 97
        1
330
D0
 75
               0
 76
               1
 98
        1
 10
0.0
 20
0.0
  0
MTEXT
  5
D2
100
AcDbEntity
  8
0
390
0
 62
               0
100
AcDbMText
 10
423.48574426750474
 20
381.63252061918229
 30
0.0
 40
24.432617187500004
 41
0.0
 71
               1
 72
               1
  1
250
  7
ＭＳ ゴシック
 73
               1
 44
0.7828267384257843
  0
POINT
  5
D3
100
AcDbEntity
  8
Defpoints
370
               0
390
0
 62
               0
100
AcDbPoint
 10
572.29824594968022
 20
447.75490343168258
 30
0.0
  0
POINT
  5
D4
100
AcDbEntity
  8
Defpoints
370
               0
390
0
 62
               0
100
AcDbPoint
 10
322.29824594968022
 20
447.75490343168258
 30
0.0
  0
POINT
  5
D5
100
AcDbEntity
  8
Defpoints
370
               0
390
0
 62
               0
100
AcDbPoint
 10
322.29824594968022
 20
347.75490343168258
 30
0.0
  0
ENDBLK
  5
D6
100
AcDbEntity
  8
notes
390
0
100
AcDbBlockEnd
  0
BLOCK
  5
D7
100
AcDbEntity
  8
notes
390
0
100
AcDbBlockBegin
  2
*D13
 70
               1
 10
0.0
 20
0.0
 30
0.0
  3
*D13
  1

  0
LINE
  5
D8
100
AcDbEntity
  8
0
370
              -2
390
0
  6
Continuous
 62
               0
100
AcDbLine
 10
597.29824594968022
 20
447.75490343168258
 30
0.0
 11
768.81517678011414
 21
447.75490343168258
 31
0.0
  0
LINE
  5
D9
100
AcDbEntity
  8
0
370
              -2
390
0
  6
Continuous
 62
               0
100
AcDbLine
 10
597.29824594968022
 20
707.75490343168258
 30
0.0
 11
768.81517678011414
 21
707.75490343168258
 31
0.0
  0
LINE
  5
DA
100
AcDbEntity
  8
0
370
              -2
390
0
  6
Continuous
 62
               0
100
AcDbLine
 10
768.81517678011414
 20
447.75490343168258
 30
0.0
 11
768.81517678011414
 21
707.75490343168258
 31
0.0
  0
CIRCLE
  5
DB
102
{ACAD_REACTORS
330
DC
102
}
100
AcDbEntity
  8
0
370
              -2
390
0
  6
Continuous
 62
               0
100
AcDbCircle
 10
768.81517678011414
 20
447.75490343168258
 30
0.0
 40
4.99969482421875
  0
HATCH
  5
DC
100
AcDbEntity
  8
0
370
              -2
390
0
  6
Continuous
 62
               0
100
AcDbHatch
 10
0.0
 20
0.0
 30
0.0
210
0.0
220
0.0
230
1.0
  2
SOLID
 70
               1
 71
               1
 91
        1
 92
        1
 93
        1
 72
               2
 10
768.81517678011414
 20
447.75490343168258
 40
4.99969482421875
 50
0.0
 51
360.0
 73
               0
 97
        1
330
DB
 75
               0
 76
               1
 98
        1
 10
0.0
 20
0.0
  0
CIRCLE
  5
DD
102
{ACAD_REACTORS
330
DE
102
}
100
AcDbEntity
  8
0
370
              -2
390
0
  6
Continuous
 62
               0
100
AcDbCircle
 10
768.81517678011414
 20
707.75490343168258
 30
0.0
 40
4.99969482421875
  0
HATCH
  5
DE
100
AcDbEntity
  8
0
370
              -2
390
0
  6
Continuous
 62
               0
100
AcDbHatch
 10
0.0
 20
0.0
 30
0.0
210
0.0
220
0.0
230
1.0
  2
SOLID
 70
               1
 71
               1
 91
        1
 92
        1
 93
        1
 72
               2
 10
768.81517678011414
 20
707.75490343168258
 40
4.99969482421875
 50
0.0
 51
360.0
 73
               0
 97
        1
330
DD
 75
               0
 76
               1
 98
        1
 10
0.0
 20
0.0
  0
MTEXT
  5
DF
100
AcDbEntity
  8
0
390
0
 62
               0
100
AcDbMText
 10
734.93755959261421
 20
553.18642689607168
 30
0.0
 40
24.432617187500004
 41
0.0
 71
               1
 72
               1
  1
260
  7
ＭＳ ゴシック
 11
0.0
 21
1.0
 31
0.0
 73
               1
 44
0.7828267384257843
  0
POINT
  5
E0
100
AcDbEntity
  8
Defpoints
370
               0
390
0
 62
               0
100
AcDbPoint
 10
572.29824594968022
 20
707.75490343168258
 30
0.0
  0
POINT
  5
E1
100
AcDbEntity
  8
Defpoints
370
               0
390
0
 62
               0
100
AcDbPoint
 10
572.29824594968022
 20
447.75490343168258
 30
0.0
  0
POINT
  5
E2
100
AcDbEntity
  8
Defpoints
370
               0
390
0
 62
               0
100
AcDbPoint
 10
768.81517678011414
 20
447.75490343168258
 30
0.0
  0
ENDBLK
  5
E3
100
AcDbEntity
  8
notes
390
0
100
AcDbBlockEnd
  0
BLOCK
  5
E4
100
AcDbEntity
  8
notes
390
0
100
AcDbBlockBegin
  2
*D14
 70
               1
 10
0.0
 20
0.0
 30
0.0
  3
*D14
  1

  0
LINE
  5
E5
100
AcDbEntity
  8
0
370
              -2
390
0
  6
Continuous
 62
               0
100
AcDbLine
 10
597.29824594968022
 20
707.75490343168258
 30
0.0
 11
768.81517678011414
 21
707.75490343168258
 31
0.0
  0
LINE
  5
E6
100
AcDbEntity
  8
0
370
              -2
390
0
  6
Continuous
 62
               0
100
AcDbLine
 10
597.29824594968022
 20
727.75490343168258
 30
0.0
 11
768.81517678011414
 21
727.75490343168258
 31
0.0
  0
LINE
  5
E7
100
AcDbEntity
  8
0
370
              -2
390
0
  6
Continuous
 62
               0
100
AcDbLine
 10
768.81517678011414
 20
727.75490343168258
 30
0.0
 11
768.81517678011414
 21
779.62392857824761
 31
0.0
  0
LINE
  5
E8
100
AcDbEntity
  8
0
370
              -2
390
0
  6
Continuous
 62
               0
100
AcDbLine
 10
768.81517678011414
 20
707.75490343168258
 30
0.0
 11
768.81517678011414
 21
727.75490343168258
 31
0.0
  0
CIRCLE
  5
E9
102
{ACAD_REACTORS
330
EA
102
}
100
AcDbEntity
  8
0
370
              -2
390
0
  6
Continuous
 62
               0
100
AcDbCircle
 10
768.81517678011414
 20
707.75490343168258
 30
0.0
 40
4.99969482421875
  0
HATCH
  5
EA
100
AcDbEntity
  8
0
370
              -2
390
0
  6
Continuous
 62
               0
100
AcDbHatch
 10
0.0
 20
0.0
 30
0.0
210
0.0
220
0.0
230
1.0
  2
SOLID
 70
               1
 71
               1
 91
        1
 92
        1
 93
        1
 72
               2
 10
768.81517678011414
 20
707.75490343168258
 40
4.99969482421875
 50
0.0
 51
360.0
 73
               0
 97
        1
330
E9
 75
               0
 76
               1
 98
        1
 10
0.0
 20
0.0
  0
CIRCLE
  5
EB
102
{ACAD_REACTORS
330
EC
102
}
100
AcDbEntity
  8
0
370
              -2
390
0
  6
Continuous
 62
               0
100
AcDbCircle
 10
768.81517678011414
 20
727.75490343168258
 30
0.0
 40
4.99969482421875
  0
HATCH
  5
EC
100
AcDbEntity
  8
0
370
              -2
390
0
  6
Continuous
 62
               0
100
AcDbHatch
 10
0.0
 20
0.0
 30
0.0
210
0.0
220
0.0
230
1.0
  2
SOLID
 70
               1
 71
               1
 91
        1
 92
        1
 93
        1
 72
               2
 10
768.81517678011414
 20
727.75490343168258
 40
4.99969482421875
 50
0.0
 51
360.0
 73
               0
 97
        1
330
EB
 75
               0
 76
               1
 98
        1
 10
0.0
 20
0.0
  0
MTEXT
  5
ED
100
AcDbEntity
  8
0
390
0
 62
               0
100
AcDbMText
 10
734.93755959261421
 20
747.87392857824761
 30
0.0
 40
24.432617187500004
 41
0.0
 71
               1
 72
               1
  1
20
  7
ＭＳ ゴシック
 11
0.0
 21
1.0
 31
0.0
 73
               1
 44
0.7828267384257843
  0
POINT
  5
EE
100
AcDbEntity
  8
Defpoints
370
               0
390
0
 62
               0
100
AcDbPoint
 10
572.29824594968022
 20
727.75490343168258
 30
0.0
  0
POINT
  5
EF
100
AcDbEntity
  8
Defpoints
370
               0
390
0
 62
               0
100
AcDbPoint
 10
572.29824594968022
 20
707.75490343168258
 30
0.0
  0
POINT
  5
F0
100
AcDbEntity
  8
Defpoints
370
               0
390
0
 62
               0
100
AcDbPoint
 10
768.81517678011414
 20
707.75490343168258
 30
0.0
  0
ENDBLK
  5
F1
100
AcDbEntity
  8
notes
390
0
100
AcDbBlockEnd
  0
BLOCK
  5
F2
100
AcDbEntity
  8
notes
390
0
100
AcDbBlockBegin
  2
*D15
 70
               1
 10
0.0
 20
0.0
 30
0.0
  3
*D15
  1

  0
LINE
  5
F3
100
AcDbEntity
  8
0
370
              -2
390
0
  6
Continuous
 62
               0
100
AcDbLine
 10
-570.60175405031941
 20
737.7989285782478
 30
0.0
 11
-570.60175405031941
 21
827.75490343168258
 31
0.0
  0
LINE
  5
F4
100
AcDbEntity
  8
0
370
              -2
390
0
  6
Continuous
 62
               0
100
AcDbLine
 10
-470.62750280291039
 20
740.2989285782478
 30
0.0
 11
-470.62750280291039
 21
827.75490343168258
 31
0.0
  0
LINE
  5
F5
100
AcDbEntity
  8
0
370
              -2
390
0
  6
Continuous
 62
               0
100
AcDbLine
 10
-570.60175405031941
 20
827.75490343168258
 30
0.0
 11
-470.62750280291039
 21
827.75490343168258
 31
0.0
  0
CIRCLE
  5
F6
102
{ACAD_REACTORS
330
F7
102
}
100
AcDbEntity
  8
0
370
              -2
390
0
  6
Continuous
 62
               0
100
AcDbCircle
 10
-570.60175405031941
 20
827.75490343168258
 30
0.0
 40
4.99969482421875
  0
HATCH
  5
F7
100
AcDbEntity
  8
0
370
              -2
390
0
  6
Continuous
 62
               0
100
AcDbHatch
 10
0.0
 20
0.0
 30
0.0
210
0.0
220
0.0
230
1.0
  2
SOLID
 70
               1
 71
               1
 91
        1
 92
        1
 93
        1
 72
               2
 10
-570.60175405031941
 20
827.75490343168258
 40
4.99969482421875
 50
0.0
 51
360.0
 73
               0
 97
        1
330
F6
 75
               0
 76
               1
 98
        1
 10
0.0
 20
0.0
  0
CIRCLE
  5
F8
102
{ACAD_REACTORS
330
F9
102
}
100
AcDbEntity
  8
0
370
              -2
390
0
  6
Continuous
 62
               0
100
AcDbCircle
 10
-470.62750280291039
 20
827.75490343168258
 30
0.0
 40
4.99969482421875
  0
HATCH
  5
F9
100
AcDbEntity
  8
0
370
              -2
390
0
  6
Continuous
 62
               0
100
AcDbHatch
 10
0.0
 20
0.0
 30
0.0
210
0.0
220
0.0
230
1.0
  2
SOLID
 70
               1
 71
               1
 91
        1
 92
        1
 93
        1
 72
               2
 10
-470.62750280291039
 20
827.75490343168258
 40
4.99969482421875
 50
0.0
 51
360.0
 73
               0
 97
        1
330
F8
 75
               0
 76
               1
 98
        1
 10
0.0
 20
0.0
  0
MTEXT
  5
FA
100
AcDbEntity
  8
0
390
0
 62
               0
100
AcDbMText
 10
-544.42713010879061
 20
861.63252061918229
 30
0.0
 40
24.432617187500004
 41
0.0
 71
               1
 72
               1
  1
100
  7
ＭＳ ゴシック
 73
               1
 44
0.7828267384257843
  0
POINT
  5
FB
100
AcDbEntity
  8
Defpoints
370
               0
390
0
 62
               0
100
AcDbPoint
 10
-470.62750280291039
 20
715.2989285782478
 30
0.0
  0
POINT
  5
FC
100
AcDbEntity
  8
Defpoints
370
               0
390
0
 62
               0
100
AcDbPoint
 10
-570.60175405031941
 20
712.7989285782478
 30
0.0
  0
POINT
  5
FD
100
AcDbEntity
  8
Defpoints
370
               0
390
0
 62
               0
100
AcDbPoint
 10
-570.60175405031941
 20
827.75490343168258
 30
0.0
  0
ENDBLK
  5
FE
100
AcDbEntity
  8
notes
390
0
100
AcDbBlockEnd
  0
BLOCK
  5
FF
100
AcDbEntity
  8
notes
390
0
100
AcDbBlockBegin
  2
*D16
 70
               1
 10
0.0
 20
0.0
 30
0.0
  3
*D16
  1

  0
LINE
  5
100
100
AcDbEntity
  8
0
370
              -2
390
0
  6
Continuous
 62
               0
100
AcDbLine
 10
-470.62750280291039
 20
740.2989285782478
 30
0.0
 11
-470.62750280291039
 21
827.75490343168258
 31
0.0
  0
LINE
  5
101
100
AcDbEntity
  8
0
370
              -2
390
0
  6
Continuous
 62
               0
100
AcDbLine
 10
-370.62750280290948
 20
737.7989285782478
 30
0.0
 11
-370.62750280290948
 21
827.75490343168258
 31
0.0
  0
LINE
  5
102
100
AcDbEntity
  8
0
370
              -2
390
0
  6
Continuous
 62
               0
100
AcDbLine
 10
-470.62750280291039
 20
827.75490343168258
 30
0.0
 11
-370.62750280290948
 21
827.75490343168258
 31
0.0
  0
CIRCLE
  5
103
102
{ACAD_REACTORS
330
104
102
}
100
AcDbEntity
  8
0
370
              -2
390
0
  6
Continuous
 62
               0
100
AcDbCircle
 10
-470.62750280291039
 20
827.75490343168258
 30
0.0
 40
4.99969482421875
  0
HATCH
  5
104
100
AcDbEntity
  8
0
370
              -2
390
0
  6
Continuous
 62
               0
100
AcDbHatch
 10
0.0
 20
0.0
 30
0.0
210
0.0
220
0.0
230
1.0
  2
SOLID
 70
               1
 71
               1
 91
        1
 92
        1
 93
        1
 72
               2
 10
-470.62750280291039
 20
827.75490343168258
 40
4.99969482421875
 50
0.0
 51
360.0
 73
               0
 97
        1
330
103
 75
               0
 76
               1
 98
        1
 10
0.0
 20
0.0
  0
CIRCLE
  5
105
102
{ACAD_REACTORS
330
106
102
}
100
AcDbEntity
  8
0
370
              -2
390
0
  6
Continuous
 62
               0
100
AcDbCircle
 10
-370.62750280290948
 20
827.75490343168258
 30
0.0
 40
4.99969482421875
  0
HATCH
  5
106
100
AcDbEntity
  8
0
370
              -2
390
0
  6
Continuous
 62
               0
100
AcDbHatch
 10
0.0
 20
0.0
 30
0.0
210
0.0
220
0.0
230
1.0
  2
SOLID
 70
               1
 71
               1
 91
        1
 92
        1
 93
        1
 72
               2
 10
-370.62750280290948
 20
827.75490343168258
 40
4.99969482421875
 50
0.0
 51
360.0
 73
               0
 97
        1
330
105
 75
               0
 76
               1
 98
        1
 10
0.0
 20
0.0
  0
MTEXT
  5
107
100
AcDbEntity
  8
0
390
0
 62
               0
100
AcDbMText
 10
-444.44000448508541
 20
861.63252061918229
 30
0.0
 40
24.432617187500004
 41
0.0
 71
               1
 72
               1
  1
100
  7
ＭＳ ゴシック
 73
               1
 44
0.7828267384257843
  0
POINT
  5
108
100
AcDbEntity
  8
Defpoints
370
               0
390
0
 62
               0
100
AcDbPoint
 10
-370.62750280290948
 20
712.7989285782478
 30
0.0
  0
POINT
  5
109
100
AcDbEntity
  8
Defpoints
370
               0
390
0
 62
               0
100
AcDbPoint
 10
-470.62750280291039
 20
715.2989285782478
 30
0.0
  0
POINT
  5
10A
100
AcDbEntity
  8
Defpoints
370
               0
390
0
 62
               0
100
AcDbPoint
 10
-470.62750280291039
 20
827.75490343168258
 30
0.0
  0
ENDBLK
  5
10B
100
AcDbEntity
  8
notes
390
0
100
AcDbBlockEnd
  0
BLOCK
  5
10C
100
AcDbEntity
  8
notes
390
0
100
AcDbBlockBegin
  2
*D17
 70
               1
 10
0.0
 20
0.0
 30
0.0
  3
*D17
  1

  0
LINE
  5
10D
100
AcDbEntity
  8
0
370
              -2
390
0
  6
Continuous
 62
               0
100
AcDbLine
 10
-234.20175405031932
 20
-488.16729445186957
 30
0.0
 11
-148.20175405031932
 21
-488.16729445186957
 31
0.0
  0
LINE
  5
10E
100
AcDbEntity
  8
0
370
              -2
390
0
  6
Continuous
 62
               0
100
AcDbLine
 10
-234.20175405031932
 20
-588.16729445187229
 30
0.0
 11
-148.20175405031932
 21
-588.16729445187229
 31
0.0
  0
LINE
  5
10F
100
AcDbEntity
  8
0
370
              -2
390
0
  6
Continuous
 62
               0
100
AcDbLine
 10
-148.20175405031932
 20
-488.16729445186957
 30
0.0
 11
-148.20175405031932
 21
-588.16729445187229
 31
0.0
  0
CIRCLE
  5
110
102
{ACAD_REACTORS
330
111
102
}
100
AcDbEntity
  8
0
370
              -2
390
0
  6
Continuous
 62
               0
100
AcDbCircle
 10
-148.20175405031932
 20
-488.16729445186957
 30
0.0
 40
4.99969482421875
  0
HATCH
  5
111
100
AcDbEntity
  8
0
370
              -2
390
0
  6
Continuous
 62
               0
100
AcDbHatch
 10
0.0
 20
0.0
 30
0.0
210
0.0
220
0.0
230
1.0
  2
SOLID
 70
               1
 71
               1
 91
        1
 92
        1
 93
        1
 72
               2
 10
-148.20175405031932
 20
-488.16729445186957
 40
4.99969482421875
 50
0.0
 51
360.0
 73
               0
 97
        1
330
110
 75
               0
 76
               1
 98
        1
 10
0.0
 20
0.0
  0
CIRCLE
  5
112
102
{ACAD_REACTORS
330
113
102
}
100
AcDbEntity
  8
0
370
              -2
390
0
  6
Continuous
 62
               0
100
AcDbCircle
 10
-148.20175405031932
 20
-588.16729445187229
 30
0.0
 40
4.99969482421875
  0
HATCH
  5
113
100
AcDbEntity
  8
0
370
              -2
390
0
  6
Continuous
 62
               0
100
AcDbHatch
 10
0.0
 20
0.0
 30
0.0
210
0.0
220
0.0
230
1.0
  2
SOLID
 70
               1
 71
               1
 91
        1
 92
        1
 93
        1
 72
               2
 10
-148.20175405031932
 20
-588.16729445187229
 40
4.99969482421875
 50
0.0
 51
360.0
 73
               0
 97
        1
330
112
 75
               0
 76
               1
 98
        1
 10
0.0
 20
0.0
  0
MTEXT
  5
114
100
AcDbEntity
  8
0
390
0
 62
               0
100
AcDbMText
 10
-182.07937123781949
 20
-561.97979613404732
 30
0.0
 40
24.432617187500004
 41
0.0
 71
               1
 72
               1
  1
100
  7
ＭＳ ゴシック
 11
0.0
 21
1.0
 31
0.0
 73
               1
 44
0.7828267384257843
  0
POINT
  5
115
100
AcDbEntity
  8
Defpoints
370
               0
390
0
 62
               0
100
AcDbPoint
 10
-259.20175405031932
 20
-588.16729445187229
 30
0.0
  0
POINT
  5
116
100
AcDbEntity
  8
Defpoints
370
               0
390
0
 62
               0
100
AcDbPoint
 10
-259.20175405031932
 20
-488.16729445186957
 30
0.0
  0
POINT
  5
117
100
AcDbEntity
  8
Defpoints
370
               0
390
0
 62
               0
100
AcDbPoint
 10
-148.20175405031932
 20
-488.16729445186957
 30
0.0
  0
ENDBLK
  5
118
100
AcDbEntity
  8
notes
390
0
100
AcDbBlockEnd
  0
BLOCK
  5
119
100
AcDbEntity
  8
notes
390
0
100
AcDbBlockBegin
  2
*D18
 70
               1
 10
0.0
 20
0.0
 30
0.0
  3
*D18
  1

  0
LINE
  5
11A
100
AcDbEntity
  8
0
370
              -2
390
0
  6
Continuous
 62
               0
100
AcDbLine
 10
408.29810099163615
 20
-583.17290305092229
 30
0.0
 11
380.25
 21
-583.17290305092229
 31
0.0
  0
LINE
  5
11B
100
AcDbEntity
  8
0
370
              -2
390
0
  6
Continuous
 62
               0
100
AcDbLine
 10
407.29810099163615
 20
-588.17290305092229
 30
0.0
 11
380.25
 21
-588.17290305092229
 31
0.0
  0
LINE
  5
11C
100
AcDbEntity
  8
0
370
              -2
390
0
  6
Continuous
 62
               0
100
AcDbLine
 10
380.25
 20
-588.17290305092229
 30
0.0
 11
380.25
 21
-627.75
 31
0.0
  0
LINE
  5
11D
100
AcDbEntity
  8
0
370
              -2
390
0
  6
Continuous
 62
               0
100
AcDbLine
 10
380.25
 20
-583.17290305092229
 30
0.0
 11
380.25
 21
-588.17290305092229
 31
0.0
  0
CIRCLE
  5
11E
102
{ACAD_REACTORS
330
11F
102
}
100
AcDbEntity
  8
0
370
              -2
390
0
  6
Continuous
 62
               0
100
AcDbCircle
 10
380.25
 20
-583.17290305092229
 30
0.0
 40
4.99969482421875
  0
HATCH
  5
11F
100
AcDbEntity
  8
0
370
              -2
390
0
  6
Continuous
 62
               0
100
AcDbHatch
 10
0.0
 20
0.0
 30
0.0
210
0.0
220
0.0
230
1.0
  2
SOLID
 70
               1
 71
               1
 91
        1
 92
        1
 93
        1
 72
               2
 10
380.25
 20
-583.17290305092229
 40
4.99969482421875
 50
0.0
 51
360.0
 73
               0
 97
        1
330
11E
 75
               0
 76
               1
 98
        1
 10
0.0
 20
0.0
  0
CIRCLE
  5
120
102
{ACAD_REACTORS
330
121
102
}
100
AcDbEntity
  8
0
370
              -2
390
0
  6
Continuous
 62
               0
100
AcDbCircle
 10
380.25
 20
-588.17290305092229
 30
0.0
 40
4.99969482421875
  0
HATCH
  5
121
100
AcDbEntity
  8
0
370
              -2
390
0
  6
Continuous
 62
               0
100
AcDbHatch
 10
0.0
 20
0.0
 30
0.0
210
0.0
220
0.0
230
1.0
  2
SOLID
 70
               1
 71
               1
 91
        1
 92
        1
 93
        1
 72
               2
 10
380.25
 20
-588.17290305092229
 40
4.99969482421875
 50
0.0
 51
360.0
 73
               0
 97
        1
330
120
 75
               0
 76
               1
 98
        1
 10
0.0
 20
0.0
  0
MTEXT
  5
122
100
AcDbEntity
  8
0
390
0
 62
               0
100
AcDbMText
 10
346.37238281250006
 20
-627.75
 30
0.0
 40
24.432617187500004
 41
0.0
 71
               1
 72
               1
  1
5
  7
ＭＳ ゴシック
 11
0.0
 21
1.0
 31
0.0
 73
               1
 44
0.7828267384257843
  0
POINT
  5
123
100
AcDbEntity
  8
Defpoints
370
               0
390
0
 62
               0
100
AcDbPoint
 10
432.29810099163615
 20
-588.17290305092229
 30
0.0
  0
POINT
  5
124
100
AcDbEntity
  8
Defpoints
370
               0
390
0
 62
               0
100
AcDbPoint
 10
433.29810099163615
 20
-583.17290305092229
 30
0.0
  0
POINT
  5
125
100
AcDbEntity
  8
Defpoints
370
               0
390
0
 62
               0
100
AcDbPoint
 10
380.25
 20
-583.17290305092229
 30
0.0
  0
ENDBLK
  5
126
100
AcDbEntity
  8
notes
390
0
100
AcDbBlockEnd
  0
BLOCK
  5
127
100
AcDbEntity
  8
ADF70-1608
390
0
100
AcDbBlockBegin
  2
グループ-1
 70
               0
 10
0.0
 20
0.0
 30
0.0
  3
グループ-1
  1

  0
LINE
  5
128
100
AcDbEntity
  8
0
370
              15
390
0
  6
STYLE_12
 62
               7
100
AcDbLine
 10
-2639.996495980803
 20
6280.6209420750401
 30
0.0
 11
-2521.7089401392395
 21
6287.5163386264167
 31
0.0
  0
ARC
  5
129
100
AcDbEntity
  8
0
370
              15
390
0
  6
STYLE_12
 62
               7
100
AcDbCircle
 10
-2522.1220104888102
 20
6299.2569236902063
 30
0.0
 40
11.747849367172535
100
AcDbArc
 50
272.01501282108666
 51
350.98498717893875
  0
LINE
  5
12A
100
AcDbEntity
  8
0
370
              15
390
0
  6
STYLE_12
 62
               7
100
AcDbLine
 10
-2502.0886423916777
 20
6345.2286286428334
 30
0.0
 11
-2510.51927857801
 21
6297.4161149114661
 31
0.0
  0
ARC
  5
12B
100
AcDbEntity
  8
0
370
              15
390
0
  6
STYLE_12
 62
               7
100
AcDbCircle
 10
-2494.210180367581
 20
6343.8394432214964
 30
0.0
 40
7.9999999999992859
100
AcDbArc
 50
100.00000000000936
 51
169.99999999998744
  0
ARC
  5
12C
100
AcDbEntity
  8
0
370
              15
390
0
  6
STYLE_12
 62
               7
100
AcDbCircle
 10
-2639.1115129820105
 20
6266.6489413202507
 30
0.0
 40
13.999999999999556
100
AcDbArc
 50
93.62425862755336
 51
130.1859251657167
  0
LINE
  5
12D
100
AcDbEntity
  8
0
370
              15
390
0
  6
STYLE_12
 62
               7
100
AcDbLine
 10
-2648.1452935430766
 20
6277.3443052118864
 30
0.0
 11
-2661.210180367581
 21
6266.3091200771378
 31
0.0
  0
ENDBLK
  5
12E
100
AcDbEntity
  8
ADF70-1608
390
0
100
AcDbBlockEnd
  0
BLOCK
  5
12F
100
AcDbEntity
  8
ADF70-1608
390
0
100
AcDbBlockBegin
  2
グループ-2
 70
               0
 10
0.0
 20
0.0
 30
0.0
  3
グループ-2
  1

  0
LINE
  5
130
100
AcDbEntity
  8
0
370
              15
390
0
  6
STYLE_12
 62
               7
100
AcDbLine
 10
-2728.4187336989307
 20
6280.6209420750401
 30
0.0
 11
-2846.7062895404943
 21
6287.5163386264167
 31
0.0
  0
ARC
  5
131
100
AcDbEntity
  8
0
370
              15
390
0
  6
STYLE_12
 62
               7
100
AcDbCircle
 10
-2846.2932191909235
 20
6299.2569236902063
 30
0.0
 40
11.747849367172675
100
AcDbArc
 50
189.01501282106128
 51
267.98498717891329
  0
LINE
  5
132
100
AcDbEntity
  8
0
370
              15
390
0
  6
STYLE_12
 62
               7
100
AcDbLine
 10
-2866.3265872880561
 20
6345.2286286428334
 30
0.0
 11
-2857.8959511017238
 21
6297.4161149114661
 31
0.0
  0
ARC
  5
133
100
AcDbEntity
  8
0
370
              15
390
0
  6
STYLE_12
 62
               7
100
AcDbCircle
 10
-2874.2050493121528
 20
6343.8394432214964
 30
0.0
 40
7.999999999999365
100
AcDbArc
 50
10.00000000001257
 51
79.999999999990649
  0
ARC
  5
134
100
AcDbEntity
  8
0
370
              15
390
0
  6
STYLE_12
 62
               7
100
AcDbCircle
 10
-2729.3037166977233
 20
6266.6489413202507
 30
0.0
 40
13.999999999999538
100
AcDbArc
 50
49.814074834283318
 51
86.375741372446655
  0
LINE
  5
135
100
AcDbEntity
  8
0
370
              15
390
0
  6
STYLE_12
 62
               7
100
AcDbLine
 10
-2720.2699361366572
 20
6277.3443052118864
 30
0.0
 11
-2707.2050493121528
 21
6266.3091200771378
 31
0.0
  0
ENDBLK
  5
136
100
AcDbEntity
  8
ADF70-1608
390
0
100
AcDbBlockEnd
  0
ENDSEC
  0
SECTION
  2
ENTITIES
  0
MTEXT
  5
137
100
AcDbEntity
  8
template
390
0
 62
               7
100
AcDbMText
 10
-967.99999999975898
 20
-1147.4176292337006
 30
0.0
 40
16.288411458333332
 41
0.0
 71
               1
 72
               1
  1
品名
  7
ＭＳ ゴシック
 73
               1
 44
0.7828267384257843
  0
MTEXT
  5
138
100
AcDbEntity
  8
template
390
0
 62
               7
100
AcDbMText
 10
-967.99999999975898
 20
-1232.4176292337006
 30
0.0
 40
16.288411458333332
 41
0.0
 71
               1
 72
               1
  1
仕様
  7
ＭＳ ゴシック
 73
               1
 44
0.7828267384257843
  0
MTEXT
  5
139
100
AcDbEntity
  8
template
390
0
 62
               7
100
AcDbMText
 10
-914.99999999975898
 20
-1176.000090171201
 30
0.0
 40
24.432617187500004
 41
0.0
 71
               1
 72
               1
  1
手洗器 -CATALANO,Roma-
  7
ＭＳ ゴシック
 73
               1
 44
0.7828267384257843
  0
LINE
  5
13A
100
AcDbEntity
  8
template
370
               5
390
0
  6
Continuous
 62
               7
100
AcDbLine
 10
974.99999999975876
 20
-1224.0027073587007
 30
0.0
 11
-975.00000000024102
 21
-1224.0027073587007
 31
0.0
  0
LWPOLYLINE
  5
13B
100
AcDbEntity
  8
template
370
               5
390
0
  6
Continuous
 62
               7
100
AcDbPolyline
 90
        5
 70
             128
 10
975.00000000024124
 20
1405.9972926413002
 10
-974.99999999975898
 20
1405.9972926413002
 10
-974.99999999975898
 20
-1394.0027073587007
 10
975.00000000024124
 20
-1394.0027073587007
 10
975.00000000024124
 20
1405.9972926413002
  0
LINE
  5
13C
100
AcDbEntity
  8
template
370
               5
390
0
  6
Continuous
 62
               7
100
AcDbLine
 10
974.99999999975876
 20
-1139.0027073587007
 30
0.0
 11
-975.00000000024102
 21
-1139.0027073587007
 31
0.0
  0
LINE
  5
13D
100
AcDbEntity
  8
template
370
               5
390
0
  6
Continuous
 62
               7
100
AcDbLine
 10
975.00000000024124
 20
-1309.0027073587007
 30
0.0
 11
222.00000000024124
 21
-1309.0027073587007
 31
0.0
  0
MTEXT
  5
13E
100
AcDbEntity
  8
template
390
0
 62
               7
100
AcDbMText
 10
-974.99999999955617
 20
-1405.8565294155578
 30
0.0
 40
21.717881944444446
 41
0.0
 71
               1
 72
               1
  1
100707SH
  7
ＭＳ ゴシック
 73
               1
 44
0.7828267384257843
  0
MTEXT
  5
13F
100
AcDbEntity
  8
template
390
0
 62
               7
100
AcDbMText
 10
251.87140625250095
 20
-1338.9131018320086
 30
0.0
 40
24.432617187500004
 41
0.0
 71
               1
 72
               1
  1
大洋金物株式会社 ティーフォルム事業部
  7
ＭＳ ゴシック
 73
               1
 44
0.7828267384257843
  0
INSERT
  5
140
100
AcDbEntity
  8
template
390
0
 62
               7
100
AcDbBlockReference
  2
グループ
 10
2213.6058607895475
 20
-6839.9189766673453
 30
0.0
  0
MTEXT
  5
141
100
AcDbEntity
  8
template
390
0
 62
               7
100
AcDbMText
 10
784.00000000049999
 20
-1261.000090171201
 30
0.0
 40
24.432617187500004
 41
0.0
 71
               1
 72
               1
  1
1:10
  7
ＭＳ ゴシック
 73
               1
 44
0.7828267384257843
  0
MTEXT
  5
142
100
AcDbEntity
  8
template
390
0
 62
               7
100
AcDbMText
 10
731.00000000049999
 20
-1232.4176292337006
 30
0.0
 40
16.288411458333332
 41
0.0
 71
               1
 72
               1
  1
縮尺
  7
ＭＳ ゴシック
 73
               1
 44
0.7828267384257843
  0
LINE
  5
143
100
AcDbEntity
  8
template
370
               5
390
0
  6
Continuous
 62
               7
100
AcDbLine
 10
724.00000000049999
 20
-1309.0027073587007
 30
0.0
 11
724.00000000049999
 21
-1224.0027073587007
 31
0.0
  0
MTEXT
  5
144
100
AcDbEntity
  8
template
390
0
 62
               7
100
AcDbMText
 10
480.00000000049999
 20
-1232.4176292337006
 30
0.0
 40
16.288411458333332
 41
0.0
 71
               1
 72
               1
  1
容量
  7
ＭＳ ゴシック
 73
               1
 44
0.7828267384257843
  0
MTEXT
  5
145
100
AcDbEntity
  8
template
390
0
 62
               7
100
AcDbMText
 10
533.00000000049999
 20
-1261.000090171201
 30
0.0
 40
24.432617187500004
 41
0.0
 71
               1
 72
               1
  1
6.5L
  7
ＭＳ ゴシック
 73
               1
 44
0.7828267384257843
  0
LINE
  5
146
100
AcDbEntity
  8
template
370
               5
390
0
  6
Continuous
 62
               7
100
AcDbLine
 10
473.00000000049999
 20
-1309.0027073587007
 30
0.0
 11
473.00000000049999
 21
-1224.0027073587007
 31
0.0
  0
MTEXT
  5
147
100
AcDbEntity
  8
template
390
0
 62
               7
100
AcDbMText
 10
229.00000000049999
 20
-1147.4176292337006
 30
0.0
 40
16.288411458333332
 41
0.0
 71
               1
 72
               1
  1
品番
  7
ＭＳ ゴシック
 73
               1
 44
0.7828267384257843
  0
MTEXT
  5
148
100
AcDbEntity
  8
template
390
0
 62
               7
100
AcDbMText
 10
229.00000000049999
 20
-1232.4176292337006
 30
0.0
 40
16.288411458333332
 41
0.0
 71
               1
 72
               1
  1
重量
  7
ＭＳ ゴシック
 73
               1
 44
0.7828267384257843
  0
MTEXT
  5
149
100
AcDbEntity
  8
template
390
0
 62
               7
100
AcDbMText
 10
282.00000000049999
 20
-1176.000090171201
 30
0.0
 40
24.432617187500004
 41
0.0
 71
               1
 72
               1
  1
ADF70-1608
  7
ＭＳ ゴシック
 73
               1
 44
0.7828267384257843
  0
MTEXT
  5
14A
100
AcDbEntity
  8
template
390
0
 62
               7
100
AcDbMText
 10
282.00000000049999
 20
-1261.000090171201
 30
0.0
 40
24.432617187500004
 41
0.0
 71
               1
 72
               1
  1
11kg
  7
ＭＳ ゴシック
 73
               1
 44
0.7828267384257843
  0
LINE
  5
14B
100
AcDbEntity
  8
template
370
               5
390
0
  6
Continuous
 62
               7
100
AcDbLine
 10
222.00000000049999
 20
-1394.0027073587007
 30
0.0
 11
222.00000000049999
 21
-1139.0027073587007
 31
0.0
  0
MTEXT
  5
14C
100
AcDbEntity
  8
template
390
0
 62
               7
100
AcDbMText
 10
-914.99999999975989
 20
-1261.0000901712001
 30
0.0
 40
24.432617187500004
 41
0.0
 71
               1
 72
               1
  1
カウンター置き/オーバーフローなし/\P陶器,背面釉薬あり/ホワイト
  7
ＭＳ ゴシック
 73
               1
 44
1.3047112307096407
  0
MTEXT
  5
14D
100
AcDbEntity
  8
notes
390
0
 62
               7
100
AcDbMText
 10
-841.11864253526164
 20
110.48578320920751
 30
0.0
 40
24.432617187500004
 41
846.91688848494232
 71
               1
 72
               1
  1
＝φ30もしくはφ35の水栓取付用穴あけ加工を承ります。\P   必要な場合、ご注文の際にご指示ください。
  7
ＭＳ ゴシック
 73
               1
 44
1.0437689845677123
  0
MTEXT
  5
14E
100
AcDbEntity
  8
notes
390
0
 62
               7
100
AcDbMText
 10
304.80241261634683
 20
976.5603105662949
 30
0.0
 40
24.432617187500004
 41
0.0
 71
               1
 72
               1
  1
カウンター切込寸法
  7
ＭＳ ゴシック
 73
               1
 44
0.7828267384257843
  0
CIRCLE
  5
14F
100
AcDbEntity
  8
notes
370
              15
390
0
  6
STYLE_12
 62
               7
100
AcDbCircle
 10
-860.25657533923732
 20
95.108571156083599
 30
0.0
 40
17.5
  0
MTEXT
  5
150
100
AcDbEntity
  8
notes
390
0
 62
               7
100
AcDbMText
 10
107.44202799647201
 20
110.48578320920751
 30
0.0
 40
24.432617187500004
 41
764.7717154610109
 71
               1
 72
               1
  1
※陶器製品には寸法公差があります。\P  洗面器の収め方をご確認の上、必ず現物を合わせて\P  カウンターに切込を行ってください。
  7
ＭＳ ゴシック
 73
               1
 44
1.0437689845677123
  0
DIMENSION
  5
151
100
AcDbEntity
  8
notes
370
               5
390
0
  6
Continuous
 62
               7
100
AcDbDimension
  2
*D4
 10
685.74845564176144
 20
-690.16729445186957
 30
0.0
 11
570.74845564176121
 21
-690.16729445186957
 31
0.0
 71
               5
 72
               1
 41
1.0
 42
0.0
  3
Tform線あり
100
AcDbAlignedDimension
 13
455.74845564176121
 23
-584.67331418123649
 33
0.0
 14
685.74845564176144
 24
-584.67331418123649
 34
0.0
100
AcDbRotatedDimension
1001
ACAD
1000
DSTYLE
1002
{
1070
             279
1070
               2
1070
             340
1005
35
1070
             147
1040
5.0
1002
}
  0
DIMENSION
  5
152
100
AcDbEntity
  8
notes
370
               5
390
0
  6
Continuous
 62
               7
100
AcDbDimension
  2
*D5
 10
-695.62648988654973
 20
877.75490343168258
 30
0.0
 11
-470.62648988654928
 21
877.75490343168258
 31
0.0
 71
               5
 72
               1
 41
1.0
 42
0.0
  3
Tform線あり
100
AcDbAlignedDimension
 13
-245.62648988654928
 23
677.75490343168258
 33
0.0
 14
-695.62648988654973
 24
677.75490343168258
 34
0.0
100
AcDbRotatedDimension
1001
ACAD
1000
DSTYLE
1002
{
1070
             279
1070
               2
1070
             340
1005
35
1070
             147
1040
5.0
1002
}
  0
DIMENSION
  5
153
100
AcDbEntity
  8
notes
370
               5
390
0
  6
Continuous
 62
               7
100
AcDbDimension
  2
*D6
 10
-145.62648988654928
 20
727.75490343168258
 30
0.0
 11
-145.62648988654928
 21
517.75490343168167
 31
0.0
 71
               5
 72
               1
 41
1.0
 42
0.0
  3
Tform線あり
100
AcDbAlignedDimension
 13
-295.62648988654928
 23
307.75490343168076
 33
0.0
 14
-295.62648988654928
 24
727.75490343168258
 34
0.0
 50
90.0
100
AcDbRotatedDimension
1001
ACAD
1000
DSTYLE
1002
{
1070
             279
1070
               2
1070
             340
1005
35
1070
             147
1040
5.0
1002
}
  0
DIMENSION
  5
154
100
AcDbEntity
  8
notes
370
               5
390
0
  6
Continuous
 62
               7
100
AcDbDimension
  2
*D7
 10
-795.62648988654973
 20
727.75490343168258
 30
0.0
 11
-800.62648988654973
 21
687.75502288893949
 31
0.0
 70
             128
 71
               5
 72
               1
 41
1.0
 42
0.0
  3
Tform線あり
100
AcDbAlignedDimension
 13
-695.62648988654973
 23
647.75514234619641
 33
0.0
 14
-645.62648988654973
 24
727.75490343168258
 34
0.0
 50
90.0
100
AcDbRotatedDimension
1001
ACAD
1000
DSTYLE
1002
{
1070
             279
1070
               2
1070
             340
1005
35
1070
             147
1040
5.0
1002
}
  0
DIMENSION
  5
155
100
AcDbEntity
  8
notes
370
               5
390
0
  6
Continuous
 62
               7
100
AcDbDimension
  2
*D8
 10
-795.62648988654973
 20
647.75514234619641
 30
0.0
 11
-795.62648988654973
 21
497.75502288893858
 31
0.0
 71
               5
 72
               1
 41
1.0
 42
0.0
  3
Tform線あり
100
AcDbAlignedDimension
 13
-694.61628474221015
 23
347.75490343168076
 33
0.0
 14
-695.62648988654973
 24
647.75514234619641
 34
0.0
 50
90.0
100
AcDbRotatedDimension
1001
ACAD
1000
DSTYLE
1002
{
1070
             279
1070
               2
1070
             340
1005
35
1070
             147
1040
5.0
1002
}
  0
DIMENSION
  5
156
100
AcDbEntity
  8
notes
370
               5
390
0
  6
Continuous
 62
               7
100
AcDbDimension
  2
*D9
 10
-655.62467817650031
 20
207.75490343168167
 30
0.0
 11
-470.6240130125575
 21
207.75490343168167
 31
0.0
 71
               5
 72
               1
 41
1.0
 42
0.0
  3
Tform線あり
100
AcDbAlignedDimension
 13
-285.62334784861469
 23
308.76575004678398
 33
0.0
 14
-655.62467817650031
 24
308.7647387971474
 34
0.0
100
AcDbRotatedDimension
1001
ACAD
1000
DSTYLE
1002
{
1070
             279
1070
               2
1070
             340
1005
35
1070
             147
1040
5.0
1002
}
  0
DIMENSION
  5
157
100
AcDbEntity
  8
notes
370
               5
390
0
  6
Continuous
 62
               7
100
AcDbDimension
  2
*D10
 10
458.7377037807546
 20
-488.16729445186957
 30
0.0
 11
463.7377037807546
 21
-483.00107142175239
 31
0.0
 70
             128
 71
               5
 72
               1
 41
1.0
 42
0.0
  3
Tform線あり
100
AcDbAlignedDimension
 13
437.12749847083273
 23
-558.17290305092229
 33
0.0
 14
437.12749847083273
 24
-488.16729445186957
 34
0.0
 50
90.0
100
AcDbRotatedDimension
1001
ACAD
1000
DSTYLE
1002
{
1070
             279
1070
               2
1070
             340
1005
35
1070
               3
1000
<>(深さ)
1070
             174
1070
               0
1070
             147
1040
5.0
1002
}
  0
DIMENSION
  5
158
100
AcDbEntity
  8
notes
370
               5
390
0
  6
Continuous
 62
               7
100
AcDbDimension
  2
*D11
 10
685.74845564176144
 20
-388.17290305092229
 30
0.0
 11
665.74845564176144
 21
-388.17290305092229
 31
0.0
 71
               5
 72
               1
 41
1.0
 42
0.0
  3
Tform線あり
100
AcDbAlignedDimension
 13
645.74845564176144
 23
-494.27761748954708
 33
0.0
 14
685.74845564176144
 24
-494.27761748954708
 34
0.0
100
AcDbRotatedDimension
1001
ACAD
1000
DSTYLE
1002
{
1070
             279
1070
               2
1070
             340
1005
35
1070
             147
1040
5.0
1002
}
  0
DIMENSION
  5
159
100
AcDbEntity
  8
notes
370
               5
390
0
  6
Continuous
 62
               7
100
AcDbDimension
  2
*D12
 10
322.29824594968022
 20
347.75490343168258
 30
0.0
 11
447.29824594968022
 21
347.75490343168258
 31
0.0
 71
               5
 72
               1
 41
1.0
 42
0.0
  3
Tform線あり
100
AcDbAlignedDimension
 13
572.29824594968022
 23
447.75490343168258
 33
0.0
 14
322.29824594968022
 24
447.75490343168258
 34
0.0
100
AcDbRotatedDimension
1001
ACAD
1000
DSTYLE
1002
{
1070
             279
1070
               2
1070
             340
1005
35
1070
             147
1040
5.0
1002
}
  0
DIMENSION
  5
15A
100
AcDbEntity
  8
notes
370
               5
390
0
  6
Continuous
 62
               7
100
AcDbDimension
  2
*D13
 10
768.81517678011414
 20
447.75490343168258
 30
0.0
 11
773.81517678011414
 21
576.99892857824761
 31
0.0
 70
             128
 71
               5
 72
               1
 41
1.0
 42
0.0
  3
Tform線あり
100
AcDbAlignedDimension
 13
572.29824594968022
 23
707.75490343168258
 33
0.0
 14
572.29824594968022
 24
447.75490343168258
 34
0.0
 50
90.0
100
AcDbRotatedDimension
1001
ACAD
1000
DSTYLE
1002
{
1070
             279
1070
               2
1070
             340
1005
35
1070
             147
1040
5.0
1002
}
  0
DIMENSION
  5
15B
100
AcDbEntity
  8
notes
370
               5
390
0
  6
Continuous
 62
               7
100
AcDbDimension
  2
*D14
 10
768.81517678011414
 20
707.75490343168258
 30
0.0
 11
773.81517678011414
 21
747.87392857824761
 31
0.0
 70
             128
 71
               5
 72
               1
 41
1.0
 42
0.0
  3
Tform線あり
100
AcDbAlignedDimension
 13
572.29824594968022
 23
727.75490343168258
 33
0.0
 14
572.29824594968022
 24
707.75490343168258
 34
0.0
 50
90.0
100
AcDbRotatedDimension
1001
ACAD
1000
DSTYLE
1002
{
1070
             279
1070
               2
1070
             340
1005
35
1070
             174
1070
               0
1070
             147
1040
5.0
1002
}
  0
DIMENSION
  5
15C
100
AcDbEntity
  8
notes
370
               5
390
0
  6
Continuous
 62
               7
100
AcDbDimension
  2
*D15
 10
-570.60175405031941
 20
827.75490343168258
 30
0.0
 11
-520.61462842661513
 21
827.75490343168258
 31
0.0
 71
               5
 72
               1
 41
1.0
 42
0.0
  3
Tform線あり
100
AcDbAlignedDimension
 13
-470.62750280291039
 23
715.2989285782478
 33
0.0
 14
-570.60175405031941
 24
712.7989285782478
 34
0.0
100
AcDbRotatedDimension
1001
ACAD
1000
DSTYLE
1002
{
1070
             279
1070
               2
1070
             340
1005
35
1070
             147
1040
5.0
1002
}
  0
DIMENSION
  5
15D
100
AcDbEntity
  8
notes
370
               5
390
0
  6
Continuous
 62
               7
100
AcDbDimension
  2
*D16
 10
-470.62750280291039
 20
827.75490343168258
 30
0.0
 11
-420.62750280290993
 21
827.75490343168258
 31
0.0
 71
               5
 72
               1
 41
1.0
 42
0.0
  3
Tform線あり
100
AcDbAlignedDimension
 13
-370.62750280290948
 23
712.7989285782478
 33
0.0
 14
-470.62750280291039
 24
715.2989285782478
 34
0.0
100
AcDbRotatedDimension
1001
ACAD
1000
DSTYLE
1002
{
1070
             279
1070
               2
1070
             340
1005
35
1070
             147
1040
5.0
1002
}
  0
DIMENSION
  5
15E
100
AcDbEntity
  8
notes
370
               5
390
0
  6
Continuous
 62
               7
100
AcDbDimension
  2
*D17
 10
-148.20175405031932
 20
-488.16729445186957
 30
0.0
 11
-148.20175405031932
 21
-538.16729445187138
 31
0.0
 71
               5
 72
               1
 41
1.0
 42
0.0
  3
Tform線あり
100
AcDbAlignedDimension
 13
-259.20175405031932
 23
-588.16729445187229
 33
0.0
 14
-259.20175405031932
 24
-488.16729445186957
 34
0.0
 50
90.0
100
AcDbRotatedDimension
1001
ACAD
1000
DSTYLE
1002
{
1070
             279
1070
               2
1070
             340
1005
35
1070
             147
1040
5.0
1002
}
  0
DIMENSION
  5
15F
100
AcDbEntity
  8
notes
370
               5
390
0
  6
Continuous
 62
               7
100
AcDbDimension
  2
*D18
 10
380.25
 20
-583.17290305092229
 30
0.0
 11
375.25
 21
-611.875
 31
0.0
 70
             128
 71
               5
 72
               1
 41
1.0
 42
0.0
  3
Tform線あり
100
AcDbAlignedDimension
 13
432.29810099163615
 23
-588.17290305092229
 33
0.0
 14
433.29810099163615
 24
-583.17290305092229
 34
0.0
 50
90.0
100
AcDbRotatedDimension
1001
ACAD
1000
DSTYLE
1002
{
1070
             279
1070
               2
1070
             340
1005
35
1070
             174
1070
               0
1070
             147
1040
5.0
1002
}
  0
CIRCLE
  5
160
100
AcDbEntity
  8
ADF70-1608
370
              15
390
0
  6
Continuous
 62
               7
100
AcDbCircle
 10
-470.62750280291039
 20
497.74499439417832
 30
0.0
 40
38.999999999999091
  0
CIRCLE
  5
161
100
AcDbEntity
  8
ADF70-1608
370
              15
390
0
  6
Continuous
 62
               7
100
AcDbCircle
 10
-470.62750280291039
 20
497.74499439417741
 30
0.0
 40
23.043551013696288
  0
LINE
  5
162
100
AcDbEntity
  8
ADF70-1608
370
              15
390
0
  6
Continuous
 62
               7
100
AcDbLine
 10
-645.62648988654655
 20
307.75490343168258
 30
0.0
 11
-295.62648988654928
 21
307.75490343168258
 31
0.0
  0
ARC
  5
163
100
AcDbEntity
  8
ADF70-1608
370
              15
390
0
  6
Continuous
 62
               7
100
AcDbCircle
 10
-645.62648988654655
 20
357.75490343168076
 30
0.0
 40
50.0
100
AcDbArc
 50
180.0
 51
270.0
  0
LINE
  5
164
100
AcDbEntity
  8
ADF70-1608
370
              15
390
0
  6
Continuous
 62
               7
100
AcDbLine
 10
-245.62648988654928
 20
357.75490343168076
 30
0.0
 11
-245.62648988654928
 21
677.75490343168076
 31
0.0
  0
ARC
  5
165
100
AcDbEntity
  8
ADF70-1608
370
              15
390
0
  6
Continuous
 62
               7
100
AcDbCircle
 10
-295.62648988654928
 20
677.75490343168258
 30
0.0
 40
50.0
100
AcDbArc
 50
0.0
 51
90.0
  0
ARC
  5
166
100
AcDbEntity
  8
ADF70-1608
370
              15
390
0
  6
Continuous
 62
               7
100
AcDbCircle
 10
-295.62648988654928
 20
357.75490343168076
 30
0.0
 40
50.0
100
AcDbArc
 50
270.0
 51
0.0
  0
LINE
  5
167
100
AcDbEntity
  8
ADF70-1608
370
              15
390
0
  6
Continuous
 62
               7
100
AcDbLine
 10
-295.62648988654928
 20
727.75490343168258
 30
0.0
 11
-645.62648988654973
 21
727.75490343168258
 31
0.0
  0
ARC
  5
168
100
AcDbEntity
  8
ADF70-1608
370
              15
390
0
  6
Continuous
 62
               7
100
AcDbCircle
 10
-645.62648988654973
 20
677.75490343168258
 30
0.0
 40
50.0
100
AcDbArc
 50
90.0
 51
180.0
  0
LINE
  5
169
100
AcDbEntity
  8
ADF70-1608
370
              15
390
0
  6
Continuous
 62
               7
100
AcDbLine
 10
-695.62648988654973
 20
677.75490343168258
 30
0.0
 11
-695.62648988654655
 21
357.75490343168076
 31
0.0
  0
LWPOLYLINE
  5
16A
100
AcDbEntity
  8
ADF70-1608
370
              15
390
0
  6
Continuous
 62
               7
100
AcDbPolyline
 90
        9
 70
             129
 10
-615.62467817650167
 20
647.75514234619641
 10
-325.62334784861832
 20
647.75514234619732
 42
-0.4142135623731018
 10
-285.62334784861832
 20
607.75514234619823
 10
-285.62334784861469
 20
387.75490343168349
 42
-0.4142135623731018
 10
-325.62334784861559
 20
347.75490343168076
 10
-615.62467817649849
 20
347.75490343168076
 42
-0.414213562373105
 10
-655.62467817649849
 20
387.75490343167985
 10
-655.62467817650167
 20
607.7551423461955
 42
-0.4142135623731018
 10
-615.62467817650167
 20
647.75514234619641
  0
LWPOLYLINE
  5
16B
100
AcDbEntity
  8
ADF70-1608
370
              15
390
0
  6
Continuous
 62
               7
100
AcDbPolyline
 90
        9
 70
             129
 10
-615.62467817650167
 20
636.54750244397746
 10
-325.62334784861832
 20
636.54750244397746
 42
-0.4142135623731182
 10
-296.83098775083727
 20
607.75514234619823
 10
-296.83098775083727
 20
387.75490343168349
 42
-0.4142135623731413
 10
-325.62334784861559
 20
358.96254333390152
 10
-615.62467817649849
 20
358.96254333390152
 42
-0.4142135623731228
 10
-644.41703827427955
 20
387.75490343167985
 10
-644.41703827428273
 20
607.7551423461955
 42
-0.4142135623731043
 10
-615.62467817650167
 20
636.54750244397746
  0
CIRCLE
  5
16C
100
AcDbEntity
  8
ADF70-1608
370
              15
390
0
  6
STYLE_12
 62
               7
100
AcDbCircle
 10
-470.62750280291039
 20
687.7989285782478
 30
0.0
 40
17.499999999999925
  0
CIRCLE
  5
16D
100
AcDbEntity
  8
ADF70-1608
370
              15
390
0
  6
STYLE_12
 62
               7
100
AcDbCircle
 10
-370.62750280290948
 20
687.7989285782478
 30
0.0
 40
15.000000000000011
  0
CIRCLE
  5
16E
100
AcDbEntity
  8
ADF70-1608
370
              15
390
0
  6
STYLE_12
 62
               7
100
AcDbCircle
 10
-570.60175405031941
 20
687.7989285782478
 30
0.0
 40
15.000000000000078
  0
POLYLINE
  5
16F
100
AcDbEntity
  8
ADF70-1608
370
              15
390
0
  6
Continuous
 62
               7
100
AcDb3dPolyline
 66
               1
 10
0.0
 20
0.0
 30
0.0
 70
               8
  0
VERTEX
  5
170
100
AcDbEntity
  8
ADF70-1608
370
              15
390
0
  6
Continuous
 62
               7
100
AcDbVertex
100
AcDb3dPolylineVertex
 10
267.56615168098347
 20
-584.7021979359788
 30
-0.0000000000004547
 70
              32
  0
VERTEX
  5
171
100
AcDbEntity
  8
ADF70-1608
370
              15
390
0
  6
Continuous
 62
               7
100
AcDbVertex
100
AcDb3dPolylineVertex
 10
265.9615652974403
 20
-494.27761350203764
 30
-0.0000000000004547
 70
              32
  0
SEQEND
  5
172
100
AcDbEntity
  8
ADF70-1608
370
              15
390
0
  6
Continuous
 62
               7
  0
ARC
  5
173
100
AcDbEntity
  8
ADF70-1608
370
              15
390
0
  6
Continuous
 62
               7
100
AcDbCircle
 10
269.56584709448953
 20
-584.66729445186957
 30
0.0
 40
2.0000000000000346
100
AcDbArc
 50
180.99996192787893
 51
270.0
  0
SPLINE
  5
174
100
AcDbEntity
  8
ADF70-1608
370
              15
390
0
  6
Continuous
 62
               7
100
AcDbSpline
210
0.0
220
0.0
230
1.0
 70
               4
 71
               2
 72
               8
 73
               5
 74
               0
 42
0.000001
 43
0.000001
 40
0.0
 40
0.0
 40
0.0
 40
0.5
 40
0.5
 40
1.0
 40
1.0
 40
1.0
 10
265.96156529744212
 20
-494.27761350203582
 30
-0.0000000000000011
 41
1.0
 10
265.91765658113263
 20
-491.76198903479872
 30
-0.0000000000000011
 41
0.9222010359308012
 10
267.68115026066107
 20
-489.96744604285959
 30
-0.0000000000000008
 41
1.0
 10
269.44464394019042
 20
-488.17290305092229
 30
-0.0000000000000005
 41
0.9222010359308012
 10
271.96065160758235
 20
-488.17290305092229
 30
-0.0
 41
1.0
  0
POLYLINE
  5
175
100
AcDbEntity
  8
ADF70-1608
370
              15
390
0
  6
Continuous
 62
               7
100
AcDb3dPolyline
 66
               1
 10
0.0
 20
0.0
 30
0.0
 70
               8
  0
VERTEX
  5
176
100
AcDbEntity
  8
ADF70-1608
370
              15
390
0
  6
Continuous
 62
               7
100
AcDbVertex
100
AcDb3dPolylineVertex
 10
419.78021796665644
 20
-562.71718816079374
 30
0.0
 70
              32
  0
VERTEX
  5
177
100
AcDbEntity
  8
ADF70-1608
370
              15
390
0
  6
Continuous
 62
               7
100
AcDbVertex
100
AcDb3dPolylineVertex
 10
431.07145499153967
 20
-572.25426970184799
 30
0.0
 70
              32
  0
SEQEND
  5
178
100
AcDbEntity
  8
ADF70-1608
370
              15
390
0
  6
Continuous
 62
               7
  0
POLYLINE
  5
179
100
AcDbEntity
  8
ADF70-1608
370
              15
390
0
  6
Continuous
 62
               7
100
AcDb3dPolyline
 66
               1
 10
0.0
 20
0.0
 30
0.0
 70
               8
  0
VERTEX
  5
17A
100
AcDbEntity
  8
ADF70-1608
370
              15
390
0
  6
Continuous
 62
               7
100
AcDbVertex
100
AcDb3dPolylineVertex
 10
432.8451047911617
 20
-576.07404252028937
 30
0.0
 70
              32
  0
VERTEX
  5
17B
100
AcDbEntity
  8
ADF70-1608
370
              15
390
0
  6
Continuous
 62
               7
100
AcDbVertex
100
AcDb3dPolylineVertex
 10
433.0
 20
-583.17290305092229
 30
0.0
 70
              32
  0
SEQEND
  5
17C
100
AcDbEntity
  8
ADF70-1608
370
              15
390
0
  6
Continuous
 62
               7
  0
ARC
  5
17D
100
AcDbEntity
  8
ADF70-1608
370
              15
390
0
  6
STYLE_12
 62
               7
100
AcDbCircle
 10
427.84510479116079
 20
-576.07404252028937
 30
0.0
 40
5.0000000000002274
100
AcDbArc
 50
0.0
 51
49.814074834290977
  0
POLYLINE
  5
17E
100
AcDbEntity
  8
ADF70-1608
370
              15
390
0
  6
Continuous
 62
               7
100
AcDb3dPolyline
 66
               1
 10
0.0
 20
0.0
 30
0.0
 70
               8
  0
VERTEX
  5
17F
100
AcDbEntity
  8
ADF70-1608
370
              15
390
0
  6
Continuous
 62
               7
100
AcDbVertex
100
AcDb3dPolylineVertex
 10
612.56804979259164
 20
-488.17290305092138
 30
0.0
 70
              32
  0
VERTEX
  5
180
100
AcDbEntity
  8
ADF70-1608
370
              15
390
0
  6
Continuous
 62
               7
100
AcDbVertex
100
AcDb3dPolylineVertex
 10
679.74936947082574
 20
-488.17290305092138
 30
0.0
 70
              32
  0
SEQEND
  5
181
100
AcDbEntity
  8
ADF70-1608
370
              15
390
0
  6
Continuous
 62
               7
  0
POLYLINE
  5
182
100
AcDbEntity
  8
ADF70-1608
370
              15
390
0
  6
Continuous
 62
               7
100
AcDb3dPolyline
 66
               1
 10
0.0
 20
0.0
 30
0.0
 70
               8
  0
VERTEX
  5
183
100
AcDbEntity
  8
ADF70-1608
370
              15
390
0
  6
Continuous
 62
               7
100
AcDbVertex
100
AcDb3dPolylineVertex
 10
685.74845564176144
 20
-494.27761748954708
 30
0.0
 70
              32
  0
VERTEX
  5
184
100
AcDbEntity
  8
ADF70-1608
370
              15
390
0
  6
Continuous
 62
               7
100
AcDbVertex
100
AcDb3dPolylineVertex
 10
684.14380819991516
 20
-584.70219926474147
 30
0.0
 70
              32
  0
SEQEND
  5
185
100
AcDbEntity
  8
ADF70-1608
370
              15
390
0
  6
Continuous
 62
               7
  0
ARC
  5
186
100
AcDbEntity
  8
ADF70-1608
370
              15
390
0
  6
Continuous
 62
               7
100
AcDbCircle
 10
682.14411280960235
 20
-584.66729445186775
 30
0.0
 40
2.0
100
AcDbArc
 50
270.0
 51
359.00000000002427
  0
POLYLINE
  5
187
100
AcDbEntity
  8
ADF70-1608
370
              15
390
0
  6
Continuous
 62
               7
100
AcDb3dPolyline
 66
               1
 10
0.0
 20
0.0
 30
0.0
 70
               8
  0
VERTEX
  5
188
100
AcDbEntity
  8
ADF70-1608
370
              15
390
0
  6
Continuous
 62
               7
100
AcDbVertex
100
AcDb3dPolylineVertex
 10
685.74845564176417
 20
-494.27761748954072
 30
-0.0000000000003039
 70
              32
  0
VERTEX
  5
189
100
AcDbEntity
  8
ADF70-1608
370
              15
390
0
  6
Continuous
 62
               7
100
AcDbVertex
100
AcDb3dPolylineVertex
 10
685.65127033193335
 20
-493.09236326652626
 30
-0.0000000000003039
 70
              32
  0
VERTEX
  5
18A
100
AcDbEntity
  8
ADF70-1608
370
              15
390
0
  6
Continuous
 62
               7
100
AcDbVertex
100
AcDb3dPolylineVertex
 10
685.3222267880567
 20
-491.94955842585932
 30
-0.000000000000304
 70
              32
  0
VERTEX
  5
18B
100
AcDbEntity
  8
ADF70-1608
370
              15
390
0
  6
Continuous
 62
               7
100
AcDbVertex
100
AcDb3dPolylineVertex
 10
684.77425160053303
 20
-490.89409845433966
 30
-0.0000000000003041
 70
              32
  0
VERTEX
  5
18C
100
AcDbEntity
  8
ADF70-1608
370
              15
390
0
  6
Continuous
 62
               7
100
AcDbVertex
100
AcDb3dPolylineVertex
 10
684.02887216575004
 20
-489.96744746511922
 30
-0.0000000000003043
 70
              32
  0
VERTEX
  5
18D
100
AcDbEntity
  8
ADF70-1608
370
              15
390
0
  6
Continuous
 62
               7
100
AcDbVertex
100
AcDb3dPolylineVertex
 10
683.11537097480891
 20
-489.20600926554562
 30
-0.0000000000003044
 70
              32
  0
VERTEX
  5
18E
100
AcDbEntity
  8
ADF70-1608
370
              15
390
0
  6
Continuous
 62
               7
100
AcDbVertex
100
AcDb3dPolylineVertex
 10
682.06963524064599
 20
-488.63969722089678
 30
-0.0000000000003047
 70
              32
  0
VERTEX
  5
18F
100
AcDbEntity
  8
ADF70-1608
370
              15
390
0
  6
Continuous
 62
               7
100
AcDbVertex
100
AcDb3dPolylineVertex
 10
680.93274705635417
 20
-488.29075909738731
 30
-0.0000000000003049
 70
              32
  0
VERTEX
  5
190
100
AcDbEntity
  8
ADF70-1608
370
              15
390
0
  6
Continuous
 62
               7
100
AcDbVertex
100
AcDb3dPolylineVertex
 10
679.74936947082574
 20
-488.17290305091956
 30
-0.0000000000003051
 70
              32
  0
SEQEND
  5
191
100
AcDbEntity
  8
ADF70-1608
370
              15
390
0
  6
Continuous
 62
               7
  0
ARC
  5
192
100
AcDbEntity
  8
ADF70-1608
370
              15
390
0
  6
STYLE_12
 62
               7
100
AcDbCircle
 10
410.74643740559304
 20
-573.41255205243306
 30
0.0
 40
14.000000000000194
100
AcDbArc
 50
49.814074834291674
 51
86.375741372463835
  0
LINE
  5
193
100
AcDbEntity
  8
ADF70-1608
370
              15
390
0
  6
STYLE_12
 62
               7
100
AcDbLine
 10
413.72422235341173
 20
-559.73290305091996
 30
0.0
 11
497.96598722887688
 21
-559.73290305091996
 31
0.0
  0
LINE
  5
194
100
AcDbEntity
  8
ADF70-1608
370
              15
390
0
  6
STYLE_12
 62
               7
100
AcDbLine
 10
432.84510479116079
 20
-573.75237329554147
 30
0.0
 11
478.84510479114238
 21
-573.75237329554147
 31
0.0
  0
LINE
  5
195
100
AcDbEntity
  8
ADF70-1608
370
              15
390
0
  6
STYLE_12
 62
               7
100
AcDbLine
 10
433.0
 20
-583.17290305092229
 30
0.0
 11
479.0
 21
-583.17290305092229
 31
0.0
  0
LINE
  5
196
100
AcDbEntity
  8
ADF70-1608
370
              15
390
0
  6
Continuous
 62
               7
100
AcDbLine
 10
628.24845564176098
 20
-503.0
 30
0.0
 11
628.24845564176098
 21
-488.0
 31
0.0
  0
LINE
  5
197
100
AcDbEntity
  8
ADF70-1608
370
              15
390
0
  6
Continuous
 62
               7
100
AcDbLine
 10
663.24845564176098
 20
-503.0
 30
0.0
 11
663.24845564176098
 21
-488.0
 31
0.0
  0
LINE
  5
198
100
AcDbEntity
  8
ADF70-1608
370
              15
390
0
  6
Continuous
 62
               7
100
AcDbLine
 10
269.56584709448953
 20
-586.66729445186957
 30
0.0
 11
275.63505673585541
 21
-586.66729445187229
 31
0.0
  0
LINE
  5
199
100
AcDbEntity
  8
ADF70-1608
370
              15
390
0
  6
Continuous
 62
               7
100
AcDbLine
 10
682.14411280960235
 20
-586.66729445186957
 30
0.0
 11
676.07490186206564
 21
-586.66729445186957
 31
0.0
  0
POLYLINE
  5
19A
100
AcDbEntity
  8
ADF70-1608
370
              15
390
0
  6
Continuous
 62
               7
100
AcDb3dPolyline
 66
               1
 10
0.0
 20
0.0
 30
0.0
 70
               8
  0
VERTEX
  5
19B
100
AcDbEntity
  8
ADF70-1608
370
              15
390
0
  6
Continuous
 62
               7
100
AcDbVertex
100
AcDb3dPolylineVertex
 10
586.12540185323473
 20
-588.16729445186957
 30
-0.0000000000000005
 70
              32
  0
VERTEX
  5
19C
100
AcDbEntity
  8
ADF70-1608
370
              15
390
0
  6
Continuous
 62
               7
100
AcDbVertex
100
AcDb3dPolylineVertex
 10
579.94499266815569
 20
-588.16729445186957
 30
-0.0000000000000022
 70
              32
  0
SEQEND
  5
19D
100
AcDbEntity
  8
ADF70-1608
370
              15
390
0
  6
Continuous
 62
               7
  0
POLYLINE
  5
19E
100
AcDbEntity
  8
ADF70-1608
370
              15
390
0
  6
Continuous
 62
               7
100
AcDb3dPolyline
 66
               1
 10
0.0
 20
0.0
 30
0.0
 70
               8
  0
VERTEX
  5
19F
100
AcDbEntity
  8
ADF70-1608
370
              15
390
0
  6
Continuous
 62
               7
100
AcDbVertex
100
AcDb3dPolylineVertex
 10
586.12540185323473
 20
-588.16729445186957
 30
-0.0000000000000005
 70
              32
  0
VERTEX
  5
1A0
100
AcDbEntity
  8
ADF70-1608
370
              15
390
0
  6
Continuous
 62
               7
100
AcDbVertex
100
AcDb3dPolylineVertex
 10
676.07490186206564
 20
-586.66729445187229
 30
0.0
 70
              32
  0
SEQEND
  5
1A1
100
AcDbEntity
  8
ADF70-1608
370
              15
390
0
  6
Continuous
 62
               7
  0
POLYLINE
  5
1A2
100
AcDbEntity
  8
ADF70-1608
370
              15
390
0
  6
Continuous
 62
               7
100
AcDb3dPolyline
 66
               1
 10
0.0
 20
0.0
 30
0.0
 70
               8
  0
VERTEX
  5
1A3
100
AcDbEntity
  8
ADF70-1608
370
              15
390
0
  6
Continuous
 62
               7
100
AcDbVertex
100
AcDb3dPolylineVertex
 10
310.74521691414384
 20
-588.16729445186957
 30
0.0000000001575156
 70
              32
  0
VERTEX
  5
1A4
100
AcDbEntity
  8
ADF70-1608
370
              15
390
0
  6
Continuous
 62
               7
100
AcDbVertex
100
AcDb3dPolylineVertex
 10
304.4105416102143
 20
-588.16729445186957
 30
0.0000000000003691
 70
              32
  0
SEQEND
  5
1A5
100
AcDbEntity
  8
ADF70-1608
370
              15
390
0
  6
Continuous
 62
               7
  0
ARC
  5
1A6
100
AcDbEntity
  8
ADF70-1608
370
              15
390
0
  6
STYLE_12
 62
               7
100
AcDbCircle
 10
299.23606305230851
 20
-496.17290305092138
 30
0.0
 40
7.9999999999999583
100
AcDbArc
 50
9.9999999999522906
 51
90.0
  0
ARC
  5
1A7
100
AcDbEntity
  8
ADF70-1608
370
              15
390
0
  6
STYLE_12
 62
               7
100
AcDbCircle
 10
299.23606305230851
 20
-496.17290305092138
 30
0.0
 40
7.9999999999999583
100
AcDbArc
 50
9.9999999999522906
 51
90.0
  0
POLYLINE
  5
1A8
100
AcDbEntity
  8
ADF70-1608
370
              15
390
0
  6
Continuous
 62
               7
100
AcDb3dPolyline
 66
               1
 10
0.0
 20
0.0
 30
0.0
 70
               8
  0
VERTEX
  5
1A9
100
AcDbEntity
  8
ADF70-1608
370
              15
390
0
  6
Continuous
 62
               7
100
AcDbVertex
100
AcDb3dPolylineVertex
 10
491.90999161564673
 20
-562.71718816079374
 30
0.0
 70
              32
  0
VERTEX
  5
1AA
100
AcDbEntity
  8
ADF70-1608
370
              15
390
0
  6
Continuous
 62
               7
100
AcDbVertex
100
AcDb3dPolylineVertex
 10
480.6187545907635
 20
-572.25426970184799
 30
0.0
 70
              32
  0
SEQEND
  5
1AB
100
AcDbEntity
  8
ADF70-1608
370
              15
390
0
  6
Continuous
 62
               7
  0
POLYLINE
  5
1AC
100
AcDbEntity
  8
ADF70-1608
370
              15
390
0
  6
Continuous
 62
               7
100
AcDb3dPolyline
 66
               1
 10
0.0
 20
0.0
 30
0.0
 70
               8
  0
VERTEX
  5
1AD
100
AcDbEntity
  8
ADF70-1608
370
              15
390
0
  6
Continuous
 62
               7
100
AcDbVertex
100
AcDb3dPolylineVertex
 10
478.84510479114238
 20
-576.07404252028755
 30
0.0
 70
              32
  0
VERTEX
  5
1AE
100
AcDbEntity
  8
ADF70-1608
370
              15
390
0
  6
Continuous
 62
               7
100
AcDbVertex
100
AcDb3dPolylineVertex
 10
478.84510479114238
 20
-583.17290305092229
 30
0.0
 70
              32
  0
SEQEND
  5
1AF
100
AcDbEntity
  8
ADF70-1608
370
              15
390
0
  6
Continuous
 62
               7
  0
ARC
  5
1B0
100
AcDbEntity
  8
ADF70-1608
370
              15
390
0
  6
STYLE_12
 62
               7
100
AcDbCircle
 10
483.84510479114238
 20
-576.07404252028755
 30
0.0
 40
4.9999999999999751
100
AcDbArc
 50
130.18592516570706
 51
180.0
  0
ARC
  5
1B1
100
AcDbEntity
  8
ADF70-1608
370
              15
390
0
  6
STYLE_12
 62
               7
100
AcDbCircle
 10
500.94377217671013
 20
-573.41255205243306
 30
0.0
 40
14.000000000001114
100
AcDbArc
 50
93.624258627536179
 51
130.18592516570905
  0
POLYLINE
  5
1B2
100
AcDbEntity
  8
ADF70-1608
370
              15
390
0
  6
Continuous
 62
               7
100
AcDb3dPolyline
 66
               1
 10
0.0
 20
0.0
 30
0.0
 70
               8
  0
VERTEX
  5
1B3
100
AcDbEntity
  8
ADF70-1608
370
              15
390
0
  6
Continuous
 62
               7
100
AcDbVertex
100
AcDb3dPolylineVertex
 10
310.74521691414384
 20
-588.16729445187048
 30
0.0000000001575156
 70
              32
  0
VERTEX
  5
1B4
100
AcDbEntity
  8
ADF70-1608
370
              15
390
0
  6
Continuous
 62
               7
100
AcDbVertex
100
AcDb3dPolylineVertex
 10
579.94499266815569
 20
-588.16729445186957
 30
-0.0000000000000022
 70
              32
  0
SEQEND
  5
1B5
100
AcDbEntity
  8
ADF70-1608
370
              15
390
0
  6
Continuous
 62
               7
  0
POLYLINE
  5
1B6
100
AcDbEntity
  8
ADF70-1608
370
              15
390
0
  6
Continuous
 62
               7
100
AcDb3dPolyline
 66
               1
 10
0.0
 20
0.0
 30
0.0
 70
               8
  0
VERTEX
  5
1B7
100
AcDbEntity
  8
ADF70-1608
370
              15
390
0
  6
Continuous
 62
               7
100
AcDbVertex
100
AcDb3dPolylineVertex
 10
304.4105416102143
 20
-588.16729445186957
 30
0.0000000000003691
 70
              32
  0
VERTEX
  5
1B8
100
AcDbEntity
  8
ADF70-1608
370
              15
390
0
  6
Continuous
 62
               7
100
AcDbVertex
100
AcDb3dPolylineVertex
 10
275.63505673585541
 20
-586.66729445187229
 30
0.0
 70
              32
  0
SEQEND
  5
1B9
100
AcDbEntity
  8
ADF70-1608
370
              15
390
0
  6
Continuous
 62
               7
  0
POLYLINE
  5
1BA
100
AcDbEntity
  8
ADF70-1608
370
              15
390
0
  6
Continuous
 62
               7
100
AcDb3dPolyline
 66
               1
 10
0.0
 20
0.0
 30
0.0
 70
               8
  0
VERTEX
  5
1BB
100
AcDbEntity
  8
ADF70-1608
370
              15
390
0
  6
Continuous
 62
               7
100
AcDbVertex
100
AcDb3dPolylineVertex
 10
-245.62648988654928
 20
-494.27200889049709
 30
0.0
 70
              32
  0
VERTEX
  5
1BC
100
AcDbEntity
  8
ADF70-1608
370
              15
390
0
  6
Continuous
 62
               7
100
AcDbVertex
100
AcDb3dPolylineVertex
 10
-247.23113732839556
 20
-586.20219926474601
 30
0.0
 70
              32
  0
SEQEND
  5
1BD
100
AcDbEntity
  8
ADF70-1608
370
              15
390
0
  6
Continuous
 62
               7
  0
ARC
  5
1BE
100
AcDbEntity
  8
ADF70-1608
370
              15
390
0
  6
Continuous
 62
               7
100
AcDbCircle
 10
-249.23083271870928
 20
-586.16729445186957
 30
0.0
 40
2.0
100
AcDbArc
 50
270.0
 51
359.00000000002427
  0
POLYLINE
  5
1BF
100
AcDbEntity
  8
ADF70-1608
370
              15
390
0
  6
Continuous
 62
               7
100
AcDb3dPolyline
 66
               1
 10
0.0
 20
0.0
 30
0.0
 70
               8
  0
VERTEX
  5
1C0
100
AcDbEntity
  8
ADF70-1608
370
              15
390
0
  6
Continuous
 62
               7
100
AcDbVertex
100
AcDb3dPolylineVertex
 10
-245.62648988654746
 20
-494.27200889049072
 30
-0.0000000000002926
 70
              32
  0
VERTEX
  5
1C1
100
AcDbEntity
  8
ADF70-1608
370
              15
390
0
  6
Continuous
 62
               7
100
AcDbVertex
100
AcDb3dPolylineVertex
 10
-245.72367519637828
 20
-493.08675466747627
 30
-0.0000000000002927
 70
              32
  0
VERTEX
  5
1C2
100
AcDbEntity
  8
ADF70-1608
370
              15
390
0
  6
Continuous
 62
               7
100
AcDbVertex
100
AcDb3dPolylineVertex
 10
-246.05271874025493
 20
-491.94394982680842
 30
-0.0000000000002927
 70
              32
  0
VERTEX
  5
1C3
100
AcDbEntity
  8
ADF70-1608
370
              15
390
0
  6
Continuous
 62
               7
100
AcDbVertex
100
AcDb3dPolylineVertex
 10
-246.60069392777859
 20
-490.88848985528966
 30
-0.0000000000002928
 70
              32
  0
VERTEX
  5
1C4
100
AcDbEntity
  8
ADF70-1608
370
              15
390
0
  6
Continuous
 62
               7
100
AcDbVertex
100
AcDb3dPolylineVertex
 10
-247.34607336256158
 20
-489.96183886606923
 30
-0.000000000000293
 70
              32
  0
VERTEX
  5
1C5
100
AcDbEntity
  8
ADF70-1608
370
              15
390
0
  6
Continuous
 62
               7
100
AcDbVertex
100
AcDb3dPolylineVertex
 10
-248.25957455350272
 20
-489.20040066649563
 30
-0.0000000000002932
 70
              32
  0
VERTEX
  5
1C6
100
AcDbEntity
  8
ADF70-1608
370
              15
390
0
  6
Continuous
 62
               7
100
AcDbVertex
100
AcDb3dPolylineVertex
 10
-249.30531028766563
 20
-488.63408862184679
 30
-0.0000000000002934
 70
              32
  0
VERTEX
  5
1C7
100
AcDbEntity
  8
ADF70-1608
370
              15
390
0
  6
Continuous
 62
               7
100
AcDbVertex
100
AcDb3dPolylineVertex
 10
-250.44219847195745
 20
-488.28515049833823
 30
-0.0000000000002936
 70
              32
  0
VERTEX
  5
1C8
100
AcDbEntity
  8
ADF70-1608
370
              15
390
0
  6
Continuous
 62
               7
100
AcDbVertex
100
AcDb3dPolylineVertex
 10
-251.62557605748589
 20
-488.16729445186957
 30
-0.0000000000002938
 70
              32
  0
SEQEND
  5
1C9
100
AcDbEntity
  8
ADF70-1608
370
              15
390
0
  6
Continuous
 62
               7
  0
LINE
  5
1CA
100
AcDbEntity
  8
ADF70-1608
370
              15
390
0
  6
Continuous
 62
               7
100
AcDbLine
 10
-249.23083271870928
 20
-588.16729445187229
 30
0.0
 11
-255.30004366624507
 21
-588.16729445187229
 31
0.0
  0
POLYLINE
  5
1CB
100
AcDbEntity
  8
ADF70-1608
370
              15
390
0
  6
Continuous
 62
               7
100
AcDb3dPolyline
 66
               1
 10
0.0
 20
0.0
 30
0.0
 70
               8
  0
VERTEX
  5
1CC
100
AcDbEntity
  8
ADF70-1608
370
              15
390
0
  6
Continuous
 62
               7
100
AcDbVertex
100
AcDb3dPolylineVertex
 10
-695.62648988654973
 20
-494.27200889049709
 30
0.0
 70
              32
  0
VERTEX
  5
1CD
100
AcDbEntity
  8
ADF70-1608
370
              15
390
0
  6
Continuous
 62
               7
100
AcDbVertex
100
AcDb3dPolylineVertex
 10
-694.02184244470345
 20
-586.20219926474601
 30
0.0
 70
              32
  0
SEQEND
  5
1CE
100
AcDbEntity
  8
ADF70-1608
370
              15
390
0
  6
Continuous
 62
               7
  0
ARC
  5
1CF
100
AcDbEntity
  8
ADF70-1608
370
              15
390
0
  6
Continuous
 62
               7
100
AcDbCircle
 10
-692.02214705438973
 20
-586.16729445186957
 30
0.0
 40
2.0000000000000115
100
AcDbArc
 50
180.99999999997576
 51
270.0
  0
POLYLINE
  5
1D0
100
AcDbEntity
  8
ADF70-1608
370
              15
390
0
  6
Continuous
 62
               7
100
AcDb3dPolyline
 66
               1
 10
0.0
 20
0.0
 30
0.0
 70
               8
  0
VERTEX
  5
1D1
100
AcDbEntity
  8
ADF70-1608
370
              15
390
0
  6
Continuous
 62
               7
100
AcDbVertex
100
AcDb3dPolylineVertex
 10
-695.62648988655155
 20
-494.27200889049072
 30
-0.0000000000002926
 70
              32
  0
VERTEX
  5
1D2
100
AcDbEntity
  8
ADF70-1608
370
              15
390
0
  6
Continuous
 62
               7
100
AcDbVertex
100
AcDb3dPolylineVertex
 10
-695.52930457672073
 20
-493.08675466747627
 30
-0.0000000000002927
 70
              32
  0
VERTEX
  5
1D3
100
AcDbEntity
  8
ADF70-1608
370
              15
390
0
  6
Continuous
 62
               7
100
AcDbVertex
100
AcDb3dPolylineVertex
 10
-695.20026103284408
 20
-491.94394982680842
 30
-0.0000000000002927
 70
              32
  0
VERTEX
  5
1D4
100
AcDbEntity
  8
ADF70-1608
370
              15
390
0
  6
Continuous
 62
               7
100
AcDbVertex
100
AcDb3dPolylineVertex
 10
-694.65228584532042
 20
-490.88848985528966
 30
-0.0000000000002928
 70
              32
  0
VERTEX
  5
1D5
100
AcDbEntity
  8
ADF70-1608
370
              15
390
0
  6
Continuous
 62
               7
100
AcDbVertex
100
AcDb3dPolylineVertex
 10
-693.90690641053743
 20
-489.96183886606923
 30
-0.000000000000293
 70
              32
  0
VERTEX
  5
1D6
100
AcDbEntity
  8
ADF70-1608
370
              15
390
0
  6
Continuous
 62
               7
100
AcDbVertex
100
AcDb3dPolylineVertex
 10
-692.9934052195963
 20
-489.20040066649563
 30
-0.0000000000002932
 70
              32
  0
VERTEX
  5
1D7
100
AcDbEntity
  8
ADF70-1608
370
              15
390
0
  6
Continuous
 62
               7
100
AcDbVertex
100
AcDb3dPolylineVertex
 10
-691.94766948543338
 20
-488.63408862184679
 30
-0.0000000000002934
 70
              32
  0
VERTEX
  5
1D8
100
AcDbEntity
  8
ADF70-1608
370
              15
390
0
  6
Continuous
 62
               7
100
AcDbVertex
100
AcDb3dPolylineVertex
 10
-690.81078130114156
 20
-488.28515049833823
 30
-0.0000000000002936
 70
              32
  0
VERTEX
  5
1D9
100
AcDbEntity
  8
ADF70-1608
370
              15
390
0
  6
Continuous
 62
               7
100
AcDbVertex
100
AcDb3dPolylineVertex
 10
-689.62740371561313
 20
-488.16729445186957
 30
-0.0000000000002938
 70
              32
  0
SEQEND
  5
1DA
100
AcDbEntity
  8
ADF70-1608
370
              15
390
0
  6
Continuous
 62
               7
  0
LINE
  5
1DB
100
AcDbEntity
  8
ADF70-1608
370
              15
390
0
  6
Continuous
 62
               7
100
AcDbLine
 10
-255.30004366624507
 20
-588.16729445187229
 30
0.0
 11
-692.02214705438973
 21
-588.16729445186957
 31
0.0
  0
LINE
  5
1DC
100
AcDbEntity
  8
ADF70-1608
370
              15
390
0
  6
Continuous
 62
               7
100
AcDbLine
 10
-689.62740371561313
 20
-488.16729445186957
 30
0.0
 11
-251.19662299489346
 21
-488.16729445186957
 31
0.0
  0
CIRCLE
  5
1DD
100
AcDbEntity
  8
ADF70-1608
370
               5
390
0
  6
STYLE_12
 62
               7
100
AcDbCircle
 10
443.81416386375304
 20
497.74499439417741
 30
0.0
 40
23.043551013696742
  0
LINE
  5
1DE
100
AcDbEntity
  8
ADF70-1608
370
               5
390
0
  6
STYLE_12
 62
               7
100
AcDbLine
 10
268.81517678011687
 20
307.75490343168258
 30
0.0
 11
618.81517678011414
 21
307.75490343168258
 31
0.0
  0
ARC
  5
1DF
100
AcDbEntity
  8
ADF70-1608
370
               5
390
0
  6
STYLE_12
 62
               7
100
AcDbCircle
 10
268.81517678011687
 20
357.75490343168076
 30
0.0
 40
50.0
100
AcDbArc
 50
180.0
 51
270.0
  0
LINE
  5
1E0
100
AcDbEntity
  8
ADF70-1608
370
               5
390
0
  6
STYLE_12
 62
               7
100
AcDbLine
 10
668.81517678011414
 20
357.75490343168076
 30
0.0
 11
668.81517678011414
 21
677.75490343168076
 31
0.0
  0
ARC
  5
1E1
100
AcDbEntity
  8
ADF70-1608
370
               5
390
0
  6
STYLE_12
 62
               7
100
AcDbCircle
 10
618.81517678011414
 20
677.75490343168258
 30
0.0
 40
50.0
100
AcDbArc
 50
0.0
 51
90.0
  0
ARC
  5
1E2
100
AcDbEntity
  8
ADF70-1608
370
               5
390
0
  6
STYLE_12
 62
               7
100
AcDbCircle
 10
618.81517678011414
 20
357.75490343168076
 30
0.0
 40
50.0
100
AcDbArc
 50
270.0
 51
0.0
  0
LINE
  5
1E3
100
AcDbEntity
  8
ADF70-1608
370
               5
390
0
  6
STYLE_12
 62
               7
100
AcDbLine
 10
618.81517678011414
 20
727.75490343168258
 30
0.0
 11
268.81517678011392
 21
727.75490343168258
 31
0.0
  0
ARC
  5
1E4
100
AcDbEntity
  8
ADF70-1608
370
               5
390
0
  6
STYLE_12
 62
               7
100
AcDbCircle
 10
268.81517678011392
 20
677.75490343168258
 30
0.0
 40
50.0
100
AcDbArc
 50
90.0
 51
180.0
  0
LINE
  5
1E5
100
AcDbEntity
  8
ADF70-1608
370
               5
390
0
  6
STYLE_12
 62
               7
100
AcDbLine
 10
218.81517678011392
 20
677.75490343168258
 30
0.0
 11
218.81517678011687
 21
357.75490343168076
 31
0.0
  0
CIRCLE
  5
1E6
100
AcDbEntity
  8
ADF70-1608
370
               5
390
0
  6
STYLE_12
 62
               7
100
AcDbCircle
 10
443.81416386375304
 20
687.7989285782478
 30
0.0
 40
17.500000000000149
  0
CIRCLE
  5
1E7
100
AcDbEntity
  8
ADF70-1608
370
               5
390
0
  6
STYLE_12
 62
               7
100
AcDbCircle
 10
543.81416386375395
 20
687.7989285782478
 30
0.0
 40
15.000000000000011
  0
CIRCLE
  5
1E8
100
AcDbEntity
  8
ADF70-1608
370
               5
390
0
  6
STYLE_12
 62
               7
100
AcDbCircle
 10
348.81416386375304
 20
687.7989285782478
 30
0.0
 40
15.000000000000234
  0
POLYLINE
  5
1E9
100
AcDbEntity
  8
ADF70-1608
370
              15
390
0
  6
Continuous
 62
               7
100
AcDb3dPolyline
 66
               1
 10
0.0
 20
0.0
 30
0.0
 70
               8
  0
VERTEX
  5
1EA
100
AcDbEntity
  8
ADF70-1608
370
              15
390
0
  6
Continuous
 62
               7
100
AcDbVertex
100
AcDb3dPolylineVertex
 10
-447.60431957803348
 20
-573.60985659020753
 30
0.0
 70
              32
  0
VERTEX
  5
1EB
100
AcDbEntity
  8
ADF70-1608
370
              15
390
0
  6
Continuous
 62
               7
100
AcDbVertex
100
AcDb3dPolylineVertex
 10
-447.59918852262444
 20
-583.17290305092229
 30
0.0
 70
              32
  0
SEQEND
  5
1EC
100
AcDbEntity
  8
ADF70-1608
370
              15
390
0
  6
Continuous
 62
               7
  0
LINE
  5
1ED
100
AcDbEntity
  8
ADF70-1608
370
              15
390
0
  6
STYLE_12
 62
               7
100
AcDbLine
 10
-429.01328656895294
 20
-559.71656711638479
 30
0.0
 11
-512.72007096033985
 21
-559.71656711638479
 31
0.0
  0
LINE
  5
1EE
100
AcDbEntity
  8
ADF70-1608
370
              15
390
0
  6
STYLE_12
 62
               7
100
AcDbLine
 10
-447.59918852262444
 20
-573.7360373610054
 30
0.0
 11
-493.59918852260535
 21
-573.7360373610054
 31
0.0
  0
LINE
  5
1EF
100
AcDbEntity
  8
ADF70-1608
370
              15
390
0
  6
STYLE_12
 62
               7
100
AcDbLine
 10
-447.59918852262444
 20
-583.17290305092229
 30
0.0
 11
-493.59918852260535
 21
-583.17290305092229
 31
0.0
  0
INSERT
  5
1F0
100
AcDbEntity
  8
ADF70-1608
390
0
 62
               7
100
AcDbBlockReference
  2
グループ-1
 10
2213.6058607895475
 20
-6839.9189766673453
 30
0.0
  0
INSERT
  5
1F1
100
AcDbEntity
  8
ADF70-1608
390
0
 62
               7
100
AcDbBlockReference
  2
グループ-2
 10
2213.6058607895475
 20
-6839.9189766673453
 30
0.0
  0
LINE
  5
1F2
100
AcDbEntity
  8
ADF70-1608
370
              15
390
0
  6
STYLE_12
 62
               7
100
AcDbLine
 10
-493.59918852260535
 20
-583.17290305092229
 30
0.0
 11
-493.59918852260535
 21
-573.7360373610054
 31
0.0
  0
LINE
  5
1F3
100
AcDbEntity
  8
ADF70-1608
370
              15
390
0
  6
Continuous
 62
               7
100
AcDbLine
 10
271.96065160758235
 20
-488.17290305092229
 30
0.0
 11
612.56804979259164
 21
-488.17290305092138
 31
0.0
  0
POLYLINE
  5
1F4
100
AcDbEntity
  8
ADF70-1608
370
              15
390
0
  6
Continuous
 62
               7
100
AcDb2dPolyline
 66
               1
 10
0.0
 20
0.0
 30
0.0
 70
               1
 75
               5
  0
VERTEX
  5
1F5
100
AcDbEntity
  8
ADF70-1608
370
              15
390
0
  6
Continuous
 62
               7
100
AcDbVertex
100
AcDb2dVertex
 10
322.29824594968022
 20
707.75490343168258
 30
0.0
  0
VERTEX
  5
1F6
100
AcDbEntity
  8
ADF70-1608
370
              15
390
0
  6
Continuous
 62
               7
100
AcDbVertex
100
AcDb2dVertex
 10
572.29824594968022
 20
707.75490343168258
 30
0.0
  0
VERTEX
  5
1F7
100
AcDbEntity
  8
ADF70-1608
370
              15
390
0
  6
Continuous
 62
               7
100
AcDbVertex
100
AcDb2dVertex
 10
572.29824594968022
 20
447.75490343168258
 30
0.0
  0
VERTEX
  5
1F8
100
AcDbEntity
  8
ADF70-1608
370
              15
390
0
  6
Continuous
 62
               7
100
AcDbVertex
100
AcDb2dVertex
 10
322.29824594968022
 20
447.75490343168258
 30
0.0
  0
SEQEND
  5
1F9
100
AcDbEntity
  8
ADF70-1608
370
              15
390
0
  6
Continuous
 62
               7
  0
LINE
  5
1FA
100
AcDbEntity
  8
ADF70-1608
370
              15
390
0
  6
STYLE_12
 62
               7
100
AcDbLine
 10
324.33103651125975
 20
-545.73089611568412
 30
0.0
 11
411.63142040443518
 21
-559.44055129764456
 31
0.0
  0
ARC
  5
1FB
100
AcDbEntity
  8
ADF70-1608
370
              15
390
0
  6
STYLE_12
 62
               7
100
AcDbCircle
 10
326.3325591638968
 20
-533.73367612460879
 30
0.0
 40
12.163033356991541
100
AcDbArc
 50
190.54670960392329
 51
260.52844979111069
  0
LINE
  5
1FC
100
AcDbEntity
  8
ADF70-1608
370
              15
390
0
  6
STYLE_12
 62
               7
100
AcDbLine
 10
314.37500790014701
 20
-535.95996186954017
 30
0.0
 11
307.11452507640524
 21
-494.78371762958341
 31
0.0
  0
ARC
  5
1FD
100
AcDbEntity
  8
ADF70-1608
370
              15
390
0
  6
STYLE_12
 62
               7
100
AcDbCircle
 10
612.45414652999489
 20
-496.17290305092138
 30
0.0
 40
8.0
100
AcDbArc
 50
90.0
 51
170.00000000004772
  0
ARC
  5
1FE
100
AcDbEntity
  8
ADF70-1608
370
              15
390
0
  6
STYLE_12
 62
               7
100
AcDbCircle
 10
612.45414652999489
 20
-496.17290305092138
 30
0.0
 40
8.0
100
AcDbArc
 50
90.0
 51
170.00000000004772
  0
ARC
  5
1FF
100
AcDbEntity
  8
ADF70-1608
370
              15
390
0
  6
STYLE_12
 62
               7
100
AcDbCircle
 10
585.35765041840659
 20
-533.73367612460879
 30
0.0
 40
12.163033356991187
100
AcDbArc
 50
279.47155020888931
 51
349.45329039607668
  0
LINE
  5
200
100
AcDbEntity
  8
ADF70-1608
370
              15
390
0
  6
STYLE_12
 62
               7
100
AcDbLine
 10
597.31520168215638
 20
-535.95996186954017
 30
0.0
 11
604.57568450589815
 21
-494.78371762958341
 31
0.0
  0
LINE
  5
201
100
AcDbEntity
  8
ADF70-1608
370
              15
390
0
  6
STYLE_12
 62
               7
100
AcDbLine
 10
587.35917307104364
 20
-545.73089611568412
 30
0.0
 11
500.05878917786822
 21
-559.44055129764456
 31
0.0
  0
LINE
  5
202
100
AcDbEntity
  8
ADF70-1608
370
              15
390
0
  6
Continuous
 62
               7
100
AcDbLine
 10
271.96065160758235
 20
-488.17290305092229
 30
0.0
 11
612.56804979259164
 21
-488.17290305092138
 31
0.0
  0
ENDSEC
  0
SECTION
  2
OBJECTS
  0
DICTIONARY
  5
19
100
AcDbDictionary
280
               0
281
               1
  3
ACAD_GROUP
350
1A
  3
ACAD_MLINESTYLE
350
1B
  3
ACAD_LAYOUT
350
1E
  3
ACAD_PLOTSETTINGS
350
22
  3
ACAD_PLOTSTYLENAME
350
1F
  0
DICTIONARY
  5
1A
102
{ACAD_REACTORS
330
19
102
}
100
AcDbDictionary
280
               0
281
               1
  0
DICTIONARY
  5
1B
102
{ACAD_REACTORS
330
19
102
}
100
AcDbDictionary
280
               0
281
               1
  3
Standard
350
1C
  0
MLINESTYLE
  5
1C
102
{ACAD_REACTORS
330
1B
102
}
100
AcDbMlineStyle
  2
Standard
 70
               0
  3

 62
               0
 51
90.0
 52
90.0
 71
               2
 49
0.5
 62
             256
  6
ByLayer
 49
-0.5
 62
             256
  6
ByLayer
  0
ACDBDICTIONARYWDFLT
  5
1F
102
{ACAD_REACTORS
330
19
102
}
100
AcDbDictionary
281
               1
  3
Normal
350
1D
100
AcDbDictionaryWithDefault
340
1D
  0
ACDBPLACEHOLDER
  5
1D
102
{ACAD_REACTORS
330
1F
102
}
  0
LAYOUT
  5
20
102
{ACAD_REACTORS
330
1E
102
}
100
AcDbPlotSettings
  1

  2

  4

  6

 40
0.0
 41
0.0
 42
0.0
 43
0.0
 44
0.0
 45
0.0
 46
0.0
 47
0.0
 48
0.0
 49
0.0
140
0.0
141
0.0
142
1.0
143
1.0
 70
            1024
 72
               0
 73
               0
 74
               0
  7

 75
               0
147
1.0
148
0.0
149
0.0
100
AcDbLayout
  1
Model
 70
               0
 71
               0
 10
0.0
 20
0.0
 11
0.0
 21
0.0
 12
0.0
 22
0.0
 32
0.0
 14
0.0
 24
0.0
 34
0.0
 15
0.0
 25
0.0
 35
0.0
146
0.0
 13
0.0
 23
0.0
 33
0.0
 16
0.0
 26
0.0
 36
0.0
 17
0.0
 27
0.0
 37
0.0
 76
               0
330
A
331
0
345
0
346
0
  0
LAYOUT
  5
21
102
{ACAD_REACTORS
330
1E
102
}
100
AcDbPlotSettings
  1

  2

  4

  6

 40
0.0
 41
0.0
 42
0.0
 43
0.0
 44
0.0
 45
0.0
 46
0.0
 47
0.0
 48
0.0
 49
0.0
140
0.0
141
0.0
142
1.0
143
1.0
 70
               0
 72
               0
 73
               0
 74
               0
  7

 75
               0
147
1.0
148
0.0
149
0.0
100
AcDbLayout
  1
Layout1
 70
               0
 71
               0
 10
0.0
 20
0.0
 11
0.0
 21
0.0
 12
0.0
 22
0.0
 32
0.0
 14
0.0
 24
0.0
 34
0.0
 15
0.0
 25
0.0
 35
0.0
146
0.0
 13
0.0
 23
0.0
 33
0.0
 16
0.0
 26
0.0
 36
0.0
 17
0.0
 27
0.0
 37
0.0
 76
               0
330
B
331
0
345
0
346
0
  0
DICTIONARY
  5
1E
102
{ACAD_REACTORS
330
19
102
}
100
AcDbDictionary
280
               0
281
               1
  3
Layout1
350
21
  3
Model
350
20
  0
DICTIONARY
  5
22
102
{ACAD_REACTORS
330
19
102
}
100
AcDbDictionary
280
               0
281
               1
  0
ENDSEC
  0
EOF
