  0
SECTION
  2
HEADER
  9
$ACADVER
  1
AC1015
  9
$ACADMAINTVER
 70
               6
  9
$DWGCODEPAGE
  3
ANSI_932
  9
$INSBASE
 10
0.0
 20
0.0
 30
0.0
  9
$EXTMIN
 10
-1462.500000000362
 20
-2147.2882837066695
 30
-22.251458333333336
  9
$EXTMAX
 10
1462.500000000362
 20
2108.9959389619494
 30
22.251458333333336
  9
$LIMMIN
 10
0.0
 20
0.0
  9
$LIMMAX
 10
0.0
 20
0.0
  9
$ORTHOMODE
 70
               0
  9
$REGENMODE
 70
               1
  9
$FILLMODE
 70
               1
  9
$QTEXTMODE
 70
               0
  9
$MIRRTEXT
 70
               1
  9
$LTSCALE
 40
76.199999999999989
  9
$ATTMODE
 70
               1
  9
$TEXTSIZE
 40
0.2
  9
$TRACEWID
 40
1.0
  9
$TEXTSTYLE
  7
Standard
  9
$CLAYER
  8
template
  9
$CELTYPE
  6
Continuous
  9
$CECOLOR
 62
             256
  9
$CELTSCALE
 40
1.0
  9
$DISPSILH
 70
               0
  9
$DIMSCALE
 40
1.0
  9
$DIMASZ
 40
14.999084472656248
  9
$DIMEXO
 40
37.499999999999993
  9
$DIMDLI
 40
0.9999999999999999
  9
$DIMRND
 40
0.0
  9
$DIMDLE
 40
0.0
  9
$DIMEXE
 40
0.0
  9
$DIMTP
 40
0.0
  9
$DIMTM
 40
0.0
  9
$DIMTXT
 40
36.64892578125
  9
$DIMCEN
 40
0.0
  9
$DIMTSZ
 40
0.0
  9
$DIMTOL
 70
               0
  9
$DIMLIM
 70
               0
  9
$DIMTIH
 70
               0
  9
$DIMTOH
 70
               0
  9
$DIMSE1
 70
               0
  9
$DIMSE2
 70
               0
  9
$DIMTAD
 70
               1
  9
$DIMZIN
 70
              11
  9
$DIMBLK
  1
_DOT
  9
$DIMASO
 70
               1
  9
$DIMSHO
 70
               1
  9
$DIMPOST
  1
<>
  9
$DIMAPOST
  1
[]
  9
$DIMALT
 70
               0
  9
$DIMALTD
 70
               1
  9
$DIMALTF
 40
1.0
  9
$DIMLFAC
 40
1.0
  9
$DIMTOFL
 70
               1
  9
$DIMTVP
 40
0.0
  9
$DIMTIX
 70
               1
  9
$DIMSOXD
 70
               0
  9
$DIMSAH
 70
               0
  9
$DIMBLK1
  1

  9
$DIMBLK2
  1

  9
$DIMSTYLE
  2
Tform線あり
  9
$DIMCLRD
 70
               0
  9
$DIMCLRE
 70
               0
  9
$DIMCLRT
 70
               0
  9
$DIMTFAC
 40
0.8
  9
$DIMGAP
 40
0.4999999999999999
  9
$DIMJUST
 70
               0
  9
$DIMSD1
 70
               0
  9
$DIMSD2
 70
               0
  9
$DIMTOLJ
 70
               1
  9
$DIMTZIN
 70
              11
  9
$DIMALTZ
 70
              11
  9
$DIMALTTZ
 70
              11
  9
$DIMUPT
 70
               0
  9
$DIMDEC
 70
               1
  9
$DIMTDEC
 70
               1
  9
$DIMALTU
 70
               2
  9
$DIMALTTD
 70
               2
  9
$DIMTXSTY
  7
ＭＳゴシック
  9
$DIMAUNIT
 70
               0
  9
$DIMADEC
 70
               2
  9
$DIMALTRND
 40
0.0
  9
$DIMAZIN
 70
               0
  9
$DIMDSEP
 70
              46
  9
$DIMATFIT
 70
               0
  9
$DIMFRAC
 70
               2
  9
$DIMLDRBLK
  1

  9
$DIMLUNIT
 70
               2
  9
$DIMLWD
 70
              -2
  9
$DIMLWE
 70
              -2
  9
$DIMTMOVE
 70
               0
  9
$LUNITS
 70
               2
  9
$LUPREC
 70
               4
  9
$SKETCHINC
 40
0.1
  9
$FILLETRAD
 40
0.0
  9
$AUNITS
 70
               0
  9
$AUPREC
 70
               0
  9
$MENU
  1
acad
  9
$ELEVATION
 40
0.0
  9
$PELEVATION
 40
0.0
  9
$THICKNESS
 40
0.0
  9
$LIMCHECK
 70
               0
  9
$CHAMFERA
 40
0.0
  9
$CHAMFERB
 40
0.0
  9
$CHAMFERC
 40
0.0
  9
$CHAMFERD
 40
0.0
  9
$SKPOLY
 70
               0
  9
$TDCREATE
 40
2456041.724085648
  9
$TDUCREATE
 40
0.000000000
  9
$TDUPDATE
 40
2456041.724085648
  9
$TDUUPDATE
 40
0.000000000
  9
$TDINDWG
 40
0.0000000000
  9
$TDUSRTIMER
 40
0.0000000000
  9
$USRTIMER
 70
               1
  9
$ANGBASE
 50
0.0
  9
$ANGDIR
 70
               0
  9
$PDMODE
 70
               1
  9
$PDSIZE
 40
-2.0
  9
$PLINEWID
 40
0.0
  9
$SPLFRAME
 70
               0
  9
$SPLINETYPE
 70
               6
  9
$SPLINESEGS
 70
               8
  9
$HANDSEED
  5
272
  9
$SURFTAB1
 70
               6
  9
$SURFTAB2
 70
               6
  9
$SURFTYPE
 70
               6
  9
$SURFU
 70
               6
  9
$SURFV
 70
               6
  9
$UCSBASE
  2

  9
$UCSNAME
  2

  9
$UCSORG
 10
0.0
 20
0.0
 30
0.0
  9
$UCSXDIR
 10
1.0
 20
0.0
 30
0.0
  9
$UCSYDIR
 10
0.0
 20
1.0
 30
0.0
  9
$UCSORTHOREF
  2

  9
$UCSORTHOVIEW
 70
               0
  9
$UCSORGTOP
 10
0.0
 20
0.0
 30
0.0
  9
$UCSORGBOTTOM
 10
0.0
 20
0.0
 30
0.0
  9
$UCSORGLEFT
 10
0.0
 20
0.0
 30
0.0
  9
$UCSORGRIGHT
 10
0.0
 20
0.0
 30
0.0
  9
$UCSORGFRONT
 10
0.0
 20
0.0
 30
0.0
  9
$UCSORGBACK
 10
0.0
 20
0.0
 30
0.0
  9
$PUCSBASE
  2

  9
$PUCSNAME
  2

  9
$PUCSORG
 10
0.0
 20
0.0
 30
0.0
  9
$PUCSXDIR
 10
1.0
 20
0.0
 30
0.0
  9
$PUCSYDIR
 10
0.0
 20
1.0
 30
0.0
  9
$PUCSORTHOREF
  2

  9
$PUCSORTHOVIEW
 70
               0
  9
$PUCSORGTOP
 10
0.0
 20
0.0
 30
0.0
  9
$PUCSORGBOTTOM
 10
0.0
 20
0.0
 30
0.0
  9
$PUCSORGLEFT
 10
0.0
 20
0.0
 30
0.0
  9
$PUCSORGRIGHT
 10
0.0
 20
0.0
 30
0.0
  9
$PUCSORGFRONT
 10
0.0
 20
0.0
 30
0.0
  9
$PUCSORGBACK
 10
0.0
 20
0.0
 30
0.0
  9
$USERI1
 70
               0
  9
$USERI2
 70
               0
  9
$USERI3
 70
               0
  9
$USERI4
 70
               0
  9
$USERI5
 70
               0
  9
$USERR1
 40
0.0
  9
$USERR2
 40
0.0
  9
$USERR3
 40
0.0
  9
$USERR4
 40
0.0
  9
$USERR5
 40
0.0
  9
$WORLDVIEW
 70
               1
  9
$SHADEDGE
 70
               3
  9
$SHADEDIF
 70
              70
  9
$TILEMODE
 70
               1
  9
$MAXACTVP
 70
              64
  9
$PINSBASE
 10
0.0
 20
0.0
 30
0.0
  9
$PLIMCHECK
 70
               0
  9
$PEXTMIN
 10
1.0000000000000000E+20
 20
1.0000000000000000E+20
 30
1.0000000000000000E+20
  9
$PEXTMAX
 10
-1.0000000000000000E+20
 20
-1.0000000000000000E+20
 30
-1.0000000000000000E+20
  9
$PLIMMIN
 10
0.0
 20
0.0
  9
$PLIMMAX
 10
12.0
 20
9.0
  9
$UNITMODE
 70
               0
  9
$VISRETAIN
 70
               0
  9
$PLINEGEN
 70
               1
  9
$PSLTSCALE
 70
               0
  9
$TREEDEPTH
 70
            3020
  9
$CMLSTYLE
  2
Standard
  9
$CMLJUST
 70
               0
  9
$CMLSCALE
 40
1.0
  9
$PROXYGRAPHICS
 70
               0
  9
$MEASUREMENT
 70
               1
  9
$CELWEIGHT
370
               0
  9
$ENDCAPS
280
               0
  9
$JOINSTYLE
280
               0
  9
$LWDISPLAY
290
               1
  9
$INSUNITS
 70
               4
  9
$HYPERLINKBASE
  1

  9
$STYLESHEET
  1

  9
$XEDIT
290
               1
  9
$CEPSNTYPE
380
               0
  9
$PSTYLEMODE
290
               1
  9
$FINGERPRINTGUID
  2

  9
$VERSIONGUID
  2

  9
$EXTNAMES
290
               1
  9
$PSVPSCALE
 40
0.0
  0
ENDSEC
  0
SECTION
  2
CLASSES
  0
CLASS
  1
LWPOLYLINE
  2
AcDbPolyline
  3
AutoCAD 2000
 90
        0
280
               0
281
               1
  0
CLASS
  1
IMAGE
  2
AcDbRasterImage
  3
ISM
 90
      127
280
               0
281
               1
  0
CLASS
  1
OLE2FRAME
  2
AcDbOle2Frame
  3
AutoCAD 2000
 90
        0
280
               0
281
               1
  0
CLASS
  1
HATCH
  2
AcDbHatch
  3
AutoCAD 2000
 90
        0
280
               0
281
               1
  0
CLASS
  1
DICTIONARYVAR
  2
AcDbDictionaryVar
  3
AutoCAD 2000
 90
        0
280
               0
281
               0
  0
CLASS
  1
RASTERVARIABLES
  2
AcDbRasterVariables
  3
ISM
 90
        0
280
               0
281
               0
  0
CLASS
  1
IMAGEDEF
  2
AcDbRasterImageDef
  3
ISM
 90
        0
280
               0
281
               0
  0
CLASS
  1
IMAGEDEF_REACTOR
  2
AcDbRasterImageDefReactor
  3
ISM
 90
        1
280
               0
281
               0
  0
CLASS
  1
IDBUFFER
  2
AcDbIdBuffer
  3
AutoCAD 2000
 90
        0
280
               0
281
               0
  0
CLASS
  1
SPATIAL_FILTER
  2
AcDbSpatialFilter
  3
AutoCAD 2000
 90
        0
280
               0
281
               0
  0
CLASS
  1
XRECORD
  2
AcDbXrecord
  3
AutoCAD 2000
 90
        0
280
               0
281
               0
  0
CLASS
  1
SORTENTSTABLE
  2
AcDbSortentsTable
  3
AutoCAD 2000
 90
        0
280
               0
281
               0
  0
CLASS
  1
LAYER_INDEX
  2
AcDbLayerIndex
  3
AutoCAD 2000
 90
        0
280
               0
281
               0
  0
CLASS
  1
SPATIAL_INDEX
  2
AcDbSpatialIndex
  3
AutoCAD 2000
 90
        0
280
               0
281
               0
  0
CLASS
  1
OBJECT_PTR
  2
CAseDLPNTableRecord
  3
"ASE-LPNTableRecord"
 90
        1
280
               0
281
               0
  0
CLASS
  1
LAYOUT
  2
AcDbLayout
  3
AutoCAD 2000
 90
        0
280
               0
281
               0
  0
CLASS
  1
PLOTSETTINGS
  2
AcDbPlotSettings
  3
AutoCAD 2000
 90
        0
280
               0
281
               0
  0
CLASS
  1
ACDBDICTIONARYWDFLT
  2
AcDbDictionaryWithDefault
  3
AutoCAD 2000
 90
        0
280
               0
281
               0
  0
CLASS
  1
ACDBPLACEHOLDER
  2
AcDbPlaceHolder
  3
AutoCAD 2000
 90
        0
280
               0
281
               0
  0
ENDSEC
  0
SECTION
  2
TABLES
  0
TABLE
  2
VPORT
  5
7
100
AcDbSymbolTable
 70
               1
  0
VPORT
  5
15
100
AcDbSymbolTableRecord
100
AcDbViewportTableRecord
  2
*ACTIVE
 70
               0
 10
0.0
 20
0.0
 11
1.0
 21
1.0
 12
0.0
 22
-19.14617237236007
 13
0.0
 23
0.0
 14
1.0
 24
1.0
 15
0.0
 25
0.0
 16
0.0
 26
0.0
 36
1.0
 17
0.0
 27
0.0
 37
0.0
 40
4256.2842226686189
 41
0.688564
 42
50.0
 43
0.0
 44
0.0
 50
0.0
 51
0.0
 71
               0
 72
            2000
 73
               1
 74
               1
 75
               0
 76
               0
 77
               0
 78
               0
281
               0
 65
               0
110
0.0
120
0.0
130
0.0
111
1.0
121
0.0
131
0.0
112
0.0
122
1.0
132
0.0
345
0
346
0
 79
               0
146
0.0
  0
ENDTAB
  0
TABLE
  2
LTYPE
  5
4
100
AcDbSymbolTable
 70
              15
  0
LTYPE
  5
11
100
AcDbSymbolTableRecord
100
AcDbLinetypeTableRecord
  2
ByBlock
 70
              64
  3

 72
              65
 73
               0
 40
0.0
  0
LTYPE
  5
12
100
AcDbSymbolTableRecord
100
AcDbLinetypeTableRecord
  2
ByLayer
 70
              64
  3

 72
              65
 73
               0
 40
0.0
  0
LTYPE
  5
13
100
AcDbSymbolTableRecord
100
AcDbLinetypeTableRecord
  2
Continuous
 70
              64
  3
Solid line
 72
              65
 73
               0
 40
0.0
  0
LTYPE
  5
43
100
AcDbSymbolTableRecord
100
AcDbLinetypeTableRecord
  2
STYLE_01
 70
               0
  3

 72
              65
 73
               2
 40
0.5625000000000001
 49
0.3750000000000001
 74
               0
 49
-0.1875
 74
               0
  0
LTYPE
  5
44
100
AcDbSymbolTableRecord
100
AcDbLinetypeTableRecord
  2
STYLE_02
 70
               0
  3

 72
              65
 73
               2
 40
0.6944250000000001
 49
0.48607
 74
               0
 49
-0.2083550000000001
 74
               0
  0
LTYPE
  5
45
100
AcDbSymbolTableRecord
100
AcDbLinetypeTableRecord
  2
STYLE_03
 70
               0
  3

 72
              65
 73
               2
 40
1.25
 49
1.0416400000000001
 74
               0
 49
-0.2083599999999999
 74
               0
  0
LTYPE
  5
46
100
AcDbSymbolTableRecord
100
AcDbLinetypeTableRecord
  2
STYLE_04
 70
               0
  3

 72
              65
 73
               2
 40
1.5277099999999999
 49
1.3194249999999998
 74
               0
 49
-0.208285
 74
               0
  0
LTYPE
  5
47
100
AcDbSymbolTableRecord
100
AcDbLinetypeTableRecord
  2
STYLE_05
 70
               0
  3

 72
              65
 73
               2
 40
0.20828
 49
0.069425
 74
               0
 49
-0.138855
 74
               0
  0
LTYPE
  5
48
100
AcDbSymbolTableRecord
100
AcDbLinetypeTableRecord
  2
STYLE_06
 70
               0
  3

 72
              65
 73
               4
 40
1.0416400000000001
 49
0.625
 74
               0
 49
-0.20828
 74
               0
 49
0.06943
 74
               0
 49
-0.13893
 74
               0
  0
LTYPE
  5
49
100
AcDbSymbolTableRecord
100
AcDbLinetypeTableRecord
  2
STYLE_07
 70
               0
  3

 72
              65
 73
               6
 40
1.875
 49
0.625
 74
               0
 49
-0.20828
 74
               0
 49
0.6250000000000001
 74
               0
 49
-0.2083599999999999
 74
               0
 49
0.06943
 74
               0
 49
-0.1389299999999999
 74
               0
  0
LTYPE
  5
4A
100
AcDbSymbolTableRecord
100
AcDbLinetypeTableRecord
  2
STYLE_08
 70
               0
  3

 72
              65
 73
               6
 40
1.25
 49
0.625
 74
               0
 49
-0.20828
 74
               0
 49
0.06943
 74
               0
 49
-0.13893
 74
               0
 49
0.0694299999999999
 74
               0
 49
-0.13893
 74
               0
  0
LTYPE
  5
4B
100
AcDbSymbolTableRecord
100
AcDbLinetypeTableRecord
  2
STYLE_09
 70
               0
  3

 72
              65
 73
               4
 40
5.0
 49
3.75
 74
               0
 49
-0.2777849999999998
 74
               0
 49
0.6944300000000003
 74
               0
 49
-0.2777849999999998
 74
               0
  0
LTYPE
  5
4C
100
AcDbSymbolTableRecord
100
AcDbLinetypeTableRecord
  2
STYLE_10
 70
               0
  3

 72
              65
 73
               6
 40
5.9375
 49
3.75
 74
               0
 49
-0.2777849999999998
 74
               0
 49
0.6944300000000003
 74
               0
 49
-0.2777849999999998
 74
               0
 49
0.625
 74
               0
 49
-0.3125
 74
               0
  0
LTYPE
  5
4D
100
AcDbSymbolTableRecord
100
AcDbLinetypeTableRecord
  2
STYLE_11
 70
               0
  3

 72
              65
 73
               2
 40
0.0694444881889764
 49
0.0347222440944882
 74
               0
 49
-0.0347222440944882
 74
               0
  0
LTYPE
  5
4E
100
AcDbSymbolTableRecord
100
AcDbLinetypeTableRecord
  2
STYLE_12
 70
               0
  3

 72
              65
 73
               2
 40
0.3937007874015748
 49
0.1968503937007874
 74
               0
 49
-0.1968503937007874
 74
               0
  0
ENDTAB
  0
TABLE
  2
LAYER
  5
2
100
AcDbSymbolTable
 70
               5
  0
LAYER
  5
14
100
AcDbSymbolTableRecord
100
AcDbLayerTableRecord
  2
0
 70
               0
 62
               7
  6
Continuous
290
               1
370
              -3
390
1D
  0
LAYER
  5
4F
100
AcDbSymbolTableRecord
100
AcDbLayerTableRecord
  2
Defpoints
 70
               0
 62
               7
  6
Continuous
290
               0
370
              -3
390
1D
  0
LAYER
  5
50
100
AcDbSymbolTableRecord
100
AcDbLayerTableRecord
  2
template
 70
               0
 62
               7
  6
Continuous
290
               1
370
              -3
390
1D
  0
LAYER
  5
51
100
AcDbSymbolTableRecord
100
AcDbLayerTableRecord
  2
notes
 70
               0
 62
               7
  6
Continuous
290
               1
370
              -3
390
1D
  0
LAYER
  5
52
100
AcDbSymbolTableRecord
100
AcDbLayerTableRecord
  2
ADF70-1609
 70
               0
 62
               7
  6
Continuous
290
               1
370
              -3
390
1D
  0
ENDTAB
  0
TABLE
  2
STYLE
  5
3
100
AcDbSymbolTable
 70
               3
  0
STYLE
  5
17
100
AcDbSymbolTableRecord
100
AcDbTextStyleTableRecord
  2
Standard
 70
               0
 40
0.0
 41
1.0
 50
0.0
 71
               0
 42
0.0
  3
txt
  4
BIGFONT.SHX
  0
STYLE
  5
41
100
AcDbSymbolTableRecord
100
AcDbTextStyleTableRecord
  2
ＭＳ ゴシック
 70
               0
 40
0.0
 41
1.0
 50
0.0
 71
               0
 42
0.0
  3

  4
ＭＳ ゴシック
1001
ACAD
1000
ＭＳ ゴシック
1071
        0
  0
STYLE
  5
42
100
AcDbSymbolTableRecord
100
AcDbTextStyleTableRecord
  2
ＭＳゴシック
 70
               0
 40
0.0
 41
1.0
 50
0.0
 71
               0
 42
0.0
  3

  4
ＭＳゴシック
1001
ACAD
1000
ＭＳゴシック
1071
        0
  0
ENDTAB
  0
TABLE
  2
VIEW
  5
5
100
AcDbSymbolTable
 70
               0
  0
ENDTAB
  0
TABLE
  2
UCS
  5
6
100
AcDbSymbolTable
 70
               0
  0
ENDTAB
  0
TABLE
  2
APPID
  5
8
100
AcDbSymbolTable
 70
               1
  0
APPID
  5
16
100
AcDbSymbolTableRecord
100
AcDbRegAppTableRecord
  2
ACAD
 70
               0
  0
ENDTAB
  0
TABLE
  2
DIMSTYLE
  5
9
100
AcDbSymbolTable
 70
               2
100
AcDbDimStyleTable
 71
               0
  0
DIMSTYLE
105
18
100
AcDbSymbolTableRecord
100
AcDbDimStyleTableRecord
  2
Standard
 70
               0
  3

  4

 40
1.0
 41
0.18
 42
0.0625
 43
0.38
 44
0.18
 45
0.0
 46
0.0
 47
0.0
 48
0.0
 71
               0
 72
               0
 73
               1
 74
               1
 75
               0
 76
               0
 77
               0
 78
               0
 79
               0
140
0.18
141
0.09
142
0.0
143
25.399999999999999
144
1.0
145
0.0
146
1.0
147
0.09
148
0.0
170
               0
171
               2
172
               0
173
               0
174
               0
175
               0
176
               0
177
               0
178
               0
179
               0
271
               4
272
               4
273
               2
274
               2
275
               0
276
               0
277
               2
278
              46
279
               0
280
               0
281
               0
282
               0
283
               1
284
               0
285
               0
286
               0
288
               0
289
               3
340
17
341
0
342
0
343
0
344
0
371
              -2
372
              -2
  0
DIMSTYLE
105
5B
100
AcDbSymbolTableRecord
100
AcDbDimStyleTableRecord
  2
Tform線あり
 70
               0
  3
<>
  4
[]
 40
1.0
 41
14.999084472656248
 42
37.499999999999993
 43
0.9999999999999999
 44
0.0
 45
0.0
 46
0.0
 47
0.0
 48
0.0
 71
               0
 72
               0
 73
               0
 74
               0
 75
               0
 76
               0
 77
               1
 78
              11
 79
               0
140
36.64892578125
141
0.0
142
0.0
143
1.0
144
1.0
145
0.0
146
0.8
147
0.4999999999999999
148
0.0
170
               0
171
               1
172
               1
173
               0
174
               1
175
               0
176
               0
177
               0
178
               0
179
               2
271
               1
272
               1
273
               2
274
               2
275
               0
276
               2
277
               2
278
              46
279
               0
280
               0
281
               0
282
               0
283
               1
284
              11
285
              11
286
              11
288
               0
289
               0
340
42
341
53
342
53
343
0
344
0
371
              -2
372
              -2
  0
ENDTAB
  0
TABLE
  2
BLOCK_RECORD
  5
1
100
AcDbSymbolTable
 70
              31
  0
BLOCK_RECORD
  5
A
100
AcDbSymbolTableRecord
100
AcDbBlockTableRecord
  2
*MODEL_SPACE
340
20
  0
BLOCK_RECORD
  5
B
100
AcDbSymbolTableRecord
100
AcDbBlockTableRecord
  2
*PAPER_SPACE
340
21
  0
BLOCK_RECORD
  5
53
100
AcDbSymbolTableRecord
100
AcDbBlockTableRecord
  2
_DOT
340
0
  0
BLOCK_RECORD
  5
23
100
AcDbSymbolTableRecord
100
AcDbBlockTableRecord
  2
グループ
340
0
102
{BLKREFS
331
1C8
102
}
  0
BLOCK_RECORD
  5
24
100
AcDbSymbolTableRecord
100
AcDbBlockTableRecord
  2
*D2
340
0
  0
BLOCK_RECORD
  5
25
100
AcDbSymbolTableRecord
100
AcDbBlockTableRecord
  2
*D3
340
0
  0
BLOCK_RECORD
  5
26
100
AcDbSymbolTableRecord
100
AcDbBlockTableRecord
  2
*D4
340
0
  0
BLOCK_RECORD
  5
27
100
AcDbSymbolTableRecord
100
AcDbBlockTableRecord
  2
*D5
340
0
  0
BLOCK_RECORD
  5
28
100
AcDbSymbolTableRecord
100
AcDbBlockTableRecord
  2
*D6
340
0
  0
BLOCK_RECORD
  5
29
100
AcDbSymbolTableRecord
100
AcDbBlockTableRecord
  2
*D7
340
0
  0
BLOCK_RECORD
  5
2A
100
AcDbSymbolTableRecord
100
AcDbBlockTableRecord
  2
*D8
340
0
  0
BLOCK_RECORD
  5
2B
100
AcDbSymbolTableRecord
100
AcDbBlockTableRecord
  2
*D9
340
0
  0
BLOCK_RECORD
  5
2C
100
AcDbSymbolTableRecord
100
AcDbBlockTableRecord
  2
*D10
340
0
  0
BLOCK_RECORD
  5
2D
100
AcDbSymbolTableRecord
100
AcDbBlockTableRecord
  2
*D11
340
0
  0
BLOCK_RECORD
  5
2E
100
AcDbSymbolTableRecord
100
AcDbBlockTableRecord
  2
*D12
340
0
  0
BLOCK_RECORD
  5
2F
100
AcDbSymbolTableRecord
100
AcDbBlockTableRecord
  2
*D13
340
0
  0
BLOCK_RECORD
  5
30
100
AcDbSymbolTableRecord
100
AcDbBlockTableRecord
  2
*D14
340
0
  0
BLOCK_RECORD
  5
31
100
AcDbSymbolTableRecord
100
AcDbBlockTableRecord
  2
*D15
340
0
  0
BLOCK_RECORD
  5
32
100
AcDbSymbolTableRecord
100
AcDbBlockTableRecord
  2
*D16
340
0
  0
BLOCK_RECORD
  5
33
100
AcDbSymbolTableRecord
100
AcDbBlockTableRecord
  2
*D17
340
0
  0
BLOCK_RECORD
  5
34
100
AcDbSymbolTableRecord
100
AcDbBlockTableRecord
  2
*D18
340
0
  0
BLOCK_RECORD
  5
35
100
AcDbSymbolTableRecord
100
AcDbBlockTableRecord
  2
*D19
340
0
  0
BLOCK_RECORD
  5
36
100
AcDbSymbolTableRecord
100
AcDbBlockTableRecord
  2
*D20
340
0
  0
BLOCK_RECORD
  5
37
100
AcDbSymbolTableRecord
100
AcDbBlockTableRecord
  2
*D21
340
0
  0
BLOCK_RECORD
  5
38
100
AcDbSymbolTableRecord
100
AcDbBlockTableRecord
  2
*D22
340
0
  0
BLOCK_RECORD
  5
39
100
AcDbSymbolTableRecord
100
AcDbBlockTableRecord
  2
*D23
340
0
  0
BLOCK_RECORD
  5
3A
100
AcDbSymbolTableRecord
100
AcDbBlockTableRecord
  2
*D24
340
0
  0
BLOCK_RECORD
  5
3B
100
AcDbSymbolTableRecord
100
AcDbBlockTableRecord
  2
*D25
340
0
  0
BLOCK_RECORD
  5
3C
100
AcDbSymbolTableRecord
100
AcDbBlockTableRecord
  2
*D26
340
0
  0
BLOCK_RECORD
  5
3D
100
AcDbSymbolTableRecord
100
AcDbBlockTableRecord
  2
グループ-1
340
0
102
{BLKREFS
331
250
102
}
  0
BLOCK_RECORD
  5
3E
100
AcDbSymbolTableRecord
100
AcDbBlockTableRecord
  2
グループ-2
340
0
102
{BLKREFS
331
264
102
}
  0
BLOCK_RECORD
  5
3F
100
AcDbSymbolTableRecord
100
AcDbBlockTableRecord
  2
グループ-3
340
0
102
{BLKREFS
331
1BD
102
}
  0
BLOCK_RECORD
  5
40
100
AcDbSymbolTableRecord
100
AcDbBlockTableRecord
  2
グループ-4
340
0
102
{BLKREFS
331
265
102
}
  0
ENDTAB
  0
ENDSEC
  0
SECTION
  2
BLOCKS
  0
BLOCK
  5
D
100
AcDbEntity
  8
0
390
0
100
AcDbBlockBegin
  2
*MODEL_SPACE
 70
               0
 10
0.0
 20
0.0
 30
0.0
  3
*MODEL_SPACE
  1

  0
ENDBLK
  5
E
100
AcDbEntity
  8
0
390
0
100
AcDbBlockEnd
  0
BLOCK
  5
F
100
AcDbEntity
 67
               1
  8
0
390
0
100
AcDbBlockBegin
  2
*PAPER_SPACE
 70
               0
 10
0.0
 20
0.0
 30
0.0
  3
*PAPER_SPACE
  1

  0
ENDBLK
  5
10
100
AcDbEntity
 67
               1
  8
0
390
0
100
AcDbBlockEnd
  0
BLOCK
  5
54
100
AcDbEntity
  8
0
390
0
100
AcDbBlockBegin
  2
_DOT
 70
               0
 10
0.0
 20
0.0
 30
0.0
  3
_DOT
  1

  0
POLYLINE
  5
55
100
AcDbEntity
  8
0
370
              -2
390
0
  6
ByBlock
 62
               0
100
AcDb2dPolyline
 66
               1
 10
0.0
 20
0.0
 30
0.0
 70
               1
 40
0.5
 41
0.5
  0
VERTEX
  5
56
100
AcDbEntity
  8
0
370
              -2
390
0
  6
ByBlock
 62
               0
100
AcDbVertex
100
AcDb2dVertex
 10
-0.25
 20
0.0
 30
0.0
 42
1.0
  0
VERTEX
  5
57
100
AcDbEntity
  8
0
370
              -2
390
0
  6
ByBlock
 62
               0
100
AcDbVertex
100
AcDb2dVertex
 10
0.25
 20
0.0
 30
0.0
 42
1.0
  0
SEQEND
  5
58
100
AcDbEntity
  8
0
390
0
  0
LINE
  5
59
100
AcDbEntity
  8
0
370
              -2
390
0
  6
ByBlock
 62
               0
100
AcDbLine
 10
-0.5
 20
0.0
 30
0.0
 11
-1.0
 21
0.0
 31
0.0
  0
ENDBLK
  5
5A
100
AcDbEntity
  8
0
390
0
100
AcDbBlockEnd
  0
BLOCK
  5
5C
100
AcDbEntity
  8
template
390
0
100
AcDbBlockBegin
  2
グループ
 70
               0
 10
0.0
 20
0.0
 30
0.0
  3
グループ
  1

  0
LWPOLYLINE
  5
5D
100
AcDbEntity
  8
0
370
              15
390
0
  6
Continuous
 62
               7
100
AcDbPolyline
 90
        8
 70
             129
 10
-3823.4616903987744
 20
-2925.4543001110442
 10
-3823.4616903987744
 20
-2934.450383151408
 10
-3837.7134857757792
 20
-2934.450383151408
 10
-3837.7134857757792
 20
-2971.1268280466711
 10
-3850.2465516684533
 20
-2971.1268280466711
 10
-3850.2465516684533
 20
-2934.450383151408
 10
-3864.2459870879175
 20
-2934.450383151408
 10
-3864.2459870879175
 20
-2925.4543001110442
  0
LWPOLYLINE
  5
5E
100
AcDbEntity
  8
0
370
              15
390
0
  6
Continuous
 62
               7
100
AcDbPolyline
 90
      101
 70
             128
 10
-3804.3692526529385
 20
-2926.5466728504489
 10
-3804.3462276097584
 20
-2926.5401317154206
 42
-0.0222221607811217
 10
-3803.9112207447542
 20
-2926.4371950175546
 10
-3803.8875300987734
 20
-2926.4326898829108
 42
-0.0146883565590896
 10
-3803.4934760409278
 20
-2926.3696851024852
 42
-0.0127458844189765
 10
-3803.0965175901983
 20
-2926.3283796503761
 10
-3803.0028349727295
 20
-2926.3210395164938
 42
-0.0198099018570205
 10
-3802.4165613085265
 20
-2926.298411780399
 10
-3802.3388441043485
 20
-2926.2984924438965
 42
-0.0147617382762329
 10
-3801.596908912878
 20
-2926.3211724817647
 10
-3801.4878717305837
 20
-2926.3277313920948
 42
-0.0162624549008026
 10
-3800.9026412863777
 20
-2926.3820807050038
 10
-3800.7203426994738
 20
-2926.4050105435008
 42
-0.0080020874656995
 10
-3800.5019741528513
 20
-2926.436034814401
 10
-3800.4444949469739
 20
-2926.4451417311152
 42
-0.0053821929677067
 10
-3800.3417687889869
 20
-2926.4625530168501
 10
-3801.4313773377849
 20
-2929.7339457004209
 42
0.0108667757415604
 10
-3801.5323529429961
 20
-2929.7141650275885
 10
-3801.5885549777649
 20
-2929.7044184136994
 42
0.017066320332195
 10
-3801.8033801581419
 20
-2929.6746740177618
 10
-3801.905193157163
 20
-2929.6641032618809
 42
0.0220162375271144
 10
-3802.3257622689398
 20
-2929.6390797207255
 10
-3802.4425456195172
 20
-2929.6372806698259
 42
0.0282606915784112
 10
-3802.946000104891
 20
-2929.6579855852797
 10
-3803.0118700155435
 20
-2929.6644355702847
 42
0.0169677213685903
 10
-3803.3807567579879
 20
-2929.7132411446128
 42
0.0190576269870217
 10
-3803.7451187018637
 20
-2929.7884614527734
 10
-3803.7545074840245
 20
-2929.7907759139362
 42
0.0213685642847798
 10
-3804.1300842107435
 20
-2929.9005763415944
 10
-3804.1383190531151
 20
-2929.9033708356819
 42
0.0237595297592803
 10
-3804.5185613804615
 20
-2930.0528976185246
 10
-3804.5262144915077
 20
-2930.0563352817426
 42
0.0261857468809126
 10
-3804.9044706558498
 20
-2930.2506397878024
 10
-3804.9201099394827
 20
-2930.2597379995068
 42
0.0272553062024338
 10
-3805.2747546023411
 20
-2930.4927963084237
 10
-3805.3268991226032
 20
-2930.5312880305605
 42
0.0325996893177846
 10
-3805.552132138082
 20
-2930.7214098400191
 10
-3805.5876962817729
 20
-2930.7556368827941
 42
0.0138050960656111
 10
-3805.725521016082
 20
-2930.895811375116
 42
0.0125280103795011
 10
-3805.8557848153209
 20
-2931.0430563650025
 10
-3805.8913054826949
 20
-2931.0852941122967
 42
0.020521802473846
 10
-3806.0789555959691
 20
-2931.3279840836453
 10
-3806.1126551066964
 20
-2931.3754736783808
 42
0.016311012957889
 10
-3806.3462206755739
 20
-2931.7284693309866
 10
-3806.3503065196496
 20
-2931.7351049739636
 42
0.013189734189702
 10
-3806.570507301009
 20
-2932.1148031125113
 10
-3806.5730574440581
 20
-2932.119480471214
 42
0.0107895576064684
 10
-3806.7797224973756
 20
-2932.5188032856699
 10
-3806.7808218316618
 20
-2932.5210446346364
 42
0.0091371507213527
 10
-3806.9735417546372
 20
-2932.9328324312778
 10
-3807.0181602017501
 20
-2933.0328921920145
 42
0.0135418326348145
 10
-3807.2757311103537
 20
-2933.6552988699073
 10
-3807.326138323011
 20
-2933.787098083345
 42
0.0092834542407581
 10
-3807.5829819128903
 20
-2934.4979458307971
 10
-3807.6214076044798
 20
-2934.6108074355261
 42
0.0054261043588194
 10
-3807.782864826906
 20
-2935.1024533950849
 10
-3807.8091538062017
 20
-2935.1855356385236
 42
0.0008225090819461
 10
-3807.9121588839171
 20
-2935.5129387756538
 10
-3809.3891925818175
 20
-2940.0502757155386
 10
-3804.5402568217069
 20
-2940.0502757155386
 10
-3805.2965454664868
 20
-2942.9069931630675
 10
-3810.1806298894617
 20
-2942.9069931630675
 10
-3818.9243534379925
 20
-2971.1268277620748
 10
-3821.6619998534579
 20
-2971.1268277620748
 10
-3812.9099828002063
 20
-2942.9069931630675
 10
-3816.5176573537674
 20
-2942.9069931630675
 10
-3815.761368708987
 20
-2940.0502757155386
 10
-3812.1185454925617
 20
-2940.0502757155386
 10
-3810.8283131152789
 20
-2936.0956562144906
 42
-0.0005863560650262
 10
-3810.7732110980028
 20
-2935.9204165841452
 10
-3810.6590793474834
 20
-2935.5589281349748
 42
-0.0087522378925138
 10
-3810.3598771322954
 20
-2934.6660140042482
 10
-3810.2214807191813
 20
-2934.2758037514964
 42
-0.0077400953830015
 10
-3809.8345802304812
 20
-2933.2362967351628
 10
-3809.8109327731099
 20
-2933.1756504100767
 42
-0.0082369946330189
 10
-3809.4403060671948
 20
-2932.2695318107903
 42
-0.0085725238362222
 10
-3809.0394369231776
 20
-2931.3763927518326
 10
-3808.8869925216782
 20
-2931.0517610988804
 42
-0.0168109410597776
 10
-3808.4565758785839
 20
-2930.2099498097259
 10
-3808.2678107928746
 20
-2929.8695037601919
 42
-0.0007817726875335
 10
-3808.1863842678104
 20
-2929.723187392683
 10
-3808.1861918088093
 20
-2929.7228428296226
 42
-0.0036626142170272
 10
-3808.1038600127531
 20
-2929.5779460096255
 42
-0.0080221150666753
 10
-3808.0181736296408
 20
-2929.4350271574926
 10
-3807.972123702601
 20
-2929.3609407338126
 42
-0.0202139325566275
 10
-3807.7806400928885
 20
-2929.0789683327876
 10
-3807.6995388951095
 20
-2928.9693500364297
 42
-0.0249323791795347
 10
-3807.3107947045282
 20
-2928.4952821731949
 10
-3807.2745849833404
 20
-2928.455360763829
 42
-0.0242132121540717
 10
-3806.7650638710302
 20
-2927.9455355345258
 10
-3806.6931965119034
 20
-2927.8802718302459
 42
-0.0251017527855431
 10
-3806.2672239609401
 20
-2927.5307827115967
 10
-3806.265055745715
 20
-2927.5291788252248
 42
-0.0130868069034984
 10
-3805.8176647707837
 20
-2927.2160081224147
 10
-3805.8153220420713
 20
-2927.2144579620031
 42
-0.0290329526390895
 10
-3805.3486553299799
 20
-2926.9432197095584
 10
-3805.3038869869938
 20
-2926.9205661352953
 42
-0.0160250190045495
 10
-3804.9050303663535
 20
-2926.7345419699786
 42
-0.0267600374779199
 10
-3804.4921162501491
 20
-2926.5834194891554
 10
-3804.4520123708689
 20
-2926.5711306509174
 42
-0.0049981587683299
 10
-3804.3692526529385
 20
-2926.5466728504489
 42
-0.0049981587683299
  0
LWPOLYLINE
  5
5F
100
AcDbEntity
  8
0
370
              15
390
0
  6
Continuous
 62
               7
100
AcDbPolyline
 90
      118
 70
             128
 10
-3774.6477013062686
 20
-2940.16125070728
 10
-3771.8350184195192
 20
-2940.16125070728
 10
-3773.0920767779189
 20
-2944.18360049688
 42
-0.0010587229187434
 10
-3773.0448930544271
 20
-2944.1282436966899
 10
-3772.9576019186134
 20
-2944.0262703125836
 42
-0.0071874740416416
 10
-3772.7320390914811
 20
-2943.7703092745569
 10
-3772.5194549315729
 20
-2943.5359550625699
 42
-0.0148118053512457
 10
-3771.8442609925119
 20
-2942.8345342935586
 10
-3771.7134274901491
 20
-2942.7064383122683
 42
-0.0086273358694037
 10
-3771.2101042886384
 20
-2942.2303748612458
 10
-3771.1443537142914
 20
-2942.1703003947387
 42
-0.0103138323109621
 10
-3770.7573181609491
 20
-2941.8310556887382
 10
-3770.6886565514596
 20
-2941.7733326178486
 42
-0.0060206748560723
 10
-3770.4293844552903
 20
-2941.5606406417164
 10
-3770.4263377589618
 20
-2941.5582020832699
 42
-0.0067069027297618
 10
-3770.1678985369676
 20
-2941.3569761325771
 10
-3770.1640753880852
 20
-2941.3540808777689
 42
-0.0076184352042218
 10
-3769.9077174892718
 20
-2941.1660185648984
 42
-0.0089652861678431
 10
-3769.6452760451689
 20
-2940.9865686743992
 10
-3769.5907484649533
 20
-2940.9507018541758
 42
-0.0156916245931972
 10
-3769.2968092192123
 20
-2940.7703081244636
 42
-0.0023299011060907
 10
-3768.9964161532807
 20
-2940.6005412151735
 10
-3768.9733399546731
 20
-2940.5876412225552
 42
-0.0107669341482989
 10
-3768.62198471702
 20
-2940.4010410225301
 10
-3768.5885875154086
 20
-2940.3842158976058
 42
-0.0078058045889701
 10
-3768.1632023384786
 20
-2940.1781737141478
 10
-3768.1483417069157
 20
-2940.1712600223455
 42
-0.0181829330471762
 10
-3767.6828775999929
 20
-2939.9749644107023
 10
-3767.6017944361442
 20
-2939.9441917307877
 42
-0.0208411536032826
 10
-3767.0781669849666
 20
-2939.7700560370472
 10
-3767.0566328347768
 20
-2939.7638783696175
 42
-0.0222799817140591
 10
-3766.5635531438993
 20
-2939.6459160204067
 10
-3766.5502196990446
 20
-2939.6433480045293
 42
-0.0215509523886387
 10
-3766.0755132466243
 20
-2939.5729744717273
 10
-3766.0117903050477
 20
-2939.5663181815407
 42
-0.0182545924862841
 10
-3765.6606271360934
 20
-2939.542552443455
 10
-3765.6015256115825
 20
-2939.5407156258366
 42
-0.0072962856543028
 10
-3765.3676412920377
 20
-2939.5368616330529
 10
-3765.3239917861993
 20
-2939.5367793799473
 42
-0.0059227516316097
 10
-3765.1773675374625
 20
-2939.538239947633
 10
-3765.1335042113692
 20
-2939.5391965975355
 42
-0.0011833111919798
 10
-3765.0746272856559
 20
-2939.5406201040028
 10
-3766.2677071790663
 20
-2943.3487210216513
 42
0.0143932051613506
 10
-3766.307309252611
 20
-2943.3334225665767
 10
-3766.3182172112183
 20
-2943.3295657382973
 42
0.0234388603513868
 10
-3766.3809635101147
 20
-2943.3106368847248
 10
-3766.3939860044857
 20
-2943.3073654417167
 42
0.0199162742968339
 10
-3766.4844192556038
 20
-2943.2884403387147
 10
-3766.5156401623149
 20
-2943.2831945395719
 42
0.0293643550681427
 10
-3766.670252450459
 20
-2943.2664694710916
 10
-3766.7072802215343
 20
-2943.2646520455637
 42
0.0214606686874552
 10
-3766.9369915954626
 20
-2943.263244204938
 10
-3766.9510494616898
 20
-2943.2637615722542
 42
0.01675640541892
 10
-3767.2083297483641
 20
-2943.2818771358079
 10
-3767.2210194374907
 20
-2943.2831991464473
 42
0.0137677553244765
 10
-3767.5020494073838
 20
-2943.3203231092612
 10
-3767.5130770166497
 20
-2943.322089989214
 42
0.011849726147967
 10
-3767.8138236628065
 20
-2943.3776160144989
 10
-3767.823048673672
 20
-2943.379546308578
 42
0.0106421143895021
 10
-3768.1393700046046
 20
-2943.4527948719415
 10
-3768.1467332171833
 20
-2943.4546658859681
 42
0.0099746379710316
 10
-3768.4744209209316
 20
-2943.5449276784416
 10
-3768.5667429811829
 20
-2943.5723504963862
 42
0.019161367586733
 10
-3769.0707196749609
 20
-2943.7433165668185
 10
-3769.2028093340723
 20
-2943.7938469323021
 42
0.0205274080143261
 10
-3769.7807694919252
 20
-2944.0425895440426
 10
-3769.8672434149012
 20
-2944.0840914909027
 42
0.0181256912198877
 10
-3770.2546588258988
 20
-2944.2876172193678
 10
-3770.3340919008624
 20
-2944.3330936391858
 42
0.0140709242405074
 10
-3770.5515243028121
 20
-2944.4658356493414
 10
-3770.5908976057435
 20
-2944.4914208774171
 42
0.0086667884400985
 10
-3770.7242868480535
 20
-2944.5814248792385
 42
0.0036408192016328
 10
-3770.8554367051088
 20
-2944.6746961659305
 10
-3770.908277016807
 20
-2944.7128575847964
 42
0.0052260781282081
 10
-3771.1426200629089
 20
-2944.8858561647598
 10
-3771.1669303472827
 20
-2944.9041983306752
 42
0.0050024435891394
 10
-3771.4459353618722
 20
-2945.1191221830695
 10
-3771.4689125966433
 20
-2945.1371912167369
 42
0.0136138710278846
 10
-3771.784574499135
 20
-2945.3996409741098
 10
-3771.8350763128219
 20
-2945.4440094331785
 42
0.0172815186912724
 10
-3772.2316816253119
 20
-2945.8175044421091
 10
-3772.2355251440799
 20
-2945.821383167834
 42
0.0189403857994162
 10
-3772.6113978419512
 20
-2946.2305910650439
 10
-3772.6603450822522
 20
-2946.2881069622867
 42
0.0185044199509361
 10
-3772.9482797407227
 20
-2946.6529798339707
 42
0.0088565243899053
 10
-3773.215969900672
 20
-2947.033254464206
 10
-3773.2297368701379
 20
-2947.0535665338357
 42
0.0157195347235376
 10
-3773.5045677796415
 20
-2947.4878498478138
 10
-3773.5736921925418
 20
-2947.6050781433514
 42
0.0095451879782186
 10
-3773.8213205177417
 20
-2948.0439701068753
 10
-3773.8380423961348
 20
-2948.0749761150705
 42
0.0100351706253473
 10
-3774.0361080198754
 20
-2948.4605594558097
 42
0.0086935915420654
 10
-3774.2196047475632
 20
-2948.8533091739096
 10
-3774.224585859688
 20
-2948.8644726583739
 42
0.0072580174866908
 10
-3774.4051055376085
 20
-2949.2853606457556
 10
-3774.409997987565
 20
-2949.2972406847753
 42
0.0060005122614726
 10
-3774.5887989900798
 20
-2949.746655190685
 10
-3774.5936154575911
 20
-2949.75919748254
 42
0.0049017786979549
 10
-3774.7719656958861
 20
-2950.2375909534703
 10
-3774.7767144054633
 20
-2950.2507203592922
 42
0.0039415167606015
 10
-3774.9558688225493
 20
-2950.7585334529163
 10
-3774.9605654765264
 20
-2950.7721882542264
 42
0.0031035838759486
 10
-3775.1417726550521
 20
-2951.3098480468434
 10
-3775.1464377218617
 20
-2951.3239789789486
 42
0.0025070747155088
 10
-3775.3307897488276
 20
-2951.8919498043429
 10
-3775.3867305934727
 20
-2952.067287302244
 42
0.002908191028097
 10
-3775.674758040197
 20
-2952.9885327897073
 10
-3775.7359627929645
 20
-2953.1883676530956
 42
0.000926645373541
 10
-3776.1385888544924
 20
-2954.5117043431669
 10
-3776.1699200634562
 20
-2954.6153721620299
 42
-0.0005809993664636
 10
-3776.5859250842841
 20
-2955.986084321793
 10
-3776.6853477817658
 20
-2956.312311720269
 42
-0.0012018708165896
 10
-3776.9058242458377
 20
-2957.0295557168138
 10
-3776.984304023099
 20
-2957.2826944278327
 42
-0.0002691059610776
 10
-3777.0496582449387
 20
-2957.4930958586251
 10
-3781.2990920923726
 20
-2971.1268277620748
 10
-3784.0260754303404
 20
-2971.1268277620748
 10
-3774.6477013062686
 20
-2940.16125070728
  0
SPLINE
  5
60
100
AcDbEntity
  8
0
370
              15
390
0
  6
Continuous
 62
               7
100
AcDbSpline
210
0.0
220
0.0
230
1.0
 70
              13
 71
               2
 72
             782
 73
             779
 74
               0
 42
0.000001
 43
0.000001
 40
0.0
 40
0.0
 40
0.0
 40
1.0
 40
1.0
 40
2.0
 40
2.0
 40
3.0
 40
3.0
 40
4.0
 40
4.0
 40
5.0
 40
5.0
 40
6.0
 40
6.0
 40
7.0
 40
7.0
 40
8.0
 40
8.0
 40
9.0
 40
9.0
 40
10.0
 40
10.0
 40
11.0
 40
11.0
 40
12.0
 40
12.0
 40
13.0
 40
13.0
 40
14.0
 40
14.0
 40
15.0
 40
15.0
 40
16.0
 40
16.0
 40
17.0
 40
17.0
 40
18.0
 40
18.0
 40
19.0
 40
19.0
 40
20.0
 40
20.0
 40
21.0
 40
21.0
 40
22.0
 40
22.0
 40
23.0
 40
23.0
 40
24.0
 40
24.0
 40
25.0
 40
25.0
 40
26.0
 40
26.0
 40
27.0
 40
27.0
 40
28.0
 40
28.0
 40
29.0
 40
29.0
 40
30.0
 40
30.0
 40
31.0
 40
31.0
 40
32.0
 40
32.0
 40
33.0
 40
33.0
 40
34.0
 40
34.0
 40
35.0
 40
35.0
 40
36.0
 40
36.0
 40
37.0
 40
37.0
 40
38.0
 40
38.0
 40
39.0
 40
39.0
 40
40.0
 40
40.0
 40
41.0
 40
41.0
 40
42.0
 40
42.0
 40
43.0
 40
43.0
 40
44.0
 40
44.0
 40
45.0
 40
45.0
 40
46.0
 40
46.0
 40
47.0
 40
47.0
 40
48.0
 40
48.0
 40
49.0
 40
49.0
 40
50.0
 40
50.0
 40
51.0
 40
51.0
 40
52.0
 40
52.0
 40
53.0
 40
53.0
 40
54.0
 40
54.0
 40
55.0
 40
55.0
 40
56.0
 40
56.0
 40
57.0
 40
57.0
 40
58.0
 40
58.0
 40
59.0
 40
59.0
 40
60.0
 40
60.0
 40
61.0
 40
61.0
 40
62.0
 40
62.0
 40
63.0
 40
63.0
 40
64.0
 40
64.0
 40
65.0
 40
65.0
 40
66.0
 40
66.0
 40
67.0
 40
67.0
 40
68.0
 40
68.0
 40
69.0
 40
69.0
 40
70.0
 40
70.0
 40
71.0
 40
71.0
 40
72.0
 40
72.0
 40
73.0
 40
73.0
 40
74.0
 40
74.0
 40
75.0
 40
75.0
 40
76.0
 40
76.0
 40
77.0
 40
77.0
 40
78.0
 40
78.0
 40
79.0
 40
79.0
 40
80.0
 40
80.0
 40
81.0
 40
81.0
 40
82.0
 40
82.0
 40
83.0
 40
83.0
 40
84.0
 40
84.0
 40
85.0
 40
85.0
 40
86.0
 40
86.0
 40
87.0
 40
87.0
 40
88.0
 40
88.0
 40
89.0
 40
89.0
 40
90.0
 40
90.0
 40
91.0
 40
91.0
 40
92.0
 40
92.0
 40
93.0
 40
93.0
 40
94.0
 40
94.0
 40
95.0
 40
95.0
 40
96.0
 40
96.0
 40
97.0
 40
97.0
 40
98.0
 40
98.0
 40
99.0
 40
99.0
 40
100.0
 40
100.0
 40
101.0
 40
101.0
 40
102.0
 40
102.0
 40
103.0
 40
103.0
 40
104.0
 40
104.0
 40
105.0
 40
105.0
 40
106.0
 40
106.0
 40
107.0
 40
107.0
 40
108.0
 40
108.0
 40
109.0
 40
109.0
 40
110.0
 40
110.0
 40
111.0
 40
111.0
 40
112.0
 40
112.0
 40
113.0
 40
113.0
 40
114.0
 40
114.0
 40
115.0
 40
115.0
 40
116.0
 40
116.0
 40
117.0
 40
117.0
 40
118.0
 40
118.0
 40
119.0
 40
119.0
 40
120.0
 40
120.0
 40
121.0
 40
121.0
 40
122.0
 40
122.0
 40
123.0
 40
123.0
 40
124.0
 40
124.0
 40
125.0
 40
125.0
 40
126.0
 40
126.0
 40
127.0
 40
127.0
 40
128.0
 40
128.0
 40
129.0
 40
129.0
 40
130.0
 40
130.0
 40
131.0
 40
131.0
 40
132.0
 40
132.0
 40
133.0
 40
133.0
 40
134.0
 40
134.0
 40
135.0
 40
135.0
 40
136.0
 40
136.0
 40
137.0
 40
137.0
 40
138.0
 40
138.0
 40
139.0
 40
139.0
 40
140.0
 40
140.0
 40
141.0
 40
141.0
 40
142.0
 40
142.0
 40
143.0
 40
143.0
 40
144.0
 40
144.0
 40
145.0
 40
145.0
 40
146.0
 40
146.0
 40
147.0
 40
147.0
 40
148.0
 40
148.0
 40
149.0
 40
149.0
 40
150.0
 40
150.0
 40
151.0
 40
151.0
 40
152.0
 40
152.0
 40
153.0
 40
153.0
 40
154.0
 40
154.0
 40
155.0
 40
155.0
 40
156.0
 40
156.0
 40
157.0
 40
157.0
 40
158.0
 40
158.0
 40
159.0
 40
159.0
 40
160.0
 40
160.0
 40
161.0
 40
161.0
 40
162.0
 40
162.0
 40
163.0
 40
163.0
 40
164.0
 40
164.0
 40
165.0
 40
165.0
 40
166.0
 40
166.0
 40
167.0
 40
167.0
 40
168.0
 40
168.0
 40
169.0
 40
169.0
 40
170.0
 40
170.0
 40
171.0
 40
171.0
 40
172.0
 40
172.0
 40
173.0
 40
173.0
 40
174.0
 40
174.0
 40
175.0
 40
175.0
 40
176.0
 40
176.0
 40
177.0
 40
177.0
 40
178.0
 40
178.0
 40
179.0
 40
179.0
 40
180.0
 40
180.0
 40
181.0
 40
181.0
 40
182.0
 40
182.0
 40
183.0
 40
183.0
 40
184.0
 40
184.0
 40
185.0
 40
185.0
 40
186.0
 40
186.0
 40
187.0
 40
187.0
 40
188.0
 40
188.0
 40
189.0
 40
189.0
 40
190.0
 40
190.0
 40
191.0
 40
191.0
 40
192.0
 40
192.0
 40
193.0
 40
193.0
 40
194.0
 40
194.0
 40
195.0
 40
195.0
 40
196.0
 40
196.0
 40
197.0
 40
197.0
 40
198.0
 40
198.0
 40
199.0
 40
199.0
 40
200.0
 40
200.0
 40
201.0
 40
201.0
 40
202.0
 40
202.0
 40
203.0
 40
203.0
 40
204.0
 40
204.0
 40
205.0
 40
205.0
 40
206.0
 40
206.0
 40
207.0
 40
207.0
 40
208.0
 40
208.0
 40
209.0
 40
209.0
 40
210.0
 40
210.0
 40
211.0
 40
211.0
 40
212.0
 40
212.0
 40
213.0
 40
213.0
 40
214.0
 40
214.0
 40
215.0
 40
215.0
 40
216.0
 40
216.0
 40
217.0
 40
217.0
 40
218.0
 40
218.0
 40
219.0
 40
219.0
 40
220.0
 40
220.0
 40
221.0
 40
221.0
 40
222.0
 40
222.0
 40
223.0
 40
223.0
 40
224.0
 40
224.0
 40
225.0
 40
225.0
 40
226.0
 40
226.0
 40
227.0
 40
227.0
 40
228.0
 40
228.0
 40
229.0
 40
229.0
 40
230.0
 40
230.0
 40
231.0
 40
231.0
 40
232.0
 40
232.0
 40
233.0
 40
233.0
 40
234.0
 40
234.0
 40
235.0
 40
235.0
 40
236.0
 40
236.0
 40
237.0
 40
237.0
 40
238.0
 40
238.0
 40
239.0
 40
239.0
 40
240.0
 40
240.0
 40
241.0
 40
241.0
 40
242.0
 40
242.0
 40
243.0
 40
243.0
 40
244.0
 40
244.0
 40
245.0
 40
245.0
 40
246.0
 40
246.0
 40
247.0
 40
247.0
 40
248.0
 40
248.0
 40
249.0
 40
249.0
 40
250.0
 40
250.0
 40
251.0
 40
251.0
 40
252.0
 40
252.0
 40
253.0
 40
253.0
 40
254.0
 40
254.0
 40
255.0
 40
255.0
 40
256.0
 40
256.0
 40
257.0
 40
257.0
 40
258.0
 40
258.0
 40
259.0
 40
259.0
 40
260.0
 40
260.0
 40
261.0
 40
261.0
 40
262.0
 40
262.0
 40
263.0
 40
263.0
 40
264.0
 40
264.0
 40
265.0
 40
265.0
 40
266.0
 40
266.0
 40
267.0
 40
267.0
 40
268.0
 40
268.0
 40
269.0
 40
269.0
 40
270.0
 40
270.0
 40
271.0
 40
271.0
 40
272.0
 40
272.0
 40
273.0
 40
273.0
 40
274.0
 40
274.0
 40
275.0
 40
275.0
 40
276.0
 40
276.0
 40
277.0
 40
277.0
 40
278.0
 40
278.0
 40
279.0
 40
279.0
 40
280.0
 40
280.0
 40
281.0
 40
281.0
 40
282.0
 40
282.0
 40
283.0
 40
283.0
 40
284.0
 40
284.0
 40
285.0
 40
285.0
 40
286.0
 40
286.0
 40
287.0
 40
287.0
 40
288.0
 40
288.0
 40
289.0
 40
289.0
 40
290.0
 40
290.0
 40
291.0
 40
291.0
 40
292.0
 40
292.0
 40
293.0
 40
293.0
 40
294.0
 40
294.0
 40
295.0
 40
295.0
 40
296.0
 40
296.0
 40
297.0
 40
297.0
 40
298.0
 40
298.0
 40
299.0
 40
299.0
 40
300.0
 40
300.0
 40
301.0
 40
301.0
 40
302.0
 40
302.0
 40
303.0
 40
303.0
 40
304.0
 40
304.0
 40
305.0
 40
305.0
 40
306.0
 40
306.0
 40
307.0
 40
307.0
 40
308.0
 40
308.0
 40
309.0
 40
309.0
 40
310.0
 40
310.0
 40
311.0
 40
311.0
 40
312.0
 40
312.0
 40
313.0
 40
313.0
 40
314.0
 40
314.0
 40
315.0
 40
315.0
 40
316.0
 40
316.0
 40
317.0
 40
317.0
 40
318.0
 40
318.0
 40
319.0
 40
319.0
 40
320.0
 40
320.0
 40
321.0
 40
321.0
 40
322.0
 40
322.0
 40
323.0
 40
323.0
 40
324.0
 40
324.0
 40
325.0
 40
325.0
 40
326.0
 40
326.0
 40
327.0
 40
327.0
 40
328.0
 40
328.0
 40
329.0
 40
329.0
 40
330.0
 40
330.0
 40
331.0
 40
331.0
 40
332.0
 40
332.0
 40
333.0
 40
333.0
 40
334.0
 40
334.0
 40
335.0
 40
335.0
 40
336.0
 40
336.0
 40
337.0
 40
337.0
 40
338.0
 40
338.0
 40
339.0
 40
339.0
 40
340.0
 40
340.0
 40
341.0
 40
341.0
 40
342.0
 40
342.0
 40
343.0
 40
343.0
 40
344.0
 40
344.0
 40
345.0
 40
345.0
 40
346.0
 40
346.0
 40
347.0
 40
347.0
 40
348.0
 40
348.0
 40
349.0
 40
349.0
 40
350.0
 40
350.0
 40
351.0
 40
351.0
 40
352.0
 40
352.0
 40
353.0
 40
353.0
 40
354.0
 40
354.0
 40
355.0
 40
355.0
 40
356.0
 40
356.0
 40
357.0
 40
357.0
 40
358.0
 40
358.0
 40
359.0
 40
359.0
 40
360.0
 40
360.0
 40
361.0
 40
361.0
 40
362.0
 40
362.0
 40
363.0
 40
363.0
 40
364.0
 40
364.0
 40
365.0
 40
365.0
 40
366.0
 40
366.0
 40
367.0
 40
367.0
 40
368.0
 40
368.0
 40
369.0
 40
369.0
 40
370.0
 40
370.0
 40
371.0
 40
371.0
 40
372.0
 40
372.0
 40
373.0
 40
373.0
 40
374.0
 40
374.0
 40
375.0
 40
375.0
 40
376.0
 40
376.0
 40
377.0
 40
377.0
 40
378.0
 40
378.0
 40
379.0
 40
379.0
 40
380.0
 40
380.0
 40
381.0
 40
381.0
 40
382.0
 40
382.0
 40
383.0
 40
383.0
 40
384.0
 40
384.0
 40
385.0
 40
385.0
 40
386.0
 40
386.0
 40
387.0
 40
387.0
 40
388.0
 40
388.0
 40
389.0
 40
389.0
 40
389.0
 10
-3759.1546446301695
 20
-2940.1448611622363
 30
0.0
 41
1.0
 10
-3757.9270084670889
 20
-2940.1448611622363
 30
0.0
 41
1.0
 10
-3756.6993723040077
 20
-2940.1448611622363
 30
0.0
 41
1.0
 10
-3757.3200029072832
 20
-2942.1588005586109
 30
0.0
 41
1.0
 10
-3757.9406335105582
 20
-2944.1727399549854
 30
0.0
 41
1.0
 10
-3757.913124267795
 20
-2944.1296887956005
 30
0.0
 41
0.9999957264351101
 10
-3757.885363772536
 20
-2944.0867992203553
 30
0.0
 41
1.0
 10
-3757.8397197863424
 20
-2944.0162799028103
 30
0.0
 41
1.0
 10
-3757.7940758001482
 20
-2943.9457605852649
 30
0.0
 41
1.0
 10
-3757.6750273324874
 20
-2943.761832374907
 30
0.0
 41
0.9995394069081249
 10
-3757.5450397451577
 20
-2943.5854652822918
 30
0.0
 41
1.0
 10
-3757.49140445177
 20
-2943.5126929434045
 30
0.0
 41
1.0
 10
-3757.4377691583827
 20
-2943.4399206045173
 30
0.0
 41
1.0
 10
-3757.2371791566557
 20
-2943.1677601918273
 30
0.0
 41
0.9994460617143384
 10
-3757.018928434723
 20
-2942.9095465953519
 30
0.0
 41
1.0
 10
-3757.0123461632606
 20
-2942.9017590747781
 30
0.0
 41
1.0
 10
-3757.0057638917983
 20
-2942.8939715542047
 30
0.0
 41
1.0
 10
-3756.8006777127912
 20
-2942.6513329988775
 30
0.0
 41
0.9994359394933753
 10
-3756.5797663672638
 20
-2942.4230086971302
 30
0.0
 41
1.0
 10
-3756.5761913363312
 20
-2942.4193137015677
 30
0.0
 41
1.0
 10
-3756.5726163053982
 20
-2942.4156187060053
 30
0.0
 41
1.0
 10
-3756.3588550217351
 20
-2942.194684395382
 30
0.0
 41
0.9995293688568451
 10
-3756.1319475002633
 20
-2941.9872745771372
 30
0.0
 41
1.0
 10
-3756.1030068613736
 20
-2941.9608207486654
 30
0.0
 41
1.0
 10
-3756.0740662224839
 20
-2941.9343669201935
 30
0.0
 41
1.0
 10
-3755.9050399787943
 20
-2941.7798647588943
 30
0.0
 41
0.999708761480297
 10
-3755.7287556453575
 20
-2941.6336983376941
 30
0.0
 41
1.0
 10
-3755.7000065355837
 20
-2941.6098609699234
 30
0.0
 41
1.0
 10
-3755.6712574258099
 20
-2941.5860236021526
 30
0.0
 41
1.0
 10
-3755.5524713119144
 20
-2941.4875319164889
 30
0.0
 41
0.9999595338698251
 10
-3755.4319324056423
 20
-2941.391193320515
 30
0.0
 41
1.0
 10
-3755.3113934993444
 20
-2941.2948547245205
 30
0.0
 41
0.999974941750238
 10
-3755.1895026978109
 20
-2941.2002323935867
 30
0.0
 41
1.0
 10
-3755.1580234785943
 20
-2941.1757954626555
 30
0.0
 41
1.0
 10
-3755.1265442593781
 20
-2941.1513585317243
 30
0.0
 41
1.0
 10
-3754.9996924314141
 20
-2941.052885016954
 30
0.0
 41
0.9999792037114335
 10
-3754.8715810317408
 20
-2940.9560558444741
 30
0.0
 41
1.0
 10
-3754.8403437929669
 20
-2940.9324461111582
 30
0.0
 41
1.0
 10
-3754.809106554193
 20
-2940.9088363778419
 30
0.0
 41
1.0
 10
-3754.7434696321843
 20
-2940.859226672083
 30
0.0
 41
0.999999337415017
 10
-3754.6779471028717
 20
-2940.809465978873
 30
0.0
 41
1.0
 10
-3754.6124245736514
 20
-2940.7597052857327
 30
0.0
 41
0.9999160953814793
 10
-3754.545634957266
 20
-2940.711658687931
 30
0.0
 41
1.0
 10
-3754.4964021261426
 20
-2940.6762419545576
 30
0.0
 41
1.0
 10
-3754.4471692950192
 20
-2940.6408252211845
 30
0.0
 41
1.0
 10
-3754.2819140163815
 20
-2940.5219451566322
 30
0.0
 41
0.9980964527231493
 10
-3754.1032805261302
 20
-2940.4243139473483
 30
0.0
 41
1.0
 10
-3754.047731615738
 20
-2940.3939539779585
 30
0.0
 41
1.0
 10
-3753.9921827053458
 20
-2940.3635940085687
 30
0.0
 41
1.0
 10
-3753.7231921854363
 20
-2940.2165786325177
 30
0.0
 41
0.9984572810573374
 10
-3753.4395593358986
 20
-2940.1002952404979
 30
0.0
 41
1.0
 10
-3753.434089931804
 20
-2940.0980529019907
 30
0.0
 41
1.0
 10
-3753.4286205277094
 20
-2940.0958105634832
 30
0.0
 41
1.0
 10
-3753.1559264863599
 20
-2939.9840118484781
 30
0.0
 41
0.9987838528034344
 10
-3752.873547498521
 20
-2939.8996133882292
 30
0.0
 41
1.0
 10
-3752.8671905747215
 20
-2939.8977134076936
 30
0.0
 41
1.0
 10
-3752.8608336509219
 20
-2939.8958134271579
 30
0.0
 41
1.0
 10
-3752.5911685106807
 20
-2939.8152149279804
 30
0.0
 41
0.9990652816207524
 10
-3752.3155496131085
 20
-2939.7582094086679
 30
0.0
 41
1.0
 10
-3752.3077670115599
 20
-2939.7565997540078
 30
0.0
 41
1.0
 10
-3752.2999844100118
 20
-2939.7549900993477
 30
0.0
 41
1.0
 10
-3752.039930715533
 20
-2939.7012038893549
 30
0.0
 41
0.9992909934271017
 10
-3751.7765670658473
 20
-2939.6671382406548
 30
0.0
 41
1.0
 10
-3751.5132034161616
 20
-2939.6330725919552
 30
0.0
 41
0.9994553539448614
 10
-3751.2481662665241
 20
-2939.6164536356459
 30
0.0
 41
1.0
 10
-3751.1950146548306
 20
-2939.613120803574
 30
0.0
 41
1.0
 10
-3751.1418630431367
 20
-2939.6097879715026
 30
0.0
 41
1.0
 10
-3750.8925243932799
 20
-2939.594153377885
 30
0.0
 41
0.9990928098293098
 10
-3750.6427597054253
 20
-2939.5997928397369
 30
0.0
 41
1.0
 10
-3750.5849169525191
 20
-2939.6010988770363
 30
0.0
 41
1.0
 10
-3750.5270741996123
 20
-2939.6024049143357
 30
0.0
 41
1.0
 10
-3750.3929950175725
 20
-2939.6054323015887
 30
0.0
 41
0.9998382089203944
 10
-3750.2591114933916
 20
-2939.6132804913805
 30
0.0
 41
1.0
 10
-3750.2584666340617
 20
-2939.6133182927338
 30
0.0
 41
1.0
 10
-3750.2578217747323
 20
-2939.6133560940871
 30
0.0
 41
1.0
 10
-3750.125227969213
 20
-2939.6211286811726
 30
0.0
 41
0.9997558016757687
 10
-3749.9931071034111
 20
-2939.6347524542225
 30
0.0
 41
1.0
 10
-3749.9923928957678
 20
-2939.6348261004459
 30
0.0
 41
1.0
 10
-3749.9916786881249
 20
-2939.6348997466698
 30
0.0
 41
1.0
 10
-3749.860986237612
 20
-2939.6483762272719
 30
0.0
 41
0.9996565144181794
 10
-3749.7311794575971
 20
-2939.6686821873059
 30
0.0
 41
1.0
 10
-3749.7304805695294
 20
-2939.6687915159027
 30
0.0
 41
1.0
 10
-3749.7297816814621
 20
-2939.6689008445001
 30
0.0
 41
1.0
 10
-3749.6013726775823
 20
-2939.6889881473398
 30
0.0
 41
0.9995321806866979
 10
-3749.4744320570917
 20
-2939.7168888799833
 30
0.0
 41
1.0
 10
-3749.4738482652351
 20
-2939.7170171936818
 30
0.0
 41
1.0
 10
-3749.4732644733785
 20
-2939.7171455073803
 30
0.0
 41
1.0
 10
-3749.3474914366006
 20
-2939.7447896126268
 30
0.0
 41
0.9993819199218716
 10
-3749.2239716353056
 20
-2939.7812026875181
 30
0.0
 41
1.0
 10
-3749.2236139850538
 20
-2939.7813081211834
 30
0.0
 41
1.0
 10
-3749.2232563348016
 20
-2939.7814135548492
 30
0.0
 41
1.0
 10
-3749.100451834006
 20
-2939.8176157624112
 30
0.0
 41
0.9992088568506954
 10
-3748.9809130555286
 20
-2939.8634636161005
 30
0.0
 41
1.0
 10
-3748.8613915692099
 20
-2939.9093030172003
 30
0.0
 41
0.9990226101772536
 10
-3748.7463855643496
 20
-2939.9655191646225
 30
0.0
 41
1.0
 10
-3748.6313968516533
 20
-2940.021726859452
 30
0.0
 41
0.9988424273972438
 10
-3748.5223414108364
 20
-2940.0887240223301
 30
0.0
 41
1.0
 10
-3748.5219398482659
 20
-2940.0889707184392
 30
0.0
 41
1.0
 10
-3748.5215382856959
 20
-2940.0892174145483
 30
0.0
 41
1.0
 10
-3748.4116797197344
 20
-2940.1567079696488
 30
0.0
 41
0.9986928844492642
 10
-3748.3092854196639
 20
-2940.2350615710725
 30
0.0
 41
1.0
 10
-3748.3084134813353
 20
-2940.2357287909099
 30
0.0
 41
1.0
 10
-3748.3075415430067
 20
-2940.2363960107477
 30
0.0
 41
1.0
 10
-3748.2034033662781
 20
-2940.3160840518472
 30
0.0
 41
0.9986007262277573
 10
-3748.1082641116318
 20
-2940.4063252063834
 30
0.0
 41
1.0
 10
-3748.1069224884418
 20
-2940.4075977581397
 30
0.0
 41
1.0
 10
-3748.1055808652518
 20
-2940.4088703098964
 30
0.0
 41
1.0
 10
-3748.0077583642292
 20
-2940.501656567943
 30
0.0
 41
0.9985581491381517
 10
-3747.9204469466758
 20
-2940.6043953033518
 30
0.0
 41
1.0
 10
-3747.9065592662828
 20
-2940.6207368399032
 30
0.0
 41
1.0
 10
-3747.8926715858902
 20
-2940.6370783764546
 30
0.0
 41
1.0
 10
-3747.7775848075512
 20
-2940.7725001849658
 30
0.0
 41
0.9970460233519193
 10
-3747.684596955813
 20
-2940.9239508112373
 30
0.0
 41
1.0
 10
-3747.6628929081935
 20
-2940.9593004998596
 30
0.0
 41
1.0
 10
-3747.6411888605739
 20
-2940.9946501884815
 30
0.0
 41
1.0
 10
-3747.5815838105545
 20
-2941.09172977453
 30
0.0
 41
0.9988468816635958
 10
-3747.5315642544269
 20
-2941.1940784531726
 30
0.0
 41
1.0
 10
-3747.5210102206966
 20
-2941.2156738348649
 30
0.0
 41
1.0
 10
-3747.5104561869657
 20
-2941.2372692165577
 30
0.0
 41
1.0
 10
-3747.4815446983057
 20
-2941.2964271318001
 30
0.0
 41
0.9998431189998123
 10
-3747.454746707057
 20
-2941.3565719634753
 30
0.0
 41
1.0
 10
-3747.4279487157678
 20
-2941.4167167952419
 30
0.0
 41
0.9999989989982365
 10
-3747.4009806305812
 20
-2941.4767855517362
 30
0.0
 41
1.0
 10
-3747.39172216324
 20
-2941.4974078768428
 30
0.0
 41
1.0
 10
-3747.3824636958989
 20
-2941.5180302019498
 30
0.0
 41
1.0
 10
-3747.3369786759813
 20
-2941.6193436087688
 30
0.0
 41
0.9998790356319844
 10
-3747.294666855772
 20
-2941.7220227366806
 30
0.0
 41
1.0
 10
-3747.2844140838524
 20
-2941.7469033888042
 30
0.0
 41
1.0
 10
-3747.2741613119333
 20
-2941.7717840409277
 30
0.0
 41
1.0
 10
-3747.2388248183574
 20
-2941.8575359732672
 30
0.0
 41
0.9998227574559716
 10
-3747.2067416957689
 20
-2941.944557435696
 30
0.0
 41
1.0
 10
-3747.1746585731821
 20
-2942.0315788981225
 30
0.0
 41
0.9996797971044142
 10
-3747.1470191457397
 20
-2942.1201120768096
 30
0.0
 41
1.0
 10
-3747.1411634416545
 20
-2942.1388687640529
 30
0.0
 41
1.0
 10
-3747.1353077375697
 20
-2942.1576254512961
 30
0.0
 41
1.0
 10
-3747.0959569019542
 20
-2942.2836720044816
 30
0.0
 41
0.997927493873559
 10
-3747.0731201167346
 20
-2942.4137285424736
 30
0.0
 41
1.0
 10
-3747.0697845858431
 20
-2942.4327245437044
 30
0.0
 41
1.0
 10
-3747.0664490549511
 20
-2942.4517205449351
 30
0.0
 41
1.0
 10
-3747.0500541454044
 20
-2942.54509030587
 30
0.0
 41
0.9994985982137764
 10
-3747.0396018976389
 20
-2942.6393105575826
 30
0.0
 41
1.0
 10
-3747.0291496498735
 20
-2942.7335308092952
 30
0.0
 41
0.9996372611201144
 10
-3747.0237858512219
 20
-2942.828177177319
 30
0.0
 41
1.0
 10
-3747.0235329849879
 20
-2942.8326391029423
 30
0.0
 41
1.0
 10
-3747.023280118754
 20
-2942.8371010285655
 30
0.0
 41
1.0
 10
-3747.0174105876345
 20
-2942.9406712478226
 30
0.0
 41
0.9997730630735321
 10
-3747.0159581174025
 20
-2943.0443974838622
 30
0.0
 41
1.0
 10
-3747.015872457775
 20
-2943.0505147525864
 30
0.0
 41
1.0
 10
-3747.0157867981479
 20
-2943.0566320213111
 30
0.0
 41
1.0
 10
-3747.0141630086619
 20
-2943.1725927948141
 30
0.0
 41
0.9998772614070203
 10
-3747.0161731387598
 20
-2943.2885475146859
 30
0.0
 41
1.0
 10
-3747.0163070335575
 20
-2943.2962712604126
 30
0.0
 41
1.0
 10
-3747.0164409283552
 20
-2943.3039950061393
 30
0.0
 41
1.0
 10
-3747.01871884805
 20
-2943.4353972175008
 30
0.0
 41
0.9999415567325229
 10
-3747.0238373134193
 20
-2943.5667194600242
 30
0.0
 41
1.0
 10
-3747.024199294432
 20
-2943.5760066496196
 30
0.0
 41
1.0
 10
-3747.0245612754443
 20
-2943.5852938392154
 30
0.0
 41
1.0
 10
-3747.0304037028368
 20
-2943.7351904608945
 30
0.0
 41
0.999971681042962
 10
-3747.0385015775123
 20
-2943.8849821681906
 30
0.0
 41
1.0
 10
-3747.0433207756932
 20
-2943.9741260426435
 30
0.0
 41
1.0
 10
-3747.0481399738746
 20
-2944.0632699170965
 30
0.0
 41
1.0
 10
-3747.0602508376069
 20
-2944.2872925190968
 30
0.0
 41
0.9999819129896469
 10
-3747.075055525037
 20
-2944.5111532357432
 30
0.0
 41
1.0
 10
-3747.0898602124616
 20
-2944.7350139523105
 30
0.0
 41
1.0
 10
-3747.0935191933077
 20
-2944.7908035210849
 30
0.0
 41
1.0
 10
-3747.0594718426132
 20
-2944.732692025178
 30
0.0
 41
0.9999982128162136
 10
-3747.0252050045201
 20
-2944.6747096843087
 30
0.0
 41
1.0
 10
-3746.984840664647
 20
-2944.6064098631477
 30
0.0
 41
1.0
 10
-3746.9444763247739
 20
-2944.5381100419872
 30
0.0
 41
1.0
 10
-3746.8294808069813
 20
-2944.3435280588774
 30
0.0
 41
0.9998609190056933
 10
-3746.7080598376833
 20
-2944.1528894859748
 30
0.0
 41
1.0
 10
-3746.6635873554656
 20
-2944.0830648865467
 30
0.0
 41
1.0
 10
-3746.6191148732478
 20
-2944.0132402871191
 30
0.0
 41
1.0
 10
-3746.4957065428912
 20
-2943.8194814321246
 30
0.0
 41
0.9999067609732605
 10
-3746.3670530286954
 20
-2943.6291648979632
 30
0.0
 41
1.0
 10
-3746.3634459738951
 20
-2943.6238289988823
 30
0.0
 41
1.0
 10
-3746.3598389190947
 20
-2943.6184930998015
 30
0.0
 41
1.0
 10
-3746.238399514501
 20
-2943.438848363804
 30
0.0
 41
0.999878495214971
 10
-3746.111419099977
 20
-2943.263076538738
 30
0.0
 41
1.0
 10
-3745.9844386854538
 20
-2943.0873047136733
 30
0.0
 41
0.9998532968283865
 10
-3745.8515122542185
 20
-2942.9159853509655
 30
0.0
 41
1.0
 10
-3745.8215695707322
 20
-2942.8773943694359
 30
0.0
 41
1.0
 10
-3745.7916268872455
 20
-2942.838803387906
 30
0.0
 41
1.0
 10
-3745.6139008126083
 20
-2942.6097449714548
 30
0.0
 41
0.9991551975795223
 10
-3745.4179641381743
 20
-2942.3960556283309
 30
0.0
 41
1.0
 10
-3745.4126997142039
 20
-2942.3903142258932
 30
0.0
 41
1.0
 10
-3745.4074352902335
 20
-2942.384572823456
 30
0.0
 41
1.0
 10
-3745.2220274637384
 20
-2942.1823662852048
 30
0.0
 41
0.9997418144180906
 10
-3745.0276242541877
 20
-2941.9887921692866
 30
0.0
 41
1.0
 10
-3744.8332210446383
 20
-2941.7952180533689
 30
0.0
 41
0.9989238204633076
 10
-3744.6217172222628
 20
-2941.6204906103117
 30
0.0
 41
1.0
 10
-3744.5538457050534
 20
-2941.5644206228981
 30
0.0
 41
1.0
 10
-3744.485974187844
 20
-2941.5083506354849
 30
0.0
 41
1.0
 10
-3744.2756141020109
 20
-2941.3345680555476
 30
0.0
 41
0.9990825084096492
 10
-3744.051154203104
 20
-2941.1794245587976
 30
0.0
 41
1.0
 10
-3744.0360861570161
 20
-2941.1690097391765
 30
0.0
 41
1.0
 10
-3744.0210181109287
 20
-2941.158594919556
 30
0.0
 41
1.0
 10
-3743.8266943041963
 20
-2941.0242810620466
 30
0.0
 41
0.999816489982521
 10
-3743.6273679991336
 20
-2940.8975096997738
 30
0.0
 41
1.0
 10
-3743.6095996583445
 20
-2940.8862090499852
 30
0.0
 41
1.0
 10
-3743.5918313175548
 20
-2940.8749084001961
 30
0.0
 41
1.0
 10
-3743.4280416940674
 20
-2940.7707383374982
 30
0.0
 41
0.9997473449130215
 10
-3743.2597357581949
 20
-2940.6740349007755
 30
0.0
 41
1.0
 10
-3743.091429822317
 20
-2940.5773314640501
 30
0.0
 41
0.9999327861144828
 10
-3742.9209269061653
 20
-2940.4845564765242
 30
0.0
 41
1.0
 10
-3742.9200989023293
 20
-2940.484105938508
 30
0.0
 41
1.0
 10
-3742.9192708984933
 20
-2940.4836554004924
 30
0.0
 41
1.0
 10
-3742.747111974667
 20
-2940.3899793369333
 30
0.0
 41
0.9996956420483442
 10
-3742.5705419859087
 20
-2940.3049091364724
 30
0.0
 41
1.0
 10
-3742.5248813785706
 20
-2940.2829101713778
 30
0.0
 41
1.0
 10
-3742.4792207712326
 20
-2940.2609112062833
 30
0.0
 41
1.0
 10
-3742.3247551111144
 20
-2940.1864907186164
 30
0.0
 41
0.999807057017734
 10
-3742.1674855277006
 20
-2940.1181948382637
 30
0.0
 41
1.0
 10
-3742.0102159442922
 20
-2940.0498989579137
 30
0.0
 41
0.9997827436147444
 10
-3741.8502365393811
 20
-2939.988217200947
 30
0.0
 41
1.0
 10
-3741.8214022649308
 20
-2939.9770998404974
 30
0.0
 41
1.0
 10
-3741.7925679904802
 20
-2939.9659824800474
 30
0.0
 41
1.0
 10
-3741.5749200366686
 20
-2939.8820660021815
 30
0.0
 41
0.9988031841976393
 10
-3741.35011449276
 20
-2939.8198159059298
 30
0.0
 41
1.0
 10
-3741.3127386202145
 20
-2939.809466287219
 30
0.0
 41
1.0
 10
-3741.2753627476691
 20
-2939.7991166685088
 30
0.0
 41
1.0
 10
-3741.0244577092003
 20
-2939.7296394548994
 30
0.0
 41
0.998474804055006
 10
-3740.76742234623
 20
-2939.6882481065027
 30
0.0
 41
1.0
 10
-3740.7603136418556
 20
-2939.6871033657326
 30
0.0
 41
1.0
 10
-3740.7532049374813
 20
-2939.685958624962
 30
0.0
 41
1.0
 10
-3740.5103869832556
 20
-2939.6468567581055
 30
0.0
 41
0.9984436495480463
 10
-3740.2647248676694
 20
-2939.6350398273771
 30
0.0
 41
1.0
 10
-3740.232179055472
 20
-2939.6334742965773
 30
0.0
 41
1.0
 10
-3740.1996332432745
 20
-2939.631908765778
 30
0.0
 41
1.0
 10
-3740.0190627520819
 20
-2939.6232228966492
 30
0.0
 41
0.9987954789335596
 10
-3739.8385103847177
 20
-2939.6322776882625
 30
0.0
 41
1.0
 10
-3739.8085631959748
 20
-2939.6337795547706
 30
0.0
 41
1.0
 10
-3739.7786160072319
 20
-2939.6352814212783
 30
0.0
 41
1.0
 10
-3739.6579580173516
 20
-2939.6413324798759
 30
0.0
 41
0.9997941595877321
 10
-3739.5376448502111
 20
-2939.6522735787576
 30
0.0
 41
1.0
 10
-3739.4173316830679
 20
-2939.6632146776392
 30
0.0
 41
0.9998589466236912
 10
-3739.2974538627841
 20
-2939.6781904593149
 30
0.0
 41
1.0
 10
-3739.2488445600734
 20
-2939.6842629946932
 30
0.0
 41
1.0
 10
-3739.2002352573627
 20
-2939.6903355300719
 30
0.0
 41
1.0
 10
-3738.9831388316543
 20
-2939.7174563825051
 30
0.0
 41
0.9993495063249103
 10
-3738.7685619660047
 20
-2939.7601549471178
 30
0.0
 41
1.0
 10
-3738.7191614202789
 20
-2939.7699851419393
 30
0.0
 41
1.0
 10
-3738.669760874553
 20
-2939.7798153367612
 30
0.0
 41
1.0
 10
-3738.5058201397451
 20
-2939.8124378379648
 30
0.0
 41
0.999678871556102
 10
-3738.3437427818094
 20
-2939.853324537009
 30
0.0
 41
1.0
 10
-3738.3406482779938
 20
-2939.8541051768702
 30
0.0
 41
1.0
 10
-3738.3375537741786
 20
-2939.8548858167314
 30
0.0
 41
1.0
 10
-3738.1816654238673
 20
-2939.894211236056
 30
0.0
 41
0.9995480654492929
 10
-3738.0284220710305
 20
-2939.9428336709907
 30
0.0
 41
1.0
 10
-3738.0258876078424
 20
-2939.9436378283599
 30
0.0
 41
1.0
 10
-3738.0233531446547
 20
-2939.9444419857291
 30
0.0
 41
1.0
 10
-3737.8751787181918
 20
-2939.991456105925
 30
0.0
 41
0.9993867959455871
 10
-3737.7306579805227
 20
-2940.0487251598615
 30
0.0
 41
1.0
 10
-3737.7287935568911
 20
-2940.0494639727076
 30
0.0
 41
1.0
 10
-3737.72692913326
 20
-2940.0502027855537
 30
0.0
 41
1.0
 10
-3737.5861372428553
 20
-2940.1059942137981
 30
0.0
 41
0.9992050256522055
 10
-3737.4502377303088
 20
-2940.1728250626547
 30
0.0
 41
1.0
 10
-3737.4491357062379
 20
-2940.1733670013473
 30
0.0
 41
1.0
 10
-3737.4480336821671
 20
-2940.1739089400394
 30
0.0
 41
1.0
 10
-3737.3143382177568
 20
-2940.2396559115136
 30
0.0
 41
0.9990222350741421
 10
-3737.1869731256684
 20
-2940.3169558130603
 30
0.0
 41
1.0
 10
-3737.1866972977482
 20
-2940.3171232174154
 30
0.0
 41
1.0
 10
-3737.186421469828
 20
-2940.3172906217701
 30
0.0
 41
1.0
 10
-3737.0596080335813
 20
-2940.3942557146047
 30
0.0
 41
0.9988642743803916
 10
-3736.9406962316493
 20
-2940.4829419958951
 30
0.0
 41
1.0
 10
-3736.8217844297214
 20
-2940.5716282771828
 30
0.0
 41
0.9987681233311366
 10
-3736.7122487533074
 20
-2940.6716643142836
 30
0.0
 41
1.0
 10
-3736.711755361358
 20
-2940.6721149161053
 30
0.0
 41
1.0
 10
-3736.711261969409
 20
-2940.6725655179271
 30
0.0
 41
1.0
 10
-3736.6007395091033
 20
-2940.7735027586646
 30
0.0
 41
0.9987496570897373
 10
-3736.5008488011176
 20
-2940.8849719797886
 30
0.0
 41
1.0
 10
-3736.4996905464714
 20
-2940.8862644898318
 30
0.0
 41
1.0
 10
-3736.4985322918255
 20
-2940.8875569998745
 30
0.0
 41
1.0
 10
-3736.3963250745546
 20
-2941.0016112410763
 30
0.0
 41
0.9988147669826483
 10
-3736.3056916932183
 20
-2941.1250627513382
 30
0.0
 41
1.0
 10
-3736.3040127041004
 20
-2941.1273496983686
 30
0.0
 41
1.0
 10
-3736.3023337149825
 20
-2941.1296366453994
 30
0.0
 41
1.0
 10
-3736.2083423554127
 20
-2941.2576620497202
 30
0.0
 41
0.9989452636216498
 10
-3736.1264919859705
 20
-2941.3937700834567
 30
0.0
 41
1.0
 10
-3736.1244688968418
 20
-2941.3971342549962
 30
0.0
 41
1.0
 10
-3736.1224458077131
 20
-2941.4004984265357
 30
0.0
 41
1.0
 10
-3736.0365492600122
 20
-2941.5433348033548
 30
0.0
 41
0.9991046436071073
 10
-3735.9630354400279
 20
-2941.6929214528968
 30
0.0
 41
1.0
 10
-3735.9608396476447
 20
-2941.6973894730017
 30
0.0
 41
1.0
 10
-3735.9586438552615
 20
-2941.7018574931071
 30
0.0
 41
1.0
 10
-3735.8807384505085
 20
-2941.8603801828635
 30
0.0
 41
0.9992763831101159
 10
-3735.8151087576753
 20
-2942.0243662757989
 30
0.0
 41
1.0
 10
-3735.8128898531809
 20
-2942.0299105570984
 30
0.0
 41
1.0
 10
-3735.8106709486865
 20
-2942.0354548383975
 30
0.0
 41
1.0
 10
-3735.7406034468645
 20
-2942.2105294939297
 30
0.0
 41
0.9994163472882921
 10
-3735.6826539000804
 20
-2942.3899798766238
 30
0.0
 41
1.0
 10
-3735.6807966717079
 20
-2942.3957310923047
 30
0.0
 41
1.0
 10
-3735.6789394433358
 20
-2942.4014823079856
 30
0.0
 41
1.0
 10
-3735.6191141018116
 20
-2942.5867414001987
 30
0.0
 41
0.9997268055890866
 10
-3735.568012017945
 20
-2942.7745939481201
 30
0.0
 41
1.0
 10
-3735.5666167475401
 20
-2942.7797229972848
 30
0.0
 41
1.0
 10
-3735.5652214771353
 20
-2942.7848520464499
 30
0.0
 41
1.0
 10
-3735.5169099340769
 20
-2942.9624464960471
 30
0.0
 41
0.9996701319000246
 10
-3735.477781508921
 20
-2943.142287425941
 30
0.0
 41
1.0
 10
-3735.4386530837646
 20
-2943.3221283558414
 30
0.0
 41
0.9995785451109965
 10
-3735.410027717754
 20
-2943.5039369973947
 30
0.0
 41
1.0
 10
-3735.4036980444944
 20
-2943.5441387295346
 30
0.0
 41
1.0
 10
-3735.3973683712352
 20
-2943.5843404616744
 30
0.0
 41
1.0
 10
-3735.3575059073269
 20
-2943.8375194222317
 30
0.0
 41
0.9979925101216591
 10
-3735.3499675284374
 20
-2944.0937064143709
 30
0.0
 41
1.0
 10
-3735.3487303098009
 20
-2944.1357524995697
 30
0.0
 41
1.0
 10
-3735.3474930911643
 20
-2944.1777985847684
 30
0.0
 41
1.0
 10
-3735.3424291495467
 20
-2944.3498934064851
 30
0.0
 41
0.9995314902261993
 10
-3735.3479044377555
 20
-2944.5219756321362
 30
0.0
 41
1.0
 10
-3735.3533797259638
 20
-2944.6940578577705
 30
0.0
 41
0.9996245486945429
 10
-3735.3682733686605
 20
-2944.865581764464
 30
0.0
 41
1.0
 10
-3735.3685179406511
 20
-2944.8683983986598
 30
0.0
 41
1.0
 10
-3735.3687625126422
 20
-2944.8712150328556
 30
0.0
 41
1.0
 10
-3735.3841452993197
 20
-2945.0483722079371
 30
0.0
 41
0.9997286095000036
 10
-3735.4077632846752
 20
-2945.2246205712672
 30
0.0
 41
1.0
 10
-3735.4083535236523
 20
-2945.2290252083312
 30
0.0
 41
1.0
 10
-3735.4089437626294
 20
-2945.2334298453952
 30
0.0
 41
1.0
 10
-3735.4337422259382
 20
-2945.4184874828456
 30
0.0
 41
0.9998265533969487
 10
-3735.465415414038
 20
-2945.6024931950319
 30
0.0
 41
1.0
 10
-3735.4664302272431
 20
-2945.6083887627901
 30
0.0
 41
1.0
 10
-3735.4674450404482
 20
-2945.6142843305479
 30
0.0
 41
1.0
 10
-3735.5011478549595
 20
-2945.810081178257
 30
0.0
 41
0.9999022530852707
 10
-3735.5403120518745
 20
-2946.0048591312157
 30
0.0
 41
1.0
 10
-3735.541780013622
 20
-2946.012159844794
 30
0.0
 41
1.0
 10
-3735.5432479753695
 20
-2946.0194605583729
 30
0.0
 41
1.0
 10
-3735.5853480957876
 20
-2946.2288399385252
 30
0.0
 41
0.9999524761932792
 10
-3735.6315225490462
 20
-2946.4373586783026
 30
0.0
 41
1.0
 10
-3735.6334367098025
 20
-2946.4460028172243
 30
0.0
 41
1.0
 10
-3735.6353508705588
 20
-2946.4546469561465
 30
0.0
 41
1.0
 10
-3735.6853536453455
 20
-2946.6804539738332
 30
0.0
 41
0.999981358872169
 10
-3735.7381101465471
 20
-2946.9056335428527
 30
0.0
 41
1.0
 10
-3735.740441034724
 20
-2946.9155824284517
 30
0.0
 41
1.0
 10
-3735.7427719229008
 20
-2946.9255313140511
 30
0.0
 41
1.0
 10
-3735.8001902004626
 20
-2947.1706086542927
 30
0.0
 41
0.9999955237724532
 10
-3735.8590740174318
 20
-2947.4153380096982
 30
0.0
 41
1.0
 10
-3735.877496470885
 20
-2947.4919042954898
 30
0.0
 41
1.0
 10
-3735.8959189243383
 20
-2947.568470581281
 30
0.0
 41
1.0
 10
-3735.9916476482067
 20
-2947.9663325082392
 30
0.0
 41
0.9999993604212112
 10
-3736.0882760689733
 20
-2948.3639768843241
 30
0.0
 41
1.0
 10
-3736.0953543222895
 20
-2948.3931052463658
 30
0.0
 41
1.0
 10
-3736.1024325756052
 20
-2948.4222336084072
 30
0.0
 41
1.0
 10
-3736.2132175029988
 20
-2948.8781347085569
 30
0.0
 41
0.9999659914726257
 10
-3736.3315068968295
 20
-2949.3321465284057
 30
0.0
 41
1.0
 10
-3736.3389359302228
 20
-2949.3606602341688
 30
0.0
 41
1.0
 10
-3736.346364963616
 20
-2949.3891739399319
 30
0.0
 41
1.0
 10
-3736.479512424231
 20
-2949.9002131713009
 30
0.0
 41
0.9999441976022828
 10
-3736.6234269736747
 20
-2950.4083253092431
 30
0.0
 41
1.0
 10
-3736.6484777513151
 20
-2950.4967708780428
 30
0.0
 41
1.0
 10
-3736.673528528956
 20
-2950.5852164468424
 30
0.0
 41
1.0
 10
-3736.8675446336724
 20
-2951.2702197223566
 30
0.0
 41
0.9999625120736214
 10
-3737.0733937846526
 20
-2951.9517605233336
 30
0.0
 41
1.0
 10
-3737.1270786992877
 20
-2952.1295045633096
 30
0.0
 41
1.0
 10
-3737.1807636139229
 20
-2952.3072486032852
 30
0.0
 41
1.0
 10
-3737.292543919978
 20
-2952.6773392204177
 30
0.0
 41
0.9999793386318627
 10
-3737.4090729546797
 20
-2953.0459621792561
 30
0.0
 41
1.0
 10
-3737.5256019893859
 20
-2953.4145851381104
 30
0.0
 41
1.0
 10
-3737.541771327692
 20
-2953.4656119946721
 30
0.0
 41
1.0
 10
-3740.3173309075955
 20
-2962.2962198783734
 30
0.0
 41
1.0
 10
-3743.0928904874991
 20
-2971.1268277620748
 30
0.0
 41
1.0
 10
-3744.5347755225348
 20
-2971.1268277620748
 30
0.0
 41
1.0
 10
-3745.9766605575701
 20
-2971.1268277620748
 30
0.0
 41
1.0
 10
-3743.5482433895522
 20
-2963.4047850093903
 30
0.0
 41
1.0
 10
-3741.1198262215348
 20
-2955.6827422567062
 30
0.0
 41
1.0
 10
-3741.0520774867564
 20
-2955.4666954232466
 30
0.0
 41
1.0
 10
-3740.9843287519775
 20
-2955.250648589787
 30
0.0
 41
1.0
 10
-3740.7288721259497
 20
-2954.4360120460951
 30
0.0
 41
0.9999911657893525
 10
-3740.4802729084477
 20
-2953.6192567491075
 30
0.0
 41
1.0
 10
-3740.4357289932095
 20
-2953.4729108390729
 30
0.0
 41
1.0
 10
-3740.3911850779709
 20
-2953.3265649290379
 30
0.0
 41
1.0
 10
-3740.2316736909397
 20
-2952.8025014521045
 30
0.0
 41
0.9999952428139715
 10
-3740.0753983069399
 20
-2952.2774639155377
 30
0.0
 41
1.0
 10
-3740.0678091014342
 20
-2952.2519665041009
 30
0.0
 41
1.0
 10
-3740.0602198959282
 20
-2952.2264690926645
 30
0.0
 41
1.0
 10
-3739.9191229229441
 20
-2951.7524263789855
 30
0.0
 41
0.999993168751356
 10
-3739.7815341661417
 20
-2951.2773535591077
 30
0.0
 41
1.0
 10
-3739.7741312694552
 20
-2951.2517924952108
 30
0.0
 41
1.0
 10
-3739.7667283727687
 20
-2951.2262314313134
 30
0.0
 41
1.0
 10
-3739.6439454093334
 20
-2950.8022807392099
 30
0.0
 41
0.9999893840803388
 10
-3739.5250745696458
 20
-2950.377216545332
 30
0.0
 41
1.0
 10
-3739.4062037299682
 20
-2949.9521523514913
 30
0.0
 41
0.9999833980058794
 10
-3739.2922393688664
 20
-2949.5257464769875
 30
0.0
 41
1.0
 10
-3739.2787334637687
 20
-2949.4752131592168
 30
0.0
 41
1.0
 10
-3739.2652275586715
 20
-2949.4246798414465
 30
0.0
 41
1.0
 10
-3739.1617807353764
 20
-2949.0376260930188
 30
0.0
 41
0.999923365806474
 10
-3739.0679482785508
 20
-2948.6481298549525
 30
0.0
 41
1.0
 10
-3738.9741158217203
 20
-2948.2586336168688
 30
0.0
 41
1.0
 10
-3738.9148906934338
 20
-2948.0129236202292
 30
0.0
 41
1.0
 10
-3738.9074227874653
 20
-2947.9819411774138
 30
0.0
 41
1.0
 10
-3738.8999548814973
 20
-2947.9509587345983
 30
0.0
 41
1.0
 10
-3738.8556655651437
 20
-2947.7672136235756
 30
0.0
 41
0.9999868670846244
 10
-3738.8132619391531
 20
-2947.583024205122
 30
0.0
 41
1.0
 10
-3738.8074157084116
 20
-2947.5576298239744
 30
0.0
 41
1.0
 10
-3738.80156947767
 20
-2947.5322354428267
 30
0.0
 41
1.0
 10
-3738.7708583131548
 20
-2947.3988347866361
 30
0.0
 41
0.9999778173357394
 10
-3738.7419269159855
 20
-2947.2650368608083
 30
0.0
 41
1.0
 10
-3738.7129955188157
 20
-2947.1312389349764
 30
0.0
 41
0.999960269285724
 10
-3738.6864539808703
 20
-2946.9969465023437
 30
0.0
 41
1.0
 10
-3738.6816482327517
 20
-2946.9726308200052
 30
0.0
 41
1.0
 10
-3738.6768424846332
 20
-2946.9483151376662
 30
0.0
 41
1.0
 10
-3738.6406894504557
 20
-2946.7653913403774
 30
0.0
 41
0.9995617985321444
 10
-3738.6154244296281
 20
-2946.5806487188265
 30
0.0
 41
1.0
 10
-3738.6117276947671
 20
-2946.5536174927674
 30
0.0
 41
1.0
 10
-3738.6080309599065
 20
-2946.5265862667088
 30
0.0
 41
1.0
 10
-3738.5776060683352
 20
-2946.3041136921606
 30
0.0
 41
0.9991121410639801
 10
-3738.5660180379527
 20
-2946.0798695439526
 30
0.0
 41
1.0
 10
-3738.5646398529152
 20
-2946.0531997890812
 30
0.0
 41
1.0
 10
-3738.5632616678781
 20
-2946.0265300342094
 30
0.0
 41
1.0
 10
-3738.5544300075699
 20
-2945.8556253957358
 30
0.0
 41
0.998979249490547
 10
-3738.561058645746
 20
-2945.6846211418956
 30
0.0
 41
1.0
 10
-3738.5620306035489
 20
-2945.6595467730131
 30
0.0
 41
1.0
 10
-3738.5630025613514
 20
-2945.6344724041305
 30
0.0
 41
1.0
 10
-3738.5676872839217
 20
-2945.5136168880563
 30
0.0
 41
0.9997820295394281
 10
-3738.5774132799856
 20
-2945.3930623054321
 30
0.0
 41
1.0
 10
-3738.58713927605
 20
-2945.272507722806
 30
0.0
 41
0.9998335105973906
 10
-3738.6012575693189
 20
-2945.1523882981205
 30
0.0
 41
1.0
 10
-3738.6036499563324
 20
-2945.1320337024063
 30
0.0
 41
1.0
 10
-3738.606042343346
 20
-2945.1116791066916
 30
0.0
 41
1.0
 10
-3738.6249454106423
 20
-2944.9508504905716
 30
0.0
 41
0.9996876457880278
 10
-3738.6518612798391
 20
-2944.7911673490016
 30
0.0
 41
1.0
 10
-3738.6552087745586
 20
-2944.7713077461294
 30
0.0
 41
1.0
 10
-3738.6585562692781
 20
-2944.7514481432577
 30
0.0
 41
1.0
 10
-3738.6792500014085
 20
-2944.6286789273249
 30
0.0
 41
0.9995547496494551
 10
-3738.7072299842466
 20
-2944.5073626815438
 30
0.0
 41
1.0
 10
-3738.7077909195559
 20
-2944.5049305654761
 30
0.0
 41
1.0
 10
-3738.7083518548648
 20
-2944.5024984494084
 30
0.0
 41
1.0
 10
-3738.7352099670875
 20
-2944.3860464357476
 30
0.0
 41
0.9994899427174087
 10
-3738.7694473301044
 20
-2944.2715465115052
 30
0.0
 41
1.0
 10
-3738.7701351202177
 20
-2944.2692463368162
 30
0.0
 41
1.0
 10
-3738.7708229103305
 20
-2944.2669461621272
 30
0.0
 41
1.0
 10
-3738.8036846931254
 20
-2944.1570465872478
 30
0.0
 41
0.9993784877590611
 10
-3738.8442081457833
 20
-2944.0497355295156
 30
0.0
 41
1.0
 10
-3738.8450056822485
 20
-2944.0476235554352
 30
0.0
 41
1.0
 10
-3738.8458032187136
 20
-2944.0455115813547
 30
0.0
 41
1.0
 10
-3738.8847315984431
 20
-2943.942424471777
 30
0.0
 41
0.9992430832253304
 10
-3738.9315564011822
 20
-2943.8426757436746
 30
0.0
 41
1.0
 10
-3738.9324295752685
 20
-2943.8408156609962
 30
0.0
 41
1.0
 10
-3738.9333027493544
 20
-2943.8389555783178
 30
0.0
 41
1.0
 10
-3738.9783812039223
 20
-2943.7429270155699
 30
0.0
 41
0.9990789632798282
 10
-3739.0315271440863
 20
-2943.6511170979475
 30
0.0
 41
1.0
 10
-3739.0324207033591
 20
-2943.6495734691593
 30
0.0
 41
1.0
 10
-3739.0333142626318
 20
-2943.6480298403712
 30
0.0
 41
1.0
 10
-3739.0846730842513
 20
-2943.5593071803232
 30
0.0
 41
0.9988874801119456
 10
-3739.1441619982998
 20
-2943.4758176116966
 30
0.0
 41
1.0
 10
-3739.1449952873982
 20
-2943.4746481341817
 30
0.0
 41
1.0
 10
-3739.1458285764966
 20
-2943.4734786566664
 30
0.0
 41
1.0
 10
-3739.20365091235
 20
-2943.3923280430663
 30
0.0
 41
0.9986762060691462
 10
-3739.2695046192621
 20
-2943.3175474714108
 30
0.0
 41
1.0
 10
-3739.2701705597615
 20
-2943.3167912586846
 30
0.0
 41
1.0
 10
-3739.2708365002609
 20
-2943.3160350459584
 30
0.0
 41
1.0
 10
-3739.3353583261774
 20
-2943.2427668997507
 30
0.0
 41
0.9984621642486167
 10
-3739.407594661343
 20
-2943.1770919490455
 30
0.0
 41
1.0
 10
-3739.4079646131177
 20
-2943.1767556008008
 30
0.0
 41
1.0
 10
-3739.4083345648919
 20
-2943.1764192525557
 30
0.0
 41
1.0
 10
-3739.479830996509
 20
-2943.1114169983389
 30
0.0
 41
0.9982724693850729
 10
-3739.5584589442715
 20
-2943.055250472562
 30
0.0
 41
1.0
 10
-3739.6370868920294
 20
-2942.9990839467887
 30
0.0
 41
0.9981399180162142
 10
-3739.7219659871148
 20
-2942.9529041676251
 30
0.0
 41
1.0
 10
-3739.7220344802372
 20
-2942.9528669028869
 30
0.0
 41
1.0
 10
-3739.7221029733591
 20
-2942.9528296381486
 30
0.0
 41
1.0
 10
-3739.8071190546852
 20
-2942.9065753295117
 30
0.0
 41
0.9980927086837801
 10
-3739.8971870812857
 20
-2942.8711501162329
 30
0.0
 41
1.0
 10
-3739.8978473358525
 20
-2942.8708904274208
 30
0.0
 41
1.0
 10
-3739.8985075904193
 20
-2942.8706307386083
 30
0.0
 41
1.0
 10
-3739.9898961261556
 20
-2942.8346861477044
 30
0.0
 41
0.9981411356562154
 10
-3740.0849789082554
 20
-2942.8101271854457
 30
0.0
 41
1.0
 10
-3740.0863020833067
 20
-2942.8097854221378
 30
0.0
 41
1.0
 10
-3740.0876252583575
 20
-2942.8094436588299
 30
0.0
 41
1.0
 10
-3740.1853543905622
 20
-2942.7842011699545
 30
0.0
 41
0.998303181293431
 10
-3740.2853555340557
 20
-2942.7704921281902
 30
0.0
 41
1.0
 10
-3740.2986620721626
 20
-2942.768667950183
 30
0.0
 41
1.0
 10
-3740.3119686102696
 20
-2942.7668437721759
 30
0.0
 41
1.0
 10
-3740.3934930740224
 20
-2942.7556676771896
 30
0.0
 41
0.9983887708263116
 10
-3740.4757588479597
 20
-2942.7538006667401
 30
0.0
 41
1.0
 10
-3740.487853955774
 20
-2942.7535261699281
 30
0.0
 41
1.0
 10
-3740.4999490635887
 20
-2942.7532516731162
 30
0.0
 41
1.0
 10
-3740.5580246218874
 20
-2942.7519336562909
 30
0.0
 41
0.9998869563079835
 10
-3740.6161135517032
 20
-2942.75236246033
 30
0.0
 41
1.0
 10
-3740.6742024815699
 20
-2942.75279126437
 30
0.0
 41
0.9999972320049165
 10
-3740.7322887504492
 20
-2942.7534934136643
 30
0.0
 41
1.0
 10
-3740.7613182752566
 20
-2942.7538443237977
 30
0.0
 41
1.0
 10
-3740.7903478000635
 20
-2942.7541952339311
 30
0.0
 41
1.0
 10
-3740.9064931186213
 20
-2942.7555992034927
 30
0.0
 41
0.9997304945087163
 10
-3741.0224480779793
 20
-2942.7623928441717
 30
0.0
 41
1.0
 10
-3741.0360225405338
 20
-2942.7631881531565
 30
0.0
 41
1.0
 10
-3741.0495970030888
 20
-2942.7639834621414
 30
0.0
 41
1.0
 10
-3741.1927008875564
 20
-2942.7723677207905
 30
0.0
 41
0.9997888306417003
 10
-3741.3353393913185
 20
-2942.7866251675241
 30
0.0
 41
1.0
 10
-3741.3484209836793
 20
-2942.7879327394721
 30
0.0
 41
1.0
 10
-3741.36150257604
 20
-2942.7892403114206
 30
0.0
 41
1.0
 10
-3741.5303042645228
 20
-2942.8061129020507
 30
0.0
 41
0.9984170238190904
 10
-3741.6961429855492
 20
-2942.8418370249542
 30
0.0
 41
1.0
 10
-3741.750714682029
 20
-2942.8535925786637
 30
0.0
 41
1.0
 10
-3741.8052863785083
 20
-2942.8653481323727
 30
0.0
 41
1.0
 10
-3741.9780729811409
 20
-2942.902568932137
 30
0.0
 41
0.9976592854199105
 10
-3742.1441652307481
 20
-2942.9630169478578
 30
0.0
 41
1.0
 10
-3742.3102574803561
 20
-2943.0234649635786
 30
0.0
 41
0.9993255074352437
 10
-3742.4714651785416
 20
-2943.095940311317
 30
0.0
 41
1.0
 10
-3742.4784029469265
 20
-2943.0990593756169
 30
0.0
 41
1.0
 10
-3742.4853407153118
 20
-2943.1021784399163
 30
0.0
 41
1.0
 10
-3742.6604239502681
 20
-2943.180891916254
 30
0.0
 41
0.9976475078275092
 10
-3742.8230949667332
 20
-2943.2828139007415
 30
0.0
 41
1.0
 10
-3742.8506085579334
 20
-2943.3000526189621
 30
0.0
 41
1.0
 10
-3742.8781221491336
 20
-2943.3172913371827
 30
0.0
 41
1.0
 10
-3743.0044254364634
 20
-2943.3964270183365
 30
0.0
 41
0.9995131336407016
 10
-3743.1255470089022
 20
-2943.4832863362681
 30
0.0
 41
1.0
 10
-3743.246668581337
 20
-2943.5701456541965
 30
0.0
 41
0.9995810107606606
 10
-3743.3625610529293
 20
-2943.6638681778945
 30
0.0
 41
1.0
 10
-3743.3670160997453
 20
-2943.6674709850922
 30
0.0
 41
1.0
 10
-3743.3714711465618
 20
-2943.6710737922899
 30
0.0
 41
1.0
 10
-3743.4962737117853
 20
-2943.7720019303824
 30
0.0
 41
0.9996617837955013
 10
-3743.6156597424888
 20
-2943.8792826137228
 30
0.0
 41
1.0
 10
-3743.6338558688039
 20
-2943.8956337132086
 30
0.0
 41
1.0
 10
-3743.6520519951191
 20
-2943.9119848126943
 30
0.0
 41
1.0
 10
-3743.7544652862157
 20
-2944.0040137359047
 30
0.0
 41
0.9997267750052956
 10
-3743.8524655486408
 20
-2944.1007285406922
 30
0.0
 41
1.0
 10
-3743.9504658110686
 20
-2944.1974433454825
 30
0.0
 41
0.999966728895799
 10
-3744.0468752257916
 20
-2944.2957440558275
 30
0.0
 41
1.0
 10
-3744.1501163974517
 20
-2944.401010543962
 30
0.0
 41
1.0
 10
-3744.2533575691118
 20
-2944.5062770320965
 30
0.0
 41
1.0
 10
-3744.5562493271577
 20
-2944.8151107187132
 30
0.0
 41
0.9988205335174992
 10
-3744.8277577526278
 20
-2945.1518670668052
 30
0.0
 41
1.0
 10
-3744.8737176999839
 20
-2945.2088719424492
 30
0.0
 41
1.0
 10
-3744.9196776473404
 20
-2945.2658768180936
 30
0.0
 41
1.0
 10
-3745.2831059675273
 20
-2945.7166429174786
 30
0.0
 41
0.9997077826755372
 10
-3745.6243228941876
 20
-2946.1844476088072
 30
0.0
 41
1.0
 10
-3745.6269080168804
 20
-2946.1879917838723
 30
0.0
 41
1.0
 10
-3745.6294931395728
 20
-2946.1915359589375
 30
0.0
 41
1.0
 10
-3745.9758803116192
 20
-2946.6664290003964
 30
0.0
 41
0.9989147567079245
 10
-3746.2765755659425
 20
-2947.1714931921701
 30
0.0
 41
1.0
 10
-3746.313687283905
 20
-2947.233828063002
 30
0.0
 41
1.0
 10
-3746.3507990018675
 20
-2947.2961629338342
 30
0.0
 41
1.0
 10
-3746.5836159498244
 20
-2947.6872150105146
 30
0.0
 41
0.9997476598181434
 10
-3746.798633431089
 20
-2948.0883296333877
 30
0.0
 41
1.0
 10
-3747.0136509123545
 20
-2948.4894442562636
 30
0.0
 41
0.9996258967109377
 10
-3747.2064132902524
 20
-2948.9017161612019
 30
0.0
 41
1.0
 10
-3747.2262131544285
 20
-2948.9440632613487
 30
0.0
 41
1.0
 10
-3747.246013018605
 20
-2948.9864103614955
 30
0.0
 41
1.0
 10
-3747.4563261001017
 20
-2949.4362189584185
 30
0.0
 41
0.9998735413945099
 10
-3747.6522281201806
 20
-2949.8924883576165
 30
0.0
 41
1.0
 10
-3747.6573923622618
 20
-2949.9045162357911
 30
0.0
 41
1.0
 10
-3747.6625566043426
 20
-2949.9165441139658
 30
0.0
 41
1.0
 10
-3747.8481301402508
 20
-2950.3487577567939
 30
0.0
 41
0.9999377418861191
 10
-3748.0240123435233
 20
-2950.7850049583303
 30
0.0
 41
1.0
 10
-3748.1998945467772
 20
-2951.221252159824
 30
0.0
 41
0.9999508299505098
 10
-3748.3670904618334
 20
-2951.6609016750285
 30
0.0
 41
1.0
 10
-3748.3717116148364
 20
-2951.6730532139982
 30
0.0
 41
1.0
 10
-3748.3763327678389
 20
-2951.6852047529678
 30
0.0
 41
1.0
 10
-3748.5527709889038
 20
-2952.1491573461212
 30
0.0
 41
0.9999609228432669
 10
-3748.7209788932259
 20
-2952.6161568701777
 30
0.0
 41
1.0
 10
-3748.7254129087391
 20
-2952.6284671307603
 30
0.0
 41
1.0
 10
-3748.7298469242523
 20
-2952.6407773913434
 30
0.0
 41
1.0
 10
-3748.9069228596136
 20
-2953.1323974365982
 30
0.0
 41
0.9999674607409149
 10
-3749.0760441487191
 20
-2953.6268103665998
 30
0.0
 41
1.0
 10
-3749.1531417345618
 20
-2953.8521991601351
 30
0.0
 41
1.0
 10
-3749.2302393204045
 20
-2954.0775879536704
 30
0.0
 41
1.0
 10
-3749.40425523054
 20
-2954.586309927422
 30
0.0
 41
0.9999287532309062
 10
-3749.5660773364953
 20
-2955.0990410358818
 30
0.0
 41
1.0
 10
-3749.6357932206984
 20
-2955.3199348524204
 30
0.0
 41
1.0
 10
-3749.7055091049015
 20
-2955.5408286689585
 30
0.0
 41
1.0
 10
-3749.7278994424514
 20
-2955.6117721443461
 30
0.0
 41
0.9999998225307482
 10
-3749.750205205547
 20
-2955.6827422567062
 30
0.0
 41
1.0
 10
-3752.18118941074
 20
-2963.4047850093903
 30
0.0
 41
1.0
 10
-3754.612173615933
 20
-2971.1268277620748
 30
0.0
 41
1.0
 10
-3755.9701362817696
 20
-2971.1268277620748
 30
0.0
 41
1.0
 10
-3757.3280989476061
 20
-2971.1268277620748
 30
0.0
 41
1.0
 10
-3754.549972330527
 20
-2962.2962198783734
 30
0.0
 41
1.0
 10
-3751.7718457134479
 20
-2953.4656119946721
 30
0.0
 41
1.0
 10
-3751.7566630759939
 20
-2953.4175471744975
 30
0.0
 41
1.0
 10
-3751.6477515727192
 20
-2953.0720978617587
 30
0.0
 41
1.0
 10
-3751.5388400694546
 20
-2952.7266485490522
 30
0.0
 41
0.9999825681978589
 10
-3751.434015510647
 20
-2952.3799372064877
 30
0.0
 41
1.0
 10
-3751.3615789173919
 20
-2952.1403503311972
 30
0.0
 41
1.0
 10
-3751.2891423241363
 20
-2951.9007634559066
 30
0.0
 41
1.0
 10
-3751.1434137941669
 20
-2951.4187606232636
 30
0.0
 41
0.9999672528968987
 10
-3751.005505585736
 20
-2950.9344623048974
 30
0.0
 41
1.0
 10
-3751.0013222602374
 20
-2950.9197715368337
 30
0.0
 41
1.0
 10
-3750.9971389347388
 20
-2950.9050807687699
 30
0.0
 41
1.0
 10
-3750.8675973773061
 20
-2950.4501639865348
 30
0.0
 41
0.9999899749136895
 10
-3750.742134962999
 20
-2949.9941053538396
 30
0.0
 41
1.0
 10
-3750.7269760844674
 20
-2949.9390024973018
 30
0.0
 41
1.0
 10
-3750.7118172059354
 20
-2949.8838996407635
 30
0.0
 41
1.0
 10
-3750.6166725486923
 20
-2949.5380467211435
 30
0.0
 41
0.9999214200501334
 10
-3750.5302284061304
 20
-2949.189917207847
 30
0.0
 41
1.0
 10
-3750.5110796278568
 20
-2949.1128008797414
 30
0.0
 41
1.0
 10
-3750.4919308495832
 20
-2949.0356845516358
 30
0.0
 41
1.0
 10
-3750.4437842635616
 20
-2948.8417876945241
 30
0.0
 41
0.9999828681661918
 10
-3750.3979108855706
 20
-2948.6473404828316
 30
0.0
 41
1.0
 10
-3750.3520375075777
 20
-2948.4528932711323
 30
0.0
 41
0.9999389844476697
 10
-3750.3104710243947
 20
-2948.2574800872844
 30
0.0
 41
1.0
 10
-3750.2997644088136
 20
-2948.2071459315262
 30
0.0
 41
1.0
 10
-3750.289057793233
 20
-2948.1568117757679
 30
0.0
 41
1.0
 10
-3750.2260780788897
 20
-2947.8607302804116
 30
0.0
 41
0.9998933699440261
 10
-3750.1717716822877
 20
-2947.5629358687806
 30
0.0
 41
1.0
 10
-3750.1697124444618
 20
-2947.5516438377294
 30
0.0
 41
1.0
 10
-3750.1676532066363
 20
-2947.5403518066782
 30
0.0
 41
1.0
 10
-3750.1092283343833
 20
-2947.2199733329471
 30
0.0
 41
0.9996850305193574
 10
-3750.0669528199951
 20
-2946.8970668247885
 30
0.0
 41
1.0
 10
-3750.0639602699412
 20
-2946.8742092936086
 30
0.0
 41
1.0
 10
-3750.0609677198877
 20
-2946.8513517624287
 30
0.0
 41
1.0
 10
-3750.0198559261989
 20
-2946.5373339216962
 30
0.0
 41
0.9994697936706427
 10
-3749.9992690873696
 20
-2946.2213061287016
 30
0.0
 41
1.0
 10
-3749.9985534834955
 20
-2946.2103209203906
 30
0.0
 41
1.0
 10
-3749.9978378796213
 20
-2946.1993357120796
 30
0.0
 41
1.0
 10
-3749.9786822485407
 20
-2945.905278335711
 30
0.0
 41
0.9991804893137321
 10
-3749.9833747229495
 20
-2945.6106350607452
 30
0.0
 41
1.0
 10
-3749.9835005411828
 20
-2945.6027348586185
 30
0.0
 41
1.0
 10
-3749.9836263594161
 20
-2945.5948346564915
 30
0.0
 41
1.0
 10
-3749.9880671973588
 20
-2945.3159917857774
 30
0.0
 41
0.9988448329321122
 10
-3750.0192545157943
 20
-2945.0388629010349
 30
0.0
 41
1.0
 10
-3750.0216456263488
 20
-2945.0176156173802
 30
0.0
 41
1.0
 10
-3750.0240367369029
 20
-2944.9963683337251
 30
0.0
 41
1.0
 10
-3750.0504418342298
 20
-2944.7617340162869
 30
0.0
 41
0.9985503209458828
 10
-3750.1019162426792
 20
-2944.5312977401513
 30
0.0
 41
1.0
 10
-3750.1132952307853
 20
-2944.4803572490555
 30
0.0
 41
1.0
 10
-3750.124674218891
 20
-2944.4294167579601
 30
0.0
 41
1.0
 10
-3750.1533906511277
 20
-2944.3008614640216
 30
0.0
 41
0.9991036781369994
 10
-3750.1928779436057
 20
-2944.1751958330301
 30
0.0
 41
1.0
 10
-3750.1988512817916
 20
-2944.1561860892593
 30
0.0
 41
1.0
 10
-3750.204824619977
 20
-2944.1371763454886
 30
0.0
 41
1.0
 10
-3750.2323652360838
 20
-2944.0495302020377
 30
0.0
 41
0.999887450436708
 10
-3750.2625230475996
 20
-2943.9627497987076
 30
0.0
 41
1.0
 10
-3750.2926808591155
 20
-2943.8759693953784
 30
0.0
 41
0.9994041637543706
 10
-3750.328753778515
 20
-2943.7914763395479
 30
0.0
 41
1.0
 10
-3750.3350489548557
 20
-2943.7767312428141
 30
0.0
 41
1.0
 10
-3750.3413441311964
 20
-2943.7619861460803
 30
0.0
 41
1.0
 10
-3750.383162377685
 20
-2943.6640358971354
 30
0.0
 41
0.9991846840699868
 10
-3750.4327469127225
 20
-2943.5697788502212
 30
0.0
 41
1.0
 10
-3750.4344518223165
 20
-2943.5665379255361
 30
0.0
 41
1.0
 10
-3750.4361567319106
 20
-2943.5632970008514
 30
0.0
 41
1.0
 10
-3750.482331447764
 20
-2943.4755218032974
 30
0.0
 41
0.9989253167921601
 10
-3750.5364355838446
 20
-2943.3923994107154
 30
0.0
 41
1.0
 10
-3750.5380167708577
 20
-2943.3899701685696
 30
0.0
 41
1.0
 10
-3750.5395979578707
 20
-2943.3875409264233
 30
0.0
 41
1.0
 10
-3750.5905397199285
 20
-2943.3092770181274
 30
0.0
 41
0.9986467172834904
 10
-3750.649335448883
 20
-2943.2367279676855
 30
0.0
 41
1.0
 10
-3750.6506466419332
 20
-2943.2351100642691
 30
0.0
 41
1.0
 10
-3750.6519578349835
 20
-2943.2334921608531
 30
0.0
 41
1.0
 10
-3750.7081311778384
 20
-2943.1641789172422
 30
0.0
 41
0.99840011042685
 10
-3750.7717712736148
 20
-2943.1016512561882
 30
0.0
 41
1.0
 10
-3750.7726519807793
 20
-2943.100785943866
 30
0.0
 41
1.0
 10
-3750.7735326879433
 20
-2943.0999206315441
 30
0.0
 41
1.0
 10
-3750.8354113693908
 20
-2943.0391235951342
 30
0.0
 41
0.9982442159080864
 10
-3750.904045521394
 20
-2942.9860707532443
 30
0.0
 41
1.0
 10
-3750.9043677145819
 20
-2942.9858217042834
 30
0.0
 41
1.0
 10
-3750.9046899077694
 20
-2942.9855726553224
 30
0.0
 41
1.0
 10
-3750.9726796733926
 20
-2942.9330179113581
 30
0.0
 41
0.9982450060840654
 10
-3751.0464061420053
 20
-2942.888870236804
 30
0.0
 41
1.0
 10
-3751.1201326106147
 20
-2942.8447225622522
 30
0.0
 41
0.9983922639634514
 10
-3751.1983820698638
 20
-2942.8092031102706
 30
0.0
 41
1.0
 10
-3751.1987223858487
 20
-2942.8090486320493
 30
0.0
 41
1.0
 10
-3751.1990627018336
 20
-2942.8088941538281
 30
0.0
 41
1.0
 10
-3751.2779927930555
 20
-2942.7730657454017
 30
0.0
 41
0.9986517147149541
 10
-3751.3602122523598
 20
-2942.7456140667186
 30
0.0
 41
1.0
 10
-3751.3612291344998
 20
-2942.7452745470719
 30
0.0
 41
1.0
 10
-3751.3622460166398
 20
-2942.7449350274255
 30
0.0
 41
1.0
 10
-3751.4464992402327
 20
-2942.7168043094462
 30
0.0
 41
0.9989435598955303
 10
-3751.5329793209676
 20
-2942.6965277560935
 30
0.0
 41
1.0
 10
-3751.5345995003322
 20
-2942.6961478807161
 30
0.0
 41
1.0
 10
-3751.5362196796968
 20
-2942.6957680053383
 30
0.0
 41
1.0
 10
-3751.6259401191655
 20
-2942.6747317012282
 30
0.0
 41
0.9992249241240706
 10
-3751.7170373825088
 20
-2942.6608186871554
 30
0.0
 41
1.0
 10
-3751.7191579149485
 20
-2942.6604948245431
 30
0.0
 41
1.0
 10
-3751.7212784473886
 20
-2942.6601709619308
 30
0.0
 41
1.0
 10
-3751.8166167756049
 20
-2942.6456102226352
 30
0.0
 41
0.9994396597834783
 10
-3751.912715680407
 20
-2942.6374608391166
 30
0.0
 41
1.0
 10
-3751.9414266816266
 20
-2942.6350260875383
 30
0.0
 41
1.0
 10
-3751.9701376828466
 20
-2942.6325913359601
 30
0.0
 41
1.0
 10
-3752.1236585900847
 20
-2942.6195724492854
 30
0.0
 41
0.9987693403121681
 10
-3752.2777140254652
 20
-2942.6218270444642
 30
0.0
 41
1.0
 10
-3752.2930955268057
 20
-2942.6220521521254
 30
0.0
 41
1.0
 10
-3752.3084770281457
 20
-2942.6222772597866
 30
0.0
 41
1.0
 10
-3752.4728106774151
 20
-2942.6246822762182
 30
0.0
 41
0.9989753644966859
 10
-3752.6362536774409
 20
-2942.641936786606
 30
0.0
 41
1.0
 10
-3752.7996966774663
 20
-2942.6591912969939
 30
0.0
 41
0.9983190067306239
 10
-3752.9600448939136
 20
-2942.6952437846739
 30
0.0
 41
1.0
 10
-3752.9733963213234
 20
-2942.6982457025179
 30
0.0
 41
1.0
 10
-3752.9867477487333
 20
-2942.7012476203618
 30
0.0
 41
1.0
 10
-3753.1737988200007
 20
-2942.7433039437301
 30
0.0
 41
0.9985539388303177
 10
-3753.355253450517
 20
-2942.8051994577982
 30
0.0
 41
1.0
 10
-3753.3587715969579
 20
-2942.806399523522
 30
0.0
 41
1.0
 10
-3753.3622897433988
 20
-2942.8075995892459
 30
0.0
 41
1.0
 10
-3753.5507806667952
 20
-2942.8718952347617
 30
0.0
 41
0.9988468746493917
 10
-3753.7322361802453
 20
-2942.9539723623552
 30
0.0
 41
1.0
 10
-3753.7370104132292
 20
-2942.9561318741953
 30
0.0
 41
1.0
 10
-3753.7417846462131
 20
-2942.9582913860359
 30
0.0
 41
1.0
 10
-3753.9327886256324
 20
-2943.0446875373104
 30
0.0
 41
0.9991322885918968
 10
-3754.1159395017212
 20
-2943.1466805355849
 30
0.0
 41
1.0
 10
-3754.1423425182811
 20
-2943.1613838385665
 30
0.0
 41
1.0
 10
-3754.1687455348406
 20
-2943.1760871415477
 30
0.0
 41
1.0
 10
-3754.3220105564287
 20
-2943.2614373152201
 30
0.0
 41
0.9993860037849979
 10
-3754.4689220625423
 20
-2943.3573113386046
 30
0.0
 41
1.0
 10
-3754.4773495318213
 20
-2943.3628110806476
 30
0.0
 41
1.0
 10
-3754.4857770011004
 20
-2943.3683108226901
 30
0.0
 41
1.0
 10
-3754.6158335686528
 20
-2943.4531853619878
 30
0.0
 41
0.9998821494953771
 10
-3754.7432231323719
 20
-2943.5420127071029
 30
0.0
 41
1.0
 10
-3754.8706126960874
 20
-2943.6308400522157
 30
0.0
 41
0.9997976482744827
 10
-3754.9943261416897
 20
-2943.7247196642757
 30
0.0
 41
1.0
 10
-3755.0162805389004
 20
-2943.7413796989476
 30
0.0
 41
1.0
 10
-3755.0382349361112
 20
-2943.7580397336201
 30
0.0
 41
1.0
 10
-3755.2058571761331
 20
-2943.8852394150231
 30
0.0
 41
0.999809163079903
 10
-3755.3683825931748
 20
-2944.0188899410759
 30
0.0
 41
1.0
 10
-3755.3878912218897
 20
-2944.0349325917441
 30
0.0
 41
1.0
 10
-3755.4073998506046
 20
-2944.0509752424123
 30
0.0
 41
1.0
 10
-3755.6089425250752
 20
-2944.2167110698001
 30
0.0
 41
0.9995035112318025
 10
-3755.799646341718
 20
-2944.3948117953196
 30
0.0
 41
1.0
 10
-3755.8141173073036
 20
-2944.4083264145611
 30
0.0
 41
1.0
 10
-3755.8285882728892
 20
-2944.4218410338021
 30
0.0
 41
1.0
 10
-3756.0137228670351
 20
-2944.5947405914344
 30
0.0
 41
0.9994630424299286
 10
-3756.1871354757091
 20
-2944.7793947062851
 30
0.0
 41
1.0
 10
-3756.1926597338634
 20
-2944.7852770755517
 30
0.0
 41
1.0
 10
-3756.1981839920172
 20
-2944.7911594448178
 30
0.0
 41
1.0
 10
-3756.3605480843812
 20
-2944.9640488211339
 30
0.0
 41
0.9995160693750309
 10
-3756.5118471286833
 20
-2945.1466999479467
 30
0.0
 41
1.0
 10
-3756.514747708803
 20
-2945.150201584257
 30
0.0
 41
1.0
 10
-3756.5176482889224
 20
-2945.1537032205674
 30
0.0
 41
1.0
 10
-3756.6631461729803
 20
-2945.3293510747544
 30
0.0
 41
0.9996561470514139
 10
-3756.7992355009796
 20
-2945.5123852184292
 30
0.0
 41
1.0
 10
-3756.8084719998342
 20
-2945.5248079019948
 30
0.0
 41
1.0
 10
-3756.8177084986892
 20
-2945.5372305855608
 30
0.0
 41
1.0
 10
-3756.9353248289808
 20
-2945.6954193621059
 30
0.0
 41
0.9998349055172959
 10
-3757.0471157518768
 20
-2945.8577772375984
 30
0.0
 41
1.0
 10
-3757.1589066747842
 20
-2946.0201351131059
 30
0.0
 41
0.9999728109562802
 10
-3757.2682910186554
 20
-2946.1841240014487
 30
0.0
 41
1.0
 10
-3757.2702638417659
 20
-2946.1870816556911
 30
0.0
 41
1.0
 10
-3757.2722366648759
 20
-2946.190039309934
 30
0.0
 41
1.0
 10
-3757.3855666549985
 20
-2946.3599435068081
 30
0.0
 41
0.9999972147356313
 10
-3757.4980933705801
 20
-2946.5303807710934
 30
0.0
 41
1.0
 10
-3757.5055506844919
 20
-2946.5416759037689
 30
0.0
 41
1.0
 10
-3757.5130079984037
 20
-2946.5529710364449
 30
0.0
 41
1.0
 10
-3757.6404493418299
 20
-2946.7459985661121
 30
0.0
 41
0.999937197900356
 10
-3757.7635323659329
 20
-2946.9418339367717
 30
0.0
 41
1.0
 10
-3757.7687956924788
 20
-2946.9502083288744
 30
0.0
 41
1.0
 10
-3757.7740590190247
 20
-2946.9585827209776
 30
0.0
 41
1.0
 10
-3757.9076686962198
 20
-2947.1711668758444
 30
0.0
 41
0.9998272025609396
 10
-3758.0332837825458
 20
-2947.3885706909628
 30
0.0
 41
1.0
 10
-3758.0561065405791
 20
-2947.4280703626437
 30
0.0
 41
1.0
 10
-3758.0789292986128
 20
-2947.4675700343241
 30
0.0
 41
1.0
 10
-3758.2501899010117
 20
-2947.7639731928148
 30
0.0
 41
0.9995217214837937
 10
-3758.4027994353482
 20
-2948.0703966846145
 30
0.0
 41
1.0
 10
-3758.4142647792942
 20
-2948.0934178591551
 30
0.0
 41
1.0
 10
-3758.4257301232396
 20
-2948.1164390336962
 30
0.0
 41
1.0
 10
-3758.5560880621274
 20
-2948.3781837208244
 30
0.0
 41
0.999826976260761
 10
-3758.6766197615389
 20
-2948.6445961509171
 30
0.0
 41
1.0
 10
-3758.7971514609544
 20
-2948.9110085810189
 30
0.0
 41
0.9998944747390365
 10
-3758.9098926528077
 20
-2949.1808101694783
 30
0.0
 41
1.0
 10
-3758.9173231571999
 20
-2949.1985921518681
 30
0.0
 41
1.0
 10
-3758.9247536615921
 20
-2949.2163741342574
 30
0.0
 41
1.0
 10
-3759.0457242524094
 20
-2949.5058695442558
 30
0.0
 41
0.9999506734407528
 10
-3759.1609205457526
 20
-2949.7977107515117
 30
0.0
 41
1.0
 10
-3759.1828204936633
 20
-2949.8531926342321
 30
0.0
 41
1.0
 10
-3759.204720441574
 20
-2949.908674516952
 30
0.0
 41
1.0
 10
-3759.2761168391162
 20
-2950.0895519588166
 30
0.0
 41
0.9999912393894089
 10
-3759.345996505142
 20
-2950.2710207628397
 30
0.0
 41
1.0
 10
-3759.415876171146
 20
-2950.452489566806
 30
0.0
 41
0.9999927113934923
 10
-3759.4843681127077
 20
-2950.6344866779791
 30
0.0
 41
1.0
 10
-3759.5053207598339
 20
-2950.690162151056
 30
0.0
 41
1.0
 10
-3759.5262734069602
 20
-2950.7458376241329
 30
0.0
 41
1.0
 10
-3759.6366706427516
 20
-2951.0391856814012
 30
0.0
 41
0.9999487550951999
 10
-3759.7411060802146
 20
-2951.3347087291918
 30
0.0
 41
1.0
 10
-3759.776496495122
 20
-2951.4348536946372
 30
0.0
 41
1.0
 10
-3759.8118869100299
 20
-2951.5349986600831
 30
0.0
 41
1.0
 10
-3759.953915361576
 20
-2951.9368994122924
 30
0.0
 41
0.999980843693089
 10
-3760.0909577445309
 20
-2952.3405275591685
 30
0.0
 41
1.0
 10
-3760.2280001275003
 20
-2952.7441557060865
 30
0.0
 41
0.9999873932902474
 10
-3760.3609821905839
 20
-2953.1491397386267
 30
0.0
 41
1.0
 10
-3760.3911207258811
 20
-2953.2409237377351
 30
0.0
 41
1.0
 10
-3760.4212592611784
 20
-2953.332707736844
 30
0.0
 41
1.0
 10
-3760.6145183948529
 20
-2953.9212597675914
 30
0.0
 41
0.9999794883025518
 10
-3760.8002225722826
 20
-2954.512239076983
 30
0.0
 41
1.0
 10
-3760.816950961459
 20
-2954.5654749924029
 30
0.0
 41
1.0
 10
-3760.8336793506355
 20
-2954.6187109078228
 30
0.0
 41
1.0
 10
-3761.0475165964644
 20
-2955.2992200358967
 30
0.0
 41
0.9999982761755382
 10
-3761.2588252564819
 20
-2955.9805185690648
 30
0.0
 41
1.0
 10
-3763.6410357553409
 20
-2963.5536731655698
 30
0.0
 41
1.0
 10
-3766.0232462541999
 20
-2971.1268277620748
 30
0.0
 41
1.0
 10
-3767.4463721714146
 20
-2971.1268277620748
 30
0.0
 41
1.0
 10
-3768.8694980886289
 20
-2971.1268277620748
 30
0.0
 41
1.0
 10
-3764.0120713593992
 20
-2955.6358444621555
 30
0.0
 41
1.0
 10
-3759.1546446301695
 20
-2940.1448611622363
 30
0.0
 41
1.0
  0
LWPOLYLINE
  5
61
100
AcDbEntity
  8
0
370
              15
390
0
  6
Continuous
 62
               7
100
AcDbPolyline
 90
      232
 70
             128
 10
-3797.7099632909103
 20
-2941.7713754095089
 42
0.0004370800673225
 10
-3797.7892790519172
 20
-2941.874375368262
 10
-3797.8482053987091
 20
-2941.951036037738
 42
0.0030481992183889
 10
-3798.0437134744143
 20
-2942.2086185762901
 10
-3798.1014809820135
 20
-2942.2856987519367
 42
0.0042058245755635
 10
-3798.4074585580256
 20
-2942.7012073695573
 10
-3798.4860662417695
 20
-2942.8098566397184
 42
0.012094889873992
 10
-3798.9301321169128
 20
-2943.4559810465435
 10
-3799.0744208655942
 20
-2943.6772021493784
 42
0.0141601263946488
 10
-3799.5298869359776
 20
-2944.4207061544826
 10
-3799.5891928371143
 20
-2944.5239721056259
 42
0.0071131081299076
 10
-3799.8971013219743
 20
-2945.0782263038873
 42
0.0068458791004066
 10
-3800.1894206122406
 20
-2945.6408636491055
 10
-3800.1996384059253
 20
-2945.6612062196868
 42
0.0064120880284905
 10
-3800.4968517809784
 20
-2946.2723429320363
 10
-3800.5081538092672
 20
-2946.2963607171469
 42
0.0058857236445925
 10
-3800.812286897065
 20
-2946.9629248836773
 10
-3800.8245492865158
 20
-2946.9906601141502
 42
0.0053189741898244
 10
-3801.137605755529
 20
-2947.7196053250559
 10
-3801.1507274640389
 20
-2947.7510781423216
 42
0.0047503650424043
 10
-3801.4746880532725
 20
-2948.5493772921554
 10
-3801.4885904257872
 20
-2948.5845918562977
 42
0.0042071762175909
 10
-3801.825411501386
 20
-2949.4592322474218
 10
-3801.8400356049019
 20
-2949.4981815097071
 42
0.0036680086483426
 10
-3802.191717569875
 20
-2950.4561345865172
 10
-3802.207029239642
 20
-2950.4988073880204
 42
0.0032573142624888
 10
-3802.5754776685635
 20
-2951.5470863775686
 10
-3802.6784534498602
 20
-2951.8462810037513
 42
0.0026133366649935
 10
-3803.2011212479897
 20
-2953.391075929238
 10
-3803.2960064292588
 20
-2953.6764221823823
 42
0.0020592950740542
 10
-3803.6168010326915
 20
-2954.6545776612475
 10
-3803.6213787194492
 20
-2954.6687323939032
 42
0.002560992853978
 10
-3803.9241094716649
 20
-2955.6214502274106
 10
-3803.9279965223591
 20
-2955.6339037388352
 42
0.0031362356241425
 10
-3804.2122327008701
 20
-2956.5650480230906
 10
-3804.2154292652503
 20
-2956.5757599823705
 42
0.0037229918027942
 10
-3804.4806298456506
 20
-2957.4892379353687
 10
-3804.4831477294633
 20
-2957.4981582706405
 42
0.0043077623709038
 10
-3804.7287589325579
 20
-2958.3978863682837
 42
0.0047654161829791
 10
-3804.9580020163462
 20
-2959.301915501695
 10
-3805.0096989295907
 20
-2959.5142581673617
 42
0.0112969368443973
 10
-3805.3034954668015
 20
-2960.8517964082744
 10
-3805.3455050504513
 20
-2961.0660384774446
 42
0.0130056762571755
 10
-3805.6467609159213
 20
-2962.8464500849122
 10
-3805.6775705411392
 20
-2963.0625672551087
 42
0.0138721532142683
 10
-3805.8331250479487
 20
-2964.4228114838661
 10
-3805.862068279811
 20
-2964.7580580667541
 42
0.0071254697007297
 10
-3805.9120882486941
 20
-2965.4528385800249
 10
-3805.919529709945
 20
-2965.5818445719747
 42
0.0028881799211895
 10
-3805.942237149874
 20
-2966.0194571366292
 42
0.0060297297134824
 10
-3805.9571354495379
 20
-2966.4573805408149
 10
-3805.9587288720381
 20
-2966.529969098709
 42
0.0229523164159439
 10
-3805.9471323303592
 20
-2967.0141013681259
 10
-3805.9407936700782
 20
-2967.1047066691563
 42
0.0123673300665951
 10
-3805.9121757003013
 20
-2967.4063877569124
 42
0.0128577674467103
 10
-3805.8683826146935
 20
-2967.7062345317931
 10
-3805.8576938046112
 20
-2967.7682277536983
 42
0.0285717853768025
 10
-3805.7609528020675
 20
-2968.1854019806688
 10
-3805.740450016569
 20
-2968.2553841348804
 42
0.0316283099156971
 10
-3805.5667341466969
 20
-2968.7339058876228
 10
-3805.5621611090628
 20
-2968.744385446113
 42
0.0338984824240724
 10
-3805.3380135426123
 20
-2969.1757343923946
 10
-3805.334550448561
 20
-2969.1814209363024
 42
0.0350228718354627
 10
-3805.0610100125473
 20
-2969.5669989133239
 10
-3805.0596821348804
 20
-2969.5686175299757
 42
0.0347476747532061
 10
-3804.7380451040249
 20
-2969.9093951008003
 42
0.0331337701908786
 10
-3804.3731801154117
 20
-2970.203588093912
 10
-3804.3715299676314
 20
-2970.2047471486749
 42
0.0305233319087223
 10
-3803.9687129242616
 20
-2970.4524394038172
 10
-3803.9638678575193
 20
-2970.455025421606
 42
0.0273744481155382
 10
-3803.5250372901469
 20
-2970.6592326374462
 10
-3803.5173804874512
 20
-2970.6622980141465
 42
0.0240964406189488
 10
-3803.0441648739902
 20
-2970.8257736035666
 10
-3803.0342898801682
 20
-2970.8286607130813
 42
0.0209636179811257
 10
-3802.5281896511833
 20
-2970.9538629349804
 10
-3802.516740960516
 20
-2970.9561908044816
 42
0.0181388704690824
 10
-3801.9792573725122
 20
-2971.0453149443033
 10
-3801.9668360999513
 20
-2971.0469142200282
 42
0.0156086547585632
 10
-3801.3995550536674
 20
-2971.1020184998929
 10
-3801.3347621751727
 20
-2971.1062762536117
 42
0.0137148329024149
 10
-3800.843252457229
 20
-2971.1250566364879
 10
-3800.7743481722764
 20
-2971.1257982861612
 42
0.0051057823890947
 10
-3800.4201297924519
 20
-2971.1259936677748
 42
0.0052256693318471
 10
-3800.0659838667866
 20
-2971.1188704310784
 10
-3799.9606436911595
 20
-2971.1156499820572
 42
0.0161507179051055
 10
-3799.3970380740102
 20
-2971.0801744265677
 10
-3799.367018633448
 20
-2971.0773091336359
 42
0.0101216737836752
 10
-3798.7459778011939
 20
-2971.0053197380853
 10
-3798.6948978670716
 20
-2970.9983481928734
 42
0.0245291776399641
 10
-3797.9797133837442
 20
-2970.8647355757589
 10
-3797.8524784104629
 20
-2970.8344416952414
 42
0.0143509212554676
 10
-3797.3175317545497
 20
-2970.6907347445722
 42
0.0156557857041662
 10
-3796.7922076574605
 20
-2970.5152179208444
 10
-3796.7809558357167
 20
-2970.5110626782125
 42
0.0170137333634221
 10
-3796.2460618421933
 20
-2970.2925762559048
 10
-3796.2354059585837
 20
-2970.2877945025602
 42
0.0183105364412591
 10
-3795.6963814563383
 20
-2970.021791939826
 10
-3795.6859613093761
 20
-2970.0161662875157
 42
0.0194899958152587
 10
-3795.1482401978924
 20
-2969.6981978146746
 10
-3795.1377193788949
 20
-2969.6914098012371
 42
0.0204869852948555
 10
-3794.6066979257553
 20
-2969.3171297786093
 10
-3794.5957995128738
 20
-2969.3087596805858
 42
0.0212516938557624
 10
-3794.0768146162131
 20
-2968.8739036852453
 10
-3794.0070395750972
 20
-2968.8102027201026
 42
0.0215248918255189
 10
-3793.6170003217667
 20
-2968.4220563016115
 10
-3793.5494557201905
 20
-2968.3487901195813
 42
0.0114578554958315
 10
-3793.3172674896796
 20
-2968.0850557193994
 10
-3793.3004756857076
 20
-2968.065077574091
 42
0.0061531305132351
 10
-3793.1107637167079
 20
-2967.8336432741226
 42
0.0006325587125894
 10
-3792.9241959903197
 20
-2967.5996382104076
 10
-3792.889635787903
 20
-2967.5561779296204
 42
0.0041897761554554
 10
-3792.6369526819649
 20
-2967.232898865554
 10
-3792.549259502106
 20
-2967.1187468450498
 42
0.009299388003529
 10
-3792.1343416112672
 20
-2966.5573286992199
 10
-3792.0107498714797
 20
-2966.3834231938818
 42
0.0159321727080641
 10
-3791.4908401475086
 20
-2965.600161862737
 10
-3791.4243059444266
 20
-2965.4926425163644
 42
0.0085547317024636
 10
-3791.0725382964365
 20
-2964.9018300925245
 42
0.0084601156888582
 10
-3790.7410740302798
 20
-2964.2993898189893
 10
-3790.7289008195276
 20
-2964.2763502955668
 42
0.0081429654288137
 10
-3790.3940269138729
 20
-2963.616768026759
 10
-3790.3807366675956
 20
-2963.589499763727
 42
0.007657458132913
 10
-3790.041125401744
 20
-2962.8647254508437
 10
-3790.0269059406601
 20
-2962.8331287333922
 42
0.0070682724210488
 10
-3789.6812385789322
 20
-2962.0350727761775
 10
-3789.6662531529773
 20
-2961.999088992703
 42
0.0064559514449167
 10
-3789.3132533406874
 20
-2961.1196205928813
 10
-3789.2976393034569
 20
-2961.0792182047617
 42
0.0058311413909041
 10
-3788.9360691983102
 20
-2960.1101700631789
 10
-3788.9199365822315
 20
-2960.065343551445
 42
0.0052312425818938
 10
-3788.5485646651669
 20
-2958.9985399306825
 10
-3788.5319989106006
 20
-2958.9492998625888
 42
0.0046680544797852
 10
-3788.1496062689866
 20
-2957.7765603889184
 10
-3788.0866180439348
 20
-2957.5770855330238
 42
0.0041666856441177
 10
-3787.7816890253407
 20
-2956.5826323705101
 10
-3787.7251953643281
 20
-2956.3927607089713
 42
0.0015170975160248
 10
-3787.5434154967256
 20
-2955.7749581817889
 42
-0.000488799311646
 10
-3787.3629058371348
 20
-2955.1567805640466
 10
-3787.2481899507984
 20
-2954.7653444848147
 42
0.0002583378929194
 10
-3786.838368095609
 20
-2953.3642594297262
 10
-3786.715708821373
 20
-2952.944110540795
 42
0.0006636169671943
 10
-3786.4249071813201
 20
-2951.9430811552911
 10
-3786.4172621997013
 20
-2951.9166337806305
 42
0.0010589131325949
 10
-3786.1450891484246
 20
-2950.9675367663976
 10
-3786.1376160426812
 20
-2950.9412674057871
 42
0.0015655524465118
 10
-3785.8852107319299
 20
-2950.0433423870663
 10
-3785.877965431333
 20
-2950.0172541487545
 42
0.0021640440477318
 10
-3785.6465304733283
 20
-2949.1697136216353
 10
-3785.6395791441787
 20
-2949.1438165266268
 42
0.0028763871850434
 10
-3785.4303055671039
 20
-2948.3458646003737
 10
-3785.42372677085
 20
-2948.3201786331306
 42
0.0037310511948374
 10
-3785.2377917330978
 20
-2947.5710072421061
 10
-3785.2316789026677
 20
-2947.545566835252
 42
0.0047652197766643
 10
-3785.0702430519013
 20
-2946.8443501827805
 10
-3785.0647071529161
 20
-2946.8192108500534
 42
0.0060276699303024
 10
-3784.9289120041858
 20
-2946.165097157339
 10
-3784.924083968755
 20
-2946.1403453358903
 42
0.0075824337750024
 10
-3784.815050004629
 20
-2945.5324445892361
 10
-3784.8110819385597
 20
-2945.5082121680662
 42
0.0095130624610486
 10
-3784.7299090851116
 20
-2944.9455781384522
 10
-3784.7194297492888
 20
-2944.8616778012852
 42
0.012105465322423
 10
-3784.6795427534207
 20
-2944.4643340585671
 10
-3784.6782430187795
 20
-2944.4472288941483
 42
0.006905082739263
 10
-3784.6556097917255
 20
-2944.0828170539071
 10
-3784.653906842223
 20
-2944.0475276683442
 42
0.0169063976694131
 10
-3784.6496659237519
 20
-2943.7532385773889
 10
-3784.6514219010505
 20
-2943.6627349352957
 42
0.0052007732938975
 10
-3784.6548020739383
 20
-2943.549344850137
 42
0.0054038123300025
 10
-3784.6847473416997
 20
-2943.3693174061036
 10
-3784.6923761255021
 20
-2943.3263296762502
 42
0.0112050460453766
 10
-3784.7454526685874
 20
-2943.0618400187536
 10
-3784.7721901116511
 20
-2942.9425276386605
 42
0.0240764468009493
 10
-3784.9085361608695
 20
-2942.4471720854121
 10
-3784.9363743050908
 20
-2942.3622418379168
 42
0.0256812331832555
 10
-3785.1514186853747
 20
-2941.8046555285318
 10
-3785.1595328241078
 20
-2941.786458526045
 42
0.0268360501214151
 10
-3785.4136736853816
 20
-2941.2899688250159
 10
-3785.4219782968385
 20
-2941.2756893195397
 42
0.0274670231729844
 10
-3785.7102797614543
 20
-2940.8372582571715
 10
-3785.7183517114013
 20
-2940.8263395358554
 42
0.0275035967107189
 10
-3786.0357110307414
 20
-2940.4430657004032
 10
-3786.0433152821893
 20
-2940.4348470689592
 42
0.026955767351773
 10
-3786.3844205973501
 20
-2940.1038836400144
 10
-3786.3915351840237
 20
-2940.0976887083234
 42
0.025912480220778
 10
-3786.7508674311703
 20
-2939.8161529175945
 10
-3786.7576636989379
 20
-2939.8113746641025
 42
0.0245162152998877
 10
-3787.1295382285853
 20
-2939.5762751504335
 10
-3787.1363280480741
 20
-2939.5724348546305
 42
0.0229282588838157
 10
-3787.5149573833123
 20
-2939.3806325658834
 10
-3787.5221281240779
 20
-2939.3774041162355
 42
0.0212984135698947
 10
-3787.9016850527605
 20
-2939.2256057403774
 10
-3787.9096414802116
 20
-2939.2228103962384
 42
0.0197555462345248
 10
-3788.2843089867993
 20
-2939.10758726929
 42
0.0183511896791315
 10
-3788.6667020749974
 20
-2939.0212129088413
 10
-3788.7962498700758
 20
-2938.9969087232644
 42
0.0338057877143081
 10
-3789.2245108939687
 20
-2938.9461961155539
 10
-3789.3610190015556
 20
-2938.9393266326606
 42
0.0091990524498052
 10
-3789.5197896644827
 20
-2938.9342628487784
 42
0.0028333980785662
 10
-3789.6786605385196
 20
-2938.9330206875034
 10
-3789.6800337180457
 20
-2938.9330177327674
 42
-0.002361982779085
 10
-3789.8416527407553
 20
-2938.9319064711494
 10
-3789.8962604959688
 20
-2938.9312730114552
 42
0.0008824598479794
 10
-3790.1670944808138
 20
-2938.9286093440974
 10
-3790.2328866293528
 20
-2938.9280784018092
 42
0.0038132665768147
 10
-3790.6353109731485
 20
-2938.9278999977096
 10
-3790.6601114553609
 20
-2938.9280781469251
 42
0.0060665569340373
 10
-3791.112032192782
 20
-2938.9368085960573
 10
-3791.133407690786
 20
-2938.9374810580075
 42
0.0080356953341516
 10
-3791.6275957652906
 20
-2938.9609826411079
 10
-3791.6457007879253
 20
-2938.9621355155186
 42
0.0098996399109227
 10
-3792.174845414886
 20
-2939.0063633593145
 10
-3792.1899139789639
 20
-2939.0079238036133
 42
0.0117740981366861
 10
-3792.746649266478
 20
-2939.0788621749066
 10
-3792.7589833112111
 20
-2939.0807298497639
 42
0.0137435215139092
 10
-3793.3358665404553
 20
-2939.1843753101102
 10
-3793.3458520991235
 20
-2939.1864541544569
 42
0.0158359869388778
 10
-3793.9353477398399
 20
-2939.3287922871814
 10
-3793.9434675201283
 20
-2939.3310271984838
 42
0.018055412402641
 10
-3794.5379400870424
 20
-2939.5179842228404
 10
-3794.5447752691716
 20
-2939.5204082772416
 42
0.0203657431285805
 10
-3795.1364915458939
 20
-2939.757798789517
 10
-3795.1427068543999
 20
-2939.7605912216777
 42
0.0226819684660449
 10
-3795.7238609387073
 20
-2940.0540550896858
 10
-3795.7301606252322
 20
-2940.057603477564
 42
0.0248634984608557
 10
-3796.292933537005
 20
-2940.4125434464854
 10
-3796.3652259301753
 20
-2940.4633290092202
 42
0.0267044190881631
 10
-3796.7766649755549
 20
-2940.7864895730254
 42
0.0139303002199634
 10
-3797.1609157244707
 20
-2941.1423478344009
 10
-3797.1681958030449
 20
-2941.1494768286839
 42
0.0283460963444287
 10
-3797.534304694384
 20
-2941.5510728193494
 10
-3797.59380745212
 20
-2941.6242751855607
 42
0.0070695364811461
 10
-3797.7099632909103
 20
-2941.7713754095089
 42
0.0070695364811461
  0
LWPOLYLINE
  5
62
100
AcDbEntity
  8
0
370
              15
390
0
  6
Continuous
 62
               7
100
AcDbPolyline
 90
      226
 70
             128
 10
-3803.0031939467799
 20
-2965.3537586187849
 42
-0.0026277636658973
 10
-3803.0033107724798
 20
-2965.2536007302338
 10
-3803.0029847351316
 20
-2965.1738679040059
 42
-0.0088680296731092
 10
-3802.9973198106927
 20
-2964.9143442304121
 10
-3802.9938002720237
 20
-2964.8254241922209
 42
-0.007738170560632
 10
-3802.9697311058767
 20
-2964.3885334484917
 10
-3802.9684292391194
 20
-2964.3701010979958
 42
-0.0068872530522412
 10
-3802.9284811194952
 20
-2963.8972684698729
 10
-3802.926674783218
 20
-2963.8789070013645
 42
-0.0062130021482561
 10
-3802.8702842079711
 20
-2963.3706024644666
 10
-3802.8680283526733
 20
-2963.3523416566313
 42
-0.0056726929665876
 10
-3802.7946455634201
 20
-2962.8090488234629
 10
-3802.7919853949534
 20
-2962.7909081230937
 42
-0.00523418844986
 10
-3802.7010695155718
 20
-2962.2131182398684
 10
-3802.6980425323982
 20
-2962.1951108448284
 42
-0.0049768450170473
 10
-3802.5889345102596
 20
-2961.5833439936814
 10
-3802.5525609881761
 20
-2961.39052201917
 42
-0.0089029805626513
 10
-3802.3469397104827
 20
-2960.3978588480313
 10
-3802.2978216475062
 20
-2960.1803117022514
 42
-0.0080318257097691
 10
-3801.9534987259872
 20
-2958.7617472544412
 10
-3801.9355213363224
 20
-2958.6925513016859
 42
-0.0074265721317637
 10
-3801.5095040280485
 20
-2957.1474544341163
 10
-3801.479684713368
 20
-2957.0452533432144
 42
-0.0069711922703211
 10
-3800.9887278456126
 20
-2955.4458517327389
 10
-3800.8987999249562
 20
-2955.1668196951891
 42
-0.005207042289653
 10
-3800.5546620870655
 20
-2954.1359115796358
 10
-3800.5287402987842
 20
-2954.060870658644
 42
-0.0009167004446576
 10
-3800.2241024678733
 20
-2953.1841868864794
 42
-0.0025162726943297
 10
-3799.9134560224843
 20
-2952.3096249902487
 10
-3799.857619104775
 20
-2952.1549006713872
 42
-0.0028212681458984
 10
-3799.4853552263266
 20
-2951.1413047231208
 10
-3799.4706090822351
 20
-2951.1018435561973
 42
-0.0031964916821371
 10
-3799.1161706957073
 20
-2950.171536412915
 10
-3799.1017190147095
 20
-2950.1343214277017
 42
-0.0036281836451678
 10
-3798.7640600730565
 20
-2949.2831604063604
 10
-3798.7499024578324
 20
-2949.2482142591352
 42
-0.0041269166833186
 10
-3798.4279759128317
 20
-2948.4720529151391
 10
-3798.3790264782169
 20
-2948.3567352456353
 42
-0.0047472213058918
 10
-3798.1434592698702
 20
-2947.8161030437723
 10
-3798.133118148045
 20
-2947.7929721477449
 42
-0.002565165999572
 10
-3797.9105810972824
 20
-2947.3019800641514
 42
-0.0057144635000173
 10
-3797.679956556638
 20
-2946.8147655541334
 10
-3797.6379104985322
 20
-2946.728502980533
 42
-0.0065388068374869
 10
-3797.3627099569139
 20
-2946.1821542355187
 10
-3797.3500222732614
 20
-2946.1577648664934
 42
-0.0074510843031056
 10
-3797.0857489044297
 20
-2945.6677324447805
 10
-3797.0734793986348
 20
-2945.6457712788801
 42
-0.0084648979859158
 10
-3796.8190286189829
 20
-2945.2079077624358
 10
-3796.8072444292447
 20
-2945.1883972749497
 42
-0.0095638542799505
 10
-3796.5614912578594
 20
-2944.7985639669914
 10
-3796.5502788423569
 20
-2944.7815099248164
 42
-0.0107191626813313
 10
-3796.3120764717705
 20
-2944.4355930729926
 10
-3796.3015513711775
 20
-2944.4209889344506
 42
-0.0118458573903928
 10
-3796.0697292234054
 20
-2944.1148806414794
 42
-0.0129184518194107
 10
-3795.8230502880051
 20
-2943.820639867226
 10
-3795.777833129458
 20
-2943.7694507488745
 42
-0.0217742579639499
 10
-3795.5129146459549
 20
-2943.4946405934993
 10
-3795.4967963292675
 20
-2943.4793153436976
 42
-0.0097266568652582
 10
-3795.2477099009811
 20
-2943.251543982039
 42
-0.0187720905715228
 10
-3794.9861885371411
 20
-2943.038440701951
 10
-3794.9401295511379
 20
-2943.0037020783629
 42
-0.0179428207524197
 10
-3794.5914984711412
 20
-2942.7598738126935
 10
-3794.5860199807676
 20
-2942.756327910362
 42
-0.0170047877699722
 10
-3794.2323745244721
 20
-2942.5441371391344
 10
-3794.226700041354
 20
-2942.5409896815809
 42
-0.0160190788368814
 10
-3793.871337219899
 20
-2942.3585127285978
 42
-0.0151102861489548
 10
-3793.5052895462313
 20
-2942.1984885645165
 10
-3793.4267097929114
 20
-2942.1669283651736
 42
-0.027194544188363
 10
-3792.8887159543219
 20
-2941.9841311491141
 10
-3792.7851187535935
 20
-2941.9551068372157
 42
-0.023759659402155
 10
-3792.1614234830586
 20
-2941.8119307692432
 10
-3792.05932920246
 20
-2941.7935487370528
 42
-0.0213715440552521
 10
-3791.630516805295
 20
-2941.7351281897882
 10
-3791.5402960559754
 20
-2941.7267436177376
 42
-0.0101465655825552
 10
-3791.2890572579763
 20
-2941.7085283028405
 10
-3791.2750466786638
 20
-2941.707797930344
 42
-0.0100375910873859
 10
-3791.0513155278354
 20
-2941.7006342034565
 10
-3791.035926623314
 20
-2941.7004505449349
 42
-0.010362563337621
 10
-3790.8428646313323
 20
-2941.702147695225
 10
-3790.8094661544242
 20
-2941.7031337329227
 42
-0.0115689250232007
 10
-3790.6833900481406
 20
-2941.7097779922901
 42
-0.0072438037440708
 10
-3790.5576326289793
 20
-2941.7211617919147
 10
-3790.5324318647727
 20
-2941.7238116060007
 42
-0.0217917313146086
 10
-3790.3575772198001
 20
-2941.7499414450826
 10
-3790.259177083954
 20
-2941.7690613577033
 42
-0.0332943556759109
 10
-3789.9525888364092
 20
-2941.8501217946646
 10
-3789.90732998358
 20
-2941.8653739103438
 42
-0.0184824084797825
 10
-3789.6995723988857
 20
-2941.944050433422
 42
-0.0198002050692614
 10
-3789.498460888135
 20
-2942.038376523722
 10
-3789.4956309320714
 20
-2942.0398432040411
 42
-0.021224234298743
 10
-3789.2974225184739
 20
-2942.1534873122268
 10
-3789.2946995751536
 20
-2942.1552060155427
 42
-0.0226090605811501
 10
-3789.1019437233335
 20
-2942.2894254808803
 10
-3789.0991770607152
 20
-2942.2915438603709
 42
-0.0238457052229875
 10
-3788.9144039387797
 20
-2942.4475377041599
 10
-3788.9114748459369
 20
-2942.4502600208134
 42
-0.0248160564145892
 10
-3788.7371725849771
 20
-2942.6291719226369
 10
-3788.7340171348828
 20
-2942.6327499231834
 42
-0.0254109591429406
 10
-3788.5726093080757
 20
-2942.835682502141
 10
-3788.5692372752128
 20
-2942.8403948247305
 42
-0.025552848826153
 10
-3788.4230672570047
 20
-2943.0684354061032
 10
-3788.4195706071428
 20
-2943.0745578234937
 42
-0.0252146793206455
 10
-3788.2908990681199
 20
-2943.3288111925099
 10
-3788.2874457093926
 20
-2943.3365843153583
 42
-0.0244265635938295
 10
-3788.1784636687466
 20
-2943.6182041734392
 10
-3788.1645940665494
 20
-2943.66000230093
 42
-0.0231319612906922
 10
-3788.0957098980598
 20
-2943.9049538711379
 42
-0.0112130424350092
 10
-3788.0437558642511
 20
-2944.1542592714259
 10
-3788.0419520765836
 20
-2944.1640041517512
 42
-0.0210527881239677
 10
-3788.0034223635289
 20
-2944.4355876198988
 10
-3787.9981564712948
 20
-2944.488695942734
 42
-0.0190029892429486
 10
-3787.9749942609783
 20
-2944.8689997121296
 10
-3787.9737792963119
 20
-2944.922213133696
 42
-0.0137974553669611
 10
-3787.9761025755652
 20
-2945.409760243781
 10
-3787.9773707579989
 20
-2945.448938360687
 42
-0.0081336634217837
 10
-3787.9996597608324
 20
-2945.906959562084
 42
-0.0073526923559519
 10
-3788.0361225608981
 20
-2946.364081928557
 10
-3788.0380146965681
 20
-2946.3840869405112
 42
-0.0066886138689515
 10
-3788.0916180756408
 20
-2946.8799660057789
 10
-3788.0941037098428
 20
-2946.9003984342444
 42
-0.0061359187352667
 10
-3788.1658796129168
 20
-2947.4355444043754
 10
-3788.168935864529
 20
-2947.4563866086382
 42
-0.0056698610069189
 10
-3788.2599113606807
 20
-2948.0313044619015
 10
-3788.2635195106641
 20
-2948.0525431407414
 42
-0.0052721077275773
 10
-3788.3747178118601
 20
-2948.6677341502423
 10
-3788.3788625351258
 20
-2948.6893591033368
 42
-0.0049289272180234
 10
-3788.5113037122737
 20
-2949.3453218700106
 10
-3788.5159724542996
 20
-2949.3673251492442
 42
-0.0047415956712801
 10
-3788.6708294415939
 20
-2950.0645202853416
 10
-3788.7229817571379
 20
-2950.2892309284352
 42
-0.0084404470899013
 10
-3789.0080064225067
 20
-2951.4295669652729
 10
-3789.0171964544743
 20
-2951.4638631514617
 42
-0.0039635940258447
 10
-3789.3493769809124
 20
-2952.6653464478773
 10
-3789.3694421736691
 20
-2952.7357438727208
 42
-0.0072475040836399
 10
-3789.7706125054592
 20
-2954.0695734472911
 10
-3789.8759309957027
 20
-2954.4021839722573
 42
-0.0051345458829667
 10
-3790.3060700537935
 20
-2955.7136717539806
 10
-3790.3383594539146
 20
-2955.8088111545862
 42
-0.0019150016604606
 10
-3790.7216595642449
 20
-2956.9241348350147
 10
-3790.7313609708167
 20
-2956.9520160323318
 42
-0.0021524362754815
 10
-3791.1040780474345
 20
-2958.0085047649591
 10
-3791.1178936784954
 20
-2958.0471351324568
 42
-0.0024331286820128
 10
-3791.4722765670331
 20
-2959.0230340945886
 10
-3791.485848495865
 20
-2959.0598490541365
 42
-0.0027449721786326
 10
-3791.8227703521125
 20
-2959.9585438725067
 10
-3791.8361053632034
 20
-2959.9935277572918
 42
-0.0031083229770075
 10
-3792.1564190931153
 20
-2960.8184138136544
 10
-3792.1695232906122
 20
-2960.8515483873994
 42
-0.0035311343283406
 10
-3792.4740850690164
 20
-2961.6060230760363
 10
-3792.4869630777448
 20
-2961.6372871613185
 42
-0.0040245640950412
 10
-3792.7766307834299
 20
-2962.3247511451905
 10
-3792.7892849538453
 20
-2962.3541201973235
 42
-0.0046015135850844
 10
-3793.0649193935801
 20
-2962.9779777417616
 10
-3793.0773486603489
 20
-2963.0054234509985
 42
-0.0052768638262622
 10
-3793.3398149387558
 20
-2963.5690827773456
 10
-3793.3520132546942
 20
-2963.5945727851558
 42
-0.0060672675645405
 10
-3793.6021826738452
 20
-2964.1014462198318
 10
-3793.6141368945709
 20
-2964.1249441083341
 42
-0.0069904648871018
 10
-3793.8528894855699
 20
-2964.5784478183232
 10
-3793.8645765849778
 20
-2964.5999136421492
 42
-0.0080637022774093
 10
-3794.0928043755048
 20
-2965.0034665968938
 10
-3794.1041879244594
 20
-2965.0228583953085
 42
-0.0093006455657669
 10
-3794.322798939249
 20
-2965.3798799930496
 10
-3794.3338249393532
 20
-2965.3971569467917
 42
-0.0107060778059362
 10
-3794.543747754522
 20
-2965.7110624228781
 10
-3794.5543404069485
 20
-2965.726190736737
 42
-0.0122723111404003
 10
-3794.7565309842385
 20
-2966.0003807309599
 10
-3794.7570203195723
 20
-2966.0010113126782
 42
-0.0141836319623325
 10
-3794.9723927240311
 20
-2966.2628659494185
 10
-3794.9828143575055
 20
-2966.2748284498111
 42
-0.0175957477222209
 10
-3795.1926736095611
 20
-2966.499259782423
 42
-0.0080466359685177
 10
-3795.4138692571132
 20
-2966.7127435746561
 10
-3795.4829210738826
 20
-2966.7772742317866
 42
-0.0269600260399299
 10
-3795.8628414428554
 20
-2967.0957591195493
 10
-3795.9626921473032
 20
-2967.1706862414871
 42
-0.0178362839752661
 10
-3796.322608881786
 20
-2967.421213130865
 10
-3796.3334763382895
 20
-2967.4282158991741
 42
-0.0174650732650773
 10
-3796.6879806344486
 20
-2967.639507346611
 42
-0.016924013016719
 10
-3797.0561800032301
 20
-2967.8259457362747
 10
-3797.125159236572
 20
-2967.857988669628
 42
-0.0318883036840631
 10
-3797.6506855200028
 20
-2968.0624961338935
 10
-3797.7532338227488
 20
-2968.0950470646062
 42
-0.0284435909902285
 10
-3798.3173090121854
 20
-2968.239373217818
 10
-3798.3700462529309
 20
-2968.2497136115603
 42
-0.0243909341014072
 10
-3798.8402114443115
 20
-2968.3182951581061
 10
-3798.9156325344693
 20
-2968.3255634784587
 42
-0.0196639292936175
 10
-3799.2390259007593
 20
-2968.3439359067288
 10
-3799.3167620074873
 20
-2968.345290797834
 42
-0.0100501510700585
 10
-3799.4853969300011
 20
-2968.3448402003041
 10
-3799.5328867220173
 20
-2968.3437585924762
 42
-0.0019752031100502
 10
-3799.6065252270391
 20
-2968.3417903521622
 10
-3799.6106656818824
 20
-2968.3416633144225
 42
0.0065378752002072
 10
-3799.6760305440043
 20
-2968.3405129776002
 42
-0.0167974694657342
 10
-3799.7413267784032
 20
-2968.3380231298106
 10
-3799.7474457872954
 20
-2968.3375836134683
 42
-0.0081283276287568
 10
-3799.8247854838983
 20
-2968.3307631230123
 10
-3799.8423948447207
 20
-2968.3289212466443
 42
-0.0126703440182634
 10
-3799.9544722884079
 20
-2968.3143190600372
 10
-3799.9886540899261
 20
-2968.308981676164
 42
-0.0117852088446614
 10
-3800.1679625686656
 20
-2968.27663718343
 10
-3800.2510332463194
 20
-2968.2596218730764
 42
-0.0251774592293504
 10
-3800.5912993048287
 20
-2968.1718748589278
 10
-3800.6583780896135
 20
-2968.1509246299224
 42
-0.0146525199886969
 10
-3800.9379675709156
 20
-2968.0545248391272
 42
-0.0166929435865462
 10
-3801.2109340550969
 20
-2967.9408141395484
 10
-3801.2179190020152
 20
-2967.9376267886237
 42
-0.0191684358441861
 10
-3801.495694448884
 20
-2967.797772662942
 10
-3801.5006933275245
 20
-2967.795010791609
 42
-0.0221181781812906
 10
-3801.7756587833796
 20
-2967.6268105440513
 10
-3801.7791834893906
 20
-2967.6244340970661
 42
-0.0254984685382209
 10
-3802.0436187149726
 20
-2967.4258173721082
 10
-3802.0773419365264
 20
-2967.397688908703
 42
-0.0292492648791265
 10
-3802.2644953447862
 20
-2967.222049709243
 42
-0.015904895749608
 10
-3802.4352553409649
 20
-2967.0300197218394
 10
-3802.4372335268299
 20
-2967.0276473023141
 42
-0.034381337957528
 10
-3802.5911894192695
 20
-2966.8148403136597
 10
-3802.6384267163048
 20
-2966.7390852255294
 42
-0.0369117275712697
 10
-3802.7672654691569
 20
-2966.4938693640961
 42
-0.0191751379908907
 10
-3802.868055547493
 20
-2966.2352624550858
 10
-3802.8707005331316
 20
-2966.2276224380748
 42
-0.0378178042224348
 10
-3802.9453926113088
 20
-2965.9442112739471
 10
-3802.9543855549023
 20
-2965.8953703466641
 42
-0.0184846046484016
 10
-3802.9854613538446
 20
-2965.6827411158401
 42
-0.0179866351335848
 10
-3803.0009608614546
 20
-2965.4684048962349
 10
-3803.001045525124
 20
-2965.4660683662996
 42
-0.0085497186099397
 10
-3803.0031939467799
 20
-2965.3537586187849
 42
-0.0085497186099397
  0
ENDBLK
  5
63
100
AcDbEntity
  8
template
390
0
100
AcDbBlockEnd
  0
BLOCK
  5
64
100
AcDbEntity
  8
template
390
0
100
AcDbBlockBegin
  2
*D2
 70
               1
 10
0.0
 20
0.0
 30
0.0
  3
*D2
  1

  0
LINE
  5
65
100
AcDbEntity
  8
0
370
              -2
390
0
  6
Continuous
 62
               0
100
AcDbLine
 10
789.06756813982702
 20
-712.01765723106689
 30
0.0
 11
745.24887034072617
 21
-712.01765723106689
 31
0.0
  0
LINE
  5
66
100
AcDbEntity
  8
0
370
              -2
390
0
  6
Continuous
 62
               0
100
AcDbLine
 10
790.06137034072617
 20
-727.01765723106689
 30
0.0
 11
745.24887034072617
 21
-727.01765723106689
 31
0.0
  0
LINE
  5
67
100
AcDbEntity
  8
0
370
              -2
390
0
  6
Continuous
 62
               0
100
AcDbLine
 10
745.24887034072617
 20
-727.01765723106689
 30
0.0
 11
745.24887034072617
 21
-808.26272607221415
 31
0.0
  0
LINE
  5
68
100
AcDbEntity
  8
0
370
              -2
390
0
  6
Continuous
 62
               0
100
AcDbLine
 10
745.24887034072617
 20
-712.01765723106689
 30
0.0
 11
745.24887034072617
 21
-727.01765723106689
 31
0.0
  0
CIRCLE
  5
69
102
{ACAD_REACTORS
330
6A
102
}
100
AcDbEntity
  8
0
370
              -2
390
0
  6
Continuous
 62
               0
100
AcDbCircle
 10
745.24887034072617
 20
-712.01765723106689
 30
0.0
 40
7.499542236328125
  0
HATCH
  5
6A
100
AcDbEntity
  8
0
370
              -2
390
0
  6
Continuous
 62
               0
100
AcDbHatch
 10
0.0
 20
0.0
 30
0.0
210
0.0
220
0.0
230
1.0
  2
SOLID
 70
               1
 71
               1
 91
        1
 92
        1
 93
        1
 72
               2
 10
745.24887034072617
 20
-712.01765723106689
 40
7.499542236328125
 50
0.0
 51
360.0
 73
               0
 97
        1
330
69
 75
               0
 76
               1
 98
        1
 10
0.0
 20
0.0
  0
CIRCLE
  5
6B
102
{ACAD_REACTORS
330
6C
102
}
100
AcDbEntity
  8
0
370
              -2
390
0
  6
Continuous
 62
               0
100
AcDbCircle
 10
745.24887034072617
 20
-727.01765723106689
 30
0.0
 40
7.499542236328125
  0
HATCH
  5
6C
100
AcDbEntity
  8
0
370
              -2
390
0
  6
Continuous
 62
               0
100
AcDbHatch
 10
0.0
 20
0.0
 30
0.0
210
0.0
220
0.0
230
1.0
  2
SOLID
 70
               1
 71
               1
 91
        1
 92
        1
 93
        1
 72
               2
 10
745.24887034072617
 20
-727.01765723106689
 40
7.499542236328125
 50
0.0
 51
360.0
 73
               0
 97
        1
330
6B
 75
               0
 76
               1
 98
        1
 10
0.0
 20
0.0
  0
MTEXT
  5
6D
100
AcDbEntity
  8
0
390
0
 62
               0
100
AcDbMText
 10
694.43244455947661
 20
-808.26272607221415
 30
0.0
 40
36.64892578125
 41
0.0
 71
               1
 72
               1
  1
15
  7
ＭＳゴシック
 11
0.0
 21
1.0
 31
0.0
 73
               1
 44
0.7828267384257843
  0
POINT
  5
6E
100
AcDbEntity
  8
Defpoints
370
               0
390
0
 62
               0
100
AcDbPoint
 10
827.56137034072617
 20
-727.01765723106689
 30
0.0
  0
POINT
  5
6F
100
AcDbEntity
  8
Defpoints
370
               0
390
0
 62
               0
100
AcDbPoint
 10
826.56756813982702
 20
-712.01765723106689
 30
0.0
  0
POINT
  5
70
100
AcDbEntity
  8
Defpoints
370
               0
390
0
 62
               0
100
AcDbPoint
 10
745.24887034072617
 20
-712.01765723106689
 30
0.0
  0
ENDBLK
  5
71
100
AcDbEntity
  8
template
390
0
100
AcDbBlockEnd
  0
BLOCK
  5
72
100
AcDbEntity
  8
notes
390
0
100
AcDbBlockBegin
  2
*D3
 70
               1
 10
0.0
 20
0.0
 30
0.0
  3
*D3
  1

  0
LINE
  5
73
100
AcDbEntity
  8
0
370
              -2
390
0
  6
Continuous
 62
               0
100
AcDbLine
 10
793.63730215481701
 20
-567.14731182349658
 30
0.0
 11
821.13730215481701
 21
-567.14731182349658
 31
0.0
  0
LINE
  5
74
100
AcDbEntity
  8
0
370
              -2
390
0
  6
Continuous
 62
               0
100
AcDbLine
 10
793.63730215481701
 20
-667.14731182349658
 30
0.0
 11
821.13730215481701
 21
-667.14731182349658
 31
0.0
  0
LINE
  5
75
100
AcDbEntity
  8
0
370
              -2
390
0
  6
Continuous
 62
               0
100
AcDbLine
 10
821.13730215481701
 20
-567.14731182349658
 30
0.0
 11
821.13730215481701
 21
-346.61980893110456
 31
0.0
  0
LINE
  5
76
100
AcDbEntity
  8
0
370
              -2
390
0
  6
Continuous
 62
               0
100
AcDbLine
 10
821.13730215481701
 20
-567.14731182349658
 30
0.0
 11
821.13730215481701
 21
-667.14731182349658
 31
0.0
  0
CIRCLE
  5
77
102
{ACAD_REACTORS
330
78
102
}
100
AcDbEntity
  8
0
370
              -2
390
0
  6
Continuous
 62
               0
100
AcDbCircle
 10
821.13730215481701
 20
-567.14731182349658
 30
0.0
 40
7.499542236328125
  0
HATCH
  5
78
100
AcDbEntity
  8
0
370
              -2
390
0
  6
Continuous
 62
               0
100
AcDbHatch
 10
0.0
 20
0.0
 30
0.0
210
0.0
220
0.0
230
1.0
  2
SOLID
 70
               1
 71
               1
 91
        1
 92
        1
 93
        1
 72
               2
 10
821.13730215481701
 20
-567.14731182349658
 40
7.499542236328125
 50
0.0
 51
360.0
 73
               0
 97
        1
330
77
 75
               0
 76
               1
 98
        1
 10
0.0
 20
0.0
  0
CIRCLE
  5
79
102
{ACAD_REACTORS
330
7A
102
}
100
AcDbEntity
  8
0
370
              -2
390
0
  6
Continuous
 62
               0
100
AcDbCircle
 10
821.13730215481701
 20
-667.14731182349658
 30
0.0
 40
7.499542236328125
  0
HATCH
  5
7A
100
AcDbEntity
  8
0
370
              -2
390
0
  6
Continuous
 62
               0
100
AcDbHatch
 10
0.0
 20
0.0
 30
0.0
210
0.0
220
0.0
230
1.0
  2
SOLID
 70
               1
 71
               1
 91
        1
 92
        1
 93
        1
 72
               2
 10
821.13730215481701
 20
-667.14731182349658
 40
7.499542236328125
 50
0.0
 51
360.0
 73
               0
 97
        1
330
79
 75
               0
 76
               1
 98
        1
 10
0.0
 20
0.0
  0
MTEXT
  5
7B
100
AcDbEntity
  8
0
390
0
 62
               0
100
AcDbMText
 10
770.32087637356744
 20
-560.93230893110456
 30
0.0
 40
36.64892578125
 41
0.0
 71
               1
 72
               1
  1
100(深さ)
  7
ＭＳゴシック
 11
0.0
 21
1.0
 31
0.0
 73
               1
 44
0.7828267384257843
  0
POINT
  5
7C
100
AcDbEntity
  8
Defpoints
370
               0
390
0
 62
               0
100
AcDbPoint
 10
831.13730215481701
 20
-667.14731182349658
 30
0.0
  0
POINT
  5
7D
100
AcDbEntity
  8
Defpoints
370
               0
390
0
 62
               0
100
AcDbPoint
 10
831.13730215481701
 20
-567.14731182349658
 30
0.0
  0
POINT
  5
7E
100
AcDbEntity
  8
Defpoints
370
               0
390
0
 62
               0
100
AcDbPoint
 10
821.13730215481701
 20
-567.14731182349658
 30
0.0
  0
ENDBLK
  5
7F
100
AcDbEntity
  8
notes
390
0
100
AcDbBlockEnd
  0
BLOCK
  5
80
100
AcDbEntity
  8
notes
390
0
100
AcDbBlockBegin
  2
*D4
 70
               1
 10
0.0
 20
0.0
 30
0.0
  3
*D4
  1

  0
LINE
  5
81
100
AcDbEntity
  8
0
370
              -2
390
0
  6
Continuous
 62
               0
100
AcDbLine
 10
-1105.347307523758
 20
-549.62336521195755
 30
0.0
 11
-1105.347307523758
 21
-467.12336521195755
 31
0.0
  0
LINE
  5
82
100
AcDbEntity
  8
0
370
              -2
390
0
  6
Continuous
 62
               0
100
AcDbLine
 10
-815.34730752375799
 20
-549.62336521195755
 30
0.0
 11
-815.34730752375799
 21
-467.12336521195755
 31
0.0
  0
LINE
  5
83
100
AcDbEntity
  8
0
370
              -2
390
0
  6
Continuous
 62
               0
100
AcDbLine
 10
-1105.347307523758
 20
-467.12336521195755
 30
0.0
 11
-815.34730752375799
 21
-467.12336521195755
 31
0.0
  0
CIRCLE
  5
84
102
{ACAD_REACTORS
330
85
102
}
100
AcDbEntity
  8
0
370
              -2
390
0
  6
Continuous
 62
               0
100
AcDbCircle
 10
-1105.347307523758
 20
-467.12336521195755
 30
0.0
 40
7.499542236328125
  0
HATCH
  5
85
100
AcDbEntity
  8
0
370
              -2
390
0
  6
Continuous
 62
               0
100
AcDbHatch
 10
0.0
 20
0.0
 30
0.0
210
0.0
220
0.0
230
1.0
  2
SOLID
 70
               1
 71
               1
 91
        1
 92
        1
 93
        1
 72
               2
 10
-1105.347307523758
 20
-467.12336521195755
 40
7.499542236328125
 50
0.0
 51
360.0
 73
               0
 97
        1
330
84
 75
               0
 76
               1
 98
        1
 10
0.0
 20
0.0
  0
CIRCLE
  5
86
102
{ACAD_REACTORS
330
87
102
}
100
AcDbEntity
  8
0
370
              -2
390
0
  6
Continuous
 62
               0
100
AcDbCircle
 10
-815.34730752375799
 20
-467.12336521195755
 30
0.0
 40
7.499542236328125
  0
HATCH
  5
87
100
AcDbEntity
  8
0
370
              -2
390
0
  6
Continuous
 62
               0
100
AcDbHatch
 10
0.0
 20
0.0
 30
0.0
210
0.0
220
0.0
230
1.0
  2
SOLID
 70
               1
 71
               1
 91
        1
 92
        1
 93
        1
 72
               2
 10
-815.34730752375799
 20
-467.12336521195755
 40
7.499542236328125
 50
0.0
 51
360.0
 73
               0
 97
        1
330
86
 75
               0
 76
               1
 98
        1
 10
0.0
 20
0.0
  0
MTEXT
  5
88
100
AcDbEntity
  8
0
390
0
 62
               0
100
AcDbMText
 10
-996.06606004702098
 20
-416.30693943070753
 30
0.0
 40
36.64892578125
 41
0.0
 71
               1
 72
               1
  1
290
  7
ＭＳゴシック
 73
               1
 44
0.7828267384257843
  0
POINT
  5
89
100
AcDbEntity
  8
Defpoints
370
               0
390
0
 62
               0
100
AcDbPoint
 10
-815.34730752375799
 20
-587.12336521195755
 30
0.0
  0
POINT
  5
8A
100
AcDbEntity
  8
Defpoints
370
               0
390
0
 62
               0
100
AcDbPoint
 10
-1105.347307523758
 20
-587.12336521195755
 30
0.0
  0
POINT
  5
8B
100
AcDbEntity
  8
Defpoints
370
               0
390
0
 62
               0
100
AcDbPoint
 10
-1105.347307523758
 20
-467.12336521195755
 30
0.0
  0
ENDBLK
  5
8C
100
AcDbEntity
  8
notes
390
0
100
AcDbBlockEnd
  0
BLOCK
  5
8D
100
AcDbEntity
  8
notes
390
0
100
AcDbBlockBegin
  2
*D5
 70
               1
 10
0.0
 20
0.0
 30
0.0
  3
*D5
  1

  0
LINE
  5
8E
100
AcDbEntity
  8
0
370
              -2
390
0
  6
Continuous
 62
               0
100
AcDbLine
 10
-815.34730752375799
 20
-549.62336521195755
 30
0.0
 11
-815.34730752375799
 21
-467.12336521195755
 31
0.0
  0
LINE
  5
8F
100
AcDbEntity
  8
0
370
              -2
390
0
  6
Continuous
 62
               0
100
AcDbLine
 10
-535.34730752375799
 20
-549.62336521195755
 30
0.0
 11
-535.34730752375799
 21
-467.12336521195755
 31
0.0
  0
LINE
  5
90
100
AcDbEntity
  8
0
370
              -2
390
0
  6
Continuous
 62
               0
100
AcDbLine
 10
-815.34730752375799
 20
-467.12336521195755
 30
0.0
 11
-535.34730752375799
 21
-467.12336521195755
 31
0.0
  0
CIRCLE
  5
91
102
{ACAD_REACTORS
330
92
102
}
100
AcDbEntity
  8
0
370
              -2
390
0
  6
Continuous
 62
               0
100
AcDbCircle
 10
-815.34730752375799
 20
-467.12336521195755
 30
0.0
 40
7.499542236328125
  0
HATCH
  5
92
100
AcDbEntity
  8
0
370
              -2
390
0
  6
Continuous
 62
               0
100
AcDbHatch
 10
0.0
 20
0.0
 30
0.0
210
0.0
220
0.0
230
1.0
  2
SOLID
 70
               1
 71
               1
 91
        1
 92
        1
 93
        1
 72
               2
 10
-815.34730752375799
 20
-467.12336521195755
 40
7.499542236328125
 50
0.0
 51
360.0
 73
               0
 97
        1
330
91
 75
               0
 76
               1
 98
        1
 10
0.0
 20
0.0
  0
CIRCLE
  5
93
102
{ACAD_REACTORS
330
94
102
}
100
AcDbEntity
  8
0
370
              -2
390
0
  6
Continuous
 62
               0
100
AcDbCircle
 10
-535.34730752375799
 20
-467.12336521195755
 30
0.0
 40
7.499542236328125
  0
HATCH
  5
94
100
AcDbEntity
  8
0
370
              -2
390
0
  6
Continuous
 62
               0
100
AcDbHatch
 10
0.0
 20
0.0
 30
0.0
210
0.0
220
0.0
230
1.0
  2
SOLID
 70
               1
 71
               1
 91
        1
 92
        1
 93
        1
 72
               2
 10
-535.34730752375799
 20
-467.12336521195755
 40
7.499542236328125
 50
0.0
 51
360.0
 73
               0
 97
        1
330
93
 75
               0
 76
               1
 98
        1
 10
0.0
 20
0.0
  0
MTEXT
  5
95
100
AcDbEntity
  8
0
390
0
 62
               0
100
AcDbMText
 10
-711.06606004702098
 20
-416.30693943070753
 30
0.0
 40
36.64892578125
 41
0.0
 71
               1
 72
               1
  1
280
  7
ＭＳゴシック
 73
               1
 44
0.7828267384257843
  0
POINT
  5
96
100
AcDbEntity
  8
Defpoints
370
               0
390
0
 62
               0
100
AcDbPoint
 10
-535.34730752375799
 20
-587.12336521195755
 30
0.0
  0
POINT
  5
97
100
AcDbEntity
  8
Defpoints
370
               0
390
0
 62
               0
100
AcDbPoint
 10
-815.34730752375799
 20
-587.12336521195755
 30
0.0
  0
POINT
  5
98
100
AcDbEntity
  8
Defpoints
370
               0
390
0
 62
               0
100
AcDbPoint
 10
-815.34730752375799
 20
-467.12336521195755
 30
0.0
  0
ENDBLK
  5
99
100
AcDbEntity
  8
notes
390
0
100
AcDbBlockEnd
  0
BLOCK
  5
9A
100
AcDbEntity
  8
notes
390
0
100
AcDbBlockBegin
  2
*D6
 70
               1
 10
0.0
 20
0.0
 30
0.0
  3
*D6
  1

  0
LINE
  5
9B
100
AcDbEntity
  8
0
370
              -2
390
0
  6
Continuous
 62
               0
100
AcDbLine
 10
-535.34730752375799
 20
-549.62336521195755
 30
0.0
 11
-535.34730752375799
 21
-467.12336521195755
 31
0.0
  0
LINE
  5
9C
100
AcDbEntity
  8
0
370
              -2
390
0
  6
Continuous
 62
               0
100
AcDbLine
 10
-245.34730752375799
 20
-549.62336521195755
 30
0.0
 11
-245.34730752375799
 21
-467.12336521195755
 31
0.0
  0
LINE
  5
9D
100
AcDbEntity
  8
0
370
              -2
390
0
  6
Continuous
 62
               0
100
AcDbLine
 10
-535.34730752375799
 20
-467.12336521195755
 30
0.0
 11
-245.34730752375799
 21
-467.12336521195755
 31
0.0
  0
CIRCLE
  5
9E
102
{ACAD_REACTORS
330
9F
102
}
100
AcDbEntity
  8
0
370
              -2
390
0
  6
Continuous
 62
               0
100
AcDbCircle
 10
-535.34730752375799
 20
-467.12336521195755
 30
0.0
 40
7.499542236328125
  0
HATCH
  5
9F
100
AcDbEntity
  8
0
370
              -2
390
0
  6
Continuous
 62
               0
100
AcDbHatch
 10
0.0
 20
0.0
 30
0.0
210
0.0
220
0.0
230
1.0
  2
SOLID
 70
               1
 71
               1
 91
        1
 92
        1
 93
        1
 72
               2
 10
-535.34730752375799
 20
-467.12336521195755
 40
7.499542236328125
 50
0.0
 51
360.0
 73
               0
 97
        1
330
9E
 75
               0
 76
               1
 98
        1
 10
0.0
 20
0.0
  0
CIRCLE
  5
A0
102
{ACAD_REACTORS
330
A1
102
}
100
AcDbEntity
  8
0
370
              -2
390
0
  6
Continuous
 62
               0
100
AcDbCircle
 10
-245.34730752375799
 20
-467.12336521195755
 30
0.0
 40
7.499542236328125
  0
HATCH
  5
A1
100
AcDbEntity
  8
0
370
              -2
390
0
  6
Continuous
 62
               0
100
AcDbHatch
 10
0.0
 20
0.0
 30
0.0
210
0.0
220
0.0
230
1.0
  2
SOLID
 70
               1
 71
               1
 91
        1
 92
        1
 93
        1
 72
               2
 10
-245.34730752375799
 20
-467.12336521195755
 40
7.499542236328125
 50
0.0
 51
360.0
 73
               0
 97
        1
330
A0
 75
               0
 76
               1
 98
        1
 10
0.0
 20
0.0
  0
MTEXT
  5
A2
100
AcDbEntity
  8
0
390
0
 62
               0
100
AcDbMText
 10
-426.06606004702098
 20
-416.30693943070753
 30
0.0
 40
36.64892578125
 41
0.0
 71
               1
 72
               1
  1
290
  7
ＭＳゴシック
 73
               1
 44
0.7828267384257843
  0
POINT
  5
A3
100
AcDbEntity
  8
Defpoints
370
               0
390
0
 62
               0
100
AcDbPoint
 10
-245.34730752375799
 20
-587.12336521195755
 30
0.0
  0
POINT
  5
A4
100
AcDbEntity
  8
Defpoints
370
               0
390
0
 62
               0
100
AcDbPoint
 10
-535.34730752375799
 20
-587.12336521195755
 30
0.0
  0
POINT
  5
A5
100
AcDbEntity
  8
Defpoints
370
               0
390
0
 62
               0
100
AcDbPoint
 10
-535.34730752375799
 20
-467.12336521195755
 30
0.0
  0
ENDBLK
  5
A6
100
AcDbEntity
  8
notes
390
0
100
AcDbBlockEnd
  0
BLOCK
  5
A7
100
AcDbEntity
  8
notes
390
0
100
AcDbBlockBegin
  2
*D7
 70
               1
 10
0.0
 20
0.0
 30
0.0
  3
*D7
  1

  0
LINE
  5
A8
100
AcDbEntity
  8
0
370
              -2
390
0
  6
Continuous
 62
               0
100
AcDbLine
 10
-1191.4280171479477
 20
-607.12336521195755
 30
0.0
 11
-1374.9128624345321
 21
-607.12336521195755
 31
0.0
  0
LINE
  5
A9
100
AcDbEntity
  8
0
370
              -2
390
0
  6
Continuous
 62
               0
100
AcDbLine
 10
-1308.4128624345321
 20
-567.12336521195755
 30
0.0
 11
-1374.9128624345321
 21
-567.12336521195755
 31
0.0
  0
LINE
  5
AA
100
AcDbEntity
  8
0
370
              -2
390
0
  6
Continuous
 62
               0
100
AcDbLine
 10
-1374.9128624345321
 20
-567.12336521195755
 30
0.0
 11
-1374.9128624345321
 21
-509.30730893110365
 31
0.0
  0
LINE
  5
AB
100
AcDbEntity
  8
0
370
              -2
390
0
  6
Continuous
 62
               0
100
AcDbLine
 10
-1374.9128624345321
 20
-607.12336521195755
 30
0.0
 11
-1374.9128624345321
 21
-567.12336521195755
 31
0.0
  0
CIRCLE
  5
AC
102
{ACAD_REACTORS
330
AD
102
}
100
AcDbEntity
  8
0
370
              -2
390
0
  6
Continuous
 62
               0
100
AcDbCircle
 10
-1374.9128624345321
 20
-607.12336521195755
 30
0.0
 40
7.499542236328125
  0
HATCH
  5
AD
100
AcDbEntity
  8
0
370
              -2
390
0
  6
Continuous
 62
               0
100
AcDbHatch
 10
0.0
 20
0.0
 30
0.0
210
0.0
220
0.0
230
1.0
  2
SOLID
 70
               1
 71
               1
 91
        1
 92
        1
 93
        1
 72
               2
 10
-1374.9128624345321
 20
-607.12336521195755
 40
7.499542236328125
 50
0.0
 51
360.0
 73
               0
 97
        1
330
AC
 75
               0
 76
               1
 98
        1
 10
0.0
 20
0.0
  0
CIRCLE
  5
AE
102
{ACAD_REACTORS
330
AF
102
}
100
AcDbEntity
  8
0
370
              -2
390
0
  6
Continuous
 62
               0
100
AcDbCircle
 10
-1374.9128624345321
 20
-567.12336521195755
 30
0.0
 40
7.499542236328125
  0
HATCH
  5
AF
100
AcDbEntity
  8
0
370
              -2
390
0
  6
Continuous
 62
               0
100
AcDbHatch
 10
0.0
 20
0.0
 30
0.0
210
0.0
220
0.0
230
1.0
  2
SOLID
 70
               1
 71
               1
 91
        1
 92
        1
 93
        1
 72
               2
 10
-1374.9128624345321
 20
-567.12336521195755
 40
7.499542236328125
 50
0.0
 51
360.0
 73
               0
 97
        1
330
AE
 75
               0
 76
               1
 98
        1
 10
0.0
 20
0.0
  0
MTEXT
  5
B0
100
AcDbEntity
  8
0
390
0
 62
               0
100
AcDbMText
 10
-1425.7292882157817
 20
-556.93230893110365
 30
0.0
 40
36.64892578125
 41
0.0
 71
               1
 72
               1
  1
40
  7
ＭＳゴシック
 11
0.0
 21
1.0
 31
0.0
 73
               1
 44
0.7828267384257843
  0
POINT
  5
B1
100
AcDbEntity
  8
Defpoints
370
               0
390
0
 62
               0
100
AcDbPoint
 10
-1270.9128624345321
 20
-567.12336521195755
 30
0.0
  0
POINT
  5
B2
100
AcDbEntity
  8
Defpoints
370
               0
390
0
 62
               0
100
AcDbPoint
 10
-1153.9280171479477
 20
-607.12336521195755
 30
0.0
  0
POINT
  5
B3
100
AcDbEntity
  8
Defpoints
370
               0
390
0
 62
               0
100
AcDbPoint
 10
-1374.9128624345321
 20
-607.12336521195755
 30
0.0
  0
ENDBLK
  5
B4
100
AcDbEntity
  8
notes
390
0
100
AcDbBlockEnd
  0
BLOCK
  5
B5
100
AcDbEntity
  8
notes
390
0
100
AcDbBlockBegin
  2
*D8
 70
               1
 10
0.0
 20
0.0
 30
0.0
  3
*D8
  1

  0
LINE
  5
B6
100
AcDbEntity
  8
0
370
              -2
390
0
  6
Continuous
 62
               0
100
AcDbLine
 10
230.86543492721648
 20
544.4680930747196
 30
0.0
 11
230.86543492721648
 21
431.9680930747196
 31
0.0
  0
LINE
  5
B7
100
AcDbEntity
  8
0
370
              -2
390
0
  6
Continuous
 62
               0
100
AcDbLine
 10
1310.8654349272183
 20
544.4680930747196
 30
0.0
 11
1310.8654349272183
 21
431.9680930747196
 31
0.0
  0
LINE
  5
B8
100
AcDbEntity
  8
0
370
              -2
390
0
  6
Continuous
 62
               0
100
AcDbLine
 10
230.86543492721648
 20
431.9680930747196
 30
0.0
 11
1310.8654349272183
 21
431.9680930747196
 31
0.0
  0
CIRCLE
  5
B9
102
{ACAD_REACTORS
330
BA
102
}
100
AcDbEntity
  8
0
370
              -2
390
0
  6
Continuous
 62
               0
100
AcDbCircle
 10
230.86543492721648
 20
431.9680930747196
 30
0.0
 40
7.499542236328125
  0
HATCH
  5
BA
100
AcDbEntity
  8
0
370
              -2
390
0
  6
Continuous
 62
               0
100
AcDbHatch
 10
0.0
 20
0.0
 30
0.0
210
0.0
220
0.0
230
1.0
  2
SOLID
 70
               1
 71
               1
 91
        1
 92
        1
 93
        1
 72
               2
 10
230.86543492721648
 20
431.9680930747196
 40
7.499542236328125
 50
0.0
 51
360.0
 73
               0
 97
        1
330
B9
 75
               0
 76
               1
 98
        1
 10
0.0
 20
0.0
  0
CIRCLE
  5
BB
102
{ACAD_REACTORS
330
BC
102
}
100
AcDbEntity
  8
0
370
              -2
390
0
  6
Continuous
 62
               0
100
AcDbCircle
 10
1310.8654349272183
 20
431.9680930747196
 30
0.0
 40
7.499542236328125
  0
HATCH
  5
BC
100
AcDbEntity
  8
0
370
              -2
390
0
  6
Continuous
 62
               0
100
AcDbHatch
 10
0.0
 20
0.0
 30
0.0
210
0.0
220
0.0
230
1.0
  2
SOLID
 70
               1
 71
               1
 91
        1
 92
        1
 93
        1
 72
               2
 10
1310.8654349272183
 20
431.9680930747196
 40
7.499542236328125
 50
0.0
 51
360.0
 73
               0
 97
        1
330
BB
 75
               0
 76
               1
 98
        1
 10
0.0
 20
0.0
  0
MTEXT
  5
BD
100
AcDbEntity
  8
0
390
0
 62
               0
100
AcDbMText
 10
723.24043492721739
 20
482.78451885596962
 30
0.0
 40
36.64892578125
 41
0.0
 71
               1
 72
               1
  1
1080
  7
ＭＳゴシック
 73
               1
 44
0.7828267384257843
  0
POINT
  5
BE
100
AcDbEntity
  8
Defpoints
370
               0
390
0
 62
               0
100
AcDbPoint
 10
1310.8654349272183
 20
581.9680930747196
 30
0.0
  0
POINT
  5
BF
100
AcDbEntity
  8
Defpoints
370
               0
390
0
 62
               0
100
AcDbPoint
 10
230.86543492721648
 20
581.9680930747196
 30
0.0
  0
POINT
  5
C0
100
AcDbEntity
  8
Defpoints
370
               0
390
0
 62
               0
100
AcDbPoint
 10
230.86543492721648
 20
431.9680930747196
 30
0.0
  0
ENDBLK
  5
C1
100
AcDbEntity
  8
notes
390
0
100
AcDbBlockEnd
  0
BLOCK
  5
C2
100
AcDbEntity
  8
notes
390
0
100
AcDbBlockBegin
  2
*D9
 70
               1
 10
0.0
 20
0.0
 30
0.0
  3
*D9
  1

  0
LINE
  5
C3
100
AcDbEntity
  8
0
370
              -2
390
0
  6
Continuous
 62
               0
100
AcDbLine
 10
1348.3654349272183
 20
1081.9680930747204
 30
0.0
 11
1445.0
 21
1081.9680930747204
 31
0.0
  0
LINE
  5
C4
100
AcDbEntity
  8
0
370
              -2
390
0
  6
Continuous
 62
               0
100
AcDbLine
 10
1348.3654349272183
 20
581.9680930747196
 30
0.0
 11
1445.0
 21
581.9680930747196
 31
0.0
  0
LINE
  5
C5
100
AcDbEntity
  8
0
370
              -2
390
0
  6
Continuous
 62
               0
100
AcDbLine
 10
1445.0
 20
1081.9680930747204
 30
0.0
 11
1445.0
 21
581.9680930747196
 31
0.0
  0
CIRCLE
  5
C6
102
{ACAD_REACTORS
330
C7
102
}
100
AcDbEntity
  8
0
370
              -2
390
0
  6
Continuous
 62
               0
100
AcDbCircle
 10
1445.0
 20
1081.9680930747204
 30
0.0
 40
7.499542236328125
  0
HATCH
  5
C7
100
AcDbEntity
  8
0
370
              -2
390
0
  6
Continuous
 62
               0
100
AcDbHatch
 10
0.0
 20
0.0
 30
0.0
210
0.0
220
0.0
230
1.0
  2
SOLID
 70
               1
 71
               1
 91
        1
 92
        1
 93
        1
 72
               2
 10
1445.0
 20
1081.9680930747204
 40
7.499542236328125
 50
0.0
 51
360.0
 73
               0
 97
        1
330
C6
 75
               0
 76
               1
 98
        1
 10
0.0
 20
0.0
  0
CIRCLE
  5
C8
102
{ACAD_REACTORS
330
C9
102
}
100
AcDbEntity
  8
0
370
              -2
390
0
  6
Continuous
 62
               0
100
AcDbCircle
 10
1445.0
 20
581.9680930747196
 30
0.0
 40
7.499542236328125
  0
HATCH
  5
C9
100
AcDbEntity
  8
0
370
              -2
390
0
  6
Continuous
 62
               0
100
AcDbHatch
 10
0.0
 20
0.0
 30
0.0
210
0.0
220
0.0
230
1.0
  2
SOLID
 70
               1
 71
               1
 91
        1
 92
        1
 93
        1
 72
               2
 10
1445.0
 20
581.9680930747196
 40
7.499542236328125
 50
0.0
 51
360.0
 73
               0
 97
        1
330
C8
 75
               0
 76
               1
 98
        1
 10
0.0
 20
0.0
  0
MTEXT
  5
CA
100
AcDbEntity
  8
0
390
0
 62
               0
100
AcDbMText
 10
1394.18357421875
 20
760.53058802819339
 30
0.0
 40
36.64892578125
 41
0.0
 71
               1
 72
               1
  1
500
  7
ＭＳゴシック
 11
0.0
 21
1.0
 31
0.0
 73
               1
 44
0.7828267384257843
  0
POINT
  5
CB
100
AcDbEntity
  8
Defpoints
370
               0
390
0
 62
               0
100
AcDbPoint
 10
1310.8654349272183
 20
581.9680930747196
 30
0.0
  0
POINT
  5
CC
100
AcDbEntity
  8
Defpoints
370
               0
390
0
 62
               0
100
AcDbPoint
 10
1310.8654349272183
 20
1081.9680930747204
 30
0.0
  0
POINT
  5
CD
100
AcDbEntity
  8
Defpoints
370
               0
390
0
 62
               0
100
AcDbPoint
 10
1445.0
 20
1081.9680930747204
 30
0.0
  0
ENDBLK
  5
CE
100
AcDbEntity
  8
notes
390
0
100
AcDbBlockEnd
  0
BLOCK
  5
CF
100
AcDbEntity
  8
notes
390
0
100
AcDbBlockBegin
  2
*D10
 70
               1
 10
0.0
 20
0.0
 30
0.0
  3
*D10
  1

  0
LINE
  5
D0
100
AcDbEntity
  8
0
370
              -2
390
0
  6
Continuous
 62
               0
100
AcDbLine
 10
1071.2937075914615
 20
-759.57989916453096
 30
0.0
 11
1071.2937075914615
 21
-827.0798991645346
 31
0.0
  0
LINE
  5
D1
100
AcDbEntity
  8
0
370
              -2
390
0
  6
Continuous
 62
               0
100
AcDbLine
 10
821.29370759145968
 20
-759.57989916453096
 30
0.0
 11
821.29370759145968
 21
-827.0798991645346
 31
0.0
  0
LINE
  5
D2
100
AcDbEntity
  8
0
370
              -2
390
0
  6
Continuous
 62
               0
100
AcDbLine
 10
1071.2937075914615
 20
-827.0798991645346
 30
0.0
 11
821.29370759145968
 21
-827.0798991645346
 31
0.0
  0
CIRCLE
  5
D3
102
{ACAD_REACTORS
330
D4
102
}
100
AcDbEntity
  8
0
370
              -2
390
0
  6
Continuous
 62
               0
100
AcDbCircle
 10
1071.2937075914615
 20
-827.0798991645346
 30
0.0
 40
7.499542236328125
  0
HATCH
  5
D4
100
AcDbEntity
  8
0
370
              -2
390
0
  6
Continuous
 62
               0
100
AcDbHatch
 10
0.0
 20
0.0
 30
0.0
210
0.0
220
0.0
230
1.0
  2
SOLID
 70
               1
 71
               1
 91
        1
 92
        1
 93
        1
 72
               2
 10
1071.2937075914615
 20
-827.0798991645346
 40
7.499542236328125
 50
0.0
 51
360.0
 73
               0
 97
        1
330
D3
 75
               0
 76
               1
 98
        1
 10
0.0
 20
0.0
  0
CIRCLE
  5
D5
102
{ACAD_REACTORS
330
D6
102
}
100
AcDbEntity
  8
0
370
              -2
390
0
  6
Continuous
 62
               0
100
AcDbCircle
 10
821.29370759145968
 20
-827.0798991645346
 30
0.0
 40
7.499542236328125
  0
HATCH
  5
D6
100
AcDbEntity
  8
0
370
              -2
390
0
  6
Continuous
 62
               0
100
AcDbHatch
 10
0.0
 20
0.0
 30
0.0
210
0.0
220
0.0
230
1.0
  2
SOLID
 70
               1
 71
               1
 91
        1
 92
        1
 93
        1
 72
               2
 10
821.29370759145968
 20
-827.0798991645346
 40
7.499542236328125
 50
0.0
 51
360.0
 73
               0
 97
        1
330
D5
 75
               0
 76
               1
 98
        1
 10
0.0
 20
0.0
  0
MTEXT
  5
D7
100
AcDbEntity
  8
0
390
0
 62
               0
100
AcDbMText
 10
910.5749550681976
 20
-776.26347338328458
 30
0.0
 40
36.64892578125
 41
0.0
 71
               1
 72
               1
  1
260
  7
ＭＳゴシック
 73
               1
 44
0.7828267384257843
  0
POINT
  5
D8
100
AcDbEntity
  8
Defpoints
370
               0
390
0
 62
               0
100
AcDbPoint
 10
821.29370759145968
 20
-722.07989916453096
 30
0.0
  0
POINT
  5
D9
100
AcDbEntity
  8
Defpoints
370
               0
390
0
 62
               0
100
AcDbPoint
 10
1071.2937075914615
 20
-722.07989916453096
 30
0.0
  0
POINT
  5
DA
100
AcDbEntity
  8
Defpoints
370
               0
390
0
 62
               0
100
AcDbPoint
 10
1071.2937075914615
 20
-827.0798991645346
 30
0.0
  0
ENDBLK
  5
DB
100
AcDbEntity
  8
notes
390
0
100
AcDbBlockEnd
  0
BLOCK
  5
DC
100
AcDbEntity
  8
notes
390
0
100
AcDbBlockBegin
  2
*D11
 70
               1
 10
0.0
 20
0.0
 30
0.0
  3
*D11
  1

  0
LINE
  5
DD
100
AcDbEntity
  8
0
370
              -2
390
0
  6
Continuous
 62
               0
100
AcDbLine
 10
1071.2937075914579
 20
-532.66248120490343
 30
0.0
 11
1071.2937075914579
 21
-467.16287547840818
 31
0.0
  0
LINE
  5
DE
100
AcDbEntity
  8
0
370
              -2
390
0
  6
Continuous
 62
               0
100
AcDbLine
 10
991.29370759146059
 20
-529.66298262652469
 30
0.0
 11
991.29370759146059
 21
-467.16287547840818
 31
0.0
  0
LINE
  5
DF
100
AcDbEntity
  8
0
370
              -2
390
0
  6
Continuous
 62
               0
100
AcDbLine
 10
1071.2937075914579
 20
-467.16287547840818
 30
0.0
 11
991.29370759146059
 21
-467.16287547840818
 31
0.0
  0
CIRCLE
  5
E0
102
{ACAD_REACTORS
330
E1
102
}
100
AcDbEntity
  8
0
370
              -2
390
0
  6
Continuous
 62
               0
100
AcDbCircle
 10
1071.2937075914579
 20
-467.16287547840818
 30
0.0
 40
7.499542236328125
  0
HATCH
  5
E1
100
AcDbEntity
  8
0
370
              -2
390
0
  6
Continuous
 62
               0
100
AcDbHatch
 10
0.0
 20
0.0
 30
0.0
210
0.0
220
0.0
230
1.0
  2
SOLID
 70
               1
 71
               1
 91
        1
 92
        1
 93
        1
 72
               2
 10
1071.2937075914579
 20
-467.16287547840818
 40
7.499542236328125
 50
0.0
 51
360.0
 73
               0
 97
        1
330
E0
 75
               0
 76
               1
 98
        1
 10
0.0
 20
0.0
  0
CIRCLE
  5
E2
102
{ACAD_REACTORS
330
E3
102
}
100
AcDbEntity
  8
0
370
              -2
390
0
  6
Continuous
 62
               0
100
AcDbCircle
 10
991.29370759146059
 20
-467.16287547840818
 30
0.0
 40
7.499542236328125
  0
HATCH
  5
E3
100
AcDbEntity
  8
0
370
              -2
390
0
  6
Continuous
 62
               0
100
AcDbHatch
 10
0.0
 20
0.0
 30
0.0
210
0.0
220
0.0
230
1.0
  2
SOLID
 70
               1
 71
               1
 91
        1
 92
        1
 93
        1
 72
               2
 10
991.29370759146059
 20
-467.16287547840818
 40
7.499542236328125
 50
0.0
 51
360.0
 73
               0
 97
        1
330
E2
 75
               0
 76
               1
 98
        1
 10
0.0
 20
0.0
  0
MTEXT
  5
E4
100
AcDbEntity
  8
0
390
0
 62
               0
100
AcDbMText
 10
1007.4812075914588
 20
-416.34644969715816
 30
0.0
 40
36.64892578125
 41
0.0
 71
               1
 72
               1
  1
80
  7
ＭＳゴシック
 73
               1
 44
0.7828267384257843
  0
POINT
  5
E5
100
AcDbEntity
  8
Defpoints
370
               0
390
0
 62
               0
100
AcDbPoint
 10
991.29370759146059
 20
-567.16298262652469
 30
0.0
  0
POINT
  5
E6
100
AcDbEntity
  8
Defpoints
370
               0
390
0
 62
               0
100
AcDbPoint
 10
1071.2937075914579
 20
-570.16248120490343
 30
0.0
  0
POINT
  5
E7
100
AcDbEntity
  8
Defpoints
370
               0
390
0
 62
               0
100
AcDbPoint
 10
1071.2937075914579
 20
-467.16287547840818
 30
0.0
  0
ENDBLK
  5
E8
100
AcDbEntity
  8
notes
390
0
100
AcDbBlockEnd
  0
BLOCK
  5
E9
100
AcDbEntity
  8
notes
390
0
100
AcDbBlockBegin
  2
*D12
 70
               1
 10
0.0
 20
0.0
 30
0.0
  3
*D12
  1

  0
LINE
  5
EA
100
AcDbEntity
  8
0
370
              -2
390
0
  6
Continuous
 62
               0
100
AcDbLine
 10
489.69867254984092
 20
-567.10470355237464
 30
0.0
 11
421.19933691232654
 21
-567.10470355237464
 31
0.0
  0
LINE
  5
EB
100
AcDbEntity
  8
0
370
              -2
390
0
  6
Continuous
 62
               0
100
AcDbLine
 10
490.25222749198474
 20
-667.13082537234402
 30
0.0
 11
421.19933691232654
 21
-667.13082537234402
 31
0.0
  0
LINE
  5
EC
100
AcDbEntity
  8
0
370
              -2
390
0
  6
Continuous
 62
               0
100
AcDbLine
 10
421.19933691232654
 20
-567.10470355237464
 30
0.0
 11
421.19933691232654
 21
-667.13082537234402
 31
0.0
  0
CIRCLE
  5
ED
102
{ACAD_REACTORS
330
EE
102
}
100
AcDbEntity
  8
0
370
              -2
390
0
  6
Continuous
 62
               0
100
AcDbCircle
 10
421.19933691232654
 20
-567.10470355237464
 30
0.0
 40
7.499542236328125
  0
HATCH
  5
EE
100
AcDbEntity
  8
0
370
              -2
390
0
  6
Continuous
 62
               0
100
AcDbHatch
 10
0.0
 20
0.0
 30
0.0
210
0.0
220
0.0
230
1.0
  2
SOLID
 70
               1
 71
               1
 91
        1
 92
        1
 93
        1
 72
               2
 10
421.19933691232654
 20
-567.10470355237464
 40
7.499542236328125
 50
0.0
 51
360.0
 73
               0
 97
        1
330
ED
 75
               0
 76
               1
 98
        1
 10
0.0
 20
0.0
  0
CIRCLE
  5
EF
102
{ACAD_REACTORS
330
F0
102
}
100
AcDbEntity
  8
0
370
              -2
390
0
  6
Continuous
 62
               0
100
AcDbCircle
 10
421.19933691232654
 20
-667.13082537234402
 30
0.0
 40
7.499542236328125
  0
HATCH
  5
F0
100
AcDbEntity
  8
0
370
              -2
390
0
  6
Continuous
 62
               0
100
AcDbHatch
 10
0.0
 20
0.0
 30
0.0
210
0.0
220
0.0
230
1.0
  2
SOLID
 70
               1
 71
               1
 91
        1
 92
        1
 93
        1
 72
               2
 10
421.19933691232654
 20
-667.13082537234402
 40
7.499542236328125
 50
0.0
 51
360.0
 73
               0
 97
        1
330
EF
 75
               0
 76
               1
 98
        1
 10
0.0
 20
0.0
  0
MTEXT
  5
F1
100
AcDbEntity
  8
0
390
0
 62
               0
100
AcDbMText
 10
370.38291113107698
 20
-652.83651698562255
 30
0.0
 40
36.64892578125
 41
0.0
 71
               1
 72
               1
  1
100
  7
ＭＳゴシック
 11
0.0
 21
1.0
 31
0.0
 73
               1
 44
0.7828267384257843
  0
POINT
  5
F2
100
AcDbEntity
  8
Defpoints
370
               0
390
0
 62
               0
100
AcDbPoint
 10
527.75222749198474
 20
-667.13082537234402
 30
0.0
  0
POINT
  5
F3
100
AcDbEntity
  8
Defpoints
370
               0
390
0
 62
               0
100
AcDbPoint
 10
527.19867254984092
 20
-567.10470355237464
 30
0.0
  0
POINT
  5
F4
100
AcDbEntity
  8
Defpoints
370
               0
390
0
 62
               0
100
AcDbPoint
 10
421.19933691232654
 20
-567.10470355237464
 30
0.0
  0
ENDBLK
  5
F5
100
AcDbEntity
  8
notes
390
0
100
AcDbBlockEnd
  0
BLOCK
  5
F6
100
AcDbEntity
  8
notes
390
0
100
AcDbBlockBegin
  2
*D13
 70
               1
 10
0.0
 20
0.0
 30
0.0
  3
*D13
  1

  0
LINE
  5
F7
100
AcDbEntity
  8
0
370
              -2
390
0
  6
Continuous
 62
               0
100
AcDbLine
 10
-39.412862434526687
 20
-567.12336521195755
 30
0.0
 11
26.087137565473313
 21
-567.12336521195755
 31
0.0
  0
LINE
  5
F8
100
AcDbEntity
  8
0
370
              -2
390
0
  6
Continuous
 62
               0
100
AcDbLine
 10
-311.42801714794768
 20
-727.12336521195755
 30
0.0
 11
26.087137565473313
 21
-727.12336521195755
 31
0.0
  0
LINE
  5
F9
100
AcDbEntity
  8
0
370
              -2
390
0
  6
Continuous
 62
               0
100
AcDbLine
 10
26.087137565473313
 20
-567.12336521195755
 30
0.0
 11
26.087137565473313
 21
-727.12336521195755
 31
0.0
  0
CIRCLE
  5
FA
102
{ACAD_REACTORS
330
FB
102
}
100
AcDbEntity
  8
0
370
              -2
390
0
  6
Continuous
 62
               0
100
AcDbCircle
 10
26.087137565473313
 20
-567.12336521195755
 30
0.0
 40
7.499542236328125
  0
HATCH
  5
FB
100
AcDbEntity
  8
0
370
              -2
390
0
  6
Continuous
 62
               0
100
AcDbHatch
 10
0.0
 20
0.0
 30
0.0
210
0.0
220
0.0
230
1.0
  2
SOLID
 70
               1
 71
               1
 91
        1
 92
        1
 93
        1
 72
               2
 10
26.087137565473313
 20
-567.12336521195755
 40
7.499542236328125
 50
0.0
 51
360.0
 73
               0
 97
        1
330
FA
 75
               0
 76
               1
 98
        1
 10
0.0
 20
0.0
  0
CIRCLE
  5
FC
102
{ACAD_REACTORS
330
FD
102
}
100
AcDbEntity
  8
0
370
              -2
390
0
  6
Continuous
 62
               0
100
AcDbCircle
 10
26.087137565473313
 20
-727.12336521195755
 30
0.0
 40
7.499542236328125
  0
HATCH
  5
FD
100
AcDbEntity
  8
0
370
              -2
390
0
  6
Continuous
 62
               0
100
AcDbHatch
 10
0.0
 20
0.0
 30
0.0
210
0.0
220
0.0
230
1.0
  2
SOLID
 70
               1
 71
               1
 91
        1
 92
        1
 93
        1
 72
               2
 10
26.087137565473313
 20
-727.12336521195755
 40
7.499542236328125
 50
0.0
 51
360.0
 73
               0
 97
        1
330
FC
 75
               0
 76
               1
 98
        1
 10
0.0
 20
0.0
  0
MTEXT
  5
FE
100
AcDbEntity
  8
0
390
0
 62
               0
100
AcDbMText
 10
-24.729288215776251
 20
-682.84211773522077
 30
0.0
 40
36.64892578125
 41
0.0
 71
               1
 72
               1
  1
160
  7
ＭＳゴシック
 11
0.0
 21
1.0
 31
0.0
 73
               1
 44
0.7828267384257843
  0
POINT
  5
FF
100
AcDbEntity
  8
Defpoints
370
               0
390
0
 62
               0
100
AcDbPoint
 10
-348.92801714794768
 20
-727.12336521195755
 30
0.0
  0
POINT
  5
100
100
AcDbEntity
  8
Defpoints
370
               0
390
0
 62
               0
100
AcDbPoint
 10
-76.912862434526687
 20
-567.12336521195755
 30
0.0
  0
POINT
  5
101
100
AcDbEntity
  8
Defpoints
370
               0
390
0
 62
               0
100
AcDbPoint
 10
26.087137565473313
 20
-567.12336521195755
 30
0.0
  0
ENDBLK
  5
102
100
AcDbEntity
  8
notes
390
0
100
AcDbBlockEnd
  0
BLOCK
  5
103
100
AcDbEntity
  8
notes
390
0
100
AcDbBlockBegin
  2
*D14
 70
               1
 10
0.0
 20
0.0
 30
0.0
  3
*D14
  1

  0
LINE
  5
104
100
AcDbEntity
  8
0
370
              -2
390
0
  6
Continuous
 62
               0
100
AcDbLine
 10
945.86543492722103
 20
764.46809307472051
 30
0.0
 11
945.86543492722103
 21
677.06769106889681
 31
0.0
  0
LINE
  5
105
100
AcDbEntity
  8
0
370
              -2
390
0
  6
Continuous
 62
               0
100
AcDbLine
 10
595.8654349272183
 20
764.46809307472051
 30
0.0
 11
595.8654349272183
 21
677.06769106889681
 31
0.0
  0
LINE
  5
106
100
AcDbEntity
  8
0
370
              -2
390
0
  6
Continuous
 62
               0
100
AcDbLine
 10
945.86543492722103
 20
677.06769106889681
 30
0.0
 11
595.8654349272183
 21
677.06769106889681
 31
0.0
  0
CIRCLE
  5
107
102
{ACAD_REACTORS
330
108
102
}
100
AcDbEntity
  8
0
370
              -2
390
0
  6
Continuous
 62
               0
100
AcDbCircle
 10
945.86543492722103
 20
677.06769106889681
 30
0.0
 40
7.499542236328125
  0
HATCH
  5
108
100
AcDbEntity
  8
0
370
              -2
390
0
  6
Continuous
 62
               0
100
AcDbHatch
 10
0.0
 20
0.0
 30
0.0
210
0.0
220
0.0
230
1.0
  2
SOLID
 70
               1
 71
               1
 91
        1
 92
        1
 93
        1
 72
               2
 10
945.86543492722103
 20
677.06769106889681
 40
7.499542236328125
 50
0.0
 51
360.0
 73
               0
 97
        1
330
107
 75
               0
 76
               1
 98
        1
 10
0.0
 20
0.0
  0
CIRCLE
  5
109
102
{ACAD_REACTORS
330
10A
102
}
100
AcDbEntity
  8
0
370
              -2
390
0
  6
Continuous
 62
               0
100
AcDbCircle
 10
595.8654349272183
 20
677.06769106889681
 30
0.0
 40
7.499542236328125
  0
HATCH
  5
10A
100
AcDbEntity
  8
0
370
              -2
390
0
  6
Continuous
 62
               0
100
AcDbHatch
 10
0.0
 20
0.0
 30
0.0
210
0.0
220
0.0
230
1.0
  2
SOLID
 70
               1
 71
               1
 91
        1
 92
        1
 93
        1
 72
               2
 10
595.8654349272183
 20
677.06769106889681
 40
7.499542236328125
 50
0.0
 51
360.0
 73
               0
 97
        1
330
109
 75
               0
 76
               1
 98
        1
 10
0.0
 20
0.0
  0
MTEXT
  5
10B
100
AcDbEntity
  8
0
390
0
 62
               0
100
AcDbMText
 10
735.14668240395622
 20
727.88411685014682
 30
0.0
 40
36.64892578125
 41
0.0
 71
               1
 72
               1
  1
350
  7
ＭＳゴシック
 73
               1
 44
0.7828267384257843
  0
POINT
  5
10C
100
AcDbEntity
  8
Defpoints
370
               0
390
0
 62
               0
100
AcDbPoint
 10
595.8654349272183
 20
801.96809307472051
 30
0.0
  0
POINT
  5
10D
100
AcDbEntity
  8
Defpoints
370
               0
390
0
 62
               0
100
AcDbPoint
 10
945.86543492722103
 20
801.96809307472051
 30
0.0
  0
POINT
  5
10E
100
AcDbEntity
  8
Defpoints
370
               0
390
0
 62
               0
100
AcDbPoint
 10
945.86543492722103
 20
677.06769106889681
 30
0.0
  0
ENDBLK
  5
10F
100
AcDbEntity
  8
notes
390
0
100
AcDbBlockEnd
  0
BLOCK
  5
110
100
AcDbEntity
  8
notes
390
0
100
AcDbBlockBegin
  2
*D15
 70
               1
 10
0.0
 20
0.0
 30
0.0
  3
*D15
  1

  0
LINE
  5
111
100
AcDbEntity
  8
0
370
              -2
390
0
  6
Continuous
 62
               0
100
AcDbLine
 10
983.36543492722103
 20
801.96809307472051
 30
0.0
 11
1021.0218403638637
 21
801.96809307472051
 31
0.0
  0
LINE
  5
112
100
AcDbEntity
  8
0
370
              -2
390
0
  6
Continuous
 62
               0
100
AcDbLine
 10
983.36543492722103
 20
1061.9680930747204
 30
0.0
 11
1021.0218403638637
 21
1061.9680930747204
 31
0.0
  0
LINE
  5
113
100
AcDbEntity
  8
0
370
              -2
390
0
  6
Continuous
 62
               0
100
AcDbLine
 10
1021.0218403638637
 20
801.96809307472051
 30
0.0
 11
1021.0218403638637
 21
1061.9680930747204
 31
0.0
  0
CIRCLE
  5
114
102
{ACAD_REACTORS
330
115
102
}
100
AcDbEntity
  8
0
370
              -2
390
0
  6
Continuous
 62
               0
100
AcDbCircle
 10
1021.0218403638637
 20
801.96809307472051
 30
0.0
 40
7.499542236328125
  0
HATCH
  5
115
100
AcDbEntity
  8
0
370
              -2
390
0
  6
Continuous
 62
               0
100
AcDbHatch
 10
0.0
 20
0.0
 30
0.0
210
0.0
220
0.0
230
1.0
  2
SOLID
 70
               1
 71
               1
 91
        1
 92
        1
 93
        1
 72
               2
 10
1021.0218403638637
 20
801.96809307472051
 40
7.499542236328125
 50
0.0
 51
360.0
 73
               0
 97
        1
330
114
 75
               0
 76
               1
 98
        1
 10
0.0
 20
0.0
  0
CIRCLE
  5
116
102
{ACAD_REACTORS
330
117
102
}
100
AcDbEntity
  8
0
370
              -2
390
0
  6
Continuous
 62
               0
100
AcDbCircle
 10
1021.0218403638637
 20
1061.9680930747204
 30
0.0
 40
7.499542236328125
  0
HATCH
  5
117
100
AcDbEntity
  8
0
370
              -2
390
0
  6
Continuous
 62
               0
100
AcDbHatch
 10
0.0
 20
0.0
 30
0.0
210
0.0
220
0.0
230
1.0
  2
SOLID
 70
               1
 71
               1
 91
        1
 92
        1
 93
        1
 72
               2
 10
1021.0218403638637
 20
1061.9680930747204
 40
7.499542236328125
 50
0.0
 51
360.0
 73
               0
 97
        1
330
116
 75
               0
 76
               1
 98
        1
 10
0.0
 20
0.0
  0
MTEXT
  5
118
100
AcDbEntity
  8
0
390
0
 62
               0
100
AcDbMText
 10
970.20541458261414
 20
896.24934055145718
 30
0.0
 40
36.64892578125
 41
0.0
 71
               1
 72
               1
  1
260
  7
ＭＳゴシック
 11
0.0
 21
1.0
 31
0.0
 73
               1
 44
0.7828267384257843
  0
POINT
  5
119
100
AcDbEntity
  8
Defpoints
370
               0
390
0
 62
               0
100
AcDbPoint
 10
945.86543492722103
 20
1061.9680930747204
 30
0.0
  0
POINT
  5
11A
100
AcDbEntity
  8
Defpoints
370
               0
390
0
 62
               0
100
AcDbPoint
 10
945.86543492722103
 20
801.96809307472051
 30
0.0
  0
POINT
  5
11B
100
AcDbEntity
  8
Defpoints
370
               0
390
0
 62
               0
100
AcDbPoint
 10
1021.0218403638637
 20
801.96809307472051
 30
0.0
  0
ENDBLK
  5
11C
100
AcDbEntity
  8
notes
390
0
100
AcDbBlockEnd
  0
BLOCK
  5
11D
100
AcDbEntity
  8
notes
390
0
100
AcDbBlockBegin
  2
*D16
 70
               1
 10
0.0
 20
0.0
 30
0.0
  3
*D16
  1

  0
LINE
  5
11E
100
AcDbEntity
  8
0
370
              -2
390
0
  6
Continuous
 62
               0
100
AcDbLine
 10
933.36543492722103
 20
1061.9680930747204
 30
0.0
 11
971.0218403638637
 21
1061.9680930747204
 31
0.0
  0
LINE
  5
11F
100
AcDbEntity
  8
0
370
              -2
390
0
  6
Continuous
 62
               0
100
AcDbLine
 10
933.36543492722103
 20
1081.9680930747204
 30
0.0
 11
971.0218403638637
 21
1081.9680930747204
 31
0.0
  0
LINE
  5
120
100
AcDbEntity
  8
0
370
              -2
390
0
  6
Continuous
 62
               0
100
AcDbLine
 10
971.0218403638637
 20
1081.9680930747204
 30
0.0
 11
971.0218403638637
 21
1146.6926910688965
 31
0.0
  0
LINE
  5
121
100
AcDbEntity
  8
0
370
              -2
390
0
  6
Continuous
 62
               0
100
AcDbLine
 10
971.0218403638637
 20
1061.9680930747204
 30
0.0
 11
971.0218403638637
 21
1081.9680930747204
 31
0.0
  0
CIRCLE
  5
122
102
{ACAD_REACTORS
330
123
102
}
100
AcDbEntity
  8
0
370
              -2
390
0
  6
Continuous
 62
               0
100
AcDbCircle
 10
971.0218403638637
 20
1061.9680930747204
 30
0.0
 40
7.499542236328125
  0
HATCH
  5
123
100
AcDbEntity
  8
0
370
              -2
390
0
  6
Continuous
 62
               0
100
AcDbHatch
 10
0.0
 20
0.0
 30
0.0
210
0.0
220
0.0
230
1.0
  2
SOLID
 70
               1
 71
               1
 91
        1
 92
        1
 93
        1
 72
               2
 10
971.0218403638637
 20
1061.9680930747204
 40
7.499542236328125
 50
0.0
 51
360.0
 73
               0
 97
        1
330
122
 75
               0
 76
               1
 98
        1
 10
0.0
 20
0.0
  0
CIRCLE
  5
124
102
{ACAD_REACTORS
330
125
102
}
100
AcDbEntity
  8
0
370
              -2
390
0
  6
Continuous
 62
               0
100
AcDbCircle
 10
971.0218403638637
 20
1081.9680930747204
 30
0.0
 40
7.499542236328125
  0
HATCH
  5
125
100
AcDbEntity
  8
0
370
              -2
390
0
  6
Continuous
 62
               0
100
AcDbHatch
 10
0.0
 20
0.0
 30
0.0
210
0.0
220
0.0
230
1.0
  2
SOLID
 70
               1
 71
               1
 91
        1
 92
        1
 93
        1
 72
               2
 10
971.0218403638637
 20
1081.9680930747204
 40
7.499542236328125
 50
0.0
 51
360.0
 73
               0
 97
        1
330
124
 75
               0
 76
               1
 98
        1
 10
0.0
 20
0.0
  0
MTEXT
  5
126
100
AcDbEntity
  8
0
390
0
 62
               0
100
AcDbMText
 10
920.20541458261414
 20
1099.0676910688965
 30
0.0
 40
36.64892578125
 41
0.0
 71
               1
 72
               1
  1
20
  7
ＭＳゴシック
 11
0.0
 21
1.0
 31
0.0
 73
               1
 44
0.7828267384257843
  0
POINT
  5
127
100
AcDbEntity
  8
Defpoints
370
               0
390
0
 62
               0
100
AcDbPoint
 10
895.86543492722103
 20
1081.9680930747204
 30
0.0
  0
POINT
  5
128
100
AcDbEntity
  8
Defpoints
370
               0
390
0
 62
               0
100
AcDbPoint
 10
895.86543492722103
 20
1061.9680930747204
 30
0.0
  0
POINT
  5
129
100
AcDbEntity
  8
Defpoints
370
               0
390
0
 62
               0
100
AcDbPoint
 10
971.0218403638637
 20
1061.9680930747204
 30
0.0
  0
ENDBLK
  5
12A
100
AcDbEntity
  8
notes
390
0
100
AcDbBlockEnd
  0
BLOCK
  5
12B
100
AcDbEntity
  8
notes
390
0
100
AcDbBlockBegin
  2
*D17
 70
               1
 10
0.0
 20
0.0
 30
0.0
  3
*D17
  1

  0
LINE
  5
12C
100
AcDbEntity
  8
0
370
              -2
390
0
  6
Continuous
 62
               0
100
AcDbLine
 10
452.75222749198474
 20
-667.13082537234402
 30
0.0
 11
421.19933691232654
 21
-667.13082537234402
 31
0.0
  0
LINE
  5
12D
100
AcDbEntity
  8
0
370
              -2
390
0
  6
Continuous
 62
               0
100
AcDbLine
 10
675.6373021548161
 20
-727.13082537234402
 30
0.0
 11
421.19933691232654
 21
-727.13082537234402
 31
0.0
  0
LINE
  5
12E
100
AcDbEntity
  8
0
370
              -2
390
0
  6
Continuous
 62
               0
100
AcDbLine
 10
421.19933691232654
 20
-667.13082537234402
 30
0.0
 11
421.19933691232654
 21
-727.13082537234402
 31
0.0
  0
CIRCLE
  5
12F
102
{ACAD_REACTORS
330
130
102
}
100
AcDbEntity
  8
0
370
              -2
390
0
  6
Continuous
 62
               0
100
AcDbCircle
 10
421.19933691232654
 20
-667.13082537234402
 30
0.0
 40
7.499542236328125
  0
HATCH
  5
130
100
AcDbEntity
  8
0
370
              -2
390
0
  6
Continuous
 62
               0
100
AcDbHatch
 10
0.0
 20
0.0
 30
0.0
210
0.0
220
0.0
230
1.0
  2
SOLID
 70
               1
 71
               1
 91
        1
 92
        1
 93
        1
 72
               2
 10
421.19933691232654
 20
-667.13082537234402
 40
7.499542236328125
 50
0.0
 51
360.0
 73
               0
 97
        1
330
12F
 75
               0
 76
               1
 98
        1
 10
0.0
 20
0.0
  0
CIRCLE
  5
131
102
{ACAD_REACTORS
330
132
102
}
100
AcDbEntity
  8
0
370
              -2
390
0
  6
Continuous
 62
               0
100
AcDbCircle
 10
421.19933691232654
 20
-727.13082537234402
 30
0.0
 40
7.499542236328125
  0
HATCH
  5
132
100
AcDbEntity
  8
0
370
              -2
390
0
  6
Continuous
 62
               0
100
AcDbHatch
 10
0.0
 20
0.0
 30
0.0
210
0.0
220
0.0
230
1.0
  2
SOLID
 70
               1
 71
               1
 91
        1
 92
        1
 93
        1
 72
               2
 10
421.19933691232654
 20
-727.13082537234402
 40
7.499542236328125
 50
0.0
 51
360.0
 73
               0
 97
        1
330
131
 75
               0
 76
               1
 98
        1
 10
0.0
 20
0.0
  0
MTEXT
  5
133
100
AcDbEntity
  8
0
390
0
 62
               0
100
AcDbMText
 10
370.38291113107698
 20
-720.94332537234402
 30
0.0
 40
36.64892578125
 41
0.0
 71
               1
 72
               1
  1
60
  7
ＭＳゴシック
 11
0.0
 21
1.0
 31
0.0
 73
               1
 44
0.7828267384257843
  0
POINT
  5
134
100
AcDbEntity
  8
Defpoints
370
               0
390
0
 62
               0
100
AcDbPoint
 10
713.1373021548161
 20
-727.13082537234402
 30
0.0
  0
POINT
  5
135
100
AcDbEntity
  8
Defpoints
370
               0
390
0
 62
               0
100
AcDbPoint
 10
490.25222749198474
 20
-667.13082537234402
 30
0.0
  0
POINT
  5
136
100
AcDbEntity
  8
Defpoints
370
               0
390
0
 62
               0
100
AcDbPoint
 10
421.19933691232654
 20
-667.13082537234402
 30
0.0
  0
ENDBLK
  5
137
100
AcDbEntity
  8
notes
390
0
100
AcDbBlockEnd
  0
BLOCK
  5
138
100
AcDbEntity
  8
notes
390
0
100
AcDbBlockBegin
  2
*D18
 70
               1
 10
0.0
 20
0.0
 30
0.0
  3
*D18
  1

  0
LINE
  5
139
100
AcDbEntity
  8
0
370
              -2
390
0
  6
Continuous
 62
               0
100
AcDbLine
 10
1071.2937075914615
 20
-759.57989916453005
 30
0.0
 11
1071.2937075914615
 21
-902.07989916453369
 31
0.0
  0
LINE
  5
13A
100
AcDbEntity
  8
0
370
              -2
390
0
  6
Continuous
 62
               0
100
AcDbLine
 10
676.29370759145968
 20
-760.63772607221415
 30
0.0
 11
676.29370759145968
 21
-902.07989916453369
 31
0.0
  0
LINE
  5
13B
100
AcDbEntity
  8
0
370
              -2
390
0
  6
Continuous
 62
               0
100
AcDbLine
 10
1071.2937075914615
 20
-902.07989916453369
 30
0.0
 11
676.29370759145968
 21
-902.07989916453369
 31
0.0
  0
CIRCLE
  5
13C
102
{ACAD_REACTORS
330
13D
102
}
100
AcDbEntity
  8
0
370
              -2
390
0
  6
Continuous
 62
               0
100
AcDbCircle
 10
1071.2937075914615
 20
-902.07989916453369
 30
0.0
 40
7.499542236328125
  0
HATCH
  5
13D
100
AcDbEntity
  8
0
370
              -2
390
0
  6
Continuous
 62
               0
100
AcDbHatch
 10
0.0
 20
0.0
 30
0.0
210
0.0
220
0.0
230
1.0
  2
SOLID
 70
               1
 71
               1
 91
        1
 92
        1
 93
        1
 72
               2
 10
1071.2937075914615
 20
-902.07989916453369
 40
7.499542236328125
 50
0.0
 51
360.0
 73
               0
 97
        1
330
13C
 75
               0
 76
               1
 98
        1
 10
0.0
 20
0.0
  0
CIRCLE
  5
13E
102
{ACAD_REACTORS
330
13F
102
}
100
AcDbEntity
  8
0
370
              -2
390
0
  6
Continuous
 62
               0
100
AcDbCircle
 10
676.29370759145968
 20
-902.07989916453369
 30
0.0
 40
7.499542236328125
  0
HATCH
  5
13F
100
AcDbEntity
  8
0
370
              -2
390
0
  6
Continuous
 62
               0
100
AcDbHatch
 10
0.0
 20
0.0
 30
0.0
210
0.0
220
0.0
230
1.0
  2
SOLID
 70
               1
 71
               1
 91
        1
 92
        1
 93
        1
 72
               2
 10
676.29370759145968
 20
-902.07989916453369
 40
7.499542236328125
 50
0.0
 51
360.0
 73
               0
 97
        1
330
13E
 75
               0
 76
               1
 98
        1
 10
0.0
 20
0.0
  0
MTEXT
  5
140
100
AcDbEntity
  8
0
390
0
 62
               0
100
AcDbMText
 10
838.0749550681976
 20
-851.26347338328367
 30
0.0
 40
36.64892578125
 41
0.0
 71
               1
 72
               1
  1
365
  7
ＭＳゴシック
 73
               1
 44
0.7828267384257843
  0
POINT
  5
141
100
AcDbEntity
  8
Defpoints
370
               0
390
0
 62
               0
100
AcDbPoint
 10
676.29370759145968
 20
-723.13772607221415
 30
0.0
  0
POINT
  5
142
100
AcDbEntity
  8
Defpoints
370
               0
390
0
 62
               0
100
AcDbPoint
 10
1071.2937075914615
 20
-722.07989916453005
 30
0.0
  0
POINT
  5
143
100
AcDbEntity
  8
Defpoints
370
               0
390
0
 62
               0
100
AcDbPoint
 10
1071.2937075914615
 20
-902.07989916453369
 30
0.0
  0
ENDBLK
  5
144
100
AcDbEntity
  8
notes
390
0
100
AcDbBlockEnd
  0
BLOCK
  5
145
100
AcDbEntity
  8
notes
390
0
100
AcDbBlockBegin
  2
*D19
 70
               1
 10
0.0
 20
0.0
 30
0.0
  3
*D19
  1

  0
LINE
  5
146
100
AcDbEntity
  8
0
370
              -2
390
0
  6
Continuous
 62
               0
100
AcDbLine
 10
-1273.9305326722388
 20
1116.2247775887031
 30
0.0
 11
-1273.9305326722388
 21
1269.0676910688958
 31
0.0
  0
LINE
  5
147
100
AcDbEntity
  8
0
370
              -2
390
0
  6
Continuous
 62
               0
100
AcDbLine
 10
-73.930532672235131
 20
1116.2247775887031
 30
0.0
 11
-73.930532672235131
 21
1269.0676910688958
 31
0.0
  0
LINE
  5
148
100
AcDbEntity
  8
0
370
              -2
390
0
  6
Continuous
 62
               0
100
AcDbLine
 10
-1273.9305326722388
 20
1269.0676910688958
 30
0.0
 11
-73.930532672235131
 21
1269.0676910688958
 31
0.0
  0
CIRCLE
  5
149
102
{ACAD_REACTORS
330
14A
102
}
100
AcDbEntity
  8
0
370
              -2
390
0
  6
Continuous
 62
               0
100
AcDbCircle
 10
-1273.9305326722388
 20
1269.0676910688958
 30
0.0
 40
7.499542236328125
  0
HATCH
  5
14A
100
AcDbEntity
  8
0
370
              -2
390
0
  6
Continuous
 62
               0
100
AcDbHatch
 10
0.0
 20
0.0
 30
0.0
210
0.0
220
0.0
230
1.0
  2
SOLID
 70
               1
 71
               1
 91
        1
 92
        1
 93
        1
 72
               2
 10
-1273.9305326722388
 20
1269.0676910688958
 40
7.499542236328125
 50
0.0
 51
360.0
 73
               0
 97
        1
330
149
 75
               0
 76
               1
 98
        1
 10
0.0
 20
0.0
  0
CIRCLE
  5
14B
102
{ACAD_REACTORS
330
14C
102
}
100
AcDbEntity
  8
0
370
              -2
390
0
  6
Continuous
 62
               0
100
AcDbCircle
 10
-73.930532672235131
 20
1269.0676910688958
 30
0.0
 40
7.499542236328125
  0
HATCH
  5
14C
100
AcDbEntity
  8
0
370
              -2
390
0
  6
Continuous
 62
               0
100
AcDbHatch
 10
0.0
 20
0.0
 30
0.0
210
0.0
220
0.0
230
1.0
  2
SOLID
 70
               1
 71
               1
 91
        1
 92
        1
 93
        1
 72
               2
 10
-73.930532672235131
 20
1269.0676910688958
 40
7.499542236328125
 50
0.0
 51
360.0
 73
               0
 97
        1
330
14B
 75
               0
 76
               1
 98
        1
 10
0.0
 20
0.0
  0
MTEXT
  5
14D
100
AcDbEntity
  8
0
390
0
 62
               0
100
AcDbMText
 10
-721.55553267223695
 20
1319.8841168501458
 30
0.0
 40
36.64892578125
 41
0.0
 71
               1
 72
               1
  1
1200
  7
ＭＳゴシック
 73
               1
 44
0.7828267384257843
  0
POINT
  5
14E
100
AcDbEntity
  8
Defpoints
370
               0
390
0
 62
               0
100
AcDbPoint
 10
-73.930532672235131
 20
1078.7247775887031
 30
0.0
  0
POINT
  5
14F
100
AcDbEntity
  8
Defpoints
370
               0
390
0
 62
               0
100
AcDbPoint
 10
-1273.9305326722388
 20
1078.7247775887031
 30
0.0
  0
POINT
  5
150
100
AcDbEntity
  8
Defpoints
370
               0
390
0
 62
               0
100
AcDbPoint
 10
-1273.9305326722388
 20
1269.0676910688958
 30
0.0
  0
ENDBLK
  5
151
100
AcDbEntity
  8
notes
390
0
100
AcDbBlockEnd
  0
BLOCK
  5
152
100
AcDbEntity
  8
notes
390
0
100
AcDbBlockBegin
  2
*D20
 70
               1
 10
0.0
 20
0.0
 30
0.0
  3
*D20
  1

  0
LINE
  5
153
100
AcDbEntity
  8
0
370
              -2
390
0
  6
Continuous
 62
               0
100
AcDbLine
 10
-773.93053267223695
 20
1047.3085136153609
 30
0.0
 11
-773.93053267223695
 21
1181.8681109220365
 31
0.0
  0
LINE
  5
154
100
AcDbEntity
  8
0
370
              -2
390
0
  6
Continuous
 62
               0
100
AcDbLine
 10
-673.93053267223695
 20
1049.8085136153609
 30
0.0
 11
-673.93053267223695
 21
1181.8681109220365
 31
0.0
  0
LINE
  5
155
100
AcDbEntity
  8
0
370
              -2
390
0
  6
Continuous
 62
               0
100
AcDbLine
 10
-773.93053267223695
 20
1181.8681109220365
 30
0.0
 11
-673.93053267223695
 21
1181.8681109220365
 31
0.0
  0
CIRCLE
  5
156
102
{ACAD_REACTORS
330
157
102
}
100
AcDbEntity
  8
0
370
              -2
390
0
  6
Continuous
 62
               0
100
AcDbCircle
 10
-773.93053267223695
 20
1181.8681109220365
 30
0.0
 40
7.499542236328125
  0
HATCH
  5
157
100
AcDbEntity
  8
0
370
              -2
390
0
  6
Continuous
 62
               0
100
AcDbHatch
 10
0.0
 20
0.0
 30
0.0
210
0.0
220
0.0
230
1.0
  2
SOLID
 70
               1
 71
               1
 91
        1
 92
        1
 93
        1
 72
               2
 10
-773.93053267223695
 20
1181.8681109220365
 40
7.499542236328125
 50
0.0
 51
360.0
 73
               0
 97
        1
330
156
 75
               0
 76
               1
 98
        1
 10
0.0
 20
0.0
  0
CIRCLE
  5
158
102
{ACAD_REACTORS
330
159
102
}
100
AcDbEntity
  8
0
370
              -2
390
0
  6
Continuous
 62
               0
100
AcDbCircle
 10
-673.93053267223695
 20
1181.8681109220365
 30
0.0
 40
7.499542236328125
  0
HATCH
  5
159
100
AcDbEntity
  8
0
370
              -2
390
0
  6
Continuous
 62
               0
100
AcDbHatch
 10
0.0
 20
0.0
 30
0.0
210
0.0
220
0.0
230
1.0
  2
SOLID
 70
               1
 71
               1
 91
        1
 92
        1
 93
        1
 72
               2
 10
-673.93053267223695
 20
1181.8681109220365
 40
7.499542236328125
 50
0.0
 51
360.0
 73
               0
 97
        1
330
158
 75
               0
 76
               1
 98
        1
 10
0.0
 20
0.0
  0
MTEXT
  5
15A
100
AcDbEntity
  8
0
390
0
 62
               0
100
AcDbMText
 10
-759.64928519549994
 20
1232.6845367032865
 30
0.0
 40
36.64892578125
 41
0.0
 71
               1
 72
               1
  1
100
  7
ＭＳゴシック
 73
               1
 44
0.7828267384257843
  0
POINT
  5
15B
100
AcDbEntity
  8
Defpoints
370
               0
390
0
 62
               0
100
AcDbPoint
 10
-673.93053267223695
 20
1012.308513615361
 30
0.0
  0
POINT
  5
15C
100
AcDbEntity
  8
Defpoints
370
               0
390
0
 62
               0
100
AcDbPoint
 10
-773.93053267223695
 20
1009.808513615361
 30
0.0
  0
POINT
  5
15D
100
AcDbEntity
  8
Defpoints
370
               0
390
0
 62
               0
100
AcDbPoint
 10
-773.93053267223695
 20
1181.8681109220365
 30
0.0
  0
ENDBLK
  5
15E
100
AcDbEntity
  8
notes
390
0
100
AcDbBlockEnd
  0
BLOCK
  5
15F
100
AcDbEntity
  8
notes
390
0
100
AcDbBlockBegin
  2
*D21
 70
               1
 10
0.0
 20
0.0
 30
0.0
  3
*D21
  1

  0
LINE
  5
160
100
AcDbEntity
  8
0
370
              -2
390
0
  6
Continuous
 62
               0
100
AcDbLine
 10
-673.93053267223695
 20
1049.8085136153609
 30
0.0
 11
-673.93053267223695
 21
1181.9680930747204
 31
0.0
  0
LINE
  5
161
100
AcDbEntity
  8
0
370
              -2
390
0
  6
Continuous
 62
               0
100
AcDbLine
 10
-573.93053267223695
 20
1047.3085136153609
 30
0.0
 11
-573.93053267223695
 21
1181.9680930747204
 31
0.0
  0
LINE
  5
162
100
AcDbEntity
  8
0
370
              -2
390
0
  6
Continuous
 62
               0
100
AcDbLine
 10
-673.93053267223695
 20
1181.9680930747204
 30
0.0
 11
-573.93053267223695
 21
1181.9680930747204
 31
0.0
  0
CIRCLE
  5
163
102
{ACAD_REACTORS
330
164
102
}
100
AcDbEntity
  8
0
370
              -2
390
0
  6
Continuous
 62
               0
100
AcDbCircle
 10
-673.93053267223695
 20
1181.9680930747204
 30
0.0
 40
7.499542236328125
  0
HATCH
  5
164
100
AcDbEntity
  8
0
370
              -2
390
0
  6
Continuous
 62
               0
100
AcDbHatch
 10
0.0
 20
0.0
 30
0.0
210
0.0
220
0.0
230
1.0
  2
SOLID
 70
               1
 71
               1
 91
        1
 92
        1
 93
        1
 72
               2
 10
-673.93053267223695
 20
1181.9680930747204
 40
7.499542236328125
 50
0.0
 51
360.0
 73
               0
 97
        1
330
163
 75
               0
 76
               1
 98
        1
 10
0.0
 20
0.0
  0
CIRCLE
  5
165
102
{ACAD_REACTORS
330
166
102
}
100
AcDbEntity
  8
0
370
              -2
390
0
  6
Continuous
 62
               0
100
AcDbCircle
 10
-573.93053267223695
 20
1181.9680930747204
 30
0.0
 40
7.499542236328125
  0
HATCH
  5
166
100
AcDbEntity
  8
0
370
              -2
390
0
  6
Continuous
 62
               0
100
AcDbHatch
 10
0.0
 20
0.0
 30
0.0
210
0.0
220
0.0
230
1.0
  2
SOLID
 70
               1
 71
               1
 91
        1
 92
        1
 93
        1
 72
               2
 10
-573.93053267223695
 20
1181.9680930747204
 40
7.499542236328125
 50
0.0
 51
360.0
 73
               0
 97
        1
330
165
 75
               0
 76
               1
 98
        1
 10
0.0
 20
0.0
  0
MTEXT
  5
167
100
AcDbEntity
  8
0
390
0
 62
               0
100
AcDbMText
 10
-659.64928519549994
 20
1232.7845188559704
 30
0.0
 40
36.64892578125
 41
0.0
 71
               1
 72
               1
  1
100
  7
ＭＳゴシック
 73
               1
 44
0.7828267384257843
  0
POINT
  5
168
100
AcDbEntity
  8
Defpoints
370
               0
390
0
 62
               0
100
AcDbPoint
 10
-573.93053267223695
 20
1009.808513615361
 30
0.0
  0
POINT
  5
169
100
AcDbEntity
  8
Defpoints
370
               0
390
0
 62
               0
100
AcDbPoint
 10
-673.93053267223695
 20
1012.308513615361
 30
0.0
  0
POINT
  5
16A
100
AcDbEntity
  8
Defpoints
370
               0
390
0
 62
               0
100
AcDbPoint
 10
-673.93053267223695
 20
1181.9680930747204
 30
0.0
  0
ENDBLK
  5
16B
100
AcDbEntity
  8
notes
390
0
100
AcDbBlockEnd
  0
BLOCK
  5
16C
100
AcDbEntity
  8
notes
390
0
100
AcDbBlockBegin
  2
*D22
 70
               1
 10
0.0
 20
0.0
 30
0.0
  3
*D22
  1

  0
LINE
  5
16D
100
AcDbEntity
  8
0
370
              -2
390
0
  6
Continuous
 62
               0
100
AcDbLine
 10
-39.430532672235131
 20
1081.9680930747204
 30
0.0
 11
26.069467327764869
 21
1081.9680930747204
 31
0.0
  0
LINE
  5
16E
100
AcDbEntity
  8
0
370
              -2
390
0
  6
Continuous
 62
               0
100
AcDbLine
 10
-92.145687385655037
 20
531.9680930747196
 30
0.0
 11
26.069467327764869
 21
531.9680930747196
 31
0.0
  0
LINE
  5
16F
100
AcDbEntity
  8
0
370
              -2
390
0
  6
Continuous
 62
               0
100
AcDbLine
 10
26.069467327764869
 20
1081.9680930747204
 30
0.0
 11
26.069467327764869
 21
531.9680930747196
 31
0.0
  0
CIRCLE
  5
170
102
{ACAD_REACTORS
330
171
102
}
100
AcDbEntity
  8
0
370
              -2
390
0
  6
Continuous
 62
               0
100
AcDbCircle
 10
26.069467327764869
 20
1081.9680930747204
 30
0.0
 40
7.499542236328125
  0
HATCH
  5
171
100
AcDbEntity
  8
0
370
              -2
390
0
  6
Continuous
 62
               0
100
AcDbHatch
 10
0.0
 20
0.0
 30
0.0
210
0.0
220
0.0
230
1.0
  2
SOLID
 70
               1
 71
               1
 91
        1
 92
        1
 93
        1
 72
               2
 10
26.069467327764869
 20
1081.9680930747204
 40
7.499542236328125
 50
0.0
 51
360.0
 73
               0
 97
        1
330
170
 75
               0
 76
               1
 98
        1
 10
0.0
 20
0.0
  0
CIRCLE
  5
172
102
{ACAD_REACTORS
330
173
102
}
100
AcDbEntity
  8
0
370
              -2
390
0
  6
Continuous
 62
               0
100
AcDbCircle
 10
26.069467327764869
 20
531.9680930747196
 30
0.0
 40
7.499542236328125
  0
HATCH
  5
173
100
AcDbEntity
  8
0
370
              -2
390
0
  6
Continuous
 62
               0
100
AcDbHatch
 10
0.0
 20
0.0
 30
0.0
210
0.0
220
0.0
230
1.0
  2
SOLID
 70
               1
 71
               1
 91
        1
 92
        1
 93
        1
 72
               2
 10
26.069467327764869
 20
531.9680930747196
 40
7.499542236328125
 50
0.0
 51
360.0
 73
               0
 97
        1
330
172
 75
               0
 76
               1
 98
        1
 10
0.0
 20
0.0
  0
MTEXT
  5
174
100
AcDbEntity
  8
0
390
0
 62
               0
100
AcDbMText
 10
-24.746958453484694
 20
771.24934055145673
 30
0.0
 40
36.64892578125
 41
0.0
 71
               1
 72
               1
  1
550
  7
ＭＳゴシック
 11
0.0
 21
1.0
 31
0.0
 73
               1
 44
0.7828267384257843
  0
POINT
  5
175
100
AcDbEntity
  8
Defpoints
370
               0
390
0
 62
               0
100
AcDbPoint
 10
-129.64568738565504
 20
531.9680930747196
 30
0.0
  0
POINT
  5
176
100
AcDbEntity
  8
Defpoints
370
               0
390
0
 62
               0
100
AcDbPoint
 10
-76.930532672235131
 20
1081.9680930747204
 30
0.0
  0
POINT
  5
177
100
AcDbEntity
  8
Defpoints
370
               0
390
0
 62
               0
100
AcDbPoint
 10
26.069467327764869
 20
1081.9680930747204
 30
0.0
  0
ENDBLK
  5
178
100
AcDbEntity
  8
notes
390
0
100
AcDbBlockEnd
  0
BLOCK
  5
179
100
AcDbEntity
  8
notes
390
0
100
AcDbBlockBegin
  2
*D23
 70
               1
 10
0.0
 20
0.0
 30
0.0
  3
*D23
  1

  0
LINE
  5
17A
100
AcDbEntity
  8
0
370
              -2
390
0
  6
Continuous
 62
               0
100
AcDbLine
 10
-998.93053267223331
 20
494.4680930747196
 30
0.0
 11
-998.93053267223331
 21
431.9680930747196
 31
0.0
  0
LINE
  5
17B
100
AcDbEntity
  8
0
370
              -2
390
0
  6
Continuous
 62
               0
100
AcDbLine
 10
-348.93053267223695
 20
494.4680930747196
 30
0.0
 11
-348.93053267223695
 21
431.9680930747196
 31
0.0
  0
LINE
  5
17C
100
AcDbEntity
  8
0
370
              -2
390
0
  6
Continuous
 62
               0
100
AcDbLine
 10
-998.93053267223331
 20
431.9680930747196
 30
0.0
 11
-348.93053267223695
 21
431.9680930747196
 31
0.0
  0
CIRCLE
  5
17D
102
{ACAD_REACTORS
330
17E
102
}
100
AcDbEntity
  8
0
370
              -2
390
0
  6
Continuous
 62
               0
100
AcDbCircle
 10
-998.93053267223331
 20
431.9680930747196
 30
0.0
 40
7.499542236328125
  0
HATCH
  5
17E
100
AcDbEntity
  8
0
370
              -2
390
0
  6
Continuous
 62
               0
100
AcDbHatch
 10
0.0
 20
0.0
 30
0.0
210
0.0
220
0.0
230
1.0
  2
SOLID
 70
               1
 71
               1
 91
        1
 92
        1
 93
        1
 72
               2
 10
-998.93053267223331
 20
431.9680930747196
 40
7.499542236328125
 50
0.0
 51
360.0
 73
               0
 97
        1
330
17D
 75
               0
 76
               1
 98
        1
 10
0.0
 20
0.0
  0
CIRCLE
  5
17F
102
{ACAD_REACTORS
330
180
102
}
100
AcDbEntity
  8
0
370
              -2
390
0
  6
Continuous
 62
               0
100
AcDbCircle
 10
-348.93053267223695
 20
431.9680930747196
 30
0.0
 40
7.499542236328125
  0
HATCH
  5
180
100
AcDbEntity
  8
0
370
              -2
390
0
  6
Continuous
 62
               0
100
AcDbHatch
 10
0.0
 20
0.0
 30
0.0
210
0.0
220
0.0
230
1.0
  2
SOLID
 70
               1
 71
               1
 91
        1
 92
        1
 93
        1
 72
               2
 10
-348.93053267223695
 20
431.9680930747196
 40
7.499542236328125
 50
0.0
 51
360.0
 73
               0
 97
        1
330
17F
 75
               0
 76
               1
 98
        1
 10
0.0
 20
0.0
  0
MTEXT
  5
181
100
AcDbEntity
  8
0
390
0
 62
               0
100
AcDbMText
 10
-709.64928519549812
 20
482.78451885596962
 30
0.0
 40
36.64892578125
 41
0.0
 71
               1
 72
               1
  1
650
  7
ＭＳゴシック
 73
               1
 44
0.7828267384257843
  0
POINT
  5
182
100
AcDbEntity
  8
Defpoints
370
               0
390
0
 62
               0
100
AcDbPoint
 10
-348.93053267223695
 20
531.9680930747196
 30
0.0
  0
POINT
  5
183
100
AcDbEntity
  8
Defpoints
370
               0
390
0
 62
               0
100
AcDbPoint
 10
-998.93053267223331
 20
531.9680930747196
 30
0.0
  0
POINT
  5
184
100
AcDbEntity
  8
Defpoints
370
               0
390
0
 62
               0
100
AcDbPoint
 10
-998.93053267223331
 20
431.9680930747196
 30
0.0
  0
ENDBLK
  5
185
100
AcDbEntity
  8
notes
390
0
100
AcDbBlockEnd
  0
BLOCK
  5
186
100
AcDbEntity
  8
notes
390
0
100
AcDbBlockBegin
  2
*D24
 70
               1
 10
0.0
 20
0.0
 30
0.0
  3
*D24
  1

  0
LINE
  5
187
100
AcDbEntity
  8
0
370
              -2
390
0
  6
Continuous
 62
               0
100
AcDbLine
 10
-1308.4305326722388
 20
1081.9680930747204
 30
0.0
 11
-1373.9305326722388
 21
1081.9680930747204
 31
0.0
  0
LINE
  5
188
100
AcDbEntity
  8
0
370
              -2
390
0
  6
Continuous
 62
               0
100
AcDbLine
 10
-1311.4305326722388
 20
931.96809307471869
 30
0.0
 11
-1373.9305326722388
 21
931.96809307471869
 31
0.0
  0
LINE
  5
189
100
AcDbEntity
  8
0
370
              -2
390
0
  6
Continuous
 62
               0
100
AcDbLine
 10
-1373.9305326722388
 20
1081.9680930747204
 30
0.0
 11
-1373.9305326722388
 21
931.96809307471869
 31
0.0
  0
CIRCLE
  5
18A
102
{ACAD_REACTORS
330
18B
102
}
100
AcDbEntity
  8
0
370
              -2
390
0
  6
Continuous
 62
               0
100
AcDbCircle
 10
-1373.9305326722388
 20
1081.9680930747204
 30
0.0
 40
7.499542236328125
  0
HATCH
  5
18B
100
AcDbEntity
  8
0
370
              -2
390
0
  6
Continuous
 62
               0
100
AcDbHatch
 10
0.0
 20
0.0
 30
0.0
210
0.0
220
0.0
230
1.0
  2
SOLID
 70
               1
 71
               1
 91
        1
 92
        1
 93
        1
 72
               2
 10
-1373.9305326722388
 20
1081.9680930747204
 40
7.499542236328125
 50
0.0
 51
360.0
 73
               0
 97
        1
330
18A
 75
               0
 76
               1
 98
        1
 10
0.0
 20
0.0
  0
CIRCLE
  5
18C
102
{ACAD_REACTORS
330
18D
102
}
100
AcDbEntity
  8
0
370
              -2
390
0
  6
Continuous
 62
               0
100
AcDbCircle
 10
-1373.9305326722388
 20
931.96809307471869
 30
0.0
 40
7.499542236328125
  0
HATCH
  5
18D
100
AcDbEntity
  8
0
370
              -2
390
0
  6
Continuous
 62
               0
100
AcDbHatch
 10
0.0
 20
0.0
 30
0.0
210
0.0
220
0.0
230
1.0
  2
SOLID
 70
               1
 71
               1
 91
        1
 92
        1
 93
        1
 72
               2
 10
-1373.9305326722388
 20
931.96809307471869
 40
7.499542236328125
 50
0.0
 51
360.0
 73
               0
 97
        1
330
18C
 75
               0
 76
               1
 98
        1
 10
0.0
 20
0.0
  0
MTEXT
  5
18E
100
AcDbEntity
  8
0
390
0
 62
               0
100
AcDbMText
 10
-1424.7469584534883
 20
971.24934055145627
 30
0.0
 40
36.64892578125
 41
0.0
 71
               1
 72
               1
  1
150
  7
ＭＳゴシック
 11
0.0
 21
1.0
 31
0.0
 73
               1
 44
0.7828267384257843
  0
POINT
  5
18F
100
AcDbEntity
  8
Defpoints
370
               0
390
0
 62
               0
100
AcDbPoint
 10
-1273.9305326722388
 20
931.96809307471869
 30
0.0
  0
POINT
  5
190
100
AcDbEntity
  8
Defpoints
370
               0
390
0
 62
               0
100
AcDbPoint
 10
-1270.9305326722388
 20
1081.9680930747204
 30
0.0
  0
POINT
  5
191
100
AcDbEntity
  8
Defpoints
370
               0
390
0
 62
               0
100
AcDbPoint
 10
-1373.9305326722388
 20
1081.9680930747204
 30
0.0
  0
ENDBLK
  5
192
100
AcDbEntity
  8
notes
390
0
100
AcDbBlockEnd
  0
BLOCK
  5
193
100
AcDbEntity
  8
notes
390
0
100
AcDbBlockBegin
  2
*D25
 70
               1
 10
0.0
 20
0.0
 30
0.0
  3
*D25
  1

  0
LINE
  5
194
100
AcDbEntity
  8
0
370
              -2
390
0
  6
Continuous
 62
               0
100
AcDbLine
 10
-1311.4305326722388
 20
931.96809307471869
 30
0.0
 11
-1373.9305326722388
 21
931.96809307471869
 31
0.0
  0
LINE
  5
195
100
AcDbEntity
  8
0
370
              -2
390
0
  6
Continuous
 62
               0
100
AcDbLine
 10
-1311.4305326722388
 20
591.96809307471869
 30
0.0
 11
-1373.9305326722388
 21
591.96809307471869
 31
0.0
  0
LINE
  5
196
100
AcDbEntity
  8
0
370
              -2
390
0
  6
Continuous
 62
               0
100
AcDbLine
 10
-1373.9305326722388
 20
931.96809307471869
 30
0.0
 11
-1373.9305326722388
 21
591.96809307471869
 31
0.0
  0
CIRCLE
  5
197
102
{ACAD_REACTORS
330
198
102
}
100
AcDbEntity
  8
0
370
              -2
390
0
  6
Continuous
 62
               0
100
AcDbCircle
 10
-1373.9305326722388
 20
931.96809307471869
 30
0.0
 40
7.499542236328125
  0
HATCH
  5
198
100
AcDbEntity
  8
0
370
              -2
390
0
  6
Continuous
 62
               0
100
AcDbHatch
 10
0.0
 20
0.0
 30
0.0
210
0.0
220
0.0
230
1.0
  2
SOLID
 70
               1
 71
               1
 91
        1
 92
        1
 93
        1
 72
               2
 10
-1373.9305326722388
 20
931.96809307471869
 40
7.499542236328125
 50
0.0
 51
360.0
 73
               0
 97
        1
330
197
 75
               0
 76
               1
 98
        1
 10
0.0
 20
0.0
  0
CIRCLE
  5
199
102
{ACAD_REACTORS
330
19A
102
}
100
AcDbEntity
  8
0
370
              -2
390
0
  6
Continuous
 62
               0
100
AcDbCircle
 10
-1373.9305326722388
 20
591.96809307471869
 30
0.0
 40
7.499542236328125
  0
HATCH
  5
19A
100
AcDbEntity
  8
0
370
              -2
390
0
  6
Continuous
 62
               0
100
AcDbHatch
 10
0.0
 20
0.0
 30
0.0
210
0.0
220
0.0
230
1.0
  2
SOLID
 70
               1
 71
               1
 91
        1
 92
        1
 93
        1
 72
               2
 10
-1373.9305326722388
 20
591.96809307471869
 40
7.499542236328125
 50
0.0
 51
360.0
 73
               0
 97
        1
330
199
 75
               0
 76
               1
 98
        1
 10
0.0
 20
0.0
  0
MTEXT
  5
19B
100
AcDbEntity
  8
0
390
0
 62
               0
100
AcDbMText
 10
-1424.7469584534883
 20
726.24934055145536
 30
0.0
 40
36.64892578125
 41
0.0
 71
               1
 72
               1
  1
340
  7
ＭＳゴシック
 11
0.0
 21
1.0
 31
0.0
 73
               1
 44
0.7828267384257843
  0
POINT
  5
19C
100
AcDbEntity
  8
Defpoints
370
               0
390
0
 62
               0
100
AcDbPoint
 10
-1273.9305326722388
 20
591.96809307471869
 30
0.0
  0
POINT
  5
19D
100
AcDbEntity
  8
Defpoints
370
               0
390
0
 62
               0
100
AcDbPoint
 10
-1273.9305326722388
 20
931.96809307471869
 30
0.0
  0
POINT
  5
19E
100
AcDbEntity
  8
Defpoints
370
               0
390
0
 62
               0
100
AcDbPoint
 10
-1373.9305326722388
 20
931.96809307471869
 30
0.0
  0
ENDBLK
  5
19F
100
AcDbEntity
  8
notes
390
0
100
AcDbBlockEnd
  0
BLOCK
  5
1A0
100
AcDbEntity
  8
notes
390
0
100
AcDbBlockBegin
  2
*D26
 70
               1
 10
0.0
 20
0.0
 30
0.0
  3
*D26
  1

  0
LINE
  5
1A1
100
AcDbEntity
  8
0
370
              -2
390
0
  6
Continuous
 62
               0
100
AcDbLine
 10
-428.92801714794768
 20
-764.62336521195755
 30
0.0
 11
-428.92801714794768
 21
-856.9323089311041
 31
0.0
  0
LINE
  5
1A2
100
AcDbEntity
  8
0
370
              -2
390
0
  6
Continuous
 62
               0
100
AcDbLine
 10
-918.91286243453033
 20
-764.62336521195755
 30
0.0
 11
-918.91286243453033
 21
-856.9323089311041
 31
0.0
  0
LINE
  5
1A3
100
AcDbEntity
  8
0
370
              -2
390
0
  6
Continuous
 62
               0
100
AcDbLine
 10
-428.92801714794768
 20
-856.9323089311041
 30
0.0
 11
-918.91286243453033
 21
-856.9323089311041
 31
0.0
  0
CIRCLE
  5
1A4
102
{ACAD_REACTORS
330
1A5
102
}
100
AcDbEntity
  8
0
370
              -2
390
0
  6
Continuous
 62
               0
100
AcDbCircle
 10
-428.92801714794768
 20
-856.9323089311041
 30
0.0
 40
7.499542236328125
  0
HATCH
  5
1A5
100
AcDbEntity
  8
0
370
              -2
390
0
  6
Continuous
 62
               0
100
AcDbHatch
 10
0.0
 20
0.0
 30
0.0
210
0.0
220
0.0
230
1.0
  2
SOLID
 70
               1
 71
               1
 91
        1
 92
        1
 93
        1
 72
               2
 10
-428.92801714794768
 20
-856.9323089311041
 40
7.499542236328125
 50
0.0
 51
360.0
 73
               0
 97
        1
330
1A4
 75
               0
 76
               1
 98
        1
 10
0.0
 20
0.0
  0
CIRCLE
  5
1A6
102
{ACAD_REACTORS
330
1A7
102
}
100
AcDbEntity
  8
0
370
              -2
390
0
  6
Continuous
 62
               0
100
AcDbCircle
 10
-918.91286243453033
 20
-856.9323089311041
 30
0.0
 40
7.499542236328125
  0
HATCH
  5
1A7
100
AcDbEntity
  8
0
370
              -2
390
0
  6
Continuous
 62
               0
100
AcDbHatch
 10
0.0
 20
0.0
 30
0.0
210
0.0
220
0.0
230
1.0
  2
SOLID
 70
               1
 71
               1
 91
        1
 92
        1
 93
        1
 72
               2
 10
-918.91286243453033
 20
-856.9323089311041
 40
7.499542236328125
 50
0.0
 51
360.0
 73
               0
 97
        1
330
1A6
 75
               0
 76
               1
 98
        1
 10
0.0
 20
0.0
  0
MTEXT
  5
1A8
100
AcDbEntity
  8
0
390
0
 62
               0
100
AcDbMText
 10
-709.639192314502
 20
-806.11588314985408
 30
0.0
 40
36.64892578125
 41
0.0
 71
               1
 72
               1
  1
490
  7
ＭＳゴシック
 73
               1
 44
0.7828267384257843
  0
POINT
  5
1A9
100
AcDbEntity
  8
Defpoints
370
               0
390
0
 62
               0
100
AcDbPoint
 10
-918.91286243453033
 20
-727.12336521195755
 30
0.0
  0
POINT
  5
1AA
100
AcDbEntity
  8
Defpoints
370
               0
390
0
 62
               0
100
AcDbPoint
 10
-428.92801714794768
 20
-727.12336521195755
 30
0.0
  0
POINT
  5
1AB
100
AcDbEntity
  8
Defpoints
370
               0
390
0
 62
               0
100
AcDbPoint
 10
-428.92801714794768
 20
-856.9323089311041
 30
0.0
  0
ENDBLK
  5
1AC
100
AcDbEntity
  8
notes
390
0
100
AcDbBlockEnd
  0
BLOCK
  5
1AD
100
AcDbEntity
  8
ADF70-1609
390
0
100
AcDbBlockBegin
  2
グループ-1
 70
               0
 10
0.0
 20
0.0
 30
0.0
  3
グループ-1
  1

  0
LINE
  5
1AE
100
AcDbEntity
  8
0
370
               5
390
0
  6
Continuous
 62
               7
100
AcDbLine
 10
-3826.7390171761663
 20
158.24837449920506
 30
0.0
 11
-3789.7390171761663
 21
195.24837449920506
 31
0.0
  0
LINE
  5
1AF
100
AcDbEntity
  8
0
370
               5
390
0
  6
Continuous
 62
               7
100
AcDbLine
 10
-3806.7390171761663
 20
158.24837449920506
 30
0.0
 11
-3769.7390171761663
 21
195.24837449920506
 31
0.0
  0
LINE
  5
1B0
100
AcDbEntity
  8
0
370
               5
390
0
  6
Continuous
 62
               7
100
AcDbLine
 10
-3786.7390171761663
 20
158.24837449920506
 30
0.0
 11
-3749.7390171761663
 21
195.24837449920506
 31
0.0
  0
ENDBLK
  5
1B1
100
AcDbEntity
  8
ADF70-1609
390
0
100
AcDbBlockEnd
  0
BLOCK
  5
1B2
100
AcDbEntity
  8
ADF70-1609
390
0
100
AcDbBlockBegin
  2
グループ-2
 70
               0
 10
0.0
 20
0.0
 30
0.0
  3
グループ-2
  1

  0
SPLINE
  5
1B3
100
AcDbEntity
  8
0
370
              15
390
0
  6
STYLE_12
 62
               7
100
AcDbSpline
210
0.0
220
0.0
230
1.0
 70
               8
 71
               2
 72
               8
 73
               5
 74
               0
 42
0.000001
 43
0.000001
 40
0.0
 40
0.0
 40
0.0
 40
1.0
 40
2.0
 40
3.0
 40
3.0
 40
3.0
 10
-6138.576460778856
 20
-1572.2351742181463
 30
0.0
 10
-6138.1460022514302
 20
-1576.3015098867972
 30
0.0
 10
-6134.9680894142612
 20
-1583.0187181955826
 30
0.0
 10
-6130.1322418817736
 20
-1586.9273948687423
 30
0.0
 10
-6127.3867992176265
 20
-1587.0721610073579
 30
0.0
  0
LINE
  5
1B4
100
AcDbEntity
  8
0
370
              15
390
0
  6
STYLE_12
 62
               7
100
AcDbLine
 10
-6147.0070969651888
 20
-1500.5776322530664
 30
0.0
 11
-6138.576460778856
 21
-1572.2351742181545
 31
0.0
  0
SPLINE
  5
1B5
100
AcDbEntity
  8
0
370
              15
390
0
  6
STYLE_12
 62
               7
100
AcDbSpline
210
0.0
220
0.0
230
1.0
 70
               8
 71
               2
 72
               7
 73
               4
 74
               0
 42
0.000001
 43
0.000001
 40
0.0
 40
0.0
 40
0.0
 40
1.0
 40
2.0
 40
2.0
 40
2.0
 10
-6147.0070969651888
 20
-1500.5776322530664
 30
0.0
 10
-6147.4451054460633
 20
-1496.8547090470738
 30
0.0
 10
-6151.0123040335229
 20
-1491.5084793149417
 30
0.0
 10
-6153.4963735679485
 20
-1490.8520275066185
 30
0.0
  0
ENDBLK
  5
1B6
100
AcDbEntity
  8
ADF70-1609
390
0
100
AcDbBlockEnd
  0
BLOCK
  5
1B7
100
AcDbEntity
  8
ADF70-1609
390
0
100
AcDbBlockBegin
  2
グループ-3
 70
               0
 10
0.0
 20
0.0
 30
0.0
  3
グループ-3
  1

  0
SPLINE
  5
1B8
100
AcDbEntity
  8
0
370
              15
390
0
  6
STYLE_12
 62
               7
100
AcDbSpline
210
0.0
220
0.0
230
1.0
 70
               8
 71
               2
 72
               8
 73
               5
 74
               0
 42
0.000001
 43
0.000001
 40
0.0
 40
0.0
 40
0.0
 40
1.0
 40
2.0
 40
3.0
 40
3.0
 40
3.0
 10
-5529.6059479182704
 20
-1587.0721610073579
 30
0.0
 10
-5526.8605052541234
 20
-1586.9273948687423
 30
0.0
 10
-5522.0246577216358
 20
-1583.0187181955826
 30
0.0
 10
-5518.8467448844667
 20
-1576.3015098867972
 30
0.0
 10
-5518.4162863570409
 20
-1572.2351742181463
 30
0.0
  0
LINE
  5
1B9
100
AcDbEntity
  8
0
370
              15
390
0
  6
STYLE_12
 62
               7
100
AcDbLine
 10
-5509.9856501707081
 20
-1500.5776322530664
 30
0.0
 11
-5518.4162863570409
 21
-1572.2351742181545
 31
0.0
  0
SPLINE
  5
1BA
100
AcDbEntity
  8
0
370
              15
390
0
  6
STYLE_12
 62
               7
100
AcDbSpline
210
0.0
220
0.0
230
1.0
 70
               8
 71
               2
 72
               7
 73
               4
 74
               0
 42
0.000001
 43
0.000001
 40
0.0
 40
0.0
 40
0.0
 40
1.0
 40
2.0
 40
2.0
 40
2.0
 10
-5503.4963735679476
 20
-1490.8520275066194
 30
0.0
 10
-5505.980443102374
 20
-1491.5084793149426
 30
0.0
 10
-5509.5476416898318
 20
-1496.8547090470738
 30
0.0
 10
-5509.9856501707081
 20
-1500.5776322530664
 30
0.0
  0
ENDBLK
  5
1BB
100
AcDbEntity
  8
ADF70-1609
390
0
100
AcDbBlockEnd
  0
BLOCK
  5
1BC
100
AcDbEntity
  8
ADF70-1609
390
0
100
AcDbBlockBegin
  2
グループ-4
 70
               0
 10
0.0
 20
0.0
 30
0.0
  3
グループ-4
  1

  0
INSERT
  5
1BD
100
AcDbEntity
  8
0
390
0
 62
               7
100
AcDbBlockReference
  2
グループ-3
 10
0.0
 20
0.0
 30
0.0
  0
ENDBLK
  5
1BE
100
AcDbEntity
  8
ADF70-1609
390
0
100
AcDbBlockEnd
  0
ENDSEC
  0
SECTION
  2
ENTITIES
  0
MTEXT
  5
1BF
100
AcDbEntity
  8
template
390
0
 62
               7
100
AcDbMText
 10
-1451.9999999996389
 20
-1721.1264438505505
 30
0.0
 40
24.432617187500004
 41
0.0
 71
               1
 72
               1
  1
品名
  7
ＭＳ ゴシック
 73
               1
 44
0.7828267384257843
  0
MTEXT
  5
1C0
100
AcDbEntity
  8
template
390
0
 62
               7
100
AcDbMText
 10
-1451.9999999996389
 20
-1848.6264438505505
 30
0.0
 40
24.432617187500004
 41
0.0
 71
               1
 72
               1
  1
仕様
  7
ＭＳ ゴシック
 73
               1
 44
0.7828267384257843
  0
MTEXT
  5
1C1
100
AcDbEntity
  8
template
390
0
 62
               7
100
AcDbMText
 10
-1372.4999999996389
 20
-1764.0001352568006
 30
0.0
 40
36.64892578125
 41
0.0
 71
               1
 72
               1
  1
洗面器　-CATALANO,Roma-
  7
ＭＳ ゴシック
 73
               1
 44
0.7828267384257843
  0
LINE
  5
1C2
100
AcDbEntity
  8
template
370
               5
390
0
  6
Continuous
 62
               7
100
AcDbLine
 10
1462.499999999638
 20
-1836.0040610380506
 30
0.0
 11
-1462.500000000362
 21
-1836.0040610380506
 31
0.0
  0
LWPOLYLINE
  5
1C3
100
AcDbEntity
  8
template
370
               5
390
0
  6
Continuous
 62
               7
100
AcDbPolyline
 90
        5
 70
             128
 10
1462.500000000362
 20
2108.9959389619494
 10
-1462.4999999996389
 20
2108.9959389619494
 10
-1462.4999999996389
 20
-2091.0040610380506
 10
1462.500000000362
 20
-2091.0040610380506
 10
1462.500000000362
 20
2108.9959389619494
  0
LINE
  5
1C4
100
AcDbEntity
  8
template
370
               5
390
0
  6
Continuous
 62
               7
100
AcDbLine
 10
1462.499999999638
 20
-1708.5040610380506
 30
0.0
 11
-1462.500000000362
 21
-1708.5040610380506
 31
0.0
  0
LINE
  5
1C5
100
AcDbEntity
  8
template
370
               5
390
0
  6
Continuous
 62
               7
100
AcDbLine
 10
1462.500000000362
 20
-1963.5040610380506
 30
0.0
 11
333.00000000036198
 21
-1963.5040610380506
 31
0.0
  0
MTEXT
  5
1C6
100
AcDbEntity
  8
template
390
0
 62
               7
100
AcDbMText
 10
-1462.4999999993333
 20
-2108.7847941233358
 30
0.0
 40
32.576822916666664
 41
0.0
 71
               1
 72
               1
  1
100707SH
  7
ＭＳ ゴシック
 73
               1
 44
0.7828267384257843
  0
MTEXT
  5
1C7
100
AcDbEntity
  8
template
390
0
 62
               7
100
AcDbMText
 10
377.80710937875119
 20
-2008.369652748012
 30
0.0
 40
36.64892578125
 41
0.0
 71
               1
 72
               1
  1
大洋金物株式会社 ティーフォルム事業部
  7
ＭＳ ゴシック
 73
               1
 44
0.7828267384257843
  0
INSERT
  5
1C8
100
AcDbEntity
  8
template
390
0
 62
               7
100
AcDbBlockReference
  2
グループ
 10
5154.6044521033864
 20
923.71971857551546
 30
0.0
  0
MTEXT
  5
1C9
100
AcDbEntity
  8
template
390
0
 62
               7
100
AcDbMText
 10
1176.0000000007499
 20
-1891.5001352568006
 30
0.0
 40
36.64892578125
 41
0.0
 71
               1
 72
               1
  1
1:15
  7
ＭＳ ゴシック
 73
               1
 44
0.7828267384257843
  0
MTEXT
  5
1CA
100
AcDbEntity
  8
template
390
0
 62
               7
100
AcDbMText
 10
1096.5000000007499
 20
-1848.6264438505505
 30
0.0
 40
24.432617187500004
 41
0.0
 71
               1
 72
               1
  1
縮尺
  7
ＭＳ ゴシック
 73
               1
 44
0.7828267384257843
  0
LINE
  5
1CB
100
AcDbEntity
  8
template
370
               5
390
0
  6
Continuous
 62
               7
100
AcDbLine
 10
1086.0000000007499
 20
-1963.5040610380506
 30
0.0
 11
1086.0000000007499
 21
-1836.0040610380506
 31
0.0
  0
MTEXT
  5
1CC
100
AcDbEntity
  8
template
390
0
 62
               7
100
AcDbMText
 10
720.00000000075033
 20
-1848.6264438505505
 30
0.0
 40
24.432617187500004
 41
0.0
 71
               1
 72
               1
  1
容量
  7
ＭＳ ゴシック
 73
               1
 44
0.7828267384257843
  0
MTEXT
  5
1CD
100
AcDbEntity
  8
template
390
0
 62
               7
100
AcDbMText
 10
799.50000000075033
 20
-1891.5001352568006
 30
0.0
 40
36.64892578125
 41
0.0
 71
               1
 72
               1
  1
9L
  7
ＭＳ ゴシック
 73
               1
 44
0.7828267384257843
  0
LINE
  5
1CE
100
AcDbEntity
  8
template
370
               5
390
0
  6
Continuous
 62
               7
100
AcDbLine
 10
709.50000000075033
 20
-1963.5040610380506
 30
0.0
 11
709.50000000075033
 21
-1836.0040610380506
 31
0.0
  0
MTEXT
  5
1CF
100
AcDbEntity
  8
template
390
0
 62
               7
100
AcDbMText
 10
343.50000000075033
 20
-1721.1264438505505
 30
0.0
 40
24.432617187500004
 41
0.0
 71
               1
 72
               1
  1
品番
  7
ＭＳ ゴシック
 73
               1
 44
0.7828267384257843
  0
MTEXT
  5
1D0
100
AcDbEntity
  8
template
390
0
 62
               7
100
AcDbMText
 10
343.50000000075033
 20
-1848.6264438505505
 30
0.0
 40
24.432617187500004
 41
0.0
 71
               1
 72
               1
  1
重量
  7
ＭＳ ゴシック
 73
               1
 44
0.7828267384257843
  0
MTEXT
  5
1D1
100
AcDbEntity
  8
template
390
0
 62
               7
100
AcDbMText
 10
423.00000000075033
 20
-1764.0001352568006
 30
0.0
 40
36.64892578125
 41
0.0
 71
               1
 72
               1
  1
ADF70-1609
  7
ＭＳ ゴシック
 73
               1
 44
0.7828267384257843
  0
MTEXT
  5
1D2
100
AcDbEntity
  8
template
390
0
 62
               7
100
AcDbMText
 10
423.00000000075033
 20
-1891.5001352568006
 30
0.0
 40
36.64892578125
 41
0.0
 71
               1
 72
               1
  1
40kg
  7
ＭＳ ゴシック
 73
               1
 44
0.7828267384257843
  0
LINE
  5
1D3
100
AcDbEntity
  8
template
370
               5
390
0
  6
Continuous
 62
               7
100
AcDbLine
 10
333.00000000075033
 20
-2091.0040610380506
 30
0.0
 11
333.00000000075033
 21
-1708.5040610380506
 31
0.0
  0
MTEXT
  5
1D4
100
AcDbEntity
  8
template
390
0
 62
               7
100
AcDbMText
 10
-1372.4999999996389
 20
-1891.5001352568006
 30
0.0
 40
36.64892578125
 41
0.0
 71
               1
 72
               1
  1
壁掛け,カウンタ ー置き,半埋め込み/オーバーフロー付き/\P壁取付ボルト付属/陶器/ホワイト
  7
ＭＳ ゴシック
 73
               1
 44
1.3047112307096407
  0
CIRCLE
  5
1D5
100
AcDbEntity
  8
template
370
              15
390
0
  6
Continuous
 62
               7
100
AcDbCircle
 10
-673.93053267223513
 20
836.96809307472233
 30
0.0
 40
39.0
  0
CIRCLE
  5
1D6
100
AcDbEntity
  8
template
370
              15
390
0
  6
Continuous
 62
               7
100
AcDbCircle
 10
-673.93053267223513
 20
836.96809307472051
 30
0.0
 40
23.043551013697652
  0
DIMENSION
  5
1D7
100
AcDbEntity
  8
template
370
               5
390
0
  6
Continuous
 62
               7
100
AcDbDimension
  2
*D2
 10
745.24887034072617
 20
-712.01765723106689
 30
0.0
 11
737.74887034072617
 21
-760.63772607221415
 31
0.0
 70
             128
 71
               5
 72
               1
 41
1.0
 42
0.0
  3
Tform線あり
100
AcDbAlignedDimension
 13
827.56137034072617
 23
-727.01765723106689
 33
0.0
 14
826.56756813982702
 24
-712.01765723106689
 34
0.0
 50
90.0
100
AcDbRotatedDimension
1001
ACAD
1000
DSTYLE
1002
{
1070
             279
1070
               2
1070
             340
1005
41
1070
             174
1070
               0
1070
             147
1040
7.5
1002
}
  0
MTEXT
  5
1D8
100
AcDbEntity
  8
notes
390
0
 62
               7
100
AcDbMText
 10
-1213.2927163647564
 20
86.15118552263732
 30
0.0
 40
36.64892578125
 41
1296.4007949001948
 71
               1
 72
               1
  1
＝φ30もしくはφ35の水栓取付用穴あけ加工を承ります。\P   必要な場合、ご注文の際にご指示ください。
  7
ＭＳゴシック
 73
               1
 44
1.0437689845677125
  0
MTEXT
  5
1D9
100
AcDbEntity
  8
notes
390
0
 62
               7
100
AcDbMText
 10
-183.75395607244809
 20
-455.96685135883206
 30
0.0
 40
36.64892578125
 41
0.0
 71
               1
 72
               1
  1
壁取付ボルト穴(4ヶ所)
  7
ＭＳ ゴシック
 73
               1
 44
0.7828267384257843
  0
MTEXT
  5
1DA
100
AcDbEntity
  8
notes
390
0
 62
               7
100
AcDbMText
 10
440.07193863189241
 20
1400.2114679717324
 30
0.0
 40
36.64892578125
 41
0.0
 71
               1
 72
               1
  1
半埋込置きカウンター切込寸法
  7
ＭＳゴシック
 73
               1
 44
0.7828267384257843
  0
MTEXT
  5
1DB
100
AcDbEntity
  8
notes
390
0
 62
               7
100
AcDbMText
 10
207.27384170428104
 20
1283.9421934277761
 30
0.0
 40
36.64892578125
 41
0.0
 71
               1
 72
               1
  1
半埋め込み
  7
ＭＳ ゴシック
 73
               1
 44
0.7828267384257843
  0
MTEXT
  5
1DC
100
AcDbEntity
  8
notes
390
0
 62
               7
100
AcDbMText
 10
573.65849176766915
 20
1238.4421934277761
 30
0.0
 40
36.64892578125
 41
0.0
 71
               1
 72
               1
  1
カウンター置き
  7
ＭＳ ゴシック
 73
               1
 44
0.7828267384257843
  0
LINE
  5
1DD
100
AcDbEntity
  8
notes
370
               5
390
0
  6
Continuous
 62
               7
100
AcDbLine
 10
-245.34730752375799
 20
-607.12336521195755
 30
0.0
 11
-169.57116732755821
 21
-516.57087106278721
 31
0.0
  0
MTEXT
  5
1DE
100
AcDbEntity
  8
notes
390
0
 62
               7
100
AcDbMText
 10
-1399.3472214202911
 20
-1004.988198785716
 30
0.0
 40
36.64892578125
 41
0.0
 71
               1
 72
               1
  1
半埋め込み
  7
ＭＳ ゴシック
 73
               1
 44
0.7828267384257843
  0
MTEXT
  5
1DF
100
AcDbEntity
  8
notes
390
0
 62
               7
100
AcDbMText
 10
-1218.8663881812417
 20
-899.48819878571783
 30
0.0
 40
36.64892578125
 41
0.0
 71
               1
 72
               1
  1
カウンター置き
  7
ＭＳ ゴシック
 73
               1
 44
0.7828267384257843
  0
LINE
  5
1E0
100
AcDbEntity
  8
notes
370
               5
390
0
  6
Continuous
 62
               7
100
AcDbLine
 10
-1032.2038881812423
 20
-727.12336521195755
 30
0.0
 11
-1222.2538881812416
 21
-727.12336521195755
 31
0.0
  0
LINE
  5
1E1
100
AcDbEntity
  8
notes
370
               5
390
0
  6
Continuous
 62
               7
100
AcDbLine
 10
-1292.1847214202917
 20
-667.12336521195755
 30
0.0
 11
-1407.234721420291
 21
-667.12336521195755
 31
0.0
  0
LINE
  5
1E2
100
AcDbEntity
  8
notes
370
               5
390
0
  6
Continuous
 62
               7
100
AcDbLine
 10
-1369.734721420291
 20
-667.12336521195755
 30
0.0
 11
-1369.734721420291
 21
-997.12336521195755
 31
0.0
  0
LINE
  5
1E3
100
AcDbEntity
  8
notes
370
               5
390
0
  6
Continuous
 62
               7
100
AcDbLine
 10
-1184.7538881812416
 20
-727.12336521195755
 30
0.0
 11
-1184.7538881812416
 21
-882.9323089311041
 31
0.0
  0
CIRCLE
  5
1E4
100
AcDbEntity
  8
notes
370
               5
390
0
  6
STYLE_12
 62
               7
100
AcDbCircle
 10
-1236.3021761894524
 20
66.067691068896011
 30
0.0
 40
15.0
  0
LINE
  5
1E5
100
AcDbEntity
  8
notes
370
               5
390
0
  6
Continuous
 62
               7
100
AcDbLine
 10
120.82184036386025
 20
1081.9680930747204
 30
0.0
 11
1420.8218403638621
 21
1081.9680930747204
 31
0.0
  0
DIMENSION
  5
1E6
100
AcDbEntity
  8
notes
370
               5
390
0
  6
Continuous
 62
               7
100
AcDbDimension
  2
*D3
 10
821.13730215481701
 20
-567.14731182349658
 30
0.0
 11
813.63730215481701
 21
-560.93230893110456
 31
0.0
 70
             128
 71
               5
 72
               1
 41
1.0
 42
0.0
  3
Tform線あり
100
AcDbAlignedDimension
 13
831.13730215481701
 23
-667.14731182349658
 33
0.0
 14
831.13730215481701
 24
-567.14731182349658
 34
0.0
 50
90.0
100
AcDbRotatedDimension
1001
ACAD
1000
DSTYLE
1002
{
1070
             279
1070
               2
1070
             340
1005
41
1070
               3
1000
<>(深さ)
1070
             174
1070
               0
1070
             147
1040
7.5
1002
}
  0
DIMENSION
  5
1E7
100
AcDbEntity
  8
notes
370
               5
390
0
  6
Continuous
 62
               7
100
AcDbDimension
  2
*D4
 10
-1105.347307523758
 20
-467.12336521195755
 30
0.0
 11
-960.34730752375799
 21
-467.12336521195755
 31
0.0
 71
               5
 72
               1
 41
1.0
 42
0.0
  3
Tform線あり
100
AcDbAlignedDimension
 13
-815.34730752375799
 23
-587.12336521195755
 33
0.0
 14
-1105.347307523758
 24
-587.12336521195755
 34
0.0
100
AcDbRotatedDimension
1001
ACAD
1000
DSTYLE
1002
{
1070
             279
1070
               2
1070
             340
1005
41
1070
             147
1040
7.5
1002
}
  0
DIMENSION
  5
1E8
100
AcDbEntity
  8
notes
370
               5
390
0
  6
Continuous
 62
               7
100
AcDbDimension
  2
*D5
 10
-815.34730752375799
 20
-467.12336521195755
 30
0.0
 11
-675.34730752375799
 21
-467.12336521195755
 31
0.0
 71
               5
 72
               1
 41
1.0
 42
0.0
  3
Tform線あり
100
AcDbAlignedDimension
 13
-535.34730752375799
 23
-587.12336521195755
 33
0.0
 14
-815.34730752375799
 24
-587.12336521195755
 34
0.0
100
AcDbRotatedDimension
1001
ACAD
1000
DSTYLE
1002
{
1070
             279
1070
               2
1070
             340
1005
41
1070
             147
1040
7.5
1002
}
  0
DIMENSION
  5
1E9
100
AcDbEntity
  8
notes
370
               5
390
0
  6
Continuous
 62
               7
100
AcDbDimension
  2
*D6
 10
-535.34730752375799
 20
-467.12336521195755
 30
0.0
 11
-390.34730752375799
 21
-467.12336521195755
 31
0.0
 71
               5
 72
               1
 41
1.0
 42
0.0
  3
Tform線あり
100
AcDbAlignedDimension
 13
-245.34730752375799
 23
-587.12336521195755
 33
0.0
 14
-535.34730752375799
 24
-587.12336521195755
 34
0.0
100
AcDbRotatedDimension
1001
ACAD
1000
DSTYLE
1002
{
1070
             279
1070
               2
1070
             340
1005
41
1070
             147
1040
7.5
1002
}
  0
DIMENSION
  5
1EA
100
AcDbEntity
  8
notes
370
               5
390
0
  6
Continuous
 62
               7
100
AcDbDimension
  2
*D7
 10
-1374.9128624345321
 20
-607.12336521195755
 30
0.0
 11
-1382.4128624345321
 21
-556.93230893110365
 31
0.0
 70
             128
 71
               5
 72
               1
 41
1.0
 42
0.0
  3
Tform線あり
100
AcDbAlignedDimension
 13
-1270.9128624345321
 23
-567.12336521195755
 33
0.0
 14
-1153.9280171479477
 24
-607.12336521195755
 34
0.0
 50
90.0
100
AcDbRotatedDimension
1001
ACAD
1000
DSTYLE
1002
{
1070
             279
1070
               2
1070
             340
1005
41
1070
             174
1070
               0
1070
             147
1040
7.5
1002
}
  0
DIMENSION
  5
1EB
100
AcDbEntity
  8
notes
370
               5
390
0
  6
Continuous
 62
               7
100
AcDbDimension
  2
*D8
 10
230.86543492721648
 20
431.9680930747196
 30
0.0
 11
770.86543492721739
 21
431.9680930747196
 31
0.0
 71
               5
 72
               1
 41
1.0
 42
0.0
  3
Tform線あり
100
AcDbAlignedDimension
 13
1310.8654349272183
 23
581.9680930747196
 33
0.0
 14
230.86543492721648
 24
581.9680930747196
 34
0.0
100
AcDbRotatedDimension
1001
ACAD
1000
DSTYLE
1002
{
1070
             279
1070
               2
1070
             340
1005
41
1070
             147
1040
7.5
1002
}
  0
DIMENSION
  5
1EC
100
AcDbEntity
  8
notes
370
               5
390
0
  6
Continuous
 62
               7
100
AcDbDimension
  2
*D9
 10
1445.0
 20
1081.9680930747204
 30
0.0
 11
1452.5
 21
796.24934055145673
 31
0.0
 70
             128
 71
               5
 72
               1
 41
1.0
 42
0.0
  3
Tform線あり
100
AcDbAlignedDimension
 13
1310.8654349272183
 23
581.9680930747196
 33
0.0
 14
1310.8654349272183
 24
1081.9680930747204
 34
0.0
 50
90.0
100
AcDbRotatedDimension
1001
ACAD
1000
DSTYLE
1002
{
1070
             279
1070
               2
1070
             340
1005
41
1070
             147
1040
7.5
1002
}
  0
DIMENSION
  5
1ED
100
AcDbEntity
  8
notes
370
               5
390
0
  6
Continuous
 62
               7
100
AcDbDimension
  2
*D10
 10
1071.2937075914615
 20
-827.0798991645346
 30
0.0
 11
946.29370759146059
 21
-827.0798991645346
 31
0.0
 71
               5
 72
               1
 41
1.0
 42
0.0
  1
260
  3
Tform線あり
100
AcDbAlignedDimension
 13
821.29370759145968
 23
-722.07989916453096
 33
0.0
 14
1071.2937075914615
 24
-722.07989916453096
 34
0.0
100
AcDbRotatedDimension
1001
ACAD
1000
DSTYLE
1002
{
1070
             279
1070
               2
1070
             340
1005
41
1070
             147
1040
7.5
1002
}
  0
DIMENSION
  5
1EE
100
AcDbEntity
  8
notes
370
               5
390
0
  6
Continuous
 62
               7
100
AcDbDimension
  2
*D11
 10
1071.2937075914579
 20
-467.16287547840818
 30
0.0
 11
1031.2937075914588
 21
-467.16287547840818
 31
0.0
 71
               5
 72
               1
 41
1.0
 42
0.0
  3
Tform線あり
100
AcDbAlignedDimension
 13
991.29370759146059
 23
-567.16298262652469
 33
0.0
 14
1071.2937075914579
 24
-570.16248120490343
 34
0.0
100
AcDbRotatedDimension
1001
ACAD
1000
DSTYLE
1002
{
1070
             279
1070
               2
1070
             340
1005
41
1070
             147
1040
7.5
1002
}
  0
DIMENSION
  5
1EF
100
AcDbEntity
  8
notes
370
               5
390
0
  6
Continuous
 62
               7
100
AcDbDimension
  2
*D12
 10
421.19933691232654
 20
-567.10470355237464
 30
0.0
 11
421.19933691232654
 21
-617.11776446235933
 31
0.0
 71
               5
 72
               1
 41
1.0
 42
0.0
  3
Tform線あり
100
AcDbAlignedDimension
 13
527.75222749198474
 23
-667.13082537234402
 33
0.0
 14
527.19867254984092
 24
-567.10470355237464
 34
0.0
 50
90.0
100
AcDbRotatedDimension
1001
ACAD
1000
DSTYLE
1002
{
1070
             279
1070
               2
1070
             340
1005
41
1070
             147
1040
7.5
1002
}
  0
DIMENSION
  5
1F0
100
AcDbEntity
  8
notes
370
               5
390
0
  6
Continuous
 62
               7
100
AcDbDimension
  2
*D13
 10
26.087137565473313
 20
-567.12336521195755
 30
0.0
 11
26.087137565473313
 21
-647.12336521195755
 31
0.0
 71
               5
 72
               1
 41
1.0
 42
0.0
  3
Tform線あり
100
AcDbAlignedDimension
 13
-348.92801714794768
 23
-727.12336521195755
 33
0.0
 14
-76.912862434526687
 24
-567.12336521195755
 34
0.0
 50
90.0
100
AcDbRotatedDimension
1001
ACAD
1000
DSTYLE
1002
{
1070
             279
1070
               2
1070
             340
1005
41
1070
             147
1040
7.5
1002
}
  0
DIMENSION
  5
1F1
100
AcDbEntity
  8
notes
370
               5
390
0
  6
Continuous
 62
               7
100
AcDbDimension
  2
*D14
 10
945.86543492722103
 20
677.06769106889681
 30
0.0
 11
770.86543492721921
 21
677.06769106889681
 31
0.0
 71
               5
 72
               1
 41
1.0
 42
0.0
  3
Tform線あり
100
AcDbAlignedDimension
 13
595.8654349272183
 23
801.96809307472051
 33
0.0
 14
945.86543492722103
 24
801.96809307472051
 34
0.0
100
AcDbRotatedDimension
1001
ACAD
1000
DSTYLE
1002
{
1070
             279
1070
               2
1070
             340
1005
41
1070
             147
1040
7.5
1002
}
  0
DIMENSION
  5
1F2
100
AcDbEntity
  8
notes
370
               5
390
0
  6
Continuous
 62
               7
100
AcDbDimension
  2
*D15
 10
1021.0218403638637
 20
801.96809307472051
 30
0.0
 11
1021.0218403638637
 21
931.96809307472051
 31
0.0
 71
               5
 72
               1
 41
1.0
 42
0.0
  3
Tform線あり
100
AcDbAlignedDimension
 13
945.86543492722103
 23
1061.9680930747204
 33
0.0
 14
945.86543492722103
 24
801.96809307472051
 34
0.0
 50
90.0
100
AcDbRotatedDimension
1001
ACAD
1000
DSTYLE
1002
{
1070
             279
1070
               2
1070
             340
1005
41
1070
             147
1040
7.5
1002
}
  0
DIMENSION
  5
1F3
100
AcDbEntity
  8
notes
370
               5
390
0
  6
Continuous
 62
               7
100
AcDbDimension
  2
*D16
 10
971.0218403638637
 20
1061.9680930747204
 30
0.0
 11
978.5218403638637
 21
1099.0676910688965
 31
0.0
 70
             128
 71
               5
 72
               1
 41
1.0
 42
0.0
  3
Tform線あり
100
AcDbAlignedDimension
 13
895.86543492722103
 23
1081.9680930747204
 33
0.0
 14
895.86543492722103
 24
1061.9680930747204
 34
0.0
 50
90.0
100
AcDbRotatedDimension
1001
ACAD
1000
DSTYLE
1002
{
1070
             279
1070
               2
1070
             340
1005
41
1070
             174
1070
               0
1070
             147
1040
7.5
1002
}
  0
DIMENSION
  5
1F4
100
AcDbEntity
  8
notes
370
               5
390
0
  6
Continuous
 62
               7
100
AcDbDimension
  2
*D17
 10
421.19933691232654
 20
-667.13082537234402
 30
0.0
 11
421.19933691232654
 21
-697.13082537234402
 31
0.0
 71
               5
 72
               1
 41
1.0
 42
0.0
  3
Tform線あり
100
AcDbAlignedDimension
 13
713.1373021548161
 23
-727.13082537234402
 33
0.0
 14
490.25222749198474
 24
-667.13082537234402
 34
0.0
 50
90.0
100
AcDbRotatedDimension
1001
ACAD
1000
DSTYLE
1002
{
1070
             279
1070
               2
1070
             340
1005
41
1070
             147
1040
7.5
1002
}
  0
DIMENSION
  5
1F5
100
AcDbEntity
  8
notes
370
               5
390
0
  6
Continuous
 62
               7
100
AcDbDimension
  2
*D18
 10
1071.2937075914615
 20
-902.07989916453369
 30
0.0
 11
873.79370759146059
 21
-902.07989916453369
 31
0.0
 71
               5
 72
               1
 41
1.0
 42
0.0
  1
365
  3
Tform線あり
100
AcDbAlignedDimension
 13
676.29370759145968
 23
-723.13772607221415
 33
0.0
 14
1071.2937075914615
 24
-722.07989916453005
 34
0.0
100
AcDbRotatedDimension
1001
ACAD
1000
DSTYLE
1002
{
1070
             279
1070
               2
1070
             340
1005
41
1070
             147
1040
7.5
1002
}
  0
LINE
  5
1F6
100
AcDbEntity
  8
notes
370
               5
390
0
  6
Continuous
 62
               7
100
AcDbLine
 10
605.02184036386097
 20
1061.9680930747204
 30
0.0
 11
605.02184036386097
 21
1177.0676910688967
 31
0.0
  0
LINE
  5
1F7
100
AcDbEntity
  8
notes
370
               5
390
0
  6
Continuous
 62
               7
100
AcDbLine
 10
230.86543492721648
 20
1081.9680930747204
 30
0.0
 11
230.86543492721648
 21
1235.3341009798592
 31
0.0
  0
MTEXT
  5
1F8
100
AcDbEntity
  8
notes
390
0
 62
               7
100
AcDbMText
 10
165.788207118022
 20
86.15118552263732
 30
0.0
 40
36.64892578125
 41
1170.0
 71
               1
 72
               1
  1
※陶器製品には寸法公差があります。\P  洗面器の収め方をご確認の上、必ず現物を合わせて\P  カウンターに切込を行ってください。
  7
ＭＳ ゴシック
 73
               1
 44
1.0437689845677125
  0
DIMENSION
  5
1F9
100
AcDbEntity
  8
notes
370
               5
390
0
  6
Continuous
 62
               7
100
AcDbDimension
  2
*D19
 10
-1273.9305326722388
 20
1269.0676910688958
 30
0.0
 11
-673.93053267223695
 21
1269.0676910688958
 31
0.0
 71
               5
 72
               1
 41
1.0
 42
0.0
  3
Tform線あり
100
AcDbAlignedDimension
 13
-73.930532672235131
 23
1078.7247775887031
 33
0.0
 14
-1273.9305326722388
 24
1078.7247775887031
 34
0.0
100
AcDbRotatedDimension
1001
ACAD
1000
DSTYLE
1002
{
1070
             279
1070
               2
1070
             340
1005
41
1070
             147
1040
7.5
1002
}
  0
DIMENSION
  5
1FA
100
AcDbEntity
  8
notes
370
               5
390
0
  6
Continuous
 62
               7
100
AcDbDimension
  2
*D20
 10
-773.93053267223695
 20
1181.8681109220365
 30
0.0
 11
-723.93053267223695
 21
1181.8681109220365
 31
0.0
 71
               5
 72
               1
 41
1.0
 42
0.0
  3
Tform線あり
100
AcDbAlignedDimension
 13
-673.93053267223695
 23
1012.308513615361
 33
0.0
 14
-773.93053267223695
 24
1009.808513615361
 34
0.0
100
AcDbRotatedDimension
1001
ACAD
1000
DSTYLE
1002
{
1070
             279
1070
               2
1070
             340
1005
41
1070
             147
1040
7.5
1002
}
  0
DIMENSION
  5
1FB
100
AcDbEntity
  8
notes
370
               5
390
0
  6
Continuous
 62
               7
100
AcDbDimension
  2
*D21
 10
-673.93053267223695
 20
1181.9680930747204
 30
0.0
 11
-623.93053267223695
 21
1181.9680930747204
 31
0.0
 71
               5
 72
               1
 41
1.0
 42
0.0
  3
Tform線あり
100
AcDbAlignedDimension
 13
-573.93053267223695
 23
1009.808513615361
 33
0.0
 14
-673.93053267223695
 24
1012.308513615361
 34
0.0
100
AcDbRotatedDimension
1001
ACAD
1000
DSTYLE
1002
{
1070
             279
1070
               2
1070
             340
1005
41
1070
             147
1040
7.5
1002
}
  0
DIMENSION
  5
1FC
100
AcDbEntity
  8
notes
370
               5
390
0
  6
Continuous
 62
               7
100
AcDbDimension
  2
*D22
 10
26.069467327764869
 20
1081.9680930747204
 30
0.0
 11
26.069467327764869
 21
806.96809307472006
 31
0.0
 71
               5
 72
               1
 41
1.0
 42
0.0
  3
Tform線あり
100
AcDbAlignedDimension
 13
-129.64568738565504
 23
531.9680930747196
 33
0.0
 14
-76.930532672235131
 24
1081.9680930747204
 34
0.0
 50
90.0
100
AcDbRotatedDimension
1001
ACAD
1000
DSTYLE
1002
{
1070
             279
1070
               2
1070
             340
1005
41
1070
             147
1040
7.5
1002
}
  0
DIMENSION
  5
1FD
100
AcDbEntity
  8
notes
370
               5
390
0
  6
Continuous
 62
               7
100
AcDbDimension
  2
*D23
 10
-998.93053267223331
 20
431.9680930747196
 30
0.0
 11
-673.93053267223513
 21
431.9680930747196
 31
0.0
 71
               5
 72
               1
 41
1.0
 42
0.0
  3
Tform線あり
100
AcDbAlignedDimension
 13
-348.93053267223695
 23
531.9680930747196
 33
0.0
 14
-998.93053267223331
 24
531.9680930747196
 34
0.0
100
AcDbRotatedDimension
1001
ACAD
1000
DSTYLE
1002
{
1070
             279
1070
               2
1070
             340
1005
41
1070
             147
1040
7.5
1002
}
  0
DIMENSION
  5
1FE
100
AcDbEntity
  8
notes
370
               5
390
0
  6
Continuous
 62
               7
100
AcDbDimension
  2
*D24
 10
-1373.9305326722388
 20
1081.9680930747204
 30
0.0
 11
-1373.9305326722388
 21
1006.9680930747196
 31
0.0
 71
               5
 72
               1
 41
1.0
 42
0.0
  3
Tform線あり
100
AcDbAlignedDimension
 13
-1273.9305326722388
 23
931.96809307471869
 33
0.0
 14
-1270.9305326722388
 24
1081.9680930747204
 34
0.0
 50
90.0
100
AcDbRotatedDimension
1001
ACAD
1000
DSTYLE
1002
{
1070
             279
1070
               2
1070
             340
1005
41
1070
             147
1040
7.5
1002
}
  0
DIMENSION
  5
1FF
100
AcDbEntity
  8
notes
370
               5
390
0
  6
Continuous
 62
               7
100
AcDbDimension
  2
*D25
 10
-1373.9305326722388
 20
931.96809307471869
 30
0.0
 11
-1373.9305326722388
 21
761.96809307471869
 31
0.0
 71
               5
 72
               1
 41
1.0
 42
0.0
  3
Tform線あり
100
AcDbAlignedDimension
 13
-1273.9305326722388
 23
591.96809307471869
 33
0.0
 14
-1273.9305326722388
 24
931.96809307471869
 34
0.0
 50
90.0
100
AcDbRotatedDimension
1001
ACAD
1000
DSTYLE
1002
{
1070
             279
1070
               2
1070
             340
1005
41
1070
             147
1040
7.5
1002
}
  0
DIMENSION
  5
200
100
AcDbEntity
  8
notes
370
               5
390
0
  6
Continuous
 62
               7
100
AcDbDimension
  2
*D26
 10
-428.92801714794768
 20
-856.9323089311041
 30
0.0
 11
-673.920439791239
 21
-856.9323089311041
 31
0.0
 71
               5
 72
               1
 41
1.0
 42
0.0
  3
Tform線あり
100
AcDbAlignedDimension
 13
-918.91286243453033
 23
-727.12336521195755
 33
0.0
 14
-428.92801714794768
 24
-727.12336521195755
 34
0.0
100
AcDbRotatedDimension
1001
ACAD
1000
DSTYLE
1002
{
1070
             279
1070
               2
1070
             340
1005
41
1070
             147
1040
7.5
1002
}
  0
MTEXT
  5
201
100
AcDbEntity
  8
notes
390
0
 62
               7
100
AcDbMText
 10
165.788207118022
 20
-153.80699483589785
 30
0.0
 40
36.64892578125
 41
0.0
 71
               1
 72
               1
  1
※カウンター置きの場合も壁固定が必要です。\P
  7
ＭＳ ゴシック
 73
               1
 44
0.7828267384257843
  0
LINE
  5
202
100
AcDbEntity
  8
ADF70-1609
370
              15
390
0
  6
Continuous
 62
               7
100
AcDbLine
 10
-968.93053267223695
 20
931.96809307471869
 30
0.0
 11
-378.93053267223695
 21
931.96809307472051
 31
0.0
  0
LINE
  5
203
100
AcDbEntity
  8
ADF70-1609
370
              15
390
0
  6
Continuous
 62
               7
100
AcDbLine
 10
-998.93053267223331
 20
621.96809307471869
 30
0.0
 11
-998.93053267223695
 21
901.96809307471869
 31
0.0
  0
ARC
  5
204
100
AcDbEntity
  8
ADF70-1609
370
              15
390
0
  6
Continuous
 62
               7
100
AcDbCircle
 10
-968.93053267223331
 20
621.96809307471881
 30
0.0
 40
30.0
100
AcDbArc
 50
180.0
 51
270.0
  0
LINE
  5
205
100
AcDbEntity
  8
ADF70-1609
370
              15
390
0
  6
Continuous
 62
               7
100
AcDbLine
 10
-348.93053267223695
 20
621.96809307471869
 30
0.0
 11
-348.93053267223695
 21
901.96809307472051
 31
0.0
  0
LINE
  5
206
100
AcDbEntity
  8
ADF70-1609
370
              15
390
0
  6
Continuous
 62
               7
100
AcDbLine
 10
-968.93053267223331
 20
591.96809307471869
 30
0.0
 11
-378.93053267223695
 21
591.96809307471869
 31
0.0
  0
ARC
  5
207
100
AcDbEntity
  8
ADF70-1609
370
              15
390
0
  6
Continuous
 62
               7
100
AcDbCircle
 10
-378.93053267223695
 20
901.96809307472051
 30
0.0
 40
30.0
100
AcDbArc
 50
0.0
 51
90.0
  0
ARC
  5
208
100
AcDbEntity
  8
ADF70-1609
370
              15
390
0
  6
Continuous
 62
               7
100
AcDbCircle
 10
-968.93053267223695
 20
901.96809307471881
 30
0.0
 40
30.0
100
AcDbArc
 50
90.0
 51
180.0
  0
ARC
  5
209
100
AcDbEntity
  8
ADF70-1609
370
              15
390
0
  6
Continuous
 62
               7
100
AcDbCircle
 10
-968.93053267223513
 20
621.96809307471881
 30
0.0
 40
30.0
100
AcDbArc
 50
180.0
 51
270.0
  0
ARC
  5
20A
100
AcDbEntity
  8
ADF70-1609
370
              15
390
0
  6
Continuous
 62
               7
100
AcDbCircle
 10
-378.93053267223695
 20
621.96809307471881
 30
0.0
 40
30.0
100
AcDbArc
 50
270.0
 51
0.0
  0
LINE
  5
20B
100
AcDbEntity
  8
ADF70-1609
370
              15
390
0
  6
Continuous
 62
               7
100
AcDbLine
 10
-368.55305293256424
 20
624.57711661579435
 30
0.0
 11
-368.55305293257152
 21
898.03917309554402
 31
0.0
  0
LINE
  5
20C
100
AcDbEntity
  8
ADF70-1609
370
              15
390
0
  6
Continuous
 62
               7
100
AcDbLine
 10
-979.30801241190238
 20
624.57711661579435
 30
0.0
 11
-979.30801241190238
 21
898.03917309554402
 31
0.0
  0
ARC
  5
20D
100
AcDbEntity
  8
ADF70-1609
370
              15
390
0
  6
Continuous
 62
               7
100
AcDbCircle
 10
-968.30801241190238
 20
624.57711661579447
 30
0.0
 40
11.0
100
AcDbArc
 50
180.0
 51
270.0
  0
LINE
  5
20E
100
AcDbEntity
  8
ADF70-1609
370
              15
390
0
  6
Continuous
 62
               7
100
AcDbLine
 10
-379.55305293257152
 20
909.0391730955422
 30
0.0
 11
-968.30801241190238
 21
909.03917309554402
 31
0.0
  0
ARC
  5
20F
100
AcDbEntity
  8
ADF70-1609
370
              15
390
0
  6
Continuous
 62
               7
100
AcDbCircle
 10
-968.30801241190238
 20
898.03917309554413
 30
0.0
 40
11.0
100
AcDbArc
 50
90.0
 51
180.0
  0
ARC
  5
210
100
AcDbEntity
  8
ADF70-1609
370
              15
390
0
  6
Continuous
 62
               7
100
AcDbCircle
 10
-379.55305293257152
 20
898.0391730955422
 30
0.0
 40
11.0
100
AcDbArc
 50
0.0
 51
90.0
  0
LINE
  5
211
100
AcDbEntity
  8
ADF70-1609
370
              15
390
0
  6
Continuous
 62
               7
100
AcDbLine
 10
-379.55305293256424
 20
613.57711661579435
 30
0.0
 11
-968.30801241190238
 21
613.57711661579435
 31
0.0
  0
ARC
  5
212
100
AcDbEntity
  8
ADF70-1609
370
              15
390
0
  6
Continuous
 62
               7
100
AcDbCircle
 10
-379.55305293256424
 20
624.57711661579447
 30
0.0
 40
11.0
100
AcDbArc
 50
270.0
 51
0.0
  0
SPLINE
  5
213
100
AcDbEntity
  8
ADF70-1609
370
              15
390
0
  6
Continuous
 62
               7
100
AcDbSpline
210
0.0
220
0.0
230
1.0
 70
               9
 71
               2
 72
              30
 73
              27
 74
               0
 42
0.000001
 43
0.000001
 40
0.0
 40
0.0
 40
0.0
 40
1.0
 40
1.0
 40
2.0
 40
3.0
 40
4.0
 40
5.0
 40
6.0
 40
7.0
 40
8.0
 40
9.0
 40
10.0
 40
11.0
 40
12.0
 40
13.0
 40
14.0
 40
15.0
 40
16.0
 40
17.0
 40
18.0
 40
19.0
 40
20.0
 40
21.0
 40
22.0
 40
22.0
 40
23.0
 40
23.0
 40
23.0
 10
-686.43053267223695
 20
926.23704492472336
 30
0.0
 10
-686.43053267223695
 20
926.17785950230302
 30
0.0
 10
-686.43053267223695
 20
926.11867407988268
 30
0.0
 10
-686.11213083748225
 20
925.48999771050205
 30
0.0
 10
-683.82208579142389
 20
924.77747847116791
 30
0.0
 10
-681.71518261402161
 20
924.38248313399765
 30
0.0
 10
-679.20912262506863
 20
924.0954544425191
 30
0.0
 10
-675.21395214193581
 20
923.85356835110599
 30
0.0
 10
-671.3347113180298
 20
923.93050981359613
 30
0.0
 10
-668.65194271940163
 20
924.09545513613432
 30
0.0
 10
-666.14588273044865
 20
924.38247908790856
 30
0.0
 10
-664.03897955305001
 20
924.77750205409086
 30
0.0
 10
-661.75436923249981
 20
925.49877088032974
 30
0.0
 10
-661.36459480392114
 20
926.23704492472336
 30
0.0
 10
-661.74851645118542
 20
926.98355776865048
 30
0.0
 10
-664.03897955305001
 20
927.69658779535405
 30
0.0
 10
-666.14588273045047
 20
928.09161076153816
 30
0.0
 10
-668.65194271940345
 20
928.37863471331241
 30
0.0
 10
-671.33471131802798
 20
928.5435800358506
 30
0.0
 10
-675.19946093453655
 20
928.62328683762337
 30
0.0
 10
-679.20912262506681
 20
928.37863540692763
 30
0.0
 10
-681.71518261402343
 20
928.09160671544907
 30
0.0
 10
-683.82208579142207
 20
927.696611378277
 30
0.0
 10
-686.1074277096377
 20
926.97847729349144
 30
0.0
 10
-686.43053267223695
 20
926.35541576956405
 30
0.0
 10
-686.43053267223695
 20
926.29623034714371
 30
0.0
 10
-686.43053267223695
 20
926.23704492472336
 30
0.0
  0
LWPOLYLINE
  5
214
100
AcDbEntity
  8
ADF70-1609
370
              15
390
0
  6
Continuous
 62
               7
100
AcDbPolyline
 90
        9
 70
             129
 10
-1223.930532672237
 20
531.9680930747196
 10
-123.93053267223513
 20
531.96809307471779
 42
0.414213562373095
 10
-73.930532672235131
 20
581.96809307471779
 10
-73.930532672235131
 20
1078.9680930747204
 42
0.414213562373095
 10
-76.930532672235131
 20
1081.9680930747204
 10
-1270.9305326722388
 20
1081.9680930747204
 42
0.414213562373095
 10
-1273.9305326722388
 20
1078.9680930747204
 10
-1273.930532672237
 20
581.96809307471779
 42
0.4142135623731057
 10
-1223.930532672237
 20
531.9680930747196
  0
CIRCLE
  5
215
100
AcDbEntity
  8
ADF70-1609
370
              15
390
0
  6
Continuous
 62
               7
100
AcDbCircle
 10
-673.93053267223513
 20
836.96809307472233
 30
0.0
 40
39.0
  0
CIRCLE
  5
216
100
AcDbEntity
  8
ADF70-1609
370
              15
390
0
  6
STYLE_12
 62
               7
100
AcDbCircle
 10
-673.93053267223695
 20
1002.0085136153599
 30
0.0
 40
17.5
  0
CIRCLE
  5
217
100
AcDbEntity
  8
ADF70-1609
370
              15
390
0
  6
STYLE_12
 62
               7
100
AcDbCircle
 10
-573.93053267223695
 20
1002.0085136153599
 30
0.0
 40
15.0
  0
CIRCLE
  5
218
100
AcDbEntity
  8
ADF70-1609
370
              15
390
0
  6
STYLE_12
 62
               7
100
AcDbCircle
 10
-773.93053267223695
 20
1002.00851361536
 30
0.0
 40
15.0
  0
LINE
  5
219
100
AcDbEntity
  8
ADF70-1609
370
              15
390
0
  6
Continuous
 62
               7
100
AcDbLine
 10
1009.2937075914606
 20
-567.16287547840818
 30
0.0
 11
1009.2937075914606
 21
-582.16287547840818
 31
0.0
  0
LINE
  5
21A
100
AcDbEntity
  8
ADF70-1609
370
              15
390
0
  6
Continuous
 62
               7
100
AcDbLine
 10
973.29370759146059
 20
-582.16308977464212
 30
0.0
 11
973.29370759146059
 21
-567.16308977464212
 31
0.0
  0
LINE
  5
21B
100
AcDbEntity
  8
ADF70-1609
370
              15
390
0
  6
Continuous
 62
               7
100
AcDbLine
 10
1071.2937075914615
 20
-657.15695159532004
 30
0.0
 11
1071.2937075914615
 21
-722.07989916453005
 31
0.0
  0
LINE
  5
21C
100
AcDbEntity
  8
ADF70-1609
370
              15
390
0
  6
Continuous
 62
               7
100
AcDbLine
 10
1071.2937075914615
 20
-657.15695159532004
 30
0.0
 11
1071.2937075914615
 21
-570.10470355237464
 31
0.0
  0
ARC
  5
21D
100
AcDbEntity
  8
ADF70-1609
370
              15
390
0
  6
Continuous
 62
               7
100
AcDbCircle
 10
1066.2937075914615
 20
-722.07989916453096
 30
0.0
 40
5.0
100
AcDbArc
 50
270.0
 51
0.0
  0
LINE
  5
21E
100
AcDbEntity
  8
ADF70-1609
370
              15
390
0
  6
STYLE_12
 62
               7
100
AcDbLine
 10
922.07150951592939
 20
-575.42728914330326
 30
0.0
 11
908.46928903057506
 21
-652.59060276939579
 31
0.0
  0
LINE
  5
21F
100
AcDbEntity
  8
ADF70-1609
370
              15
390
0
  6
STYLE_12
 62
               7
100
AcDbLine
 10
869.01247939522364
 20
-668.1717578259844
 30
0.0
 11
900.31392569434593
 21
-661.93483251963187
 31
0.0
  0
ARC
  5
220
100
AcDbEntity
  8
ADF70-1609
370
              15
390
0
  6
Continuous
 62
               7
100
AcDbCircle
 10
870.13603294116001
 20
-673.0438854340631
 30
0.0
 40
4.9999999999997042
100
AcDbArc
 50
102.98586741156143
 51
130.00000000001464
  0
LINE
  5
221
100
AcDbEntity
  8
ADF70-1609
370
              15
390
0
  6
Continuous
 62
               7
100
AcDbLine
 10
533.33874117640516
 20
-667.1308253723422
 30
0.0
 11
1071.2937075914615
 21
-667.14456852795627
 31
0.0
  0
LINE
  5
222
100
AcDbEntity
  8
ADF70-1609
370
              15
390
0
  6
STYLE_12
 62
               7
100
AcDbLine
 10
782.62047958387848
 20
-669.02933783676087
 30
0.0
 11
826.29370759146332
 21
-669.02933783676178
 31
0.0
  0
LINE
  5
223
100
AcDbEntity
  8
ADF70-1609
370
              15
390
0
  6
STYLE_12
 62
               7
100
AcDbLine
 10
867.13140393245703
 20
-669.02933783676178
 30
0.0
 11
826.29370759145968
 21
-669.02933783676178
 31
0.0
  0
LINE
  5
224
100
AcDbEntity
  8
ADF70-1609
370
              15
390
0
  6
STYLE_12
 62
               7
100
AcDbLine
 10
867.15552835485323
 20
-669.02933783676087
 30
0.0
 11
826.2937075914615
 21
-669.02933783676178
 31
0.0
  0
LINE
  5
225
100
AcDbEntity
  8
ADF70-1609
370
              15
390
0
  6
STYLE_12
 62
               7
100
AcDbLine
 10
802.12637916220228
 20
-685.00423158364072
 30
0.0
 11
849.8892400862278
 21
-684.9984360127745
 31
0.0
  0
LINE
  5
226
100
AcDbEntity
  8
ADF70-1609
370
              15
390
0
  6
STYLE_12
 62
               7
100
AcDbLine
 10
849.22447105140054
 20
-699.75164685296943
 30
0.0
 11
849.00629801447212
 21
-712.48109838417543
 31
0.0
  0
ARC
  5
227
100
AcDbEntity
  8
ADF70-1609
370
              15
390
0
  6
STYLE_12
 62
               7
100
AcDbCircle
 10
851.64827024894839
 20
-684.66206677271441
 30
0.0
 40
2.0000000000003517
100
AcDbArc
 50
130.00000000001256
 51
179.01809041856833
  0
LINE
  5
228
100
AcDbEntity
  8
ADF70-1609
370
              15
390
0
  6
STYLE_12
 62
               7
100
AcDbLine
 10
850.36269502957475
 20
-683.10864953615817
 30
0.0
 11
866.92209489272682
 21
-669.21366321846961
 31
0.0
  0
LINE
  5
229
100
AcDbEntity
  8
ADF70-1609
370
              15
390
0
  6
STYLE_12
 62
               7
100
AcDbLine
 10
849.00629801447212
 20
-712.48109838417543
 30
0.0
 11
803.00619779910085
 21
-712.48109838417543
 31
0.0
  0
ARC
  5
22A
100
AcDbEntity
  8
ADF70-1609
370
              15
390
0
  6
STYLE_12
 62
               7
100
AcDbCircle
 10
896.65149769743311
 20
-650.5073821842592
 30
0.0
 40
12.000000000000087
100
AcDbArc
 50
287.77033715922778
 51
350.00270314598504
  0
ARC
  5
22B
100
AcDbEntity
  8
ADF70-1609
370
              15
390
0
  6
STYLE_12
 62
               7
100
AcDbCircle
 10
931.91966896021313
 20
-577.16330629758374
 30
0.0
 40
10.00000000000073
100
AcDbArc
 50
90.000341063030348
 51
170.00270314598387
  0
LINE
  5
22C
100
AcDbEntity
  8
ADF70-1609
370
              15
390
0
  6
Continuous
 62
               7
100
AcDbLine
 10
684.64139125246038
 20
-727.07989916453187
 30
0.0
 11
1066.293707591461
 21
-727.07989916453187
 31
0.0
  0
ARC
  5
22D
100
AcDbEntity
  8
ADF70-1609
370
              15
390
0
  6
Continuous
 62
               7
100
AcDbCircle
 10
684.62184036386134
 20
-721.07989916453823
 30
0.0
 40
5.9999999999934746
100
AcDbArc
 50
228.85522362780358
 51
270.0
  0
LINE
  5
22E
100
AcDbEntity
  8
ADF70-1609
370
              15
390
0
  6
Continuous
 62
               7
100
AcDbLine
 10
619.19789188092
 20
-674.02722435775138
 30
0.0
 11
680.69789188092182
 21
-725.59819572468803
 31
0.0
  0
ARC
  5
22F
100
AcDbEntity
  8
ADF70-1609
370
              15
390
0
  6
Continuous
 62
               7
100
AcDbCircle
 10
613.93418027204825
 20
-680.05161977130263
 30
0.0
 40
8.000000000011779
100
AcDbArc
 50
48.855223627833702
 51
74.013249150425594
  0
ARC
  5
230
100
AcDbEntity
  8
ADF70-1609
370
              15
390
0
  6
Continuous
 62
               7
100
AcDbCircle
 10
627.60104797256099
 20
-631.8908017784737
 30
0.0
 40
42.062467753508905
100
AcDbArc
 50
236.91325846803193
 51
254.18475566104883
  0
LINE
  5
231
100
AcDbEntity
  8
ADF70-1609
370
              15
390
0
  6
Continuous
 62
               7
100
AcDbLine
 10
527.75222749198474
 20
-667.13082537234402
 30
0.0
 11
533.33874117640516
 21
-667.1308253723422
 31
0.0
  0
ARC
  5
232
100
AcDbEntity
  8
ADF70-1609
370
              15
390
0
  6
Continuous
 62
               7
100
AcDbCircle
 10
527.75222749198474
 20
-662.13082537234402
 30
0.0
 40
4.9999999999986962
100
AcDbArc
 50
180.99999999999682
 51
270.0
  0
LINE
  5
233
100
AcDbEntity
  8
ADF70-1609
370
              15
390
0
  6
Continuous
 62
               7
100
AcDbLine
 10
521.19933691232654
 20
-573.2094179858135
 30
0.0
 11
522.75298901620408
 21
-662.21808740453014
 31
0.0
  0
ARC
  5
234
100
AcDbEntity
  8
ADF70-1609
370
              15
390
0
  6
Continuous
 62
               7
100
AcDbCircle
 10
527.19842308326588
 20
-573.10470354718962
 30
0.0
 40
6.0000000000011022
100
AcDbArc
 50
89.997617769686073
 51
181.00000000000159
  0
LINE
  5
235
100
AcDbEntity
  8
ADF70-1609
370
              15
390
0
  6
Continuous
 62
               7
100
AcDbLine
 10
1068.2937075914615
 20
-567.10470355237464
 30
0.0
 11
527.19867254984092
 21
-567.10470355237464
 31
0.0
  0
ARC
  5
236
100
AcDbEntity
  8
ADF70-1609
370
              15
390
0
  6
STYLE_12
 62
               7
100
AcDbCircle
 10
575.24716173830529
 20
-575.10670130797405
 30
0.0
 40
8.00000000000081
100
AcDbArc
 50
17.692253082731703
 51
89.99761776966433
  0
LINE
  5
237
100
AcDbEntity
  8
ADF70-1609
370
              15
390
0
  6
STYLE_12
 62
               7
100
AcDbLine
 10
608.68244270158175
 20
-653.59812909702703
 30
0.0
 11
582.86878238323698
 21
-572.6754673116742
 31
0.0
  0
ARC
  5
238
100
AcDbEntity
  8
ADF70-1609
370
              15
390
0
  6
STYLE_12
 62
               7
100
AcDbCircle
 10
620.11487366897927
 20
-649.95127810257998
 30
0.0
 40
12.000000000000385
100
AcDbArc
 50
197.69225308271928
 51
266.99999999999432
  0
LINE
  5
239
100
AcDbEntity
  8
ADF70-1609
370
              15
390
0
  6
STYLE_12
 62
               7
100
AcDbLine
 10
780.03140202087343
 20
-668.64873652933272
 30
0.0
 11
619.48684219406277
 21
-661.9348325196346
 31
0.0
  0
ARC
  5
23A
100
AcDbEntity
  8
ADF70-1609
370
              15
390
0
  6
STYLE_12
 62
               7
100
AcDbCircle
 10
779.29869863346903
 20
-682.62955001589705
 30
0.0
 40
14.000000000000595
100
AcDbArc
 50
49.999999999990749
 51
86.99999999998704
  0
LINE
  5
23B
100
AcDbEntity
  8
ADF70-1609
370
              15
390
0
  6
STYLE_12
 62
               7
100
AcDbLine
 10
801.64980078399822
 20
-683.10864953615726
 30
0.0
 11
788.29772516908088
 21
-671.90492781223236
 31
0.0
  0
ARC
  5
23C
100
AcDbEntity
  8
ADF70-1609
370
              15
390
0
  6
STYLE_12
 62
               7
100
AcDbCircle
 10
800.81090220316764
 20
-685.04193764204058
 30
0.0
 40
2.0000000000018967
100
AcDbArc
 50
0.9819095814307655
 51
49.99999999996426
  0
LINE
  5
23D
100
AcDbEntity
  8
ADF70-1609
370
              15
390
0
  6
STYLE_12
 62
               7
100
AcDbLine
 10
803.00619779910085
 20
-712.48109838417543
 30
0.0
 11
802.53526452401184
 21
-685.0041819692741
 31
0.0
  0
LWPOLYLINE
  5
23E
100
AcDbEntity
  8
ADF70-1609
370
              15
390
0
  6
Continuous
 62
               7
100
AcDbPolyline
 90
        8
 70
             129
 10
-1273.9128624345321
 20
-570.12336521195755
 42
-0.414213562373095
 10
-1270.9128624345321
 20
-567.12336521195755
 10
-76.912862434526687
 20
-567.12336521195755
 42
-0.414213562373095
 10
-73.912862434526687
 20
-570.12336521195755
 10
-73.912862434526687
 20
-664.12336521195755
 42
-0.414213562373095
 10
-76.912862434526687
 20
-667.12336521195755
 10
-1270.9128624345321
 20
-667.12336521195755
 42
-0.414213562373095
 10
-1273.9128624345321
 20
-664.12336521195755
  0
LINE
  5
23F
100
AcDbEntity
  8
ADF70-1609
370
              15
390
0
  6
Continuous
 62
               7
100
AcDbLine
 10
-918.92801714794768
 20
-727.12336521195755
 30
0.0
 11
-428.92801714794768
 21
-727.12336521195755
 31
0.0
  0
LINE
  5
240
100
AcDbEntity
  8
ADF70-1609
370
              15
390
0
  6
Continuous
 62
               7
100
AcDbLine
 10
-428.91286243452851
 20
-727.12336521195755
 30
0.0
 11
-133.91286243452851
 21
-667.12336521195755
 31
0.0
  0
LINE
  5
241
100
AcDbEntity
  8
ADF70-1609
370
              15
390
0
  6
Continuous
 62
               7
100
AcDbLine
 10
-428.92801714794768
 20
-727.12336521195755
 30
0.0
 11
-288.92801714794768
 21
-667.12336521195755
 31
0.0
  0
LINE
  5
242
100
AcDbEntity
  8
ADF70-1609
370
              15
390
0
  6
Continuous
 62
               7
100
AcDbLine
 10
-918.92801714794768
 20
-727.12336521195755
 30
0.0
 11
-1213.9280171479477
 21
-667.12336521195755
 31
0.0
  0
LINE
  5
243
100
AcDbEntity
  8
ADF70-1609
370
              15
390
0
  6
Continuous
 62
               7
100
AcDbLine
 10
-918.91286243453033
 20
-727.12336521195755
 30
0.0
 11
-1058.9128624345303
 21
-667.12336521195755
 31
0.0
  0
LWPOLYLINE
  5
244
100
AcDbEntity
  8
ADF70-1609
370
              15
390
0
  6
STYLE_12
 62
               7
100
AcDbPolyline
 90
        9
 70
             129
 10
220.86543492721648
 20
531.9680930747196
 10
1320.8654349272201
 20
531.96809307471779
 42
0.414213562373095
 10
1370.8654349272201
 20
581.96809307471779
 10
1370.8654349272201
 20
1078.9680930747204
 42
0.414213562373095
 10
1367.8654349272201
 20
1081.9680930747204
 10
173.86543492721466
 20
1081.9680930747204
 42
0.414213562373095
 10
170.86543492721466
 20
1078.9680930747204
 10
170.86543492721648
 20
581.96809307471779
 42
0.4142135623731057
 10
220.86543492721648
 20
531.9680930747196
  0
CIRCLE
  5
245
100
AcDbEntity
  8
ADF70-1609
370
              15
390
0
  6
STYLE_12
 62
               7
100
AcDbCircle
 10
770.86543492722194
 20
836.96809307472233
 30
0.0
 40
23.043551013695833
  0
CIRCLE
  5
246
100
AcDbEntity
  8
ADF70-1609
370
              15
390
0
  6
STYLE_12
 62
               7
100
AcDbCircle
 10
770.86543492722012
 20
1002.0085136153598
 30
0.0
 40
17.5
  0
CIRCLE
  5
247
100
AcDbEntity
  8
ADF70-1609
370
              15
390
0
  6
STYLE_12
 62
               7
100
AcDbCircle
 10
870.86543492722012
 20
1002.0085136153598
 30
0.0
 40
15.0
  0
CIRCLE
  5
248
100
AcDbEntity
  8
ADF70-1609
370
              15
390
0
  6
STYLE_12
 62
               7
100
AcDbCircle
 10
670.86543492721739
 20
1002.0085136153599
 30
0.0
 40
15.000000000000909
  0
POLYLINE
  5
249
100
AcDbEntity
  8
ADF70-1609
370
              15
390
0
  6
Continuous
 62
               7
100
AcDb2dPolyline
 66
               1
 10
0.0
 20
0.0
 30
0.0
 75
               5
  0
VERTEX
  5
24A
100
AcDbEntity
  8
ADF70-1609
370
              15
390
0
  6
Continuous
 62
               7
100
AcDbVertex
100
AcDb2dVertex
 10
1310.8654349272183
 20
1081.9680930747204
 30
0.0
  0
VERTEX
  5
24B
100
AcDbEntity
  8
ADF70-1609
370
              15
390
0
  6
Continuous
 62
               7
100
AcDbVertex
100
AcDb2dVertex
 10
1310.8654349272183
 20
581.9680930747196
 30
0.0
  0
VERTEX
  5
24C
100
AcDbEntity
  8
ADF70-1609
370
              15
390
0
  6
Continuous
 62
               7
100
AcDbVertex
100
AcDb2dVertex
 10
230.86543492721648
 20
581.9680930747196
 30
0.0
  0
VERTEX
  5
24D
100
AcDbEntity
  8
ADF70-1609
370
              15
390
0
  6
Continuous
 62
               7
100
AcDbVertex
100
AcDb2dVertex
 10
230.86543492721648
 20
1081.9680930747204
 30
0.0
  0
SEQEND
  5
24E
100
AcDbEntity
  8
ADF70-1609
370
              15
390
0
  6
Continuous
 62
               7
  0
LINE
  5
24F
100
AcDbEntity
  8
ADF70-1609
370
              15
390
0
  6
STYLE_12
 62
               7
100
AcDbLine
 10
-1105.347307523758
 20
-627.12336521195755
 30
0.0
 11
-1105.347307523758
 21
-587.12336521195755
 31
0.0
  0
INSERT
  5
250
100
AcDbEntity
  8
ADF70-1609
390
0
 62
               7
100
AcDbBlockReference
  2
グループ-1
 10
5154.6044521033864
 20
923.71971857551546
 30
0.0
  0
POLYLINE
  5
251
100
AcDbEntity
  8
ADF70-1609
370
              15
390
0
  6
Continuous
 62
               7
100
AcDb2dPolyline
 66
               1
 10
0.0
 20
0.0
 30
0.0
 70
               1
 75
               5
  0
VERTEX
  5
252
100
AcDbEntity
  8
ADF70-1609
370
              15
390
0
  6
Continuous
 62
               7
100
AcDbVertex
100
AcDb2dVertex
 10
595.8654349272183
 20
1061.9680930747204
 30
0.0
  0
VERTEX
  5
253
100
AcDbEntity
  8
ADF70-1609
370
              15
390
0
  6
Continuous
 62
               7
100
AcDbVertex
100
AcDb2dVertex
 10
945.86543492722103
 20
1061.9680930747204
 30
0.0
  0
VERTEX
  5
254
100
AcDbEntity
  8
ADF70-1609
370
              15
390
0
  6
Continuous
 62
               7
100
AcDbVertex
100
AcDb2dVertex
 10
945.86543492722103
 20
801.96809307472051
 30
0.0
  0
VERTEX
  5
255
100
AcDbEntity
  8
ADF70-1609
370
              15
390
0
  6
Continuous
 62
               7
100
AcDbVertex
100
AcDb2dVertex
 10
595.8654349272183
 20
801.96809307472051
 30
0.0
  0
SEQEND
  5
256
100
AcDbEntity
  8
ADF70-1609
370
              15
390
0
  6
Continuous
 62
               7
  0
LINE
  5
257
100
AcDbEntity
  8
ADF70-1609
370
              15
390
0
  6
STYLE_12
 62
               7
100
AcDbLine
 10
-1085.347307523758
 20
-607.12336521195755
 30
0.0
 11
-1125.347307523758
 21
-607.12336521195755
 31
0.0
  0
CIRCLE
  5
258
100
AcDbEntity
  8
ADF70-1609
370
              15
390
0
  6
STYLE_12
 62
               7
100
AcDbCircle
 10
-1105.347307523758
 20
-607.12336521195755
 30
0.0
 40
10.0
  0
LINE
  5
259
100
AcDbEntity
  8
ADF70-1609
370
              15
390
0
  6
STYLE_12
 62
               7
100
AcDbLine
 10
-815.34730752375799
 20
-627.12336521195755
 30
0.0
 11
-815.34730752375799
 21
-587.12336521195755
 31
0.0
  0
LINE
  5
25A
100
AcDbEntity
  8
ADF70-1609
370
              15
390
0
  6
STYLE_12
 62
               7
100
AcDbLine
 10
-795.34730752375799
 20
-607.12336521195755
 30
0.0
 11
-835.34730752375799
 21
-607.12336521195755
 31
0.0
  0
CIRCLE
  5
25B
100
AcDbEntity
  8
ADF70-1609
370
              15
390
0
  6
STYLE_12
 62
               7
100
AcDbCircle
 10
-815.34730752375799
 20
-607.12336521195755
 30
0.0
 40
10.0
  0
LINE
  5
25C
100
AcDbEntity
  8
ADF70-1609
370
              15
390
0
  6
STYLE_12
 62
               7
100
AcDbLine
 10
-535.34730752375799
 20
-627.12336521195755
 30
0.0
 11
-535.34730752375799
 21
-587.12336521195755
 31
0.0
  0
LINE
  5
25D
100
AcDbEntity
  8
ADF70-1609
370
              15
390
0
  6
STYLE_12
 62
               7
100
AcDbLine
 10
-515.34730752375799
 20
-607.12336521195755
 30
0.0
 11
-555.34730752375799
 21
-607.12336521195755
 31
0.0
  0
CIRCLE
  5
25E
100
AcDbEntity
  8
ADF70-1609
370
              15
390
0
  6
STYLE_12
 62
               7
100
AcDbCircle
 10
-535.34730752375799
 20
-607.12336521195755
 30
0.0
 40
10.0
  0
LINE
  5
25F
100
AcDbEntity
  8
ADF70-1609
370
              15
390
0
  6
STYLE_12
 62
               7
100
AcDbLine
 10
-245.34730752375799
 20
-627.12336521195755
 30
0.0
 11
-245.34730752375799
 21
-587.12336521195755
 31
0.0
  0
LINE
  5
260
100
AcDbEntity
  8
ADF70-1609
370
              15
390
0
  6
STYLE_12
 62
               7
100
AcDbLine
 10
-225.34730752375799
 20
-607.12336521195755
 30
0.0
 11
-265.34730752375799
 21
-607.12336521195755
 31
0.0
  0
CIRCLE
  5
261
100
AcDbEntity
  8
ADF70-1609
370
              15
390
0
  6
STYLE_12
 62
               7
100
AcDbCircle
 10
-245.3473075237589
 20
-607.12336521195755
 30
0.0
 40
10.0
  0
LINE
  5
262
100
AcDbEntity
  8
ADF70-1609
370
              15
390
0
  6
STYLE_12
 62
               7
100
AcDbLine
 10
-632.34107603532448
 20
-668.1717578259844
 30
0.0
 11
-375.00149581488404
 21
-663.35244243184241
 31
0.0
  0
LINE
  5
263
100
AcDbEntity
  8
ADF70-1609
370
              15
390
0
  6
STYLE_12
 62
               7
100
AcDbLine
 10
-721.32215340967105
 20
-668.64873652933272
 30
0.0
 11
-972.78234711424011
 21
-663.35244243184241
 31
0.0
  0
INSERT
  5
264
100
AcDbEntity
  8
ADF70-1609
390
0
 62
               7
100
AcDbBlockReference
  2
グループ-2
 10
5154.6044521033864
 20
923.71971857551546
 30
0.0
  0
INSERT
  5
265
100
AcDbEntity
  8
ADF70-1609
390
0
 62
               7
100
AcDbBlockReference
  2
グループ-4
 10
5154.6044521033864
 20
923.71971857551546
 30
0.0
  0
ARC
  5
266
100
AcDbEntity
  8
ADF70-1609
370
              15
390
0
  6
Continuous
 62
               7
100
AcDbCircle
 10
-631.21752248938446
 20
-673.0438854340631
 30
0.0
 40
4.9999999999997042
100
AcDbArc
 50
102.98586741156143
 51
130.00000000001464
  0
LINE
  5
267
100
AcDbEntity
  8
ADF70-1609
370
              15
390
0
  6
STYLE_12
 62
               7
100
AcDbLine
 10
-634.22215149808744
 20
-669.02933783676178
 30
0.0
 11
-718.73307584806207
 21
-669.02933783676178
 31
0.0
  0
LINE
  5
268
100
AcDbEntity
  8
ADF70-1609
370
              15
390
0
  6
STYLE_12
 62
               7
100
AcDbLine
 10
-699.22717626834219
 20
-683.69479196590544
 30
0.0
 11
-651.46431534431667
 21
-683.68899639503923
 31
0.0
  0
LINE
  5
269
100
AcDbEntity
  8
ADF70-1609
370
              15
390
0
  6
STYLE_12
 62
               7
100
AcDbLine
 10
-651.70499149298757
 20
-684.6064649898093
 30
0.0
 11
-651.34725741607235
 21
-712.01765723106689
 31
0.0
  0
ARC
  5
26A
100
AcDbEntity
  8
ADF70-1609
370
              15
390
0
  6
STYLE_12
 62
               7
100
AcDbCircle
 10
-649.70528518159608
 20
-684.64073842239702
 30
0.0
 40
2.0000000000003517
100
AcDbArc
 50
130.00000000001256
 51
179.01809041856833
  0
LINE
  5
26B
100
AcDbEntity
  8
ADF70-1609
370
              15
390
0
  6
STYLE_12
 62
               7
100
AcDbLine
 10
-650.99086040096972
 20
-683.10864953615817
 30
0.0
 11
-634.43146053781766
 21
-669.21366321846961
 31
0.0
  0
LINE
  5
26C
100
AcDbEntity
  8
ADF70-1609
370
              15
390
0
  6
STYLE_12
 62
               7
100
AcDbLine
 10
-651.34725741607235
 20
-712.01765723106689
 30
0.0
 11
-697.34735763144363
 21
-712.01765723106689
 31
0.0
  0
ARC
  5
26D
100
AcDbEntity
  8
ADF70-1609
370
              15
390
0
  6
STYLE_12
 62
               7
100
AcDbCircle
 10
-722.05485679707544
 20
-682.62955001589705
 30
0.0
 40
14.000000000000595
100
AcDbArc
 50
49.999999999990749
 51
86.99999999998704
  0
LINE
  5
26E
100
AcDbEntity
  8
ADF70-1609
370
              15
390
0
  6
STYLE_12
 62
               7
100
AcDbLine
 10
-699.70375464654626
 20
-683.10864953615726
 30
0.0
 11
-713.0558302614636
 21
-671.90492781223236
 31
0.0
  0
ARC
  5
26F
100
AcDbEntity
  8
ADF70-1609
370
              15
390
0
  6
STYLE_12
 62
               7
100
AcDbCircle
 10
-700.98932986592172
 20
-684.64073842239611
 30
0.0
 40
2.0000000000018967
100
AcDbArc
 50
0.9819095814307655
 51
49.99999999996426
  0
LINE
  5
270
100
AcDbEntity
  8
ADF70-1609
370
              15
390
0
  6
STYLE_12
 62
               7
100
AcDbLine
 10
-698.51947242876849
 20
-712.03774637978893
 30
0.0
 11
-698.98962355452841
 21
-684.60646498980839
 31
0.0
  0
ARC
  5
271
100
AcDbEntity
  8
ADF70-1609
370
              15
390
0
  6
Continuous
 62
               7
100
AcDbCircle
 10
1068.2937075914615
 20
-570.10470355237464
 30
0.0
 40
3.0
100
AcDbArc
 50
0.0
 51
90.0
  0
ENDSEC
  0
SECTION
  2
OBJECTS
  0
DICTIONARY
  5
19
100
AcDbDictionary
280
               0
281
               1
  3
ACAD_GROUP
350
1A
  3
ACAD_MLINESTYLE
350
1B
  3
ACAD_LAYOUT
350
1E
  3
ACAD_PLOTSETTINGS
350
22
  3
ACAD_PLOTSTYLENAME
350
1F
  0
DICTIONARY
  5
1A
102
{ACAD_REACTORS
330
19
102
}
100
AcDbDictionary
280
               0
281
               1
  0
DICTIONARY
  5
1B
102
{ACAD_REACTORS
330
19
102
}
100
AcDbDictionary
280
               0
281
               1
  3
Standard
350
1C
  0
MLINESTYLE
  5
1C
102
{ACAD_REACTORS
330
1B
102
}
100
AcDbMlineStyle
  2
Standard
 70
               0
  3

 62
               0
 51
90.0
 52
90.0
 71
               2
 49
0.5
 62
             256
  6
ByLayer
 49
-0.5
 62
             256
  6
ByLayer
  0
ACDBDICTIONARYWDFLT
  5
1F
102
{ACAD_REACTORS
330
19
102
}
100
AcDbDictionary
281
               1
  3
Normal
350
1D
100
AcDbDictionaryWithDefault
340
1D
  0
ACDBPLACEHOLDER
  5
1D
102
{ACAD_REACTORS
330
1F
102
}
  0
LAYOUT
  5
20
102
{ACAD_REACTORS
330
1E
102
}
100
AcDbPlotSettings
  1

  2

  4

  6

 40
0.0
 41
0.0
 42
0.0
 43
0.0
 44
0.0
 45
0.0
 46
0.0
 47
0.0
 48
0.0
 49
0.0
140
0.0
141
0.0
142
1.0
143
1.0
 70
            1024
 72
               0
 73
               0
 74
               0
  7

 75
               0
147
1.0
148
0.0
149
0.0
100
AcDbLayout
  1
Model
 70
               0
 71
               0
 10
0.0
 20
0.0
 11
0.0
 21
0.0
 12
0.0
 22
0.0
 32
0.0
 14
0.0
 24
0.0
 34
0.0
 15
0.0
 25
0.0
 35
0.0
146
0.0
 13
0.0
 23
0.0
 33
0.0
 16
0.0
 26
0.0
 36
0.0
 17
0.0
 27
0.0
 37
0.0
 76
               0
330
A
331
0
345
0
346
0
  0
LAYOUT
  5
21
102
{ACAD_REACTORS
330
1E
102
}
100
AcDbPlotSettings
  1

  2

  4

  6

 40
0.0
 41
0.0
 42
0.0
 43
0.0
 44
0.0
 45
0.0
 46
0.0
 47
0.0
 48
0.0
 49
0.0
140
0.0
141
0.0
142
1.0
143
1.0
 70
               0
 72
               0
 73
               0
 74
               0
  7

 75
               0
147
1.0
148
0.0
149
0.0
100
AcDbLayout
  1
Layout1
 70
               0
 71
               0
 10
0.0
 20
0.0
 11
0.0
 21
0.0
 12
0.0
 22
0.0
 32
0.0
 14
0.0
 24
0.0
 34
0.0
 15
0.0
 25
0.0
 35
0.0
146
0.0
 13
0.0
 23
0.0
 33
0.0
 16
0.0
 26
0.0
 36
0.0
 17
0.0
 27
0.0
 37
0.0
 76
               0
330
B
331
0
345
0
346
0
  0
DICTIONARY
  5
1E
102
{ACAD_REACTORS
330
19
102
}
100
AcDbDictionary
280
               0
281
               1
  3
Layout1
350
21
  3
Model
350
20
  0
DICTIONARY
  5
22
102
{ACAD_REACTORS
330
19
102
}
100
AcDbDictionary
280
               0
281
               1
  0
ENDSEC
  0
EOF
