  0
SECTION
  2
HEADER
  9
$ACADVER
  1
AC1015
  9
$ACADMAINTVER
 70
               6
  9
$DWGCODEPAGE
  3
ANSI_932
  9
$INSBASE
 10
0.0
 20
0.0
 30
0.0
  9
$EXTMIN
 10
-975.00000000024102
 20
-3065.1899973877748
 30
-15270.313678534712
  9
$EXTMAX
 10
9111.5802818960219
 20
6613.3308330447471
 30
14.834305555555552
  9
$LIMMIN
 10
0.0
 20
0.0
  9
$LIMMAX
 10
0.0
 20
0.0
  9
$ORTHOMODE
 70
               0
  9
$REGENMODE
 70
               1
  9
$FILLMODE
 70
               1
  9
$QTEXTMODE
 70
               0
  9
$MIRRTEXT
 70
               1
  9
$LTSCALE
 40
12.699999999999999
  9
$ATTMODE
 70
               1
  9
$TEXTSIZE
 40
0.2
  9
$TRACEWID
 40
1.0
  9
$TEXTSTYLE
  7
Standard
  9
$CLAYER
  8
notes
  9
$CELTYPE
  6
Continuous
  9
$CECOLOR
 62
             256
  9
$CELTSCALE
 40
1.0
  9
$DISPSILH
 70
               0
  9
$DIMSCALE
 40
1.0
  9
$DIMASZ
 40
22.4482421875
  9
$DIMEXO
 40
15.875
  9
$DIMDLI
 40
10.16
  9
$DIMRND
 40
0.0
  9
$DIMDLE
 40
1.5874999999999999
  9
$DIMEXE
 40
31.75
  9
$DIMTP
 40
0.0
  9
$DIMTM
 40
0.0
  9
$DIMTXT
 40
24.432617187500004
  9
$DIMCEN
 40
0.0
  9
$DIMTSZ
 40
0.0
  9
$DIMTOL
 70
               0
  9
$DIMLIM
 70
               0
  9
$DIMTIH
 70
               0
  9
$DIMTOH
 70
               0
  9
$DIMSE1
 70
               0
  9
$DIMSE2
 70
               0
  9
$DIMTAD
 70
               1
  9
$DIMZIN
 70
              11
  9
$DIMBLK
  1
VW_SLASH
  9
$DIMASO
 70
               1
  9
$DIMSHO
 70
               1
  9
$DIMPOST
  1
<>
  9
$DIMAPOST
  1
[]
  9
$DIMALT
 70
               0
  9
$DIMALTD
 70
               1
  9
$DIMALTF
 40
1.0
  9
$DIMLFAC
 40
1.0
  9
$DIMTOFL
 70
               1
  9
$DIMTVP
 40
0.0
  9
$DIMTIX
 70
               1
  9
$DIMSOXD
 70
               0
  9
$DIMSAH
 70
               0
  9
$DIMBLK1
  1

  9
$DIMBLK2
  1

  9
$DIMSTYLE
  2
Arch
  9
$DIMCLRD
 70
               0
  9
$DIMCLRE
 70
               0
  9
$DIMCLRT
 70
               0
  9
$DIMTFAC
 40
1.0
  9
$DIMGAP
 40
1.5874999999999999
  9
$DIMJUST
 70
               0
  9
$DIMSD1
 70
               0
  9
$DIMSD2
 70
               0
  9
$DIMTOLJ
 70
               1
  9
$DIMTZIN
 70
              11
  9
$DIMALTZ
 70
              11
  9
$DIMALTTZ
 70
              11
  9
$DIMUPT
 70
               0
  9
$DIMDEC
 70
               1
  9
$DIMTDEC
 70
               1
  9
$DIMALTU
 70
               2
  9
$DIMALTTD
 70
               2
  9
$DIMTXSTY
  7
ＭＳ ゴシック
  9
$DIMAUNIT
 70
               0
  9
$DIMADEC
 70
               2
  9
$DIMALTRND
 40
0.0
  9
$DIMAZIN
 70
               0
  9
$DIMDSEP
 70
              46
  9
$DIMATFIT
 70
               0
  9
$DIMFRAC
 70
               2
  9
$DIMLDRBLK
  1

  9
$DIMLUNIT
 70
               2
  9
$DIMLWD
 70
              -2
  9
$DIMLWE
 70
              -2
  9
$DIMTMOVE
 70
               0
  9
$LUNITS
 70
               2
  9
$LUPREC
 70
               4
  9
$SKETCHINC
 40
0.1
  9
$FILLETRAD
 40
0.0
  9
$AUNITS
 70
               0
  9
$AUPREC
 70
               0
  9
$MENU
  1
acad
  9
$ELEVATION
 40
0.0
  9
$PELEVATION
 40
0.0
  9
$THICKNESS
 40
0.0
  9
$LIMCHECK
 70
               0
  9
$CHAMFERA
 40
0.0
  9
$CHAMFERB
 40
0.0
  9
$CHAMFERC
 40
0.0
  9
$CHAMFERD
 40
0.0
  9
$SKPOLY
 70
               0
  9
$TDCREATE
 40
2456045.621666667
  9
$TDUCREATE
 40
0.000000000
  9
$TDUPDATE
 40
2456045.621666667
  9
$TDUUPDATE
 40
0.000000000
  9
$TDINDWG
 40
0.0000000000
  9
$TDUSRTIMER
 40
0.0000000000
  9
$USRTIMER
 70
               1
  9
$ANGBASE
 50
0.0
  9
$ANGDIR
 70
               0
  9
$PDMODE
 70
               1
  9
$PDSIZE
 40
-2.0
  9
$PLINEWID
 40
0.0
  9
$SPLFRAME
 70
               0
  9
$SPLINETYPE
 70
               6
  9
$SPLINESEGS
 70
               8
  9
$HANDSEED
  5
24F
  9
$SURFTAB1
 70
               6
  9
$SURFTAB2
 70
               6
  9
$SURFTYPE
 70
               6
  9
$SURFU
 70
               6
  9
$SURFV
 70
               6
  9
$UCSBASE
  2

  9
$UCSNAME
  2

  9
$UCSORG
 10
0.0
 20
0.0
 30
0.0
  9
$UCSXDIR
 10
1.0
 20
0.0
 30
0.0
  9
$UCSYDIR
 10
0.0
 20
1.0
 30
0.0
  9
$UCSORTHOREF
  2

  9
$UCSORTHOVIEW
 70
               0
  9
$UCSORGTOP
 10
0.0
 20
0.0
 30
0.0
  9
$UCSORGBOTTOM
 10
0.0
 20
0.0
 30
0.0
  9
$UCSORGLEFT
 10
0.0
 20
0.0
 30
0.0
  9
$UCSORGRIGHT
 10
0.0
 20
0.0
 30
0.0
  9
$UCSORGFRONT
 10
0.0
 20
0.0
 30
0.0
  9
$UCSORGBACK
 10
0.0
 20
0.0
 30
0.0
  9
$PUCSBASE
  2

  9
$PUCSNAME
  2

  9
$PUCSORG
 10
0.0
 20
0.0
 30
0.0
  9
$PUCSXDIR
 10
1.0
 20
0.0
 30
0.0
  9
$PUCSYDIR
 10
0.0
 20
1.0
 30
0.0
  9
$PUCSORTHOREF
  2

  9
$PUCSORTHOVIEW
 70
               0
  9
$PUCSORGTOP
 10
0.0
 20
0.0
 30
0.0
  9
$PUCSORGBOTTOM
 10
0.0
 20
0.0
 30
0.0
  9
$PUCSORGLEFT
 10
0.0
 20
0.0
 30
0.0
  9
$PUCSORGRIGHT
 10
0.0
 20
0.0
 30
0.0
  9
$PUCSORGFRONT
 10
0.0
 20
0.0
 30
0.0
  9
$PUCSORGBACK
 10
0.0
 20
0.0
 30
0.0
  9
$USERI1
 70
               0
  9
$USERI2
 70
               0
  9
$USERI3
 70
               0
  9
$USERI4
 70
               0
  9
$USERI5
 70
               0
  9
$USERR1
 40
0.0
  9
$USERR2
 40
0.0
  9
$USERR3
 40
0.0
  9
$USERR4
 40
0.0
  9
$USERR5
 40
0.0
  9
$WORLDVIEW
 70
               1
  9
$SHADEDGE
 70
               3
  9
$SHADEDIF
 70
              70
  9
$TILEMODE
 70
               1
  9
$MAXACTVP
 70
              64
  9
$PINSBASE
 10
0.0
 20
0.0
 30
0.0
  9
$PLIMCHECK
 70
               0
  9
$PEXTMIN
 10
1.0000000000000000E+20
 20
1.0000000000000000E+20
 30
1.0000000000000000E+20
  9
$PEXTMAX
 10
-1.0000000000000000E+20
 20
-1.0000000000000000E+20
 30
-1.0000000000000000E+20
  9
$PLIMMIN
 10
0.0
 20
0.0
  9
$PLIMMAX
 10
12.0
 20
9.0
  9
$UNITMODE
 70
               0
  9
$VISRETAIN
 70
               0
  9
$PLINEGEN
 70
               1
  9
$PSLTSCALE
 70
               0
  9
$TREEDEPTH
 70
            3020
  9
$CMLSTYLE
  2
Standard
  9
$CMLJUST
 70
               0
  9
$CMLSCALE
 40
1.0
  9
$PROXYGRAPHICS
 70
               0
  9
$MEASUREMENT
 70
               1
  9
$CELWEIGHT
370
               0
  9
$ENDCAPS
280
               0
  9
$JOINSTYLE
280
               0
  9
$LWDISPLAY
290
               1
  9
$INSUNITS
 70
               4
  9
$HYPERLINKBASE
  1

  9
$STYLESHEET
  1

  9
$XEDIT
290
               1
  9
$CEPSNTYPE
380
               0
  9
$PSTYLEMODE
290
               1
  9
$FINGERPRINTGUID
  2

  9
$VERSIONGUID
  2

  9
$EXTNAMES
290
               1
  9
$PSVPSCALE
 40
0.0
  0
ENDSEC
  0
SECTION
  2
CLASSES
  0
CLASS
  1
LWPOLYLINE
  2
AcDbPolyline
  3
AutoCAD 2000
 90
        0
280
               0
281
               1
  0
CLASS
  1
IMAGE
  2
AcDbRasterImage
  3
ISM
 90
      127
280
               0
281
               1
  0
CLASS
  1
OLE2FRAME
  2
AcDbOle2Frame
  3
AutoCAD 2000
 90
        0
280
               0
281
               1
  0
CLASS
  1
HATCH
  2
AcDbHatch
  3
AutoCAD 2000
 90
        0
280
               0
281
               1
  0
CLASS
  1
DICTIONARYVAR
  2
AcDbDictionaryVar
  3
AutoCAD 2000
 90
        0
280
               0
281
               0
  0
CLASS
  1
RASTERVARIABLES
  2
AcDbRasterVariables
  3
ISM
 90
        0
280
               0
281
               0
  0
CLASS
  1
IMAGEDEF
  2
AcDbRasterImageDef
  3
ISM
 90
        0
280
               0
281
               0
  0
CLASS
  1
IMAGEDEF_REACTOR
  2
AcDbRasterImageDefReactor
  3
ISM
 90
        1
280
               0
281
               0
  0
CLASS
  1
IDBUFFER
  2
AcDbIdBuffer
  3
AutoCAD 2000
 90
        0
280
               0
281
               0
  0
CLASS
  1
SPATIAL_FILTER
  2
AcDbSpatialFilter
  3
AutoCAD 2000
 90
        0
280
               0
281
               0
  0
CLASS
  1
XRECORD
  2
AcDbXrecord
  3
AutoCAD 2000
 90
        0
280
               0
281
               0
  0
CLASS
  1
SORTENTSTABLE
  2
AcDbSortentsTable
  3
AutoCAD 2000
 90
        0
280
               0
281
               0
  0
CLASS
  1
LAYER_INDEX
  2
AcDbLayerIndex
  3
AutoCAD 2000
 90
        0
280
               0
281
               0
  0
CLASS
  1
SPATIAL_INDEX
  2
AcDbSpatialIndex
  3
AutoCAD 2000
 90
        0
280
               0
281
               0
  0
CLASS
  1
OBJECT_PTR
  2
CAseDLPNTableRecord
  3
"ASE-LPNTableRecord"
 90
        1
280
               0
281
               0
  0
CLASS
  1
LAYOUT
  2
AcDbLayout
  3
AutoCAD 2000
 90
        0
280
               0
281
               0
  0
CLASS
  1
PLOTSETTINGS
  2
AcDbPlotSettings
  3
AutoCAD 2000
 90
        0
280
               0
281
               0
  0
CLASS
  1
ACDBDICTIONARYWDFLT
  2
AcDbDictionaryWithDefault
  3
AutoCAD 2000
 90
        0
280
               0
281
               0
  0
CLASS
  1
ACDBPLACEHOLDER
  2
AcDbPlaceHolder
  3
AutoCAD 2000
 90
        0
280
               0
281
               0
  0
ENDSEC
  0
SECTION
  2
TABLES
  0
TABLE
  2
VPORT
  5
7
100
AcDbSymbolTable
 70
               1
  0
VPORT
  5
15
100
AcDbSymbolTableRecord
100
AcDbViewportTableRecord
  2
*ACTIVE
 70
               0
 10
0.0
 20
0.0
 11
1.0
 21
1.0
 12
4068.29014094789
 22
1774.0704178284864
 13
0.0
 23
0.0
 14
1.0
 24
1.0
 15
0.0
 25
0.0
 16
0.0
 26
0.0
 36
1.0
 17
0.0
 27
0.0
 37
0.0
 40
9678.5208304325224
 41
0.688564
 42
50.0
 43
0.0
 44
0.0
 50
0.0
 51
0.0
 71
               0
 72
            2000
 73
               1
 74
               1
 75
               0
 76
               0
 77
               0
 78
               0
281
               0
 65
               0
110
0.0
120
0.0
130
0.0
111
1.0
121
0.0
131
0.0
112
0.0
122
1.0
132
0.0
345
0
346
0
 79
               0
146
0.0
  0
ENDTAB
  0
TABLE
  2
LTYPE
  5
4
100
AcDbSymbolTable
 70
              27
  0
LTYPE
  5
11
100
AcDbSymbolTableRecord
100
AcDbLinetypeTableRecord
  2
ByBlock
 70
              64
  3

 72
              65
 73
               0
 40
0.0
  0
LTYPE
  5
12
100
AcDbSymbolTableRecord
100
AcDbLinetypeTableRecord
  2
ByLayer
 70
              64
  3

 72
              65
 73
               0
 40
0.0
  0
LTYPE
  5
13
100
AcDbSymbolTableRecord
100
AcDbLinetypeTableRecord
  2
Continuous
 70
              64
  3
Solid line
 72
              65
 73
               0
 40
0.0
  0
LTYPE
  5
3C
100
AcDbSymbolTableRecord
100
AcDbLinetypeTableRecord
  2
STYLE_01
 70
               0
  3

 72
              65
 73
               2
 40
17.716535433070867
 49
11.811023622047244
 74
               0
 49
-5.9055118110236222
 74
               0
  0
LTYPE
  5
3D
100
AcDbSymbolTableRecord
100
AcDbLinetypeTableRecord
  2
STYLE_02
 70
               0
  3

 72
              65
 73
               2
 40
0.75
 49
0.4999999999999999
 74
               0
 49
-0.25
 74
               0
  0
LTYPE
  5
3E
100
AcDbSymbolTableRecord
100
AcDbLinetypeTableRecord
  2
STYLE_03
 70
               0
  3

 72
              65
 73
               4
 40
0.4513891732283464
 49
0.1388889763779528
 74
               0
 49
-0.1388889763779528
 74
               0
 49
0.0347222440944882
 74
               0
 49
-0.1388889763779527
 74
               0
  0
LTYPE
  5
3F
100
AcDbSymbolTableRecord
100
AcDbLinetypeTableRecord
  2
STYLE_04
 70
               0
  3

 72
              65
 73
               4
 40
0.2997984251968504
 49
0.2477153543307087
 74
               0
 49
-0.0173610236220472
 74
               0
 49
0.0173610236220472
 74
               0
 49
-0.0173610236220472
 74
               0
  0
LTYPE
  5
40
100
AcDbSymbolTableRecord
100
AcDbLinetypeTableRecord
  2
STYLE_05
 70
               0
  3

 72
              65
 73
               4
 40
0.2997984251968504
 49
0.2477153543307087
 74
               0
 49
-0.0173610236220472
 74
               0
 49
0.0173610236220472
 74
               0
 49
-0.0173610236220472
 74
               0
  0
LTYPE
  5
41
100
AcDbSymbolTableRecord
100
AcDbLinetypeTableRecord
  2
STYLE_06
 70
               0
  3

 72
              65
 73
               4
 40
0.2636738188976378
 49
0.2009931102362205
 74
               0
 49
-0.0145903543307086
 74
               0
 49
0.0335
 74
               0
 49
-0.0145903543307086
 74
               0
  0
LTYPE
  5
42
100
AcDbSymbolTableRecord
100
AcDbLinetypeTableRecord
  2
STYLE_07
 70
               0
  3

 72
              65
 73
               4
 40
0.2636738188976378
 49
0.2009931102362205
 74
               0
 49
-0.0145903543307086
 74
               0
 49
0.0335
 74
               0
 49
-0.0145903543307086
 74
               0
  0
LTYPE
  5
43
100
AcDbSymbolTableRecord
100
AcDbLinetypeTableRecord
  2
STYLE_08
 70
               0
  3

 72
              65
 73
               6
 40
2.5
 49
1.25
 74
               0
 49
-0.41656
 74
               0
 49
0.1388600000000001
 74
               0
 49
-0.2778600000000001
 74
               0
 49
0.1388599999999998
 74
               0
 49
-0.2778600000000001
 74
               0
  0
LTYPE
  5
44
100
AcDbSymbolTableRecord
100
AcDbLinetypeTableRecord
  2
STYLE_09
 70
               0
  3

 72
              65
 73
               4
 40
10.0
 49
7.5
 74
               0
 49
-0.5555699999999997
 74
               0
 49
1.3888600000000006
 74
               0
 49
-0.5555699999999997
 74
               0
  0
LTYPE
  5
45
100
AcDbSymbolTableRecord
100
AcDbLinetypeTableRecord
  2
STYLE_10
 70
               0
  3

 72
              65
 73
               6
 40
11.875
 49
7.5
 74
               0
 49
-0.5555699999999997
 74
               0
 49
1.3888600000000006
 74
               0
 49
-0.5555699999999997
 74
               0
 49
1.25
 74
               0
 49
-0.625
 74
               0
  0
LTYPE
  5
46
100
AcDbSymbolTableRecord
100
AcDbLinetypeTableRecord
  2
STYLE_11
 70
               0
  3

 72
              65
 73
               8
 40
0.1259842519685039
 49
0.0708661417322834
 74
               0
 49
-0.0078740157480315
 74
               0
 49
0.0078740157480315
 74
               0
 49
-0.0078740157480315
 74
               0
 49
0.0078740157480315
 74
               0
 49
-0.0078740157480315
 74
               0
 49
0.0078740157480315
 74
               0
 49
-0.0078740157480315
 74
               0
  0
LTYPE
  5
47
100
AcDbSymbolTableRecord
100
AcDbLinetypeTableRecord
  2
STYLE_12
 70
               0
  3

 72
              65
 73
              10
 40
0.1259842519685039
 49
0.0551181102362205
 74
               0
 49
-0.0078740157480315
 74
               0
 49
0.0078740157480315
 74
               0
 49
-0.0078740157480315
 74
               0
 49
0.0078740157480315
 74
               0
 49
-0.0078740157480315
 74
               0
 49
0.0078740157480315
 74
               0
 49
-0.0078740157480315
 74
               0
 49
0.0078740157480315
 74
               0
 49
-0.0078740157480315
 74
               0
  0
LTYPE
  5
48
100
AcDbSymbolTableRecord
100
AcDbLinetypeTableRecord
  2
STYLE_13
 70
               0
  3

 72
              65
 73
              10
 40
0.1259842519685039
 49
0.0551181102362205
 74
               0
 49
-0.0078740157480315
 74
               0
 49
0.0078740157480315
 74
               0
 49
-0.0078740157480315
 74
               0
 49
0.0078740157480315
 74
               0
 49
-0.0078740157480315
 74
               0
 49
0.0078740157480315
 74
               0
 49
-0.0078740157480315
 74
               0
 49
0.0078740157480315
 74
               0
 49
-0.0078740157480315
 74
               0
  0
LTYPE
  5
49
100
AcDbSymbolTableRecord
100
AcDbLinetypeTableRecord
  2
STYLE_14
 70
               0
  3

 72
              65
 73
              10
 40
0.1102362204724409
 49
0.0393700787401575
 74
               0
 49
-0.0078740157480315
 74
               0
 49
0.0078740157480315
 74
               0
 49
-0.0078740157480315
 74
               0
 49
0.0078740157480315
 74
               0
 49
-0.0078740157480315
 74
               0
 49
0.0078740157480315
 74
               0
 49
-0.0078740157480315
 74
               0
 49
0.0078740157480315
 74
               0
 49
-0.0078740157480315
 74
               0
  0
LTYPE
  5
4A
100
AcDbSymbolTableRecord
100
AcDbLinetypeTableRecord
  2
STYLE_15
 70
               0
  3

 72
              65
 73
              10
 40
0.1102362204724409
 49
0.0393700787401575
 74
               0
 49
-0.0078740157480315
 74
               0
 49
0.0078740157480315
 74
               0
 49
-0.0078740157480315
 74
               0
 49
0.0078740157480315
 74
               0
 49
-0.0078740157480315
 74
               0
 49
0.0078740157480315
 74
               0
 49
-0.0078740157480315
 74
               0
 49
0.0078740157480315
 74
               0
 49
-0.0078740157480315
 74
               0
  0
LTYPE
  5
4B
100
AcDbSymbolTableRecord
100
AcDbLinetypeTableRecord
  2
STYLE_16
 70
               0
  3

 72
              65
 73
               2
 40
0.1267842519685039
 49
0.1259842519685039
 74
               0
 49
-0.002
 74
               0
  0
LTYPE
  5
4C
100
AcDbSymbolTableRecord
100
AcDbLinetypeTableRecord
  2
STYLE_17
 70
               0
  3

 72
              65
 73
               2
 40
0.1267842519685039
 49
0.1259842519685039
 74
               0
 49
-0.002
 74
               0
  0
LTYPE
  5
4D
100
AcDbSymbolTableRecord
100
AcDbLinetypeTableRecord
  2
STYLE_18
 70
               0
  3

 72
              65
 73
               4
 40
0.1023622047244094
 49
0.0735433070866142
 74
               0
 49
-0.0096062992125984
 74
               0
 49
0.0096062992125984
 74
               0
 49
-0.0096062992125984
 74
               0
  0
LTYPE
  5
4E
100
AcDbSymbolTableRecord
100
AcDbLinetypeTableRecord
  2
STYLE_19
 70
               0
  3

 72
              65
 73
               2
 40
0.1267842519685039
 49
0.1259842519685039
 74
               0
 49
-0.002
 74
               0
  0
LTYPE
  5
4F
100
AcDbSymbolTableRecord
100
AcDbLinetypeTableRecord
  2
STYLE_20
 70
               0
  3

 72
              65
 73
               4
 40
0.1023622047244094
 49
0.0735433070866142
 74
               0
 49
-0.0096062992125984
 74
               0
 49
0.0096062992125984
 74
               0
 49
-0.0096062992125984
 74
               0
  0
LTYPE
  5
50
100
AcDbSymbolTableRecord
100
AcDbLinetypeTableRecord
  2
STYLE_21
 70
               0
  3

 72
              65
 73
               2
 40
0.555555905511811
 49
0.2777779527559055
 74
               0
 49
-0.2777779527559055
 74
               0
  0
LTYPE
  5
51
100
AcDbSymbolTableRecord
100
AcDbLinetypeTableRecord
  2
STYLE_22
 70
               0
  3

 72
              65
 73
               6
 40
23.75
 49
15.0
 74
               0
 49
-1.1111399999999994
 74
               0
 49
2.7777200000000013
 74
               0
 49
-1.1111399999999994
 74
               0
 49
2.5
 74
               0
 49
-1.25
 74
               0
  0
LTYPE
  5
52
100
AcDbSymbolTableRecord
100
AcDbLinetypeTableRecord
  2
STYLE_23
 70
               0
  3

 72
              65
 73
               2
 40
1.5748031496062991
 49
0.7874015748031495
 74
               0
 49
-0.7874015748031495
 74
               0
  0
LTYPE
  5
53
100
AcDbSymbolTableRecord
100
AcDbLinetypeTableRecord
  2
STYLE_24
 70
               0
  3

 72
              65
 73
               2
 40
15.748031496062991
 49
7.8740157480314954
 74
               0
 49
-7.8740157480314954
 74
               0
  0
ENDTAB
  0
TABLE
  2
LAYER
  5
2
100
AcDbSymbolTable
 70
               5
  0
LAYER
  5
14
100
AcDbSymbolTableRecord
100
AcDbLayerTableRecord
  2
0
 70
               0
 62
               7
  6
Continuous
290
               1
370
              -3
390
1D
  0
LAYER
  5
54
100
AcDbSymbolTableRecord
100
AcDbLayerTableRecord
  2
Defpoints
 70
               0
 62
               7
  6
Continuous
290
               0
370
              -3
390
1D
  0
LAYER
  5
55
100
AcDbSymbolTableRecord
100
AcDbLayerTableRecord
  2
template
 70
               0
 62
               7
  6
Continuous
290
               1
370
              -3
390
1D
  0
LAYER
  5
56
100
AcDbSymbolTableRecord
100
AcDbLayerTableRecord
  2
notes
 70
               0
 62
               7
  6
Continuous
290
               1
370
              -3
390
1D
  0
LAYER
  5
57
100
AcDbSymbolTableRecord
100
AcDbLayerTableRecord
  2
ADF70-1703
 70
               0
 62
               7
  6
Continuous
290
               1
370
              -3
390
1D
  0
ENDTAB
  0
TABLE
  2
STYLE
  5
3
100
AcDbSymbolTable
 70
               2
  0
STYLE
  5
17
100
AcDbSymbolTableRecord
100
AcDbTextStyleTableRecord
  2
Standard
 70
               0
 40
0.0
 41
1.0
 50
0.0
 71
               0
 42
0.0
  3
txt
  4
BIGFONT.SHX
  0
STYLE
  5
3B
100
AcDbSymbolTableRecord
100
AcDbTextStyleTableRecord
  2
ＭＳ ゴシック
 70
               0
 40
0.0
 41
1.0
 50
0.0
 71
               0
 42
0.0
  3

  4
ＭＳ ゴシック
1001
ACAD
1000
ＭＳ ゴシック
1071
        0
  0
ENDTAB
  0
TABLE
  2
VIEW
  5
5
100
AcDbSymbolTable
 70
               0
  0
ENDTAB
  0
TABLE
  2
UCS
  5
6
100
AcDbSymbolTable
 70
               0
  0
ENDTAB
  0
TABLE
  2
APPID
  5
8
100
AcDbSymbolTable
 70
               1
  0
APPID
  5
16
100
AcDbSymbolTableRecord
100
AcDbRegAppTableRecord
  2
ACAD
 70
               0
  0
ENDTAB
  0
TABLE
  2
DIMSTYLE
  5
9
100
AcDbSymbolTable
 70
               3
100
AcDbDimStyleTable
 71
               0
  0
DIMSTYLE
105
18
100
AcDbSymbolTableRecord
100
AcDbDimStyleTableRecord
  2
Standard
 70
               0
  3

  4

 40
1.0
 41
0.18
 42
0.0625
 43
0.38
 44
0.18
 45
0.0
 46
0.0
 47
0.0
 48
0.0
 71
               0
 72
               0
 73
               1
 74
               1
 75
               0
 76
               0
 77
               0
 78
               0
 79
               0
140
0.18
141
0.09
142
0.0
143
25.399999999999999
144
1.0
145
0.0
146
1.0
147
0.09
148
0.0
170
               0
171
               2
172
               0
173
               0
174
               0
175
               0
176
               0
177
               0
178
               0
179
               0
271
               4
272
               4
273
               2
274
               2
275
               0
276
               0
277
               2
278
              46
279
               0
280
               0
281
               0
282
               0
283
               1
284
               0
285
               0
286
               0
288
               0
289
               3
340
17
341
0
342
0
343
0
344
0
371
              -2
372
              -2
  0
DIMSTYLE
105
60
100
AcDbSymbolTableRecord
100
AcDbDimStyleTableRecord
  2
TformSENN
 70
               0
  3
<>
  4
[]
 40
1.0
 41
9.9993896484374982
 42
24.999999999999996
 43
0.9999999999999999
 44
0.0
 45
0.0
 46
0.0
 47
0.0
 48
0.0
 71
               0
 72
               0
 73
               0
 74
               0
 75
               0
 76
               0
 77
               1
 78
              11
 79
               0
140
24.432617187500004
141
0.0
142
0.0
143
1.0
144
1.0
145
0.0
146
0.8
147
0.4999999999999999
148
0.0
170
               0
171
               1
172
               1
173
               0
174
               1
175
               0
176
               0
177
               0
178
               0
179
               2
271
               1
272
               1
273
               2
274
               2
275
               0
276
               2
277
               2
278
              46
279
               0
280
               0
281
               0
282
               0
283
               1
284
              11
285
              11
286
              11
288
               0
289
               0
340
3B
341
58
342
58
343
0
344
0
371
              -2
372
              -2
  0
DIMSTYLE
105
6A
100
AcDbSymbolTableRecord
100
AcDbDimStyleTableRecord
  2
Arch
 70
               0
  3
<>
  4
[]
 40
1.0
 41
22.4482421875
 42
15.875
 43
10.16
 44
31.75
 45
0.0
 46
1.5874999999999999
 47
0.0
 48
0.0
 71
               0
 72
               0
 73
               0
 74
               0
 75
               0
 76
               0
 77
               1
 78
              11
 79
               0
140
24.432617187500004
141
0.0
142
0.0
143
1.0
144
1.0
145
0.0
146
1.0
147
1.5874999999999999
148
0.0
170
               0
171
               1
172
               1
173
               0
174
               1
175
               0
176
               0
177
               0
178
               0
179
               2
271
               1
272
               1
273
               2
274
               2
275
               0
276
               2
277
               2
278
              46
279
               0
280
               0
281
               0
282
               0
283
               1
284
              11
285
              11
286
              11
288
               0
289
               0
340
3B
341
66
342
61
343
0
344
0
371
              -2
372
              -2
  0
ENDTAB
  0
TABLE
  2
BLOCK_RECORD
  5
1
100
AcDbSymbolTable
 70
              27
  0
BLOCK_RECORD
  5
A
100
AcDbSymbolTableRecord
100
AcDbBlockTableRecord
  2
*MODEL_SPACE
340
20
  0
BLOCK_RECORD
  5
B
100
AcDbSymbolTableRecord
100
AcDbBlockTableRecord
  2
*PAPER_SPACE
340
21
  0
BLOCK_RECORD
  5
58
100
AcDbSymbolTableRecord
100
AcDbBlockTableRecord
  2
_DOT
340
0
  0
BLOCK_RECORD
  5
61
100
AcDbSymbolTableRecord
100
AcDbBlockTableRecord
  2
VW_SLASH
340
0
  0
BLOCK_RECORD
  5
66
100
AcDbSymbolTableRecord
100
AcDbBlockTableRecord
  2
VW_FILLEDARROW
340
0
  0
BLOCK_RECORD
  5
23
100
AcDbSymbolTableRecord
100
AcDbBlockTableRecord
  2
グループ
340
0
102
{BLKREFS
331
198
102
}
  0
BLOCK_RECORD
  5
24
100
AcDbSymbolTableRecord
100
AcDbBlockTableRecord
  2
*D4
340
0
  0
BLOCK_RECORD
  5
25
100
AcDbSymbolTableRecord
100
AcDbBlockTableRecord
  2
*D5
340
0
  0
BLOCK_RECORD
  5
26
100
AcDbSymbolTableRecord
100
AcDbBlockTableRecord
  2
*D6
340
0
  0
BLOCK_RECORD
  5
27
100
AcDbSymbolTableRecord
100
AcDbBlockTableRecord
  2
*D7
340
0
  0
BLOCK_RECORD
  5
28
100
AcDbSymbolTableRecord
100
AcDbBlockTableRecord
  2
*D8
340
0
  0
BLOCK_RECORD
  5
29
100
AcDbSymbolTableRecord
100
AcDbBlockTableRecord
  2
*D9
340
0
  0
BLOCK_RECORD
  5
2A
100
AcDbSymbolTableRecord
100
AcDbBlockTableRecord
  2
*D10
340
0
  0
BLOCK_RECORD
  5
2B
100
AcDbSymbolTableRecord
100
AcDbBlockTableRecord
  2
*D11
340
0
  0
BLOCK_RECORD
  5
2C
100
AcDbSymbolTableRecord
100
AcDbBlockTableRecord
  2
*D12
340
0
  0
BLOCK_RECORD
  5
2D
100
AcDbSymbolTableRecord
100
AcDbBlockTableRecord
  2
*D13
340
0
  0
BLOCK_RECORD
  5
2E
100
AcDbSymbolTableRecord
100
AcDbBlockTableRecord
  2
*D14
340
0
  0
BLOCK_RECORD
  5
2F
100
AcDbSymbolTableRecord
100
AcDbBlockTableRecord
  2
*D15
340
0
  0
BLOCK_RECORD
  5
30
100
AcDbSymbolTableRecord
100
AcDbBlockTableRecord
  2
*D16
340
0
  0
BLOCK_RECORD
  5
31
100
AcDbSymbolTableRecord
100
AcDbBlockTableRecord
  2
*D17
340
0
  0
BLOCK_RECORD
  5
32
100
AcDbSymbolTableRecord
100
AcDbBlockTableRecord
  2
*D18
340
0
  0
BLOCK_RECORD
  5
33
100
AcDbSymbolTableRecord
100
AcDbBlockTableRecord
  2
*D19
340
0
  0
BLOCK_RECORD
  5
34
100
AcDbSymbolTableRecord
100
AcDbBlockTableRecord
  2
*D20
340
0
  0
BLOCK_RECORD
  5
35
100
AcDbSymbolTableRecord
100
AcDbBlockTableRecord
  2
*D21
340
0
  0
BLOCK_RECORD
  5
36
100
AcDbSymbolTableRecord
100
AcDbBlockTableRecord
  2
*D22
340
0
  0
BLOCK_RECORD
  5
37
100
AcDbSymbolTableRecord
100
AcDbBlockTableRecord
  2
*D23
340
0
  0
BLOCK_RECORD
  5
38
100
AcDbSymbolTableRecord
100
AcDbBlockTableRecord
  2
*D24
340
0
  0
BLOCK_RECORD
  5
39
100
AcDbSymbolTableRecord
100
AcDbBlockTableRecord
  2
グループ-1
340
0
102
{BLKREFS
331
1FE
102
}
  0
BLOCK_RECORD
  5
3A
100
AcDbSymbolTableRecord
100
AcDbBlockTableRecord
  2
グループ-2
340
0
102
{BLKREFS
331
205
102
}
  0
ENDTAB
  0
ENDSEC
  0
SECTION
  2
BLOCKS
  0
BLOCK
  5
D
100
AcDbEntity
  8
0
390
0
100
AcDbBlockBegin
  2
*MODEL_SPACE
 70
               0
 10
0.0
 20
0.0
 30
0.0
  3
*MODEL_SPACE
  1

  0
ENDBLK
  5
E
100
AcDbEntity
  8
0
390
0
100
AcDbBlockEnd
  0
BLOCK
  5
F
100
AcDbEntity
 67
               1
  8
0
390
0
100
AcDbBlockBegin
  2
*PAPER_SPACE
 70
               0
 10
0.0
 20
0.0
 30
0.0
  3
*PAPER_SPACE
  1

  0
ENDBLK
  5
10
100
AcDbEntity
 67
               1
  8
0
390
0
100
AcDbBlockEnd
  0
BLOCK
  5
59
100
AcDbEntity
  8
0
390
0
100
AcDbBlockBegin
  2
_DOT
 70
               0
 10
0.0
 20
0.0
 30
0.0
  3
_DOT
  1

  0
POLYLINE
  5
5A
100
AcDbEntity
  8
0
370
              -2
390
0
  6
ByBlock
 62
               0
100
AcDb2dPolyline
 66
               1
 10
0.0
 20
0.0
 30
0.0
 70
               1
 40
0.5
 41
0.5
  0
VERTEX
  5
5B
100
AcDbEntity
  8
0
370
              -2
390
0
  6
ByBlock
 62
               0
100
AcDbVertex
100
AcDb2dVertex
 10
-0.25
 20
0.0
 30
0.0
 42
1.0
  0
VERTEX
  5
5C
100
AcDbEntity
  8
0
370
              -2
390
0
  6
ByBlock
 62
               0
100
AcDbVertex
100
AcDb2dVertex
 10
0.25
 20
0.0
 30
0.0
 42
1.0
  0
SEQEND
  5
5D
100
AcDbEntity
  8
0
390
0
  0
LINE
  5
5E
100
AcDbEntity
  8
0
370
              -2
390
0
  6
ByBlock
 62
               0
100
AcDbLine
 10
-0.5
 20
0.0
 30
0.0
 11
-1.0
 21
0.0
 31
0.0
  0
ENDBLK
  5
5F
100
AcDbEntity
  8
0
390
0
100
AcDbBlockEnd
  0
BLOCK
  5
62
100
AcDbEntity
  8
0
370
              -2
390
0
  6
ByBlock
 62
               0
100
AcDbBlockBegin
  2
VW_SLASH
 70
               0
 10
0.0
 20
0.0
 30
0.0
  3
VW_SLASH
  1

  0
LINE
  5
63
100
AcDbEntity
  8
0
370
              -2
390
0
  6
ByBlock
 62
               0
100
AcDbLine
 10
0.0
 20
0.0
 30
0.0
 11
-1.0
 21
0.0
 31
0.0
  0
LINE
  5
64
100
AcDbEntity
  8
0
370
              20
390
0
  6
ByBlock
 62
               0
100
AcDbLine
 10
-0.4987813153181721
 20
-0.4987813153181719
 30
0.0
 11
0.4987813153181721
 21
0.4987813153181719
 31
0.0
  0
ENDBLK
  5
65
100
AcDbEntity
  8
0
390
0
100
AcDbBlockEnd
  0
BLOCK
  5
67
100
AcDbEntity
  8
0
370
              -2
390
0
  6
ByBlock
 62
               0
100
AcDbBlockBegin
  2
VW_FILLEDARROW
 70
               0
 10
0.0
 20
0.0
 30
0.0
  3
VW_FILLEDARROW
  1

  0
SOLID
  5
68
100
AcDbEntity
  8
0
370
              -2
390
0
 62
               0
100
AcDbTrace
 10
0.0
 20
0.0
 30
0.0
 11
-1.4107666015625
 21
-0.3780137715974714
 31
0.0
 12
-1.4107666015625
 22
0.3780137715974717
 32
0.0
 13
-1.4107666015625
 23
0.3780137715974717
 33
0.0
  0
ENDBLK
  5
69
100
AcDbEntity
  8
0
390
0
100
AcDbBlockEnd
  0
BLOCK
  5
6B
100
AcDbEntity
  8
template
390
0
100
AcDbBlockBegin
  2
グループ
 70
               0
 10
0.0
 20
0.0
 30
0.0
  3
グループ
  1

  0
LWPOLYLINE
  5
6C
100
AcDbEntity
  8
0
370
              15
390
0
  6
Continuous
 62
               7
100
AcDbPolyline
 90
        8
 70
             129
 10
-2115.7588078385074
 20
-2407.7553965435741
 10
-2115.7588078385074
 20
-2413.75278523715
 10
-2125.2600047565106
 20
-2413.75278523715
 10
-2125.2600047565106
 20
-2438.2037485006585
 10
-2133.6153820182935
 20
-2438.2037485006585
 10
-2133.6153820182935
 20
-2413.75278523715
 10
-2142.948338964603
 20
-2413.75278523715
 10
-2142.948338964603
 20
-2407.7553965435741
  0
LWPOLYLINE
  5
6D
100
AcDbEntity
  8
0
370
              15
390
0
  6
Continuous
 62
               7
100
AcDbPolyline
 90
      101
 70
             128
 10
-2103.0305160079506
 20
-2408.4836450365106
 10
-2103.01516597917
 20
-2408.4792842798265
 42
-0.0222221607813526
 10
-2102.7251614024945
 20
-2408.4106598145809
 10
-2102.7093676384993
 20
-2408.4076563914837
 42
-0.0146883565582934
 10
-2102.4466649332767
 20
-2408.3656532045343
 42
-0.012745884418654
 10
-2102.1820259661381
 20
-2408.3381162364631
 10
-2102.1195708878108
 20
-2408.3332228138738
 42
-0.0198099018562477
 10
-2101.728721778331
 20
-2408.3181376564771
 10
-2101.67691030889
 20
-2408.3181914321422
 42
-0.0147617382758052
 10
-2101.1822868479244
 20
-2408.3333114573866
 10
-2101.1095953930444
 20
-2408.3376840642745
 42
-0.0162624549009461
 10
-2100.7194417635765
 20
-2408.3739169395471
 10
-2100.5979093723081
 20
-2408.3892034985452
 42
-0.0080020874656396
 10
-2100.4523303412261
 20
-2408.4098863458121
 10
-2100.4140108706461
 20
-2408.4159576236207
 42
-0.0053821929692849
 10
-2100.3455267653158
 20
-2408.4275651474445
 10
-2101.0719324645142
 20
-2410.6084936031584
 42
0.0108667757376469
 10
-2101.1392495346349
 20
-2410.5953064879404
 10
-2101.1767175578352
 20
-2410.5888087453441
 42
0.0170663203307125
 10
-2101.3199343447404
 20
-2410.5689791480536
 10
-2101.3878096774333
 20
-2410.5619319774651
 42
0.0220162375275056
 10
-2101.6681890852947
 20
-2410.5452496166949
 10
-2101.7460446523387
 20
-2410.5440502494289
 42
0.0282606915784351
 10
-2102.081680975919
 20
-2410.5578535263976
 10
-2102.125594249696
 20
-2410.5621535164018
 42
0.016967721369315
 10
-2102.3715187446496
 20
-2410.594690565953
 42
0.0190576269864685
 10
-2102.6144267072268
 20
-2410.6448374380584
 10
-2102.620685895341
 20
-2410.6463804121686
 42
0.0213685642855928
 10
-2102.8710703798206
 20
-2410.7195806972745
 10
-2102.8765602747349
 20
-2410.7214436933327
 42
0.0237595297601013
 10
-2103.1300551596355
 20
-2410.8211282152292
 10
-2103.1351572336634
 20
-2410.8234199907065
 42
0.0261857468821554
 10
-2103.3873280098915
 20
-2410.9529563280798
 10
-2103.3977541989807
 20
-2410.9590218025496
 42
0.0272553062026182
 10
-2103.6341839742181
 20
-2411.1143940084939
 10
-2103.6689469877288
 20
-2411.1400551565871
 42
0.0325996893182386
 10
-2103.8191023313793
 20
-2411.2668030295572
 10
-2103.842811760509
 20
-2411.2896210580761
 42
0.0138050960659562
 10
-2103.9346949167129
 20
-2411.3830707196216
 42
0.0125280103790284
 10
-2104.0215374495397
 20
-2411.4812340462136
 10
-2104.0452178944547
 20
-2411.5093925444089
 42
0.0205218024733989
 10
-2104.1703179699689
 20
-2411.6711858586391
 10
-2104.1927843104554
 20
-2411.7028455884652
 42
0.0163110129582471
 10
-2104.3484946897056
 20
-2411.9381760235333
 10
-2104.3512185857576
 20
-2411.9425997855205
 42
0.0131897341894324
 10
-2104.4980191066643
 20
-2412.1957318778864
 10
-2104.4997192020301
 20
-2412.1988501170208
 42
0.0107895576069896
 10
-2104.6374959042369
 20
-2412.4650653266476
 10
-2104.6382287937658
 20
-2412.4665595593024
 42
0.009137150722537
 10
-2104.7667087424206
 20
-2412.7410847570741
 10
-2104.7964543738244
 20
-2412.8077912642211
 42
0.013541832635779
 10
-2104.9681683128961
 20
-2413.2227290494898
 10
-2105.0017731213275
 20
-2413.3105951917642
 42
0.009283454241541
 10
-2105.1730021812514
 20
-2413.7844936900765
 10
-2105.1986193089788
 20
-2413.8597347598984
 42
0.0054261043582848
 10
-2105.3062574572623
 20
-2414.1874987329347
 10
-2105.323783443494
 20
-2414.2428868953371
 42
0.0008225090836502
 10
-2105.3924534952694
 20
-2414.4611556533137
 10
-2106.3771426272028
 20
-2417.4860469465702
 10
-2103.1445187871291
 20
-2417.4860469465702
 10
-2103.6487112169825
 20
-2419.3905252449231
 10
-2106.9047674989661
 20
-2419.3905252449231
 10
-2112.7339165313197
 20
-2438.2037483109279
 10
-2114.5590141416301
 20
-2438.2037483109279
 10
-2108.7243361061292
 20
-2419.3905252449231
 10
-2111.1294524751693
 20
-2419.3905252449231
 10
-2110.6252600453158
 20
-2417.4860469465702
 10
-2108.1967112343659
 20
-2417.4860469465702
 10
-2107.3365563161774
 20
-2414.8496339458716
 42
-0.000586356061547
 10
-2107.2998216379556
 20
-2414.7328075255223
 10
-2107.2237338043133
 20
-2414.4918152261944
 42
-0.0087522378927692
 10
-2107.0242656608589
 20
-2413.8965391390539
 10
-2106.9320013854431
 20
-2413.6363989705346
 42
-0.0077400953831791
 10
-2106.6740677263119
 20
-2412.9433942929863
 10
-2106.6583027547317
 20
-2412.9029634095964
 42
-0.0082369946327788
 10
-2106.4112182841209
 20
-2412.298884343405
 42
-0.0085725238360926
 10
-2106.1439721881156
 20
-2411.7034583041118
 10
-2106.0423425871095
 20
-2411.4870372021296
 42
-0.0168109410594945
 10
-2105.755398158381
 20
-2410.9258296760281
 10
-2105.6295547679556
 20
-2410.6988656430908
 42
-0.0007817726845423
 10
-2105.5752704178653
 20
-2410.6013213979995
 10
-2105.5751421118507
 20
-2410.6010916892674
 42
-0.00366261421464
 10
-2105.5202542478269
 20
-2410.5044938092947
 42
-0.0080221150667549
 10
-2105.4631299924176
 20
-2410.4092145745376
 10
-2105.432430041059
 20
-2410.3598236254197
 42
-0.0202139325570735
 10
-2105.3047743012512
 20
-2410.1718420247371
 10
-2105.2507068360646
 20
-2410.0987631604976
 42
-0.0249323791802027
 10
-2104.9915440423488
 20
-2409.7827179183469
 10
-2104.9674042282186
 20
-2409.7561036454308
 42
-0.024213212153592
 10
-2104.627723486678
 20
-2409.4162201592285
 10
-2104.5798119139245
 20
-2409.3727110230398
 42
-0.0251017527860646
 10
-2104.2958302132847
 20
-2409.1397182772757
 10
-2104.2943847364718
 20
-2409.1386490196974
 42
-0.0130868069043208
 10
-2103.9961240865141
 20
-2408.9298685511544
 10
-2103.9945622673727
 20
-2408.9288351108803
 42
-0.0290329526390108
 10
-2103.6834511259776
 20
-2408.7480096092504
 10
-2103.6536055639904
 20
-2408.7329072264101
 42
-0.0160250190048477
 10
-2103.3877011502273
 20
-2408.6088911161969
 42
-0.0267600374786137
 10
-2103.1124250727607
 20
-2408.5081427956493
 10
-2103.0856891532376
 20
-2408.4999502368228
 42
-0.0049981587688978
 10
-2103.0305160079506
 20
-2408.4836450365106
 42
-0.0049981587688978
  0
LWPOLYLINE
  5
6E
100
AcDbEntity
  8
0
370
              15
390
0
  6
Continuous
 62
               7
100
AcDbPolyline
 90
      118
 70
             128
 10
-2083.2161484435037
 20
-2417.5600302743978
 10
-2081.3410265190041
 20
-2417.5600302743978
 10
-2082.1790654246042
 20
-2420.2415968007981
 42
-0.0010587229285876
 10
-2082.1476096091174
 20
-2420.2046922675427
 10
-2082.0894155184001
 20
-2420.1367100112666
 42
-0.0071874740401951
 10
-2081.9390403002963
 20
-2419.9660693192313
 10
-2081.7973175270399
 20
-2419.8098331779247
 42
-0.0148118053510825
 10
-2081.3471882343274
 20
-2419.3422193319116
 10
-2081.259965899425
 20
-2419.2568220110579
 42
-0.0086273358694528
 10
-2080.9244170984166
 20
-2418.9394463770413
 10
-2080.880583382193
 20
-2418.8993967327101
 42
-0.0103138323106794
 10
-2080.6225596799577
 20
-2418.6732335953702
 10
-2080.5767852736212
 20
-2418.6347515481025
 42
-0.0060206748566925
 10
-2080.4039372095185
 20
-2418.4929568973557
 10
-2080.4019060786363
 20
-2418.4913311917276
 42
-0.0067069027305524
 10
-2080.2296132639699
 20
-2418.3571805579295
 10
-2080.2270644980435
 20
-2418.3552503880537
 42
-0.0076184352052804
 10
-2080.0561592321724
 20
-2418.2298755128104
 42
-0.0089652861675342
 10
-2079.881198269436
 20
-2418.1102422524764
 10
-2079.8448465492984
 20
-2418.0863310389982
 42
-0.0156916245944056
 10
-2079.6488870521325
 20
-2417.9660685525205
 42
-0.0023299011064332
 10
-2079.4486250082009
 20
-2417.8528906130064
 10
-2079.4332408757728
 20
-2417.8442906179148
 42
-0.0107669341496084
 10
-2079.1990040506739
 20
-2417.7198904845663
 10
-2079.1767392495967
 20
-2417.7086737346153
 42
-0.0078058045886083
 10
-2078.893149131643
 20
-2417.5713122789762
 10
-2078.8832420439348
 20
-2417.5667031511084
 42
-0.0181829330473489
 10
-2078.5729326393189
 20
-2417.4358394100122
 10
-2078.5188771967532
 20
-2417.4153242900693
 42
-0.0208411536035028
 10
-2078.1697922293024
 20
-2417.2992338275762
 10
-2078.1554361291769
 20
-2417.2951153826234
 42
-0.0222799817138824
 10
-2077.8267163352575
 20
-2417.216473816482
 10
-2077.8178273720223
 20
-2417.2147618058971
 42
-0.021550952388201
 10
-2077.5013564037408
 20
-2417.1678461173628
 10
-2077.4588744426846
 20
-2417.1634085905712
 42
-0.0182545924867748
 10
-2077.2247656633863
 20
-2417.1475647651814
 10
-2077.1853646470508
 20
-2417.1463402201025
 42
-0.007296285655039
 10
-2077.0294417673495
 20
-2417.1437708915801
 10
-2077.0003420967769
 20
-2417.1437160561763
 42
-0.0059227516331974
 10
-2076.902592597633
 20
-2417.1446897679666
 10
-2076.8733503802591
 20
-2417.145327534568
 42
-0.0011833111891768
 10
-2076.8340990964284
 20
-2417.1462765388796
 10
-2077.6294856920358
 20
-2419.6850104839787
 42
0.0143932051550854
 10
-2077.6558870743875
 20
-2419.674811513933
 10
-2077.6631590468032
 20
-2419.6722402950763
 42
0.0234388603558891
 10
-2077.7049899127323
 20
-2419.6596210593621
 10
-2077.7136715756483
 20
-2419.6574400973559
 42
0.0199162742973109
 10
-2077.7739604097337
 20
-2419.6448233620199
 10
-2077.7947743475343
 20
-2419.6413261625926
 42
0.0293643550669202
 10
-2077.8978492063002
 20
-2419.6301761169389
 10
-2077.9225343870139
 20
-2419.6289644999206
 42
0.0214606686877999
 10
-2078.0756753029641
 20
-2419.628025939503
 10
-2078.0850472137845
 20
-2419.6283708510473
 42
0.0167564054172327
 10
-2078.256567404896
 20
-2419.6404478934155
 10
-2078.2650271976518
 20
-2419.6413292338425
 42
0.0137677553256215
 10
-2078.4523805109288
 20
-2419.6660785423878
 10
-2078.4597322504242
 20
-2419.6672564623541
 42
0.0118497261479617
 10
-2078.6602300145305
 20
-2419.7042738125442
 10
-2078.666380021773
 20
-2419.7055606752633
 42
0.0106421143897474
 10
-2078.8772609090565
 20
-2419.7543930508377
 10
-2078.8821697174471
 20
-2419.7556403935232
 42
0.0099746379700336
 10
-2079.100628186618
 20
-2419.8158149218407
 10
-2079.1621762267796
 20
-2419.8340968004686
 42
0.0191613675869474
 10
-2079.4981606893007
 20
-2419.9480741807574
 10
-2079.5862204620412
 20
-2419.9817610910795
 42
0.0205274080141572
 10
-2079.9715272339417
 20
-2420.1475894989062
 10
-2080.0291765159168
 20
-2420.1752574634752
 42
0.018125691218668
 10
-2080.2874534565908
 20
-2420.3109412824565
 10
-2080.3404088399084
 20
-2420.3412588956735
 42
0.0140709242418231
 10
-2080.4853637745327
 20
-2420.4297535691057
 10
-2080.5116126431453
 20
-2420.4468103878175
 42
0.0086667884389212
 10
-2080.6005388046942
 20
-2420.5068130557038
 42
0.0036408192027916
 10
-2080.6879720427241
 20
-2420.5689939134936
 10
-2080.723198917196
 20
-2420.5944348594089
 42
0.005226078127021
 10
-2080.8794276145904
 20
-2420.7097672460459
 10
-2080.8956344708467
 20
-2420.7219953566614
 42
0.0050024435891186
 10
-2081.0816378139093
 20
-2420.8652779249264
 10
-2081.0969559704208
 20
-2420.8773239473694
 42
0.0136138710276816
 10
-2081.3073972387497
 20
-2421.0522904522859
 10
-2081.3410651145396
 20
-2421.081869424997
 42
0.0172815186921487
 10
-2081.6054686562011
 20
-2421.3308660976199
 10
-2081.6080310020443
 20
-2421.3334519147675
 42
0.0189403857997846
 10
-2081.8586128006232
 20
-2421.6062571795719
 10
-2081.8912442941578
 20
-2421.6446011110675
 42
0.0185044199500815
 10
-2082.0832007331396
 20
-2421.8878496921916
 42
0.008856524389497
 10
-2082.2616608397625
 20
-2422.1413661123329
 10
-2082.2708388194169
 20
-2422.1549074921018
 42
0.0157195347229637
 10
-2082.4540594257546
 20
-2422.4444297014243
 10
-2082.5001423676799
 20
-2422.5225818984359
 42
0.0095451879783698
 10
-2082.6652279178193
 20
-2422.8151765407947
 10
-2082.6763758367442
 20
-2422.835847212918
 42
0.0100351706245421
 10
-2082.8084195859083
 20
-2423.0929027734173
 42
0.00869359154116
 10
-2082.9307507376952
 20
-2423.3547359188069
 10
-2082.9340714791165
 20
-2423.362178241794
 42
0.0072580174865732
 10
-2083.0544179310596
 20
-2423.6427702333722
 10
-2083.0576795643678
 20
-2423.6506902593947
 42
0.0060005122611129
 10
-2083.1768802327119
 20
-2423.9502999300034
 10
-2083.1800912110521
 20
-2423.9586614579048
 42
0.004901778698987
 10
-2083.298991369918
 20
-2424.2775904385317
 10
-2083.3021571763002
 20
-2424.2863433757393
 42
0.0039415167604484
 10
-2083.4215934543508
 20
-2424.6248854381361
 10
-2083.4247245570086
 20
-2424.6339886390288
 42
0.0031035838762393
 10
-2083.5455293426958
 20
-2424.9924285007837
 10
-2083.5486393872325
 20
-2425.0018491221772
 42
0.0025070747152542
 10
-2083.6715407385414
 20
-2425.3804963391021
 10
-2083.7088346349728
 20
-2425.497388004374
 42
0.0029081910283451
 10
-2083.9008529327839
 20
-2426.1115516626642
 10
-2083.9416561013013
 20
-2426.2447749049416
 42
0.000926645373219
 10
-2084.2100734756027
 20
-2427.1269993648211
 10
-2084.2309609482877
 20
-2427.196111244205
 42
-0.0005809993664636
 10
-2084.5082976288477
 20
-2428.1099193507398
 10
-2084.574579427152
 20
-2428.3274042830026
 42
-0.0012018708171208
 10
-2084.7215637365498
 20
-2428.8055669474206
 10
-2084.7738835881978
 20
-2428.9743260885516
 42
-0.0002691059613871
 10
-2084.8174530692836
 20
-2429.114593708628
 10
-2087.6504089675727
 20
-2438.2037483109279
 10
-2089.4683978595513
 20
-2438.2037483109279
 10
-2083.2161484435037
 20
-2417.5600302743978
  0
SPLINE
  5
6F
100
AcDbEntity
  8
0
370
              15
390
0
  6
Continuous
 62
               7
100
AcDbSpline
210
0.0
220
0.0
230
1.0
 70
              13
 71
               2
 72
             782
 73
             779
 74
               0
 42
0.000001
 43
0.000001
 40
0.0
 40
0.0
 40
0.0
 40
1.0
 40
1.0
 40
2.0
 40
2.0
 40
3.0
 40
3.0
 40
4.0
 40
4.0
 40
5.0
 40
5.0
 40
6.0
 40
6.0
 40
7.0
 40
7.0
 40
8.0
 40
8.0
 40
9.0
 40
9.0
 40
10.0
 40
10.0
 40
11.0
 40
11.0
 40
12.0
 40
12.0
 40
13.0
 40
13.0
 40
14.0
 40
14.0
 40
15.0
 40
15.0
 40
16.0
 40
16.0
 40
17.0
 40
17.0
 40
18.0
 40
18.0
 40
19.0
 40
19.0
 40
20.0
 40
20.0
 40
21.0
 40
21.0
 40
22.0
 40
22.0
 40
23.0
 40
23.0
 40
24.0
 40
24.0
 40
25.0
 40
25.0
 40
26.0
 40
26.0
 40
27.0
 40
27.0
 40
28.0
 40
28.0
 40
29.0
 40
29.0
 40
30.0
 40
30.0
 40
31.0
 40
31.0
 40
32.0
 40
32.0
 40
33.0
 40
33.0
 40
34.0
 40
34.0
 40
35.0
 40
35.0
 40
36.0
 40
36.0
 40
37.0
 40
37.0
 40
38.0
 40
38.0
 40
39.0
 40
39.0
 40
40.0
 40
40.0
 40
41.0
 40
41.0
 40
42.0
 40
42.0
 40
43.0
 40
43.0
 40
44.0
 40
44.0
 40
45.0
 40
45.0
 40
46.0
 40
46.0
 40
47.0
 40
47.0
 40
48.0
 40
48.0
 40
49.0
 40
49.0
 40
50.0
 40
50.0
 40
51.0
 40
51.0
 40
52.0
 40
52.0
 40
53.0
 40
53.0
 40
54.0
 40
54.0
 40
55.0
 40
55.0
 40
56.0
 40
56.0
 40
57.0
 40
57.0
 40
58.0
 40
58.0
 40
59.0
 40
59.0
 40
60.0
 40
60.0
 40
61.0
 40
61.0
 40
62.0
 40
62.0
 40
63.0
 40
63.0
 40
64.0
 40
64.0
 40
65.0
 40
65.0
 40
66.0
 40
66.0
 40
67.0
 40
67.0
 40
68.0
 40
68.0
 40
69.0
 40
69.0
 40
70.0
 40
70.0
 40
71.0
 40
71.0
 40
72.0
 40
72.0
 40
73.0
 40
73.0
 40
74.0
 40
74.0
 40
75.0
 40
75.0
 40
76.0
 40
76.0
 40
77.0
 40
77.0
 40
78.0
 40
78.0
 40
79.0
 40
79.0
 40
80.0
 40
80.0
 40
81.0
 40
81.0
 40
82.0
 40
82.0
 40
83.0
 40
83.0
 40
84.0
 40
84.0
 40
85.0
 40
85.0
 40
86.0
 40
86.0
 40
87.0
 40
87.0
 40
88.0
 40
88.0
 40
89.0
 40
89.0
 40
90.0
 40
90.0
 40
91.0
 40
91.0
 40
92.0
 40
92.0
 40
93.0
 40
93.0
 40
94.0
 40
94.0
 40
95.0
 40
95.0
 40
96.0
 40
96.0
 40
97.0
 40
97.0
 40
98.0
 40
98.0
 40
99.0
 40
99.0
 40
100.0
 40
100.0
 40
101.0
 40
101.0
 40
102.0
 40
102.0
 40
103.0
 40
103.0
 40
104.0
 40
104.0
 40
105.0
 40
105.0
 40
106.0
 40
106.0
 40
107.0
 40
107.0
 40
108.0
 40
108.0
 40
109.0
 40
109.0
 40
110.0
 40
110.0
 40
111.0
 40
111.0
 40
112.0
 40
112.0
 40
113.0
 40
113.0
 40
114.0
 40
114.0
 40
115.0
 40
115.0
 40
116.0
 40
116.0
 40
117.0
 40
117.0
 40
118.0
 40
118.0
 40
119.0
 40
119.0
 40
120.0
 40
120.0
 40
121.0
 40
121.0
 40
122.0
 40
122.0
 40
123.0
 40
123.0
 40
124.0
 40
124.0
 40
125.0
 40
125.0
 40
126.0
 40
126.0
 40
127.0
 40
127.0
 40
128.0
 40
128.0
 40
129.0
 40
129.0
 40
130.0
 40
130.0
 40
131.0
 40
131.0
 40
132.0
 40
132.0
 40
133.0
 40
133.0
 40
134.0
 40
134.0
 40
135.0
 40
135.0
 40
136.0
 40
136.0
 40
137.0
 40
137.0
 40
138.0
 40
138.0
 40
139.0
 40
139.0
 40
140.0
 40
140.0
 40
141.0
 40
141.0
 40
142.0
 40
142.0
 40
143.0
 40
143.0
 40
144.0
 40
144.0
 40
145.0
 40
145.0
 40
146.0
 40
146.0
 40
147.0
 40
147.0
 40
148.0
 40
148.0
 40
149.0
 40
149.0
 40
150.0
 40
150.0
 40
151.0
 40
151.0
 40
152.0
 40
152.0
 40
153.0
 40
153.0
 40
154.0
 40
154.0
 40
155.0
 40
155.0
 40
156.0
 40
156.0
 40
157.0
 40
157.0
 40
158.0
 40
158.0
 40
159.0
 40
159.0
 40
160.0
 40
160.0
 40
161.0
 40
161.0
 40
162.0
 40
162.0
 40
163.0
 40
163.0
 40
164.0
 40
164.0
 40
165.0
 40
165.0
 40
166.0
 40
166.0
 40
167.0
 40
167.0
 40
168.0
 40
168.0
 40
169.0
 40
169.0
 40
170.0
 40
170.0
 40
171.0
 40
171.0
 40
172.0
 40
172.0
 40
173.0
 40
173.0
 40
174.0
 40
174.0
 40
175.0
 40
175.0
 40
176.0
 40
176.0
 40
177.0
 40
177.0
 40
178.0
 40
178.0
 40
179.0
 40
179.0
 40
180.0
 40
180.0
 40
181.0
 40
181.0
 40
182.0
 40
182.0
 40
183.0
 40
183.0
 40
184.0
 40
184.0
 40
185.0
 40
185.0
 40
186.0
 40
186.0
 40
187.0
 40
187.0
 40
188.0
 40
188.0
 40
189.0
 40
189.0
 40
190.0
 40
190.0
 40
191.0
 40
191.0
 40
192.0
 40
192.0
 40
193.0
 40
193.0
 40
194.0
 40
194.0
 40
195.0
 40
195.0
 40
196.0
 40
196.0
 40
197.0
 40
197.0
 40
198.0
 40
198.0
 40
199.0
 40
199.0
 40
200.0
 40
200.0
 40
201.0
 40
201.0
 40
202.0
 40
202.0
 40
203.0
 40
203.0
 40
204.0
 40
204.0
 40
205.0
 40
205.0
 40
206.0
 40
206.0
 40
207.0
 40
207.0
 40
208.0
 40
208.0
 40
209.0
 40
209.0
 40
210.0
 40
210.0
 40
211.0
 40
211.0
 40
212.0
 40
212.0
 40
213.0
 40
213.0
 40
214.0
 40
214.0
 40
215.0
 40
215.0
 40
216.0
 40
216.0
 40
217.0
 40
217.0
 40
218.0
 40
218.0
 40
219.0
 40
219.0
 40
220.0
 40
220.0
 40
221.0
 40
221.0
 40
222.0
 40
222.0
 40
223.0
 40
223.0
 40
224.0
 40
224.0
 40
225.0
 40
225.0
 40
226.0
 40
226.0
 40
227.0
 40
227.0
 40
228.0
 40
228.0
 40
229.0
 40
229.0
 40
230.0
 40
230.0
 40
231.0
 40
231.0
 40
232.0
 40
232.0
 40
233.0
 40
233.0
 40
234.0
 40
234.0
 40
235.0
 40
235.0
 40
236.0
 40
236.0
 40
237.0
 40
237.0
 40
238.0
 40
238.0
 40
239.0
 40
239.0
 40
240.0
 40
240.0
 40
241.0
 40
241.0
 40
242.0
 40
242.0
 40
243.0
 40
243.0
 40
244.0
 40
244.0
 40
245.0
 40
245.0
 40
246.0
 40
246.0
 40
247.0
 40
247.0
 40
248.0
 40
248.0
 40
249.0
 40
249.0
 40
250.0
 40
250.0
 40
251.0
 40
251.0
 40
252.0
 40
252.0
 40
253.0
 40
253.0
 40
254.0
 40
254.0
 40
255.0
 40
255.0
 40
256.0
 40
256.0
 40
257.0
 40
257.0
 40
258.0
 40
258.0
 40
259.0
 40
259.0
 40
260.0
 40
260.0
 40
261.0
 40
261.0
 40
262.0
 40
262.0
 40
263.0
 40
263.0
 40
264.0
 40
264.0
 40
265.0
 40
265.0
 40
266.0
 40
266.0
 40
267.0
 40
267.0
 40
268.0
 40
268.0
 40
269.0
 40
269.0
 40
270.0
 40
270.0
 40
271.0
 40
271.0
 40
272.0
 40
272.0
 40
273.0
 40
273.0
 40
274.0
 40
274.0
 40
275.0
 40
275.0
 40
276.0
 40
276.0
 40
277.0
 40
277.0
 40
278.0
 40
278.0
 40
279.0
 40
279.0
 40
280.0
 40
280.0
 40
281.0
 40
281.0
 40
282.0
 40
282.0
 40
283.0
 40
283.0
 40
284.0
 40
284.0
 40
285.0
 40
285.0
 40
286.0
 40
286.0
 40
287.0
 40
287.0
 40
288.0
 40
288.0
 40
289.0
 40
289.0
 40
290.0
 40
290.0
 40
291.0
 40
291.0
 40
292.0
 40
292.0
 40
293.0
 40
293.0
 40
294.0
 40
294.0
 40
295.0
 40
295.0
 40
296.0
 40
296.0
 40
297.0
 40
297.0
 40
298.0
 40
298.0
 40
299.0
 40
299.0
 40
300.0
 40
300.0
 40
301.0
 40
301.0
 40
302.0
 40
302.0
 40
303.0
 40
303.0
 40
304.0
 40
304.0
 40
305.0
 40
305.0
 40
306.0
 40
306.0
 40
307.0
 40
307.0
 40
308.0
 40
308.0
 40
309.0
 40
309.0
 40
310.0
 40
310.0
 40
311.0
 40
311.0
 40
312.0
 40
312.0
 40
313.0
 40
313.0
 40
314.0
 40
314.0
 40
315.0
 40
315.0
 40
316.0
 40
316.0
 40
317.0
 40
317.0
 40
318.0
 40
318.0
 40
319.0
 40
319.0
 40
320.0
 40
320.0
 40
321.0
 40
321.0
 40
322.0
 40
322.0
 40
323.0
 40
323.0
 40
324.0
 40
324.0
 40
325.0
 40
325.0
 40
326.0
 40
326.0
 40
327.0
 40
327.0
 40
328.0
 40
328.0
 40
329.0
 40
329.0
 40
330.0
 40
330.0
 40
331.0
 40
331.0
 40
332.0
 40
332.0
 40
333.0
 40
333.0
 40
334.0
 40
334.0
 40
335.0
 40
335.0
 40
336.0
 40
336.0
 40
337.0
 40
337.0
 40
338.0
 40
338.0
 40
339.0
 40
339.0
 40
340.0
 40
340.0
 40
341.0
 40
341.0
 40
342.0
 40
342.0
 40
343.0
 40
343.0
 40
344.0
 40
344.0
 40
345.0
 40
345.0
 40
346.0
 40
346.0
 40
347.0
 40
347.0
 40
348.0
 40
348.0
 40
349.0
 40
349.0
 40
350.0
 40
350.0
 40
351.0
 40
351.0
 40
352.0
 40
352.0
 40
353.0
 40
353.0
 40
354.0
 40
354.0
 40
355.0
 40
355.0
 40
356.0
 40
356.0
 40
357.0
 40
357.0
 40
358.0
 40
358.0
 40
359.0
 40
359.0
 40
360.0
 40
360.0
 40
361.0
 40
361.0
 40
362.0
 40
362.0
 40
363.0
 40
363.0
 40
364.0
 40
364.0
 40
365.0
 40
365.0
 40
366.0
 40
366.0
 40
367.0
 40
367.0
 40
368.0
 40
368.0
 40
369.0
 40
369.0
 40
370.0
 40
370.0
 40
371.0
 40
371.0
 40
372.0
 40
372.0
 40
373.0
 40
373.0
 40
374.0
 40
374.0
 40
375.0
 40
375.0
 40
376.0
 40
376.0
 40
377.0
 40
377.0
 40
378.0
 40
378.0
 40
379.0
 40
379.0
 40
380.0
 40
380.0
 40
381.0
 40
381.0
 40
382.0
 40
382.0
 40
383.0
 40
383.0
 40
384.0
 40
384.0
 40
385.0
 40
385.0
 40
386.0
 40
386.0
 40
387.0
 40
387.0
 40
388.0
 40
388.0
 40
389.0
 40
389.0
 40
389.0
 10
-2072.8874439927708
 20
-2417.5491039110357
 30
0.0
 41
1.0
 10
-2072.0690198840502
 20
-2417.5491039110357
 30
0.0
 41
1.0
 10
-2071.2505957753301
 20
-2417.5491039110357
 30
0.0
 41
1.0
 10
-2071.6643495108469
 20
-2418.8917301752854
 30
0.0
 41
1.0
 10
-2072.0781032463638
 20
-2420.2343564395351
 30
0.0
 41
1.0
 10
-2072.0597637511892
 20
-2420.2056556666134
 30
0.0
 41
0.9999957264367134
 10
-2072.0412567543508
 20
-2420.1770626164512
 30
0.0
 41
1.0
 10
-2072.0108274302206
 20
-2420.1300497380862
 30
0.0
 41
1.0
 10
-2071.9803981060904
 20
-2420.0830368597208
 30
0.0
 41
1.0
 10
-2071.9010324609844
 20
-2419.9604180528181
 30
0.0
 41
0.9995394069081794
 10
-2071.8143740694322
 20
-2419.8428399910763
 30
0.0
 41
1.0
 10
-2071.7786172071724
 20
-2419.7943250984827
 30
0.0
 41
1.0
 10
-2071.7428603449125
 20
-2419.7458102058895
 30
0.0
 41
1.0
 10
-2071.6091336770946
 20
-2419.564369930763
 30
0.0
 41
0.9994460617143299
 10
-2071.4636331958063
 20
-2419.3922275331124
 30
0.0
 41
1.0
 10
-2071.459245014832
 20
-2419.3870358527302
 30
0.0
 41
1.0
 10
-2071.4548568338573
 20
-2419.3818441723483
 30
0.0
 41
1.0
 10
-2071.3181327145189
 20
-2419.2200851354633
 30
0.0
 41
0.9994359394934222
 10
-2071.1708584841672
 20
-2419.0678689342981
 30
0.0
 41
1.0
 10
-2071.1684751302141
 20
-2419.0654056039252
 30
0.0
 41
1.0
 10
-2071.1660917762611
 20
-2419.0629422735524
 30
0.0
 41
1.0
 10
-2071.0235842538168
 20
-2418.9156527331343
 30
0.0
 41
0.9995293688567227
 10
-2070.8723125728338
 20
-2418.7773795209696
 30
0.0
 41
1.0
 10
-2070.8530188135715
 20
-2418.7597436353194
 30
0.0
 41
1.0
 10
-2070.8337250543091
 20
-2418.7421077496692
 30
0.0
 41
1.0
 10
-2070.7210408918518
 20
-2418.6391063088058
 30
0.0
 41
0.9997087614802707
 10
-2070.6035180028966
 20
-2418.5416620280075
 30
0.0
 41
1.0
 10
-2070.584351929715
 20
-2418.5257704494943
 30
0.0
 41
1.0
 10
-2070.5651858565334
 20
-2418.5098788709815
 30
0.0
 41
1.0
 10
-2070.4859951139351
 20
-2418.4442177472047
 30
0.0
 41
0.9999595338699565
 10
-2070.4056358430862
 20
-2418.3799920165548
 30
0.0
 41
1.0
 10
-2070.32527657223
 20
-2418.3157662858985
 30
0.0
 41
0.9999749417508229
 10
-2070.2440160378828
 20
-2418.2526847319496
 30
0.0
 41
1.0
 10
-2070.2230298917138
 20
-2418.2363934446425
 30
0.0
 41
1.0
 10
-2070.2020437455444
 20
-2418.2201021573355
 30
0.0
 41
1.0
 10
-2070.117475860251
 20
-2418.154453147501
 30
0.0
 41
0.9999792037121045
 10
-2070.0320682604852
 20
-2418.0899003658606
 30
0.0
 41
1.0
 10
-2070.0112434345792
 20
-2418.0741605436069
 30
0.0
 41
1.0
 10
-2069.9904186086733
 20
-2418.0584207213537
 30
0.0
 41
1.0
 10
-2069.9466606607248
 20
-2418.0253475842237
 30
0.0
 41
0.9999993374029202
 10
-2069.9029789745728
 20
-2417.992173788793
 30
0.0
 41
1.0
 10
-2069.8592972884276
 20
-2417.9589999933678
 30
0.0
 41
0.9999160953816383
 10
-2069.8147708775059
 20
-2417.9269689281682
 30
0.0
 41
1.0
 10
-2069.7819489900885
 20
-2417.9033577725845
 30
0.0
 41
1.0
 10
-2069.7491271026706
 20
-2417.8797466170008
 30
0.0
 41
1.0
 10
-2069.6389569169119
 20
-2417.8004932406325
 30
0.0
 41
0.9980964527231359
 10
-2069.5198679234118
 20
-2417.7354057677771
 30
0.0
 41
1.0
 10
-2069.4828353164835
 20
-2417.7151657881841
 30
0.0
 41
1.0
 10
-2069.4458027095552
 20
-2417.6949258085906
 30
0.0
 41
1.0
 10
-2069.2664756962822
 20
-2417.5969155578896
 30
0.0
 41
0.9984572810573301
 10
-2069.0773871299234
 20
-2417.5193932965431
 30
0.0
 41
1.0
 10
-2069.0737408605264
 20
-2417.517898404205
 30
0.0
 41
1.0
 10
-2069.0700945911299
 20
-2417.5164035118664
 30
0.0
 41
1.0
 10
-2068.8882985635637
 20
-2417.4418710351961
 30
0.0
 41
0.9987838528033941
 10
-2068.7000459050055
 20
-2417.3856053950308
 30
0.0
 41
1.0
 10
-2068.6958079558076
 20
-2417.3843387413408
 30
0.0
 41
1.0
 10
-2068.6915700066097
 20
-2417.3830720876508
 30
0.0
 41
1.0
 10
-2068.5117932464473
 20
-2417.329339754865
 30
0.0
 41
0.9990652816206906
 10
-2068.3280473147306
 20
-2417.2913360753232
 30
0.0
 41
1.0
 10
-2068.3228589136988
 20
-2417.2902629722166
 30
0.0
 41
1.0
 10
-2068.3176705126675
 20
-2417.28918986911
 30
0.0
 41
1.0
 10
-2068.144301383014
 20
-2417.2533323957814
 30
0.0
 41
0.999290993427116
 10
-2067.9687256165562
 20
-2417.2306219633147
 30
0.0
 41
1.0
 10
-2067.7931498500957
 20
-2417.2079115308479
 30
0.0
 41
0.9994553539448519
 10
-2067.6164584170001
 20
-2417.1968322266416
 30
0.0
 41
1.0
 10
-2067.5810240092069
 20
-2417.194610338594
 30
0.0
 41
1.0
 10
-2067.5455896014132
 20
-2417.1923884505463
 30
0.0
 41
1.0
 10
-2067.3793638348448
 20
-2417.1819653881348
 30
0.0
 41
0.9990928098293199
 10
-2067.2128540429412
 20
-2417.1857250293692
 30
0.0
 41
1.0
 10
-2067.1742922076673
 20
-2417.186595720902
 30
0.0
 41
1.0
 10
-2067.135730372393
 20
-2417.1874664124352
 30
0.0
 41
1.0
 10
-2067.0463442510363
 20
-2417.1894846706036
 30
0.0
 41
0.999838208920611
 10
-2066.9570885682524
 20
-2417.1947167971316
 30
0.0
 41
1.0
 10
-2066.9566586620322
 20
-2417.1947419980338
 30
0.0
 41
1.0
 10
-2066.9562287558119
 20
-2417.194767198936
 30
0.0
 41
1.0
 10
-2066.8678328854658
 20
-2417.1999489236596
 30
0.0
 41
0.9997558016757921
 10
-2066.7797523082654
 20
-2417.2090314390261
 30
0.0
 41
1.0
 10
-2066.7792761698333
 20
-2417.2090805365087
 30
0.0
 41
1.0
 10
-2066.7788000314013
 20
-2417.2091296339918
 30
0.0
 41
1.0
 10
-2066.6916717310623
 20
-2417.2181139543932
 30
0.0
 41
0.9996565144182199
 10
-2066.6051338777224
 20
-2417.2316512610819
 30
0.0
 41
1.0
 10
-2066.604667952347
 20
-2417.2317241468127
 30
0.0
 41
1.0
 10
-2066.604202026972
 20
-2417.2317970325439
 30
0.0
 41
1.0
 10
-2066.5185960243825
 20
-2417.2451885677706
 30
0.0
 41
0.9995321806867374
 10
-2066.4339689440521
 20
-2417.2637890562
 30
0.0
 41
1.0
 10
-2066.4335797494805
 20
-2417.263874598666
 30
0.0
 41
1.0
 10
-2066.4331905549088
 20
-2417.2639601411315
 30
0.0
 41
1.0
 10
-2066.3493418637245
 20
-2417.282389544629
 30
0.0
 41
0.9993819199218752
 10
-2066.2669953295281
 20
-2417.3066649278899
 30
0.0
 41
1.0
 10
-2066.2667568960296
 20
-2417.3067352169992
 30
0.0
 41
1.0
 10
-2066.2665184625307
 20
-2417.306805506109
 30
0.0
 41
1.0
 10
-2066.1846487953312
 20
-2417.3309403111507
 30
0.0
 41
0.9992088568506136
 10
-2066.1049562763437
 20
-2417.361505546945
 30
0.0
 41
1.0
 10
-2066.0252752854644
 20
-2417.3920651476783
 30
0.0
 41
0.9990226101773221
 10
-2065.9486046155575
 20
-2417.4295425792925
 30
0.0
 41
1.0
 10
-2065.8719454737611
 20
-2417.4670143758453
 30
0.0
 41
0.9988424273971879
 10
-2065.7992418465506
 20
-2417.5116791510973
 30
0.0
 41
1.0
 10
-2065.7989741381698
 20
-2417.5118436151706
 30
0.0
 41
1.0
 10
-2065.7987064297886
 20
-2417.512008079244
 30
0.0
 41
1.0
 10
-2065.7254673858179
 20
-2417.5570017826412
 30
0.0
 41
0.9986928844492499
 10
-2065.6572045191078
 20
-2417.6092375169205
 30
0.0
 41
1.0
 10
-2065.6566232268851
 20
-2417.6096823301486
 30
0.0
 41
1.0
 10
-2065.6560419346624
 20
-2417.6101271433763
 30
0.0
 41
1.0
 10
-2065.5866164835052
 20
-2417.6632525041136
 30
0.0
 41
0.9986007262278848
 10
-2065.5231903137364
 20
-2417.723413273809
 30
0.0
 41
1.0
 10
-2065.5222958982813
 20
-2417.7242616416424
 30
0.0
 41
1.0
 10
-2065.5214014828261
 20
-2417.7251100094754
 30
0.0
 41
1.0
 10
-2065.4561864821449
 20
-2417.7869675148395
 30
0.0
 41
0.9985581491381997
 10
-2065.3979788704428
 20
-2417.8554600051116
 30
0.0
 41
1.0
 10
-2065.3887204168473
 20
-2417.8663543628127
 30
0.0
 41
1.0
 10
-2065.3794619632517
 20
-2417.8772487205142
 30
0.0
 41
1.0
 10
-2065.3027374443582
 20
-2417.9675299261899
 30
0.0
 41
0.9970460233519696
 10
-2065.240745543198
 20
-2418.0684970103725
 30
0.0
 41
1.0
 10
-2065.226276178118
 20
-2418.0920634694539
 30
0.0
 41
1.0
 10
-2065.211806813038
 20
-2418.1156299285358
 30
0.0
 41
1.0
 10
-2065.1720701130266
 20
-2418.1803496525667
 30
0.0
 41
0.998846881663605
 10
-2065.1387237422759
 20
-2418.2485821049927
 30
0.0
 41
1.0
 10
-2065.1316877197887
 20
-2418.2629790261212
 30
0.0
 41
1.0
 10
-2065.1246516973019
 20
-2418.2773759472498
 30
0.0
 41
1.0
 10
-2065.1053773715289
 20
-2418.3168145574109
 30
0.0
 41
0.9998431189999293
 10
-2065.0875120440296
 20
-2418.3569111118613
 30
0.0
 41
1.0
 10
-2065.0696467165467
 20
-2418.3970076662754
 30
0.0
 41
0.9999989989698839
 10
-2065.0516679931329
 20
-2418.4370535038411
 30
0.0
 41
1.0
 10
-2065.0454956815283
 20
-2418.4508017206763
 30
0.0
 41
1.0
 10
-2065.0393233699242
 20
-2418.464549937511
 30
0.0
 41
1.0
 10
-2065.0090000233149
 20
-2418.5320922087167
 30
0.0
 41
0.9998790356319066
 10
-2064.9807921431784
 20
-2418.600544960651
 30
0.0
 41
1.0
 10
-2064.9739569618905
 20
-2418.617132062087
 30
0.0
 41
1.0
 10
-2064.9671217806026
 20
-2418.6337191635234
 30
0.0
 41
1.0
 10
-2064.9435641182249
 20
-2418.6908871184032
 30
0.0
 41
0.9998227574561246
 10
-2064.9221753698375
 20
-2418.7489014266753
 30
0.0
 41
1.0
 10
-2064.9007866214502
 20
-2418.8069157349451
 30
0.0
 41
0.9996797971040076
 10
-2064.8823603364935
 20
-2418.865937854056
 30
0.0
 41
1.0
 10
-2064.8784565337655
 20
-2418.8784423122324
 30
0.0
 41
1.0
 10
-2064.8745527310375
 20
-2418.8909467704088
 30
0.0
 41
1.0
 10
-2064.8483188406267
 20
-2418.9749778058676
 30
0.0
 41
0.9979274938734712
 10
-2064.8330943171472
 20
-2419.0616821645308
 30
0.0
 41
1.0
 10
-2064.8308706298867
 20
-2419.0743461653492
 30
0.0
 41
1.0
 10
-2064.8286469426257
 20
-2419.0870101661676
 30
0.0
 41
1.0
 10
-2064.8177170029276
 20
-2419.1492566734578
 30
0.0
 41
0.9994985982137202
 10
-2064.8107488377509
 20
-2419.2120701745998
 30
0.0
 41
1.0
 10
-2064.8037806725742
 20
-2419.2748836757305
 30
0.0
 41
0.9996372611200919
 10
-2064.800204806807
 20
-2419.3379812544031
 30
0.0
 41
1.0
 10
-2064.8000362293169
 20
-2419.3409558714957
 30
0.0
 41
1.0
 10
-2064.7998676518273
 20
-2419.3439304885883
 30
0.0
 41
1.0
 10
-2064.7959546310808
 20
-2419.4129773014356
 30
0.0
 41
0.9997730630734532
 10
-2064.7949863175932
 20
-2419.4821281254708
 30
0.0
 41
1.0
 10
-2064.7949292111753
 20
-2419.4862063046112
 30
0.0
 41
1.0
 10
-2064.7948721047569
 20
-2419.490284483752
 30
0.0
 41
1.0
 10
-2064.7937895784326
 20
-2419.5675916660693
 30
0.0
 41
0.999877261407189
 10
-2064.795129665164
 20
-2419.6448948126331
 30
0.0
 41
1.0
 10
-2064.7952189283628
 20
-2419.6500439764686
 30
0.0
 41
1.0
 10
-2064.7953081915616
 20
-2419.6551931403042
 30
0.0
 41
1.0
 10
-2064.7968268046907
 20
-2419.7427946145399
 30
0.0
 41
0.9999415567319999
 10
-2064.8002391149366
 20
-2419.8303427762162
 30
0.0
 41
1.0
 10
-2064.8004804356119
 20
-2419.8365342359521
 30
0.0
 41
1.0
 10
-2064.8007217562872
 20
-2419.8427256956884
 30
0.0
 41
1.0
 10
-2064.8046167078846
 20
-2419.9426567768533
 30
0.0
 41
0.9999716810423225
 10
-2064.8100152910038
 20
-2420.0425179150952
 30
0.0
 41
1.0
 10
-2064.8132280897935
 20
-2420.101947164761
 30
0.0
 41
1.0
 10
-2064.8164408885827
 20
-2420.1613764144267
 30
0.0
 41
1.0
 10
-2064.8245147977341
 20
-2420.3107248156857
 30
0.0
 41
0.9999819129911922
 10
-2064.8343845893496
 20
-2420.4599652933734
 30
0.0
 41
1.0
 10
-2064.844254380966
 20
-2420.6092057710848
 30
0.0
 41
1.0
 10
-2064.8466937015301
 20
-2420.6463988169344
 30
0.0
 41
1.0
 10
-2064.8239954676992
 20
-2420.6076578196053
 30
0.0
 41
0.9999982128148955
 10
-2064.8011509089356
 20
-2420.5690029256339
 30
0.0
 41
1.0
 10
-2064.7742413490546
 20
-2420.5234697115848
 30
0.0
 41
1.0
 10
-2064.7473317891736
 20
-2420.4779364975361
 30
0.0
 41
1.0
 10
-2064.6706681106471
 20
-2420.3482151754652
 30
0.0
 41
0.9998609190057484
 10
-2064.5897207977837
 20
-2420.2211227935336
 30
0.0
 41
1.0
 10
-2064.5600724763035
 20
-2420.1745730605794
 30
0.0
 41
1.0
 10
-2064.5304241548238
 20
-2420.1280233276252
 30
0.0
 41
1.0
 10
-2064.4481519345859
 20
-2419.9988507576286
 30
0.0
 41
0.9999067609731163
 10
-2064.3623829251214
 20
-2419.8719730681869
 30
0.0
 41
1.0
 10
-2064.3599782219226
 20
-2419.8684158021347
 30
0.0
 41
1.0
 10
-2064.3575735187233
 20
-2419.8648585360825
 30
0.0
 41
1.0
 10
-2064.2766139156597
 20
-2419.7450953787488
 30
0.0
 41
0.9998784952147591
 10
-2064.191960305976
 20
-2419.6279141620366
 30
0.0
 41
1.0
 10
-2064.1073066962922
 20
-2419.5107329453249
 30
0.0
 41
0.9998532968282137
 10
-2064.0186890754671
 20
-2419.3965200368511
 30
0.0
 41
1.0
 10
-2063.9987272864801
 20
-2419.3707927158366
 30
0.0
 41
1.0
 10
-2063.9787654974934
 20
-2419.3450653948216
 30
0.0
 41
1.0
 10
-2063.8602814477331
 20
-2419.1923597838509
 30
0.0
 41
0.9991551975795375
 10
-2063.7296569981072
 20
-2419.0499002217648
 30
0.0
 41
1.0
 10
-2063.7261473821263
 20
-2419.0460726201395
 30
0.0
 41
1.0
 10
-2063.7226377661459
 20
-2419.0422450185142
 30
0.0
 41
1.0
 10
-2063.5990325484836
 20
-2418.907440659681
 30
0.0
 41
0.9997418144180981
 10
-2063.4694304087834
 20
-2418.778391249069
 30
0.0
 41
1.0
 10
-2063.3398282690823
 20
-2418.6493418384562
 30
0.0
 41
0.9989238204633407
 10
-2063.1988257208309
 20
-2418.5328568764171
 30
0.0
 41
1.0
 10
-2063.1535780426916
 20
-2418.4954768848083
 30
0.0
 41
1.0
 10
-2063.1083303645523
 20
-2418.4580968931996
 30
0.0
 41
1.0
 10
-2062.9680903073308
 20
-2418.3422418399095
 30
0.0
 41
0.9990825084097333
 10
-2062.818450374727
 20
-2418.2388128420762
 30
0.0
 41
1.0
 10
-2062.80840501067
 20
-2418.2318696289967
 30
0.0
 41
1.0
 10
-2062.7983596466129
 20
-2418.2249264159168
 30
0.0
 41
1.0
 10
-2062.6688104421232
 20
-2418.1353838442433
 30
0.0
 41
0.999816489982542
 10
-2062.5359262387474
 20
-2418.0508696027273
 30
0.0
 41
1.0
 10
-2062.5240806782208
 20
-2418.0433358362015
 30
0.0
 41
1.0
 10
-2062.5122351176942
 20
-2418.0358020696754
 30
0.0
 41
1.0
 10
-2062.4030420353706
 20
-2417.9663553612104
 30
0.0
 41
0.9997473449130296
 10
-2062.2908380781214
 20
-2417.9018864033951
 30
0.0
 41
1.0
 10
-2062.1786341208744
 20
-2417.8374174455807
 30
0.0
 41
0.9999327861145639
 10
-2062.0649655101124
 20
-2417.7755674539003
 30
0.0
 41
1.0
 10
-2062.0644135075499
 20
-2417.77526709522
 30
0.0
 41
1.0
 10
-2062.063861504987
 20
-2417.7749667365397
 30
0.0
 41
1.0
 10
-2061.9490888891023
 20
-2417.7125160275
 30
0.0
 41
0.9996956420483752
 10
-2061.8313755632621
 20
-2417.6558025605254
 30
0.0
 41
1.0
 10
-2061.8009351583719
 20
-2417.6411365837967
 30
0.0
 41
1.0
 10
-2061.7704947534817
 20
-2417.6264706070679
 30
0.0
 41
1.0
 10
-2061.6675176467352
 20
-2417.5768569486227
 30
0.0
 41
0.9998070570175759
 10
-2061.5626712577914
 20
-2417.5313263617209
 30
0.0
 41
1.0
 10
-2061.4578248688517
 20
-2417.4857957748204
 30
0.0
 41
0.9997827436147516
 10
-2061.3511719322432
 20
-2417.4446746035087
 30
0.0
 41
1.0
 10
-2061.3319490826107
 20
-2417.4372630298758
 30
0.0
 41
1.0
 10
-2061.3127262329781
 20
-2417.4298514562429
 30
0.0
 41
1.0
 10
-2061.1676275971063
 20
-2417.3739071376663
 30
0.0
 41
0.9988031841976482
 10
-2061.0177572345019
 20
-2417.3324070734984
 30
0.0
 41
1.0
 10
-2060.9928399861392
 20
-2417.3255073276914
 30
0.0
 41
1.0
 10
-2060.9679227377765
 20
-2417.3186075818849
 30
0.0
 41
1.0
 10
-2060.8006527121283
 20
-2417.2722894394783
 30
0.0
 41
0.9984748040550041
 10
-2060.6292958034783
 20
-2417.2446952072132
 30
0.0
 41
1.0
 10
-2060.6245566672314
 20
-2417.2439320467001
 30
0.0
 41
1.0
 10
-2060.6198175309851
 20
-2417.243168886187
 30
0.0
 41
1.0
 10
-2060.4579388948309
 20
-2417.2171009749482
 30
0.0
 41
0.9984436495479717
 10
-2060.2941641511043
 20
-2417.2092230211292
 30
0.0
 41
1.0
 10
-2060.2724669429722
 20
-2417.2081793339294
 30
0.0
 41
1.0
 10
-2060.2507697348401
 20
-2417.20713564673
 30
0.0
 41
1.0
 10
-2060.1303894073794
 20
-2417.2013450673107
 30
0.0
 41
0.9987954789335486
 10
-2060.0100211624699
 20
-2417.207381595053
 30
0.0
 41
1.0
 10
-2059.9900563699762
 20
-2417.2083828393916
 30
0.0
 41
1.0
 10
-2059.9700915774824
 20
-2417.2093840837301
 30
0.0
 41
1.0
 10
-2059.8896529175609
 20
-2417.2134181227952
 30
0.0
 41
0.9997941595877491
 10
-2059.809444139466
 20
-2417.2207121887163
 30
0.0
 41
1.0
 10
-2059.7292353613698
 20
-2417.2280062546374
 30
0.0
 41
0.9998589466237461
 10
-2059.6493168145139
 20
-2417.2379901090876
 30
0.0
 41
1.0
 10
-2059.6169106127072
 20
-2417.2420384660068
 30
0.0
 41
1.0
 10
-2059.5845044109001
 20
-2417.2460868229259
 30
0.0
 41
1.0
 10
-2059.4397734604258
 20
-2417.2641673912149
 30
0.0
 41
0.999349506324935
 10
-2059.2967222166567
 20
-2417.2926331009576
 30
0.0
 41
1.0
 10
-2059.2637885195077
 20
-2417.2991865641716
 30
0.0
 41
1.0
 10
-2059.2308548223587
 20
-2417.305740027386
 30
0.0
 41
1.0
 10
-2059.1215609991541
 20
-2417.3274883615213
 30
0.0
 41
0.9996788715561414
 10
-2059.0135094271977
 20
-2417.3547461608841
 30
0.0
 41
1.0
 10
-2059.0114464246594
 20
-2417.3552665874568
 30
0.0
 41
1.0
 10
-2059.0093834221211
 20
-2417.3557870140298
 30
0.0
 41
1.0
 10
-2058.9054578552418
 20
-2417.3820039602469
 30
0.0
 41
0.9995480654492117
 10
-2058.8032956200118
 20
-2417.4144189168715
 30
0.0
 41
1.0
 10
-2058.801605977882
 20
-2417.4149550217858
 30
0.0
 41
1.0
 10
-2058.7999163357517
 20
-2417.4154911267001
 30
0.0
 41
1.0
 10
-2058.7011333847813
 20
-2417.4468338734964
 30
0.0
 41
0.9993867959456746
 10
-2058.6047862263395
 20
-2417.4850132427855
 30
0.0
 41
1.0
 10
-2058.6035432772564
 20
-2417.4855057846808
 30
0.0
 41
1.0
 10
-2058.6023003281734
 20
-2417.4859983265765
 30
0.0
 41
1.0
 10
-2058.5084390678994
 20
-2417.5231926120746
 30
0.0
 41
0.9992050256522271
 10
-2058.4178393928642
 20
-2417.567746511314
 30
0.0
 41
1.0
 10
-2058.4171047101504
 20
-2417.5681078037755
 30
0.0
 41
1.0
 10
-2058.4163700274366
 20
-2417.5684690962371
 30
0.0
 41
1.0
 10
-2058.3272397178298
 20
-2417.6123004105539
 30
0.0
 41
0.9990222350742296
 10
-2058.2423296564371
 20
-2417.6638336782512
 30
0.0
 41
1.0
 10
-2058.2421457711544
 20
-2417.663945281156
 30
0.0
 41
1.0
 10
-2058.2419618858721
 20
-2417.6640568840608
 30
0.0
 41
1.0
 10
-2058.1574195950434
 20
-2417.7153669459494
 30
0.0
 41
0.9988642743804208
 10
-2058.0781450604245
 20
-2417.7744911334748
 30
0.0
 41
1.0
 10
-2057.9988705258052
 20
-2417.8336153210003
 30
0.0
 41
0.998768123331112
 10
-2057.9258467415289
 20
-2417.900306012401
 30
0.0
 41
1.0
 10
-2057.9255178135631
 20
-2417.9006064136152
 30
0.0
 41
1.0
 10
-2057.9251888855974
 20
-2417.9009068148293
 30
0.0
 41
1.0
 10
-2057.8515072453911
 20
-2417.9681983086571
 30
0.0
 41
0.9987496570897586
 10
-2057.7849134400649
 20
-2418.0425111227428
 30
0.0
 41
1.0
 10
-2057.7841412703033
 20
-2418.0433727961017
 30
0.0
 41
1.0
 10
-2057.7833691005417
 20
-2418.0442344694611
 30
0.0
 41
1.0
 10
-2057.7152309556886
 20
-2418.1202706302697
 30
0.0
 41
0.9988147669828963
 10
-2057.6548087014585
 20
-2418.2025716371195
 30
0.0
 41
1.0
 10
-2057.6536893753855
 20
-2418.204096268465
 30
0.0
 41
1.0
 10
-2057.652570049313
 20
-2418.205620899811
 30
0.0
 41
1.0
 10
-2057.5899091429314
 20
-2418.2909711693605
 30
0.0
 41
0.9989452636217062
 10
-2057.5353422299686
 20
-2418.3817098585205
 30
0.0
 41
1.0
 10
-2057.5339935038842
 20
-2418.3839526395445
 30
0.0
 41
1.0
 10
-2057.5326447777998
 20
-2418.3861954205686
 30
0.0
 41
1.0
 10
-2057.4753804126681
 20
-2418.4814196717775
 30
0.0
 41
0.999104643607031
 10
-2057.4263711993472
 20
-2418.5811441048013
 30
0.0
 41
1.0
 10
-2057.4249073377564
 20
-2418.584122784875
 30
0.0
 41
1.0
 10
-2057.4234434761656
 20
-2418.5871014649492
 30
0.0
 41
1.0
 10
-2057.3715065396632
 20
-2418.6927832581214
 30
0.0
 41
0.9992763831101158
 10
-2057.3277534111076
 20
-2418.8021073200794
 30
0.0
 41
1.0
 10
-2057.3262741414451
 20
-2418.805803507611
 30
0.0
 41
1.0
 10
-2057.3247948717826
 20
-2418.8094996951427
 30
0.0
 41
1.0
 10
-2057.2780832039011
 20
-2418.926216132164
 30
0.0
 41
0.9994163472884065
 10
-2057.2394501727117
 20
-2419.0458497206259
 30
0.0
 41
1.0
 10
-2057.238212020462
 20
-2419.0496838644176
 30
0.0
 41
1.0
 10
-2057.2369738682128
 20
-2419.0535180082088
 30
0.0
 41
1.0
 10
-2057.1970903071979
 20
-2419.1770240696806
 30
0.0
 41
0.9997268055890417
 10
-2057.1630222512877
 20
-2419.3022591016243
 30
0.0
 41
1.0
 10
-2057.1620920710166
 20
-2419.3056784677392
 30
0.0
 41
1.0
 10
-2057.161161890745
 20
-2419.3090978338541
 30
0.0
 41
1.0
 10
-2057.1289541953743
 20
-2419.4274941335807
 30
0.0
 41
0.9996701319001465
 10
-2057.102868578605
 20
-2419.5473880868385
 30
0.0
 41
1.0
 10
-2057.0767829618349
 20
-2419.6672820401018
 30
0.0
 41
0.9995785451109873
 10
-2057.0576993844948
 20
-2419.7884878011337
 30
0.0
 41
1.0
 10
-2057.0534796023212
 20
-2419.8152889558987
 30
0.0
 41
1.0
 10
-2057.0492598201472
 20
-2419.8420901106633
 30
0.0
 41
1.0
 10
-2057.0226848442089
 20
-2420.0108760843664
 30
0.0
 41
0.9979925101216647
 10
-2057.0176592582829
 20
-2420.1816674124584
 30
0.0
 41
1.0
 10
-2057.0168344458584
 20
-2420.2096981359382
 30
0.0
 41
1.0
 10
-2057.0160096334339
 20
-2420.237728859418
 30
0.0
 41
1.0
 10
-2057.0126336723565
 20
-2420.3524587405482
 30
0.0
 41
0.9995314902262955
 10
-2057.0162838644947
 20
-2420.467180224302
 30
0.0
 41
1.0
 10
-2057.0199340566332
 20
-2420.5819017080544
 30
0.0
 41
0.9996245486943813
 10
-2057.0298631517644
 20
-2420.6962509791788
 30
0.0
 41
1.0
 10
-2057.0300261997586
 20
-2420.6981287353137
 30
0.0
 41
1.0
 10
-2057.0301892477528
 20
-2420.7000064914482
 30
0.0
 41
1.0
 10
-2057.0404444388719
 20
-2420.8181112748389
 30
0.0
 41
0.9997286095001183
 10
-2057.0561897624425
 20
-2420.9356101837288
 30
0.0
 41
1.0
 10
-2057.0565832550938
 20
-2420.938546608435
 30
0.0
 41
1.0
 10
-2057.0569767477446
 20
-2420.9414830331416
 30
0.0
 41
1.0
 10
-2057.0735090566163
 20
-2421.0648547914393
 30
0.0
 41
0.9998265533968871
 10
-2057.0946245153486
 20
-2421.1875252662262
 30
0.0
 41
1.0
 10
-2057.0953010574858
 20
-2421.1914556447346
 30
0.0
 41
1.0
 10
-2057.0959775996234
 20
-2421.1953860232434
 30
0.0
 41
1.0
 10
-2057.1184461426296
 20
-2421.3259172550447
 30
0.0
 41
0.9999022530855344
 10
-2057.144555607239
 20
-2421.4557692236799
 30
0.0
 41
1.0
 10
-2057.1455342484051
 20
-2421.4606363660696
 30
0.0
 41
1.0
 10
-2057.1465128895707
 20
-2421.4655035084597
 30
0.0
 41
1.0
 10
-2057.1745796365126
 20
-2421.6050897618761
 30
0.0
 41
0.9999524761932122
 10
-2057.2053626053475
 20
-2421.7441022550429
 30
0.0
 41
1.0
 10
-2057.2066387125224
 20
-2421.7498650143425
 30
0.0
 41
1.0
 10
-2057.2079148196972
 20
-2421.7556277736421
 30
0.0
 41
1.0
 10
-2057.2412500028831
 20
-2421.9061657854113
 30
0.0
 41
0.9999813588716758
 10
-2057.2764210036798
 20
-2422.0562854980699
 30
0.0
 41
1.0
 10
-2057.2779749291358
 20
-2422.0629180884907
 30
0.0
 41
1.0
 10
-2057.2795288545922
 20
-2422.069550678912
 30
0.0
 41
1.0
 10
-2057.3178077063076
 20
-2422.2329355724405
 30
0.0
 41
0.9999955237663263
 10
-2057.3570635842957
 20
-2422.39608847608
 30
0.0
 41
1.0
 10
-2057.3693452199232
 20
-2422.4471326665725
 30
0.0
 41
1.0
 10
-2057.3816268555502
 20
-2422.4981768570651
 30
0.0
 41
1.0
 10
-2057.4454460047746
 20
-2422.7634181416161
 30
0.0
 41
0.9999993604262457
 10
-2057.5098649519246
 20
-2423.0285143922238
 30
0.0
 41
1.0
 10
-2057.5145837874934
 20
-2423.0479333003532
 30
0.0
 41
1.0
 10
-2057.5193026230618
 20
-2423.0673522084826
 30
0.0
 41
1.0
 10
-2057.5931592413267
 20
-2423.37128627526
 30
0.0
 41
0.9999659914726768
 10
-2057.6720188372165
 20
-2423.6739608218368
 30
0.0
 41
1.0
 10
-2057.6769715261426
 20
-2423.6929699590014
 30
0.0
 41
1.0
 10
-2057.6819242150686
 20
-2423.711979096166
 30
0.0
 41
1.0
 10
-2057.7706891888133
 20
-2424.0526719170839
 30
0.0
 41
0.9999441976029206
 10
-2057.8666322217773
 20
-2424.3914133423841
 30
0.0
 41
1.0
 10
-2057.8833327402026
 20
-2424.4503770549118
 30
0.0
 41
1.0
 10
-2057.9000332586284
 20
-2424.5093407674394
 30
0.0
 41
1.0
 10
-2058.0293773284429
 20
-2424.9660096177936
 30
0.0
 41
0.9999625120734534
 10
-2058.1666100957659
 20
-2425.4203701517881
 30
0.0
 41
1.0
 10
-2058.2024000388519
 20
-2425.5388661784245
 30
0.0
 41
1.0
 10
-2058.2381899819379
 20
-2425.6573622050614
 30
0.0
 41
1.0
 10
-2058.3127101859754
 20
-2425.9040892831526
 30
0.0
 41
0.9999793386321991
 10
-2058.3903962091108
 20
-2426.1498379223822
 30
0.0
 41
1.0
 10
-2058.4680822322484
 20
-2426.3955865616181
 30
0.0
 41
1.0
 10
-2058.478861791119
 20
-2426.4296044659927
 30
0.0
 41
1.0
 10
-2060.3292348443883
 20
-2432.3166763884601
 30
0.0
 41
1.0
 10
-2062.1796078976577
 20
-2438.2037483109279
 30
0.0
 41
1.0
 10
-2063.1408645876809
 20
-2438.2037483109279
 30
0.0
 41
1.0
 10
-2064.1021212777046
 20
-2438.2037483109279
 30
0.0
 41
1.0
 10
-2062.4831764990258
 20
-2433.0557198091383
 30
0.0
 41
1.0
 10
-2060.8642317203476
 20
-2427.9076913073486
 30
0.0
 41
1.0
 10
-2060.8190658971662
 20
-2427.763660085056
 30
0.0
 41
1.0
 10
-2060.7739000739848
 20
-2427.6196288627634
 30
0.0
 41
1.0
 10
-2060.6035956566279
 20
-2427.0765378336187
 30
0.0
 41
0.9999911657909091
 10
-2060.4378628449563
 20
-2426.5320343022831
 30
0.0
 41
1.0
 10
-2060.4081669014568
 20
-2426.434470362236
 30
0.0
 41
1.0
 10
-2060.3784709579577
 20
-2426.3369064221888
 30
0.0
 41
1.0
 10
-2060.2721300332782
 20
-2425.9875307709262
 30
0.0
 41
0.999995242813586
 10
-2060.1679464439512
 20
-2425.6375057465693
 30
0.0
 41
1.0
 10
-2060.1628869736223
 20
-2425.6205074723075
 30
0.0
 41
1.0
 10
-2060.1578275032939
 20
-2425.6035091980452
 30
0.0
 41
1.0
 10
-2060.0637628546283
 20
-2425.2874807222279
 30
0.0
 41
0.9999931687502396
 10
-2059.9720370167524
 20
-2424.9707655089496
 30
0.0
 41
1.0
 10
-2059.9671017522969
 20
-2424.9537247996918
 30
0.0
 41
1.0
 10
-2059.9621664878409
 20
-2424.936684090434
 30
0.0
 41
1.0
 10
-2059.8803111788829
 20
-2424.6540502956923
 30
0.0
 41
0.9999893840773995
 10
-2059.8010639524218
 20
-2424.3706741664328
 30
0.0
 41
1.0
 10
-2059.7218167259616
 20
-2424.0872980371751
 30
0.0
 41
0.999983398008891
 10
-2059.6458404852197
 20
-2423.8030274541434
 30
0.0
 41
1.0
 10
-2059.6368365484986
 20
-2423.7693385756693
 30
0.0
 41
1.0
 10
-2059.6278326117772
 20
-2423.7356496971952
 30
0.0
 41
1.0
 10
-2059.5588680629112
 20
-2423.4776138649004
 30
0.0
 41
0.9999233658069771
 10
-2059.4963130916913
 20
-2423.2179497061798
 30
0.0
 41
1.0
 10
-2059.4337581204713
 20
-2422.9582855474573
 30
0.0
 41
1.0
 10
-2059.3942747016135
 20
-2422.7944788830309
 30
0.0
 41
1.0
 10
-2059.3892960976391
 20
-2422.7738239211722
 30
0.0
 41
1.0
 10
-2059.3843174936646
 20
-2422.7531689593138
 30
0.0
 41
1.0
 10
-2059.3547912827585
 20
-2422.6306722186146
 30
0.0
 41
0.9999868670877212
 10
-2059.3265221987599
 20
-2422.5078792729591
 30
0.0
 41
1.0
 10
-2059.322624711604
 20
-2422.4909496855503
 30
0.0
 41
1.0
 10
-2059.3187272244481
 20
-2422.4740200981414
 30
0.0
 41
1.0
 10
-2059.2982531147663
 20
-2422.3850863273246
 30
0.0
 41
0.9999778173358217
 10
-2059.278965516648
 20
-2422.2958877100832
 30
0.0
 41
1.0
 10
-2059.2596779185346
 20
-2422.2066890928618
 30
0.0
 41
0.9999602692866126
 10
-2059.2419835599048
 20
-2422.1171608044392
 30
0.0
 41
1.0
 10
-2059.2387797278261
 20
-2422.100950349547
 30
0.0
 41
1.0
 10
-2059.2355758957469
 20
-2422.0847398946553
 30
0.0
 41
1.0
 10
-2059.2114738729611
 20
-2421.9627906964583
 30
0.0
 41
0.9995617985321001
 10
-2059.194630525742
 20
-2421.8396289487528
 30
0.0
 41
1.0
 10
-2059.1921660358357
 20
-2421.8216081313858
 30
0.0
 41
1.0
 10
-2059.1897015459294
 20
-2421.8035873140193
 30
0.0
 41
1.0
 10
-2059.1694182848814
 20
-2421.6552722643191
 30
0.0
 41
0.9991121410639831
 10
-2059.1616929312931
 20
-2421.505776165513
 30
0.0
 41
1.0
 10
-2059.1607741412686
 20
-2421.4879963289359
 30
0.0
 41
1.0
 10
-2059.159855351244
 20
-2421.4702164923592
 30
0.0
 41
1.0
 10
-2059.1539675777049
 20
-2421.3562800667059
 30
0.0
 41
0.9989792494905526
 10
-2059.158386669822
 20
-2421.2422772308082
 30
0.0
 41
1.0
 10
-2059.1590346416906
 20
-2421.2255609848798
 30
0.0
 41
1.0
 10
-2059.1596826135597
 20
-2421.208844738951
 30
0.0
 41
1.0
 10
-2059.1628057619396
 20
-2421.1282743949082
 30
0.0
 41
0.9997820295393766
 10
-2059.1692897593152
 20
-2421.0479046731662
 30
0.0
 41
1.0
 10
-2059.1757737566913
 20
-2420.9675349514182
 30
0.0
 41
0.9998335105972868
 10
-2059.1851859522039
 20
-2420.8874553349642
 30
0.0
 41
1.0
 10
-2059.1867808768798
 20
-2420.8738856044847
 30
0.0
 41
1.0
 10
-2059.1883758015556
 20
-2420.8603158740057
 30
0.0
 41
1.0
 10
-2059.2009778464198
 20
-2420.7530967965886
 30
0.0
 41
0.9996876457879046
 10
-2059.2189217592186
 20
-2420.6466413688718
 30
0.0
 41
1.0
 10
-2059.2211534223629
 20
-2420.6334016336359
 30
0.0
 41
1.0
 10
-2059.2233850855073
 20
-2420.6201618984001
 30
0.0
 41
1.0
 10
-2059.2371809069286
 20
-2420.5383157544366
 30
0.0
 41
0.9995547496494999
 10
-2059.2558342288221
 20
-2420.4574382572405
 30
0.0
 41
1.0
 10
-2059.2562081856922
 20
-2420.4558168465401
 30
0.0
 41
1.0
 10
-2059.2565821425624
 20
-2420.4541954358397
 30
0.0
 41
1.0
 10
-2059.2744875507137
 20
-2420.3765607600544
 30
0.0
 41
0.9994899427176466
 10
-2059.2973124593946
 20
-2420.3002274772148
 30
0.0
 41
1.0
 10
-2059.2977709861343
 20
-2420.2986940274286
 30
0.0
 41
1.0
 10
-2059.2982295128745
 20
-2420.2971605776429
 30
0.0
 41
1.0
 10
-2059.3201373680727
 20
-2420.2238941943833
 30
0.0
 41
0.9993784877590832
 10
-2059.3471530031802
 20
-2420.1523534892212
 30
0.0
 41
1.0
 10
-2059.3476846941576
 20
-2420.1509455064988
 30
0.0
 41
1.0
 10
-2059.3482163851354
 20
-2420.1495375237769
 30
0.0
 41
1.0
 10
-2059.3741686382878
 20
-2420.0808127840601
 30
0.0
 41
0.9992430832254269
 10
-2059.4053851734461
 20
-2420.0143136319939
 30
0.0
 41
1.0
 10
-2059.4059672895028
 20
-2420.0130735768757
 30
0.0
 41
1.0
 10
-2059.4065494055599
 20
-2420.0118335217576
 30
0.0
 41
1.0
 10
-2059.4366017086058
 20
-2419.947814479925
 30
0.0
 41
0.9990789632798854
 10
-2059.4720323353822
 20
-2419.8866078681763
 30
0.0
 41
1.0
 10
-2059.4726280415643
 20
-2419.8855787823168
 30
0.0
 41
1.0
 10
-2059.4732237477465
 20
-2419.8845496964573
 30
0.0
 41
1.0
 10
-2059.5074629621595
 20
-2419.8254012564262
 30
0.0
 41
0.9988874801120922
 10
-2059.5471222381912
 20
-2419.7697415440089
 30
0.0
 41
1.0
 10
-2059.5476777642548
 20
-2419.768961892335
 30
0.0
 41
1.0
 10
-2059.5482332903184
 20
-2419.7681822406612
 30
0.0
 41
1.0
 10
-2059.5867815142224
 20
-2419.7140818315916
 30
0.0
 41
0.9986762060693584
 10
-2059.6306839854988
 20
-2419.6642281171517
 30
0.0
 41
1.0
 10
-2059.6311279458332
 20
-2419.6637239753327
 30
0.0
 41
1.0
 10
-2059.6315719061672
 20
-2419.6632198335137
 30
0.0
 41
1.0
 10
-2059.674586456777
 20
-2419.6143744027104
 30
0.0
 41
0.9984621642488379
 10
-2059.722744013553
 20
-2419.5705911022415
 30
0.0
 41
1.0
 10
-2059.722990648072
 20
-2419.5703668700758
 30
0.0
 41
1.0
 10
-2059.7232372825911
 20
-2419.5701426379101
 30
0.0
 41
1.0
 10
-2059.7709015703331
 20
-2419.5268078017684
 30
0.0
 41
0.9982724693850922
 10
-2059.8233202021725
 20
-2419.4893634512528
 30
0.0
 41
1.0
 10
-2059.8757388340132
 20
-2419.4519191007353
 30
0.0
 41
0.998139918015733
 10
-2059.9323248974065
 20
-2419.4211325812917
 30
0.0
 41
1.0
 10
-2059.9323705594852
 20
-2419.4211077381342
 30
0.0
 41
1.0
 10
-2059.9324162215639
 20
-2419.4210828949772
 30
0.0
 41
1.0
 10
-2059.9890936091128
 20
-2419.3902466892205
 30
0.0
 41
0.9980927086837997
 10
-2060.049138960178
 20
-2419.3666298803682
 30
0.0
 41
1.0
 10
-2060.0495791298908
 20
-2419.3664567544929
 30
0.0
 41
1.0
 10
-2060.0500192996042
 20
-2419.3662836286171
 30
0.0
 41
1.0
 10
-2060.1109449900928
 20
-2419.3423205680151
 30
0.0
 41
0.9981411356562284
 10
-2060.1743335114902
 20
-2419.3259479265098
 30
0.0
 41
1.0
 10
-2060.1752156281927
 20
-2419.3257200843036
 30
0.0
 41
1.0
 10
-2060.1760977448957
 20
-2419.3254922420979
 30
0.0
 41
1.0
 10
-2060.2412504996973
 20
-2419.3086639161811
 30
0.0
 41
0.9983031812934954
 10
-2060.3079179286915
 20
-2419.2995245550051
 30
0.0
 41
1.0
 10
-2060.3167889540978
 20
-2419.2983084363332
 30
0.0
 41
1.0
 10
-2060.3256599795041
 20
-2419.2970923176617
 30
0.0
 41
1.0
 10
-2060.3800096220066
 20
-2419.2896415876708
 30
0.0
 41
0.9983887708262381
 10
-2060.4348534712981
 20
-2419.288396914038
 30
0.0
 41
1.0
 10
-2060.44291687651
 20
-2419.2882139161634
 30
0.0
 41
1.0
 10
-2060.450980281722
 20
-2419.2880309182888
 30
0.0
 41
1.0
 10
-2060.4896973205859
 20
-2419.2871522404048
 30
0.0
 41
0.9998869563080965
 10
-2060.5284232737936
 20
-2419.2874381097645
 30
0.0
 41
1.0
 10
-2060.567149226963
 20
-2419.2877239791237
 30
0.0
 41
0.9999972320124757
 10
-2060.6058734061398
 20
-2419.2881920786526
 30
0.0
 41
1.0
 10
-2060.6252264227533
 20
-2419.288426018742
 30
0.0
 41
1.0
 10
-2060.6445794393667
 20
-2419.2886599588319
 30
0.0
 41
1.0
 10
-2060.7220096517312
 20
-2419.2895959385396
 30
0.0
 41
0.9997304945087095
 10
-2060.7993129579627
 20
-2419.2941250323247
 30
0.0
 41
1.0
 10
-2060.8083625996733
 20
-2419.294655238315
 30
0.0
 41
1.0
 10
-2060.8174122413839
 20
-2419.2951854443054
 30
0.0
 41
1.0
 10
-2060.9128148310297
 20
-2419.3007749500716
 30
0.0
 41
0.9997888306415387
 10
-2061.0079071668715
 20
-2419.3102799145604
 30
0.0
 41
1.0
 10
-2061.0166282284445
 20
-2419.3111516291929
 30
0.0
 41
1.0
 10
-2061.0253492900179
 20
-2419.3120233438249
 30
0.0
 41
1.0
 10
-2061.137883749007
 20
-2419.3232717375786
 30
0.0
 41
0.9984170238192063
 10
-2061.2484428963589
 20
-2419.3470878195144
 30
0.0
 41
1.0
 10
-2061.2848240273433
 20
-2419.35492485532
 30
0.0
 41
1.0
 10
-2061.3212051583282
 20
-2419.362761891126
 30
0.0
 41
1.0
 10
-2061.4363962267507
 20
-2419.3875757576361
 30
0.0
 41
0.9976592854200856
 10
-2061.547124393157
 20
-2419.427874434783
 30
0.0
 41
1.0
 10
-2061.6578525595601
 20
-2419.4681731119299
 30
0.0
 41
0.9993255074353205
 10
-2061.7653243583491
 20
-2419.516490010421
 30
0.0
 41
1.0
 10
-2061.769949537274
 20
-2419.5185693866215
 30
0.0
 41
1.0
 10
-2061.7745747161989
 20
-2419.520648762822
 30
0.0
 41
1.0
 10
-2061.8912968728364
 20
-2419.5731244137141
 30
0.0
 41
0.997647507827562
 10
-2061.9997442171471
 20
-2419.6410724033726
 30
0.0
 41
1.0
 10
-2062.0180866112833
 20
-2419.652564882188
 30
0.0
 41
1.0
 10
-2062.0364290054194
 20
-2419.6640573610034
 30
0.0
 41
1.0
 10
-2062.1206311969695
 20
-2419.7168144817706
 30
0.0
 41
0.9995131336407058
 10
-2062.201378911926
 20
-2419.7747206937229
 30
0.0
 41
1.0
 10
-2062.2821266268843
 20
-2419.832626905677
 30
0.0
 41
0.999581010760569
 10
-2062.359388274615
 20
-2419.8951085881445
 30
0.0
 41
1.0
 10
-2062.3623583058234
 20
-2419.8975104596079
 30
0.0
 41
1.0
 10
-2062.3653283370322
 20
-2419.8999123310714
 30
0.0
 41
1.0
 10
-2062.4485300471815
 20
-2419.9671977564662
 30
0.0
 41
0.9996617837953784
 10
-2062.5281207343173
 20
-2420.0387182120267
 30
0.0
 41
1.0
 10
-2062.5402514851939
 20
-2420.0496189450168
 30
0.0
 41
1.0
 10
-2062.5523822360701
 20
-2420.060519678007
 30
0.0
 41
1.0
 10
-2062.620657763468
 20
-2420.1218722934809
 30
0.0
 41
0.9997267750052635
 10
-2062.6859912717518
 20
-2420.186348830006
 30
0.0
 41
1.0
 10
-2062.7513247800357
 20
-2420.2508253665314
 30
0.0
 41
0.9999667288960789
 10
-2062.8155977231831
 20
-2420.3163591734269
 30
0.0
 41
1.0
 10
-2062.8844251709579
 20
-2420.3865368321849
 30
0.0
 41
1.0
 10
-2062.9532526187322
 20
-2420.4567144909424
 30
0.0
 41
1.0
 10
-2063.1551804574287
 20
-2420.6626036153525
 30
0.0
 41
0.9988205335175115
 10
-2063.3361860744089
 20
-2420.8871078474135
 30
0.0
 41
1.0
 10
-2063.3668260393133
 20
-2420.9251110978435
 30
0.0
 41
1.0
 10
-2063.3974660042181
 20
-2420.9631143482734
 30
0.0
 41
1.0
 10
-2063.6397515510071
 20
-2421.2636250811938
 30
0.0
 41
0.9997077826754782
 10
-2063.867229502112
 20
-2421.5754948754097
 30
0.0
 41
1.0
 10
-2063.8689529172425
 20
-2421.5778576587895
 30
0.0
 41
1.0
 10
-2063.8706763323735
 20
-2421.5802204421693
 30
0.0
 41
1.0
 10
-2064.1016011137394
 20
-2421.8968158031448
 30
0.0
 41
0.998914756707877
 10
-2064.3020646166228
 20
-2422.2335252643302
 30
0.0
 41
1.0
 10
-2064.326805761928
 20
-2422.2750818448794
 30
0.0
 41
1.0
 10
-2064.3515469072327
 20
-2422.3166384254282
 30
0.0
 41
1.0
 10
-2064.5067582058723
 20
-2422.577339809885
 30
0.0
 41
0.9997476598182419
 10
-2064.6501031933835
 20
-2422.8447495584701
 30
0.0
 41
1.0
 10
-2064.7934481808925
 20
-2423.1121593070516
 30
0.0
 41
0.9996258967109717
 10
-2064.9219564328237
 20
-2423.3870072436744
 30
0.0
 41
1.0
 10
-2064.9351563422729
 20
-2423.415238643769
 30
0.0
 41
1.0
 10
-2064.9483562517221
 20
-2423.4434700438633
 30
0.0
 41
1.0
 10
-2065.0885649727234
 20
-2423.7433424418182
 30
0.0
 41
0.9998735413943843
 10
-2065.2191663194449
 20
-2424.0475220412886
 30
0.0
 41
1.0
 10
-2065.2226091475086
 20
-2424.0555406267613
 30
0.0
 41
1.0
 10
-2065.2260519755728
 20
-2424.0635592122344
 30
0.0
 41
1.0
 10
-2065.3497676661682
 20
-2424.3517016407632
 30
0.0
 41
0.9999377418863564
 10
-2065.46702246834
 20
-2424.6425331084315
 30
0.0
 41
1.0
 10
-2065.5842772705173
 20
-2424.9333645761126
 30
0.0
 41
0.9999508299511652
 10
-2065.695741213895
 20
-2425.2264642529344
 30
0.0
 41
1.0
 10
-2065.6988219825562
 20
-2425.2345652788954
 30
0.0
 41
1.0
 10
-2065.7019027512179
 20
-2425.2426663048564
 30
0.0
 41
1.0
 10
-2065.8195282319193
 20
-2425.5519680336042
 30
0.0
 41
0.9999609228432335
 10
-2065.9316668347942
 20
-2425.8633010496219
 30
0.0
 41
1.0
 10
-2065.9346228451436
 20
-2425.8715078900314
 30
0.0
 41
1.0
 10
-2065.937578855493
 20
-2425.8797147304404
 30
0.0
 41
1.0
 10
-2066.0556294790631
 20
-2426.207461427266
 30
0.0
 41
0.9999674607405907
 10
-2066.1683770051295
 20
-2426.5370700472554
 30
0.0
 41
1.0
 10
-2066.2197753956943
 20
-2426.6873292429545
 30
0.0
 41
1.0
 10
-2066.2711737862596
 20
-2426.8375884386537
 30
0.0
 41
1.0
 10
-2066.3871843930174
 20
-2427.1767364211569
 30
0.0
 41
0.9999287532308956
 10
-2066.495065796988
 20
-2427.5185571601323
 30
0.0
 41
1.0
 10
-2066.5415430531448
 20
-2427.6658197045581
 30
0.0
 41
1.0
 10
-2066.5880203093011
 20
-2427.8130822489843
 30
0.0
 41
1.0
 10
-2066.6029472009768
 20
-2427.8603778991665
 30
0.0
 41
0.9999998223644762
 10
-2066.617817709689
 20
-2427.9076913073486
 30
0.0
 41
1.0
 10
-2068.2384738464843
 20
-2433.0557198091383
 30
0.0
 41
1.0
 10
-2069.8591299832801
 20
-2438.2037483109279
 30
0.0
 41
1.0
 10
-2070.7644384271707
 20
-2438.2037483109279
 30
0.0
 41
1.0
 10
-2071.6697468710618
 20
-2438.2037483109279
 30
0.0
 41
1.0
 10
-2069.8176624596758
 20
-2432.3166763884601
 30
0.0
 41
1.0
 10
-2067.9655780482899
 20
-2426.4296044659927
 30
0.0
 41
1.0
 10
-2067.9554562899871
 20
-2426.3975612525428
 30
0.0
 41
1.0
 10
-2067.8828486211373
 20
-2426.167261710717
 30
0.0
 41
1.0
 10
-2067.8102409522853
 20
-2425.9369621688838
 30
0.0
 41
0.9999825681975104
 10
-2067.7403579130714
 20
-2425.7058212738111
 30
0.0
 41
1.0
 10
-2067.6920668509092
 20
-2425.5460966903106
 30
0.0
 41
1.0
 10
-2067.643775788747
 20
-2425.3863721068101
 30
0.0
 41
1.0
 10
-2067.5466234354349
 20
-2425.0650368850506
 30
0.0
 41
0.999967252896575
 10
-2067.4546846298153
 20
-2424.742171339476
 30
0.0
 41
1.0
 10
-2067.4518957461464
 20
-2424.7323774940887
 30
0.0
 41
1.0
 10
-2067.4491068624775
 20
-2424.7225836487014
 30
0.0
 41
1.0
 10
-2067.3627458241917
 20
-2424.4193057938887
 30
0.0
 41
0.9999899749138338
 10
-2067.2791042146573
 20
-2424.1152667054375
 30
0.0
 41
1.0
 10
-2067.2689982956404
 20
-2424.0785314677614
 30
0.0
 41
1.0
 10
-2067.2588923766234
 20
-2424.0417962300853
 30
0.0
 41
1.0
 10
-2067.1954626051238
 20
-2423.8112276169891
 30
0.0
 41
0.9999214200502355
 10
-2067.1378331767446
 20
-2423.5791412747758
 30
0.0
 41
1.0
 10
-2067.1250673245631
 20
-2423.5277303893772
 30
0.0
 41
1.0
 10
-2067.1123014723821
 20
-2423.4763195039786
 30
0.0
 41
1.0
 10
-2067.0802037483668
 20
-2423.3470549325657
 30
0.0
 41
0.9999828681660373
 10
-2067.0496214963719
 20
-2423.2174234580989
 30
0.0
 41
1.0
 10
-2067.0190392443778
 20
-2423.087791983638
 30
0.0
 41
0.9999389844478354
 10
-2066.9913282555899
 20
-2422.9575165277433
 30
0.0
 41
1.0
 10
-2066.9841905118683
 20
-2422.9239604239001
 30
0.0
 41
1.0
 10
-2066.9770527681467
 20
-2422.8904043200564
 30
0.0
 41
1.0
 10
-2066.9350662919151
 20
-2422.6930166564744
 30
0.0
 41
0.9998933699439255
 10
-2066.8988620275118
 20
-2422.4944870487084
 30
0.0
 41
1.0
 10
-2066.897489202297
 20
-2422.4869590280196
 30
0.0
 41
1.0
 10
-2066.8961163770819
 20
-2422.4794310073303
 30
0.0
 41
1.0
 10
-2066.8571664622468
 20
-2422.2658453581785
 30
0.0
 41
0.9996850305193703
 10
-2066.8289827859885
 20
-2422.0505743527424
 30
0.0
 41
1.0
 10
-2066.82698775262
 20
-2422.0353359986257
 30
0.0
 41
1.0
 10
-2066.8249927192514
 20
-2422.020097644509
 30
0.0
 41
1.0
 10
-2066.7975848567917
 20
-2421.8107524173488
 30
0.0
 41
0.9994697936707178
 10
-2066.7838602975712
 20
-2421.6000672220125
 30
0.0
 41
1.0
 10
-2066.7833832283218
 20
-2421.5927437498053
 30
0.0
 41
1.0
 10
-2066.7829061590724
 20
-2421.5854202775981
 30
0.0
 41
1.0
 10
-2066.7701357383521
 20
-2421.3893820266858
 30
0.0
 41
0.9991804893137047
 10
-2066.7732640546246
 20
-2421.1929531767082
 30
0.0
 41
1.0
 10
-2066.7733479334465
 20
-2421.1876863752968
 30
0.0
 41
1.0
 10
-2066.7734318122689
 20
-2421.1824195738855
 30
0.0
 41
1.0
 10
-2066.7763923708972
 20
-2420.9965243267357
 30
0.0
 41
0.9988448329321047
 10
-2066.7971839165211
 20
-2420.8117717369014
 30
0.0
 41
1.0
 10
-2066.7987779902242
 20
-2420.7976068811304
 30
0.0
 41
1.0
 10
-2066.8003720639272
 20
-2420.7834420253598
 30
0.0
 41
1.0
 10
-2066.8179754621447
 20
-2420.627019147068
 30
0.0
 41
0.9985503209457719
 10
-2066.8522917344444
 20
-2420.473394962979
 30
0.0
 41
1.0
 10
-2066.8598777265152
 20
-2420.4394346355803
 30
0.0
 41
1.0
 10
-2066.8674637185859
 20
-2420.405474308182
 30
0.0
 41
1.0
 10
-2066.8866080067432
 20
-2420.3197707788909
 30
0.0
 41
0.9991036781370372
 10
-2066.9129328683948
 20
-2420.2359936915645
 30
0.0
 41
1.0
 10
-2066.916915093851
 20
-2420.2233205290531
 30
0.0
 41
1.0
 10
-2066.9208973193072
 20
-2420.2106473665422
 30
0.0
 41
1.0
 10
-2066.9392577300459
 20
-2420.1522166042391
 30
0.0
 41
0.9998874504367424
 10
-2066.9593629377246
 20
-2420.0943630020165
 30
0.0
 41
1.0
 10
-2066.9794681454014
 20
-2420.0365093997975
 30
0.0
 41
0.9994041637544976
 10
-2067.0035167583342
 20
-2419.9801806959108
 30
0.0
 41
1.0
 10
-2067.0077135425581
 20
-2419.970350631429
 30
0.0
 41
1.0
 10
-2067.0119103267825
 20
-2419.9605205669468
 30
0.0
 41
1.0
 10
-2067.0397891577782
 20
-2419.8952204009756
 30
0.0
 41
0.9991846840701918
 10
-2067.0728455144731
 20
-2419.8323823696919
 30
0.0
 41
1.0
 10
-2067.0739821208699
 20
-2419.8302217532332
 30
0.0
 41
1.0
 10
-2067.0751187272672
 20
-2419.8280611367745
 30
0.0
 41
1.0
 10
-2067.105901871168
 20
-2419.7695443384082
 30
0.0
 41
0.9989253167923187
 10
-2067.1419712952211
 20
-2419.7141294100215
 30
0.0
 41
1.0
 10
-2067.143025419894
 20
-2419.7125099152618
 30
0.0
 41
1.0
 10
-2067.1440795445665
 20
-2419.7108904205015
 30
0.0
 41
1.0
 10
-2067.1780407192741
 20
-2419.6587144816335
 30
0.0
 41
0.9986467172837326
 10
-2067.2172378719133
 20
-2419.6103484480018
 30
0.0
 41
1.0
 10
-2067.2181120006135
 20
-2419.6092698457242
 30
0.0
 41
1.0
 10
-2067.2189861293136
 20
-2419.6081912434465
 30
0.0
 41
1.0
 10
-2067.2564350245502
 20
-2419.5619824143732
 30
0.0
 41
0.9984001104267328
 10
-2067.2988617550682
 20
-2419.5202973070036
 30
0.0
 41
1.0
 10
-2067.2994488931809
 20
-2419.5197204321189
 30
0.0
 41
1.0
 10
-2067.300036031294
 20
-2419.5191435572342
 30
0.0
 41
1.0
 10
-2067.3412884855888
 20
-2419.4786121996308
 30
0.0
 41
0.9982442159078825
 10
-2067.3870445869206
 20
-2419.443243638374
 30
0.0
 41
1.0
 10
-2067.3872593823826
 20
-2419.4430776057307
 30
0.0
 41
1.0
 10
-2067.3874741778441
 20
-2419.4429115730877
 30
0.0
 41
1.0
 10
-2067.4328006882561
 20
-2419.4078750771141
 30
0.0
 41
0.998245006083631
 10
-2067.4819516673278
 20
-2419.3784432940806
 30
0.0
 41
1.0
 10
-2067.5311026464001
 20
-2419.3490115110471
 30
0.0
 41
0.9983922639636285
 10
-2067.5832689525646
 20
-2419.3253318763927
 30
0.0
 41
1.0
 10
-2067.5834958298892
 20
-2419.3252288909116
 30
0.0
 41
1.0
 10
-2067.5837227072134
 20
-2419.32512590543
 30
0.0
 41
1.0
 10
-2067.6363427680262
 20
-2419.3012402998133
 30
0.0
 41
0.9986517147147944
 10
-2067.6911557408944
 20
-2419.2829391806918
 30
0.0
 41
1.0
 10
-2067.691833662323
 20
-2419.2827128342601
 30
0.0
 41
1.0
 10
-2067.6925115837512
 20
-2419.2824864878285
 30
0.0
 41
1.0
 10
-2067.7486803994757
 20
-2419.2637326758436
 30
0.0
 41
0.9989435598956543
 10
-2067.8063337866279
 20
-2419.2502149736092
 30
0.0
 41
1.0
 10
-2067.8074139062087
 20
-2419.2499617233561
 30
0.0
 41
1.0
 10
-2067.8084940257895
 20
-2419.2497084731035
 30
0.0
 41
1.0
 10
-2067.8683076521052
 20
-2419.235684270363
 30
0.0
 41
0.9992249241240618
 10
-2067.9290391610034
 20
-2419.2264089276473
 30
0.0
 41
1.0
 10
-2067.9304528492939
 20
-2419.2261930192399
 30
0.0
 41
1.0
 10
-2067.931866537584
 20
-2419.225977110832
 30
0.0
 41
1.0
 10
-2067.9954254230611
 20
-2419.2162699513015
 30
0.0
 41
0.9994396597833238
 10
-2068.0594913595964
 20
-2419.2108370289557
 30
0.0
 41
1.0
 10
-2068.0786320270763
 20
-2419.209213861237
 30
0.0
 41
1.0
 10
-2068.0977726945557
 20
-2419.2075906935179
 30
0.0
 41
1.0
 10
-2068.2001199660467
 20
-2419.1989114357348
 30
0.0
 41
0.9987693403121228
 10
-2068.3028235896322
 20
-2419.2004144991874
 30
0.0
 41
1.0
 10
-2068.3130779238595
 20
-2419.2005645709614
 30
0.0
 41
1.0
 10
-2068.3233322580868
 20
-2419.2007146427359
 30
0.0
 41
1.0
 10
-2068.432888024267
 20
-2419.2023179870234
 30
0.0
 41
0.9989753644966923
 10
-2068.5418500242849
 20
-2419.2138209939485
 30
0.0
 41
1.0
 10
-2068.650812024302
 20
-2419.225324000874
 30
0.0
 41
0.9983190067306622
 10
-2068.7577108352684
 20
-2419.2493589926612
 30
0.0
 41
1.0
 10
-2068.7666117868739
 20
-2419.2513602712233
 30
0.0
 41
1.0
 10
-2068.7755127384798
 20
-2419.253361549786
 30
0.0
 41
1.0
 10
-2068.9002134526581
 20
-2419.2813990986979
 30
0.0
 41
0.9985539388302762
 10
-2069.0211832063355
 20
-2419.3226627747431
 30
0.0
 41
1.0
 10
-2069.0235286372963
 20
-2419.3234628185592
 30
0.0
 41
1.0
 10
-2069.0258740682571
 20
-2419.3242628623752
 30
0.0
 41
1.0
 10
-2069.151534683856
 20
-2419.3671266260526
 30
0.0
 41
0.9988468746493981
 10
-2069.2725050261565
 20
-2419.4218447111152
 30
0.0
 41
1.0
 10
-2069.275687848145
 20
-2419.4232843856753
 30
0.0
 41
1.0
 10
-2069.2788706701331
 20
-2419.4247240602349
 30
0.0
 41
1.0
 10
-2069.4062066564106
 20
-2419.4823214944167
 30
0.0
 41
0.9991322885918929
 10
-2069.5283072404668
 20
-2419.5503168265986
 30
0.0
 41
1.0
 10
-2069.5459092515102
 20
-2419.5601190285879
 30
0.0
 41
1.0
 10
-2069.5635112625532
 20
-2419.5699212305772
 30
0.0
 41
1.0
 10
-2069.6656879436114
 20
-2419.6268213463582
 30
0.0
 41
0.9993860037848941
 10
-2069.7636289476859
 20
-2419.6907373619479
 30
0.0
 41
1.0
 10
-2069.7692472605377
 20
-2419.6944038566421
 30
0.0
 41
1.0
 10
-2069.774865573389
 20
-2419.6980703513364
 30
0.0
 41
1.0
 10
-2069.8615699517582
 20
-2419.7546533775358
 30
0.0
 41
0.9998821494953933
 10
-2069.9464963275723
 20
-2419.8138716076132
 30
0.0
 41
1.0
 10
-2070.0314227033869
 20
-2419.8730898376912
 30
0.0
 41
0.9997976482744276
 10
-2070.1138983337923
 20
-2419.9356762457346
 30
0.0
 41
1.0
 10
-2070.1285345985953
 20
-2419.9467829355131
 30
0.0
 41
1.0
 10
-2070.1431708633986
 20
-2419.9578896252915
 30
0.0
 41
1.0
 10
-2070.2549190234149
 20
-2420.042689412895
 30
0.0
 41
0.9998091630800972
 10
-2070.3632693014451
 20
-2420.1317897635981
 30
0.0
 41
1.0
 10
-2070.3762750539199
 20
-2420.1424848640422
 30
0.0
 41
1.0
 10
-2070.3892808063947
 20
-2420.1531799644863
 30
0.0
 41
1.0
 10
-2070.5236425893768
 20
-2420.2636705160794
 30
0.0
 41
0.9995035112316837
 10
-2070.6507784671398
 20
-2420.3824043330942
 30
0.0
 41
1.0
 10
-2070.6604257775271
 20
-2420.3914140792522
 30
0.0
 41
1.0
 10
-2070.6700730879147
 20
-2420.4004238254106
 30
0.0
 41
1.0
 10
-2070.7934961506799
 20
-2420.5156901971659
 30
0.0
 41
0.9994630424299094
 10
-2070.9091045564637
 20
-2420.6387929404013
 30
0.0
 41
1.0
 10
-2070.9127873952361
 20
-2420.6427145199154
 30
0.0
 41
1.0
 10
-2070.9164702340086
 20
-2420.6466360994295
 30
0.0
 41
1.0
 10
-2071.0247129622489
 20
-2420.7618956836377
 30
0.0
 41
0.9995160693749307
 10
-2071.1255789917795
 20
-2420.8836631015092
 30
0.0
 41
1.0
 10
-2071.1275127118579
 20
-2420.8859975257146
 30
0.0
 41
1.0
 10
-2071.1294464319362
 20
-2420.8883319499196
 30
0.0
 41
1.0
 10
-2071.2264450213102
 20
-2421.0054305193798
 30
0.0
 41
0.9996561470514246
 10
-2071.3171712399781
 20
-2421.1274532818306
 30
0.0
 41
1.0
 10
-2071.3233289058771
 20
-2421.1357350708686
 30
0.0
 41
1.0
 10
-2071.3294865717758
 20
-2421.1440168599065
 30
0.0
 41
1.0
 10
-2071.4078974586409
 20
-2421.249476044276
 30
0.0
 41
0.9998349055174403
 10
-2071.4824247405759
 20
-2421.3577146279431
 30
0.0
 41
1.0
 10
-2071.556952022504
 20
-2421.4659532116011
 30
0.0
 41
0.9999728109560364
 10
-2071.6298749184093
 20
-2421.5752791371478
 30
0.0
 41
1.0
 10
-2071.6311901338258
 20
-2421.5772509066574
 30
0.0
 41
1.0
 10
-2071.6325053492419
 20
-2421.5792226761669
 30
0.0
 41
1.0
 10
-2071.7080586759675
 20
-2421.6924921407158
 30
0.0
 41
0.9999972147436637
 10
-2071.7830764863347
 20
-2421.8061169835405
 30
0.0
 41
1.0
 10
-2071.7880480289646
 20
-2421.8136470720242
 30
0.0
 41
1.0
 10
-2071.7930195715944
 20
-2421.8211771605079
 30
0.0
 41
1.0
 10
-2071.8779804672131
 20
-2421.9498621802886
 30
0.0
 41
0.9999371979006796
 10
-2071.9600358166163
 20
-2422.0804190940644
 30
0.0
 41
1.0
 10
-2071.9635447009787
 20
-2422.0860020221307
 30
0.0
 41
1.0
 10
-2071.9670535853411
 20
-2422.0915849501966
 30
0.0
 41
1.0
 10
-2072.05612670347
 20
-2422.233307720106
 30
0.0
 41
0.9998272025610162
 10
-2072.1398700943528
 20
-2422.3782435968496
 30
0.0
 41
1.0
 10
-2072.1550852663763
 20
-2422.4045767113053
 30
0.0
 41
1.0
 10
-2072.1703004383999
 20
-2422.4309098257609
 30
0.0
 41
1.0
 10
-2072.2844741733302
 20
-2422.6285119314171
 30
0.0
 41
0.9995217214838311
 10
-2072.3862138628856
 20
-2422.8327942592791
 30
0.0
 41
1.0
 10
-2072.3938574255185
 20
-2422.8481417089779
 30
0.0
 41
1.0
 10
-2072.4015009881514
 20
-2422.8634891586762
 30
0.0
 41
1.0
 10
-2072.4884062807432
 20
-2423.0379856167615
 30
0.0
 41
0.9998269762607799
 10
-2072.5687607470172
 20
-2423.2155939034892
 30
0.0
 41
1.0
 10
-2072.6491152132858
 20
-2423.3932021902046
 30
0.0
 41
0.9998944747389233
 10
-2072.7242760078475
 20
-2423.5730699158257
 30
0.0
 41
1.0
 10
-2072.7292296774413
 20
-2423.5849245707491
 30
0.0
 41
1.0
 10
-2072.7341833470346
 20
-2423.5967792256724
 30
0.0
 41
1.0
 10
-2072.8148304075885
 20
-2423.7897761656932
 30
0.0
 41
0.9999506734410363
 10
-2072.8916279364935
 20
-2423.9843369705522
 30
0.0
 41
1.0
 10
-2072.9062279017649
 20
-2424.0213248923592
 30
0.0
 41
1.0
 10
-2072.9208278670362
 20
-2424.0583128141666
 30
0.0
 41
1.0
 10
-2072.9684254654003
 20
-2424.1788977754168
 30
0.0
 41
0.9999912393900219
 10
-2073.0150119094196
 20
-2424.2998769781043
 30
0.0
 41
1.0
 10
-2073.0615983534422
 20
-2424.4208561808018
 30
0.0
 41
0.9999927113934549
 10
-2073.1072596478361
 20
-2424.542187588303
 30
0.0
 41
1.0
 10
-2073.1212280792338
 20
-2424.5793045703012
 30
0.0
 41
1.0
 10
-2073.1351965106314
 20
-2424.6164215522999
 30
0.0
 41
1.0
 10
-2073.2087946678216
 20
-2424.8119869238003
 30
0.0
 41
0.9999487550949654
 10
-2073.2784182927926
 20
-2425.0090022889822
 30
0.0
 41
1.0
 10
-2073.3020119027342
 20
-2425.0757655992884
 30
0.0
 41
1.0
 10
-2073.3256055126758
 20
-2425.1425289095941
 30
0.0
 41
1.0
 10
-2073.4202911470411
 20
-2425.410462744403
 30
0.0
 41
0.9999808436948968
 10
-2073.5116527356786
 20
-2425.6795481756571
 30
0.0
 41
1.0
 10
-2073.6030143243206
 20
-2425.9486336069235
 30
0.0
 41
0.9999873932923943
 10
-2073.691669033039
 20
-2426.2186229619388
 30
0.0
 41
1.0
 10
-2073.7117613899081
 20
-2426.2798122946897
 30
0.0
 41
1.0
 10
-2073.7318537467768
 20
-2426.3410016274406
 30
0.0
 41
1.0
 10
-2073.8606931692339
 20
-2426.7333696479604
 30
0.0
 41
0.9999794883025129
 10
-2073.9844959541938
 20
-2427.1273558542443
 30
0.0
 41
1.0
 10
-2073.9956482136326
 20
-2427.1628464644859
 30
0.0
 41
1.0
 10
-2074.0068004730715
 20
-2427.1983370747275
 30
0.0
 41
1.0
 10
-2074.1493586369652
 20
-2427.6520098268006
 30
0.0
 41
0.9999982761809805
 10
-2074.2902310769796
 20
-2428.1062088489211
 30
0.0
 41
1.0
 10
-2075.8783714095521
 20
-2433.1549785799243
 30
0.0
 41
1.0
 10
-2077.4665117421246
 20
-2438.2037483109279
 30
0.0
 41
1.0
 10
-2078.4152623536011
 20
-2438.2037483109279
 30
0.0
 41
1.0
 10
-2079.3640129650776
 20
-2438.2037483109279
 30
0.0
 41
1.0
 10
-2076.1257284789244
 20
-2427.8764261109818
 30
0.0
 41
1.0
 10
-2072.8874439927708
 20
-2417.5491039110357
 30
0.0
 41
1.0
  0
LWPOLYLINE
  5
70
100
AcDbEntity
  8
0
370
              15
390
0
  6
Continuous
 62
               7
100
AcDbPolyline
 90
      232
 70
             128
 10
-2098.5909897665979
 20
-2418.6334467425504
 42
0.000437080067386
 10
-2098.6438669406525
 20
-2418.7021133817843
 10
-2098.6831511717974
 20
-2418.7532204947038
 42
0.0030481992169479
 10
-2098.813489888907
 20
-2418.9249421870345
 10
-2098.8520015606673
 20
-2418.9763289708358
 42
0.0042058245758704
 10
-2099.055986611344
 20
-2419.2533347159192
 10
-2099.1083917338374
 20
-2419.3257675626901
 42
0.012094889874166
 10
-2099.4044356506029
 20
-2419.7565171672454
 10
-2099.5006281497222
 20
-2419.903997902466
 42
0.0141601263949563
 10
-2099.8042721966431
 20
-2420.3996672391995
 10
-2099.8438094640724
 20
-2420.4685112066372
 42
0.0071131081306189
 10
-2100.0490817873074
 20
-2420.8380140054696
 42
0.006845879100513
 10
-2100.2439613141528
 20
-2421.2131055689501
 10
-2100.2507731766082
 20
-2421.226667282669
 42
0.0064120880287188
 10
-2100.4489154266507
 20
-2421.6340917575844
 10
-2100.4564501121695
 20
-2421.6501036143095
 42
0.0058857236442977
 10
-2100.6592055040273
 20
-2422.0944797253128
 10
-2100.667380430335
 20
-2422.1129698789782
 42
0.0053189741895218
 10
-2100.876084743003
 20
-2422.5989333528973
 10
-2100.8848325486838
 20
-2422.6199152310919
 42
0.0047503650417119
 10
-2101.100806274831
 20
-2423.1521146642931
 10
-2101.1100745231824
 20
-2423.1755910404099
 42
0.0042071762173864
 10
-2101.3346219069135
 20
-2423.7586846344866
 10
-2101.3443713092593
 20
-2423.7846508093489
 42
0.0036680086486037
 10
-2101.5788259525721
 20
-2424.4232861938831
 10
-2101.589033732419
 20
-2424.4517347282253
 42
0.0032573142629447
 10
-2101.8346660183793
 20
-2425.1505873879596
 10
-2101.9033165392129
 20
-2425.3500504719918
 42
0.0026133366646297
 10
-2102.2517617379845
 20
-2426.3799137557035
 10
-2102.3150185254704
 20
-2426.5701445910513
 42
0.0020592950739801
 10
-2102.5288815944523
 20
-2427.2222482437091
 10
-2102.5319333855978
 20
-2427.2316847320644
 42
0.002560992853176
 10
-2102.7337538871011
 20
-2427.8668299544852
 10
-2102.7363452542336
 20
-2427.875132295444
 42
0.0031362356241513
 10
-2102.9258360399049
 20
-2428.4958951516051
 10
-2102.9279670828359
 20
-2428.5030364578279
 42
0.0037229918030067
 10
-2103.1047674697588
 20
-2429.1120217597904
 10
-2103.106446058966
 20
-2429.1179686499677
 42
0.0043077623708539
 10
-2103.2701868610302
 20
-2429.7177873817336
 42
0.0047654161823326
 10
-2103.4230155835512
 20
-2430.320473470656
 10
-2103.4574801923854
 20
-2430.4620352477859
 42
0.0112969368446757
 10
-2103.6533445505247
 20
-2431.3537274083919
 10
-2103.6813509396252
 20
-2431.4965554545079
 42
0.0130056762571627
 10
-2103.8821881832719
 20
-2432.6834965261528
 10
-2103.9027279334191
 20
-2432.8275746396298
 42
0.013872153214419
 10
-2104.0064309379568
 20
-2433.7344041254555
 10
-2104.0257264258648
 20
-2433.9579018473792
 42
0.007125469700045
 10
-2104.0590730717877
 20
-2434.4210888562279
 10
-2104.0640340459531
 20
-2434.5070928508308
 42
0.0028881799215403
 10
-2104.0791723392404
 20
-2434.7988345606304
 42
0.0060297297133477
 10
-2104.0891045390158
 20
-2435.0907834967388
 10
-2104.0901668206834
 20
-2435.13917586868
 42
0.0229523164150895
 10
-2104.0824357928977
 20
-2435.4619307149619
 10
-2104.0782100193765
 20
-2435.5223342489858
 42
0.0123673300668887
 10
-2104.0591313728592
 20
-2435.7234549741529
 42
0.012857767448123
 10
-2104.0299359824521
 20
-2435.9233528240816
 10
-2104.0228101090656
 20
-2435.9646816386767
 42
0.0285717853768931
 10
-2103.9583161073688
 20
-2436.2427977899933
 10
-2103.9446475837058
 20
-2436.2894525594588
 42
0.0316283099154616
 10
-2103.828837003789
 20
-2436.6084670612931
 10
-2103.8257883120345
 20
-2436.6154534336156
 42
0.0338984824238989
 10
-2103.6763566010668
 20
-2436.9030193978078
 10
-2103.6740478717024
 20
-2436.906810427075
 42
0.0350228718338627
 10
-2103.4916875810231
 20
-2437.1638624117604
 10
-2103.4908023292501
 20
-2437.1649414895219
 42
0.0347476747529601
 10
-2103.2763776420079
 20
-2437.3921265367449
 42
0.033133770190463
 10
-2103.0331343162643
 20
-2437.5882551988207
 10
-2103.0320342177456
 20
-2437.589027901995
 42
0.0305233319080462
 10
-2102.7634895221709
 20
-2437.7541560720865
 10
-2102.7602594776708
 20
-2437.7558800839488
 42
0.0273744481142693
 10
-2102.4677057660974
 20
-2437.8920182278389
 10
-2102.4626012309591
 20
-2437.8940618123088
 42
0.0240964406199474
 10
-2102.1471241553072
 20
-2438.0030455385922
 10
-2102.1405408261035
 20
-2438.0049702782653
 42
0.0209636179817948
 10
-2101.8031406734435
 20
-2438.0884384261985
 10
-2101.795508213002
 20
-2438.0899903391987
 42
0.0181388704694869
 10
-2101.4371858210006
 20
-2438.1494064324129
 10
-2101.4289049726253
 20
-2438.1504726162298
 42
0.0156086547593023
 10
-2101.0507176084334
 20
-2438.1872088028063
 10
-2101.0075223561093
 20
-2438.1900473052851
 42
0.0137148329031172
 10
-2100.6798492108105
 20
-2438.2025675605364
 10
-2100.6339130208844
 20
-2438.2030619936513
 42
0.0051057823884939
 10
-2100.3977674342923
 20
-2438.203192248061
 42
0.0052256693314978
 10
-2100.1616701504931
 20
-2438.1984434235965
 10
-2100.091443366764
 20
-2438.1962964575828
 42
0.016150717905517
 10
-2099.7157062886608
 20
-2438.1726460872555
 10
-2099.69569332829
 20
-2438.1707358919684
 42
0.0101216737831327
 10
-2099.2816661068014
 20
-2438.1227429616038
 10
-2099.2476128173726
 20
-2438.1180952647937
 42
0.0245291776395421
 10
-2098.7708231618221
 20
-2438.0290201867174
 10
-2098.6859998462919
 20
-2438.0088242663701
 42
0.0143509212565666
 10
-2098.3293687423579
 20
-2437.9130196325927
 42
0.0156557857030353
 10
-2097.9791526776362
 20
-2437.7960084167762
 10
-2097.9716514631359
 20
-2437.7932382550198
 42
0.017013733363271
 10
-2097.6150554674518
 20
-2437.6475806401477
 10
-2097.6079515450469
 20
-2437.6443928045851
 42
0.0183105364412777
 10
-2097.2486018768841
 20
-2437.4670577627621
 10
-2097.2416551122419
 20
-2437.4633073278883
 42
0.0194899958155322
 10
-2096.8831743712558
 20
-2437.2513283459962
 10
-2096.8761604919209
 20
-2437.2468030037026
 42
0.0204869852954641
 10
-2096.5221461898282
 20
-2436.9972829886174
 10
-2096.5148805812405
 20
-2436.9917029232683
 42
0.0212516938560777
 10
-2096.1688906501322
 20
-2436.7017989263736
 10
-2096.1223739560564
 20
-2436.6593316162798
 42
0.021524891825151
 10
-2095.8623477871688
 20
-2436.4005673372858
 10
-2095.8173180527897
 20
-2436.3517232159375
 42
0.0114578554961017
 10
-2095.6625258991112
 20
-2436.1759002824774
 10
-2095.6513313631312
 20
-2436.16258151894
 42
0.0061531305125854
 10
-2095.5248567171302
 20
-2436.0082919856268
 42
0.000632558711306
 10
-2095.4004782329248
 20
-2435.852288609884
 10
-2095.3774380979266
 20
-2435.8233150892916
 42
0.0041897761552136
 10
-2095.2089826939555
 20
-2435.6077957132316
 10
-2095.1505205740623
 20
-2435.5316943662447
 42
0.0092993880034162
 10
-2094.8739086468386
 20
-2435.1574156023607
 10
-2094.7915141536419
 20
-2435.0414785987955
 42
0.0159321727087569
 10
-2094.4449076709971
 20
-2434.5193043780355
 10
-2094.4005515356102
 20
-2434.4476248137894
 42
0.0085547317021245
 10
-2094.1660397702817
 20
-2434.0537498645608
 42
0.008460115689631
 10
-2093.9450635928356
 20
-2433.6521230155199
 10
-2093.9369481190097
 20
-2433.6367633332557
 42
0.0081429654281915
 10
-2093.7136988485731
 20
-2433.197041820717
 10
-2093.7048386843881
 20
-2433.1788629786956
 42
0.0076574581326575
 10
-2093.478431173819
 20
-2432.6956801034376
 10
-2093.4689515330974
 20
-2432.6746156251393
 42
0.007068272420168
 10
-2093.2385066252868
 20
-2432.1425783203495
 10
-2093.2285163413089
 20
-2432.1185891313471
 42
0.0064559514446039
 10
-2092.9931831331264
 20
-2431.5322768648243
 10
-2092.9827737749629
 20
-2431.5053419393857
 42
0.0058311413906208
 10
-2092.7417270382034
 20
-2430.8593098450115
 10
-2092.7309719608124
 20
-2430.8294255038413
 42
0.0052312425816231
 10
-2092.4833906827776
 20
-2430.1182230900249
 10
-2092.4723468463917
 20
-2430.0853963779373
 42
0.0046680544797243
 10
-2092.2174184186579
 20
-2429.303570062184
 10
-2092.175426268604
 20
-2429.1705868248596
 42
0.0041666856446573
 10
-2091.9721402562186
 20
-2428.5076180498845
 10
-2091.9344778155682
 20
-2428.3810369422763
 42
0.0015170975157092
 10
-2091.813291237142
 20
-2427.9691685907374
 42
-0.0004887993108794
 10
-2091.6929514639692
 20
-2427.557050178526
 10
-2091.6164742065239
 20
-2427.2960927927543
 42
0.0002583378929194
 10
-2091.3432596364364
 20
-2426.3620360894965
 10
-2091.2614867868861
 20
-2426.0819368300031
 42
0.0006636169670375
 10
-2091.0676190268714
 20
-2425.4145839064049
 10
-2091.0625223725101
 20
-2425.396952323475
 42
0.0010589131328701
 10
-2090.8810736716077
 20
-2424.7642209804762
 10
-2090.8760916011406
 20
-2424.7467080735028
 42
0.0015655524461527
 10
-2090.7078213939449
 20
-2424.1480913942551
 10
-2090.7029911935451
 20
-2424.1306992353748
 42
0.0021640440476773
 10
-2090.5487012215435
 20
-2423.5656722173012
 10
-2090.5440670021121
 20
-2423.5484074873025
 42
0.0028763871848239
 10
-2090.4045512840603
 20
-2423.0164395364604
 10
-2090.4001654198901
 20
-2422.9993155582938
 42
0.0037310511945789
 10
-2090.2762087280562
 20
-2422.4998679642822
 10
-2090.2721335077631
 20
-2422.4829076930196
 42
0.0047652197768697
 10
-2090.1645096072589
 20
-2422.0154299247315
 10
-2090.1608190079401
 20
-2421.9986703696027
 42
0.0060276699291557
 10
-2090.070288908782
 20
-2421.5625945744373
 10
-2090.0670702184971
 20
-2421.5460933601485
 42
0.0075824337759187
 10
-2089.9943809090773
 20
-2421.1408261957022
 10
-2089.991735531697
 20
-2421.1246712482516
 42
0.0095130624602124
 10
-2089.9376202960657
 20
-2420.7495818951793
 10
-2089.9306340721855
 20
-2420.6936483370814
 42
0.0121054653223341
 10
-2089.9040427416057
 20
-2420.4287525085892
 10
-2089.9031762518466
 20
-2420.417349065664
 42
0.0069050827389484
 10
-2089.8880874338083
 20
-2420.174407838816
 10
-2089.8869521341398
 20
-2420.1508815817679
 42
0.0169063976707444
 10
-2089.8841248551594
 20
-2419.9546888544705
 10
-2089.8852955066905
 20
-2419.8943530931269
 42
0.0052007732909326
 10
-2089.8875489552838
 20
-2419.8187597029691
 42
0.0054038123309002
 10
-2089.907512467124
 20
-2419.6987414069531
 10
-2089.9125983229933
 20
-2419.6700829203783
 42
0.0112050460483599
 10
-2089.9479826850552
 20
-2419.4937564820225
 10
-2089.9658076470923
 20
-2419.4142148953183
 42
0.0240764468011059
 10
-2090.0567050132377
 20
-2419.0839778598188
 10
-2090.0752637760511
 20
-2419.0273576948243
 42
0.0256812331833869
 10
-2090.2186266962408
 20
-2418.6556334885659
 10
-2090.2240361220611
 20
-2418.643502153579
 42
0.0268360501211364
 10
-2090.3934633629124
 20
-2418.3125090195554
 10
-2090.3989997705462
 20
-2418.3029893492453
 42
0.0274670231723681
 10
-2090.5912007469606
 20
-2418.0107019743255
 10
-2090.5965820469214
 20
-2418.0034228267864
 42
0.0275035967090923
 10
-2090.8081549264853
 20
-2417.7479069364799
 10
-2090.813224427447
 20
-2417.7424278488547
 42
0.026955767352138
 10
-2091.0406279708914
 20
-2417.5217855628875
 10
-2091.0453710286774
 20
-2417.5176556084239
 42
0.0259124802204958
 10
-2091.2849258601045
 20
-2417.3299650812742
 10
-2091.2894567052822
 20
-2417.3267795789466
 42
0.0245162152987613
 10
-2091.5373730583815
 20
-2417.1700465698332
 10
-2091.5418996047069
 20
-2417.1674863726316
 42
0.0229282588834769
 10
-2091.7943191615332
 20
-2417.0396181801334
 10
-2091.7990996553744
 20
-2417.0374658803694
 42
0.0212984135686564
 10
-2092.0521376078314
 20
-2416.9362669631291
 10
-2092.0574418927977
 20
-2416.9344034003702
 42
0.0197555462341839
 10
-2092.3072202305239
 20
-2416.8575879824048
 42
0.018351189679197
 10
-2092.5621489559871
 20
-2416.8000050754395
 10
-2092.6485141527091
 20
-2416.7838022850542
 42
0.0338057877142368
 10
-2092.9340215019706
 20
-2416.7499938799137
 10
-2093.0250269070325
 20
-2416.745414224652
 42
0.0091990524519587
 10
-2093.1308740156464
 20
-2416.7420383687304
 42
0.002833398080354
 10
-2093.2367879316225
 20
-2416.7412102612138
 10
-2093.2377033846888
 20
-2416.7412082913897
 42
-0.0023619827791056
 10
-2093.3454493998188
 20
-2416.7404674503109
 10
-2093.3818545699705
 20
-2416.740045143848
 42
0.0008824598475548
 10
-2093.5624105598513
 20
-2416.73826936561
 10
-2093.6062719922265
 20
-2416.7379154040846
 42
0.0038132665768183
 10
-2093.874554888092
 20
-2416.7377964680172
 10
-2093.8910885428986
 20
-2416.7379152341609
 42
0.0060665569336678
 10
-2094.1923690345166
 20
-2416.7437355335828
 10
-2094.206619366515
 20
-2416.7441838415498
 42
0.0080356953339771
 10
-2094.5360780828451
 20
-2416.7598515636159
 10
-2094.5481480979415
 20
-2416.7606201465569
 42
0.009899639910361
 10
-2094.900911182589
 20
-2416.7901053757546
 10
-2094.9109568919675
 20
-2416.791145671953
 42
0.0117740981368311
 10
-2095.2821137503279
 20
-2416.8384379194849
 10
-2095.2903364467984
 20
-2416.8396830360539
 42
0.0137435215140406
 10
-2095.6749252662858
 20
-2416.9087800096163
 10
-2095.6815823054071
 20
-2416.9101659058492
 42
0.0158359869386537
 10
-2096.0745793992082
 20
-2417.0050579943299
 10
-2096.0799925860765
 20
-2417.0065479352006
 42
0.018055412402509
 10
-2096.4763076306845
 20
-2417.1311859514376
 10
-2096.4808644187724
 20
-2417.1328019877055
 42
0.0203657431283829
 10
-2096.875341936588
 20
-2417.2910623292228
 10
-2096.8794854755911
 20
-2417.292923950663
 42
0.022681968465509
 10
-2097.2669215317947
 20
-2417.4885665293336
 10
-2097.2711213228131
 20
-2417.4909321212535
 42
0.0248634984603255
 10
-2097.6463032639972
 20
-2417.7275587672029
 10
-2097.6944981927782
 20
-2417.7614158090269
 42
0.0267044190880281
 10
-2097.9687908896949
 20
-2417.976856184895
 42
0.0139303002191489
 10
-2098.2249580556295
 20
-2418.2140950258026
 10
-2098.2298114413543
 20
-2418.2188476886668
 42
0.0283460963437516
 10
-2098.4738840355831
 20
-2418.4865783491136
 10
-2098.5135525407381
 20
-2418.5353799265849
 42
0.0070695364826344
 10
-2098.5909897665979
 20
-2418.6334467425504
 42
0.0070695364826344
  0
LWPOLYLINE
  5
71
100
AcDbEntity
  8
0
370
              15
390
0
  6
Continuous
 62
               7
100
AcDbPolyline
 90
      226
 70
             128
 10
-2102.1198102038443
 20
-2434.3550355487346
 42
-0.0026277636618438
 10
-2102.1198880876441
 20
-2434.2882636229597
 10
-2102.1196707294121
 20
-2434.2351084055485
 42
-0.008868029673985
 10
-2102.1158941131189
 20
-2434.0620926231418
 10
-2102.1135477540065
 20
-2434.0028125976919
 42
-0.0077381705619809
 10
-2102.0975016432444
 20
-2433.7115521019045
 10
-2102.0966337320706
 20
-2433.6992638682086
 42
-0.0068872530543866
 10
-2102.0700016523247
 20
-2433.384042116164
 10
-2102.0687974281363
 20
-2433.3718011371207
 42
-0.0062130021488984
 10
-2102.0312037113099
 20
-2433.0329314458945
 10
-2102.0296998077733
 20
-2433.0207575739655
 42
-0.0056726929668421
 10
-2101.9807779482712
 20
-2432.6585623518522
 10
-2101.9790045026266
 20
-2432.6464685516066
 42
-0.0052341884499011
 10
-2101.9183939163668
 20
-2432.2612752960886
 10
-2101.9163759275903
 20
-2432.2492703660964
 42
-0.0049768450169065
 10
-2101.8436372461601
 20
-2431.841425798646
 10
-2101.8193882314417
 20
-2431.712877815658
 42
-0.0089029805624011
 10
-2101.6823073796468
 20
-2431.0511023682329
 10
-2101.6495620043288
 20
-2430.9060709377122
 42
-0.0080318257100595
 10
-2101.4200133899894
 20
-2429.960361305863
 10
-2101.4080284635402
 20
-2429.9142306706685
 42
-0.0074265721315927
 10
-2101.1240169246876
 20
-2428.8841660922794
 10
-2101.1041373815756
 20
-2428.8160320317074
 42
-0.0069711922703549
 10
-2100.7768328030666
 20
-2427.7497642913704
 10
-2100.7168808559622
 20
-2427.5637429330036
 42
-0.0052070422895877
 10
-2100.4874556307018
 20
-2426.8764708559684
 10
-2100.4701744385097
 20
-2426.826443575294
 42
-0.000916700444809
 10
-2100.26708255124
 20
-2426.2419877271973
 42
-0.0025162726946937
 10
-2100.0599849209889
 20
-2425.6589464630674
 10
-2100.0227603091785
 20
-2425.5557969171482
 42
-0.0028212681459648
 10
-2099.7745843902089
 20
-2424.8800662849585
 10
-2099.7647536274567
 20
-2424.8537588402778
 42
-0.0031964916823846
 10
-2099.5284613697959
 20
-2424.2335540781546
 10
-2099.5188269157943
 20
-2424.208744088005
 42
-0.0036281836450263
 10
-2099.2937209546958
 20
-2423.6413034071184
 10
-2099.2842825445409
 20
-2423.6180059756225
 42
-0.0041269166837591
 10
-2099.0696648478793
 20
-2423.1005650796374
 10
-2099.0370318914615
 20
-2423.023686633283
 42
-0.0047472213052676
 10
-2098.8799870859048
 20
-2422.6632651653927
 10
-2098.8730930047086
 20
-2422.6478445680877
 42
-0.0025651660001536
 10
-2098.7247349708464
 20
-2422.3205165123122
 42
-0.0057144634989255
 10
-2098.5709852770729
 20
-2421.9957068389449
 10
-2098.5429545716743
 20
-2421.9381984565557
 42
-0.006538806837524
 10
-2098.3594875439339
 20
-2421.5739659598903
 10
-2098.3510290881522
 20
-2421.5577063805149
 42
-0.0074510843031997
 10
-2098.1748468422775
 20
-2421.2310180993982
 10
-2098.1666671717494
 20
-2421.216377322135
 42
-0.0084648979864463
 10
-2097.9970333186466
 20
-2420.9244683111683
 10
-2097.9891771921575
 20
-2420.9114613195161
 42
-0.0095638542811974
 10
-2097.825341744564
 20
-2420.6515724475389
 10
-2097.8178668008923
 20
-2420.6402030860836
 42
-0.010719162680604
 10
-2097.659065220505
 20
-2420.4095918515395
 10
-2097.6520484867751
 20
-2420.3998557591763
 42
-0.0118458573903148
 10
-2097.4975003882614
 20
-2420.1957835638641
 42
-0.012918451818304
 10
-2097.3330477646582
 20
-2419.9996230476913
 10
-2097.3029029922923
 20
-2419.965496968789
 42
-0.0217742579638197
 10
-2097.1262906699612
 20
-2419.7822901985442
 10
-2097.1155451255045
 20
-2419.7720733653446
 42
-0.0097266568651697
 10
-2096.9494875066453
 20
-2419.620225790904
 42
-0.018772090572323
 10
-2096.7751399307549
 20
-2419.4781569375145
 10
-2096.7444339400845
 20
-2419.4549978551208
 42
-0.0179428207521835
 10
-2096.5120132200855
 20
-2419.292445678007
 10
-2096.5083608931659
 20
-2419.2900817431168
 42
-0.0170047877692708
 10
-2096.2725972556391
 20
-2419.1486212289674
 10
-2096.2688142668922
 20
-2419.1465229239307
 42
-0.0160190788359613
 10
-2096.0319057192573
 20
-2419.024871621943
 42
-0.0151102861489024
 10
-2095.7878739368139
 20
-2418.9181888458897
 10
-2095.7354874345992
 20
-2418.8971487129938
 42
-0.0271945441893892
 10
-2095.3768248755405
 20
-2418.7752839022878
 10
-2095.3077600750498
 20
-2418.7559343610205
 42
-0.0237596594014191
 10
-2094.8919632280304
 20
-2418.6604836490401
 10
-2094.823900374301
 20
-2418.6482289609135
 42
-0.0213715440558327
 10
-2094.5380254428546
 20
-2418.6092819294036
 10
-2094.4778782766421
 20
-2418.6036922147032
 42
-0.0101465655832695
 10
-2094.3103857446422
 20
-2418.5915486714384
 10
-2094.3010453584325
 20
-2418.5910617564405
 42
-0.0100375910880049
 10
-2094.1518912578813
 20
-2418.5862859385156
 10
-2094.1416319882078
 20
-2418.5861634995013
 42
-0.0103625633386171
 10
-2094.0129239935459
 20
-2418.5872949330278
 10
-2093.9906583422612
 20
-2418.5879522914934
 42
-0.0115689250235806
 10
-2093.9066076047511
 20
-2418.5923817977382
 42
-0.0072438037457341
 10
-2093.8227693253207
 20
-2418.5999709974867
 10
-2093.8059688158392
 20
-2418.6017375402116
 42
-0.0217917313163897
 10
-2093.6893990525323
 20
-2418.6191574329318
 10
-2093.6237989619531
 20
-2418.6319040413487
 42
-0.0332943556750306
 10
-2093.4194067969311
 20
-2418.6859443326543
 10
-2093.3892342283866
 20
-2418.6961124097706
 42
-0.0184824084811934
 10
-2093.2507291719157
 20
-2418.7485634251593
 42
-0.0198002050692849
 10
-2093.1166548314163
 20
-2418.8114474853587
 10
-2093.1147681940392
 20
-2418.8124252722387
 42
-0.0212242342988213
 10
-2092.9826292516432
 20
-2418.888188011028
 10
-2092.9808139560937
 20
-2418.8893338132402
 42
-0.0226090605799553
 10
-2092.8523100548723
 20
-2418.9788134568039
 10
-2092.8504656131345
 20
-2418.9802257097917
 42
-0.0238457052226672
 10
-2092.7272835318431
 20
-2419.0842216056526
 10
-2092.7253308032823
 20
-2419.0860364834207
 42
-0.0248160564137948
 10
-2092.6091292959759
 20
-2419.2053110846359
 10
-2092.6070256625799
 20
-2419.2076964183334
 42
-0.0254109591432927
 10
-2092.4994204447053
 20
-2419.3429848043106
 10
-2092.4971724227998
 20
-2419.3461263526988
 42
-0.025552848829406
 10
-2092.3997257440046
 20
-2419.4981534069293
 10
-2092.3973946440865
 20
-2419.50223501854
 42
-0.0252146793226943
 10
-2092.3116136180797
 20
-2419.671737264533
 10
-2092.30931137892
 20
-2419.6769193464502
 42
-0.0244265635939107
 10
-2092.2366566851565
 20
-2419.8646659185029
 10
-2092.2274102836927
 20
-2419.8925313368272
 42
-0.0231319612912381
 10
-2092.181487504698
 20
-2420.0558323836362
 42
-0.0112130424363571
 10
-2092.1468514821609
 20
-2420.2220359838175
 10
-2092.1456489570473
 20
-2420.2285325707121
 42
-0.0210527881250425
 10
-2092.1199624816768
 20
-2420.4095882161473
 10
-2092.1164518868545
 20
-2420.4449937647005
 42
-0.0190029892416947
 10
-2092.1010104133093
 20
-2420.6985296109847
 10
-2092.1002004368656
 20
-2420.7340052253421
 42
-0.0137974553661911
 10
-2092.1017492897008
 20
-2421.0590366320685
 10
-2092.1025947446569
 20
-2421.0851553766674
 42
-0.0081336634219006
 10
-2092.1174540798793
 20
-2421.3905028442673
 42
-0.0073526923574783
 10
-2092.1417626132525
 20
-2421.6952510885376
 10
-2092.1430240370369
 20
-2421.7085877632185
 42
-0.0066886138687139
 10
-2092.1787596230815
 20
-2422.0391738067015
 10
-2092.1804167125533
 20
-2422.0527954257072
 42
-0.0061359187363717
 10
-2092.2282673146001
 20
-2422.4095594057794
 10
-2092.2303048156768
 20
-2422.4234542086365
 42
-0.0056698610063265
 10
-2092.290955146445
 20
-2422.8067327774816
 10
-2092.2933605797671
 20
-2422.8208918967052
 42
-0.0052721077272614
 10
-2092.3674927805687
 20
-2423.2310192363921
 10
-2092.3702559294088
 20
-2423.2454358717691
 42
-0.0049289272178544
 10
-2092.4585500475118
 20
-2423.6827443829065
 10
-2092.4616625421913
 20
-2423.6974132357072
 42
-0.004741595671362
 10
-2092.5649005337218
 20
-2424.1622099931114
 10
-2092.5996687440829
 20
-2424.3120170885013
 42
-0.0084404470899679
 10
-2092.789685187659
 20
-2425.0722411130478
 10
-2092.7958118756405
 20
-2425.0951052371861
 42
-0.003963594025344
 10
-2093.0172655599281
 20
-2425.8960941014461
 10
-2093.0306423551042
 20
-2425.9430257180252
 42
-0.0072475040839339
 10
-2093.2980892429628
 20
-2426.8322454344016
 10
-2093.3683015697975
 20
-2427.0539857843969
 42
-0.0051345458826626
 10
-2093.6550609418537
 20
-2427.9283109721982
 10
-2093.6765872086235
 20
-2427.9917372393347
 42
-0.0019150016605584
 10
-2093.9321206154877
 20
-2428.7352863595543
 10
-2093.9385882198708
 20
-2428.7538738244375
 42
-0.0021524362752011
 10
-2094.187066270948
 20
-2429.4581996461839
 10
-2094.196276691649
 20
-2429.4839532244987
 42
-0.0024331286818446
 10
-2094.4325319506802
 20
-2430.1345525326037
 10
-2094.4415799032236
 20
-2430.1590958389388
 42
-0.0027449721793379
 10
-2094.6661944740663
 20
-2430.7582257178824
 10
-2094.6750844814665
 20
-2430.7815483077561
 42
-0.0031083229765476
 10
-2094.8886269680684
 20
-2431.3314723453141
 10
-2094.897363099732
 20
-2431.3535620611415
 42
-0.0035311343282699
 10
-2095.1004042853356
 20
-2431.8565451869022
 10
-2095.1089896244844
 20
-2431.8773879104156
 42
-0.0040245640942791
 10
-2095.3021014282776
 20
-2432.3356972330048
 10
-2095.3105375418736
 20
-2432.3552766010607
 42
-0.0046015135851492
 10
-2095.4942938350446
 20
-2432.7711816307192
 10
-2095.5025800128715
 20
-2432.7894787701684
 42
-0.0052768638272446
 10
-2095.6775575318288
 20
-2433.1652516544418
 10
-2095.6856897424568
 20
-2433.1822449929873
 42
-0.006067267564147
 10
-2095.8524693552217
 20
-2433.520160616099
 10
-2095.8604388356971
 20
-2433.5358258750848
 42
-0.0069904648873222
 10
-2096.0196072297044
 20
-2433.8381616817601
 10
-2096.0273986293155
 20
-2433.8524722309876
 42
-0.0080637022764952
 10
-2096.1795504896609
 20
-2434.1215075341406
 10
-2096.187139522292
 20
-2434.1344353997411
 42
-0.0093006455665715
 10
-2096.3328801988237
 20
-2434.3724497982444
 10
-2096.3402308655659
 20
-2434.3839677674155
 42
-0.0107060778050064
 10
-2096.4801794090063
 20
-2434.5932380847962
 10
-2096.4872411772817
 20
-2434.6033236273561
 42
-0.0122723111426724
 10
-2096.6220348954839
 20
-2434.7861169568514
 10
-2096.6223611190362
 20
-2434.7865373446584
 42
-0.0141836319630077
 10
-2096.7659427220115
 20
-2434.9611071024901
 10
-2096.7728904776609
 20
-2434.9690821027521
 42
-0.0175957477211963
 10
-2096.9127966456981
 20
-2435.1187029911598
 42
-0.0080466359676698
 10
-2097.0602604107289
 20
-2435.2610255193113
 10
-2097.1062949552461
 20
-2435.3040459574022
 42
-0.0269600260402505
 10
-2097.3595752012284
 20
-2435.5163692159108
 10
-2097.4261423375274
 20
-2435.5663206305362
 42
-0.0178362839747986
 10
-2097.666086827182
 20
-2435.7333385567881
 10
-2097.6733317981857
 20
-2435.7380070689951
 42
-0.0174650732644568
 10
-2097.9096679956237
 20
-2435.8788680339521
 42
-0.0169240130162166
 10
-2098.1551342414841
 20
-2436.0031602937306
 10
-2098.2011203970392
 20
-2436.0245222492968
 42
-0.0318883036839733
 10
-2098.5514712526578
 20
-2436.1608605588062
 10
-2098.6198367878251
 20
-2436.1825611792829
 42
-0.0284435909898761
 10
-2098.9958869141146
 20
-2436.2787786147564
 10
-2099.0310450746083
 20
-2436.2856722105839
 42
-0.0243909341015301
 10
-2099.3444885355325
 20
-2436.3313932416154
 10
-2099.3947692623133
 20
-2436.3362387885181
 42
-0.0196639292922667
 10
-2099.6103648398312
 20
-2436.3484870740308
 10
-2099.6621889109829
 20
-2436.3493903347676
 42
-0.0100501510692718
 10
-2099.7746121926584
 20
-2436.3490899364142
 10
-2099.806272053921
 20
-2436.3483688645306
 42
-0.001975203113911
 10
-2099.8553643906844
 20
-2436.3470567043191
 10
-2099.8581246938866
 20
-2436.3469720124936
 42
0.0065378751990597
 10
-2099.9017012686609
 20
-2436.3462051212782
 42
-0.0167974694615361
 10
-2099.9452320915966
 20
-2436.3445452227515
 10
-2099.9493114308548
 20
-2436.3442522118567
 42
-0.0081283276307941
 10
-2100.0008712285794
 20
-2436.3397052182204
 10
-2100.012610802472
 20
-2436.3384773006405
 42
-0.0126703440184678
 10
-2100.0873290982599
 20
-2436.32874250957
 10
-2100.1101169659423
 20
-2436.3251842536538
 42
-0.0117852088419639
 10
-2100.2296559517818
 20
-2436.3036212584952
 10
-2100.2850364035376
 20
-2436.2922777182621
 42
-0.0251774592292327
 10
-2100.5118804425479
 20
-2436.2337797088285
 10
-2100.5565996323899
 20
-2436.2198128894961
 42
-0.0146525199893941
 10
-2100.7429926199347
 20
-2436.1555463622958
 42
-0.0166929435857813
 10
-2100.9249702760621
 20
-2436.0797392292407
 10
-2100.9296269073348
 20
-2436.0776143286271
 42
-0.0191684358431478
 10
-2101.1148105385855
 20
-2435.9843782448365
 10
-2101.1181431243413
 20
-2435.9825369972841
 42
-0.022118178179828
 10
-2101.3014534282474
 20
-2435.8704034989105
 10
-2101.303803232252
 20
-2435.8688192009222
 42
-0.0254984685375377
 10
-2101.4800933826364
 20
-2435.7364080509537
 10
-2101.5025755303354
 20
-2435.7176557420198
 42
-0.0292492648804905
 10
-2101.6273444691819
 20
-2435.600562942373
 42
-0.0159048957496023
 10
-2101.7411844666335
 20
-2435.4725429507716
 10
-2101.742503257211
 20
-2435.470961337754
 42
-0.0343813379575037
 10
-2101.8451405188393
 20
-2435.329090011981
 10
-2101.8766320501973
 20
-2435.2785866198919
 42
-0.0369117275706257
 10
-2101.9625245520956
 20
-2435.1151093789422
 42
-0.0191751379907708
 10
-2102.029717937653
 20
-2434.9427047729355
 10
-2102.0314812614124
 20
-2434.9376114282613
 42
-0.0378178042220971
 10
-2102.0812759801966
 20
-2434.7486706521795
 10
-2102.0872712759242
 20
-2434.7161100339963
 42
-0.0184846046502496
 10
-2102.1079884752212
 20
-2434.5743572134384
 42
-0.0179866351307827
 10
-2102.118321480295
 20
-2434.4314664003514
 10
-2102.1183779227404
 20
-2434.4299087137442
 42
-0.0085497186138982
 10
-2102.1198102038443
 20
-2434.3550355487346
 42
-0.0085497186138982
  0
ENDBLK
  5
72
100
AcDbEntity
  8
template
390
0
100
AcDbBlockEnd
  0
BLOCK
  5
73
100
AcDbEntity
  8
notes
390
0
100
AcDbBlockBegin
  2
*D4
 70
               1
 10
0.0
 20
0.0
 30
0.0
  3
*D4
  1

  0
LINE
  5
74
100
AcDbEntity
  8
0
370
              -2
390
0
  6
Continuous
 62
               0
100
AcDbLine
 10
506.08839862373998
 20
973.16394135162659
 30
0.0
 11
431.08839862373998
 21
973.16394135162659
 31
0.0
  0
LINE
  5
75
100
AcDbEntity
  8
0
370
              -2
390
0
  6
Continuous
 62
               0
100
AcDbLine
 10
506.08839862373998
 20
913.16394135162636
 30
0.0
 11
431.08839862373998
 21
913.16394135162636
 31
0.0
  0
LINE
  5
76
100
AcDbEntity
  8
0
370
              -2
390
0
  6
Continuous
 62
               0
100
AcDbLine
 10
431.08839862373998
 20
973.16394135162659
 30
0.0
 11
431.08839862373998
 21
913.16394135162636
 31
0.0
  0
CIRCLE
  5
77
102
{ACAD_REACTORS
330
78
102
}
100
AcDbEntity
  8
0
370
              -2
390
0
  6
Continuous
 62
               0
100
AcDbCircle
 10
431.08839862373998
 20
973.16394135162659
 30
0.0
 40
4.99969482421875
  0
HATCH
  5
78
100
AcDbEntity
  8
0
370
              -2
390
0
  6
Continuous
 62
               0
100
AcDbHatch
 10
0.0
 20
0.0
 30
0.0
210
0.0
220
0.0
230
1.0
  2
SOLID
 70
               1
 71
               1
 91
        1
 92
        1
 93
        1
 72
               2
 10
431.08839862373998
 20
973.16394135162659
 40
4.99969482421875
 50
0.0
 51
360.0
 73
               0
 97
        1
330
77
 75
               0
 76
               1
 98
        1
 10
0.0
 20
0.0
  0
CIRCLE
  5
79
102
{ACAD_REACTORS
330
7A
102
}
100
AcDbEntity
  8
0
370
              -2
390
0
  6
Continuous
 62
               0
100
AcDbCircle
 10
431.08839862373998
 20
913.16394135162636
 30
0.0
 40
4.99969482421875
  0
HATCH
  5
7A
100
AcDbEntity
  8
0
370
              -2
390
0
  6
Continuous
 62
               0
100
AcDbHatch
 10
0.0
 20
0.0
 30
0.0
210
0.0
220
0.0
230
1.0
  2
SOLID
 70
               1
 71
               1
 91
        1
 92
        1
 93
        1
 72
               2
 10
431.08839862373998
 20
913.16394135162636
 40
4.99969482421875
 50
0.0
 51
360.0
 73
               0
 97
        1
330
79
 75
               0
 76
               1
 98
        1
 10
0.0
 20
0.0
  0
MTEXT
  5
7B
100
AcDbEntity
  8
0
390
0
 62
               0
100
AcDbMText
 10
397.21078143623981
 20
927.28894135162648
 30
0.0
 40
24.432617187500004
 41
0.0
 71
               1
 72
               1
  1
60
  7
ＭＳ ゴシック
 11
0.0
 21
1.0
 31
0.0
 73
               1
 44
0.7828267384257843
  0
POINT
  5
7C
100
AcDbEntity
  8
Defpoints
370
               0
390
0
 62
               0
100
AcDbPoint
 10
531.08839862373998
 20
913.16394135162636
 30
0.0
  0
POINT
  5
7D
100
AcDbEntity
  8
Defpoints
370
               0
390
0
 62
               0
100
AcDbPoint
 10
531.08839862373998
 20
973.16394135162659
 30
0.0
  0
POINT
  5
7E
100
AcDbEntity
  8
Defpoints
370
               0
390
0
 62
               0
100
AcDbPoint
 10
431.08839862373998
 20
973.16394135162659
 30
0.0
  0
ENDBLK
  5
7F
100
AcDbEntity
  8
notes
390
0
100
AcDbBlockEnd
  0
BLOCK
  5
80
100
AcDbEntity
  8
notes
390
0
100
AcDbBlockBegin
  2
*D5
 70
               1
 10
0.0
 20
0.0
 30
0.0
  3
*D5
  1

  0
LINE
  5
81
100
AcDbEntity
  8
0
370
              -2
390
0
  6
Continuous
 62
               0
100
AcDbLine
 10
531.08839862373998
 20
741.39271029625627
 30
0.0
 11
531.08839862373998
 21
759.87147924088583
 31
0.0
  0
LINE
  5
82
100
AcDbEntity
  8
0
370
              -2
390
0
  6
Continuous
 62
               0
100
AcDbLine
 10
641.08839862373998
 20
741.39271029625627
 30
0.0
 11
641.08839862373998
 21
759.87147924088583
 31
0.0
  0
LINE
  5
83
100
AcDbEntity
  8
0
370
              -2
390
0
  6
Continuous
 62
               0
100
AcDbLine
 10
531.08839862373998
 20
759.87147924088583
 30
0.0
 11
371.77589862373998
 21
759.87147924088583
 31
0.0
  0
LINE
  5
84
100
AcDbEntity
  8
0
370
              -2
390
0
  6
Continuous
 62
               0
100
AcDbLine
 10
531.08839862373998
 20
759.87147924088583
 30
0.0
 11
641.08839862373998
 21
759.87147924088583
 31
0.0
  0
CIRCLE
  5
85
102
{ACAD_REACTORS
330
86
102
}
100
AcDbEntity
  8
0
370
              -2
390
0
  6
Continuous
 62
               0
100
AcDbCircle
 10
531.08839862373998
 20
759.87147924088583
 30
0.0
 40
4.99969482421875
  0
HATCH
  5
86
100
AcDbEntity
  8
0
370
              -2
390
0
  6
Continuous
 62
               0
100
AcDbHatch
 10
0.0
 20
0.0
 30
0.0
210
0.0
220
0.0
230
1.0
  2
SOLID
 70
               1
 71
               1
 91
        1
 92
        1
 93
        1
 72
               2
 10
531.08839862373998
 20
759.87147924088583
 40
4.99969482421875
 50
0.0
 51
360.0
 73
               0
 97
        1
330
85
 75
               0
 76
               1
 98
        1
 10
0.0
 20
0.0
  0
CIRCLE
  5
87
102
{ACAD_REACTORS
330
88
102
}
100
AcDbEntity
  8
0
370
              -2
390
0
  6
Continuous
 62
               0
100
AcDbCircle
 10
641.08839862373998
 20
759.87147924088583
 30
0.0
 40
4.99969482421875
  0
HATCH
  5
88
100
AcDbEntity
  8
0
370
              -2
390
0
  6
Continuous
 62
               0
100
AcDbHatch
 10
0.0
 20
0.0
 30
0.0
210
0.0
220
0.0
230
1.0
  2
SOLID
 70
               1
 71
               1
 91
        1
 92
        1
 93
        1
 72
               2
 10
641.08839862373998
 20
759.87147924088583
 40
4.99969482421875
 50
0.0
 51
360.0
 73
               0
 97
        1
330
87
 75
               0
 76
               1
 98
        1
 10
0.0
 20
0.0
  0
MTEXT
  5
89
100
AcDbEntity
  8
0
390
0
 62
               0
100
AcDbMText
 10
371.77589862373998
 20
793.74909642838588
 30
0.0
 40
24.432617187500004
 41
0.0
 71
               1
 72
               1
  1
110(深さ)
  7
ＭＳ ゴシック
 73
               1
 44
0.7828267384257843
  0
POINT
  5
8A
100
AcDbEntity
  8
Defpoints
370
               0
390
0
 62
               0
100
AcDbPoint
 10
641.08839862373998
 20
766.39271029625627
 30
0.0
  0
POINT
  5
8B
100
AcDbEntity
  8
Defpoints
370
               0
390
0
 62
               0
100
AcDbPoint
 10
531.08839862373998
 20
766.39271029625627
 30
0.0
  0
POINT
  5
8C
100
AcDbEntity
  8
Defpoints
370
               0
390
0
 62
               0
100
AcDbPoint
 10
531.08839862373998
 20
759.87147924088583
 30
0.0
  0
ENDBLK
  5
8D
100
AcDbEntity
  8
notes
390
0
100
AcDbBlockEnd
  0
BLOCK
  5
8E
100
AcDbEntity
  8
notes
390
0
100
AcDbBlockBegin
  2
*D6
 70
               1
 10
0.0
 20
0.0
 30
0.0
  3
*D6
  1

  0
LINE
  5
8F
100
AcDbEntity
  8
0
370
              -2
390
0
  6
Continuous
 62
               0
100
AcDbLine
 10
591.08839862373998
 20
531.00455601644467
 30
0.0
 11
591.08839862373998
 21
453.60525901477342
 31
0.0
  0
LINE
  5
90
100
AcDbEntity
  8
0
370
              -2
390
0
  6
Continuous
 62
               0
100
AcDbLine
 10
531.08839862373998
 20
534.62147924088549
 30
0.0
 11
531.08839862373998
 21
453.60525901477342
 31
0.0
  0
LINE
  5
91
100
AcDbEntity
  8
0
370
              -2
390
0
  6
Continuous
 62
               0
100
AcDbLine
 10
591.08839862373998
 20
453.60525901477342
 30
0.0
 11
531.08839862373998
 21
453.60525901477342
 31
0.0
  0
CIRCLE
  5
92
102
{ACAD_REACTORS
330
93
102
}
100
AcDbEntity
  8
0
370
              -2
390
0
  6
Continuous
 62
               0
100
AcDbCircle
 10
591.08839862373998
 20
453.60525901477342
 30
0.0
 40
4.99969482421875
  0
HATCH
  5
93
100
AcDbEntity
  8
0
370
              -2
390
0
  6
Continuous
 62
               0
100
AcDbHatch
 10
0.0
 20
0.0
 30
0.0
210
0.0
220
0.0
230
1.0
  2
SOLID
 70
               1
 71
               1
 91
        1
 92
        1
 93
        1
 72
               2
 10
591.08839862373998
 20
453.60525901477342
 40
4.99969482421875
 50
0.0
 51
360.0
 73
               0
 97
        1
330
92
 75
               0
 76
               1
 98
        1
 10
0.0
 20
0.0
  0
CIRCLE
  5
94
102
{ACAD_REACTORS
330
95
102
}
100
AcDbEntity
  8
0
370
              -2
390
0
  6
Continuous
 62
               0
100
AcDbCircle
 10
531.08839862373998
 20
453.60525901477342
 30
0.0
 40
4.99969482421875
  0
HATCH
  5
95
100
AcDbEntity
  8
0
370
              -2
390
0
  6
Continuous
 62
               0
100
AcDbHatch
 10
0.0
 20
0.0
 30
0.0
210
0.0
220
0.0
230
1.0
  2
SOLID
 70
               1
 71
               1
 91
        1
 92
        1
 93
        1
 72
               2
 10
531.08839862373998
 20
453.60525901477342
 40
4.99969482421875
 50
0.0
 51
360.0
 73
               0
 97
        1
330
94
 75
               0
 76
               1
 98
        1
 10
0.0
 20
0.0
  0
MTEXT
  5
96
100
AcDbEntity
  8
0
390
0
 62
               0
100
AcDbMText
 10
545.21339862373998
 20
487.48287620227347
 30
0.0
 40
24.432617187500004
 41
0.0
 71
               1
 72
               1
  1
60
  7
ＭＳ ゴシック
 73
               1
 44
0.7828267384257843
  0
POINT
  5
97
100
AcDbEntity
  8
Defpoints
370
               0
390
0
 62
               0
100
AcDbPoint
 10
531.08839862373998
 20
559.62147924088549
 30
0.0
  0
POINT
  5
98
100
AcDbEntity
  8
Defpoints
370
               0
390
0
 62
               0
100
AcDbPoint
 10
591.08839862373998
 20
556.00455601644467
 30
0.0
  0
POINT
  5
99
100
AcDbEntity
  8
Defpoints
370
               0
390
0
 62
               0
100
AcDbPoint
 10
591.08839862373998
 20
453.60525901477342
 30
0.0
  0
ENDBLK
  5
9A
100
AcDbEntity
  8
notes
390
0
100
AcDbBlockEnd
  0
BLOCK
  5
9B
100
AcDbEntity
  8
notes
390
0
100
AcDbBlockBegin
  2
*D7
 70
               1
 10
0.0
 20
0.0
 30
0.0
  3
*D7
  1

  0
LINE
  5
9C
100
AcDbEntity
  8
0
370
              -2
390
0
  6
Continuous
 62
               0
100
AcDbLine
 10
591.08839862373998
 20
531.00455601644467
 30
0.0
 11
591.08839862373998
 21
453.60525901477342
 31
0.0
  0
LINE
  5
9D
100
AcDbEntity
  8
0
370
              -2
390
0
  6
Continuous
 62
               0
100
AcDbLine
 10
661.08839862373998
 20
646.35917301494669
 30
0.0
 11
661.08839862373998
 21
453.60525901477342
 31
0.0
  0
LINE
  5
9E
100
AcDbEntity
  8
0
370
              -2
390
0
  6
Continuous
 62
               0
100
AcDbLine
 10
591.08839862373998
 20
453.60525901477342
 30
0.0
 11
661.08839862373998
 21
453.60525901477342
 31
0.0
  0
CIRCLE
  5
9F
102
{ACAD_REACTORS
330
A0
102
}
100
AcDbEntity
  8
0
370
              -2
390
0
  6
Continuous
 62
               0
100
AcDbCircle
 10
591.08839862373998
 20
453.60525901477342
 30
0.0
 40
4.99969482421875
  0
HATCH
  5
A0
100
AcDbEntity
  8
0
370
              -2
390
0
  6
Continuous
 62
               0
100
AcDbHatch
 10
0.0
 20
0.0
 30
0.0
210
0.0
220
0.0
230
1.0
  2
SOLID
 70
               1
 71
               1
 91
        1
 92
        1
 93
        1
 72
               2
 10
591.08839862373998
 20
453.60525901477342
 40
4.99969482421875
 50
0.0
 51
360.0
 73
               0
 97
        1
330
9F
 75
               0
 76
               1
 98
        1
 10
0.0
 20
0.0
  0
CIRCLE
  5
A1
102
{ACAD_REACTORS
330
A2
102
}
100
AcDbEntity
  8
0
370
              -2
390
0
  6
Continuous
 62
               0
100
AcDbCircle
 10
661.08839862373998
 20
453.60525901477342
 30
0.0
 40
4.99969482421875
  0
HATCH
  5
A2
100
AcDbEntity
  8
0
370
              -2
390
0
  6
Continuous
 62
               0
100
AcDbHatch
 10
0.0
 20
0.0
 30
0.0
210
0.0
220
0.0
230
1.0
  2
SOLID
 70
               1
 71
               1
 91
        1
 92
        1
 93
        1
 72
               2
 10
661.08839862373998
 20
453.60525901477342
 40
4.99969482421875
 50
0.0
 51
360.0
 73
               0
 97
        1
330
A1
 75
               0
 76
               1
 98
        1
 10
0.0
 20
0.0
  0
MTEXT
  5
A3
100
AcDbEntity
  8
0
390
0
 62
               0
100
AcDbMText
 10
610.21339862373998
 20
487.48287620227347
 30
0.0
 40
24.432617187500004
 41
0.0
 71
               1
 72
               1
  1
70
  7
ＭＳ ゴシック
 73
               1
 44
0.7828267384257843
  0
POINT
  5
A4
100
AcDbEntity
  8
Defpoints
370
               0
390
0
 62
               0
100
AcDbPoint
 10
661.08839862373998
 20
671.35917301494669
 30
0.0
  0
POINT
  5
A5
100
AcDbEntity
  8
Defpoints
370
               0
390
0
 62
               0
100
AcDbPoint
 10
591.08839862373998
 20
556.00455601644467
 30
0.0
  0
POINT
  5
A6
100
AcDbEntity
  8
Defpoints
370
               0
390
0
 62
               0
100
AcDbPoint
 10
591.08839862373998
 20
453.60525901477342
 30
0.0
  0
ENDBLK
  5
A7
100
AcDbEntity
  8
notes
390
0
100
AcDbBlockEnd
  0
BLOCK
  5
A8
100
AcDbEntity
  8
notes
390
0
100
AcDbBlockBegin
  2
*D8
 70
               1
 10
0.0
 20
0.0
 30
0.0
  3
*D8
  1

  0
LINE
  5
A9
100
AcDbEntity
  8
0
370
              -2
390
0
  6
Continuous
 62
               0
100
AcDbLine
 10
691.09373973465881
 20
973.16394138095507
 30
0.0
 11
790.91625452771996
 21
973.16394138095507
 31
0.0
  0
LINE
  5
AA
100
AcDbEntity
  8
0
370
              -2
390
0
  6
Continuous
 62
               0
100
AcDbLine
 10
716.12658988505063
 20
763.16394138095529
 30
0.0
 11
790.91625452771996
 21
763.16394138095529
 31
0.0
  0
LINE
  5
AB
100
AcDbEntity
  8
0
370
              -2
390
0
  6
Continuous
 62
               0
100
AcDbLine
 10
790.91625452771996
 20
973.16394138095507
 30
0.0
 11
790.91625452771996
 21
763.16394138095529
 31
0.0
  0
CIRCLE
  5
AC
102
{ACAD_REACTORS
330
AD
102
}
100
AcDbEntity
  8
0
370
              -2
390
0
  6
Continuous
 62
               0
100
AcDbCircle
 10
790.91625452771996
 20
973.16394138095507
 30
0.0
 40
4.99969482421875
  0
HATCH
  5
AD
100
AcDbEntity
  8
0
370
              -2
390
0
  6
Continuous
 62
               0
100
AcDbHatch
 10
0.0
 20
0.0
 30
0.0
210
0.0
220
0.0
230
1.0
  2
SOLID
 70
               1
 71
               1
 91
        1
 92
        1
 93
        1
 72
               2
 10
790.91625452771996
 20
973.16394138095507
 40
4.99969482421875
 50
0.0
 51
360.0
 73
               0
 97
        1
330
AC
 75
               0
 76
               1
 98
        1
 10
0.0
 20
0.0
  0
CIRCLE
  5
AE
102
{ACAD_REACTORS
330
AF
102
}
100
AcDbEntity
  8
0
370
              -2
390
0
  6
Continuous
 62
               0
100
AcDbCircle
 10
790.91625452771996
 20
763.16394138095529
 30
0.0
 40
4.99969482421875
  0
HATCH
  5
AF
100
AcDbEntity
  8
0
370
              -2
390
0
  6
Continuous
 62
               0
100
AcDbHatch
 10
0.0
 20
0.0
 30
0.0
210
0.0
220
0.0
230
1.0
  2
SOLID
 70
               1
 71
               1
 91
        1
 92
        1
 93
        1
 72
               2
 10
790.91625452771996
 20
763.16394138095529
 40
4.99969482421875
 50
0.0
 51
360.0
 73
               0
 97
        1
330
AE
 75
               0
 76
               1
 98
        1
 10
0.0
 20
0.0
  0
MTEXT
  5
B0
100
AcDbEntity
  8
0
390
0
 62
               0
100
AcDbMText
 10
757.03863734021979
 20
844.35143969877959
 30
0.0
 40
24.432617187500004
 41
0.0
 71
               1
 72
               1
  1
210
  7
ＭＳ ゴシック
 11
0.0
 21
1.0
 31
0.0
 73
               1
 44
0.7828267384257843
  0
POINT
  5
B1
100
AcDbEntity
  8
Defpoints
370
               0
390
0
 62
               0
100
AcDbPoint
 10
691.12658988505063
 20
763.16394138095529
 30
0.0
  0
POINT
  5
B2
100
AcDbEntity
  8
Defpoints
370
               0
390
0
 62
               0
100
AcDbPoint
 10
666.09373973465881
 20
973.16394138095507
 30
0.0
  0
POINT
  5
B3
100
AcDbEntity
  8
Defpoints
370
               0
390
0
 62
               0
100
AcDbPoint
 10
790.91625452771996
 20
973.16394138095507
 30
0.0
  0
ENDBLK
  5
B4
100
AcDbEntity
  8
notes
390
0
100
AcDbBlockEnd
  0
BLOCK
  5
B5
100
AcDbEntity
  8
notes
390
0
100
AcDbBlockBegin
  2
*D9
 70
               1
 10
0.0
 20
0.0
 30
0.0
  3
*D9
  1

  0
LINE
  5
B6
100
AcDbEntity
  8
0
370
              -2
390
0
  6
Continuous
 62
               0
100
AcDbLine
 10
691.0937397346579
 20
973.16394118361859
 30
0.0
 11
841.12658988505063
 21
973.16394118361859
 31
0.0
  0
LINE
  5
B7
100
AcDbEntity
  8
0
370
              -2
390
0
  6
Continuous
 62
               0
100
AcDbLine
 10
691.09373973465881
 20
668.1639411836195
 30
0.0
 11
841.12658988505063
 21
668.1639411836195
 31
0.0
  0
LINE
  5
B8
100
AcDbEntity
  8
0
370
              -2
390
0
  6
Continuous
 62
               0
100
AcDbLine
 10
841.12658988505063
 20
973.16394118361859
 30
0.0
 11
841.12658988505063
 21
668.1639411836195
 31
0.0
  0
CIRCLE
  5
B9
102
{ACAD_REACTORS
330
BA
102
}
100
AcDbEntity
  8
0
370
              -2
390
0
  6
Continuous
 62
               0
100
AcDbCircle
 10
841.12658988505063
 20
973.16394118361859
 30
0.0
 40
4.99969482421875
  0
HATCH
  5
BA
100
AcDbEntity
  8
0
370
              -2
390
0
  6
Continuous
 62
               0
100
AcDbHatch
 10
0.0
 20
0.0
 30
0.0
210
0.0
220
0.0
230
1.0
  2
SOLID
 70
               1
 71
               1
 91
        1
 92
        1
 93
        1
 72
               2
 10
841.12658988505063
 20
973.16394118361859
 40
4.99969482421875
 50
0.0
 51
360.0
 73
               0
 97
        1
330
B9
 75
               0
 76
               1
 98
        1
 10
0.0
 20
0.0
  0
CIRCLE
  5
BB
102
{ACAD_REACTORS
330
BC
102
}
100
AcDbEntity
  8
0
370
              -2
390
0
  6
Continuous
 62
               0
100
AcDbCircle
 10
841.12658988505063
 20
668.1639411836195
 30
0.0
 40
4.99969482421875
  0
HATCH
  5
BC
100
AcDbEntity
  8
0
370
              -2
390
0
  6
Continuous
 62
               0
100
AcDbHatch
 10
0.0
 20
0.0
 30
0.0
210
0.0
220
0.0
230
1.0
  2
SOLID
 70
               1
 71
               1
 91
        1
 92
        1
 93
        1
 72
               2
 10
841.12658988505063
 20
668.1639411836195
 40
4.99969482421875
 50
0.0
 51
360.0
 73
               0
 97
        1
330
BB
 75
               0
 76
               1
 98
        1
 10
0.0
 20
0.0
  0
MTEXT
  5
BD
100
AcDbEntity
  8
0
390
0
 62
               0
100
AcDbMText
 10
807.24897269755047
 20
800.58310961871393
 30
0.0
 40
24.432617187500004
 41
0.0
 71
               1
 72
               1
  1
305
  7
ＭＳ ゴシック
 11
0.0
 21
1.0
 31
0.0
 73
               1
 44
0.7828267384257843
  0
POINT
  5
BE
100
AcDbEntity
  8
Defpoints
370
               0
390
0
 62
               0
100
AcDbPoint
 10
666.09373973465881
 20
668.1639411836195
 30
0.0
  0
POINT
  5
BF
100
AcDbEntity
  8
Defpoints
370
               0
390
0
 62
               0
100
AcDbPoint
 10
666.0937397346579
 20
973.16394118361859
 30
0.0
  0
POINT
  5
C0
100
AcDbEntity
  8
Defpoints
370
               0
390
0
 62
               0
100
AcDbPoint
 10
841.12658988505063
 20
973.16394118361859
 30
0.0
  0
ENDBLK
  5
C1
100
AcDbEntity
  8
notes
390
0
100
AcDbBlockEnd
  0
BLOCK
  5
C2
100
AcDbEntity
  8
notes
390
0
100
AcDbBlockBegin
  2
*D10
 70
               1
 10
0.0
 20
0.0
 30
0.0
  3
*D10
  1

  0
LINE
  5
C3
100
AcDbEntity
  8
0
370
              -2
390
0
  6
Continuous
 62
               0
100
AcDbLine
 10
-152.89448178848215
 20
1138.4208841999409
 30
0.0
 11
-44.424072371471993
 21
1138.4208841999409
 31
0.0
  0
LINE
  5
C4
100
AcDbEntity
  8
0
370
              -2
390
0
  6
Continuous
 62
               0
100
AcDbLine
 10
-152.89448178848215
 20
298.42088419993968
 30
0.0
 11
-44.424072371471993
 21
298.42088419993968
 31
0.0
  0
LINE
  5
C5
100
AcDbEntity
  8
0
370
              -2
390
0
  6
Continuous
 62
               0
100
AcDbLine
 10
-44.424072371471993
 20
1138.4208841999409
 30
0.0
 11
-44.424072371471993
 21
298.42088419993968
 31
0.0
  0
CIRCLE
  5
C6
102
{ACAD_REACTORS
330
C7
102
}
100
AcDbEntity
  8
0
370
              -2
390
0
  6
Continuous
 62
               0
100
AcDbCircle
 10
-44.424072371471993
 20
1138.4208841999409
 30
0.0
 40
4.99969482421875
  0
HATCH
  5
C7
100
AcDbEntity
  8
0
370
              -2
390
0
  6
Continuous
 62
               0
100
AcDbHatch
 10
0.0
 20
0.0
 30
0.0
210
0.0
220
0.0
230
1.0
  2
SOLID
 70
               1
 71
               1
 91
        1
 92
        1
 93
        1
 72
               2
 10
-44.424072371471993
 20
1138.4208841999409
 40
4.99969482421875
 50
0.0
 51
360.0
 73
               0
 97
        1
330
C6
 75
               0
 76
               1
 98
        1
 10
0.0
 20
0.0
  0
CIRCLE
  5
C8
102
{ACAD_REACTORS
330
C9
102
}
100
AcDbEntity
  8
0
370
              -2
390
0
  6
Continuous
 62
               0
100
AcDbCircle
 10
-44.424072371471993
 20
298.42088419993968
 30
0.0
 40
4.99969482421875
  0
HATCH
  5
C9
100
AcDbEntity
  8
0
370
              -2
390
0
  6
Continuous
 62
               0
100
AcDbHatch
 10
0.0
 20
0.0
 30
0.0
210
0.0
220
0.0
230
1.0
  2
SOLID
 70
               1
 71
               1
 91
        1
 92
        1
 93
        1
 72
               2
 10
-44.424072371471993
 20
298.42088419993968
 40
4.99969482421875
 50
0.0
 51
360.0
 73
               0
 97
        1
330
C8
 75
               0
 76
               1
 98
        1
 10
0.0
 20
0.0
  0
MTEXT
  5
CA
100
AcDbEntity
  8
0
390
0
 62
               0
100
AcDbMText
 10
-78.301689558972157
 20
694.60838251776477
 30
0.0
 40
24.432617187500004
 41
0.0
 71
               1
 72
               1
  1
840
  7
ＭＳ ゴシック
 11
0.0
 21
1.0
 31
0.0
 73
               1
 44
0.7828267384257843
  0
POINT
  5
CB
100
AcDbEntity
  8
Defpoints
370
               0
390
0
 62
               0
100
AcDbPoint
 10
-177.89448178848215
 20
298.42088419993968
 30
0.0
  0
POINT
  5
CC
100
AcDbEntity
  8
Defpoints
370
               0
390
0
 62
               0
100
AcDbPoint
 10
-177.89448178848215
 20
1138.4208841999409
 30
0.0
  0
POINT
  5
CD
100
AcDbEntity
  8
Defpoints
370
               0
390
0
 62
               0
100
AcDbPoint
 10
-44.424072371471993
 20
1138.4208841999409
 30
0.0
  0
ENDBLK
  5
CE
100
AcDbEntity
  8
notes
390
0
100
AcDbBlockEnd
  0
BLOCK
  5
CF
100
AcDbEntity
  8
notes
390
0
100
AcDbBlockBegin
  2
*D11
 70
               1
 10
0.0
 20
0.0
 30
0.0
  3
*D11
  1

  0
LINE
  5
D0
100
AcDbEntity
  8
0
370
              -2
390
0
  6
Continuous
 62
               0
100
AcDbLine
 10
-177.89448178848215
 20
1163.4208841999409
 30
0.0
 11
-177.89448178848215
 21
1268.4208813947057
 31
0.0
  0
LINE
  5
D1
100
AcDbEntity
  8
0
370
              -2
390
0
  6
Continuous
 62
               0
100
AcDbLine
 10
-567.89448178848215
 20
1163.4208841999409
 30
0.0
 11
-567.89448178848215
 21
1268.4208813947057
 31
0.0
  0
LINE
  5
D2
100
AcDbEntity
  8
0
370
              -2
390
0
  6
Continuous
 62
               0
100
AcDbLine
 10
-177.89448178848215
 20
1268.4208813947057
 30
0.0
 11
-567.89448178848215
 21
1268.4208813947057
 31
0.0
  0
CIRCLE
  5
D3
102
{ACAD_REACTORS
330
D4
102
}
100
AcDbEntity
  8
0
370
              -2
390
0
  6
Continuous
 62
               0
100
AcDbCircle
 10
-177.89448178848215
 20
1268.4208813947057
 30
0.0
 40
4.99969482421875
  0
HATCH
  5
D4
100
AcDbEntity
  8
0
370
              -2
390
0
  6
Continuous
 62
               0
100
AcDbHatch
 10
0.0
 20
0.0
 30
0.0
210
0.0
220
0.0
230
1.0
  2
SOLID
 70
               1
 71
               1
 91
        1
 92
        1
 93
        1
 72
               2
 10
-177.89448178848215
 20
1268.4208813947057
 40
4.99969482421875
 50
0.0
 51
360.0
 73
               0
 97
        1
330
D3
 75
               0
 76
               1
 98
        1
 10
0.0
 20
0.0
  0
CIRCLE
  5
D5
102
{ACAD_REACTORS
330
D6
102
}
100
AcDbEntity
  8
0
370
              -2
390
0
  6
Continuous
 62
               0
100
AcDbCircle
 10
-567.89448178848215
 20
1268.4208813947057
 30
0.0
 40
4.99969482421875
  0
HATCH
  5
D6
100
AcDbEntity
  8
0
370
              -2
390
0
  6
Continuous
 62
               0
100
AcDbHatch
 10
0.0
 20
0.0
 30
0.0
210
0.0
220
0.0
230
1.0
  2
SOLID
 70
               1
 71
               1
 91
        1
 92
        1
 93
        1
 72
               2
 10
-567.89448178848215
 20
1268.4208813947057
 40
4.99969482421875
 50
0.0
 51
360.0
 73
               0
 97
        1
330
D5
 75
               0
 76
               1
 98
        1
 10
0.0
 20
0.0
  0
MTEXT
  5
D7
100
AcDbEntity
  8
0
390
0
 62
               0
100
AcDbMText
 10
-396.70698347065763
 20
1302.2984985822056
 30
0.0
 40
24.432617187500004
 41
0.0
 71
               1
 72
               1
  1
390
  7
ＭＳ ゴシック
 73
               1
 44
0.7828267384257843
  0
POINT
  5
D8
100
AcDbEntity
  8
Defpoints
370
               0
390
0
 62
               0
100
AcDbPoint
 10
-567.89448178848215
 20
1138.4208841999409
 30
0.0
  0
POINT
  5
D9
100
AcDbEntity
  8
Defpoints
370
               0
390
0
 62
               0
100
AcDbPoint
 10
-177.89448178848215
 20
1138.4208841999409
 30
0.0
  0
POINT
  5
DA
100
AcDbEntity
  8
Defpoints
370
               0
390
0
 62
               0
100
AcDbPoint
 10
-177.89448178848215
 20
1268.4208813947057
 30
0.0
  0
ENDBLK
  5
DB
100
AcDbEntity
  8
notes
390
0
100
AcDbBlockEnd
  0
BLOCK
  5
DC
100
AcDbEntity
  8
notes
390
0
100
AcDbBlockBegin
  2
*D12
 70
               1
 10
0.0
 20
0.0
 30
0.0
  3
*D12
  1

  0
LINE
  5
DD
100
AcDbEntity
  8
0
370
              -2
390
0
  6
Continuous
 62
               0
100
AcDbLine
 10
-589.89448182539854
 20
-40.008105749738434
 30
0.0
 11
-717.89448158599907
 21
-40.008105749738434
 31
0.0
  0
LINE
  5
DE
100
AcDbEntity
  8
0
370
              -2
390
0
  6
Continuous
 62
               0
100
AcDbLine
 10
-589.89448152122532
 20
-940.00810574408001
 30
0.0
 11
-717.89448158599907
 21
-940.00810574408001
 31
0.0
  0
LINE
  5
DF
100
AcDbEntity
  8
0
370
              -2
390
0
  6
Continuous
 62
               0
100
AcDbLine
 10
-717.89448158599907
 20
-40.008105749738434
 30
0.0
 11
-717.89448158599907
 21
-940.00810574408001
 31
0.0
  0
CIRCLE
  5
E0
102
{ACAD_REACTORS
330
E1
102
}
100
AcDbEntity
  8
0
370
              -2
390
0
  6
Continuous
 62
               0
100
AcDbCircle
 10
-717.89448158599907
 20
-40.008105749738434
 30
0.0
 40
4.99969482421875
  0
HATCH
  5
E1
100
AcDbEntity
  8
0
370
              -2
390
0
  6
Continuous
 62
               0
100
AcDbHatch
 10
0.0
 20
0.0
 30
0.0
210
0.0
220
0.0
230
1.0
  2
SOLID
 70
               1
 71
               1
 91
        1
 92
        1
 93
        1
 72
               2
 10
-717.89448158599907
 20
-40.008105749738434
 40
4.99969482421875
 50
0.0
 51
360.0
 73
               0
 97
        1
330
E0
 75
               0
 76
               1
 98
        1
 10
0.0
 20
0.0
  0
CIRCLE
  5
E2
102
{ACAD_REACTORS
330
E3
102
}
100
AcDbEntity
  8
0
370
              -2
390
0
  6
Continuous
 62
               0
100
AcDbCircle
 10
-717.89448158599907
 20
-940.00810574408001
 30
0.0
 40
4.99969482421875
  0
HATCH
  5
E3
100
AcDbEntity
  8
0
370
              -2
390
0
  6
Continuous
 62
               0
100
AcDbHatch
 10
0.0
 20
0.0
 30
0.0
210
0.0
220
0.0
230
1.0
  2
SOLID
 70
               1
 71
               1
 91
        1
 92
        1
 93
        1
 72
               2
 10
-717.89448158599907
 20
-940.00810574408001
 40
4.99969482421875
 50
0.0
 51
360.0
 73
               0
 97
        1
330
E2
 75
               0
 76
               1
 98
        1
 10
0.0
 20
0.0
  0
MTEXT
  5
E4
100
AcDbEntity
  8
0
390
0
 62
               0
100
AcDbMText
 10
-751.77209877349924
 20
-513.8206074290847
 30
0.0
 40
24.432617187500004
 41
0.0
 71
               1
 72
               1
  1
900
  7
ＭＳ ゴシック
 11
0.0
 21
1.0
 31
0.0
 73
               1
 44
0.7828267384257843
  0
POINT
  5
E5
100
AcDbEntity
  8
Defpoints
370
               0
390
0
 62
               0
100
AcDbPoint
 10
-564.89448152122532
 20
-940.00810574408001
 30
0.0
  0
POINT
  5
E6
100
AcDbEntity
  8
Defpoints
370
               0
390
0
 62
               0
100
AcDbPoint
 10
-564.89448182539854
 20
-40.008105749738434
 30
0.0
  0
POINT
  5
E7
100
AcDbEntity
  8
Defpoints
370
               0
390
0
 62
               0
100
AcDbPoint
 10
-717.89448158599907
 20
-40.008105749738434
 30
0.0
  0
ENDBLK
  5
E8
100
AcDbEntity
  8
notes
390
0
100
AcDbBlockEnd
  0
BLOCK
  5
E9
100
AcDbEntity
  8
notes
390
0
100
AcDbBlockBegin
  2
*D13
 70
               1
 10
0.0
 20
0.0
 30
0.0
  3
*D13
  1

  0
LINE
  5
EA
100
AcDbEntity
  8
0
370
              -2
390
0
  6
Continuous
 62
               0
100
AcDbLine
 10
-567.89448182539854
 20
-18.008105750655204
 30
0.0
 11
-567.89448182539854
 21
59.991894250261566
 31
0.0
  0
LINE
  5
EB
100
AcDbEntity
  8
0
370
              -2
390
0
  6
Continuous
 62
               0
100
AcDbLine
 10
-147.89283489997524
 20
-65.008109298268437
 30
0.0
 11
-147.89283489997524
 21
59.991894250261566
 31
0.0
  0
LINE
  5
EC
100
AcDbEntity
  8
0
370
              -2
390
0
  6
Continuous
 62
               0
100
AcDbLine
 10
-567.89448182539854
 20
59.991894250261566
 30
0.0
 11
-147.89283489997524
 21
59.991894250261566
 31
0.0
  0
CIRCLE
  5
ED
102
{ACAD_REACTORS
330
EE
102
}
100
AcDbEntity
  8
0
370
              -2
390
0
  6
Continuous
 62
               0
100
AcDbCircle
 10
-567.89448182539854
 20
59.991894250261566
 30
0.0
 40
4.99969482421875
  0
HATCH
  5
EE
100
AcDbEntity
  8
0
370
              -2
390
0
  6
Continuous
 62
               0
100
AcDbHatch
 10
0.0
 20
0.0
 30
0.0
210
0.0
220
0.0
230
1.0
  2
SOLID
 70
               1
 71
               1
 91
        1
 92
        1
 93
        1
 72
               2
 10
-567.89448182539854
 20
59.991894250261566
 40
4.99969482421875
 50
0.0
 51
360.0
 73
               0
 97
        1
330
ED
 75
               0
 76
               1
 98
        1
 10
0.0
 20
0.0
  0
CIRCLE
  5
EF
102
{ACAD_REACTORS
330
F0
102
}
100
AcDbEntity
  8
0
370
              -2
390
0
  6
Continuous
 62
               0
100
AcDbCircle
 10
-147.89283489997524
 20
59.991894250261566
 30
0.0
 40
4.99969482421875
  0
HATCH
  5
F0
100
AcDbEntity
  8
0
370
              -2
390
0
  6
Continuous
 62
               0
100
AcDbHatch
 10
0.0
 20
0.0
 30
0.0
210
0.0
220
0.0
230
1.0
  2
SOLID
 70
               1
 71
               1
 91
        1
 92
        1
 93
        1
 72
               2
 10
-147.89283489997524
 20
59.991894250261566
 40
4.99969482421875
 50
0.0
 51
360.0
 73
               0
 97
        1
330
EF
 75
               0
 76
               1
 98
        1
 10
0.0
 20
0.0
  0
MTEXT
  5
F1
100
AcDbEntity
  8
0
390
0
 62
               0
100
AcDbMText
 10
-381.70616004486237
 20
93.869511437761616
 30
0.0
 40
24.432617187500004
 41
0.0
 71
               1
 72
               1
  1
420
  7
ＭＳ ゴシック
 73
               1
 44
0.7828267384257843
  0
POINT
  5
F2
100
AcDbEntity
  8
Defpoints
370
               0
390
0
 62
               0
100
AcDbPoint
 10
-147.89283489997524
 20
-90.008109298268437
 30
0.0
  0
POINT
  5
F3
100
AcDbEntity
  8
Defpoints
370
               0
390
0
 62
               0
100
AcDbPoint
 10
-567.89448182539854
 20
-43.008105750655204
 30
0.0
  0
POINT
  5
F4
100
AcDbEntity
  8
Defpoints
370
               0
390
0
 62
               0
100
AcDbPoint
 10
-567.89448182539854
 20
59.991894250261566
 30
0.0
  0
ENDBLK
  5
F5
100
AcDbEntity
  8
notes
390
0
100
AcDbBlockEnd
  0
BLOCK
  5
F6
100
AcDbEntity
  8
notes
390
0
100
AcDbBlockBegin
  2
*D14
 70
               1
 10
0.0
 20
0.0
 30
0.0
  3
*D14
  1

  0
LINE
  5
F7
100
AcDbEntity
  8
0
370
              -2
390
0
  6
Continuous
 62
               0
100
AcDbLine
 10
-567.89448152122532
 20
-962.00810574499678
 30
0.0
 11
-567.89448152122532
 21
-1040.0081057440798
 31
0.0
  0
LINE
  5
F8
100
AcDbEntity
  8
0
370
              -2
390
0
  6
Continuous
 62
               0
100
AcDbLine
 10
-447.92481186452687
 20
-965.00810574408001
 30
0.0
 11
-447.92481186452687
 21
-1040.0081057440798
 31
0.0
  0
LINE
  5
F9
100
AcDbEntity
  8
0
370
              -2
390
0
  6
Continuous
 62
               0
100
AcDbLine
 10
-567.89448152122532
 20
-1040.0081057440798
 30
0.0
 11
-447.92481186452687
 21
-1040.0081057440798
 31
0.0
  0
CIRCLE
  5
FA
102
{ACAD_REACTORS
330
FB
102
}
100
AcDbEntity
  8
0
370
              -2
390
0
  6
Continuous
 62
               0
100
AcDbCircle
 10
-567.89448152122532
 20
-1040.0081057440798
 30
0.0
 40
4.99969482421875
  0
HATCH
  5
FB
100
AcDbEntity
  8
0
370
              -2
390
0
  6
Continuous
 62
               0
100
AcDbHatch
 10
0.0
 20
0.0
 30
0.0
210
0.0
220
0.0
230
1.0
  2
SOLID
 70
               1
 71
               1
 91
        1
 92
        1
 93
        1
 72
               2
 10
-567.89448152122532
 20
-1040.0081057440798
 40
4.99969482421875
 50
0.0
 51
360.0
 73
               0
 97
        1
330
FA
 75
               0
 76
               1
 98
        1
 10
0.0
 20
0.0
  0
CIRCLE
  5
FC
102
{ACAD_REACTORS
330
FD
102
}
100
AcDbEntity
  8
0
370
              -2
390
0
  6
Continuous
 62
               0
100
AcDbCircle
 10
-447.92481186452687
 20
-1040.0081057440798
 30
0.0
 40
4.99969482421875
  0
HATCH
  5
FD
100
AcDbEntity
  8
0
370
              -2
390
0
  6
Continuous
 62
               0
100
AcDbHatch
 10
0.0
 20
0.0
 30
0.0
210
0.0
220
0.0
230
1.0
  2
SOLID
 70
               1
 71
               1
 91
        1
 92
        1
 93
        1
 72
               2
 10
-447.92481186452687
 20
-1040.0081057440798
 40
4.99969482421875
 50
0.0
 51
360.0
 73
               0
 97
        1
330
FC
 75
               0
 76
               1
 98
        1
 10
0.0
 20
0.0
  0
MTEXT
  5
FE
100
AcDbEntity
  8
0
390
0
 62
               0
100
AcDbMText
 10
-531.72214837505135
 20
-1006.1304885565796
 30
0.0
 40
24.432617187500004
 41
0.0
 71
               1
 72
               1
  1
120
  7
ＭＳ ゴシック
 73
               1
 44
0.7828267384257843
  0
POINT
  5
FF
100
AcDbEntity
  8
Defpoints
370
               0
390
0
 62
               0
100
AcDbPoint
 10
-447.92481186452687
 20
-940.00810574408001
 30
0.0
  0
POINT
  5
100
100
AcDbEntity
  8
Defpoints
370
               0
390
0
 62
               0
100
AcDbPoint
 10
-567.89448152122532
 20
-937.00810574499678
 30
0.0
  0
POINT
  5
101
100
AcDbEntity
  8
Defpoints
370
               0
390
0
 62
               0
100
AcDbPoint
 10
-567.89448152122532
 20
-1040.0081057440798
 30
0.0
  0
ENDBLK
  5
102
100
AcDbEntity
  8
notes
390
0
100
AcDbBlockEnd
  0
BLOCK
  5
103
100
AcDbEntity
  8
notes
390
0
100
AcDbBlockBegin
  2
*D15
 70
               1
 10
0.0
 20
0.0
 30
0.0
  3
*D15
  1

  0
LINE
  5
104
100
AcDbEntity
  8
0
370
              -2
390
0
  6
Continuous
 62
               0
100
AcDbLine
 10
-447.75366218231011
 20
-965.00810574408001
 30
0.0
 11
-447.75366218231011
 21
-1040.0081057440798
 31
0.0
  0
LINE
  5
105
100
AcDbEntity
  8
0
370
              -2
390
0
  6
Continuous
 62
               0
100
AcDbLine
 10
-162.73709741637049
 20
-950.56192581992877
 30
0.0
 11
-162.73709741637049
 21
-1040.0081057440798
 31
0.0
  0
LINE
  5
106
100
AcDbEntity
  8
0
370
              -2
390
0
  6
Continuous
 62
               0
100
AcDbLine
 10
-447.75366218231011
 20
-1040.0081057440798
 30
0.0
 11
-162.73709741637049
 21
-1040.0081057440798
 31
0.0
  0
CIRCLE
  5
107
102
{ACAD_REACTORS
330
108
102
}
100
AcDbEntity
  8
0
370
              -2
390
0
  6
Continuous
 62
               0
100
AcDbCircle
 10
-447.75366218231011
 20
-1040.0081057440798
 30
0.0
 40
4.99969482421875
  0
HATCH
  5
108
100
AcDbEntity
  8
0
370
              -2
390
0
  6
Continuous
 62
               0
100
AcDbHatch
 10
0.0
 20
0.0
 30
0.0
210
0.0
220
0.0
230
1.0
  2
SOLID
 70
               1
 71
               1
 91
        1
 92
        1
 93
        1
 72
               2
 10
-447.75366218231011
 20
-1040.0081057440798
 40
4.99969482421875
 50
0.0
 51
360.0
 73
               0
 97
        1
330
107
 75
               0
 76
               1
 98
        1
 10
0.0
 20
0.0
  0
CIRCLE
  5
109
102
{ACAD_REACTORS
330
10A
102
}
100
AcDbEntity
  8
0
370
              -2
390
0
  6
Continuous
 62
               0
100
AcDbCircle
 10
-162.73709741637049
 20
-1040.0081057440798
 30
0.0
 40
4.99969482421875
  0
HATCH
  5
10A
100
AcDbEntity
  8
0
370
              -2
390
0
  6
Continuous
 62
               0
100
AcDbHatch
 10
0.0
 20
0.0
 30
0.0
210
0.0
220
0.0
230
1.0
  2
SOLID
 70
               1
 71
               1
 91
        1
 92
        1
 93
        1
 72
               2
 10
-162.73709741637049
 20
-1040.0081057440798
 40
4.99969482421875
 50
0.0
 51
360.0
 73
               0
 97
        1
330
109
 75
               0
 76
               1
 98
        1
 10
0.0
 20
0.0
  0
MTEXT
  5
10B
100
AcDbEntity
  8
0
390
0
 62
               0
100
AcDbMText
 10
-329.05788148151578
 20
-1006.1304885565796
 30
0.0
 40
24.432617187500004
 41
0.0
 71
               1
 72
               1
  1
285
  7
ＭＳ ゴシック
 73
               1
 44
0.7828267384257843
  0
POINT
  5
10C
100
AcDbEntity
  8
Defpoints
370
               0
390
0
 62
               0
100
AcDbPoint
 10
-162.73709741637049
 20
-925.56192581992877
 30
0.0
  0
POINT
  5
10D
100
AcDbEntity
  8
Defpoints
370
               0
390
0
 62
               0
100
AcDbPoint
 10
-447.75366218231011
 20
-940.00810574408001
 30
0.0
  0
POINT
  5
10E
100
AcDbEntity
  8
Defpoints
370
               0
390
0
 62
               0
100
AcDbPoint
 10
-447.75366218231011
 20
-1040.0081057440798
 30
0.0
  0
ENDBLK
  5
10F
100
AcDbEntity
  8
notes
390
0
100
AcDbBlockEnd
  0
BLOCK
  5
110
100
AcDbEntity
  8
notes
390
0
100
AcDbBlockBegin
  2
*D16
 70
               1
 10
0.0
 20
0.0
 30
0.0
  3
*D16
  1

  0
LINE
  5
111
100
AcDbEntity
  8
0
370
              -2
390
0
  6
Continuous
 62
               0
100
AcDbLine
 10
-136.99364915685146
 20
-925.02615542762555
 30
0.0
 11
-47.892834899947957
 21
-925.02615542762555
 31
0.0
  0
LINE
  5
112
100
AcDbEntity
  8
0
370
              -2
390
0
  6
Continuous
 62
               0
100
AcDbLine
 10
-136.99364915685101
 20
-55.040061799971681
 30
0.0
 11
-47.892834899947957
 21
-55.040061799971681
 31
0.0
  0
LINE
  5
113
100
AcDbEntity
  8
0
370
              -2
390
0
  6
Continuous
 62
               0
100
AcDbLine
 10
-47.892834899947957
 20
-925.02615542762555
 30
0.0
 11
-47.892834899947957
 21
-55.040061799971681
 31
0.0
  0
CIRCLE
  5
114
102
{ACAD_REACTORS
330
115
102
}
100
AcDbEntity
  8
0
370
              -2
390
0
  6
Continuous
 62
               0
100
AcDbCircle
 10
-47.892834899947957
 20
-925.02615542762555
 30
0.0
 40
4.99969482421875
  0
HATCH
  5
115
100
AcDbEntity
  8
0
370
              -2
390
0
  6
Continuous
 62
               0
100
AcDbHatch
 10
0.0
 20
0.0
 30
0.0
210
0.0
220
0.0
230
1.0
  2
SOLID
 70
               1
 71
               1
 91
        1
 92
        1
 93
        1
 72
               2
 10
-47.892834899947957
 20
-925.02615542762555
 40
4.99969482421875
 50
0.0
 51
360.0
 73
               0
 97
        1
330
114
 75
               0
 76
               1
 98
        1
 10
0.0
 20
0.0
  0
CIRCLE
  5
116
102
{ACAD_REACTORS
330
117
102
}
100
AcDbEntity
  8
0
370
              -2
390
0
  6
Continuous
 62
               0
100
AcDbCircle
 10
-47.892834899947957
 20
-55.040061799971681
 30
0.0
 40
4.99969482421875
  0
HATCH
  5
117
100
AcDbEntity
  8
0
370
              -2
390
0
  6
Continuous
 62
               0
100
AcDbHatch
 10
0.0
 20
0.0
 30
0.0
210
0.0
220
0.0
230
1.0
  2
SOLID
 70
               1
 71
               1
 91
        1
 92
        1
 93
        1
 72
               2
 10
-47.892834899947957
 20
-55.040061799971681
 40
4.99969482421875
 50
0.0
 51
360.0
 73
               0
 97
        1
330
116
 75
               0
 76
               1
 98
        1
 10
0.0
 20
0.0
  0
MTEXT
  5
118
100
AcDbEntity
  8
0
390
0
 62
               0
100
AcDbMText
 10
-81.77045208744812
 20
-513.84561029597398
 30
0.0
 40
24.432617187500004
 41
0.0
 71
               1
 72
               1
  1
870
  7
ＭＳ ゴシック
 11
0.0
 21
1.0
 31
0.0
 73
               1
 44
0.7828267384257843
  0
POINT
  5
119
100
AcDbEntity
  8
Defpoints
370
               0
390
0
 62
               0
100
AcDbPoint
 10
-161.99364915685101
 20
-55.040061799971681
 30
0.0
  0
POINT
  5
11A
100
AcDbEntity
  8
Defpoints
370
               0
390
0
 62
               0
100
AcDbPoint
 10
-161.99364915685146
 20
-925.02615542762555
 30
0.0
  0
POINT
  5
11B
100
AcDbEntity
  8
Defpoints
370
               0
390
0
 62
               0
100
AcDbPoint
 10
-47.892834899947957
 20
-925.02615542762555
 30
0.0
  0
ENDBLK
  5
11C
100
AcDbEntity
  8
notes
390
0
100
AcDbBlockEnd
  0
BLOCK
  5
11D
100
AcDbEntity
  8
notes
390
0
100
AcDbBlockBegin
  2
*D17
 70
               1
 10
0.0
 20
0.0
 30
0.0
  3
*D17
  1

  0
LINE
  5
11E
100
AcDbEntity
  8
0
370
              -2
390
0
  6
Continuous
 62
               0
100
AcDbLine
 10
526.06625452771959
 20
-350.0289437098711
 30
0.0
 11
431.08839862373998
 21
-350.0289437098711
 31
0.0
  0
LINE
  5
11F
100
AcDbEntity
  8
0
370
              -2
390
0
  6
Continuous
 62
               0
100
AcDbLine
 10
526.06625452771959
 20
-630.02894370987065
 30
0.0
 11
431.08839862373998
 21
-630.02894370987065
 31
0.0
  0
LINE
  5
120
100
AcDbEntity
  8
0
370
              -2
390
0
  6
Continuous
 62
               0
100
AcDbLine
 10
431.08839862373998
 20
-350.0289437098711
 30
0.0
 11
431.08839862373998
 21
-630.02894370987065
 31
0.0
  0
CIRCLE
  5
121
102
{ACAD_REACTORS
330
122
102
}
100
AcDbEntity
  8
0
370
              -2
390
0
  6
Continuous
 62
               0
100
AcDbCircle
 10
431.08839862373998
 20
-350.0289437098711
 30
0.0
 40
4.99969482421875
  0
HATCH
  5
122
100
AcDbEntity
  8
0
370
              -2
390
0
  6
Continuous
 62
               0
100
AcDbHatch
 10
0.0
 20
0.0
 30
0.0
210
0.0
220
0.0
230
1.0
  2
SOLID
 70
               1
 71
               1
 91
        1
 92
        1
 93
        1
 72
               2
 10
431.08839862373998
 20
-350.0289437098711
 40
4.99969482421875
 50
0.0
 51
360.0
 73
               0
 97
        1
330
121
 75
               0
 76
               1
 98
        1
 10
0.0
 20
0.0
  0
CIRCLE
  5
123
102
{ACAD_REACTORS
330
124
102
}
100
AcDbEntity
  8
0
370
              -2
390
0
  6
Continuous
 62
               0
100
AcDbCircle
 10
431.08839862373998
 20
-630.02894370987065
 30
0.0
 40
4.99969482421875
  0
HATCH
  5
124
100
AcDbEntity
  8
0
370
              -2
390
0
  6
Continuous
 62
               0
100
AcDbHatch
 10
0.0
 20
0.0
 30
0.0
210
0.0
220
0.0
230
1.0
  2
SOLID
 70
               1
 71
               1
 91
        1
 92
        1
 93
        1
 72
               2
 10
431.08839862373998
 20
-630.02894370987065
 40
4.99969482421875
 50
0.0
 51
360.0
 73
               0
 97
        1
330
123
 75
               0
 76
               1
 98
        1
 10
0.0
 20
0.0
  0
MTEXT
  5
125
100
AcDbEntity
  8
0
390
0
 62
               0
100
AcDbMText
 10
397.21078143623981
 20
-513.84144539204635
 30
0.0
 40
24.432617187500004
 41
0.0
 71
               1
 72
               1
  1
280
  7
ＭＳ ゴシック
 11
0.0
 21
1.0
 31
0.0
 73
               1
 44
0.7828267384257843
  0
POINT
  5
126
100
AcDbEntity
  8
Defpoints
370
               0
390
0
 62
               0
100
AcDbPoint
 10
551.06625452771959
 20
-630.02894370987065
 30
0.0
  0
POINT
  5
127
100
AcDbEntity
  8
Defpoints
370
               0
390
0
 62
               0
100
AcDbPoint
 10
551.06625452771959
 20
-350.0289437098711
 30
0.0
  0
POINT
  5
128
100
AcDbEntity
  8
Defpoints
370
               0
390
0
 62
               0
100
AcDbPoint
 10
431.08839862373998
 20
-350.0289437098711
 30
0.0
  0
ENDBLK
  5
129
100
AcDbEntity
  8
notes
390
0
100
AcDbBlockEnd
  0
BLOCK
  5
12A
100
AcDbEntity
  8
notes
390
0
100
AcDbBlockBegin
  2
*D18
 70
               1
 10
0.0
 20
0.0
 30
0.0
  3
*D18
  1

  0
LINE
  5
12B
100
AcDbEntity
  8
0
370
              -2
390
0
  6
Continuous
 62
               0
100
AcDbLine
 10
571.06454199006839
 20
-675.0306562475223
 30
0.0
 11
571.06454199006839
 21
-1040.0081057440807
 31
0.0
  0
LINE
  5
12C
100
AcDbEntity
  8
0
370
              -2
390
0
  6
Continuous
 62
               0
100
AcDbLine
 10
531.08839862373998
 20
-959.0306562475223
 30
0.0
 11
531.08839862373998
 21
-1040.0081057440807
 31
0.0
  0
LINE
  5
12D
100
AcDbEntity
  8
0
370
              -2
390
0
  6
Continuous
 62
               0
100
AcDbLine
 10
571.06454199006839
 20
-1040.0081057440807
 30
0.0
 11
531.08839862373998
 21
-1040.0081057440807
 31
0.0
  0
CIRCLE
  5
12E
102
{ACAD_REACTORS
330
12F
102
}
100
AcDbEntity
  8
0
370
              -2
390
0
  6
Continuous
 62
               0
100
AcDbCircle
 10
571.06454199006839
 20
-1040.0081057440807
 30
0.0
 40
4.99969482421875
  0
HATCH
  5
12F
100
AcDbEntity
  8
0
370
              -2
390
0
  6
Continuous
 62
               0
100
AcDbHatch
 10
0.0
 20
0.0
 30
0.0
210
0.0
220
0.0
230
1.0
  2
SOLID
 70
               1
 71
               1
 91
        1
 92
        1
 93
        1
 72
               2
 10
571.06454199006839
 20
-1040.0081057440807
 40
4.99969482421875
 50
0.0
 51
360.0
 73
               0
 97
        1
330
12E
 75
               0
 76
               1
 98
        1
 10
0.0
 20
0.0
  0
CIRCLE
  5
130
102
{ACAD_REACTORS
330
131
102
}
100
AcDbEntity
  8
0
370
              -2
390
0
  6
Continuous
 62
               0
100
AcDbCircle
 10
531.08839862373998
 20
-1040.0081057440807
 30
0.0
 40
4.99969482421875
  0
HATCH
  5
131
100
AcDbEntity
  8
0
370
              -2
390
0
  6
Continuous
 62
               0
100
AcDbHatch
 10
0.0
 20
0.0
 30
0.0
210
0.0
220
0.0
230
1.0
  2
SOLID
 70
               1
 71
               1
 91
        1
 92
        1
 93
        1
 72
               2
 10
531.08839862373998
 20
-1040.0081057440807
 40
4.99969482421875
 50
0.0
 51
360.0
 73
               0
 97
        1
330
130
 75
               0
 76
               1
 98
        1
 10
0.0
 20
0.0
  0
MTEXT
  5
132
100
AcDbEntity
  8
0
390
0
 62
               0
100
AcDbMText
 10
535.20147030690441
 20
-1006.1304885565805
 30
0.0
 40
24.432617187500004
 41
0.0
 71
               1
 72
               1
  1
40
  7
ＭＳ ゴシック
 73
               1
 44
0.7828267384257843
  0
POINT
  5
133
100
AcDbEntity
  8
Defpoints
370
               0
390
0
 62
               0
100
AcDbPoint
 10
531.08839862373998
 20
-934.0306562475223
 30
0.0
  0
POINT
  5
134
100
AcDbEntity
  8
Defpoints
370
               0
390
0
 62
               0
100
AcDbPoint
 10
571.06454199006839
 20
-650.0306562475223
 30
0.0
  0
POINT
  5
135
100
AcDbEntity
  8
Defpoints
370
               0
390
0
 62
               0
100
AcDbPoint
 10
571.06454199006839
 20
-1040.0081057440807
 30
0.0
  0
ENDBLK
  5
136
100
AcDbEntity
  8
notes
390
0
100
AcDbBlockEnd
  0
BLOCK
  5
137
100
AcDbEntity
  8
notes
390
0
100
AcDbBlockBegin
  2
*D19
 70
               1
 10
0.0
 20
0.0
 30
0.0
  3
*D19
  1

  0
LINE
  5
138
100
AcDbEntity
  8
0
370
              -2
390
0
  6
Continuous
 62
               0
100
AcDbLine
 10
531.08839862373998
 20
-21.030656247522302
 30
0.0
 11
531.08839862373998
 21
59.991888516483186
 31
0.0
  0
LINE
  5
139
100
AcDbEntity
  8
0
370
              -2
390
0
  6
Continuous
 62
               0
100
AcDbLine
 10
691.12256838971371
 20
-427.88433137076913
 30
0.0
 11
691.12256838971371
 21
59.991888516483186
 31
0.0
  0
LINE
  5
13A
100
AcDbEntity
  8
0
370
              -2
390
0
  6
Continuous
 62
               0
100
AcDbLine
 10
531.08839862373998
 20
59.991888516483186
 30
0.0
 11
691.12256838971371
 21
59.991888516483186
 31
0.0
  0
CIRCLE
  5
13B
102
{ACAD_REACTORS
330
13C
102
}
100
AcDbEntity
  8
0
370
              -2
390
0
  6
Continuous
 62
               0
100
AcDbCircle
 10
531.08839862373998
 20
59.991888516483186
 30
0.0
 40
4.99969482421875
  0
HATCH
  5
13C
100
AcDbEntity
  8
0
370
              -2
390
0
  6
Continuous
 62
               0
100
AcDbHatch
 10
0.0
 20
0.0
 30
0.0
210
0.0
220
0.0
230
1.0
  2
SOLID
 70
               1
 71
               1
 91
        1
 92
        1
 93
        1
 72
               2
 10
531.08839862373998
 20
59.991888516483186
 40
4.99969482421875
 50
0.0
 51
360.0
 73
               0
 97
        1
330
13B
 75
               0
 76
               1
 98
        1
 10
0.0
 20
0.0
  0
CIRCLE
  5
13D
102
{ACAD_REACTORS
330
13E
102
}
100
AcDbEntity
  8
0
370
              -2
390
0
  6
Continuous
 62
               0
100
AcDbCircle
 10
691.12256838971371
 20
59.991888516483186
 30
0.0
 40
4.99969482421875
  0
HATCH
  5
13E
100
AcDbEntity
  8
0
370
              -2
390
0
  6
Continuous
 62
               0
100
AcDbHatch
 10
0.0
 20
0.0
 30
0.0
210
0.0
220
0.0
230
1.0
  2
SOLID
 70
               1
 71
               1
 91
        1
 92
        1
 93
        1
 72
               2
 10
691.12256838971371
 20
59.991888516483186
 40
4.99969482421875
 50
0.0
 51
360.0
 73
               0
 97
        1
330
13D
 75
               0
 76
               1
 98
        1
 10
0.0
 20
0.0
  0
MTEXT
  5
13F
100
AcDbEntity
  8
0
390
0
 62
               0
100
AcDbMText
 10
587.29298182455159
 20
93.869505703983236
 30
0.0
 40
24.432617187500004
 41
0.0
 71
               1
 72
               1
  1
160
  7
ＭＳ ゴシック
 73
               1
 44
0.7828267384257843
  0
POINT
  5
140
100
AcDbEntity
  8
Defpoints
370
               0
390
0
 62
               0
100
AcDbPoint
 10
691.12256838971371
 20
-452.88433137076913
 30
0.0
  0
POINT
  5
141
100
AcDbEntity
  8
Defpoints
370
               0
390
0
 62
               0
100
AcDbPoint
 10
531.08839862373998
 20
-46.030656247522302
 30
0.0
  0
POINT
  5
142
100
AcDbEntity
  8
Defpoints
370
               0
390
0
 62
               0
100
AcDbPoint
 10
531.08839862373998
 20
59.991888516483186
 30
0.0
  0
ENDBLK
  5
143
100
AcDbEntity
  8
notes
390
0
100
AcDbBlockEnd
  0
BLOCK
  5
144
100
AcDbEntity
  8
notes
390
0
100
AcDbBlockBegin
  2
*D20
 70
               1
 10
0.0
 20
0.0
 30
0.0
  3
*D20
  1

  0
LINE
  5
145
100
AcDbEntity
  8
0
370
              -2
390
0
  6
Continuous
 62
               0
100
AcDbLine
 10
-550.39448167339651
 20
-689.7593303493893
 30
0.0
 11
-667.89448158599907
 21
-689.7593303493893
 31
0.0
  0
LINE
  5
146
100
AcDbEntity
  8
0
370
              -2
390
0
  6
Continuous
 62
               0
100
AcDbLine
 10
-550.39448167339651
 20
-589.7593303493893
 30
0.0
 11
-667.89448158599907
 21
-589.7593303493893
 31
0.0
  0
LINE
  5
147
100
AcDbEntity
  8
0
370
              -2
390
0
  6
Continuous
 62
               0
100
AcDbLine
 10
-667.89448158599907
 20
-689.7593303493893
 30
0.0
 11
-667.89448158599907
 21
-589.7593303493893
 31
0.0
  0
CIRCLE
  5
148
102
{ACAD_REACTORS
330
149
102
}
100
AcDbEntity
  8
0
370
              -2
390
0
  6
Continuous
 62
               0
100
AcDbCircle
 10
-667.89448158599907
 20
-689.7593303493893
 30
0.0
 40
4.99969482421875
  0
HATCH
  5
149
100
AcDbEntity
  8
0
370
              -2
390
0
  6
Continuous
 62
               0
100
AcDbHatch
 10
0.0
 20
0.0
 30
0.0
210
0.0
220
0.0
230
1.0
  2
SOLID
 70
               1
 71
               1
 91
        1
 92
        1
 93
        1
 72
               2
 10
-667.89448158599907
 20
-689.7593303493893
 40
4.99969482421875
 50
0.0
 51
360.0
 73
               0
 97
        1
330
148
 75
               0
 76
               1
 98
        1
 10
0.0
 20
0.0
  0
CIRCLE
  5
14A
102
{ACAD_REACTORS
330
14B
102
}
100
AcDbEntity
  8
0
370
              -2
390
0
  6
Continuous
 62
               0
100
AcDbCircle
 10
-667.89448158599907
 20
-589.7593303493893
 30
0.0
 40
4.99969482421875
  0
HATCH
  5
14B
100
AcDbEntity
  8
0
370
              -2
390
0
  6
Continuous
 62
               0
100
AcDbHatch
 10
0.0
 20
0.0
 30
0.0
210
0.0
220
0.0
230
1.0
  2
SOLID
 70
               1
 71
               1
 91
        1
 92
        1
 93
        1
 72
               2
 10
-667.89448158599907
 20
-589.7593303493893
 40
4.99969482421875
 50
0.0
 51
360.0
 73
               0
 97
        1
330
14A
 75
               0
 76
               1
 98
        1
 10
0.0
 20
0.0
  0
MTEXT
  5
14C
100
AcDbEntity
  8
0
390
0
 62
               0
100
AcDbMText
 10
-701.77209877349924
 20
-663.57183203156478
 30
0.0
 40
24.432617187500004
 41
0.0
 71
               1
 72
               1
  1
100
  7
ＭＳ ゴシック
 11
0.0
 21
1.0
 31
0.0
 73
               1
 44
0.7828267384257843
  0
POINT
  5
14D
100
AcDbEntity
  8
Defpoints
370
               0
390
0
 62
               0
100
AcDbPoint
 10
-525.39448167339651
 20
-589.7593303493893
 30
0.0
  0
POINT
  5
14E
100
AcDbEntity
  8
Defpoints
370
               0
390
0
 62
               0
100
AcDbPoint
 10
-525.39448167339651
 20
-689.7593303493893
 30
0.0
  0
POINT
  5
14F
100
AcDbEntity
  8
Defpoints
370
               0
390
0
 62
               0
100
AcDbPoint
 10
-667.89448158599907
 20
-689.7593303493893
 30
0.0
  0
ENDBLK
  5
150
100
AcDbEntity
  8
notes
390
0
100
AcDbBlockEnd
  0
BLOCK
  5
151
100
AcDbEntity
  8
notes
390
0
100
AcDbBlockBegin
  2
*D21
 70
               1
 10
0.0
 20
0.0
 30
0.0
  3
*D21
  1

  0
LINE
  5
152
100
AcDbEntity
  8
0
370
              -2
390
0
  6
Continuous
 62
               0
100
AcDbLine
 10
-550.39448167339651
 20
-589.7593303493893
 30
0.0
 11
-667.89448158599907
 21
-589.7593303493893
 31
0.0
  0
LINE
  5
153
100
AcDbEntity
  8
0
370
              -2
390
0
  6
Continuous
 62
               0
100
AcDbLine
 10
-550.39448167339651
 20
-489.75933034938953
 30
0.0
 11
-667.89448158599907
 21
-489.75933034938953
 31
0.0
  0
LINE
  5
154
100
AcDbEntity
  8
0
370
              -2
390
0
  6
Continuous
 62
               0
100
AcDbLine
 10
-667.89448158599907
 20
-589.7593303493893
 30
0.0
 11
-667.89448158599907
 21
-489.75933034938953
 31
0.0
  0
CIRCLE
  5
155
102
{ACAD_REACTORS
330
156
102
}
100
AcDbEntity
  8
0
370
              -2
390
0
  6
Continuous
 62
               0
100
AcDbCircle
 10
-667.89448158599907
 20
-589.7593303493893
 30
0.0
 40
4.99969482421875
  0
HATCH
  5
156
100
AcDbEntity
  8
0
370
              -2
390
0
  6
Continuous
 62
               0
100
AcDbHatch
 10
0.0
 20
0.0
 30
0.0
210
0.0
220
0.0
230
1.0
  2
SOLID
 70
               1
 71
               1
 91
        1
 92
        1
 93
        1
 72
               2
 10
-667.89448158599907
 20
-589.7593303493893
 40
4.99969482421875
 50
0.0
 51
360.0
 73
               0
 97
        1
330
155
 75
               0
 76
               1
 98
        1
 10
0.0
 20
0.0
  0
CIRCLE
  5
157
102
{ACAD_REACTORS
330
158
102
}
100
AcDbEntity
  8
0
370
              -2
390
0
  6
Continuous
 62
               0
100
AcDbCircle
 10
-667.89448158599907
 20
-489.75933034938953
 30
0.0
 40
4.99969482421875
  0
HATCH
  5
158
100
AcDbEntity
  8
0
370
              -2
390
0
  6
Continuous
 62
               0
100
AcDbHatch
 10
0.0
 20
0.0
 30
0.0
210
0.0
220
0.0
230
1.0
  2
SOLID
 70
               1
 71
               1
 91
        1
 92
        1
 93
        1
 72
               2
 10
-667.89448158599907
 20
-489.75933034938953
 40
4.99969482421875
 50
0.0
 51
360.0
 73
               0
 97
        1
330
157
 75
               0
 76
               1
 98
        1
 10
0.0
 20
0.0
  0
MTEXT
  5
159
100
AcDbEntity
  8
0
390
0
 62
               0
100
AcDbMText
 10
-701.77209877349924
 20
-563.57183203156501
 30
0.0
 40
24.432617187500004
 41
0.0
 71
               1
 72
               1
  1
100
  7
ＭＳ ゴシック
 11
0.0
 21
1.0
 31
0.0
 73
               1
 44
0.7828267384257843
  0
POINT
  5
15A
100
AcDbEntity
  8
Defpoints
370
               0
390
0
 62
               0
100
AcDbPoint
 10
-525.39448167339651
 20
-489.75933034938953
 30
0.0
  0
POINT
  5
15B
100
AcDbEntity
  8
Defpoints
370
               0
390
0
 62
               0
100
AcDbPoint
 10
-525.39448167339651
 20
-589.7593303493893
 30
0.0
  0
POINT
  5
15C
100
AcDbEntity
  8
Defpoints
370
               0
390
0
 62
               0
100
AcDbPoint
 10
-667.89448158599907
 20
-589.7593303493893
 30
0.0
  0
ENDBLK
  5
15D
100
AcDbEntity
  8
notes
390
0
100
AcDbBlockEnd
  0
BLOCK
  5
15E
100
AcDbEntity
  8
notes
390
0
100
AcDbBlockBegin
  2
*D22
 70
               1
 10
0.0
 20
0.0
 30
0.0
  3
*D22
  1

  0
LINE
  5
15F
100
AcDbEntity
  8
0
370
              -2
390
0
  6
Continuous
 62
               0
100
AcDbLine
 10
-550.39448167339651
 20
-489.75933034938953
 30
0.0
 11
-667.89448158599907
 21
-489.75933034938953
 31
0.0
  0
LINE
  5
160
100
AcDbEntity
  8
0
370
              -2
390
0
  6
Continuous
 62
               0
100
AcDbLine
 10
-550.39448167339651
 20
-389.75933034938953
 30
0.0
 11
-667.89448158599907
 21
-389.75933034938953
 31
0.0
  0
LINE
  5
161
100
AcDbEntity
  8
0
370
              -2
390
0
  6
Continuous
 62
               0
100
AcDbLine
 10
-667.89448158599907
 20
-489.75933034938953
 30
0.0
 11
-667.89448158599907
 21
-389.75933034938953
 31
0.0
  0
CIRCLE
  5
162
102
{ACAD_REACTORS
330
163
102
}
100
AcDbEntity
  8
0
370
              -2
390
0
  6
Continuous
 62
               0
100
AcDbCircle
 10
-667.89448158599907
 20
-489.75933034938953
 30
0.0
 40
4.99969482421875
  0
HATCH
  5
163
100
AcDbEntity
  8
0
370
              -2
390
0
  6
Continuous
 62
               0
100
AcDbHatch
 10
0.0
 20
0.0
 30
0.0
210
0.0
220
0.0
230
1.0
  2
SOLID
 70
               1
 71
               1
 91
        1
 92
        1
 93
        1
 72
               2
 10
-667.89448158599907
 20
-489.75933034938953
 40
4.99969482421875
 50
0.0
 51
360.0
 73
               0
 97
        1
330
162
 75
               0
 76
               1
 98
        1
 10
0.0
 20
0.0
  0
CIRCLE
  5
164
102
{ACAD_REACTORS
330
165
102
}
100
AcDbEntity
  8
0
370
              -2
390
0
  6
Continuous
 62
               0
100
AcDbCircle
 10
-667.89448158599907
 20
-389.75933034938953
 30
0.0
 40
4.99969482421875
  0
HATCH
  5
165
100
AcDbEntity
  8
0
370
              -2
390
0
  6
Continuous
 62
               0
100
AcDbHatch
 10
0.0
 20
0.0
 30
0.0
210
0.0
220
0.0
230
1.0
  2
SOLID
 70
               1
 71
               1
 91
        1
 92
        1
 93
        1
 72
               2
 10
-667.89448158599907
 20
-389.75933034938953
 40
4.99969482421875
 50
0.0
 51
360.0
 73
               0
 97
        1
330
164
 75
               0
 76
               1
 98
        1
 10
0.0
 20
0.0
  0
MTEXT
  5
166
100
AcDbEntity
  8
0
390
0
 62
               0
100
AcDbMText
 10
-701.77209877349924
 20
-463.57183203156501
 30
0.0
 40
24.432617187500004
 41
0.0
 71
               1
 72
               1
  1
100
  7
ＭＳ ゴシック
 11
0.0
 21
1.0
 31
0.0
 73
               1
 44
0.7828267384257843
  0
POINT
  5
167
100
AcDbEntity
  8
Defpoints
370
               0
390
0
 62
               0
100
AcDbPoint
 10
-525.39448167339651
 20
-389.75933034938953
 30
0.0
  0
POINT
  5
168
100
AcDbEntity
  8
Defpoints
370
               0
390
0
 62
               0
100
AcDbPoint
 10
-525.39448167339651
 20
-489.75933034938953
 30
0.0
  0
POINT
  5
169
100
AcDbEntity
  8
Defpoints
370
               0
390
0
 62
               0
100
AcDbPoint
 10
-667.89448158599907
 20
-489.75933034938953
 30
0.0
  0
ENDBLK
  5
16A
100
AcDbEntity
  8
notes
390
0
100
AcDbBlockEnd
  0
BLOCK
  5
16B
100
AcDbEntity
  8
notes
390
0
100
AcDbBlockBegin
  2
*D23
 70
               1
 10
0.0
 20
0.0
 30
0.0
  3
*D23
  1

  0
LINE
  5
16C
100
AcDbEntity
  8
0
370
              -2
390
0
  6
Continuous
 62
               0
100
AcDbLine
 10
-550.39448167339651
 20
-389.75933034938953
 30
0.0
 11
-667.89448158599907
 21
-389.75933034938953
 31
0.0
  0
LINE
  5
16D
100
AcDbEntity
  8
0
370
              -2
390
0
  6
Continuous
 62
               0
100
AcDbLine
 10
-550.39448167339651
 20
-289.75933034938953
 30
0.0
 11
-667.89448158599907
 21
-289.75933034938953
 31
0.0
  0
LINE
  5
16E
100
AcDbEntity
  8
0
370
              -2
390
0
  6
Continuous
 62
               0
100
AcDbLine
 10
-667.89448158599907
 20
-389.75933034938953
 30
0.0
 11
-667.89448158599907
 21
-289.75933034938953
 31
0.0
  0
CIRCLE
  5
16F
102
{ACAD_REACTORS
330
170
102
}
100
AcDbEntity
  8
0
370
              -2
390
0
  6
Continuous
 62
               0
100
AcDbCircle
 10
-667.89448158599907
 20
-389.75933034938953
 30
0.0
 40
4.99969482421875
  0
HATCH
  5
170
100
AcDbEntity
  8
0
370
              -2
390
0
  6
Continuous
 62
               0
100
AcDbHatch
 10
0.0
 20
0.0
 30
0.0
210
0.0
220
0.0
230
1.0
  2
SOLID
 70
               1
 71
               1
 91
        1
 92
        1
 93
        1
 72
               2
 10
-667.89448158599907
 20
-389.75933034938953
 40
4.99969482421875
 50
0.0
 51
360.0
 73
               0
 97
        1
330
16F
 75
               0
 76
               1
 98
        1
 10
0.0
 20
0.0
  0
CIRCLE
  5
171
102
{ACAD_REACTORS
330
172
102
}
100
AcDbEntity
  8
0
370
              -2
390
0
  6
Continuous
 62
               0
100
AcDbCircle
 10
-667.89448158599907
 20
-289.75933034938953
 30
0.0
 40
4.99969482421875
  0
HATCH
  5
172
100
AcDbEntity
  8
0
370
              -2
390
0
  6
Continuous
 62
               0
100
AcDbHatch
 10
0.0
 20
0.0
 30
0.0
210
0.0
220
0.0
230
1.0
  2
SOLID
 70
               1
 71
               1
 91
        1
 92
        1
 93
        1
 72
               2
 10
-667.89448158599907
 20
-289.75933034938953
 40
4.99969482421875
 50
0.0
 51
360.0
 73
               0
 97
        1
330
171
 75
               0
 76
               1
 98
        1
 10
0.0
 20
0.0
  0
MTEXT
  5
173
100
AcDbEntity
  8
0
390
0
 62
               0
100
AcDbMText
 10
-701.77209877349924
 20
-363.57183203156501
 30
0.0
 40
24.432617187500004
 41
0.0
 71
               1
 72
               1
  1
100
  7
ＭＳ ゴシック
 11
0.0
 21
1.0
 31
0.0
 73
               1
 44
0.7828267384257843
  0
POINT
  5
174
100
AcDbEntity
  8
Defpoints
370
               0
390
0
 62
               0
100
AcDbPoint
 10
-525.39448167339651
 20
-289.75933034938953
 30
0.0
  0
POINT
  5
175
100
AcDbEntity
  8
Defpoints
370
               0
390
0
 62
               0
100
AcDbPoint
 10
-525.39448167339651
 20
-389.75933034938953
 30
0.0
  0
POINT
  5
176
100
AcDbEntity
  8
Defpoints
370
               0
390
0
 62
               0
100
AcDbPoint
 10
-667.89448158599907
 20
-389.75933034938953
 30
0.0
  0
ENDBLK
  5
177
100
AcDbEntity
  8
notes
390
0
100
AcDbBlockEnd
  0
BLOCK
  5
178
100
AcDbEntity
  8
notes
390
0
100
AcDbBlockBegin
  2
*D24
 70
               1
 10
0.0
 20
0.0
 30
0.0
  3
*D24
  1

  0
LINE
  5
179
100
AcDbEntity
  8
0
370
              -2
390
0
  6
Continuous
 62
               0
100
AcDbLine
 10
686.07906984376586
 20
-150.0306562475223
 30
0.0
 11
786.12256838971325
 21
-150.0306562475223
 31
0.0
  0
LINE
  5
17A
100
AcDbEntity
  8
0
370
              -2
390
0
  6
Continuous
 62
               0
100
AcDbLine
 10
686.07906984376586
 20
-830.0306562475223
 30
0.0
 11
786.12256838971325
 21
-830.0306562475223
 31
0.0
  0
LINE
  5
17B
100
AcDbEntity
  8
0
370
              -2
390
0
  6
Continuous
 62
               0
100
AcDbLine
 10
786.12256838971325
 20
-150.0306562475223
 30
0.0
 11
786.12256838971325
 21
-830.0306562475223
 31
0.0
  0
CIRCLE
  5
17C
102
{ACAD_REACTORS
330
17D
102
}
100
AcDbEntity
  8
0
370
              -2
390
0
  6
Continuous
 62
               0
100
AcDbCircle
 10
786.12256838971325
 20
-150.0306562475223
 30
0.0
 40
4.99969482421875
  0
HATCH
  5
17D
100
AcDbEntity
  8
0
370
              -2
390
0
  6
Continuous
 62
               0
100
AcDbHatch
 10
0.0
 20
0.0
 30
0.0
210
0.0
220
0.0
230
1.0
  2
SOLID
 70
               1
 71
               1
 91
        1
 92
        1
 93
        1
 72
               2
 10
786.12256838971325
 20
-150.0306562475223
 40
4.99969482421875
 50
0.0
 51
360.0
 73
               0
 97
        1
330
17C
 75
               0
 76
               1
 98
        1
 10
0.0
 20
0.0
  0
CIRCLE
  5
17E
102
{ACAD_REACTORS
330
17F
102
}
100
AcDbEntity
  8
0
370
              -2
390
0
  6
Continuous
 62
               0
100
AcDbCircle
 10
786.12256838971325
 20
-830.0306562475223
 30
0.0
 40
4.99969482421875
  0
HATCH
  5
17F
100
AcDbEntity
  8
0
370
              -2
390
0
  6
Continuous
 62
               0
100
AcDbHatch
 10
0.0
 20
0.0
 30
0.0
210
0.0
220
0.0
230
1.0
  2
SOLID
 70
               1
 71
               1
 91
        1
 92
        1
 93
        1
 72
               2
 10
786.12256838971325
 20
-830.0306562475223
 40
4.99969482421875
 50
0.0
 51
360.0
 73
               0
 97
        1
330
17E
 75
               0
 76
               1
 98
        1
 10
0.0
 20
0.0
  0
MTEXT
  5
180
100
AcDbEntity
  8
0
390
0
 62
               0
100
AcDbMText
 10
752.24495120221309
 20
-513.84315792969778
 30
0.0
 40
24.432617187500004
 41
0.0
 71
               1
 72
               1
  1
680
  7
ＭＳ ゴシック
 11
0.0
 21
1.0
 31
0.0
 73
               1
 44
0.7828267384257843
  0
POINT
  5
181
100
AcDbEntity
  8
Defpoints
370
               0
390
0
 62
               0
100
AcDbPoint
 10
661.07906984376586
 20
-830.0306562475223
 30
0.0
  0
POINT
  5
182
100
AcDbEntity
  8
Defpoints
370
               0
390
0
 62
               0
100
AcDbPoint
 10
661.07906984376586
 20
-150.0306562475223
 30
0.0
  0
POINT
  5
183
100
AcDbEntity
  8
Defpoints
370
               0
390
0
 62
               0
100
AcDbPoint
 10
786.12256838971325
 20
-150.0306562475223
 30
0.0
  0
ENDBLK
  5
184
100
AcDbEntity
  8
notes
390
0
100
AcDbBlockEnd
  0
BLOCK
  5
185
100
AcDbEntity
  8
ADF70-1703
390
0
100
AcDbBlockBegin
  2
グループ-1
 70
               0
 10
0.0
 20
0.0
 30
0.0
  3
グループ-1
  1

  0
LINE
  5
186
100
AcDbEntity
  8
0
370
              15
390
0
  6
Continuous
 62
               7
100
AcDbLine
 10
-2465.996702642311
 20
-2013.2954610560184
 30
0.0
 11
-2414.0172905470426
 21
-2012.4098253425311
 31
0.0
  0
ARC
  5
187
100
AcDbEntity
  8
0
370
              15
390
0
  6
Continuous
 62
               7
100
AcDbCircle
 10
-2414.0508614537284
 20
-2010.4546169056896
 30
0.0
 40
1.9554966216467897
100
AcDbArc
 50
270.98367122714075
 51
0.0
  0
ARC
  5
188
100
AcDbEntity
  8
0
370
              15
390
0
  6
Continuous
 62
               7
100
AcDbCircle
 10
-2466.0989170178423
 20
-2007.2963317674105
 30
0.0
 40
6.0
100
AcDbArc
 50
180.0
 51
270.97612260554541
  0
ENDBLK
  5
189
100
AcDbEntity
  8
ADF70-1703
390
0
100
AcDbBlockEnd
  0
BLOCK
  5
18A
100
AcDbEntity
  8
ADF70-1703
390
0
100
AcDbBlockBegin
  2
グループ-2
 70
               0
 10
0.0
 20
0.0
 30
0.0
  3
グループ-2
  1

  0
LINE
  5
18B
100
AcDbEntity
  8
0
370
              15
390
0
  6
Continuous
 62
               7
100
AcDbLine
 10
-2465.996702642311
 20
-1113.2972024788025
 30
0.0
 11
-2414.0172905470426
 21
-1114.1828381922894
 31
0.0
  0
ARC
  5
18C
100
AcDbEntity
  8
0
370
              15
390
0
  6
Continuous
 62
               7
100
AcDbCircle
 10
-2414.0508614537284
 20
-1116.1380466291309
 30
0.0
 40
1.9554966216455796
100
AcDbArc
 50
0.0
 51
89.016328772859254
  0
ARC
  5
18D
100
AcDbEntity
  8
0
370
              15
390
0
  6
Continuous
 62
               7
100
AcDbCircle
 10
-2466.0989170178423
 20
-1119.2963317674105
 30
0.0
 40
5.9999999999999112
100
AcDbArc
 50
89.023877394454573
 51
180.0
  0
ENDBLK
  5
18E
100
AcDbEntity
  8
ADF70-1703
390
0
100
AcDbBlockEnd
  0
ENDSEC
  0
SECTION
  2
ENTITIES
  0
MTEXT
  5
18F
100
AcDbEntity
  8
template
390
0
 62
               7
100
AcDbMText
 10
-967.99999999975898
 20
-1147.4176292337002
 30
0.0
 40
16.288411458333332
 41
0.0
 71
               1
 72
               1
  1
品名
  7
ＭＳ ゴシック
 73
               1
 44
0.7828267384257843
  0
MTEXT
  5
190
100
AcDbEntity
  8
template
390
0
 62
               7
100
AcDbMText
 10
-967.99999999975898
 20
-1232.4176292337002
 30
0.0
 40
16.288411458333332
 41
0.0
 71
               1
 72
               1
  1
仕様
  7
ＭＳ ゴシック
 73
               1
 44
0.7828267384257843
  0
MTEXT
  5
191
100
AcDbEntity
  8
template
390
0
 62
               7
100
AcDbMText
 10
-914.99999999975898
 20
-1176.0000901712001
 30
0.0
 40
24.432617187500004
 41
0.0
 71
               1
 72
               1
  1
洗面器 -CATALANO,PROIEZION-
  7
ＭＳ ゴシック
 73
               1
 44
0.7828267384257843
  0
LINE
  5
192
100
AcDbEntity
  8
template
370
               5
390
0
  6
Continuous
 62
               7
100
AcDbLine
 10
974.99999999975876
 20
-1224.0027073587003
 30
0.0
 11
-975.00000000024102
 21
-1224.0027073587003
 31
0.0
  0
LWPOLYLINE
  5
193
100
AcDbEntity
  8
template
370
               5
390
0
  6
Continuous
 62
               7
100
AcDbPolyline
 90
        5
 70
             128
 10
975.00000000024124
 20
1405.9972926412995
 10
-974.99999999975898
 20
1405.9972926412995
 10
-974.99999999975898
 20
-1394.0027073587003
 10
975.00000000024124
 20
-1394.0027073587003
 10
975.00000000024124
 20
1405.9972926412995
  0
LINE
  5
194
100
AcDbEntity
  8
template
370
               5
390
0
  6
Continuous
 62
               7
100
AcDbLine
 10
974.99999999975876
 20
-1139.0027073587003
 30
0.0
 11
-975.00000000024102
 21
-1139.0027073587003
 31
0.0
  0
LINE
  5
195
100
AcDbEntity
  8
template
370
               5
390
0
  6
Continuous
 62
               7
100
AcDbLine
 10
975.00000000024124
 20
-1309.0027073587003
 30
0.0
 11
222.00000000024102
 21
-1309.0027073587003
 31
0.0
  0
MTEXT
  5
196
100
AcDbEntity
  8
template
390
0
 62
               7
100
AcDbMText
 10
-974.99999999955617
 20
-1405.8565294155574
 30
0.0
 40
21.717881944444446
 41
0.0
 71
               1
 72
               1
  1
100707SH
  7
ＭＳ ゴシック
 73
               1
 44
0.7828267384257843
  0
MTEXT
  5
197
100
AcDbEntity
  8
template
390
0
 62
               7
100
AcDbMText
 10
251.87140625250095
 20
-1338.9131018320077
 30
0.0
 40
24.432617187500004
 41
0.0
 71
               1
 72
               1
  1
大洋金物株式会社 ティーフォルム事業部
  7
ＭＳ ゴシック
 73
               1
 44
0.7828267384257843
  0
INSERT
  5
198
100
AcDbEntity
  8
template
390
0
 62
               7
100
AcDbBlockReference
  2
グループ
 10
3003.1873156415822
 20
1073.2656755198882
 30
0.0
  0
MTEXT
  5
199
100
AcDbEntity
  8
template
390
0
 62
               7
100
AcDbMText
 10
784.00000000050022
 20
-1261.0000901712001
 30
0.0
 40
24.432617187500004
 41
0.0
 71
               1
 72
               1
  1
1:10
  7
ＭＳ ゴシック
 73
               1
 44
0.7828267384257843
  0
MTEXT
  5
19A
100
AcDbEntity
  8
template
390
0
 62
               7
100
AcDbMText
 10
731.00000000050022
 20
-1232.4176292337002
 30
0.0
 40
16.288411458333332
 41
0.0
 71
               1
 72
               1
  1
縮尺
  7
ＭＳ ゴシック
 73
               1
 44
0.7828267384257843
  0
LINE
  5
19B
100
AcDbEntity
  8
template
370
               5
390
0
  6
Continuous
 62
               7
100
AcDbLine
 10
724.00000000050022
 20
-1309.0027073587003
 30
0.0
 11
724.00000000050022
 21
-1224.0027073587003
 31
0.0
  0
MTEXT
  5
19C
100
AcDbEntity
  8
template
390
0
 62
               7
100
AcDbMText
 10
480.00000000050022
 20
-1232.4176292337002
 30
0.0
 40
16.288411458333332
 41
0.0
 71
               1
 72
               1
  1
容量
  7
ＭＳ ゴシック
 73
               1
 44
0.7828267384257843
  0
MTEXT
  5
19D
100
AcDbEntity
  8
template
390
0
 62
               7
100
AcDbMText
 10
533.00000000050022
 20
-1261.0000901712001
 30
0.0
 40
24.432617187500004
 41
0.0
 71
               1
 72
               1
  1
9L
  7
ＭＳ ゴシック
 73
               1
 44
0.7828267384257843
  0
LINE
  5
19E
100
AcDbEntity
  8
template
370
               5
390
0
  6
Continuous
 62
               7
100
AcDbLine
 10
473.00000000050022
 20
-1309.0027073587003
 30
0.0
 11
473.00000000050022
 21
-1224.0027073587003
 31
0.0
  0
MTEXT
  5
19F
100
AcDbEntity
  8
template
390
0
 62
               7
100
AcDbMText
 10
229.00000000050022
 20
-1147.4176292337002
 30
0.0
 40
16.288411458333332
 41
0.0
 71
               1
 72
               1
  1
品番
  7
ＭＳ ゴシック
 73
               1
 44
0.7828267384257843
  0
MTEXT
  5
1A0
100
AcDbEntity
  8
template
390
0
 62
               7
100
AcDbMText
 10
229.00000000050022
 20
-1232.4176292337002
 30
0.0
 40
16.288411458333332
 41
0.0
 71
               1
 72
               1
  1
重量
  7
ＭＳ ゴシック
 73
               1
 44
0.7828267384257843
  0
MTEXT
  5
1A1
100
AcDbEntity
  8
template
390
0
 62
               7
100
AcDbMText
 10
282.00000000050022
 20
-1176.0000901712001
 30
0.0
 40
24.432617187500004
 41
0.0
 71
               1
 72
               1
  1
ADF70-1703
  7
ＭＳ ゴシック
 73
               1
 44
0.7828267384257843
  0
MTEXT
  5
1A2
100
AcDbEntity
  8
template
390
0
 62
               7
100
AcDbMText
 10
282.00000000050022
 20
-1261.0000901712001
 30
0.0
 40
24.432617187500004
 41
0.0
 71
               1
 72
               1
  1
22kg
  7
ＭＳ ゴシック
 73
               1
 44
0.7828267384257843
  0
LINE
  5
1A3
100
AcDbEntity
  8
template
370
               5
390
0
  6
Continuous
 62
               7
100
AcDbLine
 10
222.00000000050022
 20
-1394.0027073587003
 30
0.0
 11
222.00000000050022
 21
-1139.0027073587003
 31
0.0
  0
MTEXT
  5
1A4
100
AcDbEntity
  8
template
390
0
 62
               7
100
AcDbMText
 10
-914.99999999975944
 20
-1261.0000901712001
 30
0.0
 40
24.432617187500004
 41
0.0
 71
               1
 72
               1
  1
壁掛け,半埋め込み/オーバーフロー付き/壁取付ボルト付属/陶器/ホワイト
  7
ＭＳ ゴシック
 73
               1
 44
1.3047112307096407
  0
MTEXT
  5
1A5
100
AcDbEntity
  8
notes
390
0
 62
               7
100
AcDbMText
 10
95.983456557903537
 20
-900.39045631950876
 30
0.0
 40
24.432617187500004
 41
842.88315656391467
 71
               1
 72
               1
  1
＝φ30もしくはφ35の水栓取付用穴あけ加工を承ります。\P   必要な場合、ご注文の際にご指示ください。
  7
ＭＳ ゴシック
 11
0.0
 21
1.0
 31
0.0
 73
               1
 44
1.0437689845677123
  0
MTEXT
  5
1A6
100
AcDbEntity
  8
notes
390
0
 62
               7
100
AcDbMText
 10
95.983456557903537
 20
322.04460908695955
 30
0.0
 40
24.432617187500004
 41
764.7717154610109
 71
               1
 72
               1
  1
※陶器製品には寸法公差があります。\P  洗面器の収め方をご確認の上、必ず現物を合わせて\P  カウンターに切込を行ってください。
  7
ＭＳ ゴシック
 11
0.0
 21
1.0
 31
0.0
 73
               1
 44
1.0437689845677123
  0
MTEXT
  5
1A7
100
AcDbEntity
  8
notes
390
0
 62
               7
100
AcDbMText
 10
-780.05673174149206
 20
630.55279430905603
 30
0.0
 40
24.432617187500004
 41
0.0
 71
               1
 72
               1
  1
カウンター切込寸法
  7
ＭＳ ゴシック
 11
0.0
 21
1.0
 31
0.0
 73
               1
 44
0.7828267384257843
  0
DIMENSION
  5
1A8
100
AcDbEntity
  8
notes
370
               5
390
0
  6
Continuous
 62
               7
100
AcDbDimension
  2
*D4
 10
431.08839862373998
 20
973.16394135162659
 30
0.0
 11
431.08839862373998
 21
943.16394135162648
 31
0.0
 71
               5
 72
               1
 41
1.0
 42
0.0
  3
TformSENN
100
AcDbAlignedDimension
 13
531.08839862373998
 23
913.16394135162636
 33
0.0
 14
531.08839862373998
 24
973.16394135162659
 34
0.0
 50
90.0
100
AcDbRotatedDimension
1001
ACAD
1000
DSTYLE
1002
{
1070
             279
1070
               2
1070
             340
1005
3B
1070
             147
1040
5.0
1002
}
  0
DIMENSION
  5
1A9
100
AcDbEntity
  8
notes
370
               5
390
0
  6
Continuous
 62
               7
100
AcDbDimension
  2
*D5
 10
531.08839862373998
 20
759.87147924088583
 30
0.0
 11
514.65089862373998
 21
764.87147924088583
 31
0.0
 70
             128
 71
               5
 72
               1
 41
1.0
 42
0.0
  3
TformSENN
100
AcDbAlignedDimension
 13
641.08839862373998
 23
766.39271029625627
 33
0.0
 14
531.08839862373998
 24
766.39271029625627
 34
0.0
100
AcDbRotatedDimension
1001
ACAD
1000
DSTYLE
1002
{
1070
             279
1070
               2
1070
             340
1005
3B
1070
               3
1000
<>(深さ)
1070
             174
1070
               0
1070
             147
1040
5.0
1002
}
  0
DIMENSION
  5
1AA
100
AcDbEntity
  8
notes
370
               5
390
0
  6
Continuous
 62
               7
100
AcDbDimension
  2
*D6
 10
591.08839862373998
 20
453.60525901477342
 30
0.0
 11
561.08839862373998
 21
453.60525901477342
 31
0.0
 71
               5
 72
               1
 41
1.0
 42
0.0
  3
TformSENN
100
AcDbAlignedDimension
 13
531.08839862373998
 23
559.62147924088549
 33
0.0
 14
591.08839862373998
 24
556.00455601644467
 34
0.0
100
AcDbRotatedDimension
1001
ACAD
1000
DSTYLE
1002
{
1070
             279
1070
               2
1070
             340
1005
3B
1070
             147
1040
5.0
1002
}
  0
DIMENSION
  5
1AB
100
AcDbEntity
  8
notes
370
               5
390
0
  6
Continuous
 62
               7
100
AcDbDimension
  2
*D7
 10
591.08839862373998
 20
453.60525901477342
 30
0.0
 11
626.08839862373998
 21
453.60525901477342
 31
0.0
 71
               5
 72
               1
 41
1.0
 42
0.0
  3
TformSENN
100
AcDbAlignedDimension
 13
661.08839862373998
 23
671.35917301494669
 33
0.0
 14
591.08839862373998
 24
556.00455601644467
 34
0.0
100
AcDbRotatedDimension
1001
ACAD
1000
DSTYLE
1002
{
1070
             279
1070
               2
1070
             340
1005
3B
1070
             147
1040
5.0
1002
}
  0
DIMENSION
  5
1AC
100
AcDbEntity
  8
notes
370
               5
390
0
  6
Continuous
 62
               7
100
AcDbDimension
  2
*D8
 10
790.91625452771996
 20
973.16394138095507
 30
0.0
 11
790.91625452771996
 21
868.16394138095518
 31
0.0
 71
               5
 72
               1
 41
1.0
 42
0.0
  3
TformSENN
100
AcDbAlignedDimension
 13
691.12658988505063
 23
763.16394138095529
 33
0.0
 14
666.09373973465881
 24
973.16394138095507
 34
0.0
 50
90.0
100
AcDbRotatedDimension
1001
ACAD
1000
DSTYLE
1002
{
1070
             279
1070
               2
1070
             340
1005
3B
1070
             147
1040
5.0
1002
}
  0
DIMENSION
  5
1AD
100
AcDbEntity
  8
notes
370
               5
390
0
  6
Continuous
 62
               7
100
AcDbDimension
  2
*D9
 10
841.12658988505063
 20
973.16394118361859
 30
0.0
 11
846.12658988505063
 21
824.39561130088953
 31
0.0
 70
             128
 71
               5
 72
               1
 41
1.0
 42
0.0
  3
TformSENN
100
AcDbAlignedDimension
 13
666.09373973465881
 23
668.1639411836195
 33
0.0
 14
666.0937397346579
 24
973.16394118361859
 34
0.0
 50
90.0
100
AcDbRotatedDimension
1001
ACAD
1000
DSTYLE
1002
{
1070
             279
1070
               2
1070
             340
1005
3B
1070
             147
1040
5.0
1002
}
  0
DIMENSION
  5
1AE
100
AcDbEntity
  8
notes
370
               5
390
0
  6
Continuous
 62
               7
100
AcDbDimension
  2
*D10
 10
-44.424072371471993
 20
1138.4208841999409
 30
0.0
 11
-44.424072371471993
 21
718.42088419994025
 31
0.0
 71
               5
 72
               1
 41
1.0
 42
0.0
  3
TformSENN
100
AcDbAlignedDimension
 13
-177.89448178848215
 23
298.42088419993968
 33
0.0
 14
-177.89448178848215
 24
1138.4208841999409
 34
0.0
 50
90.0
100
AcDbRotatedDimension
1001
ACAD
1000
DSTYLE
1002
{
1070
             279
1070
               2
1070
             340
1005
3B
1070
             147
1040
5.0
1002
}
  0
DIMENSION
  5
1AF
100
AcDbEntity
  8
notes
370
               5
390
0
  6
Continuous
 62
               7
100
AcDbDimension
  2
*D11
 10
-177.89448178848215
 20
1268.4208813947057
 30
0.0
 11
-372.89448178848215
 21
1273.4208813947057
 31
0.0
 70
             128
 71
               5
 72
               1
 41
1.0
 42
0.0
  3
TformSENN
100
AcDbAlignedDimension
 13
-567.89448178848215
 23
1138.4208841999409
 33
0.0
 14
-177.89448178848215
 24
1138.4208841999409
 34
0.0
100
AcDbRotatedDimension
1001
ACAD
1000
DSTYLE
1002
{
1070
             279
1070
               2
1070
             340
1005
3B
1070
             147
1040
5.0
1002
}
  0
CIRCLE
  5
1B0
100
AcDbEntity
  8
notes
370
              15
390
0
  6
STYLE_23
 62
               7
100
AcDbCircle
 10
109.90585159640978
 20
-923.177804275673
 30
0.0
 40
16.003757120844966
  0
DIMENSION
  5
1B1
100
AcDbEntity
  8
notes
370
               5
390
0
  6
Continuous
 62
               7
100
AcDbDimension
  2
*D12
 10
-717.89448158599907
 20
-40.008105749738434
 30
0.0
 11
-722.89448158599907
 21
-490.00810574690922
 31
0.0
 70
             128
 71
               5
 72
               1
 41
1.0
 42
0.0
  3
TformSENN
100
AcDbAlignedDimension
 13
-564.89448152122532
 23
-940.00810574408001
 33
0.0
 14
-564.89448182539854
 24
-40.008105749738434
 34
0.0
 50
90.0
100
AcDbRotatedDimension
1001
ACAD
1000
DSTYLE
1002
{
1070
             279
1070
               2
1070
             340
1005
3B
1070
             147
1040
5.0
1002
}
  0
DIMENSION
  5
1B2
100
AcDbEntity
  8
notes
370
               5
390
0
  6
Continuous
 62
               7
100
AcDbDimension
  2
*D13
 10
-567.89448182539854
 20
59.991894250261566
 30
0.0
 11
-357.89365836268689
 21
59.991894250261566
 31
0.0
 71
               5
 72
               1
 41
1.0
 42
0.0
  3
TformSENN
100
AcDbAlignedDimension
 13
-147.89283489997524
 23
-90.008109298268437
 33
0.0
 14
-567.89448182539854
 24
-43.008105750655204
 34
0.0
100
AcDbRotatedDimension
1001
ACAD
1000
DSTYLE
1002
{
1070
             279
1070
               2
1070
             340
1005
3B
1070
             147
1040
5.0
1002
}
  0
DIMENSION
  5
1B3
100
AcDbEntity
  8
notes
370
               5
390
0
  6
Continuous
 62
               7
100
AcDbDimension
  2
*D14
 10
-567.89448152122532
 20
-1040.0081057440798
 30
0.0
 11
-507.90964669287587
 21
-1040.0081057440798
 31
0.0
 71
               5
 72
               1
 41
1.0
 42
0.0
  3
TformSENN
100
AcDbAlignedDimension
 13
-447.92481186452687
 23
-940.00810574408001
 33
0.0
 14
-567.89448152122532
 24
-937.00810574499678
 34
0.0
100
AcDbRotatedDimension
1001
ACAD
1000
DSTYLE
1002
{
1070
             279
1070
               2
1070
             340
1005
3B
1070
             147
1040
5.0
1002
}
  0
DIMENSION
  5
1B4
100
AcDbEntity
  8
notes
370
               5
390
0
  6
Continuous
 62
               7
100
AcDbDimension
  2
*D15
 10
-447.75366218231011
 20
-1040.0081057440798
 30
0.0
 11
-305.2453797993403
 21
-1040.0081057440798
 31
0.0
 71
               5
 72
               1
 41
1.0
 42
0.0
  3
TformSENN
100
AcDbAlignedDimension
 13
-162.73709741637049
 23
-925.56192581992877
 33
0.0
 14
-447.75366218231011
 24
-940.00810574408001
 34
0.0
100
AcDbRotatedDimension
1001
ACAD
1000
DSTYLE
1002
{
1070
             279
1070
               2
1070
             340
1005
3B
1070
             147
1040
5.0
1002
}
  0
DIMENSION
  5
1B5
100
AcDbEntity
  8
notes
370
               5
390
0
  6
Continuous
 62
               7
100
AcDbDimension
  2
*D16
 10
-47.892834899947957
 20
-925.02615542762555
 30
0.0
 11
-47.892834899947957
 21
-490.0331086137985
 31
0.0
 71
               5
 72
               1
 41
1.0
 42
0.0
  3
TformSENN
100
AcDbAlignedDimension
 13
-161.99364915685101
 23
-55.040061799971681
 33
0.0
 14
-161.99364915685146
 24
-925.02615542762555
 34
0.0
 50
90.0
100
AcDbRotatedDimension
1001
ACAD
1000
DSTYLE
1002
{
1070
             279
1070
               2
1070
             340
1005
3B
1070
             147
1040
5.0
1002
}
  0
DIMENSION
  5
1B6
100
AcDbEntity
  8
notes
370
               5
390
0
  6
Continuous
 62
               7
100
AcDbDimension
  2
*D17
 10
431.08839862373998
 20
-350.0289437098711
 30
0.0
 11
431.08839862373998
 21
-490.02894370987087
 31
0.0
 71
               5
 72
               1
 41
1.0
 42
0.0
  3
TformSENN
100
AcDbAlignedDimension
 13
551.06625452771959
 23
-630.02894370987065
 33
0.0
 14
551.06625452771959
 24
-350.0289437098711
 34
0.0
 50
90.0
100
AcDbRotatedDimension
1001
ACAD
1000
DSTYLE
1002
{
1070
             279
1070
               2
1070
             340
1005
3B
1070
             147
1040
5.0
1002
}
  0
DIMENSION
  5
1B7
100
AcDbEntity
  8
notes
370
               5
390
0
  6
Continuous
 62
               7
100
AcDbDimension
  2
*D18
 10
571.06454199006839
 20
-1040.0081057440807
 30
0.0
 11
551.07647030690441
 21
-1040.0081057440807
 31
0.0
 71
               5
 72
               1
 41
1.0
 42
0.0
  3
TformSENN
100
AcDbAlignedDimension
 13
531.08839862373998
 23
-934.0306562475223
 33
0.0
 14
571.06454199006839
 24
-650.0306562475223
 34
0.0
100
AcDbRotatedDimension
1001
ACAD
1000
DSTYLE
1002
{
1070
             279
1070
               2
1070
             340
1005
3B
1070
             147
1040
5.0
1002
}
  0
DIMENSION
  5
1B8
100
AcDbEntity
  8
notes
370
               5
390
0
  6
Continuous
 62
               7
100
AcDbDimension
  2
*D19
 10
531.08839862373998
 20
59.991888516483186
 30
0.0
 11
611.10548350672707
 21
59.991888516483186
 31
0.0
 71
               5
 72
               1
 41
1.0
 42
0.0
  3
TformSENN
100
AcDbAlignedDimension
 13
691.12256838971371
 23
-452.88433137076913
 33
0.0
 14
531.08839862373998
 24
-46.030656247522302
 34
0.0
100
AcDbRotatedDimension
1001
ACAD
1000
DSTYLE
1002
{
1070
             279
1070
               2
1070
             340
1005
3B
1070
             147
1040
5.0
1002
}
  0
DIMENSION
  5
1B9
100
AcDbEntity
  8
notes
370
               5
390
0
  6
Continuous
 62
               7
100
AcDbDimension
  2
*D20
 10
-667.89448158599907
 20
-689.7593303493893
 30
0.0
 11
-667.89448158599907
 21
-639.7593303493893
 31
0.0
 71
               5
 72
               1
 41
1.0
 42
0.0
  3
TformSENN
100
AcDbAlignedDimension
 13
-525.39448167339651
 23
-589.7593303493893
 33
0.0
 14
-525.39448167339651
 24
-689.7593303493893
 34
0.0
 50
90.0
100
AcDbRotatedDimension
1001
ACAD
1000
DSTYLE
1002
{
1070
             279
1070
               2
1070
             340
1005
3B
1070
             147
1040
5.0
1002
}
  0
DIMENSION
  5
1BA
100
AcDbEntity
  8
notes
370
               5
390
0
  6
Continuous
 62
               7
100
AcDbDimension
  2
*D21
 10
-667.89448158599907
 20
-589.7593303493893
 30
0.0
 11
-667.89448158599907
 21
-539.75933034938953
 31
0.0
 71
               5
 72
               1
 41
1.0
 42
0.0
  3
TformSENN
100
AcDbAlignedDimension
 13
-525.39448167339651
 23
-489.75933034938953
 33
0.0
 14
-525.39448167339651
 24
-589.7593303493893
 34
0.0
 50
90.0
100
AcDbRotatedDimension
1001
ACAD
1000
DSTYLE
1002
{
1070
             279
1070
               2
1070
             340
1005
3B
1070
             147
1040
5.0
1002
}
  0
DIMENSION
  5
1BB
100
AcDbEntity
  8
notes
370
               5
390
0
  6
Continuous
 62
               7
100
AcDbDimension
  2
*D22
 10
-667.89448158599907
 20
-489.75933034938953
 30
0.0
 11
-667.89448158599907
 21
-439.75933034938953
 31
0.0
 71
               5
 72
               1
 41
1.0
 42
0.0
  3
TformSENN
100
AcDbAlignedDimension
 13
-525.39448167339651
 23
-389.75933034938953
 33
0.0
 14
-525.39448167339651
 24
-489.75933034938953
 34
0.0
 50
90.0
100
AcDbRotatedDimension
1001
ACAD
1000
DSTYLE
1002
{
1070
             279
1070
               2
1070
             340
1005
3B
1070
             147
1040
5.0
1002
}
  0
DIMENSION
  5
1BC
100
AcDbEntity
  8
notes
370
               5
390
0
  6
Continuous
 62
               7
100
AcDbDimension
  2
*D23
 10
-667.89448158599907
 20
-389.75933034938953
 30
0.0
 11
-667.89448158599907
 21
-339.75933034938953
 31
0.0
 71
               5
 72
               1
 41
1.0
 42
0.0
  3
TformSENN
100
AcDbAlignedDimension
 13
-525.39448167339651
 23
-289.75933034938953
 33
0.0
 14
-525.39448167339651
 24
-389.75933034938953
 34
0.0
 50
90.0
100
AcDbRotatedDimension
1001
ACAD
1000
DSTYLE
1002
{
1070
             279
1070
               2
1070
             340
1005
3B
1070
             147
1040
5.0
1002
}
  0
DIMENSION
  5
1BD
100
AcDbEntity
  8
notes
370
               5
390
0
  6
Continuous
 62
               7
100
AcDbDimension
  2
*D24
 10
786.12256838971325
 20
-150.0306562475223
 30
0.0
 11
786.12256838971325
 21
-490.0306562475223
 31
0.0
 71
               5
 72
               1
 41
1.0
 42
0.0
  3
TformSENN
100
AcDbAlignedDimension
 13
661.07906984376586
 23
-830.0306562475223
 33
0.0
 14
661.07906984376586
 24
-150.0306562475223
 34
0.0
 50
90.0
100
AcDbRotatedDimension
1001
ACAD
1000
DSTYLE
1002
{
1070
             279
1070
               2
1070
             340
1005
3B
1070
             147
1040
5.0
1002
}
  0
MTEXT
  5
1BE
100
AcDbEntity
  8
notes
390
0
 62
               7
100
AcDbMText
 10
437.77697336048004
 20
-269.06873901422864
 30
0.0
 40
24.432617187500004
 41
0.0
 71
               1
 72
               1
  1
壁取付ボルト穴(2ヶ所）
  7
ＭＳ ゴシック
 11
0.0
 21
1.0
 31
0.0
 73
               1
 44
0.7828267384257843
  0
LINE
  5
1BF
100
AcDbEntity
  8
notes
370
               5
390
0
  6
Continuous
 62
               7
100
AcDbLine
 10
567.21644022232522
 20
-350.53689645192571
 30
0.0
 11
469.88039846852007
 21
-253.20085469812079
 31
0.0
  0
LINE
  5
1C0
100
AcDbEntity
  8
ADF70-1703
370
              15
390
0
  6
Continuous
 62
               7
100
AcDbLine
 10
-447.96687536348463
 20
-887.14667371845076
 30
0.0
 11
-447.96687536348418
 21
-92.919318134489458
 31
0.0
  0
LINE
  5
1C1
100
AcDbEntity
  8
ADF70-1703
370
              15
390
0
  6
Continuous
 62
               7
100
AcDbLine
 10
-567.89448152122532
 20
-937.00810574499678
 30
0.0
 11
-567.89448182539854
 21
-43.008105750655204
 31
0.0
  0
ARC
  5
1C2
100
AcDbEntity
  8
ADF70-1703
370
              15
390
0
  6
Continuous
 62
               7
100
AcDbCircle
 10
-564.89448152122532
 20
-937.00810574408001
 30
0.0
 40
3.0
100
AcDbArc
 50
180.00000001750902
 51
270.0
  0
LWPOLYLINE
  5
1C3
100
AcDbEntity
  8
ADF70-1703
370
              15
390
0
  6
Continuous
 62
               7
100
AcDbPolyline
 90
       52
 70
             128
 10
-411.06715157179406
 20
-925.02615542762373
 10
-411.30771702635411
 20
-925.02671695307527
 42
-0.0206096269311948
 10
-413.83418004626355
 20
-924.92844048396387
 10
-414.0732802023208
 20
-924.90924926442904
 42
-0.0144119011430391
 10
-416.11106627488289
 20
-924.68642311610915
 10
-416.12655587215795
 20
-924.68427604202179
 42
-0.0139741173207293
 10
-418.11763184789379
 20
-924.3513371694803
 42
-0.0139683954101585
 10
-420.08720402868585
 20
-923.90765500232965
 42
-0.0139596829419923
 10
-422.02943847754068
 20
-923.35455499447812
 42
-0.0139478730669272
 10
-423.93849610235111
 20
-922.69370554930765
 42
-0.0139326487333527
 10
-425.80864909947377
 20
-921.92709641216516
 42
-0.0139142076629587
 10
-427.63431135160317
 20
-921.0570251284887
 42
-0.0138925607108263
 10
-429.41005027833853
 20
-920.08608809975772
 42
-0.0138674715408377
 10
-431.13060695618879
 20
-919.01716678921434
 42
-0.0138467719011885
 10
-432.79006536471707
 20
-917.85404242619575
 10
-432.79092044148001
 20
-917.8534070782805
 42
-0.013816579098652
 10
-434.38520148696807
 20
-916.59898349034052
 10
-434.38612538616417
 20
-916.59821427845827
 42
-0.0137835798336166
 10
-435.91058015994122
 20
-915.25615596094531
 10
-435.91158319366787
 20
-915.25522262590516
 42
-0.0137485761621663
 10
-437.36182623546665
 20
-913.82937967140697
 10
-437.36289086502711
 20
-913.8282737711047
 42
-0.0137111697656502
 10
-438.73475520965849
 20
-912.32270711941737
 10
-438.73586626770702
 20
-912.32141851606252
 42
-0.0136726327144198
 10
-440.0254167535395
 20
-910.7403781604562
 10
-440.02657843149791
 20
-910.73887160581285
 42
-0.0136337295996475
 10
-441.2301519773041
 20
-909.08672395331405
 10
-441.2313386360388
 20
-909.08499804869075
 42
-0.0135949684564953
 10
-442.34548664194745
 20
-907.36627487902888
 10
-442.34668850469279
 20
-907.36430554205526
 42
-0.0135583910081804
 10
-443.36820480252027
 20
-905.58363915664336
 10
-443.36940786162177
 20
-905.58140371681975
 42
-0.0135249372388192
 10
-444.29531159338876
 20
-903.74351096192208
 10
-444.29648482339235
 20
-903.74101642785968
 42
-0.0134963148408978
 10
-445.12397843579856
 20
-901.85074414488258
 10
-445.12511442393861
 20
-901.84794592900721
 42
-0.0134752958234197
 10
-445.85161316773838
 20
-899.91015378940892
 10
-445.85267746640784
 20
-899.90706415390446
 42
-0.0134629341065192
 10
-446.47573879804577
 20
-897.92673010778162
 10
-446.47669978793601
 20
-897.92336148091886
 42
-0.0134620560719544
 10
-446.99401439481153
 20
-895.90557991137598
 10
-447.0214080793935
 20
-895.78536661200405
 42
-0.0134767328580004
 10
-447.38402439649417
 20
-893.96947552635925
 10
-447.40717463322699
 20
-893.83473017093615
 42
-0.0103628642959018
 10
-447.64217971454673
 20
-892.27368307958182
 10
-447.64489817124422
 20
-892.2526767737329
 42
-0.0098952798955191
 10
-447.81188171207123
 20
-890.72546609808137
 42
-0.0097652970367861
 10
-447.91870245344535
 20
-889.19286392957179
 10
-447.92481186452687
 20
-889.07091540149122
 42
-0.0131152629029411
 10
-447.96722548601429
 20
-887.29121698233416
 10
-447.96691840686572
 20
-887.1633537465093
 10
-447.96687536348463
 20
-887.14667371845076
  0
LINE
  5
1C4
100
AcDbEntity
  8
ADF70-1703
370
              15
390
0
  6
Continuous
 62
               7
100
AcDbLine
 10
-199.72478358602484
 20
-925.02615542762555
 30
0.0
 11
-410.95336589261797
 21
-925.02615542762555
 31
0.0
  0
LWPOLYLINE
  5
1C5
100
AcDbEntity
  8
ADF70-1703
370
              15
390
0
  6
Continuous
 62
               7
100
AcDbPolyline
 90
       54
 70
             128
 10
-447.96687536348418
 20
-92.919318134489458
 42
-0.0118332296383844
 10
-447.92734207506101
 20
-91.053175109098675
 10
-447.92310406960041
 20
-90.958738593235466
 42
-0.0144266816286934
 10
-447.77349313389732
 20
-88.932362108413145
 10
-447.76948879079737
 20
-88.893451142770346
 42
-0.0116337553540339
 10
-447.52429569514243
 20
-86.954920071739252
 42
-0.0134819143045712
 10
-447.18211473029714
 20
-85.031322992127343
 10
-447.16721790870224
 20
-84.958952893061678
 42
-0.0134657513205511
 10
-446.69180134078397
 20
-82.92792192740626
 10
-446.69088516204238
 20
-82.924433968728636
 42
-0.0134612629942017
 10
-446.1088566176004
 20
-80.928857443616153
 10
-446.10782624900958
 20
-80.925648658401997
 42
-0.0134693369315919
 10
-445.42144826933963
 20
-78.970655689970272
 10
-445.4203393263856
 20
-78.967749986234139
 42
-0.0134870679348848
 10
-444.63199045498368
 20
-77.058330791368689
 10
-444.63083002969961
 20
-77.055721964823988
 42
-0.0135132022942115
 10
-443.74303821537524
 20
-75.196787524422462
 10
-443.74184137429847
 20
-75.194446340669401
 42
-0.0135448019329539
 10
-442.75732654983585
 20
-73.390867481186888
 10
-442.75612598861289
 20
-73.388803112150526
 42
-0.0135803967355696
 10
-441.67778202126328
 20
-71.645322081584254
 10
-441.67658519362476
 20
-71.643499594681543
 42
-0.0136186249485707
 10
-440.50754031498218
 20
-69.964805092483857
 10
-440.50636529529265
 20
-69.963212142775546
 42
-0.0136573425211517
 10
-439.24997222556203
 20
-68.353875397430329
 10
-439.24884399810389
 20
-68.352508873951138
 42
-0.0136962876557791
 10
-437.90866977726455
 20
-66.81694726992373
 10
-437.90758231841301
 20
-66.815768078867677
 42
-0.0137342255068035
 10
-436.48747014358105
 20
-65.358298209217992
 10
-436.48644339075463
 20
-65.357300779000752
 42
-0.0137700872050089
 10
-434.99046086764429
 20
-63.982048844126894
 10
-434.98950700562182
 20
-63.981219243805299
 42
-0.0138040866355185
 10
-433.42195387248739
 20
-62.692119469423233
 10
-433.42106783809595
 20
-62.691430928400905
 42
-0.0138353101096892
 10
-431.7865013667647
 20
-61.492231890101721
 42
-0.0138702398379969
 10
-430.08888066054351
 20
-60.385882322048928
 42
-0.0138947508144222
 10
-428.33407526479095
 20
-59.376318175925007
 42
-0.0139159395588114
 10
-426.5272738056492
 20
-58.466529161793915
 42
-0.0139339659551037
 10
-424.67383943889217
 20
-57.659222588250032
 10
-424.4390684053692
 20
-57.564654581094601
 42
-0.0139452136618313
 10
-423.01852818766747
 20
-57.037992589441274
 42
-0.0069790123692562
 10
-421.5770025598822
 20
-56.571148347101598
 42
-0.0139623368742809
 10
-420.11784639237794
 20
-56.165249078984289
 10
-419.87292788658215
 20
-56.104432240422511
 42
-0.0139711145142306
 10
-417.90071458618877
 20
-55.672806578669679
 10
-417.78431030843558
 20
-55.650719427136664
 42
-0.0139785144719557
 10
-416.02510588681616
 20
-55.367612688013651
 10
-415.93120200604335
 20
-55.355182566540179
 42
-0.0107066744893068
 10
-414.34813795137961
 20
-55.180030400718124
 42
-0.0113354518675714
 10
-412.7589372164598
 20
-55.074814071184392
 10
-412.73220776984499
 20
-55.073652195507975
 42
-0.0114348217430301
 10
-411.08638795902789
 20
-55.039789595992715
 10
-411.08329990150742
 20
-55.039796688150091
 10
-411.0671515717936
 20
-55.03983642531648
  0
LINE
  5
1C6
100
AcDbEntity
  8
ADF70-1703
370
              15
390
0
  6
Continuous
 62
               7
100
AcDbLine
 10
-411.34179720595557
 20
-55.039836425321937
 30
0.0
 11
-199.72478358602439
 21
-55.040061799971681
 31
0.0
  0
ARC
  5
1C7
100
AcDbEntity
  8
ADF70-1703
370
              15
390
0
  6
Continuous
 62
               7
100
AcDbCircle
 10
-199.72478358602484
 20
-888.02615542762555
 30
0.0
 40
37.0
100
AcDbArc
 50
270.0
 51
359.99999472873981
  0
LINE
  5
1C8
100
AcDbEntity
  8
ADF70-1703
370
              15
390
0
  6
Continuous
 62
               7
100
AcDbLine
 10
-162.72478358602439
 20
-92.040058395940378
 30
0.0
 11
-162.72478358602484
 21
-888.02615883165686
 31
0.0
  0
LINE
  5
1C9
100
AcDbEntity
  8
ADF70-1703
370
              15
390
0
  6
Continuous
 62
               7
100
AcDbLine
 10
-147.89283489994796
 20
-890.00810792941388
 30
0.0
 11
-147.8928348999475
 21
-90.008109298182944
 31
0.0
  0
ARC
  5
1CA
100
AcDbEntity
  8
ADF70-1703
370
              15
390
0
  6
Continuous
 62
               7
100
AcDbCircle
 10
-197.89283489994796
 20
-890.00810574408001
 30
0.0
 40
50.0
100
AcDbArc
 50
270.0
 51
359.99999749579183
  0
LINE
  5
1CB
100
AcDbEntity
  8
ADF70-1703
370
              15
390
0
  6
Continuous
 62
               7
100
AcDbLine
 10
-197.89283489994796
 20
-940.00810574408001
 30
0.0
 11
-564.89448152122532
 21
-940.00810574408001
 31
0.0
  0
LINE
  5
1CC
100
AcDbEntity
  8
ADF70-1703
370
              15
390
0
  6
Continuous
 62
               7
100
AcDbLine
 10
-197.8928348999475
 20
-40.008111483516814
 30
0.0
 11
-564.89448182539854
 21
-40.008105749738434
 31
0.0
  0
ARC
  5
1CD
100
AcDbEntity
  8
ADF70-1703
370
              15
390
0
  6
Continuous
 62
               7
100
AcDbCircle
 10
-564.89448182539854
 20
-43.008105749738434
 30
0.0
 40
3.0
100
AcDbArc
 50
90.0
 51
180.00000001750902
  0
CIRCLE
  5
1CE
100
AcDbEntity
  8
ADF70-1703
370
              15
390
0
  6
STYLE_23
 62
               7
100
AcDbCircle
 10
-507.89448167339651
 20
-489.75933034938953
 30
0.0
 40
17.5
  0
CIRCLE
  5
1CF
100
AcDbEntity
  8
ADF70-1703
370
              15
390
0
  6
Continuous
 62
               7
100
AcDbCircle
 10
-357.89448167339651
 20
-489.75933326570157
 30
0.0
 40
22.499999999998181
  0
CIRCLE
  5
1D0
100
AcDbEntity
  8
ADF70-1703
370
              15
390
0
  6
Continuous
 62
               7
100
AcDbCircle
 10
-357.89448167339651
 20
-489.75933326570157
 30
0.0
 40
38.0
  0
SPLINE
  5
1D1
100
AcDbEntity
  8
ADF70-1703
370
              15
390
0
  6
Continuous
 62
               7
100
AcDbSpline
210
0.0
220
0.0
230
1.0
 70
               9
 71
               2
 72
              22
 73
              19
 74
               0
 42
0.000001
 43
0.000001
 40
0.0
 40
0.0
 40
0.0
 40
1.0
 40
2.0
 40
3.0
 40
3.0
 40
4.0
 40
5.0
 40
6.0
 40
7.0
 40
7.0
 40
8.0
 40
9.0
 40
10.0
 40
10.0
 40
11.0
 40
12.0
 40
13.0
 40
14.0
 40
14.0
 40
14.0
 10
-445.7316046331498
 20
-502.36213730882469
 30
0.0
 10
-445.46586955709154
 20
-502.15838702993801
 30
0.0
 10
-445.14989171283378
 20
-500.67569122988175
 30
0.0
 10
-444.5970592599956
 20
-494.70003698685491
 30
0.0
 10
-444.63317494186367
 20
-489.86213730882469
 30
0.0
 10
-444.6294907597312
 20
-487.00021606003088
 30
0.0
 10
-444.83521799263008
 20
-482.17294447902145
 30
0.0
 10
-445.1505794817781
 20
-479.06115221831101
 30
0.0
 10
-445.46586955709154
 20
-477.56588758771181
 30
0.0
 10
-445.7316046331498
 20
-477.36213730882469
 30
0.0
 10
-445.99733970920852
 20
-477.56588758771181
 30
0.0
 10
-446.31331755346628
 20
-479.04858338776899
 30
0.0
 10
-446.86615000630445
 20
-485.02423763079355
 30
0.0
 10
-446.83003432443638
 20
-489.86213730882469
 30
0.0
 10
-446.83371850656931
 20
-492.72405855761849
 30
0.0
 10
-446.62799127367043
 20
-497.55133013862746
 30
0.0
 10
-446.3126297845206
 20
-500.66312239933791
 30
0.0
 10
-445.99733970920852
 20
-502.15838702993847
 30
0.0
 10
-445.7316046331498
 20
-502.36213730882469
 30
0.0
  0
SPLINE
  5
1D2
100
AcDbEntity
  8
ADF70-1703
370
              15
390
0
  6
Continuous
 62
               7
100
AcDbSpline
210
0.0
220
0.0
230
1.0
 70
              12
 71
               2
 72
              60
 73
              57
 74
               0
 42
0.000001
 43
0.000001
 40
0.0
 40
0.0
 40
0.0
 40
1.0
 40
1.0
 40
2.0
 40
2.0
 40
3.0
 40
3.0
 40
4.0
 40
4.0
 40
5.0
 40
5.0
 40
6.0
 40
6.0
 40
7.0
 40
7.0
 40
8.0
 40
8.0
 40
9.0
 40
9.0
 40
10.0
 40
10.0
 40
11.0
 40
11.0
 40
12.0
 40
12.0
 40
13.0
 40
13.0
 40
14.0
 40
14.0
 40
15.0
 40
15.0
 40
16.0
 40
16.0
 40
17.0
 40
17.0
 40
18.0
 40
18.0
 40
19.0
 40
19.0
 40
20.0
 40
20.0
 40
21.0
 40
21.0
 40
22.0
 40
22.0
 40
23.0
 40
23.0
 40
24.0
 40
24.0
 40
25.0
 40
25.0
 40
26.0
 40
26.0
 40
27.0
 40
27.0
 40
28.0
 40
28.0
 40
28.0
 10
-259.89419020554533
 20
-141.8661484806421
 30
0.0
 41
1.0
 10
-259.92826701968806
 20
-141.86781712279935
 30
0.0
 41
0.9999996991445035
 10
-259.96234638141914
 20
-141.86943289279884
 30
0.0
 41
1.0
 10
-260.39695904346991
 20
-141.89003873942056
 30
0.0
 41
1.0
 10
-260.83157170552022
 20
-141.91064458604205
 30
0.0
 41
1.0
 10
-261.73487639151517
 20
-141.95347204929226
 30
0.0
 41
0.9997284037809866
 10
-262.63919551212484
 20
-141.95416156397982
 30
0.0
 41
1.0
 10
-262.95480635253898
 20
-141.95440220724959
 30
0.0
 41
1.0
 10
-263.27041719295266
 20
-141.95464285051912
 30
0.0
 41
1.0
 10
-264.05490901582607
 20
-141.95524100068724
 30
0.0
 41
0.999998291797091
 10
-264.83939768963774
 20
-141.95293913186742
 30
0.0
 41
1.0
 10
-265.62388636338846
 20
-141.95063726304784
 30
0.0
 41
0.9999989716240432
 10
-266.40837841258326
 20
-141.9505855149082
 30
0.0
 41
1.0
 10
-266.59587003995057
 20
-141.95057314723294
 30
0.0
 41
1.0
 10
-266.78336166731742
 20
-141.95056077955769
 30
0.0
 41
1.0
 10
-267.94283697116634
 20
-141.95048429606777
 30
0.0
 41
0.9999998869115713
 10
-269.10231167685833
 20
-141.94930406501999
 30
0.0
 41
1.0
 10
-270.01373052090185
 20
-141.9483763304072
 30
0.0
 41
1.0
 10
-270.92514936494536
 20
-141.94744859579441
 30
0.0
 41
1.0
 10
-273.90746175989125
 20
-141.9444128955206
 30
0.0
 41
0.9999999367412118
 10
-276.88977555923157
 20
-141.94350275228999
 30
0.0
 41
1.0
 10
-282.36542721776004
 20
-141.94183169162216
 30
0.0
 41
1.0
 10
-287.84107887628852
 20
-141.94016063095432
 30
0.0
 41
1.0
 10
-301.77469603524833
 20
-141.93590836638077
 30
0.0
 41
0.9999999957705777
 10
-315.70831368853715
 20
-141.93451207199791
 30
0.0
 41
1.0
 10
-320.35761197684633
 20
-141.9340461636275
 30
0.0
 41
1.0
 10
-325.00691026515551
 20
-141.93358025525686
 30
0.0
 41
1.0
 10
-331.76950688742136
 20
-141.93290257226545
 30
0.0
 41
0.9999999387475845
 10
-338.53210232369793
 20
-141.93697059070746
 30
0.0
 41
1.0
 10
-338.78652672819408
 20
-141.93712363892382
 30
0.0
 41
1.0
 10
-339.04095113269022
 20
-141.93727668714041
 30
0.0
 41
1.0
 10
-345.2946977598067
 20
-141.94103860914993
 30
0.0
 41
0.9999998449168825
 10
-351.54844469589261
 20
-141.93783676911153
 30
0.0
 41
1.0
 10
-357.8021916334701
 20
-141.93463492907313
 30
0.0
 41
0.9999999624984419
 10
-364.05593938729635
 20
-141.93484121682377
 30
0.0
 41
1.0
 10
-365.010107425961
 20
-141.93487269125899
 30
0.0
 41
1.0
 10
-365.96427546462564
 20
-141.93490416569398
 30
0.0
 41
1.0
 10
-374.12635925562745
 20
-141.9351734023096
 30
0.0
 41
0.9999999948149903
 10
-382.2884428847733
 20
-141.93717421049496
 30
0.0
 41
1.0
 10
-385.374697978119
 20
-141.93793075805684
 30
0.0
 41
1.0
 10
-388.46095307146425
 20
-141.93868730561871
 30
0.0
 41
1.0
 10
-392.8807148945757
 20
-141.93977074167015
 30
0.0
 41
0.9999999214952814
 10
-397.30047446502795
 20
-141.94436271999575
 30
0.0
 41
1.0
 10
-399.19077138302691
 20
-141.94632667354108
 30
0.0
 41
1.0
 10
-401.08106830102588
 20
-141.94829062708618
 30
0.0
 41
1.0
 10
-401.72023403554886
 20
-141.94895469832227
 30
0.0
 41
0.9999999016460788
 10
-402.35940010728609
 20
-141.94905246118992
 30
0.0
 41
1.0
 10
-402.38919245353281
 20
-141.94905701804191
 30
0.0
 41
1.0
 10
-402.41898479977999
 20
-141.9490615748939
 30
0.0
 41
1.0
 10
-402.99856617911155
 20
-141.9491502240578
 30
0.0
 41
0.9999994561777582
 10
-403.5781461130664
 20
-141.95044772917072
 30
0.0
 41
1.0
 10
-403.61222646031092
 20
-141.95052402481542
 30
0.0
 41
1.0
 10
-403.64630680755545
 20
-141.95060032046035
 30
0.0
 41
1.0
 10
-404.15772604684753
 20
-141.95174523428341
 30
0.0
 41
0.9999935698332761
 10
-404.66914034374395
 20
-141.94922211468429
 30
0.0
 41
1.0
 10
-404.68618742495619
 20
-141.94913801100256
 30
0.0
 41
1.0
 10
-404.70323435701584
 20
-141.94903152538313
 30
0.0
 41
1.0
  0
SPLINE
  5
1D3
100
AcDbEntity
  8
ADF70-1703
370
              15
390
0
  6
Continuous
 62
               7
100
AcDbSpline
210
0.0
220
0.0
230
1.0
 70
              12
 71
               2
 72
              88
 73
              85
 74
               0
 42
0.000001
 43
0.000001
 40
0.0
 40
0.0
 40
0.0
 40
1.0
 40
1.0
 40
2.0
 40
2.0
 40
3.0
 40
3.0
 40
4.0
 40
4.0
 40
5.0
 40
5.0
 40
6.0
 40
6.0
 40
7.0
 40
7.0
 40
8.0
 40
8.0
 40
9.0
 40
9.0
 40
10.0
 40
10.0
 40
11.0
 40
11.0
 40
12.0
 40
12.0
 40
13.0
 40
13.0
 40
14.0
 40
14.0
 40
15.0
 40
15.0
 40
16.0
 40
16.0
 40
17.0
 40
17.0
 40
18.0
 40
18.0
 40
19.0
 40
19.0
 40
20.0
 40
20.0
 40
21.0
 40
21.0
 40
22.0
 40
22.0
 40
23.0
 40
23.0
 40
24.0
 40
24.0
 40
25.0
 40
25.0
 40
26.0
 40
26.0
 40
27.0
 40
27.0
 40
28.0
 40
28.0
 40
29.0
 40
29.0
 40
30.0
 40
30.0
 40
31.0
 40
31.0
 40
32.0
 40
32.0
 40
33.0
 40
33.0
 40
34.0
 40
34.0
 40
35.0
 40
35.0
 40
36.0
 40
36.0
 40
37.0
 40
37.0
 40
38.0
 40
38.0
 40
39.0
 40
39.0
 40
40.0
 40
40.0
 40
41.0
 40
41.0
 40
42.0
 40
42.0
 40
42.0
 10
-404.22602972251434
 20
-141.94903152538473
 30
0.0
 41
1.0
 10
-404.39570082130285
 20
-141.95263584514919
 30
0.0
 41
0.9999979654060379
 10
-404.56535599773542
 20
-141.95692466286187
 30
0.0
 41
1.0
 10
-404.63429517737586
 20
-141.95866741885038
 30
0.0
 41
1.0
 10
-404.70323435701584
 20
-141.96041017483913
 30
0.0
 41
1.0
 10
-405.01076789278068
 20
-141.9681845045302
 30
0.0
 41
0.9998447979994348
 10
-405.31783663649685
 20
-141.98678833356598
 30
0.0
 41
1.0
 10
-405.43833597640696
 20
-141.99408881322893
 30
0.0
 41
1.0
 10
-405.55883531631753
 20
-142.00138929289187
 30
0.0
 41
1.0
 10
-406.10690273985483
 20
-142.03459408125354
 30
0.0
 41
0.9997195203821276
 10
-406.65278303128207
 20
-142.09371401143244
 30
0.0
 41
1.0
 10
-406.7055916002696
 20
-142.09943328534723
 30
0.0
 41
1.0
 10
-406.75840016925713
 20
-142.10515255926202
 30
0.0
 41
1.0
 10
-407.40989759865579
 20
-142.17571103727005
 30
0.0
 41
0.9997072415607369
 10
-408.05721879244766
 20
-142.27770452437903
 30
0.0
 41
1.0
 10
-408.06644995634451
 20
-142.27915900880635
 30
0.0
 41
1.0
 10
-408.07568112024182
 20
-142.28061349323389
 30
0.0
 41
1.0
 10
-408.74146464182104
 20
-142.38551594919682
 30
0.0
 41
0.9996948025442178
 10
-409.40125400691522
 20
-142.52317573483879
 30
0.0
 41
1.0
 10
-409.40393095157287
 20
-142.5237342579785
 30
0.0
 41
1.0
 10
-409.40660789623053
 20
-142.52429278111822
 30
0.0
 41
1.0
 10
-410.07179647131215
 20
-142.66307906883617
 30
0.0
 41
0.9996938813575899
 10
-410.72930519514603
 20
-142.8346009396314
 30
0.0
 41
1.0
 10
-411.38689082026531
 20
-143.00614050442732
 30
0.0
 41
0.9996946354820162
 10
-412.03519809948102
 20
-143.2099599058181
 30
0.0
 41
1.0
 10
-412.0401815594596
 20
-143.21152662801751
 30
0.0
 41
1.0
 10
-412.04516501943817
 20
-143.21309335021692
 30
0.0
 41
1.0
 10
-412.68353695930773
 20
-143.41378754541256
 30
0.0
 41
0.9996936026985164
 10
-413.31119419804872
 20
-143.64582910258309
 30
0.0
 41
1.0
 10
-413.93887172387258
 20
-143.87787815978072
 30
0.0
 41
0.9997107357494314
 10
-414.55466435676726
 20
-144.13984242190872
 30
0.0
 41
1.0
 10
-415.17047727675072
 20
-144.40181418406632
 30
0.0
 41
0.9996924807504836
 10
-415.77254402687458
 20
-144.69399629332543
 30
0.0
 41
1.0
 10
-415.77737294116378
 20
-144.6963397583354
 30
0.0
 41
1.0
 10
-415.78220185545342
 20
-144.69868322334514
 30
0.0
 41
1.0
 10
-416.39402851652085
 20
-144.99560180304525
 30
0.0
 41
0.9996927663562251
 10
-416.99038874792313
 20
-145.32247636700777
 30
0.0
 41
1.0
 10
-417.58689580950931
 20
-145.6494249979055
 30
0.0
 41
0.9996910891815669
 10
-418.16641890849451
 20
-146.00561183021728
 30
0.0
 41
1.0
 10
-418.74602415658273
 20
-146.36184617644881
 30
0.0
 41
0.9996871576294105
 10
-419.30708971478271
 20
-146.74661960645494
 30
0.0
 41
1.0
 10
-419.86820323600341
 20
-147.1314232669572
 30
0.0
 41
0.9996856608563915
 10
-420.4093222133647
 20
-147.54387022498122
 30
0.0
 41
1.0
 10
-420.95042879340053
 20
-147.95630692647228
 30
0.0
 41
0.9996846581287279
 10
-421.47014572167745
 20
-148.39539083436171
 30
0.0
 41
1.0
 10
-421.98983334020841
 20
-148.83445187721918
 30
0.0
 41
0.9996818857592555
 10
-422.48671921698133
 20
-149.29916065234829
 30
0.0
 41
1.0
 10
-422.98361145703984
 20
-149.76387595272445
 30
0.0
 41
0.9996776307092894
 10
-423.45627275269089
 20
-150.25321582257811
 30
0.0
 41
1.0
 10
-423.9289637653178
 20
-150.74258518602846
 30
0.0
 41
0.9996730747764762
 10
-424.3760201291534
 20
-151.25547871772642
 30
0.0
 41
1.0
 10
-424.82311388323251
 20
-151.76841324190173
 30
0.0
 41
0.9996671135607859
 10
-425.24315336127847
 20
-152.30372762421393
 30
0.0
 41
1.0
 10
-425.66324135023933
 20
-152.83910123778514
 30
0.0
 41
0.9996592965171598
 10
-426.05481829523706
 20
-153.39566778432209
 30
0.0
 41
1.0
 10
-426.44643958038159
 20
-153.95229322162731
 30
0.0
 41
0.9996504643692832
 10
-426.80809197459257
 20
-154.52884040460617
 30
0.0
 41
1.0
 10
-426.84201749550948
 20
-154.58292429491121
 30
0.0
 41
1.0
 10
-426.87594301642639
 20
-154.63700818521625
 30
0.0
 41
1.0
 10
-427.16976058526507
 20
-155.10541063662413
 30
0.0
 41
0.9996438929613726
 10
-427.43817000435592
 20
-155.58882143913729
 30
0.0
 41
1.0
 10
-427.70654835260939
 20
-156.07217628244325
 30
0.0
 41
0.9998585166939353
 10
-427.95851608850808
 20
-156.56428511434024
 30
0.0
 41
1.0
 10
-428.21045275357437
 20
-157.05633798703798
 30
0.0
 41
0.9996287764180263
 10
-428.43521303194348
 20
-157.56138346023999
 30
0.0
 41
1.0
 10
-428.45894908377886
 20
-157.61471933265625
 30
0.0
 41
1.0
 10
-428.4826851356147
 20
-157.66805520507251
 30
0.0
 41
1.0
 10
-428.75492137567971
 20
-158.27978109224523
 30
0.0
 41
0.999639190872556
 10
-428.99391407937355
 20
-158.9052438161691
 30
0.0
 41
1.0
 10
-429.0223639146343
 20
-158.97969910525353
 30
0.0
 41
1.0
 10
-429.05081374989504
 20
-159.05415439433773
 30
0.0
 41
1.0
 10
-429.2329106410898
 20
-159.53071520922663
 30
0.0
 41
0.9995923909960658
 10
-429.38751100954914
 20
-160.01689235198387
 30
0.0
 41
1.0
 10
-429.54211137801394
 20
-160.5030694947593
 30
0.0
 41
0.9998916310819985
 10
-429.68233165568245
 20
-160.99358734542466
 30
0.0
 41
1.0
 10
-429.69403233993035
 20
-161.03451861858889
 30
0.0
 41
1.0
 10
-429.70573302417779
 20
-161.07544989175312
 30
0.0
 41
1.0
 10
-429.86935467034937
 20
-161.64783028877378
 30
0.0
 41
0.9993303919621328
 10
-429.99068040825887
 20
-162.23064366139693
 30
0.0
 41
1.0
 10
-430.01667971946699
 20
-162.35553675096025
 30
0.0
 41
1.0
 10
-430.04267903067557
 20
-162.48042984052336
 30
0.0
 41
1.0
 10
-430.17261547174985
 20
-163.10460651361564
 30
0.0
 41
0.9996483327496457
 10
-430.26927682179848
 20
-163.73479424862671
 30
0.0
 41
1.0
 10
-430.2724976393929
 20
-163.75579250432565
 30
0.0
 41
1.0
 10
-430.27568302224654
 20
-163.77679223748646
 30
0.0
 41
1.0
  0
SPLINE
  5
1D4
100
AcDbEntity
  8
ADF70-1703
370
              15
390
0
  6
Continuous
 62
               7
100
AcDbSpline
210
0.0
220
0.0
230
1.0
 70
              12
 71
               2
 72
              46
 73
              43
 74
               0
 42
0.000001
 43
0.000001
 40
0.0
 40
0.0
 40
0.0
 40
1.0
 40
1.0
 40
2.0
 40
2.0
 40
3.0
 40
3.0
 40
4.0
 40
4.0
 40
5.0
 40
5.0
 40
6.0
 40
6.0
 40
7.0
 40
7.0
 40
8.0
 40
8.0
 40
9.0
 40
9.0
 40
10.0
 40
10.0
 40
11.0
 40
11.0
 40
12.0
 40
12.0
 40
13.0
 40
13.0
 40
14.0
 40
14.0
 40
15.0
 40
15.0
 40
16.0
 40
16.0
 40
17.0
 40
17.0
 40
18.0
 40
18.0
 40
19.0
 40
19.0
 40
20.0
 40
20.0
 40
21.0
 40
21.0
 40
21.0
 10
-259.89419020551622
 20
-838.19970099154284
 30
0.0
 41
1.0
 10
-260.17485162737057
 20
-838.18564682601345
 30
0.0
 41
1.0
 10
-260.45551304922492
 20
-838.17159266048407
 30
0.0
 41
1.0
 10
-261.39314460122068
 20
-838.12464061075025
 30
0.0
 41
0.9997752297614945
 10
-262.33192367133006
 20
-838.1174796207597
 30
0.0
 41
1.0
 10
-263.27070274144717
 20
-838.11031863076869
 30
0.0
 41
0.9999905698684497
 10
-264.20950859782488
 20
-838.11131175029095
 30
0.0
 41
1.0
 10
-265.96210434933982
 20
-838.11316574070179
 30
0.0
 41
1.0
 10
-267.71470010085523
 20
-838.1150197311124
 30
0.0
 41
1.0
 10
-272.15869746022645
 20
-838.11972083145542
 30
0.0
 41
0.9999999287527464
 10
-276.60269710431885
 20
-838.12106014105416
 30
0.0
 41
1.0
 10
-281.77605185692073
 20
-838.12261925991788
 30
0.0
 41
1.0
 10
-286.94940660952261
 20
-838.12417837878183
 30
0.0
 41
1.0
 10
-300.13267180384673
 20
-838.12815148296977
 30
0.0
 41
1.000000000782483
 10
-313.31593744556631
 20
-838.13014880371702
 30
0.0
 41
1.0
 10
-317.02697470747717
 20
-838.13071104162577
 30
0.0
 41
1.0
 10
-320.73801196938848
 20
-838.13127327953453
 30
0.0
 41
1.0
 10
-326.49920311097685
 20
-838.13214612446131
 30
0.0
 41
0.9999999856077564
 10
-332.26039417787979
 20
-838.13111705628239
 30
0.0
 41
1.0
 10
-333.1816654230588
 20
-838.13095249813682
 30
0.0
 41
1.0
 10
-334.10293666823736
 20
-838.13078793999125
 30
0.0
 41
1.0
 10
-338.02158527183201
 20
-838.13008798810279
 30
0.0
 41
0.9999999585645856
 10
-341.9402328180613
 20
-838.12713251903665
 30
0.0
 41
1.0
 10
-345.85888036687584
 20
-838.1241770499696
 30
0.0
 41
0.9999998294339353
 10
-349.77752869431652
 20
-838.1257995398762
 30
0.0
 41
1.0
 10
-353.56642024544544
 20
-838.12736830486483
 30
0.0
 41
1.0
 10
-357.35531179657437
 20
-838.12893706985369
 30
0.0
 41
1.0
 10
-368.85174322075045
 20
-838.13369708973892
 30
0.0
 41
0.9999999163786042
 10
-380.34817470789085
 20
-838.12906515083
 30
0.0
 41
1.0
 10
-385.79134404233992
 20
-838.12687208528064
 30
0.0
 41
1.0
 10
-391.23451337678944
 20
-838.12467901973127
 30
0.0
 41
1.0
 10
-395.03459795779008
 20
-838.12314795684051
 30
0.0
 41
0.9999999379970344
 10
-398.83468052658736
 20
-838.11894828610411
 30
0.0
 41
1.0
 10
-400.3516699703232
 20
-838.11727178143406
 30
0.0
 41
1.0
 10
-401.86865941405904
 20
-838.115595276764
 30
0.0
 41
1.0
 10
-402.63476309543648
 20
-838.11474861536863
 30
0.0
 41
0.9999998763617561
 10
-403.400867239744
 20
-838.11466384399864
 30
0.0
 41
1.0
 10
-403.6139225199513
 20
-838.11464026889053
 30
0.0
 41
1.0
 10
-403.8269778001586
 20
-838.11461669378264
 30
0.0
 41
1.0
 10
-404.16697138413838
 20
-838.11457907262889
 30
0.0
 41
0.9999986821130157
 10
-404.50696329800758
 20
-838.11564540569339
 30
0.0
 41
1.0
 10
-404.51445196599889
 20
-838.11566889276423
 30
0.0
 41
1.0
 10
-404.52194052760797
 20
-838.11571635311907
 30
0.0
 41
1.0
  0
LWPOLYLINE
  5
1D5
100
AcDbEntity
  8
ADF70-1703
370
              15
390
0
  6
Continuous
 62
               7
100
AcDbPolyline
 90
       46
 70
             128
 10
-404.22602972147752
 20
-838.11681794682931
 42
-0.0004928709721465
 10
-404.52194052763798
 20
-838.11031863076869
 10
-404.57008386255256
 20
-838.10921374093027
 42
-0.0053738819159755
 10
-404.96213290085325
 20
-838.09599918126628
 10
-405.21424274496439
 20
-838.08478771033401
 42
-0.0117149343213929
 10
-406.10894431306542
 20
-838.0239708191134
 10
-406.30224518142586
 20
-838.00627346447936
 42
-0.0102603016349568
 10
-407.41837945057887
 20
-837.88094591893787
 42
-0.0102239919737462
 10
-408.5284014948129
 20
-837.7100199495917
 42
-0.010212037948033
 10
-409.63044777730556
 20
-837.49389565864431
 42
-0.0102107548271444
 10
-410.72270980229496
 20
-837.23296241219623
 42
-0.0102151900655894
 10
-411.80336036080871
 20
-836.92765335279591
 42
-0.0102221186400552
 10
-412.8705806467151
 20
-836.57846029759526
 42
-0.0102300266242136
 10
-413.92257039336801
 20
-836.18594255891207
 42
-0.0102385551671922
 10
-414.9575489606259
 20
-835.75073132550574
 42
-0.0102480499001635
 10
-415.97375795479002
 20
-835.27352932067674
 42
-0.0102592725275636
 10
-416.9694626806322
 20
-834.75510817612417
 42
-0.0102731825710375
 10
-417.94295237110828
 20
-834.19630485951598
 42
-0.0102907513097291
 10
-418.89253941062407
 20
-833.59801819610425
 42
-0.0103128453035725
 10
-419.81655792444917
 20
-832.96120621588761
 42
-0.0103401939424179
 10
-420.7133620942559
 20
-832.28688466107451
 42
-0.0103734142195445
 10
-421.5813244417518
 20
-831.57612666067257
 42
-0.0104130808322351
 10
-422.41883416200017
 20
-830.8300633782851
 42
-0.0104598410524111
 10
-423.22429538310371
 20
-830.04988531930826
 42
-0.0105144860360011
 10
-423.99612944078899
 20
-829.23683912016577
 42
-0.0105785225466576
 10
-424.73276590766272
 20
-828.39223450935697
 42
-0.0106527449079938
 10
-425.43262913054696
 20
-827.51745986415995
 42
-0.0107384610977349
 10
-426.09414600573018
 20
-826.61397552435028
 42
-0.0108368758625671
 10
-426.71575030375061
 20
-825.68330832880224
 42
-0.0109486431131897
 10
-427.29587618906862
 20
-824.72706351858005
 42
-0.0110737508111708
 10
-427.83295840631445
 20
-823.74693562520883
 42
-0.0112117749160046
 10
-428.32543644356701
 20
-822.74472128336356
 10
-428.32568299457398
 20
-822.7441897537492
 42
-0.0113539133499315
 10
-428.77176931633039
 20
-821.72232721075738
 10
-428.77202545608361
 20
-821.72170212763126
 42
-0.0115097853575779
 10
-429.1704506346523
 20
-820.68178600230431
 42
-0.0116646160022608
 10
-429.52026600957743
 20
-819.62453505069857
 10
-429.53806605728641
 20
-819.56620945545546
 42
-0.0140643770860263
 10
-429.85508322783289
 20
-818.41212422689887
 10
-429.88826581096828
 20
-818.27650029699203
 42
-0.011630350047842
 10
-430.08559593146765
 20
-817.38015320822456
 10
-430.12450358886508
 20
-817.18152534035221
 42
-0.0084088035774739
 10
-430.21466908268076
 20
-816.67632685453373
 10
-430.23441328046238
 20
-816.55382355894426
 42
-0.0025604353794539
 10
-430.2752522937958
 20
-816.29190605642884
 10
-430.27568302221471
 20
-816.28905723470939
  0
POLYLINE
  5
1D6
100
AcDbEntity
  8
ADF70-1703
370
              15
390
0
  6
Continuous
 62
               7
100
AcDb3dPolyline
 66
               1
 10
0.0
 20
0.0
 30
0.0
 70
               8
  0
VERTEX
  5
1D7
100
AcDbEntity
  8
ADF70-1703
370
              15
390
0
  6
Continuous
 62
               7
100
AcDbVertex
100
AcDb3dPolylineVertex
 10
-435.76556158961193
 20
-906.99180978907475
 30
0.000000001865321
 70
              32
  0
VERTEX
  5
1D8
100
AcDbEntity
  8
ADF70-1703
370
              15
390
0
  6
Continuous
 62
               7
100
AcDbVertex
100
AcDb3dPolylineVertex
 10
-422.83175464288888
 20
-838.69974580025314
 30
0.0
 70
              32
  0
SEQEND
  5
1D9
100
AcDbEntity
  8
ADF70-1703
370
              15
390
0
  6
Continuous
 62
               7
  0
POLYLINE
  5
1DA
100
AcDbEntity
  8
ADF70-1703
370
              15
390
0
  6
Continuous
 62
               7
100
AcDb3dPolyline
 66
               1
 10
0.0
 20
0.0
 30
0.0
 70
               8
  0
VERTEX
  5
1DB
100
AcDbEntity
  8
ADF70-1703
370
              15
390
0
  6
Continuous
 62
               7
100
AcDbVertex
100
AcDb3dPolylineVertex
 10
-435.76556158961193
 20
-73.074407438547951
 30
0.000000001865321
 70
              32
  0
VERTEX
  5
1DC
100
AcDbEntity
  8
ADF70-1703
370
              15
390
0
  6
Continuous
 62
               7
100
AcDbVertex
100
AcDb3dPolylineVertex
 10
-422.83175464288888
 20
-141.36610367194817
 30
0.0
 70
              32
  0
SEQEND
  5
1DD
100
AcDbEntity
  8
ADF70-1703
370
              15
390
0
  6
Continuous
 62
               7
  0
POLYLINE
  5
1DE
100
AcDbEntity
  8
ADF70-1703
370
              15
390
0
  6
Continuous
 62
               7
100
AcDb3dPolyline
 66
               1
 10
0.0
 20
0.0
 30
0.0
 70
               8
  0
VERTEX
  5
1DF
100
AcDbEntity
  8
ADF70-1703
370
              15
390
0
  6
Continuous
 62
               7
100
AcDbVertex
100
AcDb3dPolylineVertex
 10
-236.83458656407856
 20
-837.15067903665818
 30
0.0
 70
              32
  0
VERTEX
  5
1E0
100
AcDbEntity
  8
ADF70-1703
370
              15
390
0
  6
Continuous
 62
               7
100
AcDbVertex
100
AcDb3dPolylineVertex
 10
-181.08464761870619
 20
-906.66583975034496
 30
0.000000001865321
 70
              32
  0
SEQEND
  5
1E1
100
AcDbEntity
  8
ADF70-1703
370
              15
390
0
  6
Continuous
 62
               7
  0
POLYLINE
  5
1E2
100
AcDbEntity
  8
ADF70-1703
370
              15
390
0
  6
Continuous
 62
               7
100
AcDb3dPolyline
 66
               1
 10
0.0
 20
0.0
 30
0.0
 70
               8
  0
VERTEX
  5
1E3
100
AcDbEntity
  8
ADF70-1703
370
              15
390
0
  6
Continuous
 62
               7
100
AcDbVertex
100
AcDb3dPolylineVertex
 10
-236.83458656407856
 20
-142.91517043551767
 30
0.0
 70
              32
  0
VERTEX
  5
1E4
100
AcDbEntity
  8
ADF70-1703
370
              15
390
0
  6
Continuous
 62
               7
100
AcDbVertex
100
AcDb3dPolylineVertex
 10
-181.08464761870619
 20
-73.400377477252277
 30
0.000000001865321
 70
              32
  0
SEQEND
  5
1E5
100
AcDbEntity
  8
ADF70-1703
370
              15
390
0
  6
Continuous
 62
               7
  0
LINE
  5
1E6
100
AcDbEntity
  8
ADF70-1703
370
              15
390
0
  6
Continuous
 62
               7
100
AcDbLine
 10
-430.27568302224699
 20
-816.26157186939031
 30
0.0
 11
-430.27568302224699
 21
-161.07679223748642
 31
0.0
  0
ARC
  5
1E7
100
AcDbEntity
  8
ADF70-1703
370
              15
390
0
  6
Continuous
 62
               7
100
AcDbCircle
 10
-199.72478358602439
 20
-92.040061799971681
 30
0.0
 40
37.000000000000156
100
AcDbArc
 50
0.0000052712601904
 51
90.0
  0
ARC
  5
1E8
100
AcDbEntity
  8
ADF70-1703
370
              15
390
0
  6
Continuous
 62
               7
100
AcDbCircle
 10
-197.8928348999475
 20
-90.008111483516814
 30
0.0
 40
50.00000000000005
100
AcDbArc
 50
0.0000025042081509
 51
90.0
  0
LINE
  5
1E9
100
AcDbEntity
  8
ADF70-1703
370
              15
390
0
  6
Continuous
 62
               7
100
AcDbLine
 10
-235.81676336862529
 20
-814.00111355155582
 30
0.0
 11
-235.96849460866497
 21
-166.06139818320412
 31
0.0
  0
ARC
  5
1EA
100
AcDbEntity
  8
ADF70-1703
370
              15
390
0
  6
Continuous
 62
               7
100
AcDbCircle
 10
-259.91676270782864
 20
-814.00675716730871
 30
0.0
 40
24.099999999999866
100
AcDbArc
 50
270.06061054642555
 51
0.013417235136501
  0
ARC
  5
1EB
100
AcDbEntity
  8
ADF70-1703
370
              15
390
0
  6
Continuous
 62
               7
100
AcDbCircle
 10
-260.06849394786786
 20
-166.06704179895723
 30
0.0
 40
24.099999999999557
100
AcDbArc
 50
0.0134172351370294
 51
89.831881588268388
  0
LINE
  5
1EC
100
AcDbEntity
  8
ADF70-1703
370
              15
390
0
  6
Continuous
 62
               7
100
AcDbLine
 10
531.08839862373998
 20
-934.03066104289678
 30
0.0
 11
531.08839862373998
 21
-46.030656247522302
 31
0.0
  0
LINE
  5
1ED
100
AcDbEntity
  8
ADF70-1703
370
              15
390
0
  6
Continuous
 62
               7
100
AcDbLine
 10
591.09193565153691
 20
-890.28269295541372
 30
0.0
 11
661.07906984376586
 21
-830.0306562475223
 31
0.0
  0
LINE
  5
1EE
100
AcDbEntity
  8
ADF70-1703
370
              15
390
0
  6
Continuous
 62
               7
100
AcDbLine
 10
661.07906984376586
 20
-150.0306562475223
 30
0.0
 11
661.07906984376586
 21
-830.0306562475223
 31
0.0
  0
LINE
  5
1EF
100
AcDbEntity
  8
ADF70-1703
370
              15
390
0
  6
Continuous
 62
               7
100
AcDbLine
 10
661.07906984376586
 20
-530.11022605674475
 30
0.0
 11
688.18932345724534
 21
-530.11022605674475
 31
0.0
  0
LINE
  5
1F0
100
AcDbEntity
  8
ADF70-1703
370
              15
390
0
  6
Continuous
 62
               7
100
AcDbLine
 10
691.12256838971371
 20
-527.17698112427547
 30
0.0
 11
691.12256838971371
 21
-452.88433137076913
 31
0.0
  0
ARC
  5
1F1
100
AcDbEntity
  8
ADF70-1703
370
              15
390
0
  6
Continuous
 62
               7
100
AcDbCircle
 10
688.18932345724534
 20
-527.17698112427547
 30
0.0
 40
2.9332449324692789
100
AcDbArc
 50
270.0
 51
0.0
  0
LINE
  5
1F2
100
AcDbEntity
  8
ADF70-1703
370
              15
390
0
  6
STYLE_23
 62
               7
100
AcDbLine
 10
644.85602647092992
 20
-517.09173347404135
 30
0.0
 11
691.12256838971371
 21
-517.09173347404135
 31
0.0
  0
ARC
  5
1F3
100
AcDbEntity
  8
ADF70-1703
370
              15
390
0
  6
STYLE_23
 62
               7
100
AcDbCircle
 10
644.96275943204046
 20
-520.1882256851311
 30
0.0
 40
3.0983311537547005
100
AcDbArc
 50
91.974146101482901
 51
139.00772423130559
  0
LINE
  5
1F4
100
AcDbEntity
  8
ADF70-1703
370
              15
390
0
  6
STYLE_23
 62
               7
100
AcDbLine
 10
642.62414521551864
 20
-518.15585281466406
 30
0.0
 11
632.14961361593305
 21
-530.63892065920095
 31
0.0
  0
ARC
  5
1F5
100
AcDbEntity
  8
ADF70-1703
370
              15
390
0
  6
STYLE_23
 62
               7
100
AcDbCircle
 10
646.63796216884612
 20
-541.41350339061023
 30
0.0
 40
18.055577443734144
100
AcDbArc
 50
143.36284223013135
 51
182.20984424847401
  0
ARC
  5
1F6
100
AcDbEntity
  8
ADF70-1703
370
              15
390
0
  6
STYLE_23
 62
               7
100
AcDbCircle
 10
538.99852035347067
 20
-929.5687486254667
 30
0.0
 40
7.5137394678261815
100
AcDbArc
 50
136.75697131918577
 51
178.22194351757977
  0
LINE
  5
1F7
100
AcDbEntity
  8
ADF70-1703
370
              15
390
0
  6
Continuous
 62
               7
100
AcDbLine
 10
591.09195080949939
 20
-42.879221259847554
 30
0.0
 11
591.09195080949939
 21
-937.1889413858014
 31
0.0
  0
LINE
  5
1F8
100
AcDbEntity
  8
ADF70-1703
370
              15
390
0
  6
Continuous
 62
               7
100
AcDbLine
 10
661.07906984376586
 20
-449.95108643829985
 30
0.0
 11
688.18932345724534
 21
-449.95108643830008
 31
0.0
  0
ARC
  5
1F9
100
AcDbEntity
  8
ADF70-1703
370
              15
390
0
  6
Continuous
 62
               7
100
AcDbCircle
 10
688.18932345724534
 20
-452.88433137076936
 30
0.0
 40
2.9332449324683694
100
AcDbArc
 50
0.0
 51
90.0
  0
LINE
  5
1FA
100
AcDbEntity
  8
ADF70-1703
370
              15
390
0
  6
STYLE_23
 62
               7
100
AcDbLine
 10
644.85602647092992
 20
-462.96957902100326
 30
0.0
 11
691.12256838971371
 21
-462.96957902100326
 31
0.0
  0
ARC
  5
1FB
100
AcDbEntity
  8
ADF70-1703
370
              15
390
0
  6
STYLE_23
 62
               7
100
AcDbCircle
 10
644.96275943204046
 20
-459.87308680991373
 30
0.0
 40
3.0983311537549385
100
AcDbArc
 50
220.99227576869447
 51
268.02585389851714
  0
LINE
  5
1FC
100
AcDbEntity
  8
ADF70-1703
370
              15
390
0
  6
STYLE_23
 62
               7
100
AcDbLine
 10
642.62414521551864
 20
-461.90545968038055
 30
0.0
 11
632.14961361593305
 21
-449.42239183584365
 31
0.0
  0
ARC
  5
1FD
100
AcDbEntity
  8
ADF70-1703
370
              15
390
0
  6
STYLE_23
 62
               7
100
AcDbCircle
 10
646.63796216884612
 20
-438.6478091044346
 30
0.0
 40
18.055577443734549
100
AcDbArc
 50
177.79015575152604
 51
216.63715776986859
  0
INSERT
  5
1FE
100
AcDbEntity
  8
ADF70-1703
390
0
 62
               7
100
AcDbBlockReference
  2
グループ-1
 10
3003.1873156415822
 20
1073.2656755198882
 30
0.0
  0
LINE
  5
1FF
100
AcDbEntity
  8
ADF70-1703
370
              15
390
0
  6
STYLE_23
 62
               7
100
AcDbLine
 10
532.90110746884375
 20
-925.02615542762555
 30
0.0
 11
611.48281010143501
 21
-857.36360985493616
 31
0.0
  0
ARC
  5
200
100
AcDbEntity
  8
ADF70-1703
370
              15
390
0
  6
STYLE_24
 62
               7
100
AcDbCircle
 10
595.17042828557987
 20
-838.41878999583491
 30
0.0
 40
25.00000000000076
100
AcDbArc
 50
310.72999999999973
 51
355.60185907732694
  0
LINE
  5
201
100
AcDbEntity
  8
ADF70-1703
370
              15
390
0
  6
STYLE_23
 62
               7
100
AcDbLine
 10
571.0886628484177
 20
-330.03065744636592
 30
0.0
 11
571.08866524610494
 21
-370.03065744636592
 31
0.0
  0
LINE
  5
202
100
AcDbEntity
  8
ADF70-1703
370
              15
390
0
  6
STYLE_23
 62
               7
100
AcDbLine
 10
620.09680931072899
 20
-840.33595691322103
 30
0.0
 11
628.59581254832665
 21
-542.1097173645328
 31
0.0
  0
LINE
  5
203
100
AcDbEntity
  8
ADF70-1703
370
              15
390
0
  6
Continuous
 62
               7
100
AcDbLine
 10
591.09193565153691
 20
-89.778619539630654
 30
0.0
 11
661.07906984376586
 21
-150.0306562475223
 31
0.0
  0
ARC
  5
204
100
AcDbEntity
  8
ADF70-1703
370
              15
390
0
  6
STYLE_23
 62
               7
100
AcDbCircle
 10
538.99852035347067
 20
-50.49256386957768
 30
0.0
 40
7.5137394678284126
100
AcDbArc
 50
181.77805648242023
 51
223.24302868081423
  0
INSERT
  5
205
100
AcDbEntity
  8
ADF70-1703
390
0
 62
               7
100
AcDbBlockReference
  2
グループ-2
 10
3003.1873156415822
 20
1073.2656755198882
 30
0.0
  0
LINE
  5
206
100
AcDbEntity
  8
ADF70-1703
370
              15
390
0
  6
STYLE_23
 62
               7
100
AcDbLine
 10
532.90110746884375
 20
-55.035157067418822
 30
0.0
 11
611.48281010143501
 21
-122.69770264010822
 31
0.0
  0
ARC
  5
207
100
AcDbEntity
  8
ADF70-1703
370
              15
390
0
  6
STYLE_24
 62
               7
100
AcDbCircle
 10
595.17042828557987
 20
-141.64252249920946
 30
0.0
 40
25.000000000000671
100
AcDbArc
 50
4.3981409226730026
 51
49.270000000000216
  0
LINE
  5
208
100
AcDbEntity
  8
ADF70-1703
370
              15
390
0
  6
STYLE_23
 62
               7
100
AcDbLine
 10
620.09680931072899
 20
-139.72535558182335
 30
0.0
 11
628.59581254832665
 21
-437.95159513051158
 31
0.0
  0
LINE
  5
209
100
AcDbEntity
  8
ADF70-1703
370
              15
390
0
  6
STYLE_23
 62
               7
100
AcDbLine
 10
551.08866404726132
 20
-350.03065864520977
 30
0.0
 11
591.08866404726132
 21
-350.0306562475223
 31
0.0
  0
CIRCLE
  5
20A
100
AcDbEntity
  8
ADF70-1703
370
              15
390
0
  6
STYLE_23
 62
               7
100
AcDbCircle
 10
571.08866404726132
 20
-350.03065744636592
 30
0.0
 40
10.000000000000018
  0
LINE
  5
20B
100
AcDbEntity
  8
ADF70-1703
370
              15
390
0
  6
STYLE_23
 62
               7
100
AcDbLine
 10
571.0886628484177
 20
-610.03065744636592
 30
0.0
 11
571.08866524610494
 21
-650.03065744636592
 31
0.0
  0
LINE
  5
20C
100
AcDbEntity
  8
ADF70-1703
370
              15
390
0
  6
STYLE_23
 62
               7
100
AcDbLine
 10
551.08866404726132
 20
-630.03065864520954
 30
0.0
 11
591.08866404726132
 21
-630.0306562475223
 31
0.0
  0
CIRCLE
  5
20D
100
AcDbEntity
  8
ADF70-1703
370
              15
390
0
  6
STYLE_23
 62
               7
100
AcDbCircle
 10
571.08866404726132
 20
-630.03065744636592
 30
0.0
 40
10.000000000000018
  0
CIRCLE
  5
20E
100
AcDbEntity
  8
ADF70-1703
370
              15
390
0
  6
STYLE_23
 62
               7
100
AcDbCircle
 10
-507.89448167339651
 20
-389.75933034938953
 30
0.0
 40
17.5
  0
CIRCLE
  5
20F
100
AcDbEntity
  8
ADF70-1703
370
              15
390
0
  6
STYLE_23
 62
               7
100
AcDbCircle
 10
-507.89448167339651
 20
-289.75933034938953
 30
0.0
 40
17.5
  0
CIRCLE
  5
210
100
AcDbEntity
  8
ADF70-1703
370
              15
390
0
  6
STYLE_23
 62
               7
100
AcDbCircle
 10
-507.89448167339651
 20
-589.7593303493893
 30
0.0
 40
17.5
  0
CIRCLE
  5
211
100
AcDbEntity
  8
ADF70-1703
370
              15
390
0
  6
STYLE_23
 62
               7
100
AcDbCircle
 10
-507.89448167339651
 20
-689.7593303493893
 30
0.0
 40
17.5
  0
LINE
  5
212
100
AcDbEntity
  8
ADF70-1703
370
              15
390
0
  6
STYLE_24
 62
               7
100
AcDbLine
 10
537.1914033734738
 20
553.15903531948243
 30
0.0
 11
589.16857169377863
 21
554.05148271006419
 31
0.0
  0
LINE
  5
213
100
AcDbEntity
  8
ADF70-1703
370
              15
390
0
  6
Continuous
 62
               7
100
AcDbLine
 10
591.08839862373998
 20
556.00455601644467
 30
0.0
 11
591.08839862373998
 21
973.16394135162659
 31
0.0
  0
ARC
  5
214
100
AcDbEntity
  8
ADF70-1703
370
              15
390
0
  6
STYLE_24
 62
               7
100
AcDbCircle
 10
589.13503744725813
 20
556.00455601644467
 30
0.0
 40
1.9533611764816197
100
AcDbArc
 50
270.98367122715604
 51
0.0
  0
ARC
  5
215
100
AcDbEntity
  8
ADF70-1703
370
              15
390
0
  6
STYLE_23
 62
               7
100
AcDbCircle
 10
-2050.3029238497638
 20
3229.22036038843
 30
0.0
 40
3711.4475845527941
100
AcDbArc
 50
314.11607381183268
 51
315.87755221610536
  0
LINE
  5
216
100
AcDbEntity
  8
ADF70-1703
370
              15
390
0
  6
Continuous
 62
               7
100
AcDbLine
 10
661.09373973465881
 20
671.35917301494669
 30
0.0
 11
661.09373973465881
 21
973.16394138095507
 31
0.0
  0
LINE
  5
217
100
AcDbEntity
  8
ADF70-1703
370
              15
390
0
  6
Continuous
 62
               7
100
AcDbLine
 10
659.3411521449093
 20
667.12130942378985
 30
0.0
 11
591.08839862373998
 21
598.71476775395149
 31
0.0
  0
LINE
  5
218
100
AcDbEntity
  8
ADF70-1703
370
              15
390
0
  6
Continuous
 62
               7
100
AcDbLine
 10
531.54987765502892
 20
973.1639414914257
 30
0.0
 11
661.09373973465881
 21
973.16394119505753
 31
0.0
  0
LINE
  5
219
100
AcDbEntity
  8
ADF70-1703
370
              15
390
0
  6
STYLE_23
 62
               7
100
AcDbLine
 10
644.7937627363176
 20
743.30121951726881
 30
0.0
 11
691.12256838971371
 21
743.30121951726881
 31
0.0
  0
LINE
  5
21A
100
AcDbEntity
  8
ADF70-1703
370
              15
390
0
  6
STYLE_23
 62
               7
100
AcDbLine
 10
642.56431874414875
 20
742.23826221828551
 30
0.0
 11
631.80184202376904
 21
729.4120339606925
 31
0.0
  0
ARC
  5
21B
100
AcDbEntity
  8
ADF70-1703
370
              15
390
0
  6
STYLE_23
 62
               7
100
AcDbCircle
 10
644.85203659190165
 20
740.30945967285777
 30
0.0
 40
2.9923121846119662
100
AcDbArc
 50
91.115878577426457
 51
139.86535764395899
  0
ARC
  5
21C
100
AcDbEntity
  8
ADF70-1703
370
              15
390
0
  6
STYLE_23
 62
               7
100
AcDbCircle
 10
644.24654820499336
 20
719.39812313189168
 30
0.0
 40
15.973387931937829
100
AcDbArc
 50
141.17732844594133
 51
172.47063984710522
  0
LINE
  5
21D
100
AcDbEntity
  8
ADF70-1703
370
              15
390
0
  6
STYLE_23
 62
               7
100
AcDbLine
 10
628.41088529175931
 20
721.49118359986755
 30
0.0
 11
622.03707641040228
 21
663.08484248699733
 31
0.0
  0
ARC
  5
21E
100
AcDbEntity
  8
ADF70-1703
370
              15
390
0
  6
STYLE_23
 62
               7
100
AcDbCircle
 10
595.38727358293318
 20
664.48278572930417
 30
0.0
 40
26.686442926169189
100
AcDbArc
 50
314.14291089966582
 51
356.99724218984551
  0
LINE
  5
21F
100
AcDbEntity
  8
ADF70-1703
370
              15
390
0
  6
Continuous
 62
               7
100
AcDbLine
 10
661.09373973465881
 20
728.9344002784602
 30
0.0
 11
688.40509402544376
 21
730.29694341376342
 31
0.0
  0
LINE
  5
220
100
AcDbEntity
  8
ADF70-1703
370
              15
390
0
  6
Continuous
 62
               7
100
AcDbLine
 10
691.12256838971371
 20
733.42393236605426
 30
0.0
 11
691.12256838971371
 21
793.29071125836981
 31
0.0
  0
ARC
  5
221
100
AcDbEntity
  8
ADF70-1703
370
              15
390
0
  6
STYLE_24
 62
               7
100
AcDbCircle
 10
688.13651572642812
 20
733.27463799425016
 30
0.0
 40
2.9897824866304648
100
AcDbArc
 50
275.15394530422003
 51
2.8622471040752657
  0
LINE
  5
222
100
AcDbEntity
  8
ADF70-1703
370
              15
390
0
  6
Continuous
 62
               7
100
AcDbLine
 10
531.08839862373998
 20
559.62147924088549
 30
0.0
 11
531.08839862373998
 21
973.16394135162659
 31
0.0
  0
ARC
  5
223
100
AcDbEntity
  8
ADF70-1703
370
              15
390
0
  6
STYLE_24
 62
               7
100
AcDbCircle
 10
537.08839862373998
 20
559.15815108945492
 30
0.0
 40
6.0
100
AcDbArc
 50
180.0
 51
270.98367122715729
  0
ARC
  5
224
100
AcDbEntity
  8
ADF70-1703
370
              15
390
0
  6
STYLE_23
 62
               7
100
AcDbCircle
 10
538.58839862374043
 20
559.34904194020601
 30
0.0
 40
7.5000000000004601
100
AcDbArc
 50
134.11776864340223
 51
180.0
  0
LINE
  5
225
100
AcDbEntity
  8
ADF70-1703
370
              15
390
0
  6
STYLE_23
 62
               7
100
AcDbLine
 10
628.41088538709755
 20
804.8366985834358
 30
0.0
 11
622.78932011498
 21
832.71485965157535
 31
0.0
  0
ARC
  5
226
100
AcDbEntity
  8
ADF70-1703
370
              15
390
0
  6
STYLE_23
 62
               7
100
AcDbCircle
 10
608.78552827625845
 20
829.63011209191984
 30
0.0
 40
14.339520681286581
100
AcDbArc
 50
12.422689748277074
 51
88.084410595543687
  0
LINE
  5
227
100
AcDbEntity
  8
ADF70-1703
370
              15
390
0
  6
STYLE_23
 62
               7
100
AcDbLine
 10
609.26485706885342
 20
843.96161924495948
 30
0.0
 11
537.47830882793733
 21
850.24212422482856
 31
0.0
  0
ARC
  5
228
100
AcDbEntity
  8
ADF70-1703
370
              15
390
0
  6
STYLE_23
 62
               7
100
AcDbCircle
 10
538.08839862373998
 20
857.21548714676624
 30
0.0
 40
7.0
100
AcDbArc
 50
180.0
 51
265.0000033147445
  0
LINE
  5
229
100
AcDbEntity
  8
ADF70-1703
370
              15
390
0
  6
STYLE_23
 62
               7
100
AcDbLine
 10
644.79376283165584
 20
783.02666266603444
 30
0.0
 11
691.12256838971371
 21
783.02666266603444
 31
0.0
  0
LINE
  5
22A
100
AcDbEntity
  8
ADF70-1703
370
              15
390
0
  6
STYLE_23
 62
               7
100
AcDbLine
 10
642.56431883948699
 20
784.08961996501773
 30
0.0
 11
631.80184211910728
 21
796.91584822261086
 31
0.0
  0
ARC
  5
22B
100
AcDbEntity
  8
ADF70-1703
370
              15
390
0
  6
STYLE_24
 62
               7
100
AcDbCircle
 10
644.85203668723989
 20
786.01842251044559
 30
0.0
 40
2.9923121846117837
100
AcDbArc
 50
220.13464235604269
 51
268.88412142257357
  0
ARC
  5
22C
100
AcDbEntity
  8
ADF70-1703
370
              15
390
0
  6
STYLE_23
 62
               7
100
AcDbCircle
 10
644.2465483003316
 20
806.92975905141191
 30
0.0
 40
15.973387931937937
100
AcDbArc
 50
187.52936015289558
 51
218.82267155405935
  0
LINE
  5
22D
100
AcDbEntity
  8
ADF70-1703
370
              15
390
0
  6
Continuous
 62
               7
100
AcDbLine
 10
661.09373973465881
 20
797.39348191405224
 30
0.0
 11
687.97310848769712
 21
796.28698590147405
 31
0.0
  0
LINE
  5
22E
100
AcDbEntity
  8
ADF70-1703
370
              15
390
0
  6
STYLE_24
 62
               7
100
AcDbLine
 10
531.08839862373998
 20
930.66394135162636
 30
0.0
 11
546.08839862373998
 21
930.66394145998436
 31
0.0
  0
LINE
  5
22F
100
AcDbEntity
  8
ADF70-1703
370
              15
390
0
  6
STYLE_24
 62
               7
100
AcDbLine
 10
531.08839862373998
 20
895.66394135162636
 30
0.0
 11
546.08839862373998
 21
895.66394145998436
 31
0.0
  0
POLYLINE
  5
230
100
AcDbEntity
  8
ADF70-1703
370
              15
390
0
  6
Continuous
 62
               7
100
AcDb3dPolyline
 66
               1
 10
0.0
 20
0.0
 30
0.0
 70
               8
  0
VERTEX
  5
231
100
AcDbEntity
  8
ADF70-1703
370
              15
390
0
  6
Continuous
 62
               7
100
AcDbVertex
100
AcDb3dPolylineVertex
 10
8555.2362082833752
 20
6613.3308330447471
 30
-15270.313678534712
 70
              32
  0
VERTEX
  5
232
100
AcDbEntity
  8
ADF70-1703
370
              15
390
0
  6
Continuous
 62
               7
100
AcDbVertex
100
AcDb3dPolylineVertex
 10
8555.2362082833752
 20
6540.9937755496285
 30
-14443.499999030319
 70
              32
  0
SEQEND
  5
233
100
AcDbEntity
  8
ADF70-1703
370
              15
390
0
  6
Continuous
 62
               7
  0
POLYLINE
  5
234
100
AcDbEntity
  8
ADF70-1703
370
              15
390
0
  6
Continuous
 62
               7
100
AcDb3dPolyline
 66
               1
 10
0.0
 20
0.0
 30
0.0
 70
               8
  0
VERTEX
  5
235
100
AcDbEntity
  8
ADF70-1703
370
              15
390
0
  6
Continuous
 62
               7
100
AcDbVertex
100
AcDb3dPolylineVertex
 10
9111.5802818960219
 20
-2992.8529398926571
 30
-15270.313678534712
 70
              32
  0
VERTEX
  5
236
100
AcDbEntity
  8
ADF70-1703
370
              15
390
0
  6
Continuous
 62
               7
100
AcDbVertex
100
AcDb3dPolylineVertex
 10
9111.5802818960219
 20
-3065.1899973877748
 30
-14443.499999030319
 70
              32
  0
SEQEND
  5
237
100
AcDbEntity
  8
ADF70-1703
370
              15
390
0
  6
Continuous
 62
               7
  0
ARC
  5
238
100
AcDbEntity
  8
ADF70-1703
370
              15
390
0
  6
Continuous
 62
               7
100
AcDbCircle
 10
655.09373973465927
 20
671.35917301494669
 30
0.0
 40
5.9999999999998961
100
AcDbArc
 50
315.06447719583116
 51
0.0
  0
POLYLINE
  5
239
100
AcDbEntity
  8
ADF70-1703
370
              15
390
0
  6
Continuous
 62
               7
100
AcDb2dPolyline
 66
               1
 10
0.0
 20
0.0
 30
0.0
 70
               1
 75
               5
  0
VERTEX
  5
23A
100
AcDbEntity
  8
ADF70-1703
370
              15
390
0
  6
Continuous
 62
               7
100
AcDbVertex
100
AcDb2dVertex
 10
-567.89448178848215
 20
1138.4208841999409
 30
0.0
  0
VERTEX
  5
23B
100
AcDbEntity
  8
ADF70-1703
370
              15
390
0
  6
Continuous
 62
               7
100
AcDbVertex
100
AcDb2dVertex
 10
-177.89448178848215
 20
1138.4208841999409
 30
0.0
  0
VERTEX
  5
23C
100
AcDbEntity
  8
ADF70-1703
370
              15
390
0
  6
Continuous
 62
               7
100
AcDbVertex
100
AcDb2dVertex
 10
-177.89448178848215
 20
298.42088419993968
 30
0.0
  0
VERTEX
  5
23D
100
AcDbEntity
  8
ADF70-1703
370
              15
390
0
  6
Continuous
 62
               7
100
AcDbVertex
100
AcDb2dVertex
 10
-567.89448178848215
 20
298.42088419993968
 30
0.0
  0
SEQEND
  5
23E
100
AcDbEntity
  8
ADF70-1703
370
              15
390
0
  6
Continuous
 62
               7
  0
LINE
  5
23F
100
AcDbEntity
  8
ADF70-1703
370
               5
390
0
  6
STYLE_23
 62
               7
100
AcDbLine
 10
-567.89448152808473
 20
271.42088419529921
 30
0.0
 11
-567.89448183225795
 21
1165.420884189642
 31
0.0
  0
ARC
  5
240
100
AcDbEntity
  8
ADF70-1703
370
               5
390
0
  6
STYLE_23
 62
               7
100
AcDbCircle
 10
-564.89448152808473
 20
271.42088419621598
 30
0.0
 40
3.0
100
AcDbArc
 50
180.00000001750902
 51
270.0
  0
LINE
  5
241
100
AcDbEntity
  8
ADF70-1703
370
               5
390
0
  6
STYLE_23
 62
               7
100
AcDbLine
 10
-147.89283490680737
 20
318.42088201088188
 30
0.0
 11
-147.89283490680737
 21
1118.4208806421143
 31
0.0
  0
ARC
  5
242
100
AcDbEntity
  8
ADF70-1703
370
               5
390
0
  6
STYLE_23
 62
               7
100
AcDbCircle
 10
-197.89283490680737
 20
318.42088419621575
 30
0.0
 40
49.999999999999659
100
AcDbArc
 50
270.0
 51
359.99999749579183
  0
LINE
  5
243
100
AcDbEntity
  8
ADF70-1703
370
               5
390
0
  6
STYLE_23
 62
               7
100
AcDbLine
 10
-197.89283490680737
 20
268.42088419621609
 30
0.0
 11
-564.89448152808473
 21
268.42088419621609
 31
0.0
  0
LINE
  5
244
100
AcDbEntity
  8
ADF70-1703
370
               5
390
0
  6
STYLE_23
 62
               7
100
AcDbLine
 10
-197.89283490680691
 20
1168.4208784567804
 30
0.0
 11
-564.89448183225795
 21
1168.4208841905588
 31
0.0
  0
ARC
  5
245
100
AcDbEntity
  8
ADF70-1703
370
               5
390
0
  6
STYLE_23
 62
               7
100
AcDbCircle
 10
-564.89448183225795
 20
1165.4208841905588
 30
0.0
 40
3.0000000000000142
100
AcDbArc
 50
90.0
 51
180.00000001750902
  0
CIRCLE
  5
246
100
AcDbEntity
  8
ADF70-1703
370
               5
390
0
  6
STYLE_23
 62
               7
100
AcDbCircle
 10
-507.89448168025592
 20
718.66965959090794
 30
0.0
 40
17.5
  0
CIRCLE
  5
247
100
AcDbEntity
  8
ADF70-1703
370
               5
390
0
  6
STYLE_23
 62
               7
100
AcDbCircle
 10
-357.89448168025592
 20
718.6696566745959
 30
0.0
 40
22.499999999998181
  0
ARC
  5
248
100
AcDbEntity
  8
ADF70-1703
370
               5
390
0
  6
STYLE_23
 62
               7
100
AcDbCircle
 10
-197.89283490680691
 20
1118.4208784567804
 30
0.0
 40
50.00000000000005
100
AcDbArc
 50
0.0000025042081509
 51
90.0
  0
CIRCLE
  5
249
100
AcDbEntity
  8
ADF70-1703
370
               5
390
0
  6
STYLE_23
 62
               7
100
AcDbCircle
 10
-507.89448168025592
 20
818.66965959090794
 30
0.0
 40
17.499999999999829
  0
CIRCLE
  5
24A
100
AcDbEntity
  8
ADF70-1703
370
               5
390
0
  6
STYLE_23
 62
               7
100
AcDbCircle
 10
-507.89448168025592
 20
918.66965959090749
 30
0.0
 40
17.5
  0
CIRCLE
  5
24B
100
AcDbEntity
  8
ADF70-1703
370
               5
390
0
  6
STYLE_23
 62
               7
100
AcDbCircle
 10
-507.89448168025592
 20
618.66965959090805
 30
0.0
 40
17.5
  0
CIRCLE
  5
24C
100
AcDbEntity
  8
ADF70-1703
370
               5
390
0
  6
STYLE_23
 62
               7
100
AcDbCircle
 10
-507.89448168025592
 20
518.66965959090658
 30
0.0
 40
17.500000000000227
  0
LWPOLYLINE
  5
24D
100
AcDbEntity
  8
ADF70-1703
370
              15
390
0
  6
Continuous
 62
               7
100
AcDbPolyline
 90
        4
 70
             128
 10
677.00421715379707
 20
796.33544586911819
 10
671.59297367420868
 20
829.79845329032491
 42
0.0679446997888006
 10
670.01471456100262
 20
834.97374743330602
 10
660.43853264400695
 20
855.7617738669793
  0
ARC
  5
24E
100
AcDbEntity
  8
ADF70-1703
370
              15
390
0
  6
Continuous
 62
               7
100
AcDbCircle
 10
688.12256838971371
 20
793.29071125836981
 30
0.0
 40
3.0
100
AcDbArc
 50
0.0
 51
87.144343950750894
  0
ENDSEC
  0
SECTION
  2
OBJECTS
  0
DICTIONARY
  5
19
100
AcDbDictionary
280
               0
281
               1
  3
ACAD_GROUP
350
1A
  3
ACAD_MLINESTYLE
350
1B
  3
ACAD_LAYOUT
350
1E
  3
ACAD_PLOTSETTINGS
350
22
  3
ACAD_PLOTSTYLENAME
350
1F
  0
DICTIONARY
  5
1A
102
{ACAD_REACTORS
330
19
102
}
100
AcDbDictionary
280
               0
281
               1
  0
DICTIONARY
  5
1B
102
{ACAD_REACTORS
330
19
102
}
100
AcDbDictionary
280
               0
281
               1
  3
Standard
350
1C
  0
MLINESTYLE
  5
1C
102
{ACAD_REACTORS
330
1B
102
}
100
AcDbMlineStyle
  2
Standard
 70
               0
  3

 62
               0
 51
90.0
 52
90.0
 71
               2
 49
0.5
 62
             256
  6
ByLayer
 49
-0.5
 62
             256
  6
ByLayer
  0
ACDBDICTIONARYWDFLT
  5
1F
102
{ACAD_REACTORS
330
19
102
}
100
AcDbDictionary
281
               1
  3
Normal
350
1D
100
AcDbDictionaryWithDefault
340
1D
  0
ACDBPLACEHOLDER
  5
1D
102
{ACAD_REACTORS
330
1F
102
}
  0
LAYOUT
  5
20
102
{ACAD_REACTORS
330
1E
102
}
100
AcDbPlotSettings
  1

  2

  4

  6

 40
0.0
 41
0.0
 42
0.0
 43
0.0
 44
0.0
 45
0.0
 46
0.0
 47
0.0
 48
0.0
 49
0.0
140
0.0
141
0.0
142
1.0
143
1.0
 70
            1024
 72
               0
 73
               0
 74
               0
  7

 75
               0
147
1.0
148
0.0
149
0.0
100
AcDbLayout
  1
Model
 70
               0
 71
               0
 10
0.0
 20
0.0
 11
0.0
 21
0.0
 12
0.0
 22
0.0
 32
0.0
 14
0.0
 24
0.0
 34
0.0
 15
0.0
 25
0.0
 35
0.0
146
0.0
 13
0.0
 23
0.0
 33
0.0
 16
0.0
 26
0.0
 36
0.0
 17
0.0
 27
0.0
 37
0.0
 76
               0
330
A
331
0
345
0
346
0
  0
LAYOUT
  5
21
102
{ACAD_REACTORS
330
1E
102
}
100
AcDbPlotSettings
  1

  2

  4

  6

 40
0.0
 41
0.0
 42
0.0
 43
0.0
 44
0.0
 45
0.0
 46
0.0
 47
0.0
 48
0.0
 49
0.0
140
0.0
141
0.0
142
1.0
143
1.0
 70
               0
 72
               0
 73
               0
 74
               0
  7

 75
               0
147
1.0
148
0.0
149
0.0
100
AcDbLayout
  1
Layout1
 70
               0
 71
               0
 10
0.0
 20
0.0
 11
0.0
 21
0.0
 12
0.0
 22
0.0
 32
0.0
 14
0.0
 24
0.0
 34
0.0
 15
0.0
 25
0.0
 35
0.0
146
0.0
 13
0.0
 23
0.0
 33
0.0
 16
0.0
 26
0.0
 36
0.0
 17
0.0
 27
0.0
 37
0.0
 76
               0
330
B
331
0
345
0
346
0
  0
DICTIONARY
  5
1E
102
{ACAD_REACTORS
330
19
102
}
100
AcDbDictionary
280
               0
281
               1
  3
Layout1
350
21
  3
Model
350
20
  0
DICTIONARY
  5
22
102
{ACAD_REACTORS
330
19
102
}
100
AcDbDictionary
280
               0
281
               1
  0
ENDSEC
  0
EOF
