  0
SECTION
  2
HEADER
  9
$ACADVER
  1
AC1015
  9
$ACADMAINTVER
 70
               6
  9
$DWGCODEPAGE
  3
ANSI_932
  9
$INSBASE
 10
0.0
 20
0.0
 30
0.0
  9
$EXTMIN
 10
-1462.500000000362
 20
-2147.2882837066691
 30
-22.251458333333336
  9
$EXTMAX
 10
1462.500000000362
 20
2108.9959389619494
 30
22.251458333333336
  9
$LIMMIN
 10
0.0
 20
0.0
  9
$LIMMAX
 10
0.0
 20
0.0
  9
$ORTHOMODE
 70
               0
  9
$REGENMODE
 70
               1
  9
$FILLMODE
 70
               1
  9
$QTEXTMODE
 70
               0
  9
$MIRRTEXT
 70
               1
  9
$LTSCALE
 40
7.6199999999999992
  9
$ATTMODE
 70
               1
  9
$TEXTSIZE
 40
0.2
  9
$TRACEWID
 40
1.0
  9
$TEXTSTYLE
  7
Standard
  9
$CLAYER
  8
template
  9
$CELTYPE
  6
Continuous
  9
$CECOLOR
 62
             256
  9
$CELTSCALE
 40
1.0
  9
$DISPSILH
 70
               0
  9
$DIMSCALE
 40
1.0
  9
$DIMASZ
 40
33.67236328125
  9
$DIMEXO
 40
23.8125
  9
$DIMDLI
 40
10.16
  9
$DIMRND
 40
0.0
  9
$DIMDLE
 40
1.5874999999999999
  9
$DIMEXE
 40
47.625
  9
$DIMTP
 40
0.0
  9
$DIMTM
 40
0.0
  9
$DIMTXT
 40
36.64892578125
  9
$DIMCEN
 40
0.0
  9
$DIMTSZ
 40
0.0
  9
$DIMTOL
 70
               0
  9
$DIMLIM
 70
               0
  9
$DIMTIH
 70
               0
  9
$DIMTOH
 70
               0
  9
$DIMSE1
 70
               0
  9
$DIMSE2
 70
               0
  9
$DIMTAD
 70
               1
  9
$DIMZIN
 70
              11
  9
$DIMBLK
  1
VW_SLASH
  9
$DIMASO
 70
               1
  9
$DIMSHO
 70
               1
  9
$DIMPOST
  1
<>
  9
$DIMAPOST
  1
[]
  9
$DIMALT
 70
               0
  9
$DIMALTD
 70
               1
  9
$DIMALTF
 40
1.0
  9
$DIMLFAC
 40
1.0
  9
$DIMTOFL
 70
               1
  9
$DIMTVP
 40
0.0
  9
$DIMTIX
 70
               1
  9
$DIMSOXD
 70
               0
  9
$DIMSAH
 70
               0
  9
$DIMBLK1
  1

  9
$DIMBLK2
  1

  9
$DIMSTYLE
  2
Arch
  9
$DIMCLRD
 70
               0
  9
$DIMCLRE
 70
               0
  9
$DIMCLRT
 70
               0
  9
$DIMTFAC
 40
1.0
  9
$DIMGAP
 40
1.5874999999999999
  9
$DIMJUST
 70
               0
  9
$DIMSD1
 70
               0
  9
$DIMSD2
 70
               0
  9
$DIMTOLJ
 70
               1
  9
$DIMTZIN
 70
              11
  9
$DIMALTZ
 70
              11
  9
$DIMALTTZ
 70
              11
  9
$DIMUPT
 70
               0
  9
$DIMDEC
 70
               1
  9
$DIMTDEC
 70
               1
  9
$DIMALTU
 70
               2
  9
$DIMALTTD
 70
               2
  9
$DIMTXSTY
  7
ＭＳ ゴシック
  9
$DIMAUNIT
 70
               0
  9
$DIMADEC
 70
               2
  9
$DIMALTRND
 40
0.0
  9
$DIMAZIN
 70
               0
  9
$DIMDSEP
 70
              46
  9
$DIMATFIT
 70
               0
  9
$DIMFRAC
 70
               2
  9
$DIMLDRBLK
  1

  9
$DIMLUNIT
 70
               2
  9
$DIMLWD
 70
              -2
  9
$DIMLWE
 70
              -2
  9
$DIMTMOVE
 70
               0
  9
$LUNITS
 70
               2
  9
$LUPREC
 70
               4
  9
$SKETCHINC
 40
0.1
  9
$FILLETRAD
 40
0.0
  9
$AUNITS
 70
               0
  9
$AUPREC
 70
               0
  9
$MENU
  1
acad
  9
$ELEVATION
 40
0.0
  9
$PELEVATION
 40
0.0
  9
$THICKNESS
 40
0.0
  9
$LIMCHECK
 70
               0
  9
$CHAMFERA
 40
0.0
  9
$CHAMFERB
 40
0.0
  9
$CHAMFERC
 40
0.0
  9
$CHAMFERD
 40
0.0
  9
$SKPOLY
 70
               0
  9
$TDCREATE
 40
2455995.753576389
  9
$TDUCREATE
 40
0.000000000
  9
$TDUPDATE
 40
2455995.753576389
  9
$TDUUPDATE
 40
0.000000000
  9
$TDINDWG
 40
0.0000000000
  9
$TDUSRTIMER
 40
0.0000000000
  9
$USRTIMER
 70
               1
  9
$ANGBASE
 50
0.0
  9
$ANGDIR
 70
               0
  9
$PDMODE
 70
               1
  9
$PDSIZE
 40
-2.0
  9
$PLINEWID
 40
0.0
  9
$SPLFRAME
 70
               0
  9
$SPLINETYPE
 70
               6
  9
$SPLINESEGS
 70
               8
  9
$HANDSEED
  5
300
  9
$SURFTAB1
 70
               6
  9
$SURFTAB2
 70
               6
  9
$SURFTYPE
 70
               6
  9
$SURFU
 70
               6
  9
$SURFV
 70
               6
  9
$UCSBASE
  2

  9
$UCSNAME
  2

  9
$UCSORG
 10
0.0
 20
0.0
 30
0.0
  9
$UCSXDIR
 10
1.0
 20
0.0
 30
0.0
  9
$UCSYDIR
 10
0.0
 20
1.0
 30
0.0
  9
$UCSORTHOREF
  2

  9
$UCSORTHOVIEW
 70
               0
  9
$UCSORGTOP
 10
0.0
 20
0.0
 30
0.0
  9
$UCSORGBOTTOM
 10
0.0
 20
0.0
 30
0.0
  9
$UCSORGLEFT
 10
0.0
 20
0.0
 30
0.0
  9
$UCSORGRIGHT
 10
0.0
 20
0.0
 30
0.0
  9
$UCSORGFRONT
 10
0.0
 20
0.0
 30
0.0
  9
$UCSORGBACK
 10
0.0
 20
0.0
 30
0.0
  9
$PUCSBASE
  2

  9
$PUCSNAME
  2

  9
$PUCSORG
 10
0.0
 20
0.0
 30
0.0
  9
$PUCSXDIR
 10
1.0
 20
0.0
 30
0.0
  9
$PUCSYDIR
 10
0.0
 20
1.0
 30
0.0
  9
$PUCSORTHOREF
  2

  9
$PUCSORTHOVIEW
 70
               0
  9
$PUCSORGTOP
 10
0.0
 20
0.0
 30
0.0
  9
$PUCSORGBOTTOM
 10
0.0
 20
0.0
 30
0.0
  9
$PUCSORGLEFT
 10
0.0
 20
0.0
 30
0.0
  9
$PUCSORGRIGHT
 10
0.0
 20
0.0
 30
0.0
  9
$PUCSORGFRONT
 10
0.0
 20
0.0
 30
0.0
  9
$PUCSORGBACK
 10
0.0
 20
0.0
 30
0.0
  9
$USERI1
 70
               0
  9
$USERI2
 70
               0
  9
$USERI3
 70
               0
  9
$USERI4
 70
               0
  9
$USERI5
 70
               0
  9
$USERR1
 40
0.0
  9
$USERR2
 40
0.0
  9
$USERR3
 40
0.0
  9
$USERR4
 40
0.0
  9
$USERR5
 40
0.0
  9
$WORLDVIEW
 70
               1
  9
$SHADEDGE
 70
               3
  9
$SHADEDIF
 70
              70
  9
$TILEMODE
 70
               1
  9
$MAXACTVP
 70
              64
  9
$PINSBASE
 10
0.0
 20
0.0
 30
0.0
  9
$PLIMCHECK
 70
               0
  9
$PEXTMIN
 10
1.0000000000000000E+20
 20
1.0000000000000000E+20
 30
1.0000000000000000E+20
  9
$PEXTMAX
 10
-1.0000000000000000E+20
 20
-1.0000000000000000E+20
 30
-1.0000000000000000E+20
  9
$PLIMMIN
 10
0.0
 20
0.0
  9
$PLIMMAX
 10
12.0
 20
9.0
  9
$UNITMODE
 70
               0
  9
$VISRETAIN
 70
               0
  9
$PLINEGEN
 70
               1
  9
$PSLTSCALE
 70
               0
  9
$TREEDEPTH
 70
            3020
  9
$CMLSTYLE
  2
Standard
  9
$CMLJUST
 70
               0
  9
$CMLSCALE
 40
1.0
  9
$PROXYGRAPHICS
 70
               0
  9
$MEASUREMENT
 70
               1
  9
$CELWEIGHT
370
               0
  9
$ENDCAPS
280
               0
  9
$JOINSTYLE
280
               0
  9
$LWDISPLAY
290
               1
  9
$INSUNITS
 70
               4
  9
$HYPERLINKBASE
  1

  9
$STYLESHEET
  1

  9
$XEDIT
290
               1
  9
$CEPSNTYPE
380
               0
  9
$PSTYLEMODE
290
               1
  9
$FINGERPRINTGUID
  2

  9
$VERSIONGUID
  2

  9
$EXTNAMES
290
               1
  9
$PSVPSCALE
 40
0.0
  0
ENDSEC
  0
SECTION
  2
CLASSES
  0
CLASS
  1
LWPOLYLINE
  2
AcDbPolyline
  3
AutoCAD 2000
 90
        0
280
               0
281
               1
  0
CLASS
  1
IMAGE
  2
AcDbRasterImage
  3
ISM
 90
      127
280
               0
281
               1
  0
CLASS
  1
OLE2FRAME
  2
AcDbOle2Frame
  3
AutoCAD 2000
 90
        0
280
               0
281
               1
  0
CLASS
  1
HATCH
  2
AcDbHatch
  3
AutoCAD 2000
 90
        0
280
               0
281
               1
  0
CLASS
  1
DICTIONARYVAR
  2
AcDbDictionaryVar
  3
AutoCAD 2000
 90
        0
280
               0
281
               0
  0
CLASS
  1
RASTERVARIABLES
  2
AcDbRasterVariables
  3
ISM
 90
        0
280
               0
281
               0
  0
CLASS
  1
IMAGEDEF
  2
AcDbRasterImageDef
  3
ISM
 90
        0
280
               0
281
               0
  0
CLASS
  1
IMAGEDEF_REACTOR
  2
AcDbRasterImageDefReactor
  3
ISM
 90
        1
280
               0
281
               0
  0
CLASS
  1
IDBUFFER
  2
AcDbIdBuffer
  3
AutoCAD 2000
 90
        0
280
               0
281
               0
  0
CLASS
  1
SPATIAL_FILTER
  2
AcDbSpatialFilter
  3
AutoCAD 2000
 90
        0
280
               0
281
               0
  0
CLASS
  1
XRECORD
  2
AcDbXrecord
  3
AutoCAD 2000
 90
        0
280
               0
281
               0
  0
CLASS
  1
SORTENTSTABLE
  2
AcDbSortentsTable
  3
AutoCAD 2000
 90
        0
280
               0
281
               0
  0
CLASS
  1
LAYER_INDEX
  2
AcDbLayerIndex
  3
AutoCAD 2000
 90
        0
280
               0
281
               0
  0
CLASS
  1
SPATIAL_INDEX
  2
AcDbSpatialIndex
  3
AutoCAD 2000
 90
        0
280
               0
281
               0
  0
CLASS
  1
OBJECT_PTR
  2
CAseDLPNTableRecord
  3
"ASE-LPNTableRecord"
 90
        1
280
               0
281
               0
  0
CLASS
  1
LAYOUT
  2
AcDbLayout
  3
AutoCAD 2000
 90
        0
280
               0
281
               0
  0
CLASS
  1
PLOTSETTINGS
  2
AcDbPlotSettings
  3
AutoCAD 2000
 90
        0
280
               0
281
               0
  0
CLASS
  1
ACDBDICTIONARYWDFLT
  2
AcDbDictionaryWithDefault
  3
AutoCAD 2000
 90
        0
280
               0
281
               0
  0
CLASS
  1
ACDBPLACEHOLDER
  2
AcDbPlaceHolder
  3
AutoCAD 2000
 90
        0
280
               0
281
               0
  0
ENDSEC
  0
SECTION
  2
TABLES
  0
TABLE
  2
VPORT
  5
7
100
AcDbSymbolTable
 70
               1
  0
VPORT
  5
15
100
AcDbSymbolTableRecord
100
AcDbViewportTableRecord
  2
*ACTIVE
 70
               0
 10
0.0
 20
0.0
 11
1.0
 21
1.0
 12
0.0
 22
-19.146172372359615
 13
0.0
 23
0.0
 14
1.0
 24
1.0
 15
0.0
 25
0.0
 16
0.0
 26
0.0
 36
1.0
 17
0.0
 27
0.0
 37
0.0
 40
4256.2842226686189
 41
0.688564
 42
50.0
 43
0.0
 44
0.0
 50
0.0
 51
0.0
 71
               0
 72
            2000
 73
               1
 74
               1
 75
               0
 76
               0
 77
               0
 78
               0
281
               0
 65
               0
110
0.0
120
0.0
130
0.0
111
1.0
121
0.0
131
0.0
112
0.0
122
1.0
132
0.0
345
0
346
0
 79
               0
146
0.0
  0
ENDTAB
  0
TABLE
  2
LTYPE
  5
4
100
AcDbSymbolTable
 70
              28
  0
LTYPE
  5
11
100
AcDbSymbolTableRecord
100
AcDbLinetypeTableRecord
  2
ByBlock
 70
              64
  3

 72
              65
 73
               0
 40
0.0
  0
LTYPE
  5
12
100
AcDbSymbolTableRecord
100
AcDbLinetypeTableRecord
  2
ByLayer
 70
              64
  3

 72
              65
 73
               0
 40
0.0
  0
LTYPE
  5
13
100
AcDbSymbolTableRecord
100
AcDbLinetypeTableRecord
  2
Continuous
 70
              64
  3
Solid line
 72
              65
 73
               0
 40
0.0
  0
LTYPE
  5
3D
100
AcDbSymbolTableRecord
100
AcDbLinetypeTableRecord
  2
STYLE_01
 70
               0
  3

 72
              65
 73
               2
 40
2.8125000000000004
 49
1.8750000000000002
 74
               0
 49
-0.9375000000000001
 74
               0
  0
LTYPE
  5
3E
100
AcDbSymbolTableRecord
100
AcDbLinetypeTableRecord
  2
STYLE_02
 70
               0
  3

 72
              65
 73
               2
 40
1.875
 49
1.25
 74
               0
 49
-0.625
 74
               0
  0
LTYPE
  5
3F
100
AcDbSymbolTableRecord
100
AcDbLinetypeTableRecord
  2
STYLE_03
 70
               0
  3

 72
              65
 73
               4
 40
1.128472933070866
 49
0.3472224409448819
 74
               0
 49
-0.3472224409448819
 74
               0
 49
0.0868056102362205
 74
               0
 49
-0.3472224409448818
 74
               0
  0
LTYPE
  5
40
100
AcDbSymbolTableRecord
100
AcDbLinetypeTableRecord
  2
STYLE_04
 70
               0
  3

 72
              65
 73
               4
 40
0.749496062992126
 49
0.6192883858267717
 74
               0
 49
-0.0434025590551181
 74
               0
 49
0.0434025590551181
 74
               0
 49
-0.0434025590551181
 74
               0
  0
LTYPE
  5
41
100
AcDbSymbolTableRecord
100
AcDbLinetypeTableRecord
  2
STYLE_05
 70
               0
  3

 72
              65
 73
               4
 40
0.749496062992126
 49
0.6192883858267717
 74
               0
 49
-0.0434025590551181
 74
               0
 49
0.0434025590551181
 74
               0
 49
-0.0434025590551181
 74
               0
  0
LTYPE
  5
42
100
AcDbSymbolTableRecord
100
AcDbLinetypeTableRecord
  2
STYLE_06
 70
               0
  3

 72
              65
 73
               4
 40
0.6591845472440944
 49
0.5024827755905512
 74
               0
 49
-0.0364758858267716
 74
               0
 49
0.08375
 74
               0
 49
-0.0364758858267716
 74
               0
  0
LTYPE
  5
43
100
AcDbSymbolTableRecord
100
AcDbLinetypeTableRecord
  2
STYLE_07
 70
               0
  3

 72
              65
 73
               4
 40
0.6591845472440944
 49
0.5024827755905512
 74
               0
 49
-0.0364758858267716
 74
               0
 49
0.08375
 74
               0
 49
-0.0364758858267716
 74
               0
  0
LTYPE
  5
44
100
AcDbSymbolTableRecord
100
AcDbLinetypeTableRecord
  2
STYLE_08
 70
               0
  3

 72
              65
 73
               6
 40
6.25
 49
3.125
 74
               0
 49
-1.0413999999999999
 74
               0
 49
0.3471500000000002
 74
               0
 49
-0.6946500000000001
 74
               0
 49
0.3471499999999995
 74
               0
 49
-0.6946500000000001
 74
               0
  0
LTYPE
  5
45
100
AcDbSymbolTableRecord
100
AcDbLinetypeTableRecord
  2
STYLE_09
 70
               0
  3

 72
              65
 73
               4
 40
25.0
 49
18.75
 74
               0
 49
-1.3889249999999991
 74
               0
 49
3.4721500000000018
 74
               0
 49
-1.3889249999999991
 74
               0
  0
LTYPE
  5
46
100
AcDbSymbolTableRecord
100
AcDbLinetypeTableRecord
  2
STYLE_10
 70
               0
  3

 72
              65
 73
               6
 40
29.6875
 49
18.75
 74
               0
 49
-1.3889249999999991
 74
               0
 49
3.4721500000000018
 74
               0
 49
-1.3889249999999991
 74
               0
 49
3.125
 74
               0
 49
-1.5625
 74
               0
  0
LTYPE
  5
47
100
AcDbSymbolTableRecord
100
AcDbLinetypeTableRecord
  2
STYLE_11
 70
               0
  3

 72
              65
 73
               8
 40
0.3149606299212597
 49
0.1771653543307086
 74
               0
 49
-0.0196850393700787
 74
               0
 49
0.0196850393700787
 74
               0
 49
-0.0196850393700787
 74
               0
 49
0.0196850393700787
 74
               0
 49
-0.0196850393700787
 74
               0
 49
0.0196850393700787
 74
               0
 49
-0.0196850393700787
 74
               0
  0
LTYPE
  5
48
100
AcDbSymbolTableRecord
100
AcDbLinetypeTableRecord
  2
STYLE_12
 70
               0
  3

 72
              65
 73
              10
 40
0.3149606299212597
 49
0.1377952755905512
 74
               0
 49
-0.0196850393700787
 74
               0
 49
0.0196850393700787
 74
               0
 49
-0.0196850393700787
 74
               0
 49
0.0196850393700787
 74
               0
 49
-0.0196850393700787
 74
               0
 49
0.0196850393700787
 74
               0
 49
-0.0196850393700787
 74
               0
 49
0.0196850393700787
 74
               0
 49
-0.0196850393700787
 74
               0
  0
LTYPE
  5
49
100
AcDbSymbolTableRecord
100
AcDbLinetypeTableRecord
  2
STYLE_13
 70
               0
  3

 72
              65
 73
              10
 40
0.3149606299212597
 49
0.1377952755905512
 74
               0
 49
-0.0196850393700787
 74
               0
 49
0.0196850393700787
 74
               0
 49
-0.0196850393700787
 74
               0
 49
0.0196850393700787
 74
               0
 49
-0.0196850393700787
 74
               0
 49
0.0196850393700787
 74
               0
 49
-0.0196850393700787
 74
               0
 49
0.0196850393700787
 74
               0
 49
-0.0196850393700787
 74
               0
  0
LTYPE
  5
4A
100
AcDbSymbolTableRecord
100
AcDbLinetypeTableRecord
  2
STYLE_14
 70
               0
  3

 72
              65
 73
              10
 40
0.2755905511811023
 49
0.0984251968503937
 74
               0
 49
-0.0196850393700787
 74
               0
 49
0.0196850393700787
 74
               0
 49
-0.0196850393700787
 74
               0
 49
0.0196850393700787
 74
               0
 49
-0.0196850393700787
 74
               0
 49
0.0196850393700787
 74
               0
 49
-0.0196850393700787
 74
               0
 49
0.0196850393700787
 74
               0
 49
-0.0196850393700787
 74
               0
  0
LTYPE
  5
4B
100
AcDbSymbolTableRecord
100
AcDbLinetypeTableRecord
  2
STYLE_15
 70
               0
  3

 72
              65
 73
              10
 40
0.2755905511811023
 49
0.0984251968503937
 74
               0
 49
-0.0196850393700787
 74
               0
 49
0.0196850393700787
 74
               0
 49
-0.0196850393700787
 74
               0
 49
0.0196850393700787
 74
               0
 49
-0.0196850393700787
 74
               0
 49
0.0196850393700787
 74
               0
 49
-0.0196850393700787
 74
               0
 49
0.0196850393700787
 74
               0
 49
-0.0196850393700787
 74
               0
  0
LTYPE
  5
4C
100
AcDbSymbolTableRecord
100
AcDbLinetypeTableRecord
  2
STYLE_16
 70
               0
  3

 72
              65
 73
               2
 40
0.3169606299212598
 49
0.3149606299212598
 74
               0
 49
-0.005
 74
               0
  0
LTYPE
  5
4D
100
AcDbSymbolTableRecord
100
AcDbLinetypeTableRecord
  2
STYLE_17
 70
               0
  3

 72
              65
 73
               2
 40
0.3169606299212598
 49
0.3149606299212598
 74
               0
 49
-0.005
 74
               0
  0
LTYPE
  5
4E
100
AcDbSymbolTableRecord
100
AcDbLinetypeTableRecord
  2
STYLE_18
 70
               0
  3

 72
              65
 73
               4
 40
0.2559055118110236
 49
0.1838582677165354
 74
               0
 49
-0.024015748031496
 74
               0
 49
0.0240157480314961
 74
               0
 49
-0.0240157480314961
 74
               0
  0
LTYPE
  5
4F
100
AcDbSymbolTableRecord
100
AcDbLinetypeTableRecord
  2
STYLE_19
 70
               0
  3

 72
              65
 73
               2
 40
0.3169606299212598
 49
0.3149606299212598
 74
               0
 49
-0.005
 74
               0
  0
LTYPE
  5
50
100
AcDbSymbolTableRecord
100
AcDbLinetypeTableRecord
  2
STYLE_20
 70
               0
  3

 72
              65
 73
               4
 40
0.2559055118110236
 49
0.1838582677165354
 74
               0
 49
-0.024015748031496
 74
               0
 49
0.0240157480314961
 74
               0
 49
-0.0240157480314961
 74
               0
  0
LTYPE
  5
51
100
AcDbSymbolTableRecord
100
AcDbLinetypeTableRecord
  2
STYLE_21
 70
               0
  3

 72
              65
 73
               2
 40
1.3888897637795274
 49
0.6944448818897637
 74
               0
 49
-0.6944448818897637
 74
               0
  0
LTYPE
  5
52
100
AcDbSymbolTableRecord
100
AcDbLinetypeTableRecord
  2
STYLE_22
 70
               0
  3

 72
              65
 73
               6
 40
59.375
 49
37.5
 74
               0
 49
-2.7778499999999982
 74
               0
 49
6.9443000000000037
 74
               0
 49
-2.7778499999999982
 74
               0
 49
6.25
 74
               0
 49
-3.125
 74
               0
  0
LTYPE
  5
53
100
AcDbSymbolTableRecord
100
AcDbLinetypeTableRecord
  2
STYLE_23
 70
               0
  3

 72
              65
 73
               2
 40
3.9370078740157481
 49
1.9685039370078741
 74
               0
 49
-1.9685039370078741
 74
               0
  0
LTYPE
  5
54
100
AcDbSymbolTableRecord
100
AcDbLinetypeTableRecord
  2
STYLE_24
 70
               0
  3

 72
              65
 73
               2
 40
39.370078740157474
 49
19.685039370078737
 74
               0
 49
-19.685039370078737
 74
               0
  0
LTYPE
  5
55
100
AcDbSymbolTableRecord
100
AcDbLinetypeTableRecord
  2
STYLE_25
 70
               0
  3

 72
              65
 73
               2
 40
0.9374999999999998
 49
0.6249999999999999
 74
               0
 49
-0.3124999999999999
 74
               0
  0
ENDTAB
  0
TABLE
  2
LAYER
  5
2
100
AcDbSymbolTable
 70
               5
  0
LAYER
  5
14
100
AcDbSymbolTableRecord
100
AcDbLayerTableRecord
  2
0
 70
               0
 62
               7
  6
Continuous
290
               1
370
              -3
390
1D
  0
LAYER
  5
56
100
AcDbSymbolTableRecord
100
AcDbLayerTableRecord
  2
Defpoints
 70
               0
 62
               7
  6
Continuous
290
               0
370
              -3
390
1D
  0
LAYER
  5
57
100
AcDbSymbolTableRecord
100
AcDbLayerTableRecord
  2
template
 70
               0
 62
               7
  6
Continuous
290
               1
370
              -3
390
1D
  0
LAYER
  5
58
100
AcDbSymbolTableRecord
100
AcDbLayerTableRecord
  2
notes
 70
               0
 62
               7
  6
Continuous
290
               1
370
              -3
390
1D
  0
LAYER
  5
59
100
AcDbSymbolTableRecord
100
AcDbLayerTableRecord
  2
ADF70-1709
 70
               0
 62
               7
  6
Continuous
290
               1
370
              -3
390
1D
  0
ENDTAB
  0
TABLE
  2
STYLE
  5
3
100
AcDbSymbolTable
 70
               3
  0
STYLE
  5
17
100
AcDbSymbolTableRecord
100
AcDbTextStyleTableRecord
  2
Standard
 70
               0
 40
0.0
 41
1.0
 50
0.0
 71
               0
 42
0.0
  3
txt
  4
BIGFONT.SHX
  0
STYLE
  5
3B
100
AcDbSymbolTableRecord
100
AcDbTextStyleTableRecord
  2
MS UI Gothic
 70
               0
 40
0.0
 41
1.0
 50
0.0
 71
               0
 42
0.0
  3

  4
MS UI Gothic
1001
ACAD
1000
MS UI Gothic
1071
        0
  0
STYLE
  5
3C
100
AcDbSymbolTableRecord
100
AcDbTextStyleTableRecord
  2
ＭＳ ゴシック
 70
               0
 40
0.0
 41
1.0
 50
0.0
 71
               0
 42
0.0
  3

  4
ＭＳ ゴシック
1001
ACAD
1000
ＭＳ ゴシック
1071
        0
  0
ENDTAB
  0
TABLE
  2
VIEW
  5
5
100
AcDbSymbolTable
 70
               0
  0
ENDTAB
  0
TABLE
  2
UCS
  5
6
100
AcDbSymbolTable
 70
               0
  0
ENDTAB
  0
TABLE
  2
APPID
  5
8
100
AcDbSymbolTable
 70
               1
  0
APPID
  5
16
100
AcDbSymbolTableRecord
100
AcDbRegAppTableRecord
  2
ACAD
 70
               0
  0
ENDTAB
  0
TABLE
  2
DIMSTYLE
  5
9
100
AcDbSymbolTable
 70
               3
100
AcDbDimStyleTable
 71
               0
  0
DIMSTYLE
105
18
100
AcDbSymbolTableRecord
100
AcDbDimStyleTableRecord
  2
Standard
 70
               0
  3

  4

 40
1.0
 41
0.18
 42
0.0625
 43
0.38
 44
0.18
 45
0.0
 46
0.0
 47
0.0
 48
0.0
 71
               0
 72
               0
 73
               1
 74
               1
 75
               0
 76
               0
 77
               0
 78
               0
 79
               0
140
0.18
141
0.09
142
0.0
143
25.399999999999999
144
1.0
145
0.0
146
1.0
147
0.09
148
0.0
170
               0
171
               2
172
               0
173
               0
174
               0
175
               0
176
               0
177
               0
178
               0
179
               0
271
               4
272
               4
273
               2
274
               2
275
               0
276
               0
277
               2
278
              46
279
               0
280
               0
281
               0
282
               0
283
               1
284
               0
285
               0
286
               0
288
               0
289
               3
340
17
341
0
342
0
343
0
344
0
371
              -2
372
              -2
  0
DIMSTYLE
105
62
100
AcDbSymbolTableRecord
100
AcDbDimStyleTableRecord
  2
TformSENN
 70
               0
  3
<>
  4
[]
 40
1.0
 41
5.9996337890625
 42
37.499999999999993
 43
0.9999999999999999
 44
0.0
 45
0.0
 46
0.0
 47
0.0
 48
0.0
 71
               0
 72
               0
 73
               0
 74
               0
 75
               0
 76
               0
 77
               1
 78
              11
 79
               0
140
36.64892578125
141
0.0
142
0.0
143
1.0
144
1.0
145
0.0
146
0.8
147
0.4999999999999999
148
0.0
170
               0
171
               1
172
               1
173
               0
174
               1
175
               0
176
               0
177
               0
178
               0
179
               2
271
               1
272
               1
273
               2
274
               2
275
               0
276
               2
277
               2
278
              46
279
               0
280
               0
281
               0
282
               0
283
               1
284
              11
285
              11
286
              11
288
               0
289
               0
340
3C
341
5A
342
5A
343
0
344
0
371
              -2
372
              -2
  0
DIMSTYLE
105
6C
100
AcDbSymbolTableRecord
100
AcDbDimStyleTableRecord
  2
Arch
 70
               0
  3
<>
  4
[]
 40
1.0
 41
33.67236328125
 42
23.8125
 43
10.16
 44
47.625
 45
0.0
 46
1.5874999999999999
 47
0.0
 48
0.0
 71
               0
 72
               0
 73
               0
 74
               0
 75
               0
 76
               0
 77
               1
 78
              11
 79
               0
140
36.64892578125
141
0.0
142
0.0
143
1.0
144
1.0
145
0.0
146
1.0
147
1.5874999999999999
148
0.0
170
               0
171
               1
172
               1
173
               0
174
               1
175
               0
176
               0
177
               0
178
               0
179
               2
271
               1
272
               1
273
               2
274
               2
275
               0
276
               2
277
               2
278
              46
279
               0
280
               0
281
               0
282
               0
283
               1
284
              11
285
              11
286
              11
288
               0
289
               0
340
3C
341
68
342
63
343
0
344
0
371
              -2
372
              -2
  0
ENDTAB
  0
TABLE
  2
BLOCK_RECORD
  5
1
100
AcDbSymbolTable
 70
              27
  0
BLOCK_RECORD
  5
A
100
AcDbSymbolTableRecord
100
AcDbBlockTableRecord
  2
*MODEL_SPACE
340
20
  0
BLOCK_RECORD
  5
B
100
AcDbSymbolTableRecord
100
AcDbBlockTableRecord
  2
*PAPER_SPACE
340
21
  0
BLOCK_RECORD
  5
5A
100
AcDbSymbolTableRecord
100
AcDbBlockTableRecord
  2
_DOT
340
0
  0
BLOCK_RECORD
  5
63
100
AcDbSymbolTableRecord
100
AcDbBlockTableRecord
  2
VW_SLASH
340
0
  0
BLOCK_RECORD
  5
68
100
AcDbSymbolTableRecord
100
AcDbBlockTableRecord
  2
VW_FILLEDARROW
340
0
  0
BLOCK_RECORD
  5
23
100
AcDbSymbolTableRecord
100
AcDbBlockTableRecord
  2
グループ
340
0
102
{BLKREFS
331
1AC
102
}
  0
BLOCK_RECORD
  5
24
100
AcDbSymbolTableRecord
100
AcDbBlockTableRecord
  2
*D4
340
0
  0
BLOCK_RECORD
  5
25
100
AcDbSymbolTableRecord
100
AcDbBlockTableRecord
  2
*D5
340
0
  0
BLOCK_RECORD
  5
26
100
AcDbSymbolTableRecord
100
AcDbBlockTableRecord
  2
*D6
340
0
  0
BLOCK_RECORD
  5
27
100
AcDbSymbolTableRecord
100
AcDbBlockTableRecord
  2
*D7
340
0
  0
BLOCK_RECORD
  5
28
100
AcDbSymbolTableRecord
100
AcDbBlockTableRecord
  2
*D8
340
0
  0
BLOCK_RECORD
  5
29
100
AcDbSymbolTableRecord
100
AcDbBlockTableRecord
  2
*D9
340
0
  0
BLOCK_RECORD
  5
2A
100
AcDbSymbolTableRecord
100
AcDbBlockTableRecord
  2
*D10
340
0
  0
BLOCK_RECORD
  5
2B
100
AcDbSymbolTableRecord
100
AcDbBlockTableRecord
  2
*D11
340
0
  0
BLOCK_RECORD
  5
2C
100
AcDbSymbolTableRecord
100
AcDbBlockTableRecord
  2
*D12
340
0
  0
BLOCK_RECORD
  5
2D
100
AcDbSymbolTableRecord
100
AcDbBlockTableRecord
  2
*D13
340
0
  0
BLOCK_RECORD
  5
2E
100
AcDbSymbolTableRecord
100
AcDbBlockTableRecord
  2
*D14
340
0
  0
BLOCK_RECORD
  5
2F
100
AcDbSymbolTableRecord
100
AcDbBlockTableRecord
  2
*D15
340
0
  0
BLOCK_RECORD
  5
30
100
AcDbSymbolTableRecord
100
AcDbBlockTableRecord
  2
*D16
340
0
  0
BLOCK_RECORD
  5
31
100
AcDbSymbolTableRecord
100
AcDbBlockTableRecord
  2
*D17
340
0
  0
BLOCK_RECORD
  5
32
100
AcDbSymbolTableRecord
100
AcDbBlockTableRecord
  2
*D18
340
0
  0
BLOCK_RECORD
  5
33
100
AcDbSymbolTableRecord
100
AcDbBlockTableRecord
  2
*D19
340
0
  0
BLOCK_RECORD
  5
34
100
AcDbSymbolTableRecord
100
AcDbBlockTableRecord
  2
*D20
340
0
  0
BLOCK_RECORD
  5
35
100
AcDbSymbolTableRecord
100
AcDbBlockTableRecord
  2
*D21
340
0
  0
BLOCK_RECORD
  5
36
100
AcDbSymbolTableRecord
100
AcDbBlockTableRecord
  2
*D22
340
0
  0
BLOCK_RECORD
  5
37
100
AcDbSymbolTableRecord
100
AcDbBlockTableRecord
  2
*D23
340
0
  0
BLOCK_RECORD
  5
38
100
AcDbSymbolTableRecord
100
AcDbBlockTableRecord
  2
*D24
340
0
  0
BLOCK_RECORD
  5
39
100
AcDbSymbolTableRecord
100
AcDbBlockTableRecord
  2
*D25
340
0
  0
BLOCK_RECORD
  5
3A
100
AcDbSymbolTableRecord
100
AcDbBlockTableRecord
  2
*D26
340
0
  0
ENDTAB
  0
ENDSEC
  0
SECTION
  2
BLOCKS
  0
BLOCK
  5
D
100
AcDbEntity
  8
0
390
0
100
AcDbBlockBegin
  2
*MODEL_SPACE
 70
               0
 10
0.0
 20
0.0
 30
0.0
  3
*MODEL_SPACE
  1

  0
ENDBLK
  5
E
100
AcDbEntity
  8
0
390
0
100
AcDbBlockEnd
  0
BLOCK
  5
F
100
AcDbEntity
 67
               1
  8
0
390
0
100
AcDbBlockBegin
  2
*PAPER_SPACE
 70
               0
 10
0.0
 20
0.0
 30
0.0
  3
*PAPER_SPACE
  1

  0
ENDBLK
  5
10
100
AcDbEntity
 67
               1
  8
0
390
0
100
AcDbBlockEnd
  0
BLOCK
  5
5B
100
AcDbEntity
  8
0
390
0
100
AcDbBlockBegin
  2
_DOT
 70
               0
 10
0.0
 20
0.0
 30
0.0
  3
_DOT
  1

  0
POLYLINE
  5
5C
100
AcDbEntity
  8
0
370
              -2
390
0
  6
ByBlock
 62
               0
100
AcDb2dPolyline
 66
               1
 10
0.0
 20
0.0
 30
0.0
 70
               1
 40
0.5
 41
0.5
  0
VERTEX
  5
5D
100
AcDbEntity
  8
0
370
              -2
390
0
  6
ByBlock
 62
               0
100
AcDbVertex
100
AcDb2dVertex
 10
-0.25
 20
0.0
 30
0.0
 42
1.0
  0
VERTEX
  5
5E
100
AcDbEntity
  8
0
370
              -2
390
0
  6
ByBlock
 62
               0
100
AcDbVertex
100
AcDb2dVertex
 10
0.25
 20
0.0
 30
0.0
 42
1.0
  0
SEQEND
  5
5F
100
AcDbEntity
  8
0
390
0
  0
LINE
  5
60
100
AcDbEntity
  8
0
370
              -2
390
0
  6
ByBlock
 62
               0
100
AcDbLine
 10
-0.5
 20
0.0
 30
0.0
 11
-1.0
 21
0.0
 31
0.0
  0
ENDBLK
  5
61
100
AcDbEntity
  8
0
390
0
100
AcDbBlockEnd
  0
BLOCK
  5
64
100
AcDbEntity
  8
0
370
              -2
390
0
  6
ByBlock
 62
               0
100
AcDbBlockBegin
  2
VW_SLASH
 70
               0
 10
0.0
 20
0.0
 30
0.0
  3
VW_SLASH
  1

  0
LINE
  5
65
100
AcDbEntity
  8
0
370
              -2
390
0
  6
ByBlock
 62
               0
100
AcDbLine
 10
0.0
 20
0.0
 30
0.0
 11
-1.0
 21
0.0
 31
0.0
  0
LINE
  5
66
100
AcDbEntity
  8
0
370
              20
390
0
  6
ByBlock
 62
               0
100
AcDbLine
 10
-0.4933002019630273
 20
-0.4933002019630272
 30
0.0
 11
0.4933002019630273
 21
0.4933002019630272
 31
0.0
  0
ENDBLK
  5
67
100
AcDbEntity
  8
0
390
0
100
AcDbBlockEnd
  0
BLOCK
  5
69
100
AcDbEntity
  8
0
370
              -2
390
0
  6
ByBlock
 62
               0
100
AcDbBlockBegin
  2
VW_FILLEDARROW
 70
               0
 10
0.0
 20
0.0
 30
0.0
  3
VW_FILLEDARROW
  1

  0
SOLID
  5
6A
100
AcDbEntity
  8
0
370
              -2
390
0
 62
               0
100
AcDbTrace
 10
0.0
 20
0.0
 30
0.0
 11
-1.395263671875
 21
-0.3738597741073892
 31
0.0
 12
-1.395263671875
 22
0.3738597741073896
 32
0.0
 13
-1.395263671875
 23
0.3738597741073896
 33
0.0
  0
ENDBLK
  5
6B
100
AcDbEntity
  8
0
390
0
100
AcDbBlockEnd
  0
BLOCK
  5
6D
100
AcDbEntity
  8
template
390
0
100
AcDbBlockBegin
  2
グループ
 70
               0
 10
0.0
 20
0.0
 30
0.0
  3
グループ
  1

  0
LWPOLYLINE
  5
6E
100
AcDbEntity
  8
0
370
              15
390
0
  6
Continuous
 62
               7
100
AcDbPolyline
 90
        8
 70
             129
 10
2093.2113302282869
 20
-1026.0263677117755
 10
2093.2113302282869
 20
-1035.0224507521393
 10
2078.9595348512817
 20
-1035.0224507521393
 10
2078.9595348512817
 20
-1071.6988956474024
 10
2066.4264689586075
 20
-1071.6988956474024
 10
2066.4264689586075
 20
-1035.0224507521393
 10
2052.4270335391434
 20
-1035.0224507521393
 10
2052.4270335391434
 20
-1026.0263677117755
  0
LWPOLYLINE
  5
6F
100
AcDbEntity
  8
0
370
              15
390
0
  6
Continuous
 62
               7
100
AcDbPolyline
 90
      101
 70
             128
 10
2112.3037679741219
 20
-1027.1187404511802
 10
2112.3267930172983
 20
-1027.112199316153
 42
-0.0222221607816226
 10
2112.7617998823061
 20
-1027.0092626182857
 10
2112.7854905282952
 20
-1027.0047574836403
 42
-0.0146883565578509
 10
2113.179544586133
 20
-1026.941752703216
 42
-0.0127458844179937
 10
2113.5765030368652
 20
-1026.9004472511072
 10
2113.6701856543318
 20
-1026.8931071172251
 42
-0.0198099018568855
 10
2114.2564593185384
 20
-1026.8704793811303
 10
2114.3341765227128
 20
-1026.8705600446278
 42
-0.0147617382756015
 10
2115.0761117141788
 20
-1026.8932400824954
 10
2115.1851488964871
 20
-1026.8997989928266
 42
-0.0162624549004101
 10
2115.7703793406831
 20
-1026.9541483057351
 10
2115.952677927572
 20
-1026.9770781442298
 42
-0.0080020874645346
 10
2116.1710464742091
 20
-1027.0081024151325
 10
2116.2285256800915
 20
-1027.0172093318474
 42
-0.0053821929683011
 10
2116.331251838074
 20
-1027.0346206175814
 10
2115.241643289276
 20
-1030.3060133011522
 42
0.010866775738685
 10
2115.1406676840793
 20
-1030.2862326283223
 10
2115.0844656492955
 20
-1030.2764860144307
 42
0.0170663203318486
 10
2114.8696404689208
 20
-1030.2467416184929
 10
2114.7678274698978
 20
-1030.236170862612
 42
0.0220162375279483
 10
2114.3472583581165
 20
-1030.2111473214568
 10
2114.2304750075355
 20
-1030.209348270557
 42
0.0282606915777087
 10
2113.7270205221698
 20
-1030.2300531860105
 10
2113.6611506115091
 20
-1030.2365031710162
 42
0.0169677213691844
 10
2113.2922638690729
 20
-1030.2853087453441
 42
0.0190576269861622
 10
2112.9279019252058
 20
-1030.3605290535027
 10
2112.9185131430368
 20
-1030.3628435146675
 42
0.0213685642848094
 10
2112.5429364163169
 20
-1030.4726439423257
 10
2112.5347015739458
 20
-1030.4754384364132
 42
0.0237595297594295
 10
2112.1544592465984
 20
-1030.6249652192564
 10
2112.1468061355531
 20
-1030.6284028824739
 42
0.0261857468822492
 10
2111.7685499712047
 20
-1030.8227073885378
 10
2111.7529106875809
 20
-1030.8318056002365
 42
0.0272553062017562
 10
2111.3982660247202
 20
-1031.0648639091548
 10
2111.3461215044549
 20
-1031.1033556312939
 42
0.0325996893180372
 10
2111.1208884889784
 20
-1031.2934774407502
 10
2111.085324345288
 20
-1031.3277044835249
 42
0.0138050960638807
 10
2110.9474996109789
 20
-1031.4678789758468
 42
0.0125280103806539
 10
2110.8172358117276
 20
-1031.6151239657481
 10
2110.781715144366
 20
-1031.657361713028
 42
0.0205218024732973
 10
2110.5940650310945
 20
-1031.9000516843728
 10
2110.5603655203649
 20
-1031.9475412791121
 42
0.0163110129584835
 10
2110.3267999514856
 20
-1032.3005369317202
 10
2110.3227141074112
 20
-1032.3071725746952
 42
0.0131897341899557
 10
2110.102513326055
 20
-1032.6868707132369
 10
2110.0999631830027
 20
-1032.6915480719454
 42
0.010789557606931
 10
2109.8932981296789
 20
-1033.0908708864142
 10
2109.8921987953991
 20
-1033.0931122353679
 42
0.009137150721813
 10
2109.6994788724242
 20
-1033.5049000320091
 10
2109.6548604253112
 20
-1033.6049597927456
 42
0.0135418326355129
 10
2109.3972895166989
 20
-1034.2273664706606
 10
2109.3468823040525
 20
-1034.3591656840692
 42
0.0092834542414146
 10
2109.0900387141705
 20
-1035.0700134315287
 10
2109.0516130225928
 20
-1035.1828750362231
 42
0.0054261043584971
 10
2108.8901558001548
 20
-1035.6745209958162
 10
2108.8638668208578
 20
-1035.7576032392583
 42
0.0008225090812375
 10
2108.7608617431433
 20
-1036.0850063763851
 10
2107.2838280452434
 20
-1040.62234331627
 10
2112.1327638053544
 20
-1040.62234331627
 10
2111.376475160574
 20
-1043.4790607637988
 10
2106.4923907375992
 20
-1043.4790607637988
 10
2097.7486671890683
 20
-1071.6988953628061
 10
2095.0110207736029
 20
-1071.6988953628061
 10
2103.7630378268541
 20
-1043.4790607637988
 10
2100.1553632732939
 20
-1043.4790607637988
 10
2100.9116519180739
 20
-1040.62234331627
 10
2104.5544751344987
 20
-1040.62234331627
 10
2105.844707511782
 20
-1036.6677238152217
 42
-0.0005863560649315
 10
2105.8998095290603
 20
-1036.4924841848692
 10
2106.0139412795779
 20
-1036.1309957357059
 42
-0.0087522378928184
 10
2106.3131434947627
 20
-1035.2380816049872
 10
2106.45153990788
 20
-1034.8478713522261
 42
-0.0077400953832463
 10
2106.8384403965802
 20
-1033.8083643358943
 10
2106.8620878539505
 20
-1033.7477180108103
 42
-0.0082369946332254
 10
2107.2327145598661
 20
-1032.8415994115217
 42
-0.0085725238363153
 10
2107.6335837038705
 20
-1031.9484603525909
 10
2107.7860281053836
 20
-1031.6238286996092
 42
-0.0168109410592986
 10
2108.2164447484765
 20
-1030.7820174104568
 10
2108.4052098341322
 20
-1030.4415713610192
 42
-0.0007817726875068
 10
2108.48663635925
 20
-1030.2952549934141
 10
2108.4868288182788
 20
-1030.2949104303041
 42
-0.0036626142145585
 10
2108.5691606143082
 20
-1030.1500136103566
 42
-0.0080221150698047
 10
2108.6548469974123
 20
-1030.0070947582369
 10
2108.7008969244598
 20
-1029.933008334544
 42
-0.0202139325563308
 10
2108.8923805341747
 20
-1029.6510359335157
 10
2108.9734817319513
 20
-1029.5414176371607
 42
-0.0249323791798517
 10
2109.3622259225299
 20
-1029.0673497739292
 10
2109.3984356437204
 20
-1029.0274283645604
 42
-0.0242132121532277
 10
2109.9079567560352
 20
-1028.5176031352526
 10
2109.9798241151589
 20
-1028.4523394309756
 42
-0.0251017527860048
 10
2110.4057966661203
 20
-1028.102850312328
 10
2110.4079648813381
 20
-1028.1012464259616
 42
-0.0130868069039494
 10
2110.8553558562771
 20
-1027.788075723146
 10
2110.8576985849891
 20
-1027.7865255627351
 42
-0.029032952639388
 10
2111.3243652970814
 20
-1027.5152873102895
 10
2111.3691336400634
 20
-1027.4926337360284
 42
-0.0160250190042851
 10
2111.7679902607074
 20
-1027.3066095707102
 42
-0.0267600374787232
 10
2112.1809043769094
 20
-1027.1554870898874
 10
2112.2210082561915
 20
-1027.1431982516488
 42
-0.004998158766897
 10
2112.3037679741219
 20
-1027.1187404511802
 42
-0.004998158766897
  0
LWPOLYLINE
  5
70
100
AcDbEntity
  8
0
370
              15
390
0
  6
Continuous
 62
               7
100
AcDbPolyline
 90
      118
 70
             128
 10
2142.0253193207927
 20
-1040.7333183080111
 10
2144.8380022075416
 20
-1040.7333183080111
 10
2143.5809438491419
 20
-1044.7556680976113
 42
-0.0010587229253892
 10
2143.6281275724468
 20
-1044.7003112976397
 10
2143.7154187084475
 20
-1044.5983379133145
 42
-0.0071874740392758
 10
2143.9409815356103
 20
-1044.3423768752536
 10
2144.1535656954884
 20
-1044.1080226633012
 42
-0.0148118053514914
 10
2144.8287596345581
 20
-1043.4066018942815
 10
2144.9595931369104
 20
-1043.2785059130013
 42
-0.0086273358689862
 10
2145.4629163384225
 20
-1042.8024424619766
 10
2145.5286669127622
 20
-1042.7423679954761
 42
-0.0103138323112098
 10
2145.9157024661117
 20
-1042.4031232894697
 10
2145.9843640756144
 20
-1042.3454002185692
 42
-0.0060206748563824
 10
2146.243636171771
 20
-1042.1327082424477
 10
2146.2466828680981
 20
-1042.1302696840023
 42
-0.0067069027297184
 10
2146.5051220900932
 20
-1041.9290437333084
 10
2146.5089452389907
 20
-1041.9261484784888
 42
-0.007618435204149
 10
2146.7653031377895
 20
-1041.7380861656297
 42
-0.0089652861680761
 10
2147.0277445818897
 20
-1041.5586362751319
 10
2147.0822721621053
 20
-1041.5227694549085
 42
-0.0156916245931224
 10
2147.3762114078486
 20
-1041.3423757251949
 42
-0.0023299011060729
 10
2147.6766044738229
 20
-1041.1726088158812
 10
2147.6996806723882
 20
-1041.1597088232866
 42
-0.0107669341485491
 10
2148.0510359100426
 20
-1040.9731086232609
 10
2148.0844331116523
 20
-1040.9562834983374
 42
-0.0078058045894227
 10
2148.5098182885863
 20
-1040.7502413148777
 10
2148.5246789201456
 20
-1040.743327623077
 42
-0.0181829330475908
 10
2148.9901430270697
 20
-1040.547032011433
 10
2149.0712261909198
 20
-1040.5162593315179
 42
-0.0208411536028254
 10
2149.5948536420942
 20
-1040.3421236377785
 10
2149.6163877922836
 20
-1040.3359459703488
 42
-0.0222799817140974
 10
2150.1094674831611
 20
-1040.2179836211378
 10
2150.1228009280198
 20
-1040.2154156052595
 42
-0.0215509523879252
 10
2150.5975073804366
 20
-1040.1450420724586
 10
2150.661230322009
 20
-1040.1383857822725
 42
-0.018254592486624
 10
2151.012393490968
 20
-1040.1146200441863
 10
2151.0714950154911
 20
-1040.1127832265674
 42
-0.0072962856538529
 10
2151.3053793350232
 20
-1040.1089292337842
 10
2151.3490288408711
 20
-1040.1088469806787
 42
-0.0059227516312266
 10
2151.4956530895988
 20
-1040.1103075483643
 10
2151.5395164158349
 20
-1040.11126419827
 42
-0.0011833111897221
 10
2151.5983933414054
 20
-1040.1126877047341
 10
2150.4053134479946
 20
-1043.9207886223826
 42
0.0143932051509244
 10
2150.3657113744666
 20
-1043.9054901673139
 10
2150.3548034158425
 20
-1043.9016333390286
 42
0.0234388603516974
 10
2150.2920571169425
 20
-1043.8827044854552
 10
2150.2790346225756
 20
-1043.8794330424482
 42
0.0199162742953268
 10
2150.1886013714557
 20
-1043.8605079394456
 10
2150.157380464746
 20
-1043.855262140303
 42
0.0293643550648235
 10
2150.0027681766082
 20
-1043.8385370718233
 10
2149.965740405527
 20
-1043.8367196462953
 42
0.0214606686861362
 10
2149.7360290316014
 20
-1043.8353118056691
 10
2149.7219711653711
 20
-1043.8358291729855
 42
0.016756405419611
 10
2149.4646908787008
 20
-1043.8539447365381
 10
2149.4520011895702
 20
-1043.8552667471781
 42
0.0137677553241991
 10
2149.1709712196689
 20
-1043.8923907099941
 10
2149.1599436104116
 20
-1043.8941575899455
 42
0.0118497261469733
 10
2148.859196964263
 20
-1043.9496836152282
 10
2148.8499719533884
 20
-1043.9516139093093
 42
0.0106421143890331
 10
2148.5336506224603
 20
-1044.0248624726717
 10
2148.5262874098771
 20
-1044.0267334866992
 42
0.0099746379693878
 10
2148.198599706127
 20
-1044.1169952791734
 10
2148.1062776458784
 20
-1044.1444180971173
 42
0.0191613675864378
 10
2147.6023009521027
 20
-1044.3153841675485
 10
2147.4702112929895
 20
-1044.3659145330328
 42
0.0205274080144612
 10
2146.8922511351357
 20
-1044.6146571447737
 10
2146.8057772121606
 20
-1044.6561590916333
 42
0.0181256912198597
 10
2146.4183618011621
 20
-1044.8596848200991
 10
2146.3389287261839
 20
-1044.9051612399255
 42
0.01407092424042
 10
2146.1214963242487
 20
-1045.0379032500728
 10
2146.0821230213282
 20
-1045.0634884781409
 42
0.0086667884392367
 10
2145.9487337790069
 20
-1045.1534924799701
 42
0.0036408192002034
 10
2145.8175839219498
 20
-1045.2467637666637
 10
2145.7647436102543
 20
-1045.2849251855278
 42
0.0052260781268351
 10
2145.5304005641701
 20
-1045.4579237654773
 10
2145.5060902797782
 20
-1045.4762659314065
 42
0.0050024435904018
 10
2145.2270852651927
 20
-1045.6911897837972
 10
2145.204108030417
 20
-1045.7092588174683
 42
0.0136138710280683
 10
2144.8884461279281
 20
-1045.9717085748396
 10
2144.8379443142389
 20
-1046.0160770339098
 42
0.0172815186917146
 10
2144.4413390017385
 20
-1046.3895720428518
 10
2144.4374954829814
 20
-1046.3934507685653
 42
0.0189403857987085
 10
2144.0616227851174
 20
-1046.8026586657661
 10
2144.0126755448109
 20
-1046.8601745630147
 42
0.0185044199501502
 10
2143.7247408863386
 20
-1047.225047434702
 42
0.0088565243896898
 10
2143.4570507264016
 20
-1047.6053220649183
 10
2143.4432837569229
 20
-1047.625634134567
 42
0.0157195347230812
 10
2143.1684528474157
 20
-1048.0599174485512
 10
2143.099328434525
 20
-1048.1771457440727
 42
0.0095451879780295
 10
2142.8517001093192
 20
-1048.6160377076067
 10
2142.8349782309242
 20
-1048.6470437158052
 42
0.0100351706255444
 10
2142.6369126071859
 20
-1049.0326270565406
 42
0.0086935915429508
 10
2142.4534158794818
 20
-1049.4253767746764
 10
2142.4484347673729
 20
-1049.4365402591052
 42
0.0072580174861821
 10
2142.2679150894583
 20
-1049.8574282464722
 10
2142.2630226394958
 20
-1049.8693082855066
 42
0.006000512260892
 10
2142.0842216369879
 20
-1050.3187227913998
 10
2142.0794051694697
 20
-1050.3312650832713
 42
0.0049017786983244
 10
2141.9010549311843
 20
-1050.8096585541759
 10
2141.896306221598
 20
-1050.8227879600236
 42
0.0039415167603832
 10
2141.7171518045179
 20
-1051.3306010536278
 10
2141.7124551505344
 20
-1051.3442558549575
 42
0.003103583876767
 10
2141.5312479720033
 20
-1051.8819156475934
 10
2141.5265829051996
 20
-1051.8960465796799
 42
0.0025070747152597
 10
2141.3422308782328
 20
-1052.464017405076
 10
2141.2862900335881
 20
-1052.6393549029754
 42
0.0029081910286672
 10
2140.9982625868538
 20
-1053.5606003904716
 10
2140.9370578340963
 20
-1053.7604352538267
 42
0.0009266453732265
 10
2140.5344317726499
 20
-1055.0837719436272
 10
2140.5031005636379
 20
-1055.1874397626505
 42
-0.0005809993664158
 10
2140.0870955427763
 20
-1056.5581519225243
 10
2139.9876728453901
 20
-1056.8843793206877
 42
-0.0012018708171265
 10
2139.7671963812236
 20
-1057.6016233175449
 10
2139.6887166039096
 20
-1057.8547620287331
 42
-0.000269105960433
 10
2139.6233623821222
 20
-1058.0651634593564
 10
2135.3739285346883
 20
-1071.6988953628061
 10
2132.6469451967205
 20
-1071.6988953628061
 10
2142.0253193207927
 20
-1040.7333183080111
  0
SPLINE
  5
71
100
AcDbEntity
  8
0
370
              15
390
0
  6
Continuous
 62
               7
100
AcDbSpline
210
0.0
220
0.0
230
1.0
 70
              13
 71
               2
 72
             782
 73
             779
 74
               0
 42
0.000001
 43
0.000001
 40
0.0
 40
0.0
 40
0.0
 40
1.0
 40
1.0
 40
2.0
 40
2.0
 40
3.0
 40
3.0
 40
4.0
 40
4.0
 40
5.0
 40
5.0
 40
6.0
 40
6.0
 40
7.0
 40
7.0
 40
8.0
 40
8.0
 40
9.0
 40
9.0
 40
10.0
 40
10.0
 40
11.0
 40
11.0
 40
12.0
 40
12.0
 40
13.0
 40
13.0
 40
14.0
 40
14.0
 40
15.0
 40
15.0
 40
16.0
 40
16.0
 40
17.0
 40
17.0
 40
18.0
 40
18.0
 40
19.0
 40
19.0
 40
20.0
 40
20.0
 40
21.0
 40
21.0
 40
22.0
 40
22.0
 40
23.0
 40
23.0
 40
24.0
 40
24.0
 40
25.0
 40
25.0
 40
26.0
 40
26.0
 40
27.0
 40
27.0
 40
28.0
 40
28.0
 40
29.0
 40
29.0
 40
30.0
 40
30.0
 40
31.0
 40
31.0
 40
32.0
 40
32.0
 40
33.0
 40
33.0
 40
34.0
 40
34.0
 40
35.0
 40
35.0
 40
36.0
 40
36.0
 40
37.0
 40
37.0
 40
38.0
 40
38.0
 40
39.0
 40
39.0
 40
40.0
 40
40.0
 40
41.0
 40
41.0
 40
42.0
 40
42.0
 40
43.0
 40
43.0
 40
44.0
 40
44.0
 40
45.0
 40
45.0
 40
46.0
 40
46.0
 40
47.0
 40
47.0
 40
48.0
 40
48.0
 40
49.0
 40
49.0
 40
50.0
 40
50.0
 40
51.0
 40
51.0
 40
52.0
 40
52.0
 40
53.0
 40
53.0
 40
54.0
 40
54.0
 40
55.0
 40
55.0
 40
56.0
 40
56.0
 40
57.0
 40
57.0
 40
58.0
 40
58.0
 40
59.0
 40
59.0
 40
60.0
 40
60.0
 40
61.0
 40
61.0
 40
62.0
 40
62.0
 40
63.0
 40
63.0
 40
64.0
 40
64.0
 40
65.0
 40
65.0
 40
66.0
 40
66.0
 40
67.0
 40
67.0
 40
68.0
 40
68.0
 40
69.0
 40
69.0
 40
70.0
 40
70.0
 40
71.0
 40
71.0
 40
72.0
 40
72.0
 40
73.0
 40
73.0
 40
74.0
 40
74.0
 40
75.0
 40
75.0
 40
76.0
 40
76.0
 40
77.0
 40
77.0
 40
78.0
 40
78.0
 40
79.0
 40
79.0
 40
80.0
 40
80.0
 40
81.0
 40
81.0
 40
82.0
 40
82.0
 40
83.0
 40
83.0
 40
84.0
 40
84.0
 40
85.0
 40
85.0
 40
86.0
 40
86.0
 40
87.0
 40
87.0
 40
88.0
 40
88.0
 40
89.0
 40
89.0
 40
90.0
 40
90.0
 40
91.0
 40
91.0
 40
92.0
 40
92.0
 40
93.0
 40
93.0
 40
94.0
 40
94.0
 40
95.0
 40
95.0
 40
96.0
 40
96.0
 40
97.0
 40
97.0
 40
98.0
 40
98.0
 40
99.0
 40
99.0
 40
100.0
 40
100.0
 40
101.0
 40
101.0
 40
102.0
 40
102.0
 40
103.0
 40
103.0
 40
104.0
 40
104.0
 40
105.0
 40
105.0
 40
106.0
 40
106.0
 40
107.0
 40
107.0
 40
108.0
 40
108.0
 40
109.0
 40
109.0
 40
110.0
 40
110.0
 40
111.0
 40
111.0
 40
112.0
 40
112.0
 40
113.0
 40
113.0
 40
114.0
 40
114.0
 40
115.0
 40
115.0
 40
116.0
 40
116.0
 40
117.0
 40
117.0
 40
118.0
 40
118.0
 40
119.0
 40
119.0
 40
120.0
 40
120.0
 40
121.0
 40
121.0
 40
122.0
 40
122.0
 40
123.0
 40
123.0
 40
124.0
 40
124.0
 40
125.0
 40
125.0
 40
126.0
 40
126.0
 40
127.0
 40
127.0
 40
128.0
 40
128.0
 40
129.0
 40
129.0
 40
130.0
 40
130.0
 40
131.0
 40
131.0
 40
132.0
 40
132.0
 40
133.0
 40
133.0
 40
134.0
 40
134.0
 40
135.0
 40
135.0
 40
136.0
 40
136.0
 40
137.0
 40
137.0
 40
138.0
 40
138.0
 40
139.0
 40
139.0
 40
140.0
 40
140.0
 40
141.0
 40
141.0
 40
142.0
 40
142.0
 40
143.0
 40
143.0
 40
144.0
 40
144.0
 40
145.0
 40
145.0
 40
146.0
 40
146.0
 40
147.0
 40
147.0
 40
148.0
 40
148.0
 40
149.0
 40
149.0
 40
150.0
 40
150.0
 40
151.0
 40
151.0
 40
152.0
 40
152.0
 40
153.0
 40
153.0
 40
154.0
 40
154.0
 40
155.0
 40
155.0
 40
156.0
 40
156.0
 40
157.0
 40
157.0
 40
158.0
 40
158.0
 40
159.0
 40
159.0
 40
160.0
 40
160.0
 40
161.0
 40
161.0
 40
162.0
 40
162.0
 40
163.0
 40
163.0
 40
164.0
 40
164.0
 40
165.0
 40
165.0
 40
166.0
 40
166.0
 40
167.0
 40
167.0
 40
168.0
 40
168.0
 40
169.0
 40
169.0
 40
170.0
 40
170.0
 40
171.0
 40
171.0
 40
172.0
 40
172.0
 40
173.0
 40
173.0
 40
174.0
 40
174.0
 40
175.0
 40
175.0
 40
176.0
 40
176.0
 40
177.0
 40
177.0
 40
178.0
 40
178.0
 40
179.0
 40
179.0
 40
180.0
 40
180.0
 40
181.0
 40
181.0
 40
182.0
 40
182.0
 40
183.0
 40
183.0
 40
184.0
 40
184.0
 40
185.0
 40
185.0
 40
186.0
 40
186.0
 40
187.0
 40
187.0
 40
188.0
 40
188.0
 40
189.0
 40
189.0
 40
190.0
 40
190.0
 40
191.0
 40
191.0
 40
192.0
 40
192.0
 40
193.0
 40
193.0
 40
194.0
 40
194.0
 40
195.0
 40
195.0
 40
196.0
 40
196.0
 40
197.0
 40
197.0
 40
198.0
 40
198.0
 40
199.0
 40
199.0
 40
200.0
 40
200.0
 40
201.0
 40
201.0
 40
202.0
 40
202.0
 40
203.0
 40
203.0
 40
204.0
 40
204.0
 40
205.0
 40
205.0
 40
206.0
 40
206.0
 40
207.0
 40
207.0
 40
208.0
 40
208.0
 40
209.0
 40
209.0
 40
210.0
 40
210.0
 40
211.0
 40
211.0
 40
212.0
 40
212.0
 40
213.0
 40
213.0
 40
214.0
 40
214.0
 40
215.0
 40
215.0
 40
216.0
 40
216.0
 40
217.0
 40
217.0
 40
218.0
 40
218.0
 40
219.0
 40
219.0
 40
220.0
 40
220.0
 40
221.0
 40
221.0
 40
222.0
 40
222.0
 40
223.0
 40
223.0
 40
224.0
 40
224.0
 40
225.0
 40
225.0
 40
226.0
 40
226.0
 40
227.0
 40
227.0
 40
228.0
 40
228.0
 40
229.0
 40
229.0
 40
230.0
 40
230.0
 40
231.0
 40
231.0
 40
232.0
 40
232.0
 40
233.0
 40
233.0
 40
234.0
 40
234.0
 40
235.0
 40
235.0
 40
236.0
 40
236.0
 40
237.0
 40
237.0
 40
238.0
 40
238.0
 40
239.0
 40
239.0
 40
240.0
 40
240.0
 40
241.0
 40
241.0
 40
242.0
 40
242.0
 40
243.0
 40
243.0
 40
244.0
 40
244.0
 40
245.0
 40
245.0
 40
246.0
 40
246.0
 40
247.0
 40
247.0
 40
248.0
 40
248.0
 40
249.0
 40
249.0
 40
250.0
 40
250.0
 40
251.0
 40
251.0
 40
252.0
 40
252.0
 40
253.0
 40
253.0
 40
254.0
 40
254.0
 40
255.0
 40
255.0
 40
256.0
 40
256.0
 40
257.0
 40
257.0
 40
258.0
 40
258.0
 40
259.0
 40
259.0
 40
260.0
 40
260.0
 40
261.0
 40
261.0
 40
262.0
 40
262.0
 40
263.0
 40
263.0
 40
264.0
 40
264.0
 40
265.0
 40
265.0
 40
266.0
 40
266.0
 40
267.0
 40
267.0
 40
268.0
 40
268.0
 40
269.0
 40
269.0
 40
270.0
 40
270.0
 40
271.0
 40
271.0
 40
272.0
 40
272.0
 40
273.0
 40
273.0
 40
274.0
 40
274.0
 40
275.0
 40
275.0
 40
276.0
 40
276.0
 40
277.0
 40
277.0
 40
278.0
 40
278.0
 40
279.0
 40
279.0
 40
280.0
 40
280.0
 40
281.0
 40
281.0
 40
282.0
 40
282.0
 40
283.0
 40
283.0
 40
284.0
 40
284.0
 40
285.0
 40
285.0
 40
286.0
 40
286.0
 40
287.0
 40
287.0
 40
288.0
 40
288.0
 40
289.0
 40
289.0
 40
290.0
 40
290.0
 40
291.0
 40
291.0
 40
292.0
 40
292.0
 40
293.0
 40
293.0
 40
294.0
 40
294.0
 40
295.0
 40
295.0
 40
296.0
 40
296.0
 40
297.0
 40
297.0
 40
298.0
 40
298.0
 40
299.0
 40
299.0
 40
300.0
 40
300.0
 40
301.0
 40
301.0
 40
302.0
 40
302.0
 40
303.0
 40
303.0
 40
304.0
 40
304.0
 40
305.0
 40
305.0
 40
306.0
 40
306.0
 40
307.0
 40
307.0
 40
308.0
 40
308.0
 40
309.0
 40
309.0
 40
310.0
 40
310.0
 40
311.0
 40
311.0
 40
312.0
 40
312.0
 40
313.0
 40
313.0
 40
314.0
 40
314.0
 40
315.0
 40
315.0
 40
316.0
 40
316.0
 40
317.0
 40
317.0
 40
318.0
 40
318.0
 40
319.0
 40
319.0
 40
320.0
 40
320.0
 40
321.0
 40
321.0
 40
322.0
 40
322.0
 40
323.0
 40
323.0
 40
324.0
 40
324.0
 40
325.0
 40
325.0
 40
326.0
 40
326.0
 40
327.0
 40
327.0
 40
328.0
 40
328.0
 40
329.0
 40
329.0
 40
330.0
 40
330.0
 40
331.0
 40
331.0
 40
332.0
 40
332.0
 40
333.0
 40
333.0
 40
334.0
 40
334.0
 40
335.0
 40
335.0
 40
336.0
 40
336.0
 40
337.0
 40
337.0
 40
338.0
 40
338.0
 40
339.0
 40
339.0
 40
340.0
 40
340.0
 40
341.0
 40
341.0
 40
342.0
 40
342.0
 40
343.0
 40
343.0
 40
344.0
 40
344.0
 40
345.0
 40
345.0
 40
346.0
 40
346.0
 40
347.0
 40
347.0
 40
348.0
 40
348.0
 40
349.0
 40
349.0
 40
350.0
 40
350.0
 40
351.0
 40
351.0
 40
352.0
 40
352.0
 40
353.0
 40
353.0
 40
354.0
 40
354.0
 40
355.0
 40
355.0
 40
356.0
 40
356.0
 40
357.0
 40
357.0
 40
358.0
 40
358.0
 40
359.0
 40
359.0
 40
360.0
 40
360.0
 40
361.0
 40
361.0
 40
362.0
 40
362.0
 40
363.0
 40
363.0
 40
364.0
 40
364.0
 40
365.0
 40
365.0
 40
366.0
 40
366.0
 40
367.0
 40
367.0
 40
368.0
 40
368.0
 40
369.0
 40
369.0
 40
370.0
 40
370.0
 40
371.0
 40
371.0
 40
372.0
 40
372.0
 40
373.0
 40
373.0
 40
374.0
 40
374.0
 40
375.0
 40
375.0
 40
376.0
 40
376.0
 40
377.0
 40
377.0
 40
378.0
 40
378.0
 40
379.0
 40
379.0
 40
380.0
 40
380.0
 40
381.0
 40
381.0
 40
382.0
 40
382.0
 40
383.0
 40
383.0
 40
384.0
 40
384.0
 40
385.0
 40
385.0
 40
386.0
 40
386.0
 40
387.0
 40
387.0
 40
388.0
 40
388.0
 40
389.0
 40
389.0
 40
389.0
 10
2157.5183759968913
 20
-1040.7169287629677
 30
0.0
 41
1.0
 10
2158.746012159972
 20
-1040.7169287629677
 30
0.0
 41
1.0
 10
2159.9736483230527
 20
-1040.7169287629677
 30
0.0
 41
1.0
 10
2159.3530177197777
 20
-1042.7308681593422
 30
0.0
 41
1.0
 10
2158.7323871165027
 20
-1044.7448075557168
 30
0.0
 41
1.0
 10
2158.7598963592318
 20
-1044.7017563963836
 30
0.0
 41
0.9999957264382853
 10
2158.7876568544798
 20
-1044.6588668211546
 30
0.0
 41
1.0
 10
2158.8333008406962
 20
-1044.5883475035753
 30
0.0
 41
1.0
 10
2158.8789448269122
 20
-1044.5178281859958
 30
0.0
 41
1.0
 10
2158.9979932945744
 20
-1044.3338999756363
 30
0.0
 41
0.999539406908089
 10
2159.1279808819063
 20
-1044.157532883019
 30
0.0
 41
1.0
 10
2159.1816161752913
 20
-1044.084760544135
 30
0.0
 41
1.0
 10
2159.2352514686768
 20
-1044.0119882052509
 30
0.0
 41
1.0
 10
2159.4358414704043
 20
-1043.7398277925593
 30
0.0
 41
0.9994460617143096
 10
2159.6540921923379
 20
-1043.4816141960832
 30
0.0
 41
1.0
 10
2159.6606744638002
 20
-1043.4738266755098
 30
0.0
 41
1.0
 10
2159.6672567352621
 20
-1043.4660391549367
 30
0.0
 41
1.0
 10
2159.8723429142697
 20
-1043.2234005996092
 30
0.0
 41
0.9994359394934519
 10
2160.0932542597966
 20
-1042.9950762978617
 30
0.0
 41
1.0
 10
2160.0968292907264
 20
-1042.9913813023022
 30
0.0
 41
1.0
 10
2160.1004043216567
 20
-1042.9876863067425
 30
0.0
 41
1.0
 10
2160.3141656053226
 20
-1042.7667519961158
 30
0.0
 41
0.9995293688567277
 10
2160.5410731267975
 20
-1042.5593421778685
 30
0.0
 41
1.0
 10
2160.5700137656936
 20
-1042.5328883493908
 30
0.0
 41
1.0
 10
2160.5989544045897
 20
-1042.5064345209132
 30
0.0
 41
1.0
 10
2160.7679806482729
 20
-1042.3519323596204
 30
0.0
 41
0.9997087614802358
 10
2160.9442649817029
 20
-1042.2057659384257
 30
0.0
 41
1.0
 10
2160.9730140914717
 20
-1042.181928570659
 30
0.0
 41
1.0
 10
2161.0017632012409
 20
-1042.1580912028924
 30
0.0
 41
1.0
 10
2161.1205493151338
 20
-1042.0595995172303
 30
0.0
 41
0.9999595338698937
 10
2161.2410882214185
 20
-1041.9632609212463
 30
0.0
 41
1.0
 10
2161.361627127686
 20
-1041.8669223252757
 30
0.0
 41
0.9999749417510668
 10
2161.4835179291895
 20
-1041.7722999943653
 30
0.0
 41
1.0
 10
2161.5149971484529
 20
-1041.7478630633973
 30
0.0
 41
1.0
 10
2161.5464763677164
 20
-1041.7234261324295
 30
0.0
 41
1.0
 10
2161.6733281956754
 20
-1041.6249526176634
 30
0.0
 41
0.9999792037125134
 10
2161.8014395953196
 20
-1041.5281234452054
 30
0.0
 41
1.0
 10
2161.8326768341467
 20
-1041.5045137118491
 30
0.0
 41
1.0
 10
2161.8639140729742
 20
-1041.4809039784927
 30
0.0
 41
1.0
 10
2161.9295509949297
 20
-1041.4312942727734
 30
0.0
 41
0.9999993374229431
 10
2161.9950735241891
 20
-1041.3815335796039
 30
0.0
 41
1.0
 10
2162.0605960534049
 20
-1041.3317728864674
 30
0.0
 41
0.9999160953816364
 10
2162.1273856697849
 20
-1041.2837262886692
 30
0.0
 41
1.0
 10
2162.1766185009133
 20
-1041.2483095552925
 30
0.0
 41
1.0
 10
2162.2258513320417
 20
-1041.2128928219158
 30
0.0
 41
1.0
 10
2162.3911066106798
 20
-1041.0940127573635
 30
0.0
 41
0.9980964527231531
 10
2162.5697401009306
 20
-1040.9963815480796
 30
0.0
 41
1.0
 10
2162.6252890113233
 20
-1040.9660215786898
 30
0.0
 41
1.0
 10
2162.6808379217159
 20
-1040.9356616093
 30
0.0
 41
1.0
 10
2162.949828441625
 20
-1040.7886462332485
 30
0.0
 41
0.9984572810573092
 10
2163.2334612911627
 20
-1040.6723628412292
 30
0.0
 41
1.0
 10
2163.2389306952568
 20
-1040.6701205027221
 30
0.0
 41
1.0
 10
2163.244400099351
 20
-1040.6678781642152
 30
0.0
 41
1.0
 10
2163.5170941407018
 20
-1040.5560794492096
 30
0.0
 41
0.9987838528034567
 10
2163.7994731285398
 20
-1040.4716809889608
 30
0.0
 41
1.0
 10
2163.8058300523371
 20
-1040.4697810084258
 30
0.0
 41
1.0
 10
2163.8121869761349
 20
-1040.4678810278906
 30
0.0
 41
1.0
 10
2164.0818521163787
 20
-1040.3872825287121
 30
0.0
 41
0.999065281620712
 10
2164.3574710139528
 20
-1040.3302770093992
 30
0.0
 41
1.0
 10
2164.3652536155023
 20
-1040.3286673547391
 30
0.0
 41
1.0
 10
2164.3730362170518
 20
-1040.3270577000787
 30
0.0
 41
1.0
 10
2164.6330899115292
 20
-1040.2732714900856
 30
0.0
 41
0.9992909934269794
 10
2164.896453561214
 20
-1040.2392058413864
 30
0.0
 41
1.0
 10
2165.1598172109038
 20
-1040.2051401926863
 30
0.0
 41
0.9994553539448718
 10
2165.4248543605399
 20
-1040.1885212363773
 30
0.0
 41
1.0
 10
2165.4780059722343
 20
-1040.1851884043056
 30
0.0
 41
1.0
 10
2165.5311575839282
 20
-1040.1818555722339
 30
0.0
 41
1.0
 10
2165.7804962337827
 20
-1040.1662209786164
 30
0.0
 41
0.9990928098292894
 10
2166.030260921636
 20
-1040.1718604404682
 30
0.0
 41
1.0
 10
2166.0881036745418
 20
-1040.1731664777676
 30
0.0
 41
1.0
 10
2166.1459464274476
 20
-1040.174472515067
 30
0.0
 41
1.0
 10
2166.2800256094883
 20
-1040.1774999023201
 30
0.0
 41
0.9998382089204004
 10
2166.4139091336692
 20
-1040.1853480921118
 30
0.0
 41
1.0
 10
2166.4145539929978
 20
-1040.1853858934651
 30
0.0
 41
1.0
 10
2166.4151988523267
 20
-1040.1854236948184
 30
0.0
 41
1.0
 10
2166.5477926578474
 20
-1040.1931962819037
 30
0.0
 41
0.9997558016757191
 10
2166.6799135236497
 20
-1040.2068200549538
 30
0.0
 41
1.0
 10
2166.680627731294
 20
-1040.2068937011777
 30
0.0
 41
1.0
 10
2166.6813419389382
 20
-1040.2069673474016
 30
0.0
 41
1.0
 10
2166.8120343894507
 20
-1040.2204438280037
 30
0.0
 41
0.9996565144182185
 10
2166.9418411694642
 20
-1040.2407497880372
 30
0.0
 41
1.0
 10
2166.9425400575328
 20
-1040.2408591166345
 30
0.0
 41
1.0
 10
2166.943238945601
 20
-1040.2409684452318
 30
0.0
 41
1.0
 10
2167.0716479494758
 20
-1040.26105574807
 30
0.0
 41
0.9995321806866392
 10
2167.1985885699692
 20
-1040.2889564807144
 30
0.0
 41
1.0
 10
2167.1991723618262
 20
-1040.2890847944132
 30
0.0
 41
1.0
 10
2167.1997561536832
 20
-1040.2892131081117
 30
0.0
 41
1.0
 10
2167.3255291904602
 20
-1040.3168572133582
 30
0.0
 41
0.9993819199218783
 10
2167.4490489917553
 20
-1040.3532702882494
 30
0.0
 41
1.0
 10
2167.4494066420029
 20
-1040.3533757219136
 30
0.0
 41
1.0
 10
2167.4497642922502
 20
-1040.3534811555778
 30
0.0
 41
1.0
 10
2167.5725687930499
 20
-1040.3896833631406
 30
0.0
 41
0.9992088568506443
 10
2167.6921075715318
 20
-1040.4355312168318
 30
0.0
 41
1.0
 10
2167.8116290578482
 20
-1040.4813706179307
 30
0.0
 41
0.9990226101773138
 10
2167.9266350627113
 20
-1040.5375867653536
 30
0.0
 41
1.0
 10
2168.0416237754062
 20
-1040.5937944601824
 30
0.0
 41
0.9988424273971687
 10
2168.1506792162245
 20
-1040.6607916230619
 30
0.0
 41
1.0
 10
2168.1510807787945
 20
-1040.661038319171
 30
0.0
 41
1.0
 10
2168.151482341365
 20
-1040.6612850152799
 30
0.0
 41
1.0
 10
2168.2613409073215
 20
-1040.7287755703758
 30
0.0
 41
0.9986928844490861
 10
2168.3637352073865
 20
-1040.8071291717954
 30
0.0
 41
1.0
 10
2168.3646071457206
 20
-1040.8077963916371
 30
0.0
 41
1.0
 10
2168.3654790840546
 20
-1040.8084636114791
 30
0.0
 41
1.0
 10
2168.4696172607887
 20
-1040.8881516525832
 30
0.0
 41
0.998600726227813
 10
2168.5647565154395
 20
-1040.9783928071247
 30
0.0
 41
1.0
 10
2168.5660981386245
 20
-1040.9796653588762
 30
0.0
 41
1.0
 10
2168.5674397618091
 20
-1040.9809379106277
 30
0.0
 41
1.0
 10
2168.6652622628299
 20
-1041.0737241686722
 30
0.0
 41
0.9985581491381105
 10
2168.7525736803809
 20
-1041.1764629040781
 30
0.0
 41
1.0
 10
2168.7664613607758
 20
-1041.192804440632
 30
0.0
 41
1.0
 10
2168.7803490411707
 20
-1041.2091459771859
 30
0.0
 41
1.0
 10
2168.895435819511
 20
-1041.3445677856992
 30
0.0
 41
0.9970460233520805
 10
2168.9884236712505
 20
-1041.4960184119723
 30
0.0
 41
1.0
 10
2169.0101277188701
 20
-1041.5313681005946
 30
0.0
 41
1.0
 10
2169.0318317664896
 20
-1041.5667177892167
 30
0.0
 41
1.0
 10
2169.0914368165068
 20
-1041.6637973752631
 30
0.0
 41
0.9988468816637626
 10
2169.1414563726339
 20
-1041.7661460539036
 30
0.0
 41
1.0
 10
2169.1520104063702
 20
-1041.787741435608
 30
0.0
 41
1.0
 10
2169.1625644401065
 20
-1041.8093368173127
 30
0.0
 41
1.0
 10
2169.1914759287592
 20
-1041.8684947325405
 30
0.0
 41
0.999843118999862
 10
2169.2182739200039
 20
-1041.9286395642064
 30
0.0
 41
1.0
 10
2169.245071911213
 20
-1041.9887843957927
 30
0.0
 41
0.9999989990049855
 10
2169.2720399963182
 20
-1042.0488531521071
 30
0.0
 41
1.0
 10
2169.2812984637403
 20
-1042.069475477394
 30
0.0
 41
1.0
 10
2169.290556931162
 20
-1042.0900978026812
 30
0.0
 41
1.0
 10
2169.3360419510768
 20
-1042.191411209493
 30
0.0
 41
0.9998790356319702
 10
2169.3783537712834
 20
-1042.2940903373974
 30
0.0
 41
1.0
 10
2169.3886065432148
 20
-1042.318970989551
 30
0.0
 41
1.0
 10
2169.3988593151462
 20
-1042.3438516417043
 30
0.0
 41
1.0
 10
2169.4341958087111
 20
-1042.4296035740194
 30
0.0
 41
0.9998227574561531
 10
2169.466278931292
 20
-1042.5166250364273
 30
0.0
 41
1.0
 10
2169.4983620538746
 20
-1042.6036464988383
 30
0.0
 41
0.9996797971041026
 10
2169.5260014813116
 20
-1042.69217967751
 30
0.0
 41
1.0
 10
2169.5318571854013
 20
-1042.7109363647687
 30
0.0
 41
1.0
 10
2169.5377128894916
 20
-1042.7296930520274
 30
0.0
 41
1.0
 10
2169.5770637251071
 20
-1042.8557396052138
 30
0.0
 41
0.9979274938736497
 10
2169.5999005103263
 20
-1042.9857961432065
 30
0.0
 41
1.0
 10
2169.6032360412173
 20
-1043.0047921444366
 30
0.0
 41
1.0
 10
2169.6065715721088
 20
-1043.0237881456665
 30
0.0
 41
1.0
 10
2169.6229664816565
 20
-1043.1171579066008
 30
0.0
 41
0.9994985982136414
 10
2169.6334187294219
 20
-1043.2113781583137
 30
0.0
 41
1.0
 10
2169.6438709771874
 20
-1043.3055984100251
 30
0.0
 41
0.9996372611200978
 10
2169.6492347758385
 20
-1043.4002447780472
 30
0.0
 41
1.0
 10
2169.6494876420729
 20
-1043.4047067036718
 30
0.0
 41
1.0
 10
2169.6497405083069
 20
-1043.4091686292966
 30
0.0
 41
1.0
 10
2169.6556100394264
 20
-1043.5127388485637
 30
0.0
 41
0.9997730630735036
 10
2169.6570625096583
 20
-1043.6164650846119
 30
0.0
 41
1.0
 10
2169.6571481692854
 20
-1043.6225823533273
 30
0.0
 41
1.0
 10
2169.6572338289129
 20
-1043.6286996220424
 30
0.0
 41
1.0
 10
2169.658857618399
 20
-1043.7446603955466
 30
0.0
 41
0.9998772614069853
 10
2169.6568474883011
 20
-1043.8606151154206
 30
0.0
 41
1.0
 10
2169.6567135935034
 20
-1043.8683388611457
 30
0.0
 41
1.0
 10
2169.6565796987056
 20
-1043.8760626068706
 30
0.0
 41
1.0
 10
2169.6543017790118
 20
-1044.0074648182199
 30
0.0
 41
0.9999415567329759
 10
2169.6491833136433
 20
-1044.13878706073
 30
0.0
 41
1.0
 10
2169.6488213326302
 20
-1044.1480742503384
 30
0.0
 41
1.0
 10
2169.648459351617
 20
-1044.1573614399467
 30
0.0
 41
1.0
 10
2169.6426169242227
 20
-1044.3072580616576
 30
0.0
 41
0.9999716810432303
 10
2169.6345190495454
 20
-1044.4570497689838
 30
0.0
 41
1.0
 10
2169.6296998513617
 20
-1044.5461936434876
 30
0.0
 41
1.0
 10
2169.6248806531776
 20
-1044.6353375179913
 30
0.0
 41
1.0
 10
2169.612769789449
 20
-1044.8593601199095
 30
0.0
 41
0.9999819129896014
 10
2169.5979651020239
 20
-1045.0832208364748
 30
0.0
 41
1.0
 10
2169.5831604145988
 20
-1045.3070815530418
 30
0.0
 41
1.0
 10
2169.5795014337532
 20
-1045.3628711218159
 30
0.0
 41
1.0
 10
2169.6135487845313
 20
-1045.3047596257675
 30
0.0
 41
0.99999821282739
 10
2169.6478156226772
 20
-1045.2467772848086
 30
0.0
 41
1.0
 10
2169.6881799624825
 20
-1045.1784774637636
 30
0.0
 41
1.0
 10
2169.7285443022874
 20
-1045.1101776427188
 30
0.0
 41
1.0
 10
2169.8435398200686
 20
-1044.9155956596262
 30
0.0
 41
0.9998609190057046
 10
2169.9649607893548
 20
-1044.7249570867418
 30
0.0
 41
1.0
 10
2170.0094332715871
 20
-1044.6551324872914
 30
0.0
 41
1.0
 10
2170.053905753819
 20
-1044.5853078878411
 30
0.0
 41
1.0
 10
2170.1773140841724
 20
-1044.3915490328513
 30
0.0
 41
0.9999067609733475
 10
2170.3059675983654
 20
-1044.2012324986943
 30
0.0
 41
1.0
 10
2170.309574653169
 20
-1044.1958965996091
 30
0.0
 41
1.0
 10
2170.313181707972
 20
-1044.190560700524
 30
0.0
 41
1.0
 10
2170.4346211125649
 20
-1044.0109159645274
 30
0.0
 41
0.9998784952151268
 10
2170.5616015270834
 20
-1043.8351441394693
 30
0.0
 41
1.0
 10
2170.6885819416048
 20
-1043.6593723144074
 30
0.0
 41
0.9998532968282811
 10
2170.8215083728369
 20
-1043.4880529517036
 30
0.0
 41
1.0
 10
2170.8514510563255
 20
-1043.4494619701707
 30
0.0
 41
1.0
 10
2170.8813937398145
 20
-1043.4108709886377
 30
0.0
 41
1.0
 10
2171.0591198144521
 20
-1043.1818125721863
 30
0.0
 41
0.9991551975796104
 10
2171.2550564888866
 20
-1042.9681232290618
 30
0.0
 41
1.0
 10
2171.2603209128565
 20
-1042.9623818266255
 30
0.0
 41
1.0
 10
2171.265585336826
 20
-1042.9566404241889
 30
0.0
 41
1.0
 10
2171.4509931633238
 20
-1042.7544338859345
 30
0.0
 41
0.9997418144180033
 10
2171.6453963728727
 20
-1042.5608597700179
 30
0.0
 41
1.0
 10
2171.8397995824243
 20
-1042.3672856540986
 30
0.0
 41
0.9989238204633206
 10
2172.0513034048004
 20
-1042.1925582110407
 30
0.0
 41
1.0
 10
2172.1191749220102
 20
-1042.1364882236273
 30
0.0
 41
1.0
 10
2172.18704643922
 20
-1042.080418236214
 30
0.0
 41
1.0
 10
2172.3974065250518
 20
-1041.9066356562778
 30
0.0
 41
0.9990825084096809
 10
2172.6218664239568
 20
-1041.7514921595289
 30
0.0
 41
1.0
 10
2172.6369344700424
 20
-1041.7410773399097
 30
0.0
 41
1.0
 10
2172.6520025161281
 20
-1041.7306625202903
 30
0.0
 41
1.0
 10
2172.8463263228632
 20
-1041.5963486627795
 30
0.0
 41
0.9998164899825925
 10
2173.0456526279277
 20
-1041.4695773005049
 30
0.0
 41
1.0
 10
2173.0634209687159
 20
-1041.4582766507165
 30
0.0
 41
1.0
 10
2173.0811893095047
 20
-1041.4469760009283
 30
0.0
 41
1.0
 10
2173.2449789329917
 20
-1041.3428059382304
 30
0.0
 41
0.9997473449129971
 10
2173.413284868866
 20
-1041.2461025015068
 30
0.0
 41
1.0
 10
2173.5815908047402
 20
-1041.149399064783
 30
0.0
 41
0.9999327861142511
 10
2173.7520937208869
 20
-1041.05662407726
 30
0.0
 41
1.0
 10
2173.752921724727
 20
-1041.0561735392419
 30
0.0
 41
1.0
 10
2173.7537497285671
 20
-1041.0557230012237
 30
0.0
 41
1.0
 10
2173.9259086523925
 20
-1040.9620469376648
 30
0.0
 41
0.9996956420483198
 10
2174.102478641144
 20
-1040.8769767372071
 30
0.0
 41
1.0
 10
2174.148139248493
 20
-1040.8549777721075
 30
0.0
 41
1.0
 10
2174.1937998558415
 20
-1040.832978807008
 30
0.0
 41
1.0
 10
2174.3482655159537
 20
-1040.758558319345
 30
0.0
 41
0.9998070570177062
 10
2174.5055350993603
 20
-1040.6902624389952
 30
0.0
 41
1.0
 10
2174.6628046827695
 20
-1040.6219665586445
 30
0.0
 41
0.9997827436148097
 10
2174.8227840876912
 20
-1040.5602848016742
 30
0.0
 41
1.0
 10
2174.8516183621359
 20
-1040.5491674412265
 30
0.0
 41
1.0
 10
2174.8804526365807
 20
-1040.5380500807787
 30
0.0
 41
1.0
 10
2175.0981005903882
 20
-1040.4541336029142
 30
0.0
 41
0.9988031841976834
 10
2175.3229061342972
 20
-1040.3918835066618
 30
0.0
 41
1.0
 10
2175.3602820068436
 20
-1040.3815338879513
 30
0.0
 41
1.0
 10
2175.39765787939
 20
-1040.3711842692405
 30
0.0
 41
1.0
 10
2175.6485629178587
 20
-1040.3017070556309
 30
0.0
 41
0.9984748040550006
 10
2175.9055982808304
 20
-1040.260315707234
 30
0.0
 41
1.0
 10
2175.9127069852043
 20
-1040.2591709664639
 30
0.0
 41
1.0
 10
2175.9198156895782
 20
-1040.2580262256936
 30
0.0
 41
1.0
 10
2176.1626336438062
 20
-1040.2189243588364
 30
0.0
 41
0.9984436495479681
 10
2176.408295759391
 20
-1040.2071074281084
 30
0.0
 41
1.0
 10
2176.4408415715889
 20
-1040.2055418973089
 30
0.0
 41
1.0
 10
2176.4733873837868
 20
-1040.2039763665093
 30
0.0
 41
1.0
 10
2176.6539578749789
 20
-1040.1952904973805
 30
0.0
 41
0.9987954789335799
 10
2176.8345102423427
 20
-1040.2043452889939
 30
0.0
 41
1.0
 10
2176.8644574310847
 20
-1040.2058471555017
 30
0.0
 41
1.0
 10
2176.8944046198267
 20
-1040.2073490220096
 30
0.0
 41
1.0
 10
2177.0150626097079
 20
-1040.2134000806072
 30
0.0
 41
0.9997941595876916
 10
2177.1353757768493
 20
-1040.2243411794889
 30
0.0
 41
1.0
 10
2177.2556889439993
 20
-1040.2352822783716
 30
0.0
 41
0.9998589466236568
 10
2177.3755667642763
 20
-1040.250258060046
 30
0.0
 41
1.0
 10
2177.4241760669875
 20
-1040.2563305954245
 30
0.0
 41
1.0
 10
2177.4727853696982
 20
-1040.2624031308032
 30
0.0
 41
1.0
 10
2177.6898817954047
 20
-1040.2895239832358
 30
0.0
 41
0.9993495063248854
 10
2177.9044586610516
 20
-1040.3322225478482
 30
0.0
 41
1.0
 10
2177.9538592067815
 20
-1040.3420527426706
 30
0.0
 41
1.0
 10
2178.0032597525114
 20
-1040.3518829374932
 30
0.0
 41
1.0
 10
2178.1672004873176
 20
-1040.3845054386961
 30
0.0
 41
0.9996788715561841
 10
2178.3292778452515
 20
-1040.4253921377406
 30
0.0
 41
1.0
 10
2178.3323723490594
 20
-1040.4261727775997
 30
0.0
 41
1.0
 10
2178.3354668528677
 20
-1040.4269534174591
 30
0.0
 41
1.0
 10
2178.4913552031858
 20
-1040.466278836785
 30
0.0
 41
0.9995480654492397
 10
2178.6445985560299
 20
-1040.5149012717216
 30
0.0
 41
1.0
 10
2178.6471330192235
 20
-1040.5157054290923
 30
0.0
 41
1.0
 10
2178.6496674824166
 20
-1040.5165095864631
 30
0.0
 41
1.0
 10
2178.7978419088736
 20
-1040.5635237066579
 30
0.0
 41
0.9993867959456007
 10
2178.9423626465377
 20
-1040.6207927605928
 30
0.0
 41
1.0
 10
2178.9442270701666
 20
-1040.6215315734378
 30
0.0
 41
1.0
 10
2178.9460914937949
 20
-1040.6222703862827
 30
0.0
 41
1.0
 10
2179.0868833842023
 20
-1040.6780618145278
 30
0.0
 41
0.9992050256521834
 10
2179.2227828967516
 20
-1040.7448926633856
 30
0.0
 41
1.0
 10
2179.223884920822
 20
-1040.7454346020777
 30
0.0
 41
1.0
 10
2179.2249869448924
 20
-1040.7459765407698
 30
0.0
 41
1.0
 10
2179.3586824093027
 20
-1040.8117235122443
 30
0.0
 41
0.9990222350741854
 10
2179.4860475013925
 20
-1040.8890234137912
 30
0.0
 41
1.0
 10
2179.4863233293172
 20
-1040.889190818149
 30
0.0
 41
1.0
 10
2179.4865991572424
 20
-1040.8893582225066
 30
0.0
 41
1.0
 10
2179.6134125934841
 20
-1040.9663233153394
 30
0.0
 41
0.9988642743805835
 10
2179.7323243954115
 20
-1041.0550095966266
 30
0.0
 41
1.0
 10
2179.8512361973399
 20
-1041.1436958779143
 30
0.0
 41
0.9987681233310362
 10
2179.9607718737543
 20
-1041.243731915016
 30
0.0
 41
1.0
 10
2179.9612652657029
 20
-1041.2441825168371
 30
0.0
 41
1.0
 10
2179.9617586576514
 20
-1041.2446331186584
 30
0.0
 41
1.0
 10
2180.0722811179644
 20
-1041.3455703594038
 30
0.0
 41
0.9987496570898893
 10
2180.1721718259546
 20
-1041.4570395805329
 30
0.0
 41
1.0
 10
2180.173330080595
 20
-1041.4583320905695
 30
0.0
 41
1.0
 10
2180.1744883352353
 20
-1041.4596246006058
 30
0.0
 41
1.0
 10
2180.2766955525076
 20
-1041.5736788418094
 30
0.0
 41
0.9988147669827059
 10
2180.3673289338453
 20
-1041.6971303520731
 30
0.0
 41
1.0
 10
2180.3690079229618
 20
-1041.6994172991019
 30
0.0
 41
1.0
 10
2180.3706869120783
 20
-1041.7017042461307
 30
0.0
 41
1.0
 10
2180.4646782716509
 20
-1041.8297296504547
 30
0.0
 41
0.9989452636216103
 10
2180.5465286410936
 20
-1041.9658376841928
 30
0.0
 41
1.0
 10
2180.5485517302209
 20
-1041.9692018557298
 30
0.0
 41
1.0
 10
2180.5505748193482
 20
-1041.972566027267
 30
0.0
 41
1.0
 10
2180.6364713670469
 20
-1042.1154024040829
 30
0.0
 41
0.9991046436071802
 10
2180.7099851870285
 20
-1042.2649890536184
 30
0.0
 41
1.0
 10
2180.7121809794139
 20
-1042.2694570737281
 30
0.0
 41
1.0
 10
2180.7143767717994
 20
-1042.273925093838
 30
0.0
 41
1.0
 10
2180.7922821765515
 20
-1042.4324477835924
 30
0.0
 41
0.9992763831101003
 10
2180.8579118693829
 20
-1042.5964338765227
 30
0.0
 41
1.0
 10
2180.8601307738791
 20
-1042.6019781578257
 30
0.0
 41
1.0
 10
2180.8623496783748
 20
-1042.6075224391284
 30
0.0
 41
1.0
 10
2180.932417180195
 20
-1042.7825970946565
 30
0.0
 41
0.9994163472882737
 10
2180.9903667269782
 20
-1042.9620474773485
 30
0.0
 41
1.0
 10
2180.992223955348
 20
-1042.9677986930219
 30
0.0
 41
1.0
 10
2180.9940811837182
 20
-1042.9735499086955
 30
0.0
 41
1.0
 10
2181.0539065252465
 20
-1043.1588090009191
 30
0.0
 41
0.9997268055890866
 10
2181.1050086091159
 20
-1043.346661548851
 30
0.0
 41
1.0
 10
2181.1064038795203
 20
-1043.3517905980145
 30
0.0
 41
1.0
 10
2181.1077991499246
 20
-1043.3569196471781
 30
0.0
 41
1.0
 10
2181.1561106929839
 20
-1043.5345140967765
 30
0.0
 41
0.9996701319000474
 10
2181.1952391181394
 20
-1043.7143550266724
 30
0.0
 41
1.0
 10
2181.2343675432953
 20
-1043.8941959565673
 30
0.0
 41
0.9995785451109414
 10
2181.262992909305
 20
-1044.0760045981151
 30
0.0
 41
1.0
 10
2181.2693225825656
 20
-1044.1162063302625
 30
0.0
 41
1.0
 10
2181.2756522558261
 20
-1044.1564080624098
 30
0.0
 41
1.0
 10
2181.315514719734
 20
-1044.4095870229651
 30
0.0
 41
0.9979925101216609
 10
2181.3230530986234
 20
-1044.665774015102
 30
0.0
 41
1.0
 10
2181.3242903172604
 20
-1044.7078201003319
 30
0.0
 41
1.0
 10
2181.3255275358979
 20
-1044.7498661855618
 30
0.0
 41
1.0
 10
2181.3305914775128
 20
-1044.9219610072466
 30
0.0
 41
0.9995314902263672
 10
2181.3251161893049
 20
-1045.0940432328675
 30
0.0
 41
1.0
 10
2181.3196409010975
 20
-1045.2661254584962
 30
0.0
 41
0.9996245486943799
 10
2181.3047472584008
 20
-1045.4376493651846
 30
0.0
 41
1.0
 10
2181.3045026864093
 20
-1045.4404659993857
 30
0.0
 41
1.0
 10
2181.3042581144182
 20
-1045.4432826335869
 30
0.0
 41
1.0
 10
2181.2888753277389
 20
-1045.6204398086829
 30
0.0
 41
0.9997286095001524
 10
2181.2652573423816
 20
-1045.7966881720276
 30
0.0
 41
1.0
 10
2181.2646671034063
 20
-1045.8010928090771
 30
0.0
 41
1.0
 10
2181.2640768644314
 20
-1045.8054974461265
 30
0.0
 41
1.0
 10
2181.2392784011226
 20
-1045.9905550835774
 30
0.0
 41
0.9998265533970916
 10
2181.2076052130228
 20
-1046.1745607957632
 30
0.0
 41
1.0
 10
2181.2065903998177
 20
-1046.1804563635212
 30
0.0
 41
1.0
 10
2181.2055755866127
 20
-1046.1863519312792
 30
0.0
 41
1.0
 10
2181.1718727721027
 20
-1046.3821487789828
 30
0.0
 41
0.9999022530850473
 10
2181.1327085751886
 20
-1046.5769267319361
 30
0.0
 41
1.0
 10
2181.1312406134402
 20
-1046.5842274455199
 30
0.0
 41
1.0
 10
2181.1297726516914
 20
-1046.591528159104
 30
0.0
 41
1.0
 10
2181.0876725312787
 20
-1046.8009075392292
 30
0.0
 41
0.9999524761934421
 10
2181.0414980780261
 20
-1047.0094262789796
 30
0.0
 41
1.0
 10
2181.0395839172638
 20
-1047.0180704179288
 30
0.0
 41
1.0
 10
2181.0376697565016
 20
-1047.0267145568778
 30
0.0
 41
1.0
 10
2180.987666981724
 20
-1047.2525215745286
 30
0.0
 41
0.9999813588717068
 10
2180.9349104805306
 20
-1047.4777011435112
 30
0.0
 41
1.0
 10
2180.9325795923451
 20
-1047.4876500291468
 30
0.0
 41
1.0
 10
2180.93024870416
 20
-1047.4975989147824
 30
0.0
 41
1.0
 10
2180.8728304266051
 20
-1047.7426762549987
 30
0.0
 41
0.9999955237635423
 10
2180.8139466096404
 20
-1047.9874056103818
 30
0.0
 41
1.0
 10
2180.7955241561813
 20
-1048.063971896197
 30
0.0
 41
1.0
 10
2180.7771017027226
 20
-1048.1405381820123
 30
0.0
 41
1.0
 10
2180.6813729788264
 20
-1048.5384001090829
 30
0.0
 41
0.9999993604433054
 10
2180.5847445580634
 20
-1048.9360444851538
 30
0.0
 41
1.0
 10
2180.5776663047595
 20
-1048.9651728471463
 30
0.0
 41
1.0
 10
2180.5705880514556
 20
-1048.9943012091385
 30
0.0
 41
1.0
 10
2180.4598031240721
 20
-1049.45020230925
 30
0.0
 41
0.9999659914729175
 10
2180.3415137302513
 20
-1049.9042141290611
 30
0.0
 41
1.0
 10
2180.3340846968485
 20
-1049.9327278348621
 30
0.0
 41
1.0
 10
2180.3266556634453
 20
-1049.9612415406632
 30
0.0
 41
1.0
 10
2180.193508202824
 20
-1050.4722807720536
 30
0.0
 41
0.9999441976027477
 10
2180.0495936533739
 20
-1050.9803929100181
 30
0.0
 41
1.0
 10
2180.0245428757398
 20
-1051.0688384787957
 30
0.0
 41
1.0
 10
2179.9994920981053
 20
-1051.1572840475733
 30
0.0
 41
1.0
 10
2179.8054759933884
 20
-1051.8422873230884
 30
0.0
 41
0.9999625120729359
 10
2179.5996268424083
 20
-1052.5238281240659
 30
0.0
 41
1.0
 10
2179.5459419277868
 20
-1052.7015721639975
 30
0.0
 41
1.0
 10
2179.4922570131648
 20
-1052.8793162039292
 30
0.0
 41
1.0
 10
2179.3804767070969
 20
-1053.2494068211054
 30
0.0
 41
0.999979338630026
 10
2179.2639476723816
 20
-1053.6180297799874
 30
0.0
 41
1.0
 10
2179.1474186376749
 20
-1053.9866527388415
 30
0.0
 41
1.0
 10
2179.1312492993688
 20
-1054.0376795954035
 30
0.0
 41
1.0
 10
2176.3556897194649
 20
-1062.8682874791048
 30
0.0
 41
1.0
 10
2173.5801301395613
 20
-1071.6988953628061
 30
0.0
 41
1.0
 10
2172.138245104526
 20
-1071.6988953628061
 30
0.0
 41
1.0
 10
2170.6963600694908
 20
-1071.6988953628061
 30
0.0
 41
1.0
 10
2173.1247772375082
 20
-1063.9768526101218
 30
0.0
 41
1.0
 10
2175.553194405526
 20
-1056.2548098574375
 30
0.0
 41
1.0
 10
2175.6209431402858
 20
-1056.038763024038
 30
0.0
 41
1.0
 10
2175.6886918750456
 20
-1055.8227161906384
 30
0.0
 41
1.0
 10
2175.944148501093
 20
-1055.0080796468851
 30
0.0
 41
0.9999911657919091
 10
2176.1927477186136
 20
-1054.1913243498389
 30
0.0
 41
1.0
 10
2176.2372916338481
 20
-1054.0449784398161
 30
0.0
 41
1.0
 10
2176.2818355490826
 20
-1053.8986325297935
 30
0.0
 41
1.0
 10
2176.4413469361148
 20
-1053.3745690528558
 30
0.0
 41
0.9999952428167874
 10
2176.5976223201214
 20
-1052.8495315162688
 30
0.0
 41
1.0
 10
2176.6052115256207
 20
-1052.8240341048545
 30
0.0
 41
1.0
 10
2176.6128007311199
 20
-1052.7985366934399
 30
0.0
 41
1.0
 10
2176.7538977041086
 20
-1052.3244939797448
 30
0.0
 41
0.9999931687519845
 10
2176.8914864609192
 20
-1051.8494211598388
 30
0.0
 41
1.0
 10
2176.8988893576084
 20
-1051.8238600959328
 30
0.0
 41
1.0
 10
2176.9062922542976
 20
-1051.7982990320268
 30
0.0
 41
1.0
 10
2177.0290752177325
 20
-1051.3743483399248
 30
0.0
 41
0.9999893840783767
 10
2177.1479460574146
 20
-1050.9492841460633
 30
0.0
 41
1.0
 10
2177.2668168971009
 20
-1050.5242199521906
 30
0.0
 41
0.9999833980058785
 10
2177.3807812582086
 20
-1050.0978140776663
 30
0.0
 41
1.0
 10
2177.3942871632962
 20
-1050.0472807599331
 30
0.0
 41
1.0
 10
2177.4077930683839
 20
-1049.9967474421996
 30
0.0
 41
1.0
 10
2177.5112398916817
 20
-1049.6096936937611
 30
0.0
 41
0.9999233658066751
 10
2177.6050723485105
 20
-1049.2201974556838
 30
0.0
 41
1.0
 10
2177.698904805341
 20
-1048.8307012176001
 30
0.0
 41
1.0
 10
2177.7581299336271
 20
-1048.5849912209608
 30
0.0
 41
1.0
 10
2177.7655978395933
 20
-1048.5540087781542
 30
0.0
 41
1.0
 10
2177.7730657455595
 20
-1048.5230263353476
 30
0.0
 41
1.0
 10
2177.8173550619135
 20
-1048.3392812243214
 30
0.0
 41
0.9999868670849742
 10
2177.8597586879077
 20
-1048.1550918058533
 30
0.0
 41
1.0
 10
2177.8656049186529
 20
-1048.1296974246914
 30
0.0
 41
1.0
 10
2177.8714511493977
 20
-1048.1043030435294
 30
0.0
 41
1.0
 10
2177.9021623139083
 20
-1047.9709023873565
 30
0.0
 41
0.9999778173342975
 10
2177.9310937110749
 20
-1047.8371044615394
 30
0.0
 41
1.0
 10
2177.9600251082497
 20
-1047.7033065356873
 30
0.0
 41
0.9999602692865539
 10
2177.9865666461997
 20
-1047.5690141030277
 30
0.0
 41
1.0
 10
2177.9913723943137
 20
-1047.5446984207124
 30
0.0
 41
1.0
 10
2177.9961781424272
 20
-1047.5203827383973
 30
0.0
 41
1.0
 10
2178.0323311766065
 20
-1047.3374589411014
 30
0.0
 41
0.9995617985320465
 10
2178.0575961974341
 20
-1047.1527163195435
 30
0.0
 41
1.0
 10
2178.0612929322933
 20
-1047.1256850934956
 30
0.0
 41
1.0
 10
2178.0649896671525
 20
-1047.0986538674474
 30
0.0
 41
1.0
 10
2178.0954145587252
 20
-1046.8761812928951
 30
0.0
 41
0.9991121410639231
 10
2178.1070025891081
 20
-1046.6519371446839
 30
0.0
 41
1.0
 10
2178.1083807741452
 20
-1046.6252673898211
 30
0.0
 41
1.0
 10
2178.1097589591818
 20
-1046.5985976349587
 30
0.0
 41
1.0
 10
2178.1185906194905
 20
-1046.427692996476
 30
0.0
 41
0.9989792494905533
 10
2178.1119619813144
 20
-1046.2566887426269
 30
0.0
 41
1.0
 10
2178.1109900235115
 20
-1046.2316143737353
 30
0.0
 41
1.0
 10
2178.1100180657081
 20
-1046.2065400048436
 30
0.0
 41
1.0
 10
2178.1053333431382
 20
-1046.0856844887785
 30
0.0
 41
0.9997820295393586
 10
2178.0956073470747
 20
-1045.9651299061634
 30
0.0
 41
1.0
 10
2178.0858813510117
 20
-1045.8445753235501
 30
0.0
 41
0.9998335105973818
 10
2178.0717630577446
 20
-1045.7244558988773
 30
0.0
 41
1.0
 10
2178.0693706707298
 20
-1045.7041013031501
 30
0.0
 41
1.0
 10
2178.0669782837149
 20
-1045.6837467074229
 30
0.0
 41
1.0
 10
2178.0480752164185
 20
-1045.5229180913
 30
0.0
 41
0.9996876457879421
 10
2178.0211593472209
 20
-1045.3632349497259
 30
0.0
 41
1.0
 10
2178.0178118525027
 20
-1045.3433753468612
 30
0.0
 41
1.0
 10
2178.0144643577842
 20
-1045.3235157439963
 30
0.0
 41
1.0
 10
2177.9937706256528
 20
-1045.2007465280603
 30
0.0
 41
0.9995547496494804
 10
2177.9657906428142
 20
-1045.0794302822751
 30
0.0
 41
1.0
 10
2177.9652297075077
 20
-1045.0769981662183
 30
0.0
 41
1.0
 10
2177.9646687722011
 20
-1045.0745660501616
 30
0.0
 41
1.0
 10
2177.9378106599756
 20
-1044.9581140364899
 30
0.0
 41
0.999489942717595
 10
2177.9035732969564
 20
-1044.8436141122365
 30
0.0
 41
1.0
 10
2177.902885506845
 20
-1044.8413139375525
 30
0.0
 41
1.0
 10
2177.9021977167336
 20
-1044.8390137628683
 30
0.0
 41
1.0
 10
2177.8693359339372
 20
-1044.7291141879832
 30
0.0
 41
0.9993784877589965
 10
2177.8288124812775
 20
-1044.6218031302465
 30
0.0
 41
1.0
 10
2177.828014944811
 20
-1044.6196911561628
 30
0.0
 41
1.0
 10
2177.8272174083445
 20
-1044.617579182079
 30
0.0
 41
1.0
 10
2177.7882890286164
 20
-1044.5144920725054
 30
0.0
 41
0.9992430832253656
 10
2177.7414642258782
 20
-1044.4147433444055
 30
0.0
 41
1.0
 10
2177.7405910517932
 20
-1044.4128832617293
 30
0.0
 41
1.0
 10
2177.7397178777082
 20
-1044.4110231790532
 30
0.0
 41
1.0
 10
2177.6946394231395
 20
-1044.3149946163032
 30
0.0
 41
0.9990789632798527
 10
2177.6414934829745
 20
-1044.2231846986788
 30
0.0
 41
1.0
 10
2177.6405999237013
 20
-1044.2216410698895
 30
0.0
 41
1.0
 10
2177.6397063644281
 20
-1044.2200974411003
 30
0.0
 41
1.0
 10
2177.5883475428091
 20
-1044.1313747810532
 30
0.0
 41
0.998887480112045
 10
2177.5288586287616
 20
-1044.0478852124274
 30
0.0
 41
1.0
 10
2177.528025339665
 20
-1044.0467157349153
 30
0.0
 41
1.0
 10
2177.5271920505688
 20
-1044.0455462574034
 30
0.0
 41
1.0
 10
2177.469369714714
 20
-1043.9643956438017
 30
0.0
 41
0.9986762060693903
 10
2177.4035160077992
 20
-1043.8896150721421
 30
0.0
 41
1.0
 10
2177.4028500673003
 20
-1043.8888588594168
 30
0.0
 41
1.0
 10
2177.4021841268018
 20
-1043.8881026466913
 30
0.0
 41
1.0
 10
2177.3376623008844
 20
-1043.8148345004827
 30
0.0
 41
0.9984621642487738
 10
2177.2654259657184
 20
-1043.7491595497766
 30
0.0
 41
1.0
 10
2177.2650560139423
 20
-1043.7488232015303
 30
0.0
 41
1.0
 10
2177.2646860621662
 20
-1043.748486853284
 30
0.0
 41
1.0
 10
2177.1931896305496
 20
-1043.6834845990682
 30
0.0
 41
0.9982724693851697
 10
2177.1145616827894
 20
-1043.6273180732933
 30
0.0
 41
1.0
 10
2177.0359337350278
 20
-1043.5711515475173
 30
0.0
 41
0.9981399180158016
 10
2176.9510546399388
 20
-1043.5249717683528
 30
0.0
 41
1.0
 10
2176.9509861468205
 20
-1043.5249345036164
 30
0.0
 41
1.0
 10
2176.9509176537017
 20
-1043.5248972388802
 30
0.0
 41
1.0
 10
2176.8659015723738
 20
-1043.4786429302424
 30
0.0
 41
0.9980927086837832
 10
2176.7758335457752
 20
-1043.4432177169642
 30
0.0
 41
1.0
 10
2176.7751732912084
 20
-1043.4429580281521
 30
0.0
 41
1.0
 10
2176.7745130366416
 20
-1043.4426983393398
 30
0.0
 41
1.0
 10
2176.6831245009062
 20
-1043.4067537484354
 30
0.0
 41
0.9981411356560438
 10
2176.5880417188091
 20
-1043.3821947861779
 30
0.0
 41
1.0
 10
2176.5867185437564
 20
-1043.3818530228696
 30
0.0
 41
1.0
 10
2176.5853953687038
 20
-1043.3815112595612
 30
0.0
 41
1.0
 10
2176.4876662365004
 20
-1043.3562687706863
 30
0.0
 41
0.9983031812934929
 10
2176.3876650930074
 20
-1043.342559728922
 30
0.0
 41
1.0
 10
2176.3743585549014
 20
-1043.3407355509148
 30
0.0
 41
1.0
 10
2176.3610520167954
 20
-1043.3389113729079
 30
0.0
 41
1.0
 10
2176.2795275530416
 20
-1043.3277352779219
 30
0.0
 41
0.9983887708265584
 10
2176.1972617791007
 20
-1043.3258682674714
 30
0.0
 41
1.0
 10
2176.1851666712732
 20
-1043.325593770659
 30
0.0
 41
1.0
 10
2176.1730715634458
 20
-1043.3253192738468
 30
0.0
 41
1.0
 10
2176.1149960051607
 20
-1043.3240012570216
 30
0.0
 41
0.9998869563078293
 10
2176.0569070753577
 20
-1043.3244300610611
 30
0.0
 41
1.0
 10
2175.9988181455274
 20
-1043.3248588651009
 30
0.0
 41
0.999997232005427
 10
2175.9407318766835
 20
-1043.3255610143949
 30
0.0
 41
1.0
 10
2175.9117023518406
 20
-1043.3259119245286
 30
0.0
 41
1.0
 10
2175.8826728269978
 20
-1043.3262628346624
 30
0.0
 41
1.0
 10
2175.7665275084437
 20
-1043.327666804224
 30
0.0
 41
0.9997304945086868
 10
2175.6505725490883
 20
-1043.334460444903
 30
0.0
 41
1.0
 10
2175.6369980865302
 20
-1043.3352557538879
 30
0.0
 41
1.0
 10
2175.6234236239725
 20
-1043.3360510628729
 30
0.0
 41
1.0
 10
2175.4803197395049
 20
-1043.344435321522
 30
0.0
 41
0.9997888306415655
 10
2175.3376812357319
 20
-1043.3586927682563
 30
0.0
 41
1.0
 10
2175.3245996433761
 20
-1043.3600003402041
 30
0.0
 41
1.0
 10
2175.3115180510208
 20
-1043.3613079121519
 30
0.0
 41
1.0
 10
2175.1427163625376
 20
-1043.378180502782
 30
0.0
 41
0.9984170238190843
 10
2174.9768776415099
 20
-1043.413904625686
 30
0.0
 41
1.0
 10
2174.9223059450314
 20
-1043.425660179395
 30
0.0
 41
1.0
 10
2174.8677342485526
 20
-1043.437415733104
 30
0.0
 41
1.0
 10
2174.6949476459204
 20
-1043.4746365328683
 30
0.0
 41
0.9976592854198885
 10
2174.5288553963128
 20
-1043.5350845485891
 30
0.0
 41
1.0
 10
2174.3627631467048
 20
-1043.5955325643099
 30
0.0
 41
0.9993255074352221
 10
2174.2015554485229
 20
-1043.6680079120467
 30
0.0
 41
1.0
 10
2174.1946176801357
 20
-1043.6711269763473
 30
0.0
 41
1.0
 10
2174.187679911749
 20
-1043.6742460406476
 30
0.0
 41
1.0
 10
2174.0125966767941
 20
-1043.7529595169851
 30
0.0
 41
0.9976475078275779
 10
2173.8499256603286
 20
-1043.8548815014724
 30
0.0
 41
1.0
 10
2173.8224120691266
 20
-1043.8721202196941
 30
0.0
 41
1.0
 10
2173.7948984779246
 20
-1043.8893589379159
 30
0.0
 41
1.0
 10
2173.6685951905961
 20
-1043.968494619068
 30
0.0
 41
0.9995131336406886
 10
2173.5474736181586
 20
-1044.0553539369989
 30
0.0
 41
1.0
 10
2173.4263520457143
 20
-1044.1422132549349
 30
0.0
 41
0.9995810107606062
 10
2173.3104595741174
 20
-1044.2359357786374
 30
0.0
 41
1.0
 10
2173.3060045273087
 20
-1044.2395385858295
 30
0.0
 41
1.0
 10
2173.3015494804995
 20
-1044.2431413930212
 30
0.0
 41
1.0
 10
2173.1767469152742
 20
-1044.3440695311153
 30
0.0
 41
0.9996617837954186
 10
2173.0573608845734
 20
-1044.4513502144534
 30
0.0
 41
1.0
 10
2173.0391647582519
 20
-1044.4677013139446
 30
0.0
 41
1.0
 10
2173.0209686319308
 20
-1044.4840524134358
 30
0.0
 41
1.0
 10
2172.918555340842
 20
-1044.5760813366387
 30
0.0
 41
0.9997267750051996
 10
2172.8205550784196
 20
-1044.6727961414235
 30
0.0
 41
1.0
 10
2172.7225548159877
 20
-1044.7695109462179
 30
0.0
 41
0.9999667288965737
 10
2172.6261454012742
 20
-1044.8678116565532
 30
0.0
 41
1.0
 10
2172.5229042296114
 20
-1044.9730781446906
 30
0.0
 41
1.0
 10
2172.419663057949
 20
-1045.0783446328278
 30
0.0
 41
1.0
 10
2172.1167712999045
 20
-1045.3871783194436
 30
0.0
 41
0.9988205335175191
 10
2171.8452628744353
 20
-1045.7239346675342
 30
0.0
 41
1.0
 10
2171.7993029270779
 20
-1045.7809395431796
 30
0.0
 41
1.0
 10
2171.7533429797204
 20
-1045.8379444188247
 30
0.0
 41
1.0
 10
2171.3899146595395
 20
-1046.2887105182022
 30
0.0
 41
0.9997077826756174
 10
2171.0486977328846
 20
-1046.7565152095228
 30
0.0
 41
1.0
 10
2171.0461126101864
 20
-1046.7600593845957
 30
0.0
 41
1.0
 10
2171.0435274874881
 20
-1046.7636035596686
 30
0.0
 41
1.0
 10
2170.6971403154366
 20
-1047.2384966011346
 30
0.0
 41
0.9989147567078711
 10
2170.3964450611097
 20
-1047.7435607929153
 30
0.0
 41
1.0
 10
2170.3593333431545
 20
-1047.805895663736
 30
0.0
 41
1.0
 10
2170.3222216251988
 20
-1047.8682305345565
 30
0.0
 41
1.0
 10
2170.0894046772378
 20
-1048.2592826112434
 30
0.0
 41
0.9997476598181631
 10
2169.8743871959723
 20
-1048.6603972341193
 30
0.0
 41
1.0
 10
2169.6593697147046
 20
-1049.0615118569983
 30
0.0
 41
0.9996258967109348
 10
2169.4666073368048
 20
-1049.4737837619407
 30
0.0
 41
1.0
 10
2169.446807472631
 20
-1049.5161308620823
 30
0.0
 41
1.0
 10
2169.4270076084576
 20
-1049.5584779622236
 30
0.0
 41
1.0
 10
2169.2166945269601
 20
-1050.0082865591485
 30
0.0
 41
0.9998735413945563
 10
2169.0207925068808
 20
-1050.4645559583473
 30
0.0
 41
1.0
 10
2169.0156282647831
 20
-1050.4765838365602
 30
0.0
 41
1.0
 10
2169.0104640226855
 20
-1050.4886117147732
 30
0.0
 41
1.0
 10
2168.8248904867924
 20
-1050.9208253575669
 30
0.0
 41
0.9999377418860899
 10
2168.649008283538
 20
-1051.3570725590616
 30
0.0
 41
1.0
 10
2168.4731260802751
 20
-1051.7933197605762
 30
0.0
 41
0.9999508299505798
 10
2168.3059301652106
 20
-1052.2329692758035
 30
0.0
 41
1.0
 10
2168.3013090122158
 20
-1052.2451208147513
 30
0.0
 41
1.0
 10
2168.2966878592215
 20
-1052.2572723536991
 30
0.0
 41
1.0
 10
2168.1202496381648
 20
-1052.7212249468321
 30
0.0
 41
0.9999609228428977
 10
2167.9520417338463
 20
-1053.1882244708756
 30
0.0
 41
1.0
 10
2167.9476077183272
 20
-1053.200534731475
 30
0.0
 41
1.0
 10
2167.9431737028081
 20
-1053.2128449920745
 30
0.0
 41
1.0
 10
2167.7660977674445
 20
-1053.7044650373368
 30
0.0
 41
0.999967460740226
 10
2167.5969764783367
 20
-1054.1988779673459
 30
0.0
 41
1.0
 10
2167.5198788924963
 20
-1054.4242667608733
 30
0.0
 41
1.0
 10
2167.4427813066563
 20
-1054.6496555544004
 30
0.0
 41
1.0
 10
2167.2687653965204
 20
-1055.1583775281524
 30
0.0
 41
0.9999287532309521
 10
2167.1069432905656
 20
-1055.6711086366126
 30
0.0
 41
1.0
 10
2167.0372274064271
 20
-1055.8920024529466
 30
0.0
 41
1.0
 10
2166.9675115222885
 20
-1056.1128962692808
 30
0.0
 41
1.0
 10
2166.9451211846854
 20
-1056.1838397448355
 30
0.0
 41
0.9999998222878088
 10
2166.9228154215139
 20
-1056.2548098574375
 30
0.0
 41
1.0
 10
2164.4918312163209
 20
-1063.9768526101218
 30
0.0
 41
1.0
 10
2162.0608470111274
 20
-1071.6988953628061
 30
0.0
 41
1.0
 10
2160.7028843452908
 20
-1071.6988953628061
 30
0.0
 41
1.0
 10
2159.3449216794547
 20
-1071.6988953628061
 30
0.0
 41
1.0
 10
2162.1230482965339
 20
-1062.8682874791048
 30
0.0
 41
1.0
 10
2164.901174913613
 20
-1054.0376795954035
 30
0.0
 41
1.0
 10
2164.916357551067
 20
-1053.9896147752288
 30
0.0
 41
1.0
 10
2165.0252690543416
 20
-1053.64416546249
 30
0.0
 41
1.0
 10
2165.1341805576239
 20
-1053.2987161497274
 30
0.0
 41
0.9999825681986856
 10
2165.2390051164443
 20
-1052.952004807117
 30
0.0
 41
1.0
 10
2165.3114417096817
 20
-1052.7124179318855
 30
0.0
 41
1.0
 10
2165.3838783029191
 20
-1052.4728310566541
 30
0.0
 41
1.0
 10
2165.5296068328917
 20
-1051.9908282240012
 30
0.0
 41
0.9999672528971446
 10
2165.6675150413248
 20
-1051.5065299056289
 30
0.0
 41
1.0
 10
2165.6716983668325
 20
-1051.4918391375331
 30
0.0
 41
1.0
 10
2165.6758816923402
 20
-1051.4771483694376
 30
0.0
 41
1.0
 10
2165.8054232497639
 20
-1051.0222315872352
 30
0.0
 41
0.9999899749162399
 10
2165.9308856640619
 20
-1050.5661729545709
 30
0.0
 41
1.0
 10
2165.9460445425839
 20
-1050.5110700980681
 30
0.0
 41
1.0
 10
2165.9612034211063
 20
-1050.4559672415653
 30
0.0
 41
1.0
 10
2166.0563480783585
 20
-1050.1101143219107
 30
0.0
 41
0.9999214200507232
 10
2166.1427922209305
 20
-1049.7619848085783
 30
0.0
 41
1.0
 10
2166.1619409992059
 20
-1049.6848684804654
 30
0.0
 41
1.0
 10
2166.1810897774812
 20
-1049.6077521523528
 30
0.0
 41
1.0
 10
2166.229236363502
 20
-1049.413855295244
 30
0.0
 41
0.9999828681655428
 10
2166.2751097414903
 20
-1049.2194080835629
 30
0.0
 41
1.0
 10
2166.3209831194868
 20
-1049.0249608718477
 30
0.0
 41
0.9999389844477271
 10
2166.3625496026734
 20
-1048.829547687983
 30
0.0
 41
1.0
 10
2166.3732562182504
 20
-1048.7792135322411
 30
0.0
 41
1.0
 10
2166.3839628338278
 20
-1048.7288793764994
 30
0.0
 41
1.0
 10
2166.446942548172
 20
-1048.432797881138
 30
0.0
 41
0.9998933699440951
 10
2166.5012489447754
 20
-1048.1350034695008
 30
0.0
 41
1.0
 10
2166.5033081826
 20
-1048.1237114384553
 30
0.0
 41
1.0
 10
2166.5053674204246
 20
-1048.1124194074096
 30
0.0
 41
1.0
 10
2166.5637922926771
 20
-1047.7920409336821
 30
0.0
 41
0.9996850305194027
 10
2166.6060678070648
 20
-1047.469134425527
 30
0.0
 41
1.0
 10
2166.6090603571188
 20
-1047.4462768943454
 30
0.0
 41
1.0
 10
2166.6120529071727
 20
-1047.4234193631637
 30
0.0
 41
1.0
 10
2166.6531647008615
 20
-1047.1094015224298
 30
0.0
 41
0.9994697936706692
 10
2166.6737515396908
 20
-1046.7933737294329
 30
0.0
 41
1.0
 10
2166.6744671435654
 20
-1046.7823885211162
 30
0.0
 41
1.0
 10
2166.67518274744
 20
-1046.7714033127995
 30
0.0
 41
1.0
 10
2166.6943383785206
 20
-1046.4773459364369
 30
0.0
 41
0.9991804893136548
 10
2166.6896459041113
 20
-1046.1827026614767
 30
0.0
 41
1.0
 10
2166.689520085878
 20
-1046.1748024593626
 30
0.0
 41
1.0
 10
2166.6893942676452
 20
-1046.1669022572482
 30
0.0
 41
1.0
 10
2166.6849534297021
 20
-1045.8880593865215
 30
0.0
 41
0.9988448329321938
 10
2166.6537661112661
 20
-1045.6109305017665
 30
0.0
 41
1.0
 10
2166.6513750007116
 20
-1045.5896832181097
 30
0.0
 41
1.0
 10
2166.6489838901571
 20
-1045.5684359344527
 30
0.0
 41
1.0
 10
2166.6225787928306
 20
-1045.3338016170164
 30
0.0
 41
0.9985503209458464
 10
2166.5711043843812
 20
-1045.1033653408826
 30
0.0
 41
1.0
 10
2166.5597253962742
 20
-1045.0524248497807
 30
0.0
 41
1.0
 10
2166.5483464081667
 20
-1045.0014843586787
 30
0.0
 41
1.0
 10
2166.5196299759314
 20
-1044.8729290647464
 30
0.0
 41
0.9991036781369769
 10
2166.4801426834551
 20
-1044.7472634337612
 30
0.0
 41
1.0
 10
2166.4741693452734
 20
-1044.7282536900016
 30
0.0
 41
1.0
 10
2166.4681960070911
 20
-1044.7092439462417
 30
0.0
 41
1.0
 10
2166.4406553909803
 20
-1044.6215978027794
 30
0.0
 41
0.9998874504369102
 10
2166.4104975794608
 20
-1044.5348173994389
 30
0.0
 41
1.0
 10
2166.3803397679426
 20
-1044.448036996102
 30
0.0
 41
0.9994041637543601
 10
2166.34426684854
 20
-1044.3635439402651
 30
0.0
 41
1.0
 10
2166.3379716722038
 20
-1044.3487988435418
 30
0.0
 41
1.0
 10
2166.3316764958677
 20
-1044.3340537468182
 30
0.0
 41
1.0
 10
2166.2898582493772
 20
-1044.2361034978703
 30
0.0
 41
0.9991846840701159
 10
2166.2402737143384
 20
-1044.1418464509522
 30
0.0
 41
1.0
 10
2166.2385688047457
 20
-1044.1386055262697
 30
0.0
 41
1.0
 10
2166.236863895153
 20
-1044.1353646015873
 30
0.0
 41
1.0
 10
2166.1906891792983
 20
-1044.0475894040312
 30
0.0
 41
0.9989253167922932
 10
2166.1365850432162
 20
-1043.9644670114467
 30
0.0
 41
1.0
 10
2166.1350038562045
 20
-1043.9620377693027
 30
0.0
 41
1.0
 10
2166.1334226691929
 20
-1043.9596085271585
 30
0.0
 41
1.0
 10
2166.0824809071341
 20
-1043.8813446188619
 30
0.0
 41
0.9986467172836935
 10
2166.0236851781774
 20
-1043.8087955684168
 30
0.0
 41
1.0
 10
2166.0223739851267
 20
-1043.8071776649999
 30
0.0
 41
1.0
 10
2166.021062792076
 20
-1043.8055597615828
 30
0.0
 41
1.0
 10
2165.9648894492216
 20
-1043.7362465179729
 30
0.0
 41
0.998400110426849
 10
2165.9012493534456
 20
-1043.6737188569193
 30
0.0
 41
1.0
 10
2165.9003686462815
 20
-1043.6728535445973
 30
0.0
 41
1.0
 10
2165.8994879391175
 20
-1043.6719882322755
 30
0.0
 41
1.0
 10
2165.83760925767
 20
-1043.611191195866
 30
0.0
 41
0.998244215908314
 10
2165.7689751056669
 20
-1043.5581383539757
 30
0.0
 41
1.0
 10
2165.7686529124749
 20
-1043.557889305011
 30
0.0
 41
1.0
 10
2165.7683307192824
 20
-1043.5576402560466
 30
0.0
 41
1.0
 10
2165.7003409536624
 20
-1043.5050855120849
 30
0.0
 41
0.9982450060836202
 10
2165.6266144850556
 20
-1043.4609378375353
 30
0.0
 41
1.0
 10
2165.552888016447
 20
-1043.4167901629842
 30
0.0
 41
0.9983922639634115
 10
2165.4746385571984
 20
-1043.3812707110028
 30
0.0
 41
1.0
 10
2165.4742982412126
 20
-1043.3811162327811
 30
0.0
 41
1.0
 10
2165.4739579252273
 20
-1043.3809617545594
 30
0.0
 41
1.0
 10
2165.3950278340067
 20
-1043.3451333461339
 30
0.0
 41
0.9986517147149848
 10
2165.3128083747047
 20
-1043.3176816674513
 30
0.0
 41
1.0
 10
2165.3117914925633
 20
-1043.3173421478041
 30
0.0
 41
1.0
 10
2165.3107746104215
 20
-1043.3170026281571
 30
0.0
 41
1.0
 10
2165.2265213868363
 20
-1043.2888719101807
 30
0.0
 41
0.9989435598957968
 10
2165.1400413061092
 20
-1043.2685953568287
 30
0.0
 41
1.0
 10
2165.1384211267364
 20
-1043.268215481449
 30
0.0
 41
1.0
 10
2165.1368009473636
 20
-1043.2678356060694
 30
0.0
 41
1.0
 10
2165.0470805078903
 20
-1043.2467993019586
 30
0.0
 41
0.9992249241241826
 10
2164.9559832445425
 20
-1043.2328862878851
 30
0.0
 41
1.0
 10
2164.9538627121074
 20
-1043.2325624252735
 30
0.0
 41
1.0
 10
2164.9517421796722
 20
-1043.2322385626621
 30
0.0
 41
1.0
 10
2164.8564038514533
 20
-1043.2176778233656
 30
0.0
 41
0.9994396597833017
 10
2164.7603049466475
 20
-1043.2095284398474
 30
0.0
 41
1.0
 10
2164.7315939454311
 20
-1043.2070936882694
 30
0.0
 41
1.0
 10
2164.7028829442143
 20
-1043.2046589366914
 30
0.0
 41
1.0
 10
2164.5493620369775
 20
-1043.191640050017
 30
0.0
 41
0.9987693403121548
 10
2164.3953066015947
 20
-1043.1938946451958
 30
0.0
 41
1.0
 10
2164.3799251002529
 20
-1043.1941197528572
 30
0.0
 41
1.0
 10
2164.3645435989106
 20
-1043.1943448605184
 30
0.0
 41
1.0
 10
2164.200209949644
 20
-1043.1967498769495
 30
0.0
 41
0.9989753644966108
 10
2164.03676694962
 20
-1043.2140043873374
 30
0.0
 41
1.0
 10
2163.873323949595
 20
-1043.2312588977252
 30
0.0
 41
0.9983190067306184
 10
2163.7129757331481
 20
-1043.2673113854053
 30
0.0
 41
1.0
 10
2163.6996243057383
 20
-1043.2703133032492
 30
0.0
 41
1.0
 10
2163.6862728783281
 20
-1043.2733152210933
 30
0.0
 41
1.0
 10
2163.4992218070606
 20
-1043.3153715444614
 30
0.0
 41
0.9985539388303606
 10
2163.3177671765443
 20
-1043.3772670585292
 30
0.0
 41
1.0
 10
2163.3142490301034
 20
-1043.3784671242533
 30
0.0
 41
1.0
 10
2163.3107308836625
 20
-1043.3796671899772
 30
0.0
 41
1.0
 10
2163.1222399602648
 20
-1043.443962835493
 30
0.0
 41
0.9988468746493286
 10
2162.9407844468105
 20
-1043.5260399630886
 30
0.0
 41
1.0
 10
2162.9360102138294
 20
-1043.5281994749275
 30
0.0
 41
1.0
 10
2162.9312359808482
 20
-1043.5303589867667
 30
0.0
 41
1.0
 10
2162.7402320014326
 20
-1043.6167551380393
 30
0.0
 41
0.9991322885918568
 10
2162.5570811253474
 20
-1043.7187481363121
 30
0.0
 41
1.0
 10
2162.5306781087784
 20
-1043.7334514392985
 30
0.0
 41
1.0
 10
2162.5042750922098
 20
-1043.7481547422849
 30
0.0
 41
1.0
 10
2162.3510100706239
 20
-1043.8335049159559
 30
0.0
 41
0.9993860037848955
 10
2162.2040985645185
 20
-1043.9293789393362
 30
0.0
 41
1.0
 10
2162.1956710952513
 20
-1043.9348786813712
 30
0.0
 41
1.0
 10
2162.1872436259841
 20
-1043.9403784234062
 30
0.0
 41
1.0
 10
2162.0571870584249
 20
-1044.025252962708
 30
0.0
 41
0.9998821494956661
 10
2161.929797494689
 20
-1044.1140803078342
 30
0.0
 41
1.0
 10
2161.8024079309694
 20
-1044.2029076529495
 30
0.0
 41
0.999797648274471
 10
2161.6786944853561
 20
-1044.2967872650181
 30
0.0
 41
1.0
 10
2161.6567400881531
 20
-1044.3134472996849
 30
0.0
 41
1.0
 10
2161.6347856909497
 20
-1044.3301073343514
 30
0.0
 41
1.0
 10
2161.4671634509268
 20
-1044.4573070157555
 30
0.0
 41
0.9998091630799364
 10
2161.3046380338833
 20
-1044.5909575418095
 30
0.0
 41
1.0
 10
2161.2851294051698
 20
-1044.6070001924766
 30
0.0
 41
1.0
 10
2161.2656207764562
 20
-1044.6230428431436
 30
0.0
 41
1.0
 10
2161.0640781019865
 20
-1044.7887786705307
 30
0.0
 41
0.9995035112317297
 10
2160.8733742853447
 20
-1044.9668793960495
 30
0.0
 41
1.0
 10
2160.8589033197568
 20
-1044.9803940152929
 30
0.0
 41
1.0
 10
2160.8444323541689
 20
-1044.9939086345364
 30
0.0
 41
1.0
 10
2160.6592977600226
 20
-1045.1668081921687
 30
0.0
 41
0.9994630424299031
 10
2160.4858851513518
 20
-1045.3514623070164
 30
0.0
 41
1.0
 10
2160.4803608931943
 20
-1045.3573446762866
 30
0.0
 41
1.0
 10
2160.4748366350364
 20
-1045.3632270455569
 30
0.0
 41
1.0
 10
2160.3124725426756
 20
-1045.5361164218691
 30
0.0
 41
0.9995160693749919
 10
2160.161173498378
 20
-1045.718767548678
 30
0.0
 41
1.0
 10
2160.1582729182583
 20
-1045.7222691849888
 30
0.0
 41
1.0
 10
2160.155372338138
 20
-1045.7257708212996
 30
0.0
 41
1.0
 10
2160.0098744540805
 20
-1045.9014186754869
 30
0.0
 41
0.9996561470514502
 10
2159.8737851260812
 20
-1046.0844528191606
 30
0.0
 41
1.0
 10
2159.8645486272253
 20
-1046.0968755027284
 30
0.0
 41
1.0
 10
2159.855312128369
 20
-1046.1092981862962
 30
0.0
 41
1.0
 10
2159.7376957980809
 20
-1046.2674869628365
 30
0.0
 41
0.999834905517317
 10
2159.6259048751845
 20
-1046.4298448383295
 30
0.0
 41
1.0
 10
2159.5141139522902
 20
-1046.5922027138179
 30
0.0
 41
0.9999728109566499
 10
2159.4047296084223
 20
-1046.756191602155
 30
0.0
 41
1.0
 10
2159.4027567853036
 20
-1046.75914925641
 30
0.0
 41
1.0
 10
2159.4007839621854
 20
-1046.7621069106649
 30
0.0
 41
1.0
 10
2159.2874539720697
 20
-1046.932011107529
 30
0.0
 41
0.9999972147423341
 10
2159.1749272565216
 20
-1047.1024483717622
 30
0.0
 41
1.0
 10
2159.1674699425894
 20
-1047.1137435044693
 30
0.0
 41
1.0
 10
2159.1600126286567
 20
-1047.1250386371762
 30
0.0
 41
1.0
 10
2159.03257128522
 20
-1047.3180661668594
 30
0.0
 41
0.9999371979006081
 10
2158.909488261108
 20
-1047.5139015375353
 30
0.0
 41
1.0
 10
2158.9042249345721
 20
-1047.5222759296221
 30
0.0
 41
1.0
 10
2158.8989616080362
 20
-1047.5306503217091
 30
0.0
 41
1.0
 10
2158.765351930846
 20
-1047.743234476568
 30
0.0
 41
0.9998272025608777
 10
2158.6397368445246
 20
-1047.9606382916779
 30
0.0
 41
1.0
 10
2158.6169140864863
 20
-1048.0001379633668
 30
0.0
 41
1.0
 10
2158.594091328448
 20
-1048.0396376350554
 30
0.0
 41
1.0
 10
2158.4228307260528
 20
-1048.3360407935397
 30
0.0
 41
0.9995217214838311
 10
2158.2702211917208
 20
-1048.6424642853297
 30
0.0
 41
1.0
 10
2158.2587558477735
 20
-1048.6654854598739
 30
0.0
 41
1.0
 10
2158.2472905038258
 20
-1048.6885066344182
 30
0.0
 41
1.0
 10
2158.1169325649371
 20
-1048.9502513215486
 30
0.0
 41
0.9998269762607016
 10
2157.9964008655215
 20
-1049.2166637516484
 30
0.0
 41
1.0
 10
2157.8758691661146
 20
-1049.4830761817309
 30
0.0
 41
0.9998944747387539
 10
2157.7631279742664
 20
-1049.7528777701784
 30
0.0
 41
1.0
 10
2157.7556974698837
 20
-1049.7706597525444
 30
0.0
 41
1.0
 10
2157.748266965501
 20
-1049.7884417349105
 30
0.0
 41
1.0
 10
2157.6272963746683
 20
-1050.0779371449478
 30
0.0
 41
0.999950673441326
 10
2157.5121000813078
 20
-1050.369778352243
 30
0.0
 41
1.0
 10
2157.4902001334085
 20
-1050.4252602349343
 30
0.0
 41
1.0
 10
2157.4683001855092
 20
-1050.4807421176254
 30
0.0
 41
1.0
 10
2157.3969037879556
 20
-1050.6616195595195
 30
0.0
 41
0.9999912393910124
 10
2157.3270241219188
 20
-1050.8430883635708
 30
0.0
 41
1.0
 10
2157.2571444558953
 20
-1051.0245571675878
 30
0.0
 41
0.999992711393106
 10
2157.1886525143077
 20
-1051.2065542788305
 30
0.0
 41
1.0
 10
2157.1676998672037
 20
-1051.2622297518474
 30
0.0
 41
1.0
 10
2157.1467472201002
 20
-1051.3179052248643
 30
0.0
 41
1.0
 10
2157.0363499843106
 20
-1051.611253282128
 30
0.0
 41
0.9999487550948834
 10
2156.9319145468494
 20
-1051.906776329914
 30
0.0
 41
1.0
 10
2156.8965241319484
 20
-1052.0069212953413
 30
0.0
 41
1.0
 10
2156.8611337170473
 20
-1052.1070662607688
 30
0.0
 41
1.0
 10
2156.7191052654925
 20
-1052.5089670130028
 30
0.0
 41
0.9999808436928254
 10
2156.58206288253
 20
-1052.9125951599001
 30
0.0
 41
1.0
 10
2156.4450204995751
 20
-1053.3162233067751
 30
0.0
 41
0.9999873932898862
 10
2156.3120384365016
 20
-1053.7212073392848
 30
0.0
 41
1.0
 10
2156.2818999011924
 20
-1053.81299133843
 30
0.0
 41
1.0
 10
2156.2517613658829
 20
-1053.9047753375755
 30
0.0
 41
1.0
 10
2156.058502232202
 20
-1054.4933273683419
 30
0.0
 41
0.9999794883023236
 10
2155.8727980547619
 20
-1055.0843066777666
 30
0.0
 41
1.0
 10
2155.8560696656341
 20
-1055.1375425930323
 30
0.0
 41
1.0
 10
2155.8393412765058
 20
-1055.1907785082981
 30
0.0
 41
1.0
 10
2155.6255040306391
 20
-1055.8712876364923
 30
0.0
 41
0.9999982761787232
 10
2155.4141953705789
 20
-1056.5525861697961
 30
0.0
 41
1.0
 10
2153.0319848717199
 20
-1064.1257407663011
 30
0.0
 41
1.0
 10
2150.649774372861
 20
-1071.6988953628061
 30
0.0
 41
1.0
 10
2149.2266484556467
 20
-1071.6988953628061
 30
0.0
 41
1.0
 10
2147.8035225384319
 20
-1071.6988953628061
 30
0.0
 41
1.0
 10
2152.6609492676616
 20
-1056.2079120628869
 30
0.0
 41
1.0
 10
2157.5183759968913
 20
-1040.7169287629677
 30
0.0
 41
1.0
  0
LWPOLYLINE
  5
72
100
AcDbEntity
  8
0
370
              15
390
0
  6
Continuous
 62
               7
100
AcDbPolyline
 90
      232
 70
             128
 10
2118.963057336151
 20
-1042.3434430102402
 42
0.0004370800692752
 10
2118.8837415751063
 20
-1042.4464429690418
 10
2118.8248152283513
 20
-1042.5231036384696
 42
0.0030481992176194
 10
2118.6293071526802
 20
-1042.7806861769759
 10
2118.5715396450469
 20
-1042.857766352668
 42
0.0042058245759578
 10
2118.2655620690316
 20
-1043.2732749702936
 10
2118.1869543852913
 20
-1043.3819242404497
 42
0.0120948898741137
 10
2117.7428885101567
 20
-1044.0280486472625
 10
2117.5985997614671
 20
-1044.24926975011
 42
0.0141601263948146
 10
2117.1431336910837
 20
-1044.9927737552136
 10
2117.0838277899356
 20
-1045.0960397063773
 42
0.007113108130253
 10
2116.775919305087
 20
-1045.6502939046186
 42
0.0068458791008334
 10
2116.4836000148157
 20
-1046.212931249846
 10
2116.4733822211356
 20
-1046.2332738204182
 42
0.0064120880285392
 10
2116.1761688460851
 20
-1046.8444105327624
 10
2116.1648668177936
 20
-1046.8684283178784
 42
0.0058857236447576
 10
2115.8607337299823
 20
-1047.5349924844395
 10
2115.8484713405451
 20
-1047.5627277148817
 42
0.0053189741892425
 10
2115.5354148715483
 20
-1048.291672925747
 10
2115.5222931630215
 20
-1048.3231457430527
 42
0.0047503650414402
 10
2115.198332573792
 20
-1049.1214448928754
 10
2115.1844302012732
 20
-1049.156659457029
 42
0.0042071762173914
 10
2114.8476091256666
 20
-1050.0312998481747
 10
2114.8329850221589
 20
-1050.0702491104382
 42
0.0036680086484258
 10
2114.4813030571972
 20
-1051.0282021872176
 10
2114.4659913874193
 20
-1051.0708749887519
 42
0.0032573142624718
 10
2114.097542958481
 20
-1052.1191539783472
 10
2113.9945671771952
 20
-1052.4183486044988
 42
0.0026133366649802
 10
2113.4718993790711
 20
-1053.9631435299693
 10
2113.3770141978057
 20
-1054.2484897831016
 42
0.0020592950743103
 10
2113.0562195943694
 20
-1055.2266452619783
 10
2113.0516419076339
 20
-1055.2407999945654
 42
0.002560992853325
 10
2112.7489111553959
 20
-1056.1935178281419
 10
2112.7450241046959
 20
-1056.2059713395845
 42
0.0031362356243062
 10
2112.4607879261903
 20
-1057.137115623822
 10
2112.4575913618005
 20
-1057.1478275831341
 42
0.0037229918025109
 10
2112.1923907814098
 20
-1058.0613055361
 10
2112.1898728975953
 20
-1058.0702258713784
 42
0.00430776237039
 10
2111.9442616945025
 20
-1058.969953969015
 42
0.0047654161822816
 10
2111.715018610736
 20
-1059.8739831023386
 10
2111.6633216974701
 20
-1060.086325768093
 42
0.011296936844436
 10
2111.3695251602571
 20
-1061.4238640090166
 10
2111.3275155766096
 20
-1061.6381060781762
 42
0.0130056762569289
 10
2111.0262597111396
 20
-1063.4185176856436
 10
2110.9954500859189
 20
-1063.6346348558579
 42
0.0138721532143769
 10
2110.8398955791122
 20
-1064.9948790845976
 10
2110.8109523472494
 20
-1065.3301256674963
 42
0.0071254697008563
 10
2110.7609323783663
 20
-1066.0249061807563
 10
2110.7534909171186
 20
-1066.1539121726519
 42
0.002888179920363
 10
2110.7307834771868
 20
-1066.59152473736
 42
0.0060297297141384
 10
2110.7158851775234
 20
-1067.0294481415501
 10
2110.7142917550232
 20
-1067.1020366994296
 42
0.0229523164156715
 10
2110.7258882967017
 20
-1067.5861689688572
 10
2110.7322269569831
 20
-1067.6767742698985
 42
0.0123673300680373
 10
2110.7608449267595
 20
-1067.9784553576437
 42
0.0128577674470538
 10
2110.8046380123692
 20
-1068.2783021325356
 10
2110.8153268224496
 20
-1068.3402953544296
 42
0.0285717853762279
 10
2110.9120678249919
 20
-1068.7574695813964
 10
2110.9325706104923
 20
-1068.8274517356153
 42
0.0316283099157625
 10
2111.1062864803644
 20
-1069.3059734883541
 10
2111.1108595179971
 20
-1069.3164530468414
 42
0.0338984824234779
 10
2111.3350070844481
 20
-1069.7478019931261
 10
2111.3384701785026
 20
-1069.7534885370392
 42
0.0350228718357534
 10
2111.6120106145131
 20
-1070.1390665140552
 10
2111.6133384921754
 20
-1070.1406851307008
 42
0.034747674752857
 10
2111.934975523036
 20
-1070.4814627015317
 42
0.0331337701910347
 10
2112.2998405116564
 20
-1070.7756556946481
 10
2112.3014906594299
 20
-1070.7768147494064
 42
0.0305233319076158
 10
2112.7043077027893
 20
-1071.024507004543
 10
2112.7091527695416
 20
-1071.0270930223373
 42
0.0273744481153376
 10
2113.1479833369017
 20
-1071.2313002381725
 10
2113.1556401396092
 20
-1071.2343656148776
 42
0.0240964406192862
 10
2113.6288557530775
 20
-1071.3978412042993
 10
2113.6387307468931
 20
-1071.4007283138121
 42
0.0209636179817514
 10
2114.1448309758703
 20
-1071.5259305357099
 10
2114.1562796665448
 20
-1071.5282584052125
 42
0.018138870468812
 10
2114.6937632545469
 20
-1071.6173825450339
 10
2114.7061845271101
 20
-1071.618981820759
 42
0.0156086547589663
 10
2115.2734655733939
 20
-1071.674086100624
 10
2115.3382584518836
 20
-1071.6783438543423
 42
0.0137148329029288
 10
2115.8297681698318
 20
-1071.6971242372194
 10
2115.8986724547358
 20
-1071.6978658868923
 42
0.0051057823870056
 10
2116.2528908346094
 20
-1071.6980612685061
 42
0.0052256693316094
 10
2116.607036760282
 20
-1071.6909380318098
 10
2116.7123769359014
 20
-1071.6877175827885
 42
0.0161507179054048
 10
2117.2759825530588
 20
-1071.6522420272981
 10
2117.3060019936129
 20
-1071.6493767343673
 42
0.0101216737831896
 10
2117.9270428258487
 20
-1071.5773873388191
 10
2117.9781227599888
 20
-1071.5704157936048
 42
0.0245291776401328
 10
2118.6933072433153
 20
-1071.4368031764905
 10
2118.8205422166034
 20
-1071.4065092959713
 42
0.0143509212556762
 10
2119.3554888725112
 20
-1071.2628023453035
 42
0.0156557857035459
 10
2119.880812969604
 20
-1071.0872855215744
 10
2119.8920647913437
 20
-1071.0831302789438
 42
0.0170137333629843
 10
2120.426958784868
 20
-1070.8646438566363
 10
2120.4376146684772
 20
-1070.8598621032918
 42
0.018310536440721
 10
2120.9766391707249
 20
-1070.593859540556
 10
2120.9870593176847
 20
-1070.588233888247
 42
0.0194899958150701
 10
2121.524780429158
 20
-1070.2702654154125
 10
2121.5353012481655
 20
-1070.2634774019684
 42
0.0204869852952114
 10
2122.0663227013065
 20
-1069.8891973793397
 10
2122.0772211141871
 20
-1069.8808272813171
 42
0.0212516938556806
 10
2122.5962060108454
 20
-1069.445971285978
 10
2122.6659810519677
 20
-1069.3822703208295
 42
0.0215248918259771
 10
2123.0560203052942
 20
-1068.9941239023428
 10
2123.1235649068735
 20
-1068.9208577203092
 42
0.01145785549711
 10
2123.3557531373808
 20
-1068.6571233201307
 10
2123.372544941361
 20
-1068.6371451748123
 42
0.0061531305132847
 10
2123.5622569103525
 20
-1068.4057108748541
 42
0.0006325587119971
 10
2123.7488246365301
 20
-1068.1717058114036
 10
2123.7833848391574
 20
-1068.1282455303515
 42
0.0041897761556459
 10
2124.0360679451223
 20
-1067.8049664662512
 10
2124.1237611249549
 20
-1067.6908144457809
 42
0.0092993880038947
 10
2124.53867901579
 20
-1067.1293962999559
 10
2124.662270755593
 20
-1066.9554907945965
 42
0.0159321727085223
 10
2125.1821804795527
 20
-1066.1722294634678
 10
2125.2487146826302
 20
-1066.0647101171023
 42
0.0085547317020068
 10
2125.6004823306248
 20
-1065.4738976932558
 42
0.0084601156890206
 10
2125.9319465968006
 20
-1064.871457419684
 10
2125.9441198075333
 20
-1064.8484178962981
 42
0.0081429654283671
 10
2126.2789937131861
 20
-1064.1888356274942
 10
2126.2922839594657
 20
-1064.1615673644578
 42
0.0076574581334333
 10
2126.6318952253268
 20
-1063.4367930515534
 10
2126.6461146864012
 20
-1063.4051963341237
 42
0.007068272420276
 10
2126.9917820481201
 20
-1062.6071403769313
 10
2127.006767474084
 20
-1062.5711565934346
 42
0.0064559514446985
 10
2127.3597672863493
 20
-1061.6916881936745
 10
2127.375381323604
 20
-1061.651285805493
 42
0.0058311413905065
 10
2127.7369514287493
 20
-1060.6822376639141
 10
2127.7530840448294
 20
-1060.6374111521764
 42
0.0052312425821206
 10
2128.1244559618895
 20
-1059.5706075314279
 10
2128.1410217164603
 20
-1059.5213674633201
 42
0.0046680544798343
 10
2128.5234143580683
 20
-1058.3486279896676
 10
2128.5864025831138
 20
-1058.1491531337929
 42
0.0041666856443375
 10
2128.8913316017197
 20
-1057.1546999712414
 10
2128.9478252627277
 20
-1056.964828309719
 42
0.0015170975153021
 10
2129.1296051303352
 20
-1056.3470257825204
 42
-0.000488799311646
 10
2129.3101147899511
 20
-1055.7288481646922
 10
2129.4248306762624
 20
-1055.3374120855458
 42
0.0002583378926239
 10
2129.8346525311904
 20
-1053.9363270313547
 10
2129.9573118056815
 20
-1053.5161781415484
 42
0.0006636169671629
 10
2130.2481134457407
 20
-1052.515148756022
 10
2130.2557584272417
 20
-1052.4887013817693
 42
0.0010589131321952
 10
2130.5279314786362
 20
-1051.5396043671287
 10
2130.5354045843619
 20
-1051.513335006581
 42
0.0015655524463079
 10
2130.7878098951314
 20
-1050.6154099877972
 10
2130.7950551957524
 20
-1050.5893217493995
 42
0.0021640440473214
 10
2131.026490153733
 20
-1049.7417812223662
 10
2131.0334414828826
 20
-1049.7158841273581
 42
0.002876387185316
 10
2131.2427150599569
 20
-1048.917932201105
 10
2131.2492938562041
 20
-1048.8922462338876
 42
0.0037310511942534
 10
2131.4352288939631
 20
-1048.1430748428374
 10
2131.4413417243918
 20
-1048.1176344359901
 42
0.0047652197768988
 10
2131.6027775751595
 20
-1047.4164177835116
 10
2131.6083134741466
 20
-1047.3912784507772
 42
0.0060276699302103
 10
2131.744108622875
 20
-1046.7371647580703
 10
2131.7489366583113
 20
-1046.7124129365925
 42
0.0075824337762565
 10
2131.8579706224318
 20
-1046.1045121899674
 10
2131.8619386885021
 20
-1046.0802797687938
 42
0.0095130624604502
 10
2131.9431115419488
 20
-1045.5176457391838
 10
2131.9535908777721
 20
-1045.4337454020133
 42
0.0121054653224505
 10
2131.9934778736397
 20
-1045.0364016592982
 10
2131.994777608279
 20
-1045.0192964949051
 42
0.0069050827386298
 10
2132.0174108353358
 20
-1044.6548846546384
 10
2132.0191137848387
 20
-1044.6195952690646
 42
0.0169063976709552
 10
2132.023354703309
 20
-1044.3253061781202
 10
2132.0215987260117
 20
-1044.2348025360889
 42
0.0052007732902267
 10
2132.0182185531226
 20
-1044.1214124508681
 42
0.0054038123289906
 10
2131.9882732853675
 20
-1043.9413850068718
 10
2131.9806445015583
 20
-1043.8983972769815
 42
0.0112050460470297
 10
2131.9275679584707
 20
-1043.6339076194738
 10
2131.9008305154098
 20
-1043.5145952393918
 42
0.0240764468016013
 10
2131.7644844661868
 20
-1043.0192396861294
 10
2131.7366463219691
 20
-1042.9343094386463
 42
0.0256812331839295
 10
2131.5216019416857
 20
-1042.3767231292632
 10
2131.5134878029521
 20
-1042.3585261267754
 42
0.0268360501222245
 10
2131.2593469416788
 20
-1041.8620364257472
 10
2131.2510423302283
 20
-1041.8477569202819
 42
0.0274670231727145
 10
2130.9627408656065
 20
-1041.4093258579028
 10
2130.9546689156614
 20
-1041.3984071365892
 42
0.0275035967106804
 10
2130.6373095963199
 20
-1041.0151333011345
 10
2130.6297053448707
 20
-1041.0069146696892
 42
0.0269557673523399
 10
2130.2886000297108
 20
-1040.6759512407457
 10
2130.2814854430362
 20
-1040.6697563090538
 42
0.0259124802207694
 10
2129.9221531958906
 20
-1040.3882205183259
 10
2129.9153569281161
 20
-1040.3834422648292
 42
0.0245162153000772
 10
2129.5434823984756
 20
-1040.1483427511646
 10
2129.5366925789917
 20
-1040.1445024553645
 42
0.0229282588841423
 10
2129.1580632437481
 20
-1039.9527001666149
 10
2129.1508925029925
 20
-1039.9494717169716
 42
0.0212984135699035
 10
2128.7713355743008
 20
-1039.7976733411085
 10
2128.7633791468475
 20
-1039.7948779969688
 42
0.0197555462340805
 10
2128.388711640262
 20
-1039.6796548700213
 42
0.0183511896783527
 10
2128.0063185520676
 20
-1039.5932805095733
 10
2127.8767707569823
 20
-1039.5689763239957
 42
0.0338057877151404
 10
2127.4485097330921
 20
-1039.5182637162852
 10
2127.312001625528
 20
-1039.511394233393
 42
0.0091990524506563
 10
2127.1532309625782
 20
-1039.50633044951
 42
0.00283339807706
 10
2126.9943600886031
 20
-1039.5050882882349
 10
2126.9929869090147
 20
-1039.5050853334988
 42
-0.0023619827784475
 10
2126.8313678863487
 20
-1039.503974071881
 10
2126.776760131092
 20
-1039.5033406121865
 42
0.0008824598475548
 10
2126.5059261463171
 20
-1039.5006769448291
 10
2126.4401339977085
 20
-1039.5001460025408
 42
0.0038132665773861
 10
2126.0377096539082
 20
-1039.4999675984407
 10
2126.0129091716999
 20
-1039.500145747656
 42
0.0060665569338451
 10
2125.5609884343162
 20
-1039.5088761967872
 10
2125.5396129362748
 20
-1039.5095486587388
 42
0.0080356953337732
 10
2125.0454248617621
 20
-1039.5330502418392
 10
2125.0273198391351
 20
-1039.5342031162497
 42
0.0098996399100006
 10
2124.4981752121626
 20
-1039.5784309600465
 10
2124.4831066480965
 20
-1039.5799914043441
 42
0.0117740981370664
 10
2123.9263713605792
 20
-1039.6509297756384
 10
2123.9140373158498
 20
-1039.6527974504952
 42
0.0137435215141442
 10
2123.3371540866156
 20
-1039.7564429108393
 10
2123.3271685279374
 20
-1039.7585217551882
 42
0.015835986938691
 10
2122.7376728872237
 20
-1039.900859887912
 10
2122.7295531069331
 20
-1039.9030947992151
 42
0.0180554124025525
 10
2122.1350805400134
 20
-1040.090051823573
 10
2122.1282453578888
 20
-1040.0924758779724
 42
0.0203657431285566
 10
2121.5365290811728
 20
-1040.3298663902458
 10
2121.530313772661
 20
-1040.332658822409
 42
0.0226819684657537
 10
2120.9491596883527
 20
-1040.6261226904171
 10
2120.9428600018282
 20
-1040.6296710782951
 42
0.024863498460358
 10
2120.3800870900536
 20
-1040.9846110472183
 10
2120.3077946968824
 20
-1041.0353966099531
 42
0.0267044190882975
 10
2119.8963556515055
 20
-1041.3585571737567
 42
0.0139303002198119
 10
2119.5121049025875
 20
-1041.7144154351347
 10
2119.5048248240164
 20
-1041.7215444294147
 42
0.0283460963443253
 10
2119.1387159326746
 20
-1042.1231404200832
 10
2119.0792131749404
 20
-1042.196342786292
 42
0.0070695364830948
 10
2118.963057336151
 20
-1042.3434430102402
 42
0.0070695364830948
  0
LWPOLYLINE
  5
73
100
AcDbEntity
  8
0
370
              15
390
0
  6
Continuous
 62
               7
100
AcDbPolyline
 90
      226
 70
             128
 10
2113.6698266802814
 20
-1065.9258262195162
 42
-0.0026277636606238
 10
2113.6697098545815
 20
-1065.8256683308523
 10
2113.6700358919293
 20
-1065.7459355047372
 42
-0.0088680296737502
 10
2113.675700816369
 20
-1065.4864118311325
 10
2113.6792203550376
 20
-1065.3974917929522
 42
-0.0077381705626142
 10
2113.7032895211814
 20
-1064.9606010492701
 10
2113.7045913879419
 20
-1064.9421686987271
 42
-0.006887253053523
 10
2113.7445395075642
 20
-1064.4693360706226
 10
2113.7463458438433
 20
-1064.4509746020954
 42
-0.006213002149219
 10
2113.8027364190839
 20
-1063.9426700652457
 10
2113.8049922743876
 20
-1063.9244092573629
 42
-0.0056726929674061
 10
2113.8783750636408
 20
-1063.3811164241945
 10
2113.8810352321075
 20
-1063.3629757238248
 42
-0.0052341884491878
 10
2113.9719511115031
 20
-1062.7851858405165
 10
2113.9749780946627
 20
-1062.7671784455592
 42
-0.0049768450165774
 10
2114.0840861168067
 20
-1062.1554115943873
 10
2114.1204596388848
 20
-1061.9625896199013
 42
-0.008902980562525
 10
2114.3260809165754
 20
-1060.9699264487733
 10
2114.3751989795546
 20
-1060.7523793029827
 42
-0.0080318257099178
 10
2114.7195219010637
 20
-1059.3338148552104
 10
2114.737499290738
 20
-1059.2646189024172
 42
-0.0074265721318646
 10
2115.1635165990219
 20
-1057.7195220348153
 10
2115.1933359136815
 20
-1057.6173209439839
 42
-0.0069711922703738
 10
2115.6842927814478
 20
-1056.0179193334702
 10
2115.7742207021097
 20
-1055.7388872959036
 42
-0.0052070422891852
 10
2116.1183585399949
 20
-1054.7079791803671
 10
2116.1442803283071
 20
-1054.6329382592853
 42
-0.0009167004446274
 10
2116.4489181591875
 20
-1053.7562544872103
 42
-0.0025162726945282
 10
2116.7595646045793
 20
-1052.8816925909732
 10
2116.8154015222676
 20
-1052.7269682721696
 42
-0.0028212681459993
 10
2117.1876654007347
 20
-1051.7133723238521
 10
2117.2024115448644
 20
-1051.673911156827
 42
-0.0031964916824454
 10
2117.556849931354
 20
-1050.7436040136463
 10
2117.5713016123427
 20
-1050.7063890284567
 42
-0.0036281836453132
 10
2117.9089605540039
 20
-1049.8552280070917
 10
2117.9231181692357
 20
-1049.8202818598486
 42
-0.0041269166830563
 10
2118.2450447142292
 20
-1049.0441205158702
 10
2118.2939941488571
 20
-1048.9288028463359
 42
-0.0047472213058231
 10
2118.5295613571907
 20
-1048.3881706445034
 10
2118.5399024789908
 20
-1048.3650397485324
 42
-0.0025651659996478
 10
2118.762439529778
 20
-1047.8740476648827
 42
-0.0057144634996347
 10
2118.993064070421
 20
-1047.3868331548683
 10
2119.0351101285369
 20
-1047.3005705812479
 42
-0.006538806837438
 10
2119.3103106701469
 20
-1046.7542218362501
 10
2119.3229983538113
 20
-1046.7298324672024
 42
-0.0074510843022654
 10
2119.5872717226312
 20
-1046.2398000455119
 10
2119.5995412284201
 20
-1046.2178388796224
 42
-0.0084648979861388
 10
2119.8539920080775
 20
-1045.7799753631668
 10
2119.8657761978111
 20
-1045.7604648756883
 42
-0.0095638542799897
 10
2120.111529369201
 20
-1045.3706315677227
 10
2120.1227417847126
 20
-1045.3535775255334
 42
-0.0107191626802945
 10
2120.3609441552903
 20
-1045.0076606737234
 10
2120.3714692558865
 20
-1044.9930565351767
 42
-0.0118458573902251
 10
2120.6032914036559
 20
-1044.6869482422105
 42
-0.0129184518193177
 10
2120.849970339053
 20
-1044.39270746796
 10
2120.8951874976028
 20
-1044.3415183496054
 42
-0.0217742579631019
 10
2121.1601059811055
 20
-1044.0667081942306
 10
2121.176224297792
 20
-1044.0513829444299
 42
-0.0097266568648686
 10
2121.4253107260797
 20
-1043.8236115827701
 42
-0.0187720905721731
 10
2121.686832089913
 20
-1043.6105083026873
 10
2121.7328910759206
 20
-1043.5757696790959
 42
-0.017942820752738
 10
2122.0815221559196
 20
-1043.3319414134246
 10
2122.087000646301
 20
-1043.3283955110878
 42
-0.017004787769397
 10
2122.4406461025892
 20
-1043.1162047398657
 10
2122.446320585706
 20
-1043.1130572823131
 42
-0.0160190788369473
 10
2122.8016834071618
 20
-1042.9305803293291
 42
-0.0151102861487594
 10
2123.1677310808413
 20
-1042.7705561652433
 10
2123.2463108341494
 20
-1042.7389959659051
 42
-0.0271945441893319
 10
2123.7843046727335
 20
-1042.556198749847
 10
2123.8879018734706
 20
-1042.5271744379463
 42
-0.0237596594023836
 10
2124.5115971440027
 20
-1042.3839983699745
 10
2124.6136914245994
 20
-1042.3656163377841
 42
-0.0213715440550709
 10
2125.0425038217663
 20
-1042.3071957905195
 10
2125.1327245710968
 20
-1042.2988112184678
 42
-0.0101465655822686
 10
2125.3839633690841
 20
-1042.2805959035718
 10
2125.3979739483843
 20
-1042.2798655310758
 42
-0.0100375910864481
 10
2125.6217050992254
 20
-1042.272701804188
 10
2125.6370940037491
 20
-1042.2725181456663
 42
-0.0103625633377301
 10
2125.8301559957281
 20
-1042.2742152959563
 10
2125.8635544726317
 20
-1042.2752013336537
 42
-0.0115689250223174
 10
2125.9896305789207
 20
-1042.2818455930214
 42
-0.0072438037439875
 10
2126.1153879980748
 20
-1042.2932293926451
 10
2126.1405887622886
 20
-1042.2958792067318
 42
-0.0217917313121231
 10
2126.3154434072603
 20
-1042.3220090458137
 10
2126.4138435431128
 20
-1042.3411289584358
 42
-0.0332943556755734
 10
2126.7204317906517
 20
-1042.4221893953959
 10
2126.7656906434754
 20
-1042.4374415110731
 42
-0.0184824084795476
 10
2126.9734482281747
 20
-1042.5161180341534
 42
-0.0198002050701669
 10
2127.1745597389222
 20
-1042.6104441244515
 10
2127.177389694989
 20
-1042.6119108047722
 42
-0.0212242342983853
 10
2127.3755981085901
 20
-1042.7255549129604
 10
2127.3783210519073
 20
-1042.7272736162743
 42
-0.0226090605803207
 10
2127.5710769037405
 20
-1042.8614930816213
 10
2127.5738435663461
 20
-1042.8636114611022
 42
-0.0238457052221912
 10
2127.7586166882857
 20
-1043.0196053048955
 10
2127.7615457811244
 20
-1043.0223276215449
 42
-0.0248160564153984
 10
2127.9358480420774
 20
-1043.2012395233608
 10
2127.939003492178
 20
-1043.2048175239147
 42
-0.0254109591449942
 10
2128.1004113189783
 20
-1043.4077501028626
 10
2128.1037833518485
 20
-1043.4124624254621
 42
-0.0255528488282358
 10
2128.2499533700443
 20
-1043.6405030068145
 10
2128.2534500199181
 20
-1043.6466254242248
 42
-0.0252146793221072
 10
2128.3821215589328
 20
-1043.9008787932219
 10
2128.3855749176682
 20
-1043.9086519160896
 42
-0.0244265635951488
 10
2128.4945569583106
 20
-1044.1902717741602
 10
2128.5084265605142
 20
-1044.2320699016689
 42
-0.0231319612896211
 10
2128.5773107290011
 20
-1044.4770214718687
 42
-0.0112130424358803
 10
2128.6292647628088
 20
-1044.726326872154
 10
2128.6310685504768
 20
-1044.7360717524825
 42
-0.0210527881229343
 10
2128.6695982635342
 20
-1045.0076552206522
 10
2128.674864155766
 20
-1045.0607635434653
 42
-0.0190029892429706
 10
2128.6980263660826
 20
-1045.4410673128573
 10
2128.6992413307489
 20
-1045.4942807344273
 42
-0.013797455365413
 10
2128.6969180514952
 20
-1045.981827844545
 10
2128.6956498690633
 20
-1046.0210059613923
 42
-0.0081336634216327
 10
2128.6733608662284
 20
-1046.4790271628156
 42
-0.0073526923574499
 10
2128.6368980661673
 20
-1046.9361495292335
 10
2128.6350059304923
 20
-1046.9561545412423
 42
-0.0066886138697193
 10
2128.5814025514233
 20
-1047.452033606485
 10
2128.5789169172181
 20
-1047.4724660349752
 42
-0.0061359187354906
 10
2128.50714101414
 20
-1048.0076120051363
 10
2128.5040847625323
 20
-1048.0284542093691
 42
-0.0056698610060022
 10
2128.4131092663788
 20
-1048.6033720626442
 10
2128.4095011163972
 20
-1048.6246107414722
 42
-0.00527210772793
 10
2128.2983028151948
 20
-1049.2398017510029
 10
2128.2941580919351
 20
-1049.2614267040681
 42
-0.0049289272178783
 10
2128.1617169147871
 20
-1049.9173894707421
 10
2128.1570481727613
 20
-1049.9393927499755
 42
-0.0047415956708176
 10
2128.0021911854606
 20
-1050.636587886102
 10
2127.9500388699234
 20
-1050.8612985291663
 42
-0.0084404470901932
 10
2127.6650142045632
 20
-1052.0016345659719
 10
2127.655824172587
 20
-1052.0359307521933
 42
-0.0039635940258938
 10
2127.3236436461548
 20
-1053.2374140485849
 10
2127.3035784533913
 20
-1053.3078114734521
 42
-0.007247504083458
 10
2126.9024081215912
 20
-1054.6416410480563
 10
2126.7970896313536
 20
-1054.9742515730029
 42
-0.0051345458825761
 10
2126.3669505732673
 20
-1056.2857393547119
 10
2126.3346611731135
 20
-1056.3808787554142
 42
-0.0019150016601127
 10
2125.9513610628164
 20
-1057.496202435746
 10
2125.9416596562492
 20
-1057.5240836330504
 42
-0.0021524362752655
 10
2125.5689425796263
 20
-1058.5805723656904
 10
2125.5551269485932
 20
-1058.6192027331097
 42
-0.0024331286819558
 10
2125.2007440600273
 20
-1059.59510169532
 10
2125.187172131205
 20
-1059.6319166548426
 42
-0.0027449721787742
 10
2124.8502502749484
 20
-1060.530611473238
 10
2124.8369152638556
 20
-1060.5655953580272
 42
-0.0031083229768936
 10
2124.516601533945
 20
-1061.3904814143857
 10
2124.50349733643
 20
-1061.4236159881766
 42
-0.0035311343281402
 10
2124.198935558044
 20
-1062.1780906767676
 10
2124.1860575493433
 20
-1062.2093547619825
 42
-0.0040245640951395
 10
2123.8963898436309
 20
-1062.8968187459218
 10
2123.8837356732383
 20
-1062.9261877980016
 42
-0.0046015135857404
 10
2123.6081012334807
 20
-1063.5500453424931
 10
2123.5956719667452
 20
-1063.5774910516568
 42
-0.0052768638269092
 10
2123.333205688305
 20
-1064.1411503780769
 10
2123.3210073723808
 20
-1064.1666403858585
 42
-0.0060672675645737
 10
2123.0708379532157
 20
-1064.6735138205629
 10
2123.0588837324858
 20
-1064.6970117090739
 42
-0.0069904648867106
 10
2122.8201311414909
 20
-1065.1505154190545
 10
2122.8084440420826
 20
-1065.171981242881
 42
-0.0080637022767551
 10
2122.5802162515561
 20
-1065.5755341976251
 10
2122.5688327026091
 20
-1065.5949259960262
 42
-0.0093006455668461
 10
2122.3502216878123
 20
-1065.9519475937809
 10
2122.3391956876962
 20
-1065.9692245475419
 42
-0.0107060778041122
 10
2122.1292728725389
 20
-1066.2831300236089
 10
2122.1186802201291
 20
-1066.2982583374439
 42
-0.0122723111424693
 10
2121.9164896428219
 20
-1066.5724483316912
 10
2121.9160003074912
 20
-1066.5730789134052
 42
-0.0141836319629998
 10
2121.7006279030302
 20
-1066.83493355015
 10
2121.6902062695567
 20
-1066.8468960505422
 42
-0.0175957477201057
 10
2121.4803470175002
 20
-1067.0713273831543
 42
-0.0080466359673817
 10
2121.2591513699517
 20
-1067.284811175384
 10
2121.1900995531787
 20
-1067.3493418325179
 42
-0.0269600260393956
 10
2120.8101791842032
 20
-1067.6678267202826
 10
2120.7103284797645
 20
-1067.7427538422132
 42
-0.0178362839755091
 10
2120.3504117452749
 20
-1067.9932807315963
 10
2120.3395442887822
 20
-1068.0002834998986
 42
-0.0174650732654473
 10
2119.9850399926122
 20
-1068.2115749473423
 42
-0.0169240130162601
 10
2119.6168406238253
 20
-1068.3980133370087
 10
2119.5478613904888
 20
-1068.4300562703593
 42
-0.0318883036845283
 10
2119.0223351070626
 20
-1068.6345637346233
 10
2118.9197868043107
 20
-1068.667114665338
 42
-0.0284435909906813
 10
2118.3557116148754
 20
-1068.8114408185495
 10
2118.3029743741276
 20
-1068.8217812122921
 42
-0.0243909341013122
 10
2117.8328091827489
 20
-1068.8903627588375
 10
2117.7573880925934
 20
-1068.89763107919
 42
-0.0196639292941183
 10
2117.4339947263015
 20
-1068.9160035074603
 10
2117.356258619553
 20
-1068.9173583985655
 42
-0.0100501510671776
 10
2117.1876236970602
 20
-1068.9169078010357
 10
2117.1401339050449
 20
-1068.9158261932075
 42
-0.0019752031133911
 10
2117.0664954000217
 20
-1068.9138579528931
 10
2117.0623549451893
 20
-1068.9137309151536
 42
0.0065378751999216
 10
2116.9969900830565
 20
-1068.9125805783315
 42
-0.0167974694643434
 10
2116.9316938486559
 20
-1068.9100907305422
 10
2116.9255748397654
 20
-1068.9096512141998
 42
-0.0081283276296277
 10
2116.8482351431608
 20
-1068.9028307237431
 10
2116.8306257823401
 20
-1068.9009888473754
 42
-0.0126703440166506
 10
2116.7185483386484
 20
-1068.886386660768
 10
2116.6843665371343
 20
-1068.8810492768953
 42
-0.0117852088437295
 10
2116.505058058392
 20
-1068.8487047841609
 10
2116.4219873807415
 20
-1068.8316894738077
 42
-0.0251774592290318
 10
2116.081721322229
 20
-1068.743942459658
 10
2116.0146425374505
 20
-1068.7229922306544
 42
-0.0146525199889955
 10
2115.7350530561453
 20
-1068.6265924398581
 42
-0.0166929435858334
 10
2115.4620865719548
 20
-1068.512881740276
 10
2115.4551016250457
 20
-1068.5096943893552
 42
-0.019168435842525
 10
2115.177326178175
 20
-1068.3698402636721
 10
2115.1723272995364
 20
-1068.3670783923403
 42
-0.0221181781817024
 10
2114.8973618436821
 20
-1068.1988781447835
 10
2114.8938371376703
 20
-1068.1965016977977
 42
-0.0254984685388795
 10
2114.6294019120928
 20
-1067.9978849728434
 10
2114.5956786905399
 20
-1067.9697565094389
 42
-0.0292492648820071
 10
2114.4085252822751
 20
-1067.7941173099741
 42
-0.0159048957509242
 10
2114.2377652860996
 20
-1067.6020873225755
 10
2114.2357871002305
 20
-1067.5997149030454
 42
-0.0343813379570636
 10
2114.0818312077931
 20
-1067.386907914394
 10
2114.0345939107501
 20
-1067.31115282625
 42
-0.0369117275702174
 10
2113.9057551579044
 20
-1067.0659369648276
 42
-0.0191751379908875
 10
2113.8049650795701
 20
-1066.8073300558226
 10
2113.8023200939297
 20
-1066.7996900388064
 42
-0.0378178042222023
 10
2113.7276280157525
 20
-1066.5162788746802
 10
2113.718635072159
 20
-1066.4674379473952
 42
-0.0184846046474641
 10
2113.6875592732163
 20
-1066.2548087165717
 42
-0.0179866351313505
 10
2113.6720597656054
 20
-1066.0404724969405
 10
2113.6719751019368
 20
-1066.0381359670309
 42
-0.0085497186119222
 10
2113.6698266802814
 20
-1065.9258262195162
 42
-0.0085497186119222
  0
ENDBLK
  5
74
100
AcDbEntity
  8
template
390
0
100
AcDbBlockEnd
  0
BLOCK
  5
75
100
AcDbEntity
  8
notes
390
0
100
AcDbBlockBegin
  2
*D4
 70
               1
 10
0.0
 20
0.0
 30
0.0
  3
*D4
  1

  0
LINE
  5
76
100
AcDbEntity
  8
0
370
              -2
390
0
  6
Continuous
 62
               0
100
AcDbLine
 10
-938.35868769418039
 20
-1021.5000022887978
 30
0.0
 11
-1005.8586876941804
 21
-1021.5000022887978
 31
0.0
  0
LINE
  5
77
100
AcDbEntity
  8
0
370
              -2
390
0
  6
Continuous
 62
               0
100
AcDbLine
 10
-938.35868769418039
 20
-841.50000228879776
 30
0.0
 11
-1005.8586876941804
 21
-841.50000228879776
 31
0.0
  0
LINE
  5
78
100
AcDbEntity
  8
0
370
              -2
390
0
  6
Continuous
 62
               0
100
AcDbLine
 10
-1005.8586876941804
 20
-1021.5000022887978
 30
0.0
 11
-1005.8586876941804
 21
-841.50000228879776
 31
0.0
  0
CIRCLE
  5
79
102
{ACAD_REACTORS
330
7A
102
}
100
AcDbEntity
  8
0
370
              -2
390
0
  6
Continuous
 62
               0
100
AcDbCircle
 10
-1005.8586876941804
 20
-1021.5000022887978
 30
0.0
 40
2.99981689453125
  0
HATCH
  5
7A
100
AcDbEntity
  8
0
370
              -2
390
0
  6
Continuous
 62
               0
100
AcDbHatch
 10
0.0
 20
0.0
 30
0.0
210
0.0
220
0.0
230
1.0
  2
SOLID
 70
               1
 71
               1
 91
        1
 92
        1
 93
        1
 72
               2
 10
-1005.8586876941804
 20
-1021.5000022887978
 40
2.99981689453125
 50
0.0
 51
360.0
 73
               0
 97
        1
330
79
 75
               0
 76
               1
 98
        1
 10
0.0
 20
0.0
  0
CIRCLE
  5
7B
102
{ACAD_REACTORS
330
7C
102
}
100
AcDbEntity
  8
0
370
              -2
390
0
  6
Continuous
 62
               0
100
AcDbCircle
 10
-1005.8586876941804
 20
-841.50000228879776
 30
0.0
 40
2.99981689453125
  0
HATCH
  5
7C
100
AcDbEntity
  8
0
370
              -2
390
0
  6
Continuous
 62
               0
100
AcDbHatch
 10
0.0
 20
0.0
 30
0.0
210
0.0
220
0.0
230
1.0
  2
SOLID
 70
               1
 71
               1
 91
        1
 92
        1
 93
        1
 72
               2
 10
-1005.8586876941804
 20
-841.50000228879776
 40
2.99981689453125
 50
0.0
 51
360.0
 73
               0
 97
        1
330
7B
 75
               0
 76
               1
 98
        1
 10
0.0
 20
0.0
  0
MTEXT
  5
7D
100
AcDbEntity
  8
0
390
0
 62
               0
100
AcDbMText
 10
-1056.6751134754304
 20
-967.21875481206109
 30
0.0
 40
36.64892578125
 41
0.0
 71
               1
 72
               1
  1
180
  7
ＭＳ ゴシック
 11
0.0
 21
1.0
 31
0.0
 73
               1
 44
0.7828267384257843
  0
POINT
  5
7E
100
AcDbEntity
  8
Defpoints
370
               0
390
0
 62
               0
100
AcDbPoint
 10
-900.85868769418039
 20
-841.50000228879776
 30
0.0
  0
POINT
  5
7F
100
AcDbEntity
  8
Defpoints
370
               0
390
0
 62
               0
100
AcDbPoint
 10
-900.85868769418039
 20
-1021.5000022887978
 30
0.0
  0
POINT
  5
80
100
AcDbEntity
  8
Defpoints
370
               0
390
0
 62
               0
100
AcDbPoint
 10
-1005.8586876941804
 20
-1021.5000022887978
 30
0.0
  0
ENDBLK
  5
81
100
AcDbEntity
  8
notes
390
0
100
AcDbBlockEnd
  0
BLOCK
  5
82
100
AcDbEntity
  8
notes
390
0
100
AcDbBlockBegin
  2
*D5
 70
               1
 10
0.0
 20
0.0
 30
0.0
  3
*D5
  1

  0
LINE
  5
83
100
AcDbEntity
  8
0
370
              -2
390
0
  6
Continuous
 62
               0
100
AcDbLine
 10
-938.35868769418039
 20
-841.50000228879776
 30
0.0
 11
-1005.8586876941804
 21
-841.50000228879776
 31
0.0
  0
LINE
  5
84
100
AcDbEntity
  8
0
370
              -2
390
0
  6
Continuous
 62
               0
100
AcDbLine
 10
-938.35868769418039
 20
-741.50000228879776
 30
0.0
 11
-1005.8586876941804
 21
-741.50000228879776
 31
0.0
  0
LINE
  5
85
100
AcDbEntity
  8
0
370
              -2
390
0
  6
Continuous
 62
               0
100
AcDbLine
 10
-1005.8586876941804
 20
-841.50000228879776
 30
0.0
 11
-1005.8586876941804
 21
-741.50000228879776
 31
0.0
  0
CIRCLE
  5
86
102
{ACAD_REACTORS
330
87
102
}
100
AcDbEntity
  8
0
370
              -2
390
0
  6
Continuous
 62
               0
100
AcDbCircle
 10
-1005.8586876941804
 20
-841.50000228879776
 30
0.0
 40
2.99981689453125
  0
HATCH
  5
87
100
AcDbEntity
  8
0
370
              -2
390
0
  6
Continuous
 62
               0
100
AcDbHatch
 10
0.0
 20
0.0
 30
0.0
210
0.0
220
0.0
230
1.0
  2
SOLID
 70
               1
 71
               1
 91
        1
 92
        1
 93
        1
 72
               2
 10
-1005.8586876941804
 20
-841.50000228879776
 40
2.99981689453125
 50
0.0
 51
360.0
 73
               0
 97
        1
330
86
 75
               0
 76
               1
 98
        1
 10
0.0
 20
0.0
  0
CIRCLE
  5
88
102
{ACAD_REACTORS
330
89
102
}
100
AcDbEntity
  8
0
370
              -2
390
0
  6
Continuous
 62
               0
100
AcDbCircle
 10
-1005.8586876941804
 20
-741.50000228879776
 30
0.0
 40
2.99981689453125
  0
HATCH
  5
89
100
AcDbEntity
  8
0
370
              -2
390
0
  6
Continuous
 62
               0
100
AcDbHatch
 10
0.0
 20
0.0
 30
0.0
210
0.0
220
0.0
230
1.0
  2
SOLID
 70
               1
 71
               1
 91
        1
 92
        1
 93
        1
 72
               2
 10
-1005.8586876941804
 20
-741.50000228879776
 40
2.99981689453125
 50
0.0
 51
360.0
 73
               0
 97
        1
330
88
 75
               0
 76
               1
 98
        1
 10
0.0
 20
0.0
  0
MTEXT
  5
8A
100
AcDbEntity
  8
0
390
0
 62
               0
100
AcDbMText
 10
-1056.6751134754304
 20
-827.21875481206109
 30
0.0
 40
36.64892578125
 41
0.0
 71
               1
 72
               1
  1
100
  7
ＭＳ ゴシック
 11
0.0
 21
1.0
 31
0.0
 73
               1
 44
0.7828267384257843
  0
POINT
  5
8B
100
AcDbEntity
  8
Defpoints
370
               0
390
0
 62
               0
100
AcDbPoint
 10
-900.85868769418039
 20
-741.50000228879776
 30
0.0
  0
POINT
  5
8C
100
AcDbEntity
  8
Defpoints
370
               0
390
0
 62
               0
100
AcDbPoint
 10
-900.85868769418039
 20
-841.50000228879776
 30
0.0
  0
POINT
  5
8D
100
AcDbEntity
  8
Defpoints
370
               0
390
0
 62
               0
100
AcDbPoint
 10
-1005.8586876941804
 20
-841.50000228879776
 30
0.0
  0
ENDBLK
  5
8E
100
AcDbEntity
  8
notes
390
0
100
AcDbBlockEnd
  0
BLOCK
  5
8F
100
AcDbEntity
  8
notes
390
0
100
AcDbBlockBegin
  2
*D6
 70
               1
 10
0.0
 20
0.0
 30
0.0
  3
*D6
  1

  0
LINE
  5
90
100
AcDbEntity
  8
0
370
              -2
390
0
  6
Continuous
 62
               0
100
AcDbLine
 10
-938.35868769418039
 20
-741.50000228879776
 30
0.0
 11
-1005.8586876941804
 21
-741.50000228879776
 31
0.0
  0
LINE
  5
91
100
AcDbEntity
  8
0
370
              -2
390
0
  6
Continuous
 62
               0
100
AcDbLine
 10
-938.35868769418039
 20
-641.50000228879776
 30
0.0
 11
-1005.8586876941804
 21
-641.50000228879776
 31
0.0
  0
LINE
  5
92
100
AcDbEntity
  8
0
370
              -2
390
0
  6
Continuous
 62
               0
100
AcDbLine
 10
-1005.8586876941804
 20
-741.50000228879776
 30
0.0
 11
-1005.8586876941804
 21
-641.50000228879776
 31
0.0
  0
CIRCLE
  5
93
102
{ACAD_REACTORS
330
94
102
}
100
AcDbEntity
  8
0
370
              -2
390
0
  6
Continuous
 62
               0
100
AcDbCircle
 10
-1005.8586876941804
 20
-741.50000228879776
 30
0.0
 40
2.99981689453125
  0
HATCH
  5
94
100
AcDbEntity
  8
0
370
              -2
390
0
  6
Continuous
 62
               0
100
AcDbHatch
 10
0.0
 20
0.0
 30
0.0
210
0.0
220
0.0
230
1.0
  2
SOLID
 70
               1
 71
               1
 91
        1
 92
        1
 93
        1
 72
               2
 10
-1005.8586876941804
 20
-741.50000228879776
 40
2.99981689453125
 50
0.0
 51
360.0
 73
               0
 97
        1
330
93
 75
               0
 76
               1
 98
        1
 10
0.0
 20
0.0
  0
CIRCLE
  5
95
102
{ACAD_REACTORS
330
96
102
}
100
AcDbEntity
  8
0
370
              -2
390
0
  6
Continuous
 62
               0
100
AcDbCircle
 10
-1005.8586876941804
 20
-641.50000228879776
 30
0.0
 40
2.99981689453125
  0
HATCH
  5
96
100
AcDbEntity
  8
0
370
              -2
390
0
  6
Continuous
 62
               0
100
AcDbHatch
 10
0.0
 20
0.0
 30
0.0
210
0.0
220
0.0
230
1.0
  2
SOLID
 70
               1
 71
               1
 91
        1
 92
        1
 93
        1
 72
               2
 10
-1005.8586876941804
 20
-641.50000228879776
 40
2.99981689453125
 50
0.0
 51
360.0
 73
               0
 97
        1
330
95
 75
               0
 76
               1
 98
        1
 10
0.0
 20
0.0
  0
MTEXT
  5
97
100
AcDbEntity
  8
0
390
0
 62
               0
100
AcDbMText
 10
-1056.6751134754304
 20
-727.21875481206109
 30
0.0
 40
36.64892578125
 41
0.0
 71
               1
 72
               1
  1
100
  7
ＭＳ ゴシック
 11
0.0
 21
1.0
 31
0.0
 73
               1
 44
0.7828267384257843
  0
POINT
  5
98
100
AcDbEntity
  8
Defpoints
370
               0
390
0
 62
               0
100
AcDbPoint
 10
-900.85868769418039
 20
-641.50000228879776
 30
0.0
  0
POINT
  5
99
100
AcDbEntity
  8
Defpoints
370
               0
390
0
 62
               0
100
AcDbPoint
 10
-900.85868769418039
 20
-741.50000228879776
 30
0.0
  0
POINT
  5
9A
100
AcDbEntity
  8
Defpoints
370
               0
390
0
 62
               0
100
AcDbPoint
 10
-1005.8586876941804
 20
-741.50000228879776
 30
0.0
  0
ENDBLK
  5
9B
100
AcDbEntity
  8
notes
390
0
100
AcDbBlockEnd
  0
BLOCK
  5
9C
100
AcDbEntity
  8
notes
390
0
100
AcDbBlockBegin
  2
*D7
 70
               1
 10
0.0
 20
0.0
 30
0.0
  3
*D7
  1

  0
LINE
  5
9D
100
AcDbEntity
  8
0
370
              -2
390
0
  6
Continuous
 62
               0
100
AcDbLine
 10
-943.35868769418039
 20
-641.50000228879776
 30
0.0
 11
-1005.8586876941804
 21
-641.50000228879776
 31
0.0
  0
LINE
  5
9E
100
AcDbEntity
  8
0
370
              -2
390
0
  6
Continuous
 62
               0
100
AcDbLine
 10
-938.35868769418039
 20
-461.50000228879776
 30
0.0
 11
-1005.8586876941804
 21
-461.50000228879776
 31
0.0
  0
LINE
  5
9F
100
AcDbEntity
  8
0
370
              -2
390
0
  6
Continuous
 62
               0
100
AcDbLine
 10
-1005.8586876941804
 20
-641.50000228879776
 30
0.0
 11
-1005.8586876941804
 21
-461.50000228879776
 31
0.0
  0
CIRCLE
  5
A0
102
{ACAD_REACTORS
330
A1
102
}
100
AcDbEntity
  8
0
370
              -2
390
0
  6
Continuous
 62
               0
100
AcDbCircle
 10
-1005.8586876941804
 20
-641.50000228879776
 30
0.0
 40
2.99981689453125
  0
HATCH
  5
A1
100
AcDbEntity
  8
0
370
              -2
390
0
  6
Continuous
 62
               0
100
AcDbHatch
 10
0.0
 20
0.0
 30
0.0
210
0.0
220
0.0
230
1.0
  2
SOLID
 70
               1
 71
               1
 91
        1
 92
        1
 93
        1
 72
               2
 10
-1005.8586876941804
 20
-641.50000228879776
 40
2.99981689453125
 50
0.0
 51
360.0
 73
               0
 97
        1
330
A0
 75
               0
 76
               1
 98
        1
 10
0.0
 20
0.0
  0
CIRCLE
  5
A2
102
{ACAD_REACTORS
330
A3
102
}
100
AcDbEntity
  8
0
370
              -2
390
0
  6
Continuous
 62
               0
100
AcDbCircle
 10
-1005.8586876941804
 20
-461.50000228879776
 30
0.0
 40
2.99981689453125
  0
HATCH
  5
A3
100
AcDbEntity
  8
0
370
              -2
390
0
  6
Continuous
 62
               0
100
AcDbHatch
 10
0.0
 20
0.0
 30
0.0
210
0.0
220
0.0
230
1.0
  2
SOLID
 70
               1
 71
               1
 91
        1
 92
        1
 93
        1
 72
               2
 10
-1005.8586876941804
 20
-461.50000228879776
 40
2.99981689453125
 50
0.0
 51
360.0
 73
               0
 97
        1
330
A2
 75
               0
 76
               1
 98
        1
 10
0.0
 20
0.0
  0
MTEXT
  5
A4
100
AcDbEntity
  8
0
390
0
 62
               0
100
AcDbMText
 10
-1056.6751134754304
 20
-587.21875481206098
 30
0.0
 40
36.64892578125
 41
0.0
 71
               1
 72
               1
  1
180
  7
ＭＳ ゴシック
 11
0.0
 21
1.0
 31
0.0
 73
               1
 44
0.7828267384257843
  0
POINT
  5
A5
100
AcDbEntity
  8
Defpoints
370
               0
390
0
 62
               0
100
AcDbPoint
 10
-900.85868769418039
 20
-461.50000228879776
 30
0.0
  0
POINT
  5
A6
100
AcDbEntity
  8
Defpoints
370
               0
390
0
 62
               0
100
AcDbPoint
 10
-905.85868769418039
 20
-641.50000228879776
 30
0.0
  0
POINT
  5
A7
100
AcDbEntity
  8
Defpoints
370
               0
390
0
 62
               0
100
AcDbPoint
 10
-1005.8586876941804
 20
-641.50000228879776
 30
0.0
  0
ENDBLK
  5
A8
100
AcDbEntity
  8
notes
390
0
100
AcDbBlockEnd
  0
BLOCK
  5
A9
100
AcDbEntity
  8
notes
390
0
100
AcDbBlockBegin
  2
*D8
 70
               1
 10
0.0
 20
0.0
 30
0.0
  3
*D8
  1

  0
LINE
  5
AA
100
AcDbEntity
  8
0
370
              -2
390
0
  6
Continuous
 62
               0
100
AcDbLine
 10
678.94762048512212
 20
-320.5071084927938
 30
0.0
 11
596.44762048512121
 21
-320.5071084927938
 31
0.0
  0
LINE
  5
AB
100
AcDbEntity
  8
0
370
              -2
390
0
  6
Continuous
 62
               0
100
AcDbLine
 10
678.94762048512212
 20
-600.5071084927938
 30
0.0
 11
596.44762048512121
 21
-600.5071084927938
 31
0.0
  0
LINE
  5
AC
100
AcDbEntity
  8
0
370
              -2
390
0
  6
Continuous
 62
               0
100
AcDbLine
 10
596.44762048512121
 20
-320.5071084927938
 30
0.0
 11
596.44762048512121
 21
-600.5071084927938
 31
0.0
  0
CIRCLE
  5
AD
102
{ACAD_REACTORS
330
AE
102
}
100
AcDbEntity
  8
0
370
              -2
390
0
  6
Continuous
 62
               0
100
AcDbCircle
 10
596.44762048512121
 20
-320.5071084927938
 30
0.0
 40
2.99981689453125
  0
HATCH
  5
AE
100
AcDbEntity
  8
0
370
              -2
390
0
  6
Continuous
 62
               0
100
AcDbHatch
 10
0.0
 20
0.0
 30
0.0
210
0.0
220
0.0
230
1.0
  2
SOLID
 70
               1
 71
               1
 91
        1
 92
        1
 93
        1
 72
               2
 10
596.44762048512121
 20
-320.5071084927938
 40
2.99981689453125
 50
0.0
 51
360.0
 73
               0
 97
        1
330
AD
 75
               0
 76
               1
 98
        1
 10
0.0
 20
0.0
  0
CIRCLE
  5
AF
102
{ACAD_REACTORS
330
B0
102
}
100
AcDbEntity
  8
0
370
              -2
390
0
  6
Continuous
 62
               0
100
AcDbCircle
 10
596.44762048512121
 20
-600.5071084927938
 30
0.0
 40
2.99981689453125
  0
HATCH
  5
B0
100
AcDbEntity
  8
0
370
              -2
390
0
  6
Continuous
 62
               0
100
AcDbHatch
 10
0.0
 20
0.0
 30
0.0
210
0.0
220
0.0
230
1.0
  2
SOLID
 70
               1
 71
               1
 91
        1
 92
        1
 93
        1
 72
               2
 10
596.44762048512121
 20
-600.5071084927938
 40
2.99981689453125
 50
0.0
 51
360.0
 73
               0
 97
        1
330
AF
 75
               0
 76
               1
 98
        1
 10
0.0
 20
0.0
  0
MTEXT
  5
B1
100
AcDbEntity
  8
0
390
0
 62
               0
100
AcDbMText
 10
545.63119470387119
 20
-496.22586101605708
 30
0.0
 40
36.64892578125
 41
0.0
 71
               1
 72
               1
  1
280
  7
ＭＳ ゴシック
 11
0.0
 21
1.0
 31
0.0
 73
               1
 44
0.7828267384257843
  0
POINT
  5
B2
100
AcDbEntity
  8
Defpoints
370
               0
390
0
 62
               0
100
AcDbPoint
 10
716.44762048512212
 20
-600.5071084927938
 30
0.0
  0
POINT
  5
B3
100
AcDbEntity
  8
Defpoints
370
               0
390
0
 62
               0
100
AcDbPoint
 10
716.44762048512212
 20
-320.5071084927938
 30
0.0
  0
POINT
  5
B4
100
AcDbEntity
  8
Defpoints
370
               0
390
0
 62
               0
100
AcDbPoint
 10
596.44762048512121
 20
-320.5071084927938
 30
0.0
  0
ENDBLK
  5
B5
100
AcDbEntity
  8
notes
390
0
100
AcDbBlockEnd
  0
BLOCK
  5
B6
100
AcDbEntity
  8
notes
390
0
100
AcDbBlockBegin
  2
*D9
 70
               1
 10
0.0
 20
0.0
 30
0.0
  3
*D9
  1

  0
LINE
  5
B7
100
AcDbEntity
  8
0
370
              -2
390
0
  6
Continuous
 62
               0
100
AcDbLine
 10
678.94762048512212
 20
-600.5071084927938
 30
0.0
 11
596.44762048512121
 21
-600.5071084927938
 31
0.0
  0
LINE
  5
B8
100
AcDbEntity
  8
0
370
              -2
390
0
  6
Continuous
 62
               0
100
AcDbLine
 10
678.94762048512212
 20
-880.5071084927938
 30
0.0
 11
596.44762048512121
 21
-880.5071084927938
 31
0.0
  0
LINE
  5
B9
100
AcDbEntity
  8
0
370
              -2
390
0
  6
Continuous
 62
               0
100
AcDbLine
 10
596.44762048512121
 20
-600.5071084927938
 30
0.0
 11
596.44762048512121
 21
-880.5071084927938
 31
0.0
  0
CIRCLE
  5
BA
102
{ACAD_REACTORS
330
BB
102
}
100
AcDbEntity
  8
0
370
              -2
390
0
  6
Continuous
 62
               0
100
AcDbCircle
 10
596.44762048512121
 20
-600.5071084927938
 30
0.0
 40
2.99981689453125
  0
HATCH
  5
BB
100
AcDbEntity
  8
0
370
              -2
390
0
  6
Continuous
 62
               0
100
AcDbHatch
 10
0.0
 20
0.0
 30
0.0
210
0.0
220
0.0
230
1.0
  2
SOLID
 70
               1
 71
               1
 91
        1
 92
        1
 93
        1
 72
               2
 10
596.44762048512121
 20
-600.5071084927938
 40
2.99981689453125
 50
0.0
 51
360.0
 73
               0
 97
        1
330
BA
 75
               0
 76
               1
 98
        1
 10
0.0
 20
0.0
  0
CIRCLE
  5
BC
102
{ACAD_REACTORS
330
BD
102
}
100
AcDbEntity
  8
0
370
              -2
390
0
  6
Continuous
 62
               0
100
AcDbCircle
 10
596.44762048512121
 20
-880.5071084927938
 30
0.0
 40
2.99981689453125
  0
HATCH
  5
BD
100
AcDbEntity
  8
0
370
              -2
390
0
  6
Continuous
 62
               0
100
AcDbHatch
 10
0.0
 20
0.0
 30
0.0
210
0.0
220
0.0
230
1.0
  2
SOLID
 70
               1
 71
               1
 91
        1
 92
        1
 93
        1
 72
               2
 10
596.44762048512121
 20
-880.5071084927938
 40
2.99981689453125
 50
0.0
 51
360.0
 73
               0
 97
        1
330
BC
 75
               0
 76
               1
 98
        1
 10
0.0
 20
0.0
  0
MTEXT
  5
BE
100
AcDbEntity
  8
0
390
0
 62
               0
100
AcDbMText
 10
545.63119470387119
 20
-776.22586101605714
 30
0.0
 40
36.64892578125
 41
0.0
 71
               1
 72
               1
  1
280
  7
ＭＳ ゴシック
 11
0.0
 21
1.0
 31
0.0
 73
               1
 44
0.7828267384257843
  0
POINT
  5
BF
100
AcDbEntity
  8
Defpoints
370
               0
390
0
 62
               0
100
AcDbPoint
 10
716.44762048512212
 20
-880.5071084927938
 30
0.0
  0
POINT
  5
C0
100
AcDbEntity
  8
Defpoints
370
               0
390
0
 62
               0
100
AcDbPoint
 10
716.44762048512212
 20
-600.5071084927938
 30
0.0
  0
POINT
  5
C1
100
AcDbEntity
  8
Defpoints
370
               0
390
0
 62
               0
100
AcDbPoint
 10
596.44762048512121
 20
-600.5071084927938
 30
0.0
  0
ENDBLK
  5
C2
100
AcDbEntity
  8
notes
390
0
100
AcDbBlockEnd
  0
BLOCK
  5
C3
100
AcDbEntity
  8
notes
390
0
100
AcDbBlockBegin
  2
*D10
 70
               1
 10
0.0
 20
0.0
 30
0.0
  3
*D10
  1

  0
LINE
  5
C4
100
AcDbEntity
  8
0
370
              -2
390
0
  6
Continuous
 62
               0
100
AcDbLine
 10
678.94762048512212
 20
-880.5071084927938
 30
0.0
 11
596.44762048512121
 21
-880.5071084927938
 31
0.0
  0
LINE
  5
C5
100
AcDbEntity
  8
0
370
              -2
390
0
  6
Continuous
 62
               0
100
AcDbLine
 10
678.94762048512212
 20
-1160.5071084927938
 30
0.0
 11
596.44762048512121
 21
-1160.5071084927938
 31
0.0
  0
LINE
  5
C6
100
AcDbEntity
  8
0
370
              -2
390
0
  6
Continuous
 62
               0
100
AcDbLine
 10
596.44762048512121
 20
-880.5071084927938
 30
0.0
 11
596.44762048512121
 21
-1160.5071084927938
 31
0.0
  0
CIRCLE
  5
C7
102
{ACAD_REACTORS
330
C8
102
}
100
AcDbEntity
  8
0
370
              -2
390
0
  6
Continuous
 62
               0
100
AcDbCircle
 10
596.44762048512121
 20
-880.5071084927938
 30
0.0
 40
2.99981689453125
  0
HATCH
  5
C8
100
AcDbEntity
  8
0
370
              -2
390
0
  6
Continuous
 62
               0
100
AcDbHatch
 10
0.0
 20
0.0
 30
0.0
210
0.0
220
0.0
230
1.0
  2
SOLID
 70
               1
 71
               1
 91
        1
 92
        1
 93
        1
 72
               2
 10
596.44762048512121
 20
-880.5071084927938
 40
2.99981689453125
 50
0.0
 51
360.0
 73
               0
 97
        1
330
C7
 75
               0
 76
               1
 98
        1
 10
0.0
 20
0.0
  0
CIRCLE
  5
C9
102
{ACAD_REACTORS
330
CA
102
}
100
AcDbEntity
  8
0
370
              -2
390
0
  6
Continuous
 62
               0
100
AcDbCircle
 10
596.44762048512121
 20
-1160.5071084927938
 30
0.0
 40
2.99981689453125
  0
HATCH
  5
CA
100
AcDbEntity
  8
0
370
              -2
390
0
  6
Continuous
 62
               0
100
AcDbHatch
 10
0.0
 20
0.0
 30
0.0
210
0.0
220
0.0
230
1.0
  2
SOLID
 70
               1
 71
               1
 91
        1
 92
        1
 93
        1
 72
               2
 10
596.44762048512121
 20
-1160.5071084927938
 40
2.99981689453125
 50
0.0
 51
360.0
 73
               0
 97
        1
330
C9
 75
               0
 76
               1
 98
        1
 10
0.0
 20
0.0
  0
MTEXT
  5
CB
100
AcDbEntity
  8
0
390
0
 62
               0
100
AcDbMText
 10
545.63119470387119
 20
-1056.225861016057
 30
0.0
 40
36.64892578125
 41
0.0
 71
               1
 72
               1
  1
280
  7
ＭＳ ゴシック
 11
0.0
 21
1.0
 31
0.0
 73
               1
 44
0.7828267384257843
  0
POINT
  5
CC
100
AcDbEntity
  8
Defpoints
370
               0
390
0
 62
               0
100
AcDbPoint
 10
716.44762048512212
 20
-1160.5071084927938
 30
0.0
  0
POINT
  5
CD
100
AcDbEntity
  8
Defpoints
370
               0
390
0
 62
               0
100
AcDbPoint
 10
716.44762048512212
 20
-880.5071084927938
 30
0.0
  0
POINT
  5
CE
100
AcDbEntity
  8
Defpoints
370
               0
390
0
 62
               0
100
AcDbPoint
 10
596.44762048512121
 20
-880.5071084927938
 30
0.0
  0
ENDBLK
  5
CF
100
AcDbEntity
  8
notes
390
0
100
AcDbBlockEnd
  0
BLOCK
  5
D0
100
AcDbEntity
  8
notes
390
0
100
AcDbBlockBegin
  2
*D11
 70
               1
 10
0.0
 20
0.0
 30
0.0
  3
*D11
  1

  0
LINE
  5
D1
100
AcDbEntity
  8
0
370
              -2
390
0
  6
Continuous
 62
               0
100
AcDbLine
 10
-934.99997770443542
 20
-115.00000228879765
 30
0.0
 11
-1130.0
 21
-115.00000228879765
 31
0.0
  0
LINE
  5
D2
100
AcDbEntity
  8
0
370
              -2
390
0
  6
Continuous
 62
               0
100
AcDbLine
 10
-934.99997770443542
 20
-1365.0000022887978
 30
0.0
 11
-1130.0
 21
-1365.0000022887978
 31
0.0
  0
LINE
  5
D3
100
AcDbEntity
  8
0
370
              -2
390
0
  6
Continuous
 62
               0
100
AcDbLine
 10
-1130.0
 20
-115.00000228879765
 30
0.0
 11
-1130.0
 21
-1365.0000022887978
 31
0.0
  0
CIRCLE
  5
D4
102
{ACAD_REACTORS
330
D5
102
}
100
AcDbEntity
  8
0
370
              -2
390
0
  6
Continuous
 62
               0
100
AcDbCircle
 10
-1130.0
 20
-115.00000228879765
 30
0.0
 40
2.99981689453125
  0
HATCH
  5
D5
100
AcDbEntity
  8
0
370
              -2
390
0
  6
Continuous
 62
               0
100
AcDbHatch
 10
0.0
 20
0.0
 30
0.0
210
0.0
220
0.0
230
1.0
  2
SOLID
 70
               1
 71
               1
 91
        1
 92
        1
 93
        1
 72
               2
 10
-1130.0
 20
-115.00000228879765
 40
2.99981689453125
 50
0.0
 51
360.0
 73
               0
 97
        1
330
D4
 75
               0
 76
               1
 98
        1
 10
0.0
 20
0.0
  0
CIRCLE
  5
D6
102
{ACAD_REACTORS
330
D7
102
}
100
AcDbEntity
  8
0
370
              -2
390
0
  6
Continuous
 62
               0
100
AcDbCircle
 10
-1130.0
 20
-1365.0000022887978
 30
0.0
 40
2.99981689453125
  0
HATCH
  5
D7
100
AcDbEntity
  8
0
370
              -2
390
0
  6
Continuous
 62
               0
100
AcDbHatch
 10
0.0
 20
0.0
 30
0.0
210
0.0
220
0.0
230
1.0
  2
SOLID
 70
               1
 71
               1
 91
        1
 92
        1
 93
        1
 72
               2
 10
-1130.0
 20
-1365.0000022887978
 40
2.99981689453125
 50
0.0
 51
360.0
 73
               0
 97
        1
330
D6
 75
               0
 76
               1
 98
        1
 10
0.0
 20
0.0
  0
MTEXT
  5
D8
100
AcDbEntity
  8
0
390
0
 62
               0
100
AcDbMText
 10
-1180.81642578125
 20
-787.62500228879776
 30
0.0
 40
36.64892578125
 41
0.0
 71
               1
 72
               1
  1
1250
  7
ＭＳ ゴシック
 11
0.0
 21
1.0
 31
0.0
 73
               1
 44
0.7828267384257843
  0
POINT
  5
D9
100
AcDbEntity
  8
Defpoints
370
               0
390
0
 62
               0
100
AcDbPoint
 10
-897.49997770443542
 20
-1365.0000022887978
 30
0.0
  0
POINT
  5
DA
100
AcDbEntity
  8
Defpoints
370
               0
390
0
 62
               0
100
AcDbPoint
 10
-897.49997770443542
 20
-115.00000228879765
 30
0.0
  0
POINT
  5
DB
100
AcDbEntity
  8
Defpoints
370
               0
390
0
 62
               0
100
AcDbPoint
 10
-1130.0
 20
-115.00000228879765
 30
0.0
  0
ENDBLK
  5
DC
100
AcDbEntity
  8
notes
390
0
100
AcDbBlockEnd
  0
BLOCK
  5
DD
100
AcDbEntity
  8
notes
390
0
100
AcDbBlockBegin
  2
*D12
 70
               1
 10
0.0
 20
0.0
 30
0.0
  3
*D12
  1

  0
LINE
  5
DE
100
AcDbEntity
  8
0
370
              -2
390
0
  6
Continuous
 62
               0
100
AcDbLine
 10
-903.49997770443542
 20
-89.368762179181999
 30
0.0
 11
-903.49997770443542
 21
-14.968762179181908
 31
0.0
  0
LINE
  5
DF
100
AcDbEntity
  8
0
370
              -2
390
0
  6
Continuous
 62
               0
100
AcDbLine
 10
-433.50002229556821
 20
-89.368762179181999
 30
0.0
 11
-433.50002229556821
 21
-14.968762179181908
 31
0.0
  0
LINE
  5
E0
100
AcDbEntity
  8
0
370
              -2
390
0
  6
Continuous
 62
               0
100
AcDbLine
 10
-903.49997770443542
 20
-14.968762179181908
 30
0.0
 11
-433.50002229556821
 21
-14.968762179181908
 31
0.0
  0
CIRCLE
  5
E1
102
{ACAD_REACTORS
330
E2
102
}
100
AcDbEntity
  8
0
370
              -2
390
0
  6
Continuous
 62
               0
100
AcDbCircle
 10
-903.49997770443542
 20
-14.968762179181908
 30
0.0
 40
2.99981689453125
  0
HATCH
  5
E2
100
AcDbEntity
  8
0
370
              -2
390
0
  6
Continuous
 62
               0
100
AcDbHatch
 10
0.0
 20
0.0
 30
0.0
210
0.0
220
0.0
230
1.0
  2
SOLID
 70
               1
 71
               1
 91
        1
 92
        1
 93
        1
 72
               2
 10
-903.49997770443542
 20
-14.968762179181908
 40
2.99981689453125
 50
0.0
 51
360.0
 73
               0
 97
        1
330
E1
 75
               0
 76
               1
 98
        1
 10
0.0
 20
0.0
  0
CIRCLE
  5
E3
102
{ACAD_REACTORS
330
E4
102
}
100
AcDbEntity
  8
0
370
              -2
390
0
  6
Continuous
 62
               0
100
AcDbCircle
 10
-433.50002229556821
 20
-14.968762179181908
 30
0.0
 40
2.99981689453125
  0
HATCH
  5
E4
100
AcDbEntity
  8
0
370
              -2
390
0
  6
Continuous
 62
               0
100
AcDbHatch
 10
0.0
 20
0.0
 30
0.0
210
0.0
220
0.0
230
1.0
  2
SOLID
 70
               1
 71
               1
 91
        1
 92
        1
 93
        1
 72
               2
 10
-433.50002229556821
 20
-14.968762179181908
 40
2.99981689453125
 50
0.0
 51
360.0
 73
               0
 97
        1
330
E3
 75
               0
 76
               1
 98
        1
 10
0.0
 20
0.0
  0
MTEXT
  5
E5
100
AcDbEntity
  8
0
390
0
 62
               0
100
AcDbMText
 10
-704.21875252326515
 20
35.84766360206811
 30
0.0
 40
36.64892578125
 41
0.0
 71
               1
 72
               1
  1
470
  7
ＭＳ ゴシック
 73
               1
 44
0.7828267384257843
  0
POINT
  5
E6
100
AcDbEntity
  8
Defpoints
370
               0
390
0
 62
               0
100
AcDbPoint
 10
-433.50002229556821
 20
-126.868762179182
 30
0.0
  0
POINT
  5
E7
100
AcDbEntity
  8
Defpoints
370
               0
390
0
 62
               0
100
AcDbPoint
 10
-903.49997770443542
 20
-126.868762179182
 30
0.0
  0
POINT
  5
E8
100
AcDbEntity
  8
Defpoints
370
               0
390
0
 62
               0
100
AcDbPoint
 10
-903.49997770443542
 20
-14.968762179181908
 30
0.0
  0
ENDBLK
  5
E9
100
AcDbEntity
  8
notes
390
0
100
AcDbBlockEnd
  0
BLOCK
  5
EA
100
AcDbEntity
  8
notes
390
0
100
AcDbBlockBegin
  2
*D13
 70
               1
 10
0.0
 20
0.0
 30
0.0
  3
*D13
  1

  0
LINE
  5
EB
100
AcDbEntity
  8
0
370
              -2
390
0
  6
Continuous
 62
               0
100
AcDbLine
 10
890.9343726699226
 20
1449.5546064342707
 30
0.0
 11
954.31074586919794
 21
1449.5546064342707
 31
0.0
  0
LINE
  5
EC
100
AcDbEntity
  8
0
370
              -2
390
0
  6
Continuous
 62
               0
100
AcDbLine
 10
903.92741032933418
 20
1219.5546064342711
 30
0.0
 11
954.31074586919794
 21
1219.5546064342711
 31
0.0
  0
LINE
  5
ED
100
AcDbEntity
  8
0
370
              -2
390
0
  6
Continuous
 62
               0
100
AcDbLine
 10
954.31074586919794
 20
1449.5546064342707
 30
0.0
 11
954.31074586919794
 21
1219.5546064342711
 31
0.0
  0
CIRCLE
  5
EE
102
{ACAD_REACTORS
330
EF
102
}
100
AcDbEntity
  8
0
370
              -2
390
0
  6
Continuous
 62
               0
100
AcDbCircle
 10
954.31074586919794
 20
1449.5546064342707
 30
0.0
 40
2.99981689453125
  0
HATCH
  5
EF
100
AcDbEntity
  8
0
370
              -2
390
0
  6
Continuous
 62
               0
100
AcDbHatch
 10
0.0
 20
0.0
 30
0.0
210
0.0
220
0.0
230
1.0
  2
SOLID
 70
               1
 71
               1
 91
        1
 92
        1
 93
        1
 72
               2
 10
954.31074586919794
 20
1449.5546064342707
 40
2.99981689453125
 50
0.0
 51
360.0
 73
               0
 97
        1
330
EE
 75
               0
 76
               1
 98
        1
 10
0.0
 20
0.0
  0
CIRCLE
  5
F0
102
{ACAD_REACTORS
330
F1
102
}
100
AcDbEntity
  8
0
370
              -2
390
0
  6
Continuous
 62
               0
100
AcDbCircle
 10
954.31074586919794
 20
1219.5546064342711
 30
0.0
 40
2.99981689453125
  0
HATCH
  5
F1
100
AcDbEntity
  8
0
370
              -2
390
0
  6
Continuous
 62
               0
100
AcDbHatch
 10
0.0
 20
0.0
 30
0.0
210
0.0
220
0.0
230
1.0
  2
SOLID
 70
               1
 71
               1
 91
        1
 92
        1
 93
        1
 72
               2
 10
954.31074586919794
 20
1219.5546064342711
 40
2.99981689453125
 50
0.0
 51
360.0
 73
               0
 97
        1
330
F0
 75
               0
 76
               1
 98
        1
 10
0.0
 20
0.0
  0
MTEXT
  5
F2
100
AcDbEntity
  8
0
390
0
 62
               0
100
AcDbMText
 10
903.49432008794793
 20
1298.8358539110077
 30
0.0
 40
36.64892578125
 41
0.0
 71
               1
 72
               1
  1
230
  7
ＭＳ ゴシック
 11
0.0
 21
1.0
 31
0.0
 73
               1
 44
0.7828267384257843
  0
POINT
  5
F3
100
AcDbEntity
  8
Defpoints
370
               0
390
0
 62
               0
100
AcDbPoint
 10
866.42741032933418
 20
1219.5546064342711
 30
0.0
  0
POINT
  5
F4
100
AcDbEntity
  8
Defpoints
370
               0
390
0
 62
               0
100
AcDbPoint
 10
853.4343726699226
 20
1449.5546064342707
 30
0.0
  0
POINT
  5
F5
100
AcDbEntity
  8
Defpoints
370
               0
390
0
 62
               0
100
AcDbPoint
 10
954.31074586919794
 20
1449.5546064342707
 30
0.0
  0
ENDBLK
  5
F6
100
AcDbEntity
  8
notes
390
0
100
AcDbBlockEnd
  0
BLOCK
  5
F7
100
AcDbEntity
  8
notes
390
0
100
AcDbBlockBegin
  2
*D14
 70
               1
 10
0.0
 20
0.0
 30
0.0
  3
*D14
  1

  0
LINE
  5
F8
100
AcDbEntity
  8
0
370
              -2
390
0
  6
Continuous
 62
               0
100
AcDbLine
 10
736.44762048512166
 20
-1218.0071084927938
 30
0.0
 11
736.44762048512166
 21
-1466.6875
 31
0.0
  0
LINE
  5
F9
100
AcDbEntity
  8
0
370
              -2
390
0
  6
Continuous
 62
               0
100
AcDbLine
 10
696.44762048511984
 20
-1396.5000022887968
 30
0.0
 11
696.44762048511984
 21
-1466.6875
 31
0.0
  0
LINE
  5
FA
100
AcDbEntity
  8
0
370
              -2
390
0
  6
Continuous
 62
               0
100
AcDbLine
 10
696.44762048511984
 20
-1466.6875
 30
0.0
 11
618.375
 21
-1466.6875
 31
0.0
  0
LINE
  5
FB
100
AcDbEntity
  8
0
370
              -2
390
0
  6
Continuous
 62
               0
100
AcDbLine
 10
736.44762048512166
 20
-1466.6875
 30
0.0
 11
696.44762048511984
 21
-1466.6875
 31
0.0
  0
CIRCLE
  5
FC
102
{ACAD_REACTORS
330
FD
102
}
100
AcDbEntity
  8
0
370
              -2
390
0
  6
Continuous
 62
               0
100
AcDbCircle
 10
736.44762048512166
 20
-1466.6875
 30
0.0
 40
2.99981689453125
  0
HATCH
  5
FD
100
AcDbEntity
  8
0
370
              -2
390
0
  6
Continuous
 62
               0
100
AcDbHatch
 10
0.0
 20
0.0
 30
0.0
210
0.0
220
0.0
230
1.0
  2
SOLID
 70
               1
 71
               1
 91
        1
 92
        1
 93
        1
 72
               2
 10
736.44762048512166
 20
-1466.6875
 40
2.99981689453125
 50
0.0
 51
360.0
 73
               0
 97
        1
330
FC
 75
               0
 76
               1
 98
        1
 10
0.0
 20
0.0
  0
CIRCLE
  5
FE
102
{ACAD_REACTORS
330
FF
102
}
100
AcDbEntity
  8
0
370
              -2
390
0
  6
Continuous
 62
               0
100
AcDbCircle
 10
696.44762048511984
 20
-1466.6875
 30
0.0
 40
2.99981689453125
  0
HATCH
  5
FF
100
AcDbEntity
  8
0
370
              -2
390
0
  6
Continuous
 62
               0
100
AcDbHatch
 10
0.0
 20
0.0
 30
0.0
210
0.0
220
0.0
230
1.0
  2
SOLID
 70
               1
 71
               1
 91
        1
 92
        1
 93
        1
 72
               2
 10
696.44762048511984
 20
-1466.6875
 40
2.99981689453125
 50
0.0
 51
360.0
 73
               0
 97
        1
330
FE
 75
               0
 76
               1
 98
        1
 10
0.0
 20
0.0
  0
MTEXT
  5
100
100
AcDbEntity
  8
0
390
0
 62
               0
100
AcDbMText
 10
618.375
 20
-1415.87107421875
 30
0.0
 40
36.64892578125
 41
0.0
 71
               1
 72
               1
  1
40
  7
ＭＳ ゴシック
 73
               1
 44
0.7828267384257843
  0
POINT
  5
101
100
AcDbEntity
  8
Defpoints
370
               0
390
0
 62
               0
100
AcDbPoint
 10
696.44762048511984
 20
-1359.0000022887968
 30
0.0
  0
POINT
  5
102
100
AcDbEntity
  8
Defpoints
370
               0
390
0
 62
               0
100
AcDbPoint
 10
736.44762048512166
 20
-1180.5071084927938
 30
0.0
  0
POINT
  5
103
100
AcDbEntity
  8
Defpoints
370
               0
390
0
 62
               0
100
AcDbPoint
 10
736.44762048512166
 20
-1466.6875
 30
0.0
  0
ENDBLK
  5
104
100
AcDbEntity
  8
notes
390
0
100
AcDbBlockEnd
  0
BLOCK
  5
105
100
AcDbEntity
  8
notes
390
0
100
AcDbBlockBegin
  2
*D15
 70
               1
 10
0.0
 20
0.0
 30
0.0
  3
*D15
  1

  0
LINE
  5
106
100
AcDbEntity
  8
0
370
              -2
390
0
  6
Continuous
 62
               0
100
AcDbLine
 10
696.4476204851203
 20
-83.499997711211222
 30
0.0
 11
696.4476204851203
 21
53.0940442245128
 31
0.0
  0
LINE
  5
107
100
AcDbEntity
  8
0
370
              -2
390
0
  6
Continuous
 62
               0
100
AcDbLine
 10
856.44762048512803
 20
-134.67330401353649
 30
0.0
 11
856.44762048512803
 21
53.0940442245128
 31
0.0
  0
LINE
  5
108
100
AcDbEntity
  8
0
370
              -2
390
0
  6
Continuous
 62
               0
100
AcDbLine
 10
696.4476204851203
 20
53.0940442245128
 30
0.0
 11
856.44762048512803
 21
53.0940442245128
 31
0.0
  0
CIRCLE
  5
109
102
{ACAD_REACTORS
330
10A
102
}
100
AcDbEntity
  8
0
370
              -2
390
0
  6
Continuous
 62
               0
100
AcDbCircle
 10
696.4476204851203
 20
53.0940442245128
 30
0.0
 40
2.99981689453125
  0
HATCH
  5
10A
100
AcDbEntity
  8
0
370
              -2
390
0
  6
Continuous
 62
               0
100
AcDbHatch
 10
0.0
 20
0.0
 30
0.0
210
0.0
220
0.0
230
1.0
  2
SOLID
 70
               1
 71
               1
 91
        1
 92
        1
 93
        1
 72
               2
 10
696.4476204851203
 20
53.0940442245128
 40
2.99981689453125
 50
0.0
 51
360.0
 73
               0
 97
        1
330
109
 75
               0
 76
               1
 98
        1
 10
0.0
 20
0.0
  0
CIRCLE
  5
10B
102
{ACAD_REACTORS
330
10C
102
}
100
AcDbEntity
  8
0
370
              -2
390
0
  6
Continuous
 62
               0
100
AcDbCircle
 10
856.44762048512803
 20
53.0940442245128
 30
0.0
 40
2.99981689453125
  0
HATCH
  5
10C
100
AcDbEntity
  8
0
370
              -2
390
0
  6
Continuous
 62
               0
100
AcDbHatch
 10
0.0
 20
0.0
 30
0.0
210
0.0
220
0.0
230
1.0
  2
SOLID
 70
               1
 71
               1
 91
        1
 92
        1
 93
        1
 72
               2
 10
856.44762048512803
 20
53.0940442245128
 40
2.99981689453125
 50
0.0
 51
360.0
 73
               0
 97
        1
330
10B
 75
               0
 76
               1
 98
        1
 10
0.0
 20
0.0
  0
MTEXT
  5
10D
100
AcDbEntity
  8
0
390
0
 62
               0
100
AcDbMText
 10
740.72886796186094
 20
103.91047000576282
 30
0.0
 40
36.64892578125
 41
0.0
 71
               1
 72
               1
  1
160
  7
ＭＳ ゴシック
 73
               1
 44
0.7828267384257843
  0
POINT
  5
10E
100
AcDbEntity
  8
Defpoints
370
               0
390
0
 62
               0
100
AcDbPoint
 10
856.44762048512803
 20
-172.17330401353649
 30
0.0
  0
POINT
  5
10F
100
AcDbEntity
  8
Defpoints
370
               0
390
0
 62
               0
100
AcDbPoint
 10
696.4476204851203
 20
-120.99999771121122
 30
0.0
  0
POINT
  5
110
100
AcDbEntity
  8
Defpoints
370
               0
390
0
 62
               0
100
AcDbPoint
 10
696.4476204851203
 20
53.0940442245128
 30
0.0
  0
ENDBLK
  5
111
100
AcDbEntity
  8
notes
390
0
100
AcDbBlockEnd
  0
BLOCK
  5
112
100
AcDbEntity
  8
notes
390
0
100
AcDbBlockBegin
  2
*D16
 70
               1
 10
0.0
 20
0.0
 30
0.0
  3
*D16
  1

  0
LINE
  5
113
100
AcDbEntity
  8
0
370
              -2
390
0
  6
Continuous
 62
               0
100
AcDbLine
 10
-463.49997770443542
 20
1725.2408580105148
 30
0.0
 11
-463.49997770443542
 21
1824.2408580105184
 31
0.0
  0
LINE
  5
114
100
AcDbEntity
  8
0
370
              -2
390
0
  6
Continuous
 62
               0
100
AcDbLine
 10
-903.49997770443542
 20
1725.2408580105148
 30
0.0
 11
-903.49997770443542
 21
1824.2408580105184
 31
0.0
  0
LINE
  5
115
100
AcDbEntity
  8
0
370
              -2
390
0
  6
Continuous
 62
               0
100
AcDbLine
 10
-463.49997770443542
 20
1824.2408580105184
 30
0.0
 11
-903.49997770443542
 21
1824.2408580105184
 31
0.0
  0
CIRCLE
  5
116
102
{ACAD_REACTORS
330
117
102
}
100
AcDbEntity
  8
0
370
              -2
390
0
  6
Continuous
 62
               0
100
AcDbCircle
 10
-463.49997770443542
 20
1824.2408580105184
 30
0.0
 40
2.99981689453125
  0
HATCH
  5
117
100
AcDbEntity
  8
0
370
              -2
390
0
  6
Continuous
 62
               0
100
AcDbHatch
 10
0.0
 20
0.0
 30
0.0
210
0.0
220
0.0
230
1.0
  2
SOLID
 70
               1
 71
               1
 91
        1
 92
        1
 93
        1
 72
               2
 10
-463.49997770443542
 20
1824.2408580105184
 40
2.99981689453125
 50
0.0
 51
360.0
 73
               0
 97
        1
330
116
 75
               0
 76
               1
 98
        1
 10
0.0
 20
0.0
  0
CIRCLE
  5
118
102
{ACAD_REACTORS
330
119
102
}
100
AcDbEntity
  8
0
370
              -2
390
0
  6
Continuous
 62
               0
100
AcDbCircle
 10
-903.49997770443542
 20
1824.2408580105184
 30
0.0
 40
2.99981689453125
  0
HATCH
  5
119
100
AcDbEntity
  8
0
370
              -2
390
0
  6
Continuous
 62
               0
100
AcDbHatch
 10
0.0
 20
0.0
 30
0.0
210
0.0
220
0.0
230
1.0
  2
SOLID
 70
               1
 71
               1
 91
        1
 92
        1
 93
        1
 72
               2
 10
-903.49997770443542
 20
1824.2408580105184
 40
2.99981689453125
 50
0.0
 51
360.0
 73
               0
 97
        1
330
118
 75
               0
 76
               1
 98
        1
 10
0.0
 20
0.0
  0
MTEXT
  5
11A
100
AcDbEntity
  8
0
390
0
 62
               0
100
AcDbMText
 10
-719.21873022769876
 20
1875.0572837917684
 30
0.0
 40
36.64892578125
 41
0.0
 71
               1
 72
               1
  1
440
  7
ＭＳ ゴシック
 73
               1
 44
0.7828267384257843
  0
POINT
  5
11B
100
AcDbEntity
  8
Defpoints
370
               0
390
0
 62
               0
100
AcDbPoint
 10
-903.49997770443542
 20
1687.7408580105148
 30
0.0
  0
POINT
  5
11C
100
AcDbEntity
  8
Defpoints
370
               0
390
0
 62
               0
100
AcDbPoint
 10
-463.49997770443542
 20
1687.7408580105148
 30
0.0
  0
POINT
  5
11D
100
AcDbEntity
  8
Defpoints
370
               0
390
0
 62
               0
100
AcDbPoint
 10
-463.49997770443542
 20
1824.2408580105184
 30
0.0
  0
ENDBLK
  5
11E
100
AcDbEntity
  8
notes
390
0
100
AcDbBlockEnd
  0
BLOCK
  5
11F
100
AcDbEntity
  8
notes
390
0
100
AcDbBlockBegin
  2
*D17
 70
               1
 10
0.0
 20
0.0
 30
0.0
  3
*D17
  1

  0
LINE
  5
120
100
AcDbEntity
  8
0
370
              -2
390
0
  6
Continuous
 62
               0
100
AcDbLine
 10
-425.99997770443542
 20
507.74085801051478
 30
0.0
 11
-333.50002229556912
 21
507.74085801051478
 31
0.0
  0
LINE
  5
121
100
AcDbEntity
  8
0
370
              -2
390
0
  6
Continuous
 62
               0
100
AcDbLine
 10
-425.99997770443542
 20
1687.7408580105148
 30
0.0
 11
-333.50002229556912
 21
1687.7408580105148
 31
0.0
  0
LINE
  5
122
100
AcDbEntity
  8
0
370
              -2
390
0
  6
Continuous
 62
               0
100
AcDbLine
 10
-333.50002229556912
 20
507.74085801051478
 30
0.0
 11
-333.50002229556912
 21
1687.7408580105148
 31
0.0
  0
CIRCLE
  5
123
102
{ACAD_REACTORS
330
124
102
}
100
AcDbEntity
  8
0
370
              -2
390
0
  6
Continuous
 62
               0
100
AcDbCircle
 10
-333.50002229556912
 20
507.74085801051478
 30
0.0
 40
2.99981689453125
  0
HATCH
  5
124
100
AcDbEntity
  8
0
370
              -2
390
0
  6
Continuous
 62
               0
100
AcDbHatch
 10
0.0
 20
0.0
 30
0.0
210
0.0
220
0.0
230
1.0
  2
SOLID
 70
               1
 71
               1
 91
        1
 92
        1
 93
        1
 72
               2
 10
-333.50002229556912
 20
507.74085801051478
 40
2.99981689453125
 50
0.0
 51
360.0
 73
               0
 97
        1
330
123
 75
               0
 76
               1
 98
        1
 10
0.0
 20
0.0
  0
CIRCLE
  5
125
102
{ACAD_REACTORS
330
126
102
}
100
AcDbEntity
  8
0
370
              -2
390
0
  6
Continuous
 62
               0
100
AcDbCircle
 10
-333.50002229556912
 20
1687.7408580105148
 30
0.0
 40
2.99981689453125
  0
HATCH
  5
126
100
AcDbEntity
  8
0
370
              -2
390
0
  6
Continuous
 62
               0
100
AcDbHatch
 10
0.0
 20
0.0
 30
0.0
210
0.0
220
0.0
230
1.0
  2
SOLID
 70
               1
 71
               1
 91
        1
 92
        1
 93
        1
 72
               2
 10
-333.50002229556912
 20
1687.7408580105148
 40
2.99981689453125
 50
0.0
 51
360.0
 73
               0
 97
        1
330
125
 75
               0
 76
               1
 98
        1
 10
0.0
 20
0.0
  0
MTEXT
  5
127
100
AcDbEntity
  8
0
390
0
 62
               0
100
AcDbMText
 10
-384.31644807681914
 20
1050.1158580105148
 30
0.0
 40
36.64892578125
 41
0.0
 71
               1
 72
               1
  1
1180
  7
ＭＳ ゴシック
 11
0.0
 21
1.0
 31
0.0
 73
               1
 44
0.7828267384257843
  0
POINT
  5
128
100
AcDbEntity
  8
Defpoints
370
               0
390
0
 62
               0
100
AcDbPoint
 10
-463.49997770443542
 20
1687.7408580105148
 30
0.0
  0
POINT
  5
129
100
AcDbEntity
  8
Defpoints
370
               0
390
0
 62
               0
100
AcDbPoint
 10
-463.49997770443542
 20
507.74085801051478
 30
0.0
  0
POINT
  5
12A
100
AcDbEntity
  8
Defpoints
370
               0
390
0
 62
               0
100
AcDbPoint
 10
-333.50002229556912
 20
507.74085801051478
 30
0.0
  0
ENDBLK
  5
12B
100
AcDbEntity
  8
notes
390
0
100
AcDbBlockEnd
  0
BLOCK
  5
12C
100
AcDbEntity
  8
notes
390
0
100
AcDbBlockBegin
  2
*D18
 70
               1
 10
0.0
 20
0.0
 30
0.0
  3
*D18
  1

  0
LINE
  5
12D
100
AcDbEntity
  8
0
370
              -2
390
0
  6
Continuous
 62
               0
100
AcDbLine
 10
661.94721533991151
 20
1449.5540638164207
 30
0.0
 11
584.13547147995678
 21
1449.5540638164207
 31
0.0
  0
LINE
  5
12E
100
AcDbEntity
  8
0
370
              -2
390
0
  6
Continuous
 62
               0
100
AcDbLine
 10
668.93349847384206
 20
1379.5540638164207
 30
0.0
 11
584.13547147995678
 21
1379.5540638164207
 31
0.0
  0
LINE
  5
12F
100
AcDbEntity
  8
0
370
              -2
390
0
  6
Continuous
 62
               0
100
AcDbLine
 10
584.13547147995678
 20
1449.5540638164207
 30
0.0
 11
584.13547147995678
 21
1379.5540638164207
 31
0.0
  0
CIRCLE
  5
130
102
{ACAD_REACTORS
330
131
102
}
100
AcDbEntity
  8
0
370
              -2
390
0
  6
Continuous
 62
               0
100
AcDbCircle
 10
584.13547147995678
 20
1449.5540638164207
 30
0.0
 40
2.99981689453125
  0
HATCH
  5
131
100
AcDbEntity
  8
0
370
              -2
390
0
  6
Continuous
 62
               0
100
AcDbHatch
 10
0.0
 20
0.0
 30
0.0
210
0.0
220
0.0
230
1.0
  2
SOLID
 70
               1
 71
               1
 91
        1
 92
        1
 93
        1
 72
               2
 10
584.13547147995678
 20
1449.5540638164207
 40
2.99981689453125
 50
0.0
 51
360.0
 73
               0
 97
        1
330
130
 75
               0
 76
               1
 98
        1
 10
0.0
 20
0.0
  0
CIRCLE
  5
132
102
{ACAD_REACTORS
330
133
102
}
100
AcDbEntity
  8
0
370
              -2
390
0
  6
Continuous
 62
               0
100
AcDbCircle
 10
584.13547147995678
 20
1379.5540638164207
 30
0.0
 40
2.99981689453125
  0
HATCH
  5
133
100
AcDbEntity
  8
0
370
              -2
390
0
  6
Continuous
 62
               0
100
AcDbHatch
 10
0.0
 20
0.0
 30
0.0
210
0.0
220
0.0
230
1.0
  2
SOLID
 70
               1
 71
               1
 91
        1
 92
        1
 93
        1
 72
               2
 10
584.13547147995678
 20
1379.5540638164207
 40
2.99981689453125
 50
0.0
 51
360.0
 73
               0
 97
        1
330
132
 75
               0
 76
               1
 98
        1
 10
0.0
 20
0.0
  0
MTEXT
  5
134
100
AcDbEntity
  8
0
390
0
 62
               0
100
AcDbMText
 10
533.31904569870676
 20
1390.7415638164207
 30
0.0
 40
36.64892578125
 41
0.0
 71
               1
 72
               1
  1
70
  7
ＭＳ ゴシック
 11
0.0
 21
1.0
 31
0.0
 73
               1
 44
0.7828267384257843
  0
POINT
  5
135
100
AcDbEntity
  8
Defpoints
370
               0
390
0
 62
               0
100
AcDbPoint
 10
706.43349847384206
 20
1379.5540638164207
 30
0.0
  0
POINT
  5
136
100
AcDbEntity
  8
Defpoints
370
               0
390
0
 62
               0
100
AcDbPoint
 10
699.44721533991151
 20
1449.5540638164207
 30
0.0
  0
POINT
  5
137
100
AcDbEntity
  8
Defpoints
370
               0
390
0
 62
               0
100
AcDbPoint
 10
584.13547147995678
 20
1449.5540638164207
 30
0.0
  0
ENDBLK
  5
138
100
AcDbEntity
  8
notes
390
0
100
AcDbBlockEnd
  0
BLOCK
  5
139
100
AcDbEntity
  8
notes
390
0
100
AcDbBlockBegin
  2
*D19
 70
               1
 10
0.0
 20
0.0
 30
0.0
  3
*D19
  1

  0
LINE
  5
13A
100
AcDbEntity
  8
0
370
              -2
390
0
  6
Continuous
 62
               0
100
AcDbLine
 10
-773.4999777044377
 20
-1402.5000022887978
 30
0.0
 11
-773.4999777044377
 21
-1465.0000022887978
 31
0.0
  0
LINE
  5
13B
100
AcDbEntity
  8
0
370
              -2
390
0
  6
Continuous
 62
               0
100
AcDbLine
 10
-903.49997770443724
 20
-1399.5000022887978
 30
0.0
 11
-903.49997770443724
 21
-1465.0000022887978
 31
0.0
  0
LINE
  5
13C
100
AcDbEntity
  8
0
370
              -2
390
0
  6
Continuous
 62
               0
100
AcDbLine
 10
-773.4999777044377
 20
-1465.0000022887978
 30
0.0
 11
-903.49997770443724
 21
-1465.0000022887978
 31
0.0
  0
CIRCLE
  5
13D
102
{ACAD_REACTORS
330
13E
102
}
100
AcDbEntity
  8
0
370
              -2
390
0
  6
Continuous
 62
               0
100
AcDbCircle
 10
-773.4999777044377
 20
-1465.0000022887978
 30
0.0
 40
2.99981689453125
  0
HATCH
  5
13E
100
AcDbEntity
  8
0
370
              -2
390
0
  6
Continuous
 62
               0
100
AcDbHatch
 10
0.0
 20
0.0
 30
0.0
210
0.0
220
0.0
230
1.0
  2
SOLID
 70
               1
 71
               1
 91
        1
 92
        1
 93
        1
 72
               2
 10
-773.4999777044377
 20
-1465.0000022887978
 40
2.99981689453125
 50
0.0
 51
360.0
 73
               0
 97
        1
330
13D
 75
               0
 76
               1
 98
        1
 10
0.0
 20
0.0
  0
CIRCLE
  5
13F
102
{ACAD_REACTORS
330
140
102
}
100
AcDbEntity
  8
0
370
              -2
390
0
  6
Continuous
 62
               0
100
AcDbCircle
 10
-903.49997770443724
 20
-1465.0000022887978
 30
0.0
 40
2.99981689453125
  0
HATCH
  5
140
100
AcDbEntity
  8
0
370
              -2
390
0
  6
Continuous
 62
               0
100
AcDbHatch
 10
0.0
 20
0.0
 30
0.0
210
0.0
220
0.0
230
1.0
  2
SOLID
 70
               1
 71
               1
 91
        1
 92
        1
 93
        1
 72
               2
 10
-903.49997770443724
 20
-1465.0000022887978
 40
2.99981689453125
 50
0.0
 51
360.0
 73
               0
 97
        1
330
13F
 75
               0
 76
               1
 98
        1
 10
0.0
 20
0.0
  0
MTEXT
  5
141
100
AcDbEntity
  8
0
390
0
 62
               0
100
AcDbMText
 10
-874.2187302277008
 20
-1414.1835765075477
 30
0.0
 40
36.64892578125
 41
0.0
 71
               1
 72
               1
  1
130
  7
ＭＳ ゴシック
 73
               1
 44
0.7828267384257843
  0
POINT
  5
142
100
AcDbEntity
  8
Defpoints
370
               0
390
0
 62
               0
100
AcDbPoint
 10
-903.49997770443724
 20
-1362.0000022887978
 30
0.0
  0
POINT
  5
143
100
AcDbEntity
  8
Defpoints
370
               0
390
0
 62
               0
100
AcDbPoint
 10
-773.4999777044377
 20
-1365.0000022887978
 30
0.0
  0
POINT
  5
144
100
AcDbEntity
  8
Defpoints
370
               0
390
0
 62
               0
100
AcDbPoint
 10
-773.4999777044377
 20
-1465.0000022887978
 30
0.0
  0
ENDBLK
  5
145
100
AcDbEntity
  8
notes
390
0
100
AcDbBlockEnd
  0
BLOCK
  5
146
100
AcDbEntity
  8
notes
390
0
100
AcDbBlockBegin
  2
*D20
 70
               1
 10
0.0
 20
0.0
 30
0.0
  3
*D20
  1

  0
LINE
  5
147
100
AcDbEntity
  8
0
370
              -2
390
0
  6
Continuous
 62
               0
100
AcDbLine
 10
-773.4999777044377
 20
-1440.0000022887978
 30
0.0
 11
-773.4999777044377
 21
-1465.0000022887978
 31
0.0
  0
LINE
  5
148
100
AcDbEntity
  8
0
370
              -2
390
0
  6
Continuous
 62
               0
100
AcDbLine
 10
-473.4999777044377
 20
-1402.5000022887978
 30
0.0
 11
-473.4999777044377
 21
-1465.0000022887978
 31
0.0
  0
LINE
  5
149
100
AcDbEntity
  8
0
370
              -2
390
0
  6
Continuous
 62
               0
100
AcDbLine
 10
-773.4999777044377
 20
-1465.0000022887978
 30
0.0
 11
-473.4999777044377
 21
-1465.0000022887978
 31
0.0
  0
CIRCLE
  5
14A
102
{ACAD_REACTORS
330
14B
102
}
100
AcDbEntity
  8
0
370
              -2
390
0
  6
Continuous
 62
               0
100
AcDbCircle
 10
-773.4999777044377
 20
-1465.0000022887978
 30
0.0
 40
2.99981689453125
  0
HATCH
  5
14B
100
AcDbEntity
  8
0
370
              -2
390
0
  6
Continuous
 62
               0
100
AcDbHatch
 10
0.0
 20
0.0
 30
0.0
210
0.0
220
0.0
230
1.0
  2
SOLID
 70
               1
 71
               1
 91
        1
 92
        1
 93
        1
 72
               2
 10
-773.4999777044377
 20
-1465.0000022887978
 40
2.99981689453125
 50
0.0
 51
360.0
 73
               0
 97
        1
330
14A
 75
               0
 76
               1
 98
        1
 10
0.0
 20
0.0
  0
CIRCLE
  5
14C
102
{ACAD_REACTORS
330
14D
102
}
100
AcDbEntity
  8
0
370
              -2
390
0
  6
Continuous
 62
               0
100
AcDbCircle
 10
-473.4999777044377
 20
-1465.0000022887978
 30
0.0
 40
2.99981689453125
  0
HATCH
  5
14D
100
AcDbEntity
  8
0
370
              -2
390
0
  6
Continuous
 62
               0
100
AcDbHatch
 10
0.0
 20
0.0
 30
0.0
210
0.0
220
0.0
230
1.0
  2
SOLID
 70
               1
 71
               1
 91
        1
 92
        1
 93
        1
 72
               2
 10
-473.4999777044377
 20
-1465.0000022887978
 40
2.99981689453125
 50
0.0
 51
360.0
 73
               0
 97
        1
330
14C
 75
               0
 76
               1
 98
        1
 10
0.0
 20
0.0
  0
MTEXT
  5
14E
100
AcDbEntity
  8
0
390
0
 62
               0
100
AcDbMText
 10
-659.21873022770103
 20
-1414.1835765075477
 30
0.0
 40
36.64892578125
 41
0.0
 71
               1
 72
               1
  1
300
  7
ＭＳ ゴシック
 73
               1
 44
0.7828267384257843
  0
POINT
  5
14F
100
AcDbEntity
  8
Defpoints
370
               0
390
0
 62
               0
100
AcDbPoint
 10
-473.4999777044377
 20
-1365.0000022887978
 30
0.0
  0
POINT
  5
150
100
AcDbEntity
  8
Defpoints
370
               0
390
0
 62
               0
100
AcDbPoint
 10
-773.4999777044377
 20
-1402.5000022887978
 30
0.0
  0
POINT
  5
151
100
AcDbEntity
  8
Defpoints
370
               0
390
0
 62
               0
100
AcDbPoint
 10
-773.4999777044377
 20
-1465.0000022887978
 30
0.0
  0
ENDBLK
  5
152
100
AcDbEntity
  8
notes
390
0
100
AcDbBlockEnd
  0
BLOCK
  5
153
100
AcDbEntity
  8
notes
390
0
100
AcDbBlockBegin
  2
*D21
 70
               1
 10
0.0
 20
0.0
 30
0.0
  3
*D21
  1

  0
LINE
  5
154
100
AcDbEntity
  8
0
370
              -2
390
0
  6
Continuous
 62
               0
100
AcDbLine
 10
-396.00002229556821
 20
-1290.0000022887978
 30
0.0
 11
-260.0
 21
-1290.0000022887978
 31
0.0
  0
LINE
  5
155
100
AcDbEntity
  8
0
370
              -2
390
0
  6
Continuous
 62
               0
100
AcDbLine
 10
-396.00002229556821
 20
-190.00000228879765
 30
0.0
 11
-260.0
 21
-190.00000228879765
 31
0.0
  0
LINE
  5
156
100
AcDbEntity
  8
0
370
              -2
390
0
  6
Continuous
 62
               0
100
AcDbLine
 10
-260.0
 20
-1290.0000022887978
 30
0.0
 11
-260.0
 21
-190.00000228879765
 31
0.0
  0
CIRCLE
  5
157
102
{ACAD_REACTORS
330
158
102
}
100
AcDbEntity
  8
0
370
              -2
390
0
  6
Continuous
 62
               0
100
AcDbCircle
 10
-260.0
 20
-1290.0000022887978
 30
0.0
 40
2.99981689453125
  0
HATCH
  5
158
100
AcDbEntity
  8
0
370
              -2
390
0
  6
Continuous
 62
               0
100
AcDbHatch
 10
0.0
 20
0.0
 30
0.0
210
0.0
220
0.0
230
1.0
  2
SOLID
 70
               1
 71
               1
 91
        1
 92
        1
 93
        1
 72
               2
 10
-260.0
 20
-1290.0000022887978
 40
2.99981689453125
 50
0.0
 51
360.0
 73
               0
 97
        1
330
157
 75
               0
 76
               1
 98
        1
 10
0.0
 20
0.0
  0
CIRCLE
  5
159
102
{ACAD_REACTORS
330
15A
102
}
100
AcDbEntity
  8
0
370
              -2
390
0
  6
Continuous
 62
               0
100
AcDbCircle
 10
-260.0
 20
-190.00000228879765
 30
0.0
 40
2.99981689453125
  0
HATCH
  5
15A
100
AcDbEntity
  8
0
370
              -2
390
0
  6
Continuous
 62
               0
100
AcDbHatch
 10
0.0
 20
0.0
 30
0.0
210
0.0
220
0.0
230
1.0
  2
SOLID
 70
               1
 71
               1
 91
        1
 92
        1
 93
        1
 72
               2
 10
-260.0
 20
-190.00000228879765
 40
2.99981689453125
 50
0.0
 51
360.0
 73
               0
 97
        1
330
159
 75
               0
 76
               1
 98
        1
 10
0.0
 20
0.0
  0
MTEXT
  5
15B
100
AcDbEntity
  8
0
390
0
 62
               0
100
AcDbMText
 10
-310.81642578125002
 20
-787.62500228879776
 30
0.0
 40
36.64892578125
 41
0.0
 71
               1
 72
               1
  1
1100
  7
ＭＳ ゴシック
 11
0.0
 21
1.0
 31
0.0
 73
               1
 44
0.7828267384257843
  0
POINT
  5
15C
100
AcDbEntity
  8
Defpoints
370
               0
390
0
 62
               0
100
AcDbPoint
 10
-433.50002229556821
 20
-190.00000228879765
 30
0.0
  0
POINT
  5
15D
100
AcDbEntity
  8
Defpoints
370
               0
390
0
 62
               0
100
AcDbPoint
 10
-433.50002229556821
 20
-1290.0000022887978
 30
0.0
  0
POINT
  5
15E
100
AcDbEntity
  8
Defpoints
370
               0
390
0
 62
               0
100
AcDbPoint
 10
-260.0
 20
-1290.0000022887978
 30
0.0
  0
ENDBLK
  5
15F
100
AcDbEntity
  8
notes
390
0
100
AcDbBlockEnd
  0
BLOCK
  5
160
100
AcDbEntity
  8
notes
390
0
100
AcDbBlockBegin
  2
*D22
 70
               1
 10
0.0
 20
0.0
 30
0.0
  3
*D22
  1

  0
LINE
  5
161
100
AcDbEntity
  8
0
370
              -2
390
0
  6
Continuous
 62
               0
100
AcDbLine
 10
766.44500548952783
 20
950.08310034735268
 30
0.0
 11
766.44500548952783
 21
898.4453077141734
 31
0.0
  0
LINE
  5
162
100
AcDbEntity
  8
0
370
              -2
390
0
  6
Continuous
 62
               0
100
AcDbLine
 10
696.44802563033136
 20
948.05410840754985
 30
0.0
 11
696.44802563033136
 21
898.4453077141734
 31
0.0
  0
LINE
  5
163
100
AcDbEntity
  8
0
370
              -2
390
0
  6
Continuous
 62
               0
100
AcDbLine
 10
766.44500548952783
 20
898.4453077141734
 30
0.0
 11
696.44802563033136
 21
898.4453077141734
 31
0.0
  0
CIRCLE
  5
164
102
{ACAD_REACTORS
330
165
102
}
100
AcDbEntity
  8
0
370
              -2
390
0
  6
Continuous
 62
               0
100
AcDbCircle
 10
766.44500548952783
 20
898.4453077141734
 30
0.0
 40
2.99981689453125
  0
HATCH
  5
165
100
AcDbEntity
  8
0
370
              -2
390
0
  6
Continuous
 62
               0
100
AcDbHatch
 10
0.0
 20
0.0
 30
0.0
210
0.0
220
0.0
230
1.0
  2
SOLID
 70
               1
 71
               1
 91
        1
 92
        1
 93
        1
 72
               2
 10
766.44500548952783
 20
898.4453077141734
 40
2.99981689453125
 50
0.0
 51
360.0
 73
               0
 97
        1
330
164
 75
               0
 76
               1
 98
        1
 10
0.0
 20
0.0
  0
CIRCLE
  5
166
102
{ACAD_REACTORS
330
167
102
}
100
AcDbEntity
  8
0
370
              -2
390
0
  6
Continuous
 62
               0
100
AcDbCircle
 10
696.44802563033136
 20
898.4453077141734
 30
0.0
 40
2.99981689453125
  0
HATCH
  5
167
100
AcDbEntity
  8
0
370
              -2
390
0
  6
Continuous
 62
               0
100
AcDbHatch
 10
0.0
 20
0.0
 30
0.0
210
0.0
220
0.0
230
1.0
  2
SOLID
 70
               1
 71
               1
 91
        1
 92
        1
 93
        1
 72
               2
 10
696.44802563033136
 20
898.4453077141734
 40
2.99981689453125
 50
0.0
 51
360.0
 73
               0
 97
        1
330
166
 75
               0
 76
               1
 98
        1
 10
0.0
 20
0.0
  0
MTEXT
  5
168
100
AcDbEntity
  8
0
390
0
 62
               0
100
AcDbMText
 10
707.63401555992959
 20
949.26173349542341
 30
0.0
 40
36.64892578125
 41
0.0
 71
               1
 72
               1
  1
70
  7
ＭＳ ゴシック
 73
               1
 44
0.7828267384257843
  0
POINT
  5
169
100
AcDbEntity
  8
Defpoints
370
               0
390
0
 62
               0
100
AcDbPoint
 10
696.44802563033136
 20
985.55410840754985
 30
0.0
  0
POINT
  5
16A
100
AcDbEntity
  8
Defpoints
370
               0
390
0
 62
               0
100
AcDbPoint
 10
766.44500548952783
 20
987.58310034735268
 30
0.0
  0
POINT
  5
16B
100
AcDbEntity
  8
Defpoints
370
               0
390
0
 62
               0
100
AcDbPoint
 10
766.44500548952783
 20
898.4453077141734
 30
0.0
  0
ENDBLK
  5
16C
100
AcDbEntity
  8
notes
390
0
100
AcDbBlockEnd
  0
BLOCK
  5
16D
100
AcDbEntity
  8
notes
390
0
100
AcDbBlockBegin
  2
*D23
 70
               1
 10
0.0
 20
0.0
 30
0.0
  3
*D23
  1

  0
LINE
  5
16E
100
AcDbEntity
  8
0
370
              -2
390
0
  6
Continuous
 62
               0
100
AcDbLine
 10
856.42352374531447
 20
1022.463018978458
 30
0.0
 11
856.42352374531447
 21
898.4453077141734
 31
0.0
  0
LINE
  5
16F
100
AcDbEntity
  8
0
370
              -2
390
0
  6
Continuous
 62
               0
100
AcDbLine
 10
766.44500548952783
 20
912.58310034735268
 30
0.0
 11
766.44500548952783
 21
898.4453077141734
 31
0.0
  0
LINE
  5
170
100
AcDbEntity
  8
0
370
              -2
390
0
  6
Continuous
 62
               0
100
AcDbLine
 10
856.42352374531447
 20
898.4453077141734
 30
0.0
 11
766.44500548952783
 21
898.4453077141734
 31
0.0
  0
CIRCLE
  5
171
102
{ACAD_REACTORS
330
172
102
}
100
AcDbEntity
  8
0
370
              -2
390
0
  6
Continuous
 62
               0
100
AcDbCircle
 10
856.42352374531447
 20
898.4453077141734
 30
0.0
 40
2.99981689453125
  0
HATCH
  5
172
100
AcDbEntity
  8
0
370
              -2
390
0
  6
Continuous
 62
               0
100
AcDbHatch
 10
0.0
 20
0.0
 30
0.0
210
0.0
220
0.0
230
1.0
  2
SOLID
 70
               1
 71
               1
 91
        1
 92
        1
 93
        1
 72
               2
 10
856.42352374531447
 20
898.4453077141734
 40
2.99981689453125
 50
0.0
 51
360.0
 73
               0
 97
        1
330
171
 75
               0
 76
               1
 98
        1
 10
0.0
 20
0.0
  0
CIRCLE
  5
173
102
{ACAD_REACTORS
330
174
102
}
100
AcDbEntity
  8
0
370
              -2
390
0
  6
Continuous
 62
               0
100
AcDbCircle
 10
766.44500548952783
 20
898.4453077141734
 30
0.0
 40
2.99981689453125
  0
HATCH
  5
174
100
AcDbEntity
  8
0
370
              -2
390
0
  6
Continuous
 62
               0
100
AcDbHatch
 10
0.0
 20
0.0
 30
0.0
210
0.0
220
0.0
230
1.0
  2
SOLID
 70
               1
 71
               1
 91
        1
 92
        1
 93
        1
 72
               2
 10
766.44500548952783
 20
898.4453077141734
 40
2.99981689453125
 50
0.0
 51
360.0
 73
               0
 97
        1
330
173
 75
               0
 76
               1
 98
        1
 10
0.0
 20
0.0
  0
MTEXT
  5
175
100
AcDbEntity
  8
0
390
0
 62
               0
100
AcDbMText
 10
787.62176461742115
 20
949.26173349542341
 30
0.0
 40
36.64892578125
 41
0.0
 71
               1
 72
               1
  1
90
  7
ＭＳ ゴシック
 73
               1
 44
0.7828267384257843
  0
POINT
  5
176
100
AcDbEntity
  8
Defpoints
370
               0
390
0
 62
               0
100
AcDbPoint
 10
766.44500548952783
 20
950.08310034735268
 30
0.0
  0
POINT
  5
177
100
AcDbEntity
  8
Defpoints
370
               0
390
0
 62
               0
100
AcDbPoint
 10
856.42352374531447
 20
1059.963018978458
 30
0.0
  0
POINT
  5
178
100
AcDbEntity
  8
Defpoints
370
               0
390
0
 62
               0
100
AcDbPoint
 10
856.42352374531447
 20
898.4453077141734
 30
0.0
  0
ENDBLK
  5
179
100
AcDbEntity
  8
notes
390
0
100
AcDbBlockEnd
  0
BLOCK
  5
17A
100
AcDbEntity
  8
notes
390
0
100
AcDbBlockBegin
  2
*D24
 70
               1
 10
0.0
 20
0.0
 30
0.0
  3
*D24
  1

  0
LINE
  5
17B
100
AcDbEntity
  8
0
370
              -2
390
0
  6
Continuous
 62
               0
100
AcDbLine
 10
871.42741032933418
 20
1153.8605435383097
 30
0.0
 11
871.42741032933418
 21
898.4453077141734
 31
0.0
  0
LINE
  5
17C
100
AcDbEntity
  8
0
370
              -2
390
0
  6
Continuous
 62
               0
100
AcDbLine
 10
856.42741032933418
 20
1022.4630189784571
 30
0.0
 11
856.42741032933418
 21
898.4453077141734
 31
0.0
  0
LINE
  5
17D
100
AcDbEntity
  8
0
370
              -2
390
0
  6
Continuous
 62
               0
100
AcDbLine
 10
871.42741032933418
 20
898.4453077141734
 30
0.0
 11
934.76047147995678
 21
898.4453077141734
 31
0.0
  0
LINE
  5
17E
100
AcDbEntity
  8
0
370
              -2
390
0
  6
Continuous
 62
               0
100
AcDbLine
 10
871.42741032933418
 20
898.4453077141734
 30
0.0
 11
856.42741032933418
 21
898.4453077141734
 31
0.0
  0
CIRCLE
  5
17F
102
{ACAD_REACTORS
330
180
102
}
100
AcDbEntity
  8
0
370
              -2
390
0
  6
Continuous
 62
               0
100
AcDbCircle
 10
871.42741032933418
 20
898.4453077141734
 30
0.0
 40
2.99981689453125
  0
HATCH
  5
180
100
AcDbEntity
  8
0
370
              -2
390
0
  6
Continuous
 62
               0
100
AcDbHatch
 10
0.0
 20
0.0
 30
0.0
210
0.0
220
0.0
230
1.0
  2
SOLID
 70
               1
 71
               1
 91
        1
 92
        1
 93
        1
 72
               2
 10
871.42741032933418
 20
898.4453077141734
 40
2.99981689453125
 50
0.0
 51
360.0
 73
               0
 97
        1
330
17F
 75
               0
 76
               1
 98
        1
 10
0.0
 20
0.0
  0
CIRCLE
  5
181
102
{ACAD_REACTORS
330
182
102
}
100
AcDbEntity
  8
0
370
              -2
390
0
  6
Continuous
 62
               0
100
AcDbCircle
 10
856.42741032933418
 20
898.4453077141734
 30
0.0
 40
2.99981689453125
  0
HATCH
  5
182
100
AcDbEntity
  8
0
370
              -2
390
0
  6
Continuous
 62
               0
100
AcDbHatch
 10
0.0
 20
0.0
 30
0.0
210
0.0
220
0.0
230
1.0
  2
SOLID
 70
               1
 71
               1
 91
        1
 92
        1
 93
        1
 72
               2
 10
856.42741032933418
 20
898.4453077141734
 40
2.99981689453125
 50
0.0
 51
360.0
 73
               0
 97
        1
330
181
 75
               0
 76
               1
 98
        1
 10
0.0
 20
0.0
  0
MTEXT
  5
183
100
AcDbEntity
  8
0
390
0
 62
               0
100
AcDbMText
 10
887.13547147995678
 20
949.26173349542341
 30
0.0
 40
36.64892578125
 41
0.0
 71
               1
 72
               1
  1
15
  7
ＭＳ ゴシック
 73
               1
 44
0.7828267384257843
  0
POINT
  5
184
100
AcDbEntity
  8
Defpoints
370
               0
390
0
 62
               0
100
AcDbPoint
 10
856.42741032933418
 20
1059.9630189784571
 30
0.0
  0
POINT
  5
185
100
AcDbEntity
  8
Defpoints
370
               0
390
0
 62
               0
100
AcDbPoint
 10
871.42741032933418
 20
1191.3605435383097
 30
0.0
  0
POINT
  5
186
100
AcDbEntity
  8
Defpoints
370
               0
390
0
 62
               0
100
AcDbPoint
 10
871.42741032933418
 20
898.4453077141734
 30
0.0
  0
ENDBLK
  5
187
100
AcDbEntity
  8
notes
390
0
100
AcDbBlockEnd
  0
BLOCK
  5
188
100
AcDbEntity
  8
notes
390
0
100
AcDbBlockBegin
  2
*D25
 70
               1
 10
0.0
 20
0.0
 30
0.0
  3
*D25
  1

  0
LINE
  5
189
100
AcDbEntity
  8
0
370
              -2
390
0
  6
Continuous
 62
               0
100
AcDbLine
 10
696.44721533991151
 20
1247.3361474382677
 30
0.0
 11
696.44721533991151
 21
1221.2820836218471
 31
0.0
  0
LINE
  5
18A
100
AcDbEntity
  8
0
370
              -2
390
0
  6
Continuous
 62
               0
100
AcDbLine
 10
821.44721533991151
 20
1247.3361474382677
 30
0.0
 11
821.44721533991151
 21
1221.2820836218471
 31
0.0
  0
LINE
  5
18B
100
AcDbEntity
  8
0
370
              -2
390
0
  6
Continuous
 62
               0
100
AcDbLine
 10
696.44721533991151
 20
1221.2820836218471
 30
0.0
 11
454.74179131236838
 21
1221.2820836218471
 31
0.0
  0
LINE
  5
18C
100
AcDbEntity
  8
0
370
              -2
390
0
  6
Continuous
 62
               0
100
AcDbLine
 10
696.44721533991151
 20
1221.2820836218471
 30
0.0
 11
821.44721533991151
 21
1221.2820836218471
 31
0.0
  0
CIRCLE
  5
18D
102
{ACAD_REACTORS
330
18E
102
}
100
AcDbEntity
  8
0
370
              -2
390
0
  6
Continuous
 62
               0
100
AcDbCircle
 10
696.44721533991151
 20
1221.2820836218471
 30
0.0
 40
2.99981689453125
  0
HATCH
  5
18E
100
AcDbEntity
  8
0
370
              -2
390
0
  6
Continuous
 62
               0
100
AcDbHatch
 10
0.0
 20
0.0
 30
0.0
210
0.0
220
0.0
230
1.0
  2
SOLID
 70
               1
 71
               1
 91
        1
 92
        1
 93
        1
 72
               2
 10
696.44721533991151
 20
1221.2820836218471
 40
2.99981689453125
 50
0.0
 51
360.0
 73
               0
 97
        1
330
18D
 75
               0
 76
               1
 98
        1
 10
0.0
 20
0.0
  0
CIRCLE
  5
18F
102
{ACAD_REACTORS
330
190
102
}
100
AcDbEntity
  8
0
370
              -2
390
0
  6
Continuous
 62
               0
100
AcDbCircle
 10
821.44721533991151
 20
1221.2820836218471
 30
0.0
 40
2.99981689453125
  0
HATCH
  5
190
100
AcDbEntity
  8
0
370
              -2
390
0
  6
Continuous
 62
               0
100
AcDbHatch
 10
0.0
 20
0.0
 30
0.0
210
0.0
220
0.0
230
1.0
  2
SOLID
 70
               1
 71
               1
 91
        1
 92
        1
 93
        1
 72
               2
 10
821.44721533991151
 20
1221.2820836218471
 40
2.99981689453125
 50
0.0
 51
360.0
 73
               0
 97
        1
330
18F
 75
               0
 76
               1
 98
        1
 10
0.0
 20
0.0
  0
MTEXT
  5
191
100
AcDbEntity
  8
0
390
0
 62
               0
100
AcDbMText
 10
454.74179131236838
 20
1272.0985094030971
 30
0.0
 40
36.64892578125
 41
0.0
 71
               1
 72
               1
  1
125(深さ)
  7
ＭＳ ゴシック
 73
               1
 44
0.7828267384257843
  0
POINT
  5
192
100
AcDbEntity
  8
Defpoints
370
               0
390
0
 62
               0
100
AcDbPoint
 10
821.44721533991151
 20
1209.8361474382677
 30
0.0
  0
POINT
  5
193
100
AcDbEntity
  8
Defpoints
370
               0
390
0
 62
               0
100
AcDbPoint
 10
696.44721533991151
 20
1209.8361474382677
 30
0.0
  0
POINT
  5
194
100
AcDbEntity
  8
Defpoints
370
               0
390
0
 62
               0
100
AcDbPoint
 10
696.44721533991151
 20
1221.2820836218471
 30
0.0
  0
ENDBLK
  5
195
100
AcDbEntity
  8
notes
390
0
100
AcDbBlockEnd
  0
BLOCK
  5
196
100
AcDbEntity
  8
notes
390
0
100
AcDbBlockBegin
  2
*D26
 70
               1
 10
0.0
 20
0.0
 30
0.0
  3
*D26
  1

  0
LINE
  5
197
100
AcDbEntity
  8
0
370
              -2
390
0
  6
Continuous
 62
               0
100
AcDbLine
 10
-383.33126431831852
 20
-250.00000000000387
 30
0.0
 11
-336.0
 21
-250.00000000000387
 31
0.0
  0
LINE
  5
198
100
AcDbEntity
  8
0
370
              -2
390
0
  6
Continuous
 62
               0
100
AcDbLine
 10
-383.33126431831852
 20
-1230.0000000000039
 30
0.0
 11
-336.0
 21
-1230.0000000000039
 31
0.0
  0
LINE
  5
199
100
AcDbEntity
  8
0
370
              -2
390
0
  6
Continuous
 62
               0
100
AcDbLine
 10
-336.0
 20
-250.00000000000387
 30
0.0
 11
-336.0
 21
-1230.0000000000039
 31
0.0
  0
CIRCLE
  5
19A
102
{ACAD_REACTORS
330
19B
102
}
100
AcDbEntity
  8
0
370
              -2
390
0
  6
Continuous
 62
               0
100
AcDbCircle
 10
-336.0
 20
-250.00000000000387
 30
0.0
 40
2.99981689453125
  0
HATCH
  5
19B
100
AcDbEntity
  8
0
370
              -2
390
0
  6
Continuous
 62
               0
100
AcDbHatch
 10
0.0
 20
0.0
 30
0.0
210
0.0
220
0.0
230
1.0
  2
SOLID
 70
               1
 71
               1
 91
        1
 92
        1
 93
        1
 72
               2
 10
-336.0
 20
-250.00000000000387
 40
2.99981689453125
 50
0.0
 51
360.0
 73
               0
 97
        1
330
19A
 75
               0
 76
               1
 98
        1
 10
0.0
 20
0.0
  0
CIRCLE
  5
19C
102
{ACAD_REACTORS
330
19D
102
}
100
AcDbEntity
  8
0
370
              -2
390
0
  6
Continuous
 62
               0
100
AcDbCircle
 10
-336.0
 20
-1230.0000000000039
 30
0.0
 40
2.99981689453125
  0
HATCH
  5
19D
100
AcDbEntity
  8
0
370
              -2
390
0
  6
Continuous
 62
               0
100
AcDbHatch
 10
0.0
 20
0.0
 30
0.0
210
0.0
220
0.0
230
1.0
  2
SOLID
 70
               1
 71
               1
 91
        1
 92
        1
 93
        1
 72
               2
 10
-336.0
 20
-1230.0000000000039
 40
2.99981689453125
 50
0.0
 51
360.0
 73
               0
 97
        1
330
19C
 75
               0
 76
               1
 98
        1
 10
0.0
 20
0.0
  0
MTEXT
  5
19E
100
AcDbEntity
  8
0
390
0
 62
               0
100
AcDbMText
 10
-386.81642578125002
 20
-775.7187525232672
 30
0.0
 40
36.64892578125
 41
0.0
 71
               1
 72
               1
  1
980
  7
ＭＳ ゴシック
 11
0.0
 21
1.0
 31
0.0
 73
               1
 44
0.7828267384257843
  0
POINT
  5
19F
100
AcDbEntity
  8
Defpoints
370
               0
390
0
 62
               0
100
AcDbPoint
 10
-420.83126431831852
 20
-1230.0000000000039
 30
0.0
  0
POINT
  5
1A0
100
AcDbEntity
  8
Defpoints
370
               0
390
0
 62
               0
100
AcDbPoint
 10
-420.83126431831852
 20
-250.00000000000387
 30
0.0
  0
POINT
  5
1A1
100
AcDbEntity
  8
Defpoints
370
               0
390
0
 62
               0
100
AcDbPoint
 10
-336.0
 20
-250.00000000000387
 30
0.0
  0
ENDBLK
  5
1A2
100
AcDbEntity
  8
notes
390
0
100
AcDbBlockEnd
  0
ENDSEC
  0
SECTION
  2
ENTITIES
  0
MTEXT
  5
1A3
100
AcDbEntity
  8
template
390
0
 62
               7
100
AcDbMText
 10
-1451.9999999996389
 20
-1721.1264438505505
 30
0.0
 40
24.432617187500004
 41
0.0
 71
               1
 72
               1
  1
品名
  7
ＭＳ ゴシック
 73
               1
 44
0.7828267384257843
  0
MTEXT
  5
1A4
100
AcDbEntity
  8
template
390
0
 62
               7
100
AcDbMText
 10
-1451.9999999996389
 20
-1848.6264438505505
 30
0.0
 40
24.432617187500004
 41
0.0
 71
               1
 72
               1
  1
仕様
  7
ＭＳ ゴシック
 73
               1
 44
0.7828267384257843
  0
MTEXT
  5
1A5
100
AcDbEntity
  8
template
390
0
 62
               7
100
AcDbMText
 10
-1372.4999999996389
 20
-1764.0001352568006
 30
0.0
 40
36.64892578125
 41
0.0
 71
               1
 72
               1
  1
洗面器　-CATALANO,Proiezioni-
  7
ＭＳ ゴシック
 73
               1
 44
0.7828267384257843
  0
LINE
  5
1A6
100
AcDbEntity
  8
template
370
               5
390
0
  6
Continuous
 62
               7
100
AcDbLine
 10
1462.499999999638
 20
-1836.0040610380506
 30
0.0
 11
-1462.500000000362
 21
-1836.0040610380506
 31
0.0
  0
LWPOLYLINE
  5
1A7
100
AcDbEntity
  8
template
370
               5
390
0
  6
Continuous
 62
               7
100
AcDbPolyline
 90
        5
 70
             128
 10
1462.500000000362
 20
2108.9959389619494
 10
-1462.4999999996389
 20
2108.9959389619494
 10
-1462.4999999996389
 20
-2091.0040610380506
 10
1462.500000000362
 20
-2091.0040610380506
 10
1462.500000000362
 20
2108.9959389619494
  0
LINE
  5
1A8
100
AcDbEntity
  8
template
370
               5
390
0
  6
Continuous
 62
               7
100
AcDbLine
 10
1462.499999999638
 20
-1708.5040610380506
 30
0.0
 11
-1462.500000000362
 21
-1708.5040610380506
 31
0.0
  0
LINE
  5
1A9
100
AcDbEntity
  8
template
370
               5
390
0
  6
Continuous
 62
               7
100
AcDbLine
 10
1462.500000000362
 20
-1963.5040610380506
 30
0.0
 11
333.00000000036198
 21
-1963.5040610380506
 31
0.0
  0
MTEXT
  5
1AA
100
AcDbEntity
  8
template
390
0
 62
               7
100
AcDbMText
 10
-1462.4999999993338
 20
-2108.7847941233358
 30
0.0
 40
32.576822916666664
 41
0.0
 71
               1
 72
               1
  1
120305SH
  7
ＭＳ ゴシック
 73
               1
 44
0.7828267384257843
  0
MTEXT
  5
1AB
100
AcDbEntity
  8
template
390
0
 62
               7
100
AcDbMText
 10
377.80710937875119
 20
-2008.369652748012
 30
0.0
 40
36.64892578125
 41
0.0
 71
               1
 72
               1
  1
大洋金物株式会社 ティーフォルム事業部
  7
ＭＳ ゴシック
 73
               1
 44
0.7828267384257843
  0
INSERT
  5
1AC
100
AcDbEntity
  8
template
390
0
 62
               7
100
AcDbBlockReference
  2
グループ
 10
-762.06856852367446
 20
-975.70821382375334
 30
0.0
  0
MTEXT
  5
1AD
100
AcDbEntity
  8
template
390
0
 62
               7
100
AcDbMText
 10
1176.0000000007499
 20
-1891.5001352568006
 30
0.0
 40
36.64892578125
 41
0.0
 71
               1
 72
               1
  1
1:15
  7
ＭＳ ゴシック
 73
               1
 44
0.7828267384257843
  0
MTEXT
  5
1AE
100
AcDbEntity
  8
template
390
0
 62
               7
100
AcDbMText
 10
1096.5000000007499
 20
-1848.6264438505505
 30
0.0
 40
24.432617187500004
 41
0.0
 71
               1
 72
               1
  1
縮尺
  7
ＭＳ ゴシック
 73
               1
 44
0.7828267384257843
  0
LINE
  5
1AF
100
AcDbEntity
  8
template
370
               5
390
0
  6
Continuous
 62
               7
100
AcDbLine
 10
1086.0000000007499
 20
-1963.5040610380506
 30
0.0
 11
1086.0000000007499
 21
-1836.0040610380506
 31
0.0
  0
MTEXT
  5
1B0
100
AcDbEntity
  8
template
390
0
 62
               7
100
AcDbMText
 10
720.00000000074988
 20
-1848.6264438505505
 30
0.0
 40
24.432617187500004
 41
0.0
 71
               1
 72
               1
  1
容量
  7
ＭＳ ゴシック
 73
               1
 44
0.7828267384257843
  0
LINE
  5
1B1
100
AcDbEntity
  8
template
370
               5
390
0
  6
Continuous
 62
               7
100
AcDbLine
 10
709.50000000074988
 20
-1963.5040610380506
 30
0.0
 11
709.50000000074988
 21
-1836.0040610380506
 31
0.0
  0
MTEXT
  5
1B2
100
AcDbEntity
  8
template
390
0
 62
               7
100
AcDbMText
 10
343.50000000074988
 20
-1721.1264438505505
 30
0.0
 40
24.432617187500004
 41
0.0
 71
               1
 72
               1
  1
品番
  7
ＭＳ ゴシック
 73
               1
 44
0.7828267384257843
  0
MTEXT
  5
1B3
100
AcDbEntity
  8
template
390
0
 62
               7
100
AcDbMText
 10
343.50000000074988
 20
-1848.6264438505505
 30
0.0
 40
24.432617187500004
 41
0.0
 71
               1
 72
               1
  1
重量
  7
ＭＳ ゴシック
 73
               1
 44
0.7828267384257843
  0
MTEXT
  5
1B4
100
AcDbEntity
  8
template
390
0
 62
               7
100
AcDbMText
 10
423.00000000074988
 20
-1764.0001352568006
 30
0.0
 40
36.64892578125
 41
0.0
 71
               1
 72
               1
  1
ADF70-1709
  7
ＭＳ ゴシック
 73
               1
 44
0.7828267384257843
  0
LINE
  5
1B5
100
AcDbEntity
  8
template
370
               5
390
0
  6
Continuous
 62
               7
100
AcDbLine
 10
333.00000000074988
 20
-2091.0040610380506
 30
0.0
 11
333.00000000074988
 21
-1708.5040610380506
 31
0.0
  0
MTEXT
  5
1B6
100
AcDbEntity
  8
template
390
0
 62
               7
100
AcDbMText
 10
-1372.4999999996389
 20
-1891.50857421875
 30
0.0
 40
36.64892578125
 41
0.0
 71
               1
 72
               1
  1
壁掛け,半埋め込み/オーバーフロー付き/壁取付ボルト付属/\P陶器/ホワイト
  7
ＭＳ ゴシック
 73
               1
 44
1.3047112307096407
  0
MTEXT
  5
1B7
100
AcDbEntity
  8
template
390
0
 62
               7
100
AcDbMText
 10
800.07732162784646
 20
-1892.1507781926823
 30
0.0
 40
36.64892578125
 41
0.0
 71
               1
 72
               1
  1
15L
  7
ＭＳ ゴシック
 73
               1
 44
0.7828267384257843
  0
MTEXT
  5
1B8
100
AcDbEntity
  8
template
390
0
 62
               7
100
AcDbMText
 10
425.37884807333467
 20
-1891.703064283919
 30
0.0
 40
36.64892578125
 41
0.0
 71
               1
 72
               1
  1
35kg
  7
ＭＳ ゴシック
 73
               1
 44
0.7828267384257843
  0
DIMENSION
  5
1B9
100
AcDbEntity
  8
notes
370
               5
390
0
  6
Continuous
 62
               7
100
AcDbDimension
  2
*D4
 10
-1005.8586876941804
 20
-1021.5000022887978
 30
0.0
 11
-1005.8586876941804
 21
-931.50000228879776
 31
0.0
 71
               5
 72
               1
 41
1.0
 42
0.0
  3
TformSENN
100
AcDbAlignedDimension
 13
-900.85868769418039
 23
-841.50000228879776
 33
0.0
 14
-900.85868769418039
 24
-1021.5000022887978
 34
0.0
 50
90.0
100
AcDbRotatedDimension
1001
ACAD
1000
DSTYLE
1002
{
1070
             271
1070
               0
1070
             279
1070
               2
1070
             340
1005
3C
1070
             147
1040
7.5
1002
}
  0
DIMENSION
  5
1BA
100
AcDbEntity
  8
notes
370
               5
390
0
  6
Continuous
 62
               7
100
AcDbDimension
  2
*D5
 10
-1005.8586876941804
 20
-841.50000228879776
 30
0.0
 11
-1005.8586876941804
 21
-791.50000228879776
 31
0.0
 71
               5
 72
               1
 41
1.0
 42
0.0
  3
TformSENN
100
AcDbAlignedDimension
 13
-900.85868769418039
 23
-741.50000228879776
 33
0.0
 14
-900.85868769418039
 24
-841.50000228879776
 34
0.0
 50
90.0
100
AcDbRotatedDimension
1001
ACAD
1000
DSTYLE
1002
{
1070
             271
1070
               0
1070
             279
1070
               2
1070
             340
1005
3C
1070
             147
1040
7.5
1002
}
  0
DIMENSION
  5
1BB
100
AcDbEntity
  8
notes
370
               5
390
0
  6
Continuous
 62
               7
100
AcDbDimension
  2
*D6
 10
-1005.8586876941804
 20
-741.50000228879776
 30
0.0
 11
-1005.8586876941804
 21
-691.50000228879776
 31
0.0
 71
               5
 72
               1
 41
1.0
 42
0.0
  3
TformSENN
100
AcDbAlignedDimension
 13
-900.85868769418039
 23
-641.50000228879776
 33
0.0
 14
-900.85868769418039
 24
-741.50000228879776
 34
0.0
 50
90.0
100
AcDbRotatedDimension
1001
ACAD
1000
DSTYLE
1002
{
1070
             271
1070
               0
1070
             279
1070
               2
1070
             340
1005
3C
1070
             147
1040
7.5
1002
}
  0
DIMENSION
  5
1BC
100
AcDbEntity
  8
notes
370
               5
390
0
  6
Continuous
 62
               7
100
AcDbDimension
  2
*D7
 10
-1005.8586876941804
 20
-641.50000228879776
 30
0.0
 11
-1013.3586876941804
 21
-551.50000228879776
 31
0.0
 70
             128
 71
               5
 72
               1
 41
1.0
 42
0.0
  3
TformSENN
100
AcDbAlignedDimension
 13
-900.85868769418039
 23
-461.50000228879776
 33
0.0
 14
-905.85868769418039
 24
-641.50000228879776
 34
0.0
 50
90.0
100
AcDbRotatedDimension
1001
ACAD
1000
DSTYLE
1002
{
1070
             271
1070
               0
1070
             279
1070
               2
1070
             340
1005
3C
1070
             147
1040
7.5
1002
}
  0
DIMENSION
  5
1BD
100
AcDbEntity
  8
notes
370
               5
390
0
  6
Continuous
 62
               7
100
AcDbDimension
  2
*D8
 10
596.44762048512121
 20
-320.5071084927938
 30
0.0
 11
596.44762048512121
 21
-460.5071084927938
 31
0.0
 71
               5
 72
               1
 41
1.0
 42
0.0
  3
TformSENN
100
AcDbAlignedDimension
 13
716.44762048512212
 23
-600.5071084927938
 33
0.0
 14
716.44762048512212
 24
-320.5071084927938
 34
0.0
 50
90.0
100
AcDbRotatedDimension
1001
ACAD
1000
DSTYLE
1002
{
1070
             279
1070
               2
1070
             340
1005
3C
1070
             147
1040
7.5
1002
}
  0
DIMENSION
  5
1BE
100
AcDbEntity
  8
notes
370
               5
390
0
  6
Continuous
 62
               7
100
AcDbDimension
  2
*D9
 10
596.44762048512121
 20
-600.5071084927938
 30
0.0
 11
596.44762048512121
 21
-740.5071084927938
 31
0.0
 71
               5
 72
               1
 41
1.0
 42
0.0
  3
TformSENN
100
AcDbAlignedDimension
 13
716.44762048512212
 23
-880.5071084927938
 33
0.0
 14
716.44762048512212
 24
-600.5071084927938
 34
0.0
 50
90.0
100
AcDbRotatedDimension
1001
ACAD
1000
DSTYLE
1002
{
1070
             279
1070
               2
1070
             340
1005
3C
1070
             147
1040
7.5
1002
}
  0
DIMENSION
  5
1BF
100
AcDbEntity
  8
notes
370
               5
390
0
  6
Continuous
 62
               7
100
AcDbDimension
  2
*D10
 10
596.44762048512121
 20
-880.5071084927938
 30
0.0
 11
596.44762048512121
 21
-1020.5071084927938
 31
0.0
 71
               5
 72
               1
 41
1.0
 42
0.0
  3
TformSENN
100
AcDbAlignedDimension
 13
716.44762048512212
 23
-1160.5071084927938
 33
0.0
 14
716.44762048512212
 24
-880.5071084927938
 34
0.0
 50
90.0
100
AcDbRotatedDimension
1001
ACAD
1000
DSTYLE
1002
{
1070
             279
1070
               2
1070
             340
1005
3C
1070
             147
1040
7.5
1002
}
  0
DIMENSION
  5
1C0
100
AcDbEntity
  8
notes
370
               5
390
0
  6
Continuous
 62
               7
100
AcDbDimension
  2
*D11
 10
-1130.0
 20
-115.00000228879765
 30
0.0
 11
-1130.0
 21
-740.00000228879765
 31
0.0
 71
               5
 72
               1
 41
1.0
 42
0.0
  3
TformSENN
100
AcDbAlignedDimension
 13
-897.49997770443542
 23
-1365.0000022887978
 33
0.0
 14
-897.49997770443542
 24
-115.00000228879765
 34
0.0
 50
90.0
100
AcDbRotatedDimension
1001
ACAD
1000
DSTYLE
1002
{
1070
             279
1070
               2
1070
             340
1005
3C
1070
             147
1040
7.5
1002
}
  0
DIMENSION
  5
1C1
100
AcDbEntity
  8
notes
370
               5
390
0
  6
Continuous
 62
               7
100
AcDbDimension
  2
*D12
 10
-903.49997770443542
 20
-14.968762179181908
 30
0.0
 11
-668.50000000000182
 21
-14.968762179181908
 31
0.0
 71
               5
 72
               1
 41
1.0
 42
0.0
  3
TformSENN
100
AcDbAlignedDimension
 13
-433.50002229556821
 23
-126.868762179182
 33
0.0
 14
-903.49997770443542
 24
-126.868762179182
 34
0.0
100
AcDbRotatedDimension
1001
ACAD
1000
DSTYLE
1002
{
1070
             279
1070
               2
1070
             340
1005
3C
1070
             147
1040
7.5
1002
}
  0
DIMENSION
  5
1C2
100
AcDbEntity
  8
notes
370
               5
390
0
  6
Continuous
 62
               7
100
AcDbDimension
  2
*D13
 10
954.31074586919794
 20
1449.5546064342707
 30
0.0
 11
954.31074586919794
 21
1334.5546064342711
 31
0.0
 71
               5
 72
               1
 41
1.0
 42
0.0
  3
TformSENN
100
AcDbAlignedDimension
 13
866.42741032933418
 23
1219.5546064342711
 33
0.0
 14
853.4343726699226
 24
1449.5546064342707
 34
0.0
 50
90.0
100
AcDbRotatedDimension
1001
ACAD
1000
DSTYLE
1002
{
1070
             279
1070
               2
1070
             340
1005
3C
1070
             147
1040
7.5
1002
}
  0
DIMENSION
  5
1C3
100
AcDbEntity
  8
notes
370
               5
390
0
  6
Continuous
 62
               7
100
AcDbDimension
  2
*D14
 10
736.44762048512166
 20
-1466.6875
 30
0.0
 11
666.0
 21
-1459.1875
 31
0.0
 70
             128
 71
               5
 72
               1
 41
1.0
 42
0.0
  3
TformSENN
100
AcDbAlignedDimension
 13
696.44762048511984
 23
-1359.0000022887968
 33
0.0
 14
736.44762048512166
 24
-1180.5071084927938
 34
0.0
100
AcDbRotatedDimension
1001
ACAD
1000
DSTYLE
1002
{
1070
             279
1070
               2
1070
             340
1005
3C
1070
             174
1070
               0
1070
             147
1040
7.5
1002
}
  0
DIMENSION
  5
1C4
100
AcDbEntity
  8
notes
370
               5
390
0
  6
Continuous
 62
               7
100
AcDbDimension
  2
*D15
 10
696.4476204851203
 20
53.0940442245128
 30
0.0
 11
776.44762048512416
 21
53.0940442245128
 31
0.0
 71
               5
 72
               1
 41
1.0
 42
0.0
  3
TformSENN
100
AcDbAlignedDimension
 13
856.44762048512803
 23
-172.17330401353649
 33
0.0
 14
696.4476204851203
 24
-120.99999771121122
 34
0.0
100
AcDbRotatedDimension
1001
ACAD
1000
DSTYLE
1002
{
1070
             279
1070
               2
1070
             340
1005
3C
1070
             147
1040
7.5
1002
}
  0
DIMENSION
  5
1C5
100
AcDbEntity
  8
notes
370
               5
390
0
  6
Continuous
 62
               7
100
AcDbDimension
  2
*D16
 10
-463.49997770443542
 20
1824.2408580105184
 30
0.0
 11
-683.49997770443542
 21
1824.2408580105184
 31
0.0
 71
               5
 72
               1
 41
1.0
 42
0.0
  3
TformSENN
100
AcDbAlignedDimension
 13
-903.49997770443542
 23
1687.7408580105148
 33
0.0
 14
-463.49997770443542
 24
1687.7408580105148
 34
0.0
100
AcDbRotatedDimension
1001
ACAD
1000
DSTYLE
1002
{
1070
             279
1070
               2
1070
             340
1005
3C
1070
             147
1040
7.5
1002
}
  0
DIMENSION
  5
1C6
100
AcDbEntity
  8
notes
370
               5
390
0
  6
Continuous
 62
               7
100
AcDbDimension
  2
*D17
 10
-333.50002229556912
 20
507.74085801051478
 30
0.0
 11
-333.50002229556912
 21
1097.7408580105148
 31
0.0
 71
               5
 72
               1
 41
1.0
 42
0.0
  3
TformSENN
100
AcDbAlignedDimension
 13
-463.49997770443542
 23
1687.7408580105148
 33
0.0
 14
-463.49997770443542
 24
507.74085801051478
 34
0.0
 50
90.0
100
AcDbRotatedDimension
1001
ACAD
1000
DSTYLE
1002
{
1070
             279
1070
               2
1070
             340
1005
3C
1070
             147
1040
7.5
1002
}
  0
DIMENSION
  5
1C7
100
AcDbEntity
  8
notes
370
               5
390
0
  6
Continuous
 62
               7
100
AcDbDimension
  2
*D18
 10
584.13547147995678
 20
1449.5540638164207
 30
0.0
 11
576.63547147995678
 21
1414.5540638164207
 31
0.0
 70
             128
 71
               5
 72
               1
 41
1.0
 42
0.0
  3
TformSENN
100
AcDbAlignedDimension
 13
706.43349847384206
 23
1379.5540638164207
 33
0.0
 14
699.44721533991151
 24
1449.5540638164207
 34
0.0
 50
90.0
100
AcDbRotatedDimension
1001
ACAD
1000
DSTYLE
1002
{
1070
             279
1070
               2
1070
             340
1005
3C
1070
             147
1040
7.5
1002
}
  0
DIMENSION
  5
1C8
100
AcDbEntity
  8
notes
370
               5
390
0
  6
Continuous
 62
               7
100
AcDbDimension
  2
*D19
 10
-773.4999777044377
 20
-1465.0000022887978
 30
0.0
 11
-838.49997770443747
 21
-1465.0000022887978
 31
0.0
 71
               5
 72
               1
 41
1.0
 42
0.0
  3
TformSENN
100
AcDbAlignedDimension
 13
-903.49997770443724
 23
-1362.0000022887978
 33
0.0
 14
-773.4999777044377
 24
-1365.0000022887978
 34
0.0
100
AcDbRotatedDimension
1001
ACAD
1000
DSTYLE
1002
{
1070
             279
1070
               2
1070
             340
1005
3C
1070
             147
1040
7.5
1002
}
  0
DIMENSION
  5
1C9
100
AcDbEntity
  8
notes
370
               5
390
0
  6
Continuous
 62
               7
100
AcDbDimension
  2
*D20
 10
-773.4999777044377
 20
-1465.0000022887978
 30
0.0
 11
-623.4999777044377
 21
-1465.0000022887978
 31
0.0
 71
               5
 72
               1
 41
1.0
 42
0.0
  3
TformSENN
100
AcDbAlignedDimension
 13
-473.4999777044377
 23
-1365.0000022887978
 33
0.0
 14
-773.4999777044377
 24
-1402.5000022887978
 34
0.0
100
AcDbRotatedDimension
1001
ACAD
1000
DSTYLE
1002
{
1070
             279
1070
               2
1070
             340
1005
3C
1070
             147
1040
7.5
1002
}
  0
DIMENSION
  5
1CA
100
AcDbEntity
  8
notes
370
               5
390
0
  6
Continuous
 62
               7
100
AcDbDimension
  2
*D21
 10
-260.0
 20
-1290.0000022887978
 30
0.0
 11
-260.0
 21
-740.00000228879776
 31
0.0
 71
               5
 72
               1
 41
1.0
 42
0.0
  3
TformSENN
100
AcDbAlignedDimension
 13
-433.50002229556821
 23
-190.00000228879765
 33
0.0
 14
-433.50002229556821
 24
-1290.0000022887978
 34
0.0
 50
90.0
100
AcDbRotatedDimension
1001
ACAD
1000
DSTYLE
1002
{
1070
             279
1070
               2
1070
             340
1005
3C
1070
             147
1040
7.5
1002
}
  0
MTEXT
  5
1CB
100
AcDbEntity
  8
notes
390
0
 62
               7
100
AcDbMText
 10
609.47978200763464
 20
-243.96139352776663
 30
0.0
 40
36.64892578125
 41
0.0
 71
               1
 72
               1
  1
壁取付ボルト穴(4ヶ所）
  7
ＭＳ ゴシック
 11
0.0
 21
1.0
 31
0.0
 73
               1
 44
0.7828267384257843
  0
LINE
  5
1CC
100
AcDbEntity
  8
notes
370
               5
390
0
  6
Continuous
 62
               7
100
AcDbLine
 10
737.48305746322922
 20
-319.20136246267543
 30
0.0
 11
640.14701570942452
 21
-221.86532070887017
 31
0.0
  0
MTEXT
  5
1CD
100
AcDbEntity
  8
notes
390
0
 62
               7
100
AcDbMText
 10
-136.75957726664535
 20
-1329.3042199333663
 30
0.0
 40
36.64892578125
 41
1295.0
 71
               1
 72
               1
  1
＝φ30もしくはφ35の水栓取付用穴あけ加工を承ります。\P   必要な場合、ご注文の際にご指示ください。
  7
ＭＳ ゴシック
 11
0.0
 21
1.0
 31
0.0
 73
               1
 44
1.1742401076386766
  0
CIRCLE
  5
1CE
100
AcDbEntity
  8
notes
370
               5
390
0
  6
STYLE_23
 62
               7
100
AcDbCircle
 10
-108.62689436455082
 20
-1375.7417199333629
 30
0.0
 40
16.003757120843147
  0
DIMENSION
  5
1CF
100
AcDbEntity
  8
notes
370
               5
390
0
  6
Continuous
 62
               7
100
AcDbDimension
  2
*D22
 10
766.44500548952783
 20
898.4453077141734
 30
0.0
 11
731.44651555992959
 21
898.4453077141734
 31
0.0
 71
               5
 72
               1
 41
1.0
 42
0.0
  3
TformSENN
100
AcDbAlignedDimension
 13
696.44802563033136
 23
985.55410840754985
 33
0.0
 14
766.44500548952783
 24
987.58310034735268
 34
0.0
100
AcDbRotatedDimension
1001
ACAD
1000
DSTYLE
1002
{
1070
             279
1070
               2
1070
             340
1005
3C
1070
             147
1040
7.5
1002
}
  0
DIMENSION
  5
1D0
100
AcDbEntity
  8
notes
370
               5
390
0
  6
Continuous
 62
               7
100
AcDbDimension
  2
*D23
 10
856.42352374531447
 20
898.4453077141734
 30
0.0
 11
811.43426461742115
 21
898.4453077141734
 31
0.0
 71
               5
 72
               1
 41
1.0
 42
0.0
  3
TformSENN
100
AcDbAlignedDimension
 13
766.44500548952783
 23
950.08310034735268
 33
0.0
 14
856.42352374531447
 24
1059.963018978458
 34
0.0
100
AcDbRotatedDimension
1001
ACAD
1000
DSTYLE
1002
{
1070
             279
1070
               2
1070
             340
1005
3C
1070
             147
1040
7.5
1002
}
  0
DIMENSION
  5
1D1
100
AcDbEntity
  8
notes
370
               5
390
0
  6
Continuous
 62
               7
100
AcDbDimension
  2
*D24
 10
871.42741032933418
 20
898.4453077141734
 30
0.0
 11
887.13547147995678
 21
905.9453077141734
 31
0.0
 70
             128
 71
               5
 72
               1
 41
1.0
 42
0.0
  3
TformSENN
100
AcDbAlignedDimension
 13
856.42741032933418
 23
1059.9630189784571
 33
0.0
 14
871.42741032933418
 24
1191.3605435383097
 34
0.0
100
AcDbRotatedDimension
1001
ACAD
1000
DSTYLE
1002
{
1070
             279
1070
               2
1070
             340
1005
3C
1070
             174
1070
               0
1070
             147
1040
7.5
1002
}
  0
MTEXT
  5
1D2
100
AcDbEntity
  8
notes
390
0
 62
               7
100
AcDbMText
 10
-1130.0559543012932
 20
907.74085801051842
 30
0.0
 40
36.64892578125
 41
0.0
 71
               1
 72
               1
  1
カウンター切込寸法
  7
ＭＳ ゴシック
 11
0.0
 21
1.0
 31
0.0
 73
               1
 44
0.7828267384257843
  0
MTEXT
  5
1D3
100
AcDbEntity
  8
notes
390
0
 62
               7
100
AcDbMText
 10
-132.65991903287227
 20
530.99559141962072
 30
0.0
 40
36.64892578125
 41
1184.0044085803797
 71
               1
 72
               1
  1
※陶器製品には寸法公差があります。\P  洗面器の収め方をご確認の上、必ず現物を合わせて\P  カウンターに切込を行ってください。
  7
ＭＳ ゴシック
 11
0.0
 21
1.0
 31
0.0
 73
               1
 44
1.3047112307096407
  0
MTEXT
  5
1D4
100
AcDbEntity
  8
notes
390
0
 62
               7
100
AcDbMText
 10
977.43688532671626
 20
-1486.3281543886062
 30
0.0
 40
24.253472222222221
 41
0.0
 71
               1
 72
               1
  1
半埋め込み
  7
MS UI Gothic
 11
0.0
 21
1.0
 31
0.0
 73
               1
 44
0.8762322015334064
  0
LINE
  5
1D5
100
AcDbEntity
  8
notes
370
               5
390
0
  6
Continuous
 62
               7
100
AcDbLine
 10
766.44762048512302
 20
-1380.5977555768095
 30
0.0
 11
766.44762048512302
 21
-1487.2977555768098
 31
0.0
  0
LINE
  5
1D6
100
AcDbEntity
  8
notes
370
               5
390
0
  6
Continuous
 62
               7
100
AcDbLine
 10
766.44762048512302
 20
-1462.2977555768098
 30
0.0
 11
935.0
 21
-1462.2977555768098
 31
0.0
  0
DIMENSION
  5
1D7
100
AcDbEntity
  8
notes
370
               5
390
0
  6
Continuous
 62
               7
100
AcDbDimension
  2
*D25
 10
696.44721533991151
 20
1221.2820836218471
 30
0.0
 11
669.05429131236838
 21
1228.7820836218471
 31
0.0
 70
             128
 71
               5
 72
               1
 41
1.0
 42
0.0
  3
TformSENN
100
AcDbAlignedDimension
 13
821.44721533991151
 23
1209.8361474382677
 33
0.0
 14
696.44721533991151
 24
1209.8361474382677
 34
0.0
100
AcDbRotatedDimension
1001
ACAD
1000
DSTYLE
1002
{
1070
             279
1070
               2
1070
             340
1005
3C
1070
               3
1000
<>(深さ)
1070
             174
1070
               0
1070
             147
1040
7.5
1002
}
  0
DIMENSION
  5
1D8
100
AcDbEntity
  8
notes
370
               5
390
0
  6
Continuous
 62
               7
100
AcDbDimension
  2
*D26
 10
-336.0
 20
-250.00000000000387
 30
0.0
 11
-336.0
 21
-740.00000000000387
 31
0.0
 71
               5
 72
               1
 41
1.0
 42
0.0
  3
TformSENN
100
AcDbAlignedDimension
 13
-420.83126431831852
 23
-1230.0000000000039
 33
0.0
 14
-420.83126431831852
 24
-250.00000000000387
 34
0.0
 50
90.0
100
AcDbRotatedDimension
1001
ACAD
1000
DSTYLE
1002
{
1070
             279
1070
               2
1070
             340
1005
3C
1070
             147
1040
7.5
1002
}
  0
LINE
  5
1D9
100
AcDbEntity
  8
ADF70-1709
370
               5
390
0
  6
STYLE_23
 62
               7
100
AcDbLine
 10
-903.49997770443451
 20
1718.2408580105148
 30
0.0
 11
-903.49997770443633
 21
477.24085801051478
 31
0.0
  0
ARC
  5
1DA
100
AcDbEntity
  8
ADF70-1709
370
               5
390
0
  6
STYLE_23
 62
               7
100
AcDbCircle
 10
-897.49997770443451
 20
1718.2408580105152
 30
0.0
 40
6.0
100
AcDbArc
 50
90.0
 51
180.0
  0
ARC
  5
1DB
100
AcDbEntity
  8
ADF70-1709
370
               5
390
0
  6
STYLE_23
 62
               7
100
AcDbCircle
 10
-900.49997770443815
 20
477.24085801051478
 30
0.0
 40
3.0
100
AcDbArc
 50
180.0
 51
270.0
  0
LINE
  5
1DC
100
AcDbEntity
  8
ADF70-1709
370
               5
390
0
  6
STYLE_23
 62
               7
100
AcDbLine
 10
-900.49997770443815
 20
474.24085801051478
 30
0.0
 11
-439.50002229556731
 21
474.24085801051933
 31
0.0
  0
ARC
  5
1DD
100
AcDbEntity
  8
ADF70-1709
370
               5
390
0
  6
STYLE_23
 62
               7
100
AcDbCircle
 10
-439.50002229556731
 20
480.24085801051933
 30
0.0
 40
6.0
100
AcDbArc
 50
270.0
 51
359.99999690819715
  0
LINE
  5
1DE
100
AcDbEntity
  8
ADF70-1709
370
               5
390
0
  6
STYLE_23
 62
               7
100
AcDbLine
 10
-897.49997770443451
 20
1724.2408580105148
 30
0.0
 11
-439.49997770443633
 21
1724.2408580105221
 31
0.0
  0
ARC
  5
1DF
100
AcDbEntity
  8
ADF70-1709
370
               5
390
0
  6
STYLE_23
 62
               7
100
AcDbCircle
 10
-439.49997770443542
 20
1718.2408580105221
 30
0.0
 40
6.0
100
AcDbArc
 50
0.0
 51
90.0
  0
ARC
  5
1E0
100
AcDbEntity
  8
ADF70-1709
370
               5
390
0
  6
STYLE_23
 62
               7
100
AcDbCircle
 10
-439.49997770443542
 20
1718.2408580105221
 30
0.0
 40
6.0
100
AcDbArc
 50
0.0
 51
90.0
  0
ARC
  5
1E1
100
AcDbEntity
  8
ADF70-1709
370
               5
390
0
  6
STYLE_23
 62
               7
100
AcDbCircle
 10
-668.49998404550115
 20
1099.2408602993087
 30
0.0
 40
23.0
100
AcDbArc
 50
180.0
 51
0.0
  0
ARC
  5
1E2
100
AcDbEntity
  8
ADF70-1709
370
               5
390
0
  6
STYLE_23
 62
               7
100
AcDbCircle
 10
-668.49998404550115
 20
1099.2408602993087
 30
0.0
 40
23.0
100
AcDbArc
 50
0.0
 51
180.0
  0
LINE
  5
1E3
100
AcDbEntity
  8
ADF70-1709
370
               5
390
0
  6
STYLE_23
 62
               7
100
AcDbLine
 10
-433.50002229556731
 20
480.24085801051933
 30
0.0
 11
-433.50002229556731
 21
1718.2639900571967
 31
0.0
  0
CIRCLE
  5
1E4
100
AcDbEntity
  8
ADF70-1709
370
               5
390
0
  6
STYLE_23
 62
               7
100
AcDbCircle
 10
-838.49997770443679
 20
1097.7408580105148
 30
0.0
 40
17.5
  0
CIRCLE
  5
1E5
100
AcDbEntity
  8
ADF70-1709
370
               5
390
0
  6
STYLE_23
 62
               7
100
AcDbCircle
 10
-838.49997770443679
 20
997.74085801051524
 30
0.0
 40
17.499999999999545
  0
CIRCLE
  5
1E6
100
AcDbEntity
  8
ADF70-1709
370
               5
390
0
  6
STYLE_23
 62
               7
100
AcDbCircle
 10
-838.49997770443679
 20
1197.7408580105148
 30
0.0
 40
17.5
  0
CIRCLE
  5
1E7
100
AcDbEntity
  8
ADF70-1709
370
               5
390
0
  6
STYLE_23
 62
               7
100
AcDbCircle
 10
-838.49997770443679
 20
1377.7408580105152
 30
0.0
 40
17.5
  0
CIRCLE
  5
1E8
100
AcDbEntity
  8
ADF70-1709
370
               5
390
0
  6
STYLE_23
 62
               7
100
AcDbCircle
 10
-838.49997770443679
 20
817.74085801051524
 30
0.0
 40
17.5
  0
POLYLINE
  5
1E9
100
AcDbEntity
  8
ADF70-1709
370
              15
390
0
  6
Continuous
 62
               7
100
AcDb2dPolyline
 66
               1
 10
0.0
 20
0.0
 30
0.0
 70
               1
 75
               5
  0
VERTEX
  5
1EA
100
AcDbEntity
  8
ADF70-1709
370
              15
390
0
  6
Continuous
 62
               7
100
AcDbVertex
100
AcDb2dVertex
 10
-903.49997770443542
 20
1687.7408580105148
 30
0.0
  0
VERTEX
  5
1EB
100
AcDbEntity
  8
ADF70-1709
370
              15
390
0
  6
Continuous
 62
               7
100
AcDbVertex
100
AcDb2dVertex
 10
-463.49997770443542
 20
1687.7408580105148
 30
0.0
  0
VERTEX
  5
1EC
100
AcDbEntity
  8
ADF70-1709
370
              15
390
0
  6
Continuous
 62
               7
100
AcDbVertex
100
AcDb2dVertex
 10
-463.49997770443542
 20
507.74085801051478
 30
0.0
  0
VERTEX
  5
1ED
100
AcDbEntity
  8
ADF70-1709
370
              15
390
0
  6
Continuous
 62
               7
100
AcDbVertex
100
AcDb2dVertex
 10
-903.49997770443542
 20
507.74085801051478
 30
0.0
  0
SEQEND
  5
1EE
100
AcDbEntity
  8
ADF70-1709
370
              15
390
0
  6
Continuous
 62
               7
  0
ARC
  5
1EF
100
AcDbEntity
  8
ADF70-1709
370
              15
390
0
  6
Continuous
 62
               7
100
AcDbCircle
 10
853.43437266992305
 20
1446.5546064342711
 30
0.0
 40
3.0
100
AcDbArc
 50
0.0
 51
90.0
  0
LINE
  5
1F0
100
AcDbEntity
  8
ADF70-1709
370
              15
390
0
  6
Continuous
 62
               7
100
AcDbLine
 10
871.42741032933418
 20
1242.5546195821798
 30
0.0
 11
871.42741032933418
 21
1196.5545932863624
 31
0.0
  0
LINE
  5
1F1
100
AcDbEntity
  8
ADF70-1709
370
              15
390
0
  6
STYLE_23
 62
               7
100
AcDbLine
 10
816.42741032933418
 20
1259.5546064342707
 30
0.0
 11
816.42741032933418
 21
1179.5546064342707
 31
0.0
  0
LINE
  5
1F2
100
AcDbEntity
  8
ADF70-1709
370
              15
390
0
  6
STYLE_23
 62
               7
100
AcDbLine
 10
828.42741032933418
 20
1242.0546064342707
 30
0.0
 11
828.42741032933418
 21
1197.0546064342716
 31
0.0
  0
LINE
  5
1F3
100
AcDbEntity
  8
ADF70-1709
370
              15
390
0
  6
Continuous
 62
               7
100
AcDbLine
 10
856.42352374531447
 20
1184.8032446886664
 30
0.0
 11
867.16911259398921
 21
1186.4158617739686
 31
0.0
  0
ARC
  5
1F4
100
AcDbEntity
  8
ADF70-1709
370
              15
390
0
  6
Continuous
 62
               7
100
AcDbCircle
 10
866.42741032933418
 20
1191.3605435383101
 30
0.0
 40
4.9999999999998339
100
AcDbArc
 50
278.53076561003468
 51
0.0
  0
LINE
  5
1F5
100
AcDbEntity
  8
ADF70-1709
370
              15
390
0
  6
Continuous
 62
               7
100
AcDbLine
 10
871.42741032933418
 20
1191.3605435383097
 30
0.0
 11
871.42741032933418
 21
1197.0546064342716
 31
0.0
  0
LINE
  5
1F6
100
AcDbEntity
  8
ADF70-1709
370
              15
390
0
  6
STYLE_23
 62
               7
100
AcDbLine
 10
871.42741032933418
 20
1197.0546064342707
 30
0.0
 11
828.42741032933418
 21
1197.0546064342707
 31
0.0
  0
LINE
  5
1F7
100
AcDbEntity
  8
ADF70-1709
370
              15
390
0
  6
STYLE_23
 62
               7
100
AcDbLine
 10
828.42741032933418
 20
1197.0546064342707
 30
0.0
 11
816.42741032933418
 21
1179.5546064342707
 31
0.0
  0
POLYLINE
  5
1F8
100
AcDbEntity
  8
ADF70-1709
370
              15
390
0
  6
Continuous
 62
               7
100
AcDb3dPolyline
 66
               1
 10
0.0
 20
0.0
 30
0.0
 70
               8
  0
VERTEX
  5
1F9
100
AcDbEntity
  8
ADF70-1709
370
              15
390
0
  6
Continuous
 62
               7
100
AcDbVertex
100
AcDb3dPolylineVertex
 10
702.44802563033181
 20
979.55410840754985
 30
-0.0000000012684539
 70
              32
  0
VERTEX
  5
1FA
100
AcDbEntity
  8
ADF70-1709
370
              15
390
0
  6
Continuous
 62
               7
100
AcDbVertex
100
AcDb3dPolylineVertex
 10
701.27748369823485
 20
979.6693967251299
 30
-0.0000000012711566
 70
              32
  0
VERTEX
  5
1FB
100
AcDbEntity
  8
ADF70-1709
370
              15
390
0
  6
Continuous
 62
               7
100
AcDbVertex
100
AcDb3dPolylineVertex
 10
700.15192503614117
 20
980.01083121248166
 30
-0.0000000012737554
 70
              32
  0
VERTEX
  5
1FC
100
AcDbEntity
  8
ADF70-1709
370
              15
390
0
  6
Continuous
 62
               7
100
AcDbVertex
100
AcDb3dPolylineVertex
 10
699.11460423221388
 20
980.56529073373395
 30
-0.0000000012761504
 70
              32
  0
VERTEX
  5
1FD
100
AcDbEntity
  8
ADF70-1709
370
              15
390
0
  6
Continuous
 62
               7
100
AcDbVertex
100
AcDb3dPolylineVertex
 10
698.20538494321272
 20
981.31146772043076
 30
-0.0000000012782497
 70
              32
  0
VERTEX
  5
1FE
100
AcDbEntity
  8
ADF70-1709
370
              15
390
0
  6
Continuous
 62
               7
100
AcDbVertex
100
AcDb3dPolylineVertex
 10
697.45920795651682
 20
982.22068700943191
 30
-0.0000000012799726
 70
              32
  0
VERTEX
  5
1FF
100
AcDbEntity
  8
ADF70-1709
370
              15
390
0
  6
Continuous
 62
               7
100
AcDbVertex
100
AcDb3dPolylineVertex
 10
696.90474843526454
 20
983.2580078133592
 30
-0.0000000012812528
 70
              32
  0
VERTEX
  5
200
100
AcDbEntity
  8
ADF70-1709
370
              15
390
0
  6
Continuous
 62
               7
100
AcDbVertex
100
AcDb3dPolylineVertex
 10
696.56331394791277
 20
984.38356647545288
 30
-0.0000000012820411
 70
              32
  0
VERTEX
  5
201
100
AcDbEntity
  8
ADF70-1709
370
              15
390
0
  6
Continuous
 62
               7
100
AcDbVertex
100
AcDb3dPolylineVertex
 10
696.44802563033181
 20
985.55410840754985
 30
-0.0000000012823073
 70
              32
  0
SEQEND
  5
202
100
AcDbEntity
  8
ADF70-1709
370
              15
390
0
  6
Continuous
 62
               7
  0
POLYLINE
  5
203
100
AcDbEntity
  8
ADF70-1709
370
              15
390
0
  6
Continuous
 62
               7
100
AcDb3dPolyline
 66
               1
 10
0.0
 20
0.0
 30
0.0
 70
               8
  0
VERTEX
  5
204
100
AcDbEntity
  8
ADF70-1709
370
              15
390
0
  6
Continuous
 62
               7
100
AcDbVertex
100
AcDb3dPolylineVertex
 10
696.44802563033181
 20
985.55410840754985
 30
-0.0000000012822414
 70
              32
  0
VERTEX
  5
205
100
AcDbEntity
  8
ADF70-1709
370
              15
390
0
  6
Continuous
 62
               7
100
AcDbVertex
100
AcDb3dPolylineVertex
 10
696.44802563033181
 20
1008.9159526828339
 30
0.0000000000086787
 70
              32
  0
SEQEND
  5
206
100
AcDbEntity
  8
ADF70-1709
370
              15
390
0
  6
Continuous
 62
               7
  0
POLYLINE
  5
207
100
AcDbEntity
  8
ADF70-1709
370
              15
390
0
  6
Continuous
 62
               7
100
AcDb3dPolyline
 66
               1
 10
0.0
 20
0.0
 30
0.0
 70
               8
  0
VERTEX
  5
208
100
AcDbEntity
  8
ADF70-1709
370
              15
390
0
  6
Continuous
 62
               7
100
AcDbVertex
100
AcDb3dPolylineVertex
 10
699.56209301681656
 20
1014.1763132170795
 30
0.0000000000018084
 70
              32
  0
VERTEX
  5
209
100
AcDbEntity
  8
ADF70-1709
370
              15
390
0
  6
Continuous
 62
               7
100
AcDbVertex
100
AcDb3dPolylineVertex
 10
700.39590477037882
 20
1014.5541084075498
 30
0.0
 70
              32
  0
SEQEND
  5
20A
100
AcDbEntity
  8
ADF70-1709
370
              15
390
0
  6
Continuous
 62
               7
  0
POLYLINE
  5
20B
100
AcDbEntity
  8
ADF70-1709
370
              15
390
0
  6
Continuous
 62
               7
100
AcDb3dPolyline
 66
               1
 10
0.0
 20
0.0
 30
0.0
 70
               8
  0
VERTEX
  5
20C
100
AcDbEntity
  8
ADF70-1709
370
              15
390
0
  6
Continuous
 62
               7
100
AcDbVertex
100
AcDb3dPolylineVertex
 10
698.79545705628016
 20
1013.6760727245814
 30
0.0000000000035052
 70
              32
  0
VERTEX
  5
20D
100
AcDbEntity
  8
ADF70-1709
370
              15
390
0
  6
Continuous
 62
               7
100
AcDbVertex
100
AcDb3dPolylineVertex
 10
699.56209301681656
 20
1014.1763132170795
 30
0.0000000000018084
 70
              32
  0
SEQEND
  5
20E
100
AcDbEntity
  8
ADF70-1709
370
              15
390
0
  6
Continuous
 62
               7
  0
POLYLINE
  5
20F
100
AcDbEntity
  8
ADF70-1709
370
              15
390
0
  6
Continuous
 62
               7
100
AcDb3dPolyline
 66
               1
 10
0.0
 20
0.0
 30
0.0
 70
               8
  0
VERTEX
  5
210
100
AcDbEntity
  8
ADF70-1709
370
              15
390
0
  6
Continuous
 62
               7
100
AcDbVertex
100
AcDb3dPolylineVertex
 10
698.11384185797351
 20
1013.0650310175274
 30
0.0000000000050139
 70
              32
  0
VERTEX
  5
211
100
AcDbEntity
  8
ADF70-1709
370
              15
390
0
  6
Continuous
 62
               7
100
AcDbVertex
100
AcDb3dPolylineVertex
 10
698.79545705628016
 20
1013.6760727245814
 30
0.0000000000035052
 70
              32
  0
SEQEND
  5
212
100
AcDbEntity
  8
ADF70-1709
370
              15
390
0
  6
Continuous
 62
               7
  0
POLYLINE
  5
213
100
AcDbEntity
  8
ADF70-1709
370
              15
390
0
  6
Continuous
 62
               7
100
AcDb3dPolyline
 66
               1
 10
0.0
 20
0.0
 30
0.0
 70
               8
  0
VERTEX
  5
214
100
AcDbEntity
  8
ADF70-1709
370
              15
390
0
  6
Continuous
 62
               7
100
AcDbVertex
100
AcDb3dPolylineVertex
 10
697.53311336459819
 20
1012.3574113009404
 30
0.0000000000062992
 70
              32
  0
VERTEX
  5
215
100
AcDbEntity
  8
ADF70-1709
370
              15
390
0
  6
Continuous
 62
               7
100
AcDbVertex
100
AcDb3dPolylineVertex
 10
698.11384185797351
 20
1013.0650310175274
 30
0.0000000000050139
 70
              32
  0
SEQEND
  5
216
100
AcDbEntity
  8
ADF70-1709
370
              15
390
0
  6
Continuous
 62
               7
  0
POLYLINE
  5
217
100
AcDbEntity
  8
ADF70-1709
370
              15
390
0
  6
Continuous
 62
               7
100
AcDb3dPolyline
 66
               1
 10
0.0
 20
0.0
 30
0.0
 70
               8
  0
VERTEX
  5
218
100
AcDbEntity
  8
ADF70-1709
370
              15
390
0
  6
Continuous
 62
               7
100
AcDbVertex
100
AcDb3dPolylineVertex
 10
697.06678918113585
 20
1011.5696848241482
 30
0.0000000000073313
 70
              32
  0
VERTEX
  5
219
100
AcDbEntity
  8
ADF70-1709
370
              15
390
0
  6
Continuous
 62
               7
100
AcDbVertex
100
AcDb3dPolylineVertex
 10
697.53311336459819
 20
1012.3574113009404
 30
0.0000000000062992
 70
              32
  0
SEQEND
  5
21A
100
AcDbEntity
  8
ADF70-1709
370
              15
390
0
  6
Continuous
 62
               7
  0
POLYLINE
  5
21B
100
AcDbEntity
  8
ADF70-1709
370
              15
390
0
  6
Continuous
 62
               7
100
AcDb3dPolyline
 66
               1
 10
0.0
 20
0.0
 30
0.0
 70
               8
  0
VERTEX
  5
21C
100
AcDbEntity
  8
ADF70-1709
370
              15
390
0
  6
Continuous
 62
               7
100
AcDbVertex
100
AcDb3dPolylineVertex
 10
696.72572392584289
 20
1010.7201874798598
 30
0.0000000000080862
 70
              32
  0
VERTEX
  5
21D
100
AcDbEntity
  8
ADF70-1709
370
              15
390
0
  6
Continuous
 62
               7
100
AcDbVertex
100
AcDb3dPolylineVertex
 10
697.06678918113585
 20
1011.5696848241482
 30
0.0000000000073313
 70
              32
  0
SEQEND
  5
21E
100
AcDbEntity
  8
ADF70-1709
370
              15
390
0
  6
Continuous
 62
               7
  0
POLYLINE
  5
21F
100
AcDbEntity
  8
ADF70-1709
370
              15
390
0
  6
Continuous
 62
               7
100
AcDb3dPolyline
 66
               1
 10
0.0
 20
0.0
 30
0.0
 70
               8
  0
VERTEX
  5
220
100
AcDbEntity
  8
ADF70-1709
370
              15
390
0
  6
Continuous
 62
               7
100
AcDbVertex
100
AcDb3dPolylineVertex
 10
696.51785656752554
 20
1009.8286929999736
 30
0.0000000000085462
 70
              32
  0
VERTEX
  5
221
100
AcDbEntity
  8
ADF70-1709
370
              15
390
0
  6
Continuous
 62
               7
100
AcDbVertex
100
AcDb3dPolylineVertex
 10
696.72572392584289
 20
1010.7201874798598
 30
0.0000000000080862
 70
              32
  0
SEQEND
  5
222
100
AcDbEntity
  8
ADF70-1709
370
              15
390
0
  6
Continuous
 62
               7
  0
POLYLINE
  5
223
100
AcDbEntity
  8
ADF70-1709
370
              15
390
0
  6
Continuous
 62
               7
100
AcDb3dPolyline
 66
               1
 10
0.0
 20
0.0
 30
0.0
 70
               8
  0
VERTEX
  5
224
100
AcDbEntity
  8
ADF70-1709
370
              15
390
0
  6
Continuous
 62
               7
100
AcDbVertex
100
AcDb3dPolylineVertex
 10
696.44802563033181
 20
1008.9159526828339
 30
0.0000000000087008
 70
              32
  0
VERTEX
  5
225
100
AcDbEntity
  8
ADF70-1709
370
              15
390
0
  6
Continuous
 62
               7
100
AcDbVertex
100
AcDb3dPolylineVertex
 10
696.51785656752554
 20
1009.8286929999736
 30
0.0000000000085462
 70
              32
  0
SEQEND
  5
226
100
AcDbEntity
  8
ADF70-1709
370
              15
390
0
  6
Continuous
 62
               7
  0
POLYLINE
  5
227
100
AcDbEntity
  8
ADF70-1709
370
              15
390
0
  6
Continuous
 62
               7
100
AcDb3dPolyline
 66
               1
 10
0.0
 20
0.0
 30
0.0
 70
               8
  0
VERTEX
  5
228
100
AcDbEntity
  8
ADF70-1709
370
              15
390
0
  6
Continuous
 62
               7
100
AcDbVertex
100
AcDb3dPolylineVertex
 10
770.39288439470283
 20
1026.5983061600077
 30
-0.0000000006986085
 70
              32
  0
VERTEX
  5
229
100
AcDbEntity
  8
ADF70-1709
370
              15
390
0
  6
Continuous
 62
               7
100
AcDbVertex
100
AcDb3dPolylineVertex
 10
853.94446827831348
 20
1057.0085957194219
 30
0.0000000000829926
 70
              32
  0
SEQEND
  5
22A
100
AcDbEntity
  8
ADF70-1709
370
              15
390
0
  6
Continuous
 62
               7
  0
POLYLINE
  5
22B
100
AcDbEntity
  8
ADF70-1709
370
              15
390
0
  6
Continuous
 62
               7
100
AcDb3dPolyline
 66
               1
 10
0.0
 20
0.0
 30
0.0
 70
               8
  0
VERTEX
  5
22C
100
AcDbEntity
  8
ADF70-1709
370
              15
390
0
  6
Continuous
 62
               7
100
AcDbVertex
100
AcDb3dPolylineVertex
 10
766.44500525465583
 20
1020.9601504352918
 30
-0.000000001121525
 70
              32
  0
VERTEX
  5
22D
100
AcDbEntity
  8
ADF70-1709
370
              15
390
0
  6
Continuous
 62
               7
100
AcDbVertex
100
AcDb3dPolylineVertex
 10
766.51483619184955
 20
1021.8728907524314
 30
-0.0000000011114405
 70
              32
  0
VERTEX
  5
22E
100
AcDbEntity
  8
ADF70-1709
370
              15
390
0
  6
Continuous
 62
               7
100
AcDbVertex
100
AcDb3dPolylineVertex
 10
766.7227035501669
 20
1022.7643852323176
 30
-0.0000000011008246
 70
              32
  0
VERTEX
  5
22F
100
AcDbEntity
  8
ADF70-1709
370
              15
390
0
  6
Continuous
 62
               7
100
AcDbVertex
100
AcDb3dPolylineVertex
 10
767.06376880545986
 20
1023.6138825766061
 30
-0.0000000010899243
 70
              32
  0
VERTEX
  5
230
100
AcDbEntity
  8
ADF70-1709
370
              15
390
0
  6
Continuous
 62
               7
100
AcDbVertex
100
AcDb3dPolylineVertex
 10
767.53009298892221
 20
1024.4016090533983
 30
-0.0000000010789934
 70
              32
  0
VERTEX
  5
231
100
AcDbEntity
  8
ADF70-1709
370
              15
390
0
  6
Continuous
 62
               7
100
AcDbVertex
100
AcDb3dPolylineVertex
 10
768.11082148229752
 20
1025.1092287699853
 30
-0.0000000010682863
 70
              32
  0
VERTEX
  5
232
100
AcDbEntity
  8
ADF70-1709
370
              15
390
0
  6
Continuous
 62
               7
100
AcDbVertex
100
AcDb3dPolylineVertex
 10
768.79243668060417
 20
1025.7202704770393
 30
-0.0000000010580521
 70
              32
  0
VERTEX
  5
233
100
AcDbEntity
  8
ADF70-1709
370
              15
390
0
  6
Continuous
 62
               7
100
AcDbVertex
100
AcDb3dPolylineVertex
 10
769.55907264114057
 20
1026.2205109695374
 30
-0.0000000010485293
 70
              32
  0
VERTEX
  5
234
100
AcDbEntity
  8
ADF70-1709
370
              15
390
0
  6
Continuous
 62
               7
100
AcDbVertex
100
AcDb3dPolylineVertex
 10
770.39288439470283
 20
1026.5983061600077
 30
-0.0000000010399393
 70
              32
  0
SEQEND
  5
235
100
AcDbEntity
  8
ADF70-1709
370
              15
390
0
  6
Continuous
 62
               7
  0
LINE
  5
236
100
AcDbEntity
  8
ADF70-1709
370
              15
390
0
  6
Continuous
 62
               7
100
AcDbLine
 10
856.42352374531447
 20
1059.963018978458
 30
0.0
 11
856.42352374531447
 21
1268.7478883929193
 31
0.0
  0
ARC
  5
237
100
AcDbEntity
  8
ADF70-1709
370
              15
390
0
  6
Continuous
 62
               7
100
AcDbCircle
 10
853.42352374531447
 20
1059.9630189784571
 30
0.0
 40
2.9999999999999525
100
AcDbArc
 50
280.00000000005821
 51
0.0
  0
LINE
  5
238
100
AcDbEntity
  8
ADF70-1709
370
              15
390
0
  6
Continuous
 62
               7
100
AcDbLine
 10
711.44721533990787
 20
1397.0682912928305
 30
0.0
 11
696.44721533990787
 21
1397.0682612681057
 31
0.0
  0
LINE
  5
239
100
AcDbEntity
  8
ADF70-1709
370
              15
390
0
  6
Continuous
 62
               7
100
AcDbLine
 10
696.44721533990787
 20
1362.0683206844578
 30
0.0
 11
711.44721533990787
 21
1362.0682935536443
 31
0.0
  0
LINE
  5
23A
100
AcDbEntity
  8
ADF70-1709
370
              15
390
0
  6
Continuous
 62
               7
100
AcDbLine
 10
856.3438589074417
 20
1269.0
 30
0.0
 11
866.06799561698836
 21
1254.049744282293
 31
0.0
  0
ARC
  5
23B
100
AcDbEntity
  8
ADF70-1709
370
              15
390
0
  6
Continuous
 62
               7
100
AcDbCircle
 10
867.99077790752517
 20
1254.6001153055081
 30
0.0
 40
1.9999999999992155
100
AcDbArc
 50
195.97306974492679
 51
262.26541761235853
  0
LINE
  5
23C
100
AcDbEntity
  8
ADF70-1709
370
              15
390
0
  6
Continuous
 62
               7
100
AcDbLine
 10
867.72160931717599
 20
1252.6183110089223
 30
0.0
 11
868.83116321486023
 21
1252.4676114372896
 31
0.0
  0
ARC
  5
23D
100
AcDbEntity
  8
ADF70-1709
370
              15
390
0
  6
Continuous
 62
               7
100
AcDbCircle
 10
868.427410329336
 20
1249.4949049924112
 30
0.0
 40
2.999999999998181
100
AcDbArc
 50
359.99999999996527
 51
82.265417612346482
  0
LINE
  5
23E
100
AcDbEntity
  8
ADF70-1709
370
              15
390
0
  6
Continuous
 62
               7
100
AcDbLine
 10
871.42741032933418
 20
1249.4949049924098
 30
0.0
 11
871.42741032933418
 21
1242.0546064342707
 31
0.0
  0
LINE
  5
23F
100
AcDbEntity
  8
ADF70-1709
370
              15
390
0
  6
STYLE_23
 62
               7
100
AcDbLine
 10
871.42741032933418
 20
1242.0546064342707
 30
0.0
 11
828.42741032933418
 21
1242.0546064342707
 31
0.0
  0
LWPOLYLINE
  5
240
100
AcDbEntity
  8
ADF70-1709
370
              15
390
0
  6
STYLE_23
 62
               7
100
AcDbPolyline
 90
        3
 70
             128
 10
801.86910845440752
 20
1300.9763408449994
 10
701.4053262739103
 20
1318.6908162274426
 42
-0.3639702342665654
 10
696.44721533990764
 20
1324.5996627455129
 42
-0.3639702342665654
  0
LINE
  5
241
100
AcDbEntity
  8
ADF70-1709
370
              15
390
0
  6
Continuous
 62
               7
100
AcDbLine
 10
696.44721533990787
 20
1324.5996627455133
 30
0.0
 11
696.44721533991151
 21
1446.5540638164225
 31
0.0
  0
ARC
  5
242
100
AcDbEntity
  8
ADF70-1709
370
              15
390
0
  6
Continuous
 62
               7
100
AcDbCircle
 10
699.44721533991151
 20
1446.5540638164207
 30
0.0
 40
3.0
100
AcDbArc
 50
90.0
 51
180.0
  0
LINE
  5
243
100
AcDbEntity
  8
ADF70-1709
370
              15
390
0
  6
Continuous
 62
               7
100
AcDbLine
 10
699.44721533991151
 20
1449.5540638164189
 30
0.0
 11
853.4914288924972
 21
1449.5540638164189
 31
0.0
  0
POLYLINE
  5
244
100
AcDbEntity
  8
ADF70-1709
370
              15
390
0
  6
Continuous
 62
               7
100
AcDb3dPolyline
 66
               1
 10
0.0
 20
0.0
 30
0.0
 70
               8
  0
VERTEX
  5
245
100
AcDbEntity
  8
ADF70-1709
370
              15
390
0
  6
Continuous
 62
               7
100
AcDbVertex
100
AcDb3dPolylineVertex
 10
702.44802532283165
 20
979.55414364369562
 30
-0.0000000012683883
 70
              32
  0
VERTEX
  5
246
100
AcDbEntity
  8
ADF70-1709
370
              15
390
0
  6
Continuous
 62
               7
100
AcDbVertex
100
AcDb3dPolylineVertex
 10
760.65440273185186
 20
981.5867551321403
 30
-0.0000000010784023
 70
              32
  0
SEQEND
  5
247
100
AcDbEntity
  8
ADF70-1709
370
              15
390
0
  6
Continuous
 62
               7
  0
POLYLINE
  5
248
100
AcDbEntity
  8
ADF70-1709
370
              15
390
0
  6
Continuous
 62
               7
100
AcDb3dPolyline
 66
               1
 10
0.0
 20
0.0
 30
0.0
 70
               8
  0
VERTEX
  5
249
100
AcDbEntity
  8
ADF70-1709
370
              15
390
0
  6
Continuous
 62
               7
100
AcDbVertex
100
AcDb3dPolylineVertex
 10
760.65440273183094
 20
981.58675513213939
 30
-0.0000000010784023
 70
              32
  0
VERTEX
  5
24A
100
AcDbEntity
  8
ADF70-1709
370
              15
390
0
  6
Continuous
 62
               7
100
AcDbVertex
100
AcDb3dPolylineVertex
 10
761.79471207111737
 20
981.73687975538314
 30
-0.0000000010784023
 70
              32
  0
VERTEX
  5
24B
100
AcDbEntity
  8
ADF70-1709
370
              15
390
0
  6
Continuous
 62
               7
100
AcDbVertex
100
AcDb3dPolylineVertex
 10
762.88542558755807
 20
982.10182744591157
 30
-0.0000000010784023
 70
              32
  0
VERTEX
  5
24C
100
AcDbEntity
  8
ADF70-1709
370
              15
390
0
  6
Continuous
 62
               7
100
AcDbVertex
100
AcDb3dPolylineVertex
 10
763.88646432245559
 20
982.6681879697876
 30
-0.0000000010784023
 70
              32
  0
VERTEX
  5
24D
100
AcDbEntity
  8
ADF70-1709
370
              15
390
0
  6
Continuous
 62
               7
100
AcDbVertex
100
AcDb3dPolylineVertex
 10
764.76104447373336
 20
983.41515005099382
 30
-0.0000000010784023
 70
              32
  0
VERTEX
  5
24E
100
AcDbEntity
  8
ADF70-1709
370
              15
390
0
  6
Continuous
 62
               7
100
AcDbVertex
100
AcDb3dPolylineVertex
 10
765.47702904003154
 20
984.31526609495222
 30
-0.0000000010784023
 70
              32
  0
VERTEX
  5
24F
100
AcDbEntity
  8
ADF70-1709
370
              15
390
0
  6
Continuous
 62
               7
100
AcDbVertex
100
AcDb3dPolylineVertex
 10
766.00810871516887
 20
985.33546076775974
 30
-0.0000000010784023
 70
              32
  0
VERTEX
  5
250
100
AcDbEntity
  8
ADF70-1709
370
              15
390
0
  6
Continuous
 62
               7
100
AcDbVertex
100
AcDb3dPolylineVertex
 10
766.33476864025351
 20
986.43824637027456
 30
-0.0000000010784023
 70
              32
  0
VERTEX
  5
251
100
AcDbEntity
  8
ADF70-1709
370
              15
390
0
  6
Continuous
 62
               7
100
AcDbVertex
100
AcDb3dPolylineVertex
 10
766.44500548952828
 20
987.58310034735268
 30
-0.0000000010784023
 70
              32
  0
SEQEND
  5
252
100
AcDbEntity
  8
ADF70-1709
370
              15
390
0
  6
Continuous
 62
               7
  0
LINE
  5
253
100
AcDbEntity
  8
ADF70-1709
370
              15
390
0
  6
STYLE_23
 62
               7
100
AcDbLine
 10
816.42741032933418
 20
1179.5546064342707
 30
0.0
 11
806.10517152083708
 21
1060.1680199531284
 31
0.0
  0
POLYLINE
  5
254
100
AcDbEntity
  8
ADF70-1709
370
              15
390
0
  6
Continuous
 62
               7
100
AcDb3dPolyline
 66
               1
 10
0.0
 20
0.0
 30
0.0
 70
               8
  0
VERTEX
  5
255
100
AcDbEntity
  8
ADF70-1709
370
              15
390
0
  6
Continuous
 62
               7
100
AcDbVertex
100
AcDb3dPolylineVertex
 10
696.44721533990787
 20
1324.5996627455129
 30
0.0000000000433826
 70
              32
  0
VERTEX
  5
256
100
AcDbEntity
  8
ADF70-1709
370
              15
390
0
  6
Continuous
 62
               7
100
AcDbVertex
100
AcDb3dPolylineVertex
 10
696.44802563033181
 20
1008.9159526828339
 30
0.0000000000086787
 70
              32
  0
SEQEND
  5
257
100
AcDbEntity
  8
ADF70-1709
370
              15
390
0
  6
Continuous
 62
               7
  0
POLYLINE
  5
258
100
AcDbEntity
  8
ADF70-1709
370
              15
390
0
  6
Continuous
 62
               7
100
AcDb3dPolyline
 66
               1
 10
0.0
 20
0.0
 30
0.0
 70
               8
  0
VERTEX
  5
259
100
AcDbEntity
  8
ADF70-1709
370
              15
390
0
  6
Continuous
 62
               7
100
AcDbVertex
100
AcDb3dPolylineVertex
 10
856.42906849095402
 20
1268.7303411942885
 30
0.0000000005531092
 70
              32
  0
VERTEX
  5
25A
100
AcDbEntity
  8
ADF70-1709
370
              15
390
0
  6
Continuous
 62
               7
100
AcDbVertex
100
AcDb3dPolylineVertex
 10
856.43501140911962
 20
1446.554506157619
 30
0.0000000010028291
 70
              32
  0
SEQEND
  5
25B
100
AcDbEntity
  8
ADF70-1709
370
              15
390
0
  6
Continuous
 62
               7
  0
LINE
  5
25C
100
AcDbEntity
  8
ADF70-1709
370
              15
390
0
  6
STYLE_23
 62
               7
100
AcDbLine
 10
811.62440861027767
 20
1291.1069269863997
 30
0.0
 11
816.42741032933418
 21
1259.5546064342707
 31
0.0
  0
LINE
  5
25D
100
AcDbEntity
  8
ADF70-1709
370
              15
390
0
  6
STYLE_23
 62
               7
100
AcDbLine
 10
816.42741032933418
 20
1259.5546064342707
 30
0.0
 11
828.42741032933418
 21
1242.0546064342707
 31
0.0
  0
ARC
  5
25E
100
AcDbEntity
  8
ADF70-1709
370
              15
390
0
  6
Continuous
 62
               7
100
AcDbCircle
 10
702.44762048511984
 20
-1359.0000022887968
 30
0.0
 40
6.0
100
AcDbArc
 50
180.0
 51
270.0
  0
POLYLINE
  5
25F
100
AcDbEntity
  8
ADF70-1709
370
              15
390
0
  6
Continuous
 62
               7
100
AcDb3dPolyline
 66
               1
 10
0.0
 20
0.0
 30
0.0
 70
               8
  0
VERTEX
  5
260
100
AcDbEntity
  8
ADF70-1709
370
              15
390
0
  6
Continuous
 62
               7
100
AcDbVertex
100
AcDb3dPolylineVertex
 10
766.44762048512121
 20
-1357.9866945546951
 30
-0.0000000000026323
 70
              32
  0
VERTEX
  5
261
100
AcDbEntity
  8
ADF70-1709
370
              15
390
0
  6
Continuous
 62
               7
100
AcDbVertex
100
AcDb3dPolylineVertex
 10
766.44762048512302
 20
-1352.7155404814125
 30
0.0000000000089742
 70
              32
  0
SEQEND
  5
262
100
AcDbEntity
  8
ADF70-1709
370
              15
390
0
  6
Continuous
 62
               7
  0
POLYLINE
  5
263
100
AcDbEntity
  8
ADF70-1709
370
              15
390
0
  6
Continuous
 62
               7
100
AcDb3dPolyline
 66
               1
 10
0.0
 20
0.0
 30
0.0
 70
               8
  0
VERTEX
  5
264
100
AcDbEntity
  8
ADF70-1709
370
              15
390
0
  6
Continuous
 62
               7
100
AcDbVertex
100
AcDb3dPolylineVertex
 10
766.4476204851203
 20
-1357.9866945546951
 30
-0.0000000000027987
 70
              32
  0
VERTEX
  5
265
100
AcDbEntity
  8
ADF70-1709
370
              15
390
0
  6
Continuous
 62
               7
100
AcDbVertex
100
AcDb3dPolylineVertex
 10
766.33487188728714
 20
-1359.1443952619952
 30
-0.0000000000003616
 70
              32
  0
VERTEX
  5
266
100
AcDbEntity
  8
ADF70-1709
370
              15
390
0
  6
Continuous
 62
               7
100
AcDbVertex
100
AcDb3dPolylineVertex
 10
766.00086350922493
 20
-1360.2585862588098
 30
0.0000000000019406
 70
              32
  0
VERTEX
  5
267
100
AcDbEntity
  8
ADF70-1709
370
              15
390
0
  6
Continuous
 62
               7
100
AcDbVertex
100
AcDb3dPolylineVertex
 10
765.45814834303155
 20
-1361.2873930542687
 30
0.0000000000040212
 70
              32
  0
VERTEX
  5
268
100
AcDbEntity
  8
ADF70-1709
370
              15
390
0
  6
Continuous
 62
               7
100
AcDbVertex
100
AcDb3dPolylineVertex
 10
764.7271231800446
 20
-1362.1921501404945
 30
0.0000000000058021
 70
              32
  0
VERTEX
  5
269
100
AcDbEntity
  8
ADF70-1709
370
              15
390
0
  6
Continuous
 62
               7
100
AcDbVertex
100
AcDb3dPolylineVertex
 10
763.83526204096461
 20
-1362.9388541532048
 30
0.0000000000072163
 70
              32
  0
VERTEX
  5
26A
100
AcDbEntity
  8
ADF70-1709
370
              15
390
0
  6
Continuous
 62
               7
100
AcDbVertex
100
AcDb3dPolylineVertex
 10
762.81608362342422
 20
-1363.4994418155889
 30
0.0000000000082107
 70
              32
  0
VERTEX
  5
26B
100
AcDbEntity
  8
ADF70-1709
370
              15
390
0
  6
Continuous
 62
               7
100
AcDbVertex
100
AcDb3dPolylineVertex
 10
761.70789157326226
 20
-1363.8528446366813
 30
0.000000000008748
 70
              32
  0
VERTEX
  5
26C
100
AcDbEntity
  8
ADF70-1709
370
              15
390
0
  6
Continuous
 62
               7
100
AcDbVertex
100
AcDb3dPolylineVertex
 10
760.55233492374145
 20
-1363.9857807256326
 30
0.0000000000088079
 70
              32
  0
SEQEND
  5
26D
100
AcDbEntity
  8
ADF70-1709
370
              15
390
0
  6
Continuous
 62
               7
  0
POLYLINE
  5
26E
100
AcDbEntity
  8
ADF70-1709
370
              15
390
0
  6
Continuous
 62
               7
100
AcDb3dPolyline
 66
               1
 10
0.0
 20
0.0
 30
0.0
 70
               8
  0
VERTEX
  5
26F
100
AcDbEntity
  8
ADF70-1709
370
              15
390
0
  6
Continuous
 62
               7
100
AcDbVertex
100
AcDb3dPolylineVertex
 10
856.44762048512825
 20
-1307.8266959864709
 30
0.0000000022221996
 70
              32
  0
VERTEX
  5
270
100
AcDbEntity
  8
ADF70-1709
370
              15
390
0
  6
Continuous
 62
               7
100
AcDbVertex
100
AcDb3dPolylineVertex
 10
856.337383585814
 20
-1308.9715499587296
 30
0.0000000022231153
 70
              32
  0
VERTEX
  5
271
100
AcDbEntity
  8
ADF70-1709
370
              15
390
0
  6
Continuous
 62
               7
100
AcDbVertex
100
AcDb3dPolylineVertex
 10
856.01072361252886
 20
-1310.0743355469663
 30
0.0000000022231283
 70
              32
  0
VERTEX
  5
272
100
AcDbEntity
  8
ADF70-1709
370
              15
390
0
  6
Continuous
 62
               7
100
AcDbVertex
100
AcDb3dPolylineVertex
 10
855.47964389280082
 20
-1311.0945301965608
 30
0.0000000022222382
 70
              32
  0
VERTEX
  5
273
100
AcDbEntity
  8
ADF70-1709
370
              15
390
0
  6
Continuous
 62
               7
100
AcDbVertex
100
AcDb3dPolylineVertex
 10
854.76365928716064
 20
-1311.9946462092244
 30
0.0000000022204776
 70
              32
  0
VERTEX
  5
274
100
AcDbEntity
  8
ADF70-1709
370
              15
390
0
  6
Continuous
 62
               7
100
AcDbVertex
100
AcDb3dPolylineVertex
 10
853.88907910323474
 20
-1312.7416082522036
 30
0.0000000022179112
 70
              32
  0
VERTEX
  5
275
100
AcDbEntity
  8
ADF70-1709
370
              15
390
0
  6
Continuous
 62
               7
100
AcDbVertex
100
AcDb3dPolylineVertex
 10
852.8880403435835
 20
-1313.3079687323266
 30
0.0000000022146334
 70
              32
  0
VERTEX
  5
276
100
AcDbEntity
  8
ADF70-1709
370
              15
390
0
  6
Continuous
 62
               7
100
AcDbVertex
100
AcDb3dPolylineVertex
 10
851.79732681119208
 20
-1313.6729163751811
 30
0.0000000022107645
 70
              32
  0
VERTEX
  5
277
100
AcDbEntity
  8
ADF70-1709
370
              15
390
0
  6
Continuous
 62
               7
100
AcDbVertex
100
AcDb3dPolylineVertex
 10
850.65701746534364
 20
-1313.8230409485845
 30
0.0000000022064468
 70
              32
  0
SEQEND
  5
278
100
AcDbEntity
  8
ADF70-1709
370
              15
390
0
  6
Continuous
 62
               7
  0
POLYLINE
  5
279
100
AcDbEntity
  8
ADF70-1709
370
              15
390
0
  6
Continuous
 62
               7
100
AcDb3dPolyline
 66
               1
 10
0.0
 20
0.0
 30
0.0
 70
               8
  0
VERTEX
  5
27A
100
AcDbEntity
  8
ADF70-1709
370
              15
390
0
  6
Continuous
 62
               7
100
AcDbVertex
100
AcDb3dPolylineVertex
 10
702.44762048512121
 20
-1365.0000022887957
 30
-0.0000000000000591
 70
              32
  0
VERTEX
  5
27B
100
AcDbEntity
  8
ADF70-1709
370
              15
390
0
  6
Continuous
 62
               7
100
AcDbVertex
100
AcDb3dPolylineVertex
 10
760.55233492374418
 20
-1363.9857807256317
 30
0.0000000000010083
 70
              32
  0
SEQEND
  5
27C
100
AcDbEntity
  8
ADF70-1709
370
              15
390
0
  6
Continuous
 62
               7
  0
POLYLINE
  5
27D
100
AcDbEntity
  8
ADF70-1709
370
              15
390
0
  6
Continuous
 62
               7
100
AcDb3dPolyline
 66
               1
 10
0.0
 20
0.0
 30
0.0
 70
               8
  0
VERTEX
  5
27E
100
AcDbEntity
  8
ADF70-1709
370
              15
390
0
  6
Continuous
 62
               7
100
AcDbVertex
100
AcDb3dPolylineVertex
 10
856.44762048512825
 20
-1307.8266959864709
 30
0.0000000022220186
 70
              32
  0
VERTEX
  5
27F
100
AcDbEntity
  8
ADF70-1709
370
              15
390
0
  6
Continuous
 62
               7
100
AcDbVertex
100
AcDb3dPolylineVertex
 10
856.4476204851228
 20
-172.17330401353649
 30
0.0000000021822348
 70
              32
  0
SEQEND
  5
280
100
AcDbEntity
  8
ADF70-1709
370
              15
390
0
  6
Continuous
 62
               7
  0
POLYLINE
  5
281
100
AcDbEntity
  8
ADF70-1709
370
              15
390
0
  6
Continuous
 62
               7
100
AcDb3dPolyline
 66
               1
 10
0.0
 20
0.0
 30
0.0
 70
               8
  0
VERTEX
  5
282
100
AcDbEntity
  8
ADF70-1709
370
              15
390
0
  6
Continuous
 62
               7
100
AcDbVertex
100
AcDb3dPolylineVertex
 10
771.0986255180992
 20
-1316.6012812149079
 30
0.0000000018873278
 70
              32
  0
VERTEX
  5
283
100
AcDbEntity
  8
ADF70-1709
370
              15
390
0
  6
Continuous
 62
               7
100
AcDbVertex
100
AcDb3dPolylineVertex
 10
850.65701746534364
 20
-1313.8230409485855
 30
0.0000000022062661
 70
              32
  0
SEQEND
  5
284
100
AcDbEntity
  8
ADF70-1709
370
              15
390
0
  6
Continuous
 62
               7
  0
POLYLINE
  5
285
100
AcDbEntity
  8
ADF70-1709
370
              15
390
0
  6
Continuous
 62
               7
100
AcDb3dPolyline
 66
               1
 10
0.0
 20
0.0
 30
0.0
 70
               8
  0
VERTEX
  5
286
100
AcDbEntity
  8
ADF70-1709
370
              15
390
0
  6
Continuous
 62
               7
100
AcDbVertex
100
AcDb3dPolylineVertex
 10
766.44762048512302
 20
-1317.934935447252
 30
0.0000000017175189
 70
              32
  0
VERTEX
  5
287
100
AcDbEntity
  8
ADF70-1709
370
              15
390
0
  6
Continuous
 62
               7
100
AcDbVertex
100
AcDb3dPolylineVertex
 10
766.98564235402455
 20
-1317.6458458690763
 30
0.0000000017545381
 70
              32
  0
VERTEX
  5
288
100
AcDbEntity
  8
ADF70-1709
370
              15
390
0
  6
Continuous
 62
               7
100
AcDbVertex
100
AcDb3dPolylineVertex
 10
767.54030920023024
 20
-1317.390140950572
 30
0.0000000017872432
 70
              32
  0
VERTEX
  5
289
100
AcDbEntity
  8
ADF70-1709
370
              15
390
0
  6
Continuous
 62
               7
100
AcDbVertex
100
AcDb3dPolylineVertex
 10
768.10955189278457
 20
-1317.1687745741751
 30
0.0000000018155123
 70
              32
  0
VERTEX
  5
28A
100
AcDbEntity
  8
ADF70-1709
370
              15
390
0
  6
Continuous
 62
               7
100
AcDbVertex
100
AcDb3dPolylineVertex
 10
768.69124692695232
 20
-1316.9825725257128
 30
0.0000000018392398
 70
              32
  0
VERTEX
  5
28B
100
AcDbEntity
  8
ADF70-1709
370
              15
390
0
  6
Continuous
 62
               7
100
AcDbVertex
100
AcDb3dPolylineVertex
 10
769.28322434574102
 20
-1316.8322294138966
 30
0.0000000018583374
 70
              32
  0
VERTEX
  5
28C
100
AcDbEntity
  8
ADF70-1709
370
              15
390
0
  6
Continuous
 62
               7
100
AcDbVertex
100
AcDb3dPolylineVertex
 10
769.88327583472028
 20
-1316.7183060791453
 30
0.0000000018727336
 70
              32
  0
VERTEX
  5
28D
100
AcDbEntity
  8
ADF70-1709
370
              15
390
0
  6
Continuous
 62
               7
100
AcDbVertex
100
AcDb3dPolylineVertex
 10
770.48916295992012
 20
-1316.641227501425
 30
0.0000000018823749
 70
              32
  0
VERTEX
  5
28E
100
AcDbEntity
  8
ADF70-1709
370
              15
390
0
  6
Continuous
 62
               7
100
AcDbVertex
100
AcDb3dPolylineVertex
 10
771.09862551809738
 20
-1316.6012812149061
 30
0.0000000018872253
 70
              32
  0
SEQEND
  5
28F
100
AcDbEntity
  8
ADF70-1709
370
              15
390
0
  6
Continuous
 62
               7
  0
LINE
  5
290
100
AcDbEntity
  8
ADF70-1709
370
              15
390
0
  6
Continuous
 62
               7
100
AcDbLine
 10
696.44762048512121
 20
-1359.0000022887968
 30
0.0
 11
696.44762048512121
 21
-120.99999771121077
 31
0.0
  0
ARC
  5
291
100
AcDbEntity
  8
ADF70-1709
370
              15
390
0
  6
Continuous
 62
               7
100
AcDbCircle
 10
702.4476204851203
 20
-120.99999771121122
 30
0.0
 40
6.0
100
AcDbArc
 50
90.0
 51
180.0
  0
POLYLINE
  5
292
100
AcDbEntity
  8
ADF70-1709
370
              15
390
0
  6
Continuous
 62
               7
100
AcDb3dPolyline
 66
               1
 10
0.0
 20
0.0
 30
0.0
 70
               8
  0
VERTEX
  5
293
100
AcDbEntity
  8
ADF70-1709
370
              15
390
0
  6
Continuous
 62
               7
100
AcDbVertex
100
AcDb3dPolylineVertex
 10
766.44762048512121
 20
-122.01330544531322
 30
-0.0000000000026323
 70
              32
  0
VERTEX
  5
294
100
AcDbEntity
  8
ADF70-1709
370
              15
390
0
  6
Continuous
 62
               7
100
AcDbVertex
100
AcDb3dPolylineVertex
 10
766.44762048512302
 20
-1352.7155404814125
 30
0.0000000000089742
 70
              32
  0
SEQEND
  5
295
100
AcDbEntity
  8
ADF70-1709
370
              15
390
0
  6
Continuous
 62
               7
  0
POLYLINE
  5
296
100
AcDbEntity
  8
ADF70-1709
370
              15
390
0
  6
Continuous
 62
               7
100
AcDb3dPolyline
 66
               1
 10
0.0
 20
0.0
 30
0.0
 70
               8
  0
VERTEX
  5
297
100
AcDbEntity
  8
ADF70-1709
370
              15
390
0
  6
Continuous
 62
               7
100
AcDbVertex
100
AcDb3dPolylineVertex
 10
760.55233492374145
 20
-116.0142192743748
 30
0.0000000000088272
 70
              32
  0
VERTEX
  5
298
100
AcDbEntity
  8
ADF70-1709
370
              15
390
0
  6
Continuous
 62
               7
100
AcDbVertex
100
AcDb3dPolylineVertex
 10
761.70789157326226
 20
-116.14715536332608
 30
0.0000000000087673
 70
              32
  0
VERTEX
  5
299
100
AcDbEntity
  8
ADF70-1709
370
              15
390
0
  6
Continuous
 62
               7
100
AcDbVertex
100
AcDb3dPolylineVertex
 10
762.81608362342422
 20
-116.50055818441854
 30
0.00000000000823
 70
              32
  0
VERTEX
  5
29A
100
AcDbEntity
  8
ADF70-1709
370
              15
390
0
  6
Continuous
 62
               7
100
AcDbVertex
100
AcDb3dPolylineVertex
 10
763.83526204096461
 20
-117.06114584680256
 30
0.0000000000072356
 70
              32
  0
VERTEX
  5
29B
100
AcDbEntity
  8
ADF70-1709
370
              15
390
0
  6
Continuous
 62
               7
100
AcDbVertex
100
AcDb3dPolylineVertex
 10
764.7271231800446
 20
-117.80784985951288
 30
0.0000000000058214
 70
              32
  0
VERTEX
  5
29C
100
AcDbEntity
  8
ADF70-1709
370
              15
390
0
  6
Continuous
 62
               7
100
AcDbVertex
100
AcDb3dPolylineVertex
 10
765.45814834303155
 20
-118.71260694573868
 30
0.0000000000040405
 70
              32
  0
VERTEX
  5
29D
100
AcDbEntity
  8
ADF70-1709
370
              15
390
0
  6
Continuous
 62
               7
100
AcDbVertex
100
AcDb3dPolylineVertex
 10
766.00086350922493
 20
-119.74141374119756
 30
0.0000000000019599
 70
              32
  0
VERTEX
  5
29E
100
AcDbEntity
  8
ADF70-1709
370
              15
390
0
  6
Continuous
 62
               7
100
AcDbVertex
100
AcDb3dPolylineVertex
 10
766.33487188728714
 20
-120.85560473801218
 30
-0.0000000000003423
 70
              32
  0
VERTEX
  5
29F
100
AcDbEntity
  8
ADF70-1709
370
              15
390
0
  6
Continuous
 62
               7
100
AcDbVertex
100
AcDb3dPolylineVertex
 10
766.4476204851203
 20
-122.01330544531322
 30
-0.0000000000027794
 70
              32
  0
SEQEND
  5
2A0
100
AcDbEntity
  8
ADF70-1709
370
              15
390
0
  6
Continuous
 62
               7
  0
POLYLINE
  5
2A1
100
AcDbEntity
  8
ADF70-1709
370
              15
390
0
  6
Continuous
 62
               7
100
AcDb3dPolyline
 66
               1
 10
0.0
 20
0.0
 30
0.0
 70
               8
  0
VERTEX
  5
2A2
100
AcDbEntity
  8
ADF70-1709
370
              15
390
0
  6
Continuous
 62
               7
100
AcDbVertex
100
AcDb3dPolylineVertex
 10
850.65701746534364
 20
-166.17695905142193
 30
0.0000000022064242
 70
              32
  0
VERTEX
  5
2A3
100
AcDbEntity
  8
ADF70-1709
370
              15
390
0
  6
Continuous
 62
               7
100
AcDbVertex
100
AcDb3dPolylineVertex
 10
851.79732681119208
 20
-166.32708362482538
 30
0.0000000022107419
 70
              32
  0
VERTEX
  5
2A4
100
AcDbEntity
  8
ADF70-1709
370
              15
390
0
  6
Continuous
 62
               7
100
AcDbVertex
100
AcDb3dPolylineVertex
 10
852.8880403435835
 20
-166.69203126768173
 30
0.0000000022146108
 70
              32
  0
VERTEX
  5
2A5
100
AcDbEntity
  8
ADF70-1709
370
              15
390
0
  6
Continuous
 62
               7
100
AcDbVertex
100
AcDb3dPolylineVertex
 10
853.88907910323474
 20
-167.25839174780288
 30
0.0000000022178886
 70
              32
  0
VERTEX
  5
2A6
100
AcDbEntity
  8
ADF70-1709
370
              15
390
0
  6
Continuous
 62
               7
100
AcDbVertex
100
AcDb3dPolylineVertex
 10
854.76365928716064
 20
-168.00535379078303
 30
0.000000002220455
 70
              32
  0
VERTEX
  5
2A7
100
AcDbEntity
  8
ADF70-1709
370
              15
390
0
  6
Continuous
 62
               7
100
AcDbVertex
100
AcDb3dPolylineVertex
 10
855.47964389280082
 20
-168.90546980344664
 30
0.0000000022222156
 70
              32
  0
VERTEX
  5
2A8
100
AcDbEntity
  8
ADF70-1709
370
              15
390
0
  6
Continuous
 62
               7
100
AcDbVertex
100
AcDb3dPolylineVertex
 10
856.01072361252886
 20
-169.92566445304112
 30
0.0000000022231057
 70
              32
  0
VERTEX
  5
2A9
100
AcDbEntity
  8
ADF70-1709
370
              15
390
0
  6
Continuous
 62
               7
100
AcDbVertex
100
AcDb3dPolylineVertex
 10
856.337383585814
 20
-171.02845004127778
 30
0.0000000022230927
 70
              32
  0
VERTEX
  5
2AA
100
AcDbEntity
  8
ADF70-1709
370
              15
390
0
  6
Continuous
 62
               7
100
AcDbVertex
100
AcDb3dPolylineVertex
 10
856.44762048512825
 20
-172.17330401353649
 30
0.000000002222177
 70
              32
  0
SEQEND
  5
2AB
100
AcDbEntity
  8
ADF70-1709
370
              15
390
0
  6
Continuous
 62
               7
  0
POLYLINE
  5
2AC
100
AcDbEntity
  8
ADF70-1709
370
              15
390
0
  6
Continuous
 62
               7
100
AcDb3dPolyline
 66
               1
 10
0.0
 20
0.0
 30
0.0
 70
               8
  0
VERTEX
  5
2AD
100
AcDbEntity
  8
ADF70-1709
370
              15
390
0
  6
Continuous
 62
               7
100
AcDbVertex
100
AcDb3dPolylineVertex
 10
702.44762048512121
 20
-114.99999771121168
 30
-0.0000000000000591
 70
              32
  0
VERTEX
  5
2AE
100
AcDbEntity
  8
ADF70-1709
370
              15
390
0
  6
Continuous
 62
               7
100
AcDbVertex
100
AcDb3dPolylineVertex
 10
760.55233492374418
 20
-116.0142192743748
 30
0.0000000000010083
 70
              32
  0
SEQEND
  5
2AF
100
AcDbEntity
  8
ADF70-1709
370
              15
390
0
  6
Continuous
 62
               7
  0
POLYLINE
  5
2B0
100
AcDbEntity
  8
ADF70-1709
370
              15
390
0
  6
Continuous
 62
               7
100
AcDb3dPolyline
 66
               1
 10
0.0
 20
0.0
 30
0.0
 70
               8
  0
VERTEX
  5
2B1
100
AcDbEntity
  8
ADF70-1709
370
              15
390
0
  6
Continuous
 62
               7
100
AcDbVertex
100
AcDb3dPolylineVertex
 10
766.44762048512121
 20
-163.23630211043894
 30
0.0000000018686825
 70
              32
  0
VERTEX
  5
2B2
100
AcDbEntity
  8
ADF70-1709
370
              15
390
0
  6
Continuous
 62
               7
100
AcDbVertex
100
AcDb3dPolylineVertex
 10
850.65701746534364
 20
-166.17695905142193
 30
0.0000000022062661
 70
              32
  0
SEQEND
  5
2B3
100
AcDbEntity
  8
ADF70-1709
370
              15
390
0
  6
Continuous
 62
               7
  0
LINE
  5
2B4
100
AcDbEntity
  8
ADF70-1709
370
              15
390
0
  6
STYLE_23
 62
               7
100
AcDbLine
 10
756.44762048512166
 20
-600.5071084927938
 30
0.0
 11
716.44762048512212
 21
-600.5071084927938
 31
0.0
  0
LINE
  5
2B5
100
AcDbEntity
  8
ADF70-1709
370
              15
390
0
  6
STYLE_23
 62
               7
100
AcDbLine
 10
736.44762048512166
 20
-580.5071084927938
 30
0.0
 11
736.44762048512166
 21
-620.5071084927938
 31
0.0
  0
CIRCLE
  5
2B6
100
AcDbEntity
  8
ADF70-1709
370
              15
390
0
  6
STYLE_23
 62
               7
100
AcDbCircle
 10
736.44762048512121
 20
-600.5071084927938
 30
0.0
 40
10.0
  0
LINE
  5
2B7
100
AcDbEntity
  8
ADF70-1709
370
              15
390
0
  6
STYLE_23
 62
               7
100
AcDbLine
 10
756.44762048512166
 20
-320.5071084927938
 30
0.0
 11
716.44762048512212
 21
-320.5071084927938
 31
0.0
  0
LINE
  5
2B8
100
AcDbEntity
  8
ADF70-1709
370
              15
390
0
  6
STYLE_23
 62
               7
100
AcDbLine
 10
736.44762048512166
 20
-300.5071084927938
 30
0.0
 11
736.44762048512166
 21
-340.5071084927938
 31
0.0
  0
CIRCLE
  5
2B9
100
AcDbEntity
  8
ADF70-1709
370
              15
390
0
  6
STYLE_23
 62
               7
100
AcDbCircle
 10
736.44762048512121
 20
-320.50710849279437
 30
0.0
 40
10.0
  0
LINE
  5
2BA
100
AcDbEntity
  8
ADF70-1709
370
              15
390
0
  6
STYLE_23
 62
               7
100
AcDbLine
 10
756.44762048512166
 20
-880.5071084927938
 30
0.0
 11
716.44762048512212
 21
-880.5071084927938
 31
0.0
  0
LINE
  5
2BB
100
AcDbEntity
  8
ADF70-1709
370
              15
390
0
  6
STYLE_23
 62
               7
100
AcDbLine
 10
736.44762048512166
 20
-900.5071084927938
 30
0.0
 11
736.44762048512166
 21
-860.5071084927938
 31
0.0
  0
CIRCLE
  5
2BC
100
AcDbEntity
  8
ADF70-1709
370
              15
390
0
  6
STYLE_23
 62
               7
100
AcDbCircle
 10
736.44762048512121
 20
-880.5071084927938
 30
0.0
 40
10.0
  0
LINE
  5
2BD
100
AcDbEntity
  8
ADF70-1709
370
              15
390
0
  6
STYLE_23
 62
               7
100
AcDbLine
 10
756.44762048512166
 20
-1160.5071084927938
 30
0.0
 11
716.44762048512212
 21
-1160.5071084927938
 31
0.0
  0
LINE
  5
2BE
100
AcDbEntity
  8
ADF70-1709
370
              15
390
0
  6
STYLE_23
 62
               7
100
AcDbLine
 10
736.44762048512166
 20
-1180.5071084927938
 30
0.0
 11
736.44762048512166
 21
-1140.5071084927938
 31
0.0
  0
CIRCLE
  5
2BF
100
AcDbEntity
  8
ADF70-1709
370
              15
390
0
  6
STYLE_23
 62
               7
100
AcDbCircle
 10
736.44762048512121
 20
-1160.5071084927938
 30
0.0
 40
10.0
  0
ARC
  5
2C0
100
AcDbEntity
  8
ADF70-1709
370
              15
390
0
  6
Continuous
 62
               7
100
AcDbCircle
 10
866.4476204851253
 20
-768.19406289596486
 30
0.0
 40
4.9999999999998339
100
AcDbArc
 50
278.53076561003468
 51
0.0
  0
LINE
  5
2C1
100
AcDbEntity
  8
ADF70-1709
370
              15
390
0
  6
Continuous
 62
               7
100
AcDbLine
 10
871.4476204851253
 20
-768.19406289596532
 30
0.0
 11
871.4476204851253
 21
-710.05970144186381
 31
0.0
  0
ARC
  5
2C2
100
AcDbEntity
  8
ADF70-1709
370
              15
390
0
  6
Continuous
 62
               7
100
AcDbCircle
 10
868.44762048512712
 20
-710.05970144186381
 30
0.0
 40
2.999999999998181
100
AcDbArc
 50
359.99999999996527
 51
82.265417612346482
  0
LINE
  5
2C3
100
AcDbEntity
  8
ADF70-1709
370
              15
390
0
  6
STYLE_24
 62
               7
100
AcDbLine
 10
867.18932274978397
 20
-773.13874466030506
 30
0.0
 11
856.46136912927204
 21
-774.74793770339738
 31
0.0
  0
LINE
  5
2C4
100
AcDbEntity
  8
ADF70-1709
370
              15
390
0
  6
STYLE_24
 62
               7
100
AcDbLine
 10
868.85137337065134
 20
-707.08699499698582
 30
0.0
 11
856.44576462623354
 21
-705.18812294012446
 31
0.0
  0
LINE
  5
2C5
100
AcDbEntity
  8
ADF70-1709
370
              15
390
0
  6
Continuous
 62
               7
100
AcDbLine
 10
-903.49997770443542
 20
-121.00000228879765
 30
0.0
 11
-903.49997770443724
 21
-1362.0000022887978
 31
0.0
  0
ARC
  5
2C6
100
AcDbEntity
  8
ADF70-1709
370
              15
390
0
  6
Continuous
 62
               7
100
AcDbCircle
 10
-897.49997770443542
 20
-121.00000228879719
 30
0.0
 40
6.0
100
AcDbArc
 50
90.0
 51
180.0
  0
ARC
  5
2C7
100
AcDbEntity
  8
ADF70-1709
370
              15
390
0
  6
Continuous
 62
               7
100
AcDbCircle
 10
-900.49997770443906
 20
-1362.0000022887978
 30
0.0
 40
3.0
100
AcDbArc
 50
180.0
 51
270.0
  0
LINE
  5
2C8
100
AcDbEntity
  8
ADF70-1709
370
              15
390
0
  6
Continuous
 62
               7
100
AcDbLine
 10
-900.49997770443906
 20
-1365.0000022887978
 30
0.0
 11
-439.50002229556821
 21
-1365.0000022887932
 31
0.0
  0
LINE
  5
2C9
100
AcDbEntity
  8
ADF70-1709
370
              15
390
0
  6
Continuous
 62
               7
100
AcDbLine
 10
-761.26245088846099
 20
-288.25256669045007
 30
0.0
 11
-761.2623851895587
 21
-1191.7243276225424
 31
0.0
  0
ARC
  5
2CA
100
AcDbEntity
  8
ADF70-1709
370
              15
390
0
  6
Continuous
 62
               7
100
AcDbCircle
 10
-731.26245088846099
 20
-288.25256460139246
 30
0.0
 40
30.000000000000032
100
AcDbArc
 50
104.99999999999446
 51
180.0000039898172
  0
ARC
  5
2CB
100
AcDbEntity
  8
ADF70-1709
370
              15
390
0
  6
Continuous
 62
               7
100
AcDbCircle
 10
-439.50002229556821
 20
-1359.0000022887932
 30
0.0
 40
6.0
100
AcDbArc
 50
270.0
 51
359.99999690819715
  0
LINE
  5
2CC
100
AcDbEntity
  8
ADF70-1709
370
              15
390
0
  6
Continuous
 62
               7
100
AcDbLine
 10
-897.49997770443542
 20
-115.00000228879765
 30
0.0
 11
-439.49997770443724
 21
-115.00000228879037
 31
0.0
  0
ARC
  5
2CD
100
AcDbEntity
  8
ADF70-1709
370
              15
390
0
  6
Continuous
 62
               7
100
AcDbCircle
 10
-439.49997770443633
 20
-121.00000228879037
 30
0.0
 40
6.0
100
AcDbArc
 50
0.0
 51
90.0
  0
ARC
  5
2CE
100
AcDbEntity
  8
ADF70-1709
370
              15
390
0
  6
Continuous
 62
               7
100
AcDbCircle
 10
-439.49997770443633
 20
-121.00000228879037
 30
0.0
 40
6.0
100
AcDbArc
 50
0.0
 51
90.0
  0
ARC
  5
2CF
100
AcDbEntity
  8
ADF70-1709
370
              15
390
0
  6
Continuous
 62
               7
100
AcDbCircle
 10
-668.49998404550206
 20
-740.00000000000387
 30
0.0
 40
38.0
100
AcDbArc
 50
180.0
 51
0.0
  0
ARC
  5
2D0
100
AcDbEntity
  8
ADF70-1709
370
              15
390
0
  6
Continuous
 62
               7
100
AcDbCircle
 10
-668.49998404550206
 20
-740.00000000000387
 30
0.0
 40
23.0
100
AcDbArc
 50
180.0
 51
0.0
  0
ARC
  5
2D1
100
AcDbEntity
  8
ADF70-1709
370
              15
390
0
  6
Continuous
 62
               7
100
AcDbCircle
 10
-668.49998404550206
 20
-740.00000000000387
 30
0.0
 40
38.0
100
AcDbArc
 50
0.0
 51
180.0
  0
ARC
  5
2D2
100
AcDbEntity
  8
ADF70-1709
370
              15
390
0
  6
Continuous
 62
               7
100
AcDbCircle
 10
-668.49998404550206
 20
-740.00000000000387
 30
0.0
 40
23.0
100
AcDbArc
 50
0.0
 51
180.0
  0
SPLINE
  5
2D3
100
AcDbEntity
  8
ADF70-1709
370
              15
390
0
  6
Continuous
 62
               7
100
AcDbSpline
210
0.0
220
0.0
230
1.0
 70
               8
 71
               2
 72
              14
 73
              11
 74
               0
 42
0.000001
 43
0.000001
 40
0.0
 40
0.0
 40
0.0
 40
1.0
 40
2.0
 40
3.0
 40
4.0
 40
4.0
 40
5.0
 40
6.0
 40
7.0
 40
8.0
 40
8.0
 40
8.0
 10
-771.3919659902358
 20
-740.00000628676958
 30
0.0
 10
-771.4263828694784
 20
-745.99311320802167
 30
0.0
 10
-770.97539801105358
 20
-752.96199050757536
 30
0.0
 10
-770.75536610723611
 20
-755.18238212945676
 30
0.0
 10
-770.45485924304012
 20
-756.77360429261694
 30
0.0
 10
-770.19269422993602
 20
-757.00000000000387
 30
0.0
 10
-769.93052921337585
 20
-756.77360431199236
 30
0.0
 10
-769.6281094639462
 20
-755.19229285565393
 30
0.0
 10
-769.40999044679666
 20
-752.96199057990884
 30
0.0
 10
-768.96761120241263
 20
-745.99195389699548
 30
0.0
 10
-768.99342246158358
 20
-740.00000640091116
 30
0.0
  0
SPLINE
  5
2D4
100
AcDbEntity
  8
ADF70-1709
370
              15
390
0
  6
Continuous
 62
               7
100
AcDbSpline
210
0.0
220
0.0
230
1.0
 70
               4
 71
               2
 72
               8
 73
               5
 74
               0
 42
0.000001
 43
0.000001
 40
0.0
 40
0.0
 40
0.0
 40
0.5
 40
0.5
 40
1.0
 40
1.0
 40
1.0
 10
-771.39196599023535
 20
-739.99998134034888
 30
-0.0000000000000591
 41
1.0
 10
-771.39196554673345
 20
-722.99998768418584
 30
-0.0000000000000591
 41
0.7071069131209413
 10
-770.19269422993557
 20
-722.99998762711459
 30
-0.0000000000000591
 41
1.0
 10
-768.99342291313815
 20
-722.99998757004334
 30
-0.0000000000000591
 41
0.7071069131209413
 10
-768.99342246158312
 20
-739.9999812262073
 30
-0.0000000000000591
 41
1.0
  0
LINE
  5
2D5
100
AcDbEntity
  8
ADF70-1709
370
              15
390
0
  6
Continuous
 62
               7
100
AcDbLine
 10
-433.50002229556821
 20
-1359.0000022887932
 30
0.0
 11
-433.50002229556821
 21
-120.97687024211575
 31
0.0
  0
LINE
  5
2D6
100
AcDbEntity
  8
ADF70-1709
370
              15
390
0
  6
Continuous
 62
               7
100
AcDbLine
 10
-468.50002229556821
 20
-1260.0000000000043
 30
0.0
 11
-468.50002229556731
 21
-220.0000000000033
 31
0.0
  0
LINE
  5
2D7
100
AcDbEntity
  8
ADF70-1709
370
              15
390
0
  6
Continuous
 62
               7
100
AcDbLine
 10
-502.30002229556749
 20
-1254.1587076050062
 30
0.0
 11
-502.30002229556749
 21
-225.84129239500146
 31
0.0
  0
ARC
  5
2D8
100
AcDbEntity
  8
ADF70-1709
370
              15
390
0
  6
Continuous
 62
               7
100
AcDbCircle
 10
-525.30002229556749
 20
-1254.1587076050062
 30
0.0
 40
23.000000000000025
100
AcDbArc
 50
255.00000000000557
 51
0.0
  0
LINE
  5
2D9
100
AcDbEntity
  8
ADF70-1709
370
              15
390
0
  6
Continuous
 62
               7
100
AcDbLine
 10
-512.55868887415591
 20
-1293.8074039201217
 30
0.0
 11
-747.55864428302721
 21
-1230.8393556469643
 31
0.0
  0
LINE
  5
2DA
100
AcDbEntity
  8
ADF70-1709
370
              15
390
0
  6
Continuous
 62
               7
100
AcDbLine
 10
-531.25286033292605
 20
-1276.3750016096553
 30
0.0
 11
-739.02695654263516
 21
-1220.7021003221569
 31
0.0
  0
ARC
  5
2DB
100
AcDbEntity
  8
ADF70-1709
370
              15
390
0
  6
Continuous
 62
               7
100
AcDbCircle
 10
-731.2623851895587
 20
-1191.7243255334849
 30
0.0
 40
30.000000000000071
100
AcDbArc
 50
180.00000398981808
 51
255.00000000000557
  0
ARC
  5
2DC
100
AcDbEntity
  8
ADF70-1709
370
              15
390
0
  6
Continuous
 62
               7
100
AcDbCircle
 10
-503.50002229556821
 20
-1260.0000000000043
 30
0.0
 40
35.000000000000036
100
AcDbArc
 50
255.00000000000557
 51
0.0
  0
LINE
  5
2DD
100
AcDbEntity
  8
ADF70-1709
370
              15
390
0
  6
Continuous
 62
               7
100
AcDbLine
 10
-512.55868887415591
 20
-186.1925960798859
 30
0.0
 11
-747.55864428302539
 21
-249.16064435304156
 31
0.0
  0
ARC
  5
2DE
100
AcDbEntity
  8
ADF70-1709
370
              15
390
0
  6
Continuous
 62
               7
100
AcDbCircle
 10
-503.5000222955664
 20
-220.0000000000033
 30
0.0
 40
35.0
100
AcDbArc
 50
0.0
 51
104.9999999999952
  0
LINE
  5
2DF
100
AcDbEntity
  8
ADF70-1709
370
              15
390
0
  6
Continuous
 62
               7
100
AcDbLine
 10
-773.49997770443679
 20
-282.96804827315987
 30
0.0
 11
-773.49997770443861
 21
-1197.031951726847
 31
0.0
  0
ARC
  5
2E0
100
AcDbEntity
  8
ADF70-1709
370
              15
390
0
  6
Continuous
 62
               7
100
AcDbCircle
 10
-738.4999777044377
 20
-1197.031951726847
 30
0.0
 40
35.0
100
AcDbArc
 50
180.0
 51
255.00000000000557
  0
LINE
  5
2E1
100
AcDbEntity
  8
ADF70-1709
370
              15
390
0
  6
Continuous
 62
               7
100
AcDbLine
 10
-765.11160579734678
 20
-1217.4771446969705
 30
0.0
 11
-756.43507301332011
 21
-1211.0098874042694
 31
0.0
  0
LINE
  5
2E2
100
AcDbEntity
  8
ADF70-1709
370
              15
390
0
  6
Continuous
 62
               7
100
AcDbLine
 10
-488.30801633639885
 20
-1284.5400911621134
 30
0.0
 11
-506.81850437488947
 21
-1274.7703566389916
 31
0.0
  0
ARC
  5
2E3
100
AcDbEntity
  8
ADF70-1709
370
              15
390
0
  6
Continuous
 62
               7
100
AcDbCircle
 10
-525.30002229556703
 20
-225.84129239500146
 30
0.0
 40
23.000000000000455
100
AcDbArc
 50
0.0
 51
104.99999999999443
  0
LINE
  5
2E4
100
AcDbEntity
  8
ADF70-1709
370
              15
390
0
  6
Continuous
 62
               7
100
AcDbLine
 10
-765.11160579734678
 20
-262.52285530303539
 30
0.0
 11
-756.43507301332011
 21
-268.9901125957374
 31
0.0
  0
LINE
  5
2E5
100
AcDbEntity
  8
ADF70-1709
370
              15
390
0
  6
Continuous
 62
               7
100
AcDbLine
 10
-488.30801633639885
 20
-195.45990883789329
 30
0.0
 11
-506.81850437488947
 21
-205.22964336101597
 31
0.0
  0
ARC
  5
2E6
100
AcDbEntity
  8
ADF70-1709
370
              15
390
0
  6
Continuous
 62
               7
100
AcDbCircle
 10
-738.4999777044377
 20
-282.96804827315975
 30
0.0
 40
35.000000000000476
100
AcDbArc
 50
104.99999999999426
 51
179.99999999999923
  0
LINE
  5
2E7
100
AcDbEntity
  8
ADF70-1709
370
              15
390
0
  6
Continuous
 62
               7
100
AcDbLine
 10
-531.25286033292605
 20
-203.60187092125454
 30
0.0
 11
-739.02702224153745
 21
-259.27478981272066
 31
0.0
  0
CIRCLE
  5
2E8
100
AcDbEntity
  8
ADF70-1709
370
              15
390
0
  6
STYLE_23
 62
               7
100
AcDbCircle
 10
-838.4999777044377
 20
-741.50000228879776
 30
0.0
 40
17.5
  0
CIRCLE
  5
2E9
100
AcDbEntity
  8
ADF70-1709
370
              15
390
0
  6
STYLE_23
 62
               7
100
AcDbCircle
 10
-838.4999777044377
 20
-841.5000022887973
 30
0.0
 40
17.499999999999545
  0
CIRCLE
  5
2EA
100
AcDbEntity
  8
ADF70-1709
370
              15
390
0
  6
STYLE_23
 62
               7
100
AcDbCircle
 10
-838.4999777044377
 20
-641.50000228879776
 30
0.0
 40
17.5
  0
CIRCLE
  5
2EB
100
AcDbEntity
  8
ADF70-1709
370
              15
390
0
  6
STYLE_23
 62
               7
100
AcDbCircle
 10
-838.4999777044377
 20
-461.50000228879719
 30
0.0
 40
17.5
  0
CIRCLE
  5
2EC
100
AcDbEntity
  8
ADF70-1709
370
              15
390
0
  6
STYLE_23
 62
               7
100
AcDbCircle
 10
-838.4999777044377
 20
-1021.5000022887973
 30
0.0
 40
17.5
  0
LINE
  5
2ED
100
AcDbEntity
  8
ADF70-1709
370
              15
390
0
  6
STYLE_23
 62
               7
100
AcDbLine
 10
701.48895789709331
 20
-187.0085690498546
 30
0.0
 11
792.69123473015065
 21
-201.770245687233
 31
0.0
  0
ARC
  5
2EE
100
AcDbEntity
  8
ADF70-1709
370
              15
390
0
  6
STYLE_23
 62
               7
100
AcDbCircle
 10
702.44762048512121
 20
-181.08565034010383
 30
0.0
 40
6.0
100
AcDbArc
 50
180.0
 51
260.80604156595416
  0
LINE
  5
2EF
100
AcDbEntity
  8
ADF70-1709
370
              15
390
0
  6
STYLE_23
 62
               7
100
AcDbLine
 10
816.4476204851253
 20
-700.25710191883968
 30
0.0
 11
816.4476204851253
 21
-780.25710191883968
 31
0.0
  0
LINE
  5
2F0
100
AcDbEntity
  8
ADF70-1709
370
              15
390
0
  6
STYLE_23
 62
               7
100
AcDbLine
 10
828.4476204851253
 20
-762.75710191883877
 30
0.0
 11
828.4476204851253
 21
-717.75710191883968
 31
0.0
  0
LINE
  5
2F1
100
AcDbEntity
  8
ADF70-1709
370
              15
390
0
  6
STYLE_23
 62
               7
100
AcDbLine
 10
828.4476204851253
 20
-762.75710191883877
 30
0.0
 11
833.27975277072437
 21
-762.75710191883877
 31
0.0
  0
LINE
  5
2F2
100
AcDbEntity
  8
ADF70-1709
370
              15
390
0
  6
STYLE_23
 62
               7
100
AcDbLine
 10
871.4476204851253
 20
-762.75710191883968
 30
0.0
 11
828.4476204851253
 21
-762.75710191883968
 31
0.0
  0
LINE
  5
2F3
100
AcDbEntity
  8
ADF70-1709
370
              15
390
0
  6
STYLE_23
 62
               7
100
AcDbLine
 10
828.4476204851253
 20
-762.75710191883968
 30
0.0
 11
816.4476204851253
 21
-780.25710191883968
 31
0.0
  0
LINE
  5
2F4
100
AcDbEntity
  8
ADF70-1709
370
              15
390
0
  6
STYLE_23
 62
               7
100
AcDbLine
 10
816.4476204851253
 20
-700.25710191883968
 30
0.0
 11
828.4476204851253
 21
-717.75710191883968
 31
0.0
  0
LINE
  5
2F5
100
AcDbEntity
  8
ADF70-1709
370
              15
390
0
  6
STYLE_23
 62
               7
100
AcDbLine
 10
828.4476204851253
 20
-717.75710191883968
 30
0.0
 11
871.4476204851253
 21
-717.75710191883968
 31
0.0
  0
LINE
  5
2F6
100
AcDbEntity
  8
ADF70-1709
370
              15
390
0
  6
STYLE_23
 62
               7
100
AcDbLine
 10
805.29059490420832
 20
-216.23187671403184
 30
0.0
 11
816.4476204851253
 21
-700.25710191883968
 31
0.0
  0
ARC
  5
2F7
100
AcDbEntity
  8
ADF70-1709
370
              15
390
0
  6
STYLE_23
 62
               7
100
AcDbCircle
 10
790.29457826008093
 20
-216.57754246160982
 30
0.0
 40
14.99999999999995
100
AcDbArc
 50
1.3204627853175575
 51
80.806041565953251
  0
LINE
  5
2F8
100
AcDbEntity
  8
ADF70-1709
370
              15
390
0
  6
STYLE_23
 62
               7
100
AcDbLine
 10
701.48895789709331
 20
-1293.505634787824
 30
0.0
 11
792.69123473015065
 21
-1278.7439581504455
 31
0.0
  0
ARC
  5
2F9
100
AcDbEntity
  8
ADF70-1709
370
              15
390
0
  6
STYLE_23
 62
               7
100
AcDbCircle
 10
702.44762048512121
 20
-1299.4285534975747
 30
0.0
 40
6.0000000000000098
100
AcDbArc
 50
99.193958434045854
 51
180.0
  0
LINE
  5
2FA
100
AcDbEntity
  8
ADF70-1709
370
              15
390
0
  6
STYLE_23
 62
               7
100
AcDbLine
 10
805.29059490420832
 20
-1264.2823271236466
 30
0.0
 11
816.4476204851253
 21
-780.25710191883877
 31
0.0
  0
ARC
  5
2FB
100
AcDbEntity
  8
ADF70-1709
370
              15
390
0
  6
STYLE_23
 62
               7
100
AcDbCircle
 10
790.29457826008093
 20
-1263.9366613760685
 30
0.0
 40
14.999999999999948
100
AcDbArc
 50
279.19395843404675
 51
358.67953721468245
  0
ARC
  5
2FC
100
AcDbEntity
  8
ADF70-1709
370
              15
390
0
  6
STYLE_23
 62
               7
100
AcDbCircle
 10
799.95879221577843
 20
1289.3311471193033
 30
0.0
 40
11.799999999999757
100
AcDbArc
 50
8.6553133584667759
 51
79.999999999999901
  0
LINE
  5
2FD
100
AcDbEntity
  8
ADF70-1709
370
              15
390
0
  6
Continuous
 62
               7
100
AcDbLine
 10
766.44500548952828
 20
987.58310034735268
 30
0.0
 11
766.44500548952783
 21
1449.5540638164189
 31
0.0
  0
LINE
  5
2FE
100
AcDbEntity
  8
ADF70-1709
370
              15
390
0
  6
STYLE_23
 62
               7
100
AcDbLine
 10
798.51572114982559
 20
1050.2668009613205
 30
0.0
 11
700.39590477037882
 21
1014.5541084075498
 31
0.0
  0
ARC
  5
2FF
100
AcDbEntity
  8
ADF70-1709
370
              15
390
0
  6
STYLE_23
 62
               7
100
AcDbCircle
 10
794.54828748724913
 20
1061.1672353624379
 30
0.0
 40
11.600000000000284
100
AcDbArc
 50
289.99999999999278
 51
355.05846007343496
  0
ENDSEC
  0
SECTION
  2
OBJECTS
  0
DICTIONARY
  5
19
100
AcDbDictionary
280
               0
281
               1
  3
ACAD_GROUP
350
1A
  3
ACAD_MLINESTYLE
350
1B
  3
ACAD_LAYOUT
350
1E
  3
ACAD_PLOTSETTINGS
350
22
  3
ACAD_PLOTSTYLENAME
350
1F
  0
DICTIONARY
  5
1A
102
{ACAD_REACTORS
330
19
102
}
100
AcDbDictionary
280
               0
281
               1
  0
DICTIONARY
  5
1B
102
{ACAD_REACTORS
330
19
102
}
100
AcDbDictionary
280
               0
281
               1
  3
Standard
350
1C
  0
MLINESTYLE
  5
1C
102
{ACAD_REACTORS
330
1B
102
}
100
AcDbMlineStyle
  2
Standard
 70
               0
  3

 62
               0
 51
90.0
 52
90.0
 71
               2
 49
0.5
 62
             256
  6
ByLayer
 49
-0.5
 62
             256
  6
ByLayer
  0
ACDBDICTIONARYWDFLT
  5
1F
102
{ACAD_REACTORS
330
19
102
}
100
AcDbDictionary
281
               1
  3
Normal
350
1D
100
AcDbDictionaryWithDefault
340
1D
  0
ACDBPLACEHOLDER
  5
1D
102
{ACAD_REACTORS
330
1F
102
}
  0
LAYOUT
  5
20
102
{ACAD_REACTORS
330
1E
102
}
100
AcDbPlotSettings
  1

  2

  4

  6

 40
0.0
 41
0.0
 42
0.0
 43
0.0
 44
0.0
 45
0.0
 46
0.0
 47
0.0
 48
0.0
 49
0.0
140
0.0
141
0.0
142
1.0
143
1.0
 70
            1024
 72
               0
 73
               0
 74
               0
  7

 75
               0
147
1.0
148
0.0
149
0.0
100
AcDbLayout
  1
Model
 70
               0
 71
               0
 10
0.0
 20
0.0
 11
0.0
 21
0.0
 12
0.0
 22
0.0
 32
0.0
 14
0.0
 24
0.0
 34
0.0
 15
0.0
 25
0.0
 35
0.0
146
0.0
 13
0.0
 23
0.0
 33
0.0
 16
0.0
 26
0.0
 36
0.0
 17
0.0
 27
0.0
 37
0.0
 76
               0
330
A
331
0
345
0
346
0
  0
LAYOUT
  5
21
102
{ACAD_REACTORS
330
1E
102
}
100
AcDbPlotSettings
  1

  2

  4

  6

 40
0.0
 41
0.0
 42
0.0
 43
0.0
 44
0.0
 45
0.0
 46
0.0
 47
0.0
 48
0.0
 49
0.0
140
0.0
141
0.0
142
1.0
143
1.0
 70
               0
 72
               0
 73
               0
 74
               0
  7

 75
               0
147
1.0
148
0.0
149
0.0
100
AcDbLayout
  1
Layout1
 70
               0
 71
               0
 10
0.0
 20
0.0
 11
0.0
 21
0.0
 12
0.0
 22
0.0
 32
0.0
 14
0.0
 24
0.0
 34
0.0
 15
0.0
 25
0.0
 35
0.0
146
0.0
 13
0.0
 23
0.0
 33
0.0
 16
0.0
 26
0.0
 36
0.0
 17
0.0
 27
0.0
 37
0.0
 76
               0
330
B
331
0
345
0
346
0
  0
DICTIONARY
  5
1E
102
{ACAD_REACTORS
330
19
102
}
100
AcDbDictionary
280
               0
281
               1
  3
Layout1
350
21
  3
Model
350
20
  0
DICTIONARY
  5
22
102
{ACAD_REACTORS
330
19
102
}
100
AcDbDictionary
280
               0
281
               1
  0
ENDSEC
  0
EOF
