  0
SECTION
  2
HEADER
  9
$ACADVER
  1
AC1015
  9
$ACADMAINTVER
 70
               6
  9
$DWGCODEPAGE
  3
ANSI_932
  9
$INSBASE
 10
0.0
 20
0.0
 30
0.0
  9
$EXTMIN
 10
-979.26511463184397
 20
-1410.193491717135
 30
-14.834305555555554
  9
$EXTMAX
 10
970.73488536863806
 20
1420.2737678397218
 30
14.834305555555554
  9
$LIMMIN
 10
0.0
 20
0.0
  9
$LIMMAX
 10
0.0
 20
0.0
  9
$ORTHOMODE
 70
               0
  9
$REGENMODE
 70
               1
  9
$FILLMODE
 70
               1
  9
$QTEXTMODE
 70
               0
  9
$MIRRTEXT
 70
               1
  9
$LTSCALE
 40
50.799999999999997
  9
$ATTMODE
 70
               1
  9
$TEXTSIZE
 40
0.2
  9
$TRACEWID
 40
1.0
  9
$TEXTSTYLE
  7
Standard
  9
$CLAYER
  8
ADF70-1710
  9
$CELTYPE
  6
Continuous
  9
$CECOLOR
 62
             256
  9
$CELTSCALE
 40
1.0
  9
$DISPSILH
 70
               0
  9
$DIMSCALE
 40
1.0
  9
$DIMASZ
 40
22.4482421875
  9
$DIMEXO
 40
15.875
  9
$DIMDLI
 40
10.16
  9
$DIMRND
 40
0.0
  9
$DIMDLE
 40
1.5874999999999999
  9
$DIMEXE
 40
31.75
  9
$DIMTP
 40
0.0
  9
$DIMTM
 40
0.0
  9
$DIMTXT
 40
24.432617187500004
  9
$DIMCEN
 40
0.0
  9
$DIMTSZ
 40
0.0
  9
$DIMTOL
 70
               0
  9
$DIMLIM
 70
               0
  9
$DIMTIH
 70
               0
  9
$DIMTOH
 70
               0
  9
$DIMSE1
 70
               0
  9
$DIMSE2
 70
               0
  9
$DIMTAD
 70
               1
  9
$DIMZIN
 70
              11
  9
$DIMBLK
  1
VW_SLASH
  9
$DIMASO
 70
               1
  9
$DIMSHO
 70
               1
  9
$DIMPOST
  1
<>
  9
$DIMAPOST
  1
[]
  9
$DIMALT
 70
               0
  9
$DIMALTD
 70
               1
  9
$DIMALTF
 40
1.0
  9
$DIMLFAC
 40
1.0
  9
$DIMTOFL
 70
               1
  9
$DIMTVP
 40
0.0
  9
$DIMTIX
 70
               1
  9
$DIMSOXD
 70
               0
  9
$DIMSAH
 70
               0
  9
$DIMBLK1
  1

  9
$DIMBLK2
  1

  9
$DIMSTYLE
  2
Arch
  9
$DIMCLRD
 70
               0
  9
$DIMCLRE
 70
               0
  9
$DIMCLRT
 70
               0
  9
$DIMTFAC
 40
1.0
  9
$DIMGAP
 40
1.5874999999999999
  9
$DIMJUST
 70
               0
  9
$DIMSD1
 70
               0
  9
$DIMSD2
 70
               0
  9
$DIMTOLJ
 70
               1
  9
$DIMTZIN
 70
              11
  9
$DIMALTZ
 70
              11
  9
$DIMALTTZ
 70
              11
  9
$DIMUPT
 70
               0
  9
$DIMDEC
 70
               1
  9
$DIMTDEC
 70
               1
  9
$DIMALTU
 70
               2
  9
$DIMALTTD
 70
               2
  9
$DIMTXSTY
  7
ＭＳ ゴシック
  9
$DIMAUNIT
 70
               0
  9
$DIMADEC
 70
               2
  9
$DIMALTRND
 40
0.0
  9
$DIMAZIN
 70
               0
  9
$DIMDSEP
 70
              46
  9
$DIMATFIT
 70
               0
  9
$DIMFRAC
 70
               2
  9
$DIMLDRBLK
  1

  9
$DIMLUNIT
 70
               2
  9
$DIMLWD
 70
              -2
  9
$DIMLWE
 70
              -2
  9
$DIMTMOVE
 70
               0
  9
$LUNITS
 70
               2
  9
$LUPREC
 70
               4
  9
$SKETCHINC
 40
0.1
  9
$FILLETRAD
 40
0.0
  9
$AUNITS
 70
               0
  9
$AUPREC
 70
               0
  9
$MENU
  1
acad
  9
$ELEVATION
 40
0.0
  9
$PELEVATION
 40
0.0
  9
$THICKNESS
 40
0.0
  9
$LIMCHECK
 70
               0
  9
$CHAMFERA
 40
0.0
  9
$CHAMFERB
 40
0.0
  9
$CHAMFERC
 40
0.0
  9
$CHAMFERD
 40
0.0
  9
$SKPOLY
 70
               0
  9
$TDCREATE
 40
2455995.756631944
  9
$TDUCREATE
 40
0.000000000
  9
$TDUPDATE
 40
2455995.756631944
  9
$TDUUPDATE
 40
0.000000000
  9
$TDINDWG
 40
0.0000000000
  9
$TDUSRTIMER
 40
0.0000000000
  9
$USRTIMER
 70
               1
  9
$ANGBASE
 50
0.0
  9
$ANGDIR
 70
               0
  9
$PDMODE
 70
               1
  9
$PDSIZE
 40
-2.0
  9
$PLINEWID
 40
0.0
  9
$SPLFRAME
 70
               0
  9
$SPLINETYPE
 70
               6
  9
$SPLINESEGS
 70
               8
  9
$HANDSEED
  5
279
  9
$SURFTAB1
 70
               6
  9
$SURFTAB2
 70
               6
  9
$SURFTYPE
 70
               6
  9
$SURFU
 70
               6
  9
$SURFV
 70
               6
  9
$UCSBASE
  2

  9
$UCSNAME
  2

  9
$UCSORG
 10
0.0
 20
0.0
 30
0.0
  9
$UCSXDIR
 10
1.0
 20
0.0
 30
0.0
  9
$UCSYDIR
 10
0.0
 20
1.0
 30
0.0
  9
$UCSORTHOREF
  2

  9
$UCSORTHOVIEW
 70
               0
  9
$UCSORGTOP
 10
0.0
 20
0.0
 30
0.0
  9
$UCSORGBOTTOM
 10
0.0
 20
0.0
 30
0.0
  9
$UCSORGLEFT
 10
0.0
 20
0.0
 30
0.0
  9
$UCSORGRIGHT
 10
0.0
 20
0.0
 30
0.0
  9
$UCSORGFRONT
 10
0.0
 20
0.0
 30
0.0
  9
$UCSORGBACK
 10
0.0
 20
0.0
 30
0.0
  9
$PUCSBASE
  2

  9
$PUCSNAME
  2

  9
$PUCSORG
 10
0.0
 20
0.0
 30
0.0
  9
$PUCSXDIR
 10
1.0
 20
0.0
 30
0.0
  9
$PUCSYDIR
 10
0.0
 20
1.0
 30
0.0
  9
$PUCSORTHOREF
  2

  9
$PUCSORTHOVIEW
 70
               0
  9
$PUCSORGTOP
 10
0.0
 20
0.0
 30
0.0
  9
$PUCSORGBOTTOM
 10
0.0
 20
0.0
 30
0.0
  9
$PUCSORGLEFT
 10
0.0
 20
0.0
 30
0.0
  9
$PUCSORGRIGHT
 10
0.0
 20
0.0
 30
0.0
  9
$PUCSORGFRONT
 10
0.0
 20
0.0
 30
0.0
  9
$PUCSORGBACK
 10
0.0
 20
0.0
 30
0.0
  9
$USERI1
 70
               0
  9
$USERI2
 70
               0
  9
$USERI3
 70
               0
  9
$USERI4
 70
               0
  9
$USERI5
 70
               0
  9
$USERR1
 40
0.0
  9
$USERR2
 40
0.0
  9
$USERR3
 40
0.0
  9
$USERR4
 40
0.0
  9
$USERR5
 40
0.0
  9
$WORLDVIEW
 70
               1
  9
$SHADEDGE
 70
               3
  9
$SHADEDIF
 70
              70
  9
$TILEMODE
 70
               1
  9
$MAXACTVP
 70
              64
  9
$PINSBASE
 10
0.0
 20
0.0
 30
0.0
  9
$PLIMCHECK
 70
               0
  9
$PEXTMIN
 10
1.0000000000000000E+20
 20
1.0000000000000000E+20
 30
1.0000000000000000E+20
  9
$PEXTMAX
 10
-1.0000000000000000E+20
 20
-1.0000000000000000E+20
 30
-1.0000000000000000E+20
  9
$PLIMMIN
 10
0.0
 20
0.0
  9
$PLIMMAX
 10
12.0
 20
9.0
  9
$UNITMODE
 70
               0
  9
$VISRETAIN
 70
               0
  9
$PLINEGEN
 70
               1
  9
$PSLTSCALE
 70
               0
  9
$TREEDEPTH
 70
            3020
  9
$CMLSTYLE
  2
Standard
  9
$CMLJUST
 70
               0
  9
$CMLSCALE
 40
1.0
  9
$PROXYGRAPHICS
 70
               0
  9
$MEASUREMENT
 70
               1
  9
$CELWEIGHT
370
               0
  9
$ENDCAPS
280
               0
  9
$JOINSTYLE
280
               0
  9
$LWDISPLAY
290
               1
  9
$INSUNITS
 70
               4
  9
$HYPERLINKBASE
  1

  9
$STYLESHEET
  1

  9
$XEDIT
290
               1
  9
$CEPSNTYPE
380
               0
  9
$PSTYLEMODE
290
               1
  9
$FINGERPRINTGUID
  2

  9
$VERSIONGUID
  2

  9
$EXTNAMES
290
               1
  9
$PSVPSCALE
 40
0.0
  0
ENDSEC
  0
SECTION
  2
CLASSES
  0
CLASS
  1
LWPOLYLINE
  2
AcDbPolyline
  3
AutoCAD 2000
 90
        0
280
               0
281
               1
  0
CLASS
  1
IMAGE
  2
AcDbRasterImage
  3
ISM
 90
      127
280
               0
281
               1
  0
CLASS
  1
OLE2FRAME
  2
AcDbOle2Frame
  3
AutoCAD 2000
 90
        0
280
               0
281
               1
  0
CLASS
  1
HATCH
  2
AcDbHatch
  3
AutoCAD 2000
 90
        0
280
               0
281
               1
  0
CLASS
  1
DICTIONARYVAR
  2
AcDbDictionaryVar
  3
AutoCAD 2000
 90
        0
280
               0
281
               0
  0
CLASS
  1
RASTERVARIABLES
  2
AcDbRasterVariables
  3
ISM
 90
        0
280
               0
281
               0
  0
CLASS
  1
IMAGEDEF
  2
AcDbRasterImageDef
  3
ISM
 90
        0
280
               0
281
               0
  0
CLASS
  1
IMAGEDEF_REACTOR
  2
AcDbRasterImageDefReactor
  3
ISM
 90
        1
280
               0
281
               0
  0
CLASS
  1
IDBUFFER
  2
AcDbIdBuffer
  3
AutoCAD 2000
 90
        0
280
               0
281
               0
  0
CLASS
  1
SPATIAL_FILTER
  2
AcDbSpatialFilter
  3
AutoCAD 2000
 90
        0
280
               0
281
               0
  0
CLASS
  1
XRECORD
  2
AcDbXrecord
  3
AutoCAD 2000
 90
        0
280
               0
281
               0
  0
CLASS
  1
SORTENTSTABLE
  2
AcDbSortentsTable
  3
AutoCAD 2000
 90
        0
280
               0
281
               0
  0
CLASS
  1
LAYER_INDEX
  2
AcDbLayerIndex
  3
AutoCAD 2000
 90
        0
280
               0
281
               0
  0
CLASS
  1
SPATIAL_INDEX
  2
AcDbSpatialIndex
  3
AutoCAD 2000
 90
        0
280
               0
281
               0
  0
CLASS
  1
OBJECT_PTR
  2
CAseDLPNTableRecord
  3
"ASE-LPNTableRecord"
 90
        1
280
               0
281
               0
  0
CLASS
  1
LAYOUT
  2
AcDbLayout
  3
AutoCAD 2000
 90
        0
280
               0
281
               0
  0
CLASS
  1
PLOTSETTINGS
  2
AcDbPlotSettings
  3
AutoCAD 2000
 90
        0
280
               0
281
               0
  0
CLASS
  1
ACDBDICTIONARYWDFLT
  2
AcDbDictionaryWithDefault
  3
AutoCAD 2000
 90
        0
280
               0
281
               0
  0
CLASS
  1
ACDBPLACEHOLDER
  2
AcDbPlaceHolder
  3
AutoCAD 2000
 90
        0
280
               0
281
               0
  0
ENDSEC
  0
SECTION
  2
TABLES
  0
TABLE
  2
VPORT
  5
7
100
AcDbSymbolTable
 70
               1
  0
VPORT
  5
15
100
AcDbSymbolTableRecord
100
AcDbViewportTableRecord
  2
*ACTIVE
 70
               0
 10
0.0
 20
0.0
 11
1.0
 21
1.0
 12
-4.2651146316029553
 22
5.040138061293419
 13
0.0
 23
0.0
 14
1.0
 24
1.0
 15
0.0
 25
0.0
 16
0.0
 26
0.0
 36
1.0
 17
0.0
 27
0.0
 37
0.0
 40
2830.4672595568568
 41
0.688564
 42
50.0
 43
0.0
 44
0.0
 50
0.0
 51
0.0
 71
               0
 72
            2000
 73
               1
 74
               1
 75
               0
 76
               0
 77
               0
 78
               0
281
               0
 65
               0
110
0.0
120
0.0
130
0.0
111
1.0
121
0.0
131
0.0
112
0.0
122
1.0
132
0.0
345
0
346
0
 79
               0
146
0.0
  0
ENDTAB
  0
TABLE
  2
LTYPE
  5
4
100
AcDbSymbolTable
 70
              16
  0
LTYPE
  5
11
100
AcDbSymbolTableRecord
100
AcDbLinetypeTableRecord
  2
ByBlock
 70
              64
  3

 72
              65
 73
               0
 40
0.0
  0
LTYPE
  5
12
100
AcDbSymbolTableRecord
100
AcDbLinetypeTableRecord
  2
ByLayer
 70
              64
  3

 72
              65
 73
               0
 40
0.0
  0
LTYPE
  5
13
100
AcDbSymbolTableRecord
100
AcDbLinetypeTableRecord
  2
Continuous
 70
              64
  3
Solid line
 72
              65
 73
               0
 40
0.0
  0
LTYPE
  5
34
100
AcDbSymbolTableRecord
100
AcDbLinetypeTableRecord
  2
STYLE_01
 70
               0
  3

 72
              65
 73
               2
 40
0.1875
 49
0.125
 74
               0
 49
-0.0625
 74
               0
  0
LTYPE
  5
35
100
AcDbSymbolTableRecord
100
AcDbLinetypeTableRecord
  2
STYLE_02
 70
               0
  3

 72
              65
 73
               2
 40
4.3709194178355029
 49
2.2895292489050845
 74
               0
 49
-2.0813901689304179
 74
               0
  0
LTYPE
  5
36
100
AcDbSymbolTableRecord
100
AcDbLinetypeTableRecord
  2
STYLE_03
 70
               0
  3

 72
              65
 73
               2
 40
4.3709194178355029
 49
2.2895292489050845
 74
               0
 49
-2.0813901689304179
 74
               0
  0
LTYPE
  5
37
100
AcDbSymbolTableRecord
100
AcDbLinetypeTableRecord
  2
STYLE_04
 70
               0
  3

 72
              65
 73
               2
 40
1.5277099999999999
 49
1.3194249999999998
 74
               0
 49
-0.208285
 74
               0
  0
LTYPE
  5
38
100
AcDbSymbolTableRecord
100
AcDbLinetypeTableRecord
  2
STYLE_05
 70
               0
  3

 72
              65
 73
               2
 40
0.20828
 49
0.069425
 74
               0
 49
-0.138855
 74
               0
  0
LTYPE
  5
39
100
AcDbSymbolTableRecord
100
AcDbLinetypeTableRecord
  2
STYLE_06
 70
               0
  3

 72
              65
 73
               4
 40
1.0416400000000001
 49
0.625
 74
               0
 49
-0.20828
 74
               0
 49
0.06943
 74
               0
 49
-0.13893
 74
               0
  0
LTYPE
  5
3A
100
AcDbSymbolTableRecord
100
AcDbLinetypeTableRecord
  2
STYLE_07
 70
               0
  3

 72
              65
 73
               6
 40
1.875
 49
0.625
 74
               0
 49
-0.20828
 74
               0
 49
0.6250000000000001
 74
               0
 49
-0.2083599999999999
 74
               0
 49
0.06943
 74
               0
 49
-0.1389299999999999
 74
               0
  0
LTYPE
  5
3B
100
AcDbSymbolTableRecord
100
AcDbLinetypeTableRecord
  2
STYLE_08
 70
               0
  3

 72
              65
 73
               6
 40
1.25
 49
0.625
 74
               0
 49
-0.20828
 74
               0
 49
0.06943
 74
               0
 49
-0.13893
 74
               0
 49
0.0694299999999999
 74
               0
 49
-0.13893
 74
               0
  0
LTYPE
  5
3C
100
AcDbSymbolTableRecord
100
AcDbLinetypeTableRecord
  2
STYLE_09
 70
               0
  3

 72
              65
 73
               4
 40
5.0
 49
3.75
 74
               0
 49
-0.2777849999999998
 74
               0
 49
0.6944300000000003
 74
               0
 49
-0.2777849999999998
 74
               0
  0
LTYPE
  5
3D
100
AcDbSymbolTableRecord
100
AcDbLinetypeTableRecord
  2
STYLE_10
 70
               0
  3

 72
              65
 73
               6
 40
5.9375
 49
3.75
 74
               0
 49
-0.2777849999999998
 74
               0
 49
0.6944300000000003
 74
               0
 49
-0.2777849999999998
 74
               0
 49
0.625
 74
               0
 49
-0.3125
 74
               0
  0
LTYPE
  5
3E
100
AcDbSymbolTableRecord
100
AcDbLinetypeTableRecord
  2
STYLE_11
 70
               0
  3

 72
              65
 73
               2
 40
0.0694444881889764
 49
0.0347222440944882
 74
               0
 49
-0.0347222440944882
 74
               0
  0
LTYPE
  5
3F
100
AcDbSymbolTableRecord
100
AcDbLinetypeTableRecord
  2
STYLE_12
 70
               0
  3

 72
              65
 73
               2
 40
0.3937007874015748
 49
0.1968503937007874
 74
               0
 49
-0.1968503937007874
 74
               0
  0
LTYPE
  5
40
100
AcDbSymbolTableRecord
100
AcDbLinetypeTableRecord
  2
STYLE_13
 70
               0
  3

 72
              65
 73
               2
 40
0.09375
 49
0.0625
 74
               0
 49
-0.03125
 74
               0
  0
ENDTAB
  0
TABLE
  2
LAYER
  5
2
100
AcDbSymbolTable
 70
               5
  0
LAYER
  5
14
100
AcDbSymbolTableRecord
100
AcDbLayerTableRecord
  2
0
 70
               0
 62
               7
  6
Continuous
290
               1
370
              -3
390
1D
  0
LAYER
  5
41
100
AcDbSymbolTableRecord
100
AcDbLayerTableRecord
  2
Defpoints
 70
               0
 62
               7
  6
Continuous
290
               0
370
              -3
390
1D
  0
LAYER
  5
42
100
AcDbSymbolTableRecord
100
AcDbLayerTableRecord
  2
template
 70
               0
 62
               7
  6
Continuous
290
               1
370
              -3
390
1D
  0
LAYER
  5
43
100
AcDbSymbolTableRecord
100
AcDbLayerTableRecord
  2
notes
 70
               0
 62
               7
  6
Continuous
290
               1
370
              -3
390
1D
  0
LAYER
  5
44
100
AcDbSymbolTableRecord
100
AcDbLayerTableRecord
  2
ADF70-1710
 70
               0
 62
               7
  6
Continuous
290
               1
370
              -3
390
1D
  0
ENDTAB
  0
TABLE
  2
STYLE
  5
3
100
AcDbSymbolTable
 70
               2
  0
STYLE
  5
17
100
AcDbSymbolTableRecord
100
AcDbTextStyleTableRecord
  2
Standard
 70
               0
 40
0.0
 41
1.0
 50
0.0
 71
               0
 42
0.0
  3
txt
  4
BIGFONT.SHX
  0
STYLE
  5
33
100
AcDbSymbolTableRecord
100
AcDbTextStyleTableRecord
  2
ＭＳ ゴシック
 70
               0
 40
0.0
 41
1.0
 50
0.0
 71
               0
 42
0.0
  3

  4
ＭＳ ゴシック
1001
ACAD
1000
ＭＳ ゴシック
1071
        0
  0
ENDTAB
  0
TABLE
  2
VIEW
  5
5
100
AcDbSymbolTable
 70
               0
  0
ENDTAB
  0
TABLE
  2
UCS
  5
6
100
AcDbSymbolTable
 70
               0
  0
ENDTAB
  0
TABLE
  2
APPID
  5
8
100
AcDbSymbolTable
 70
               1
  0
APPID
  5
16
100
AcDbSymbolTableRecord
100
AcDbRegAppTableRecord
  2
ACAD
 70
               0
  0
ENDTAB
  0
TABLE
  2
DIMSTYLE
  5
9
100
AcDbSymbolTable
 70
               3
100
AcDbDimStyleTable
 71
               0
  0
DIMSTYLE
105
18
100
AcDbSymbolTableRecord
100
AcDbDimStyleTableRecord
  2
Standard
 70
               0
  3

  4

 40
1.0
 41
0.18
 42
0.0625
 43
0.38
 44
0.18
 45
0.0
 46
0.0
 47
0.0
 48
0.0
 71
               0
 72
               0
 73
               1
 74
               1
 75
               0
 76
               0
 77
               0
 78
               0
 79
               0
140
0.18
141
0.09
142
0.0
143
25.399999999999999
144
1.0
145
0.0
146
1.0
147
0.09
148
0.0
170
               0
171
               2
172
               0
173
               0
174
               0
175
               0
176
               0
177
               0
178
               0
179
               0
271
               4
272
               4
273
               2
274
               2
275
               0
276
               0
277
               2
278
              46
279
               0
280
               0
281
               0
282
               0
283
               1
284
               0
285
               0
286
               0
288
               0
289
               3
340
17
341
0
342
0
343
0
344
0
371
              -2
372
              -2
  0
DIMSTYLE
105
4D
100
AcDbSymbolTableRecord
100
AcDbDimStyleTableRecord
  2
tform線あり
 70
               0
  3
<>
  4
[]
 40
1.0
 41
3.999755859375
 42
24.999999999999996
 43
0.9999999999999999
 44
0.0
 45
0.0
 46
0.0
 47
0.0
 48
0.0
 71
               0
 72
               0
 73
               0
 74
               0
 75
               0
 76
               0
 77
               1
 78
              11
 79
               0
140
24.432617187500004
141
0.0
142
0.0
143
1.0
144
1.0
145
0.0
146
1.0
147
0.4999999999999999
148
0.0
170
               0
171
               1
172
               1
173
               0
174
               1
175
               0
176
               0
177
               0
178
               0
179
               2
271
               1
272
               1
273
               2
274
               2
275
               0
276
               2
277
               2
278
              46
279
               0
280
               0
281
               0
282
               0
283
               1
284
              11
285
              11
286
              11
288
               0
289
               0
340
33
341
45
342
45
343
0
344
0
371
              -2
372
              -2
  0
DIMSTYLE
105
57
100
AcDbSymbolTableRecord
100
AcDbDimStyleTableRecord
  2
Arch
 70
               0
  3
<>
  4
[]
 40
1.0
 41
22.4482421875
 42
15.875
 43
10.16
 44
31.75
 45
0.0
 46
1.5874999999999999
 47
0.0
 48
0.0
 71
               0
 72
               0
 73
               0
 74
               0
 75
               0
 76
               0
 77
               1
 78
              11
 79
               0
140
24.432617187500004
141
0.0
142
0.0
143
1.0
144
1.0
145
0.0
146
1.0
147
1.5874999999999999
148
0.0
170
               0
171
               1
172
               1
173
               0
174
               1
175
               0
176
               0
177
               0
178
               0
179
               2
271
               1
272
               1
273
               2
274
               2
275
               0
276
               2
277
               2
278
              46
279
               0
280
               0
281
               0
282
               0
283
               1
284
              11
285
              11
286
              11
288
               0
289
               0
340
33
341
53
342
4E
343
0
344
0
371
              -2
372
              -2
  0
ENDTAB
  0
TABLE
  2
BLOCK_RECORD
  5
1
100
AcDbSymbolTable
 70
              19
  0
BLOCK_RECORD
  5
A
100
AcDbSymbolTableRecord
100
AcDbBlockTableRecord
  2
*MODEL_SPACE
340
20
  0
BLOCK_RECORD
  5
B
100
AcDbSymbolTableRecord
100
AcDbBlockTableRecord
  2
*PAPER_SPACE
340
21
  0
BLOCK_RECORD
  5
45
100
AcDbSymbolTableRecord
100
AcDbBlockTableRecord
  2
_DOT
340
0
  0
BLOCK_RECORD
  5
4E
100
AcDbSymbolTableRecord
100
AcDbBlockTableRecord
  2
VW_SLASH
340
0
  0
BLOCK_RECORD
  5
53
100
AcDbSymbolTableRecord
100
AcDbBlockTableRecord
  2
VW_FILLEDARROW
340
0
  0
BLOCK_RECORD
  5
23
100
AcDbSymbolTableRecord
100
AcDbBlockTableRecord
  2
グループ
340
0
102
{BLKREFS
331
12D
102
}
  0
BLOCK_RECORD
  5
24
100
AcDbSymbolTableRecord
100
AcDbBlockTableRecord
  2
*D4
340
0
  0
BLOCK_RECORD
  5
25
100
AcDbSymbolTableRecord
100
AcDbBlockTableRecord
  2
*D5
340
0
  0
BLOCK_RECORD
  5
26
100
AcDbSymbolTableRecord
100
AcDbBlockTableRecord
  2
*D6
340
0
  0
BLOCK_RECORD
  5
27
100
AcDbSymbolTableRecord
100
AcDbBlockTableRecord
  2
*D7
340
0
  0
BLOCK_RECORD
  5
28
100
AcDbSymbolTableRecord
100
AcDbBlockTableRecord
  2
*D8
340
0
  0
BLOCK_RECORD
  5
29
100
AcDbSymbolTableRecord
100
AcDbBlockTableRecord
  2
*D9
340
0
  0
BLOCK_RECORD
  5
2A
100
AcDbSymbolTableRecord
100
AcDbBlockTableRecord
  2
*D10
340
0
  0
BLOCK_RECORD
  5
2B
100
AcDbSymbolTableRecord
100
AcDbBlockTableRecord
  2
*D11
340
0
  0
BLOCK_RECORD
  5
2C
100
AcDbSymbolTableRecord
100
AcDbBlockTableRecord
  2
*D12
340
0
  0
BLOCK_RECORD
  5
2D
100
AcDbSymbolTableRecord
100
AcDbBlockTableRecord
  2
*D13
340
0
  0
BLOCK_RECORD
  5
2E
100
AcDbSymbolTableRecord
100
AcDbBlockTableRecord
  2
*D14
340
0
  0
BLOCK_RECORD
  5
2F
100
AcDbSymbolTableRecord
100
AcDbBlockTableRecord
  2
*D15
340
0
  0
BLOCK_RECORD
  5
30
100
AcDbSymbolTableRecord
100
AcDbBlockTableRecord
  2
*D16
340
0
  0
BLOCK_RECORD
  5
31
100
AcDbSymbolTableRecord
100
AcDbBlockTableRecord
  2
*D17
340
0
  0
BLOCK_RECORD
  5
32
100
AcDbSymbolTableRecord
100
AcDbBlockTableRecord
  2
*D18
340
0
  0
ENDTAB
  0
ENDSEC
  0
SECTION
  2
BLOCKS
  0
BLOCK
  5
D
100
AcDbEntity
  8
0
390
0
100
AcDbBlockBegin
  2
*MODEL_SPACE
 70
               0
 10
0.0
 20
0.0
 30
0.0
  3
*MODEL_SPACE
  1

  0
ENDBLK
  5
E
100
AcDbEntity
  8
0
390
0
100
AcDbBlockEnd
  0
BLOCK
  5
F
100
AcDbEntity
 67
               1
  8
0
390
0
100
AcDbBlockBegin
  2
*PAPER_SPACE
 70
               0
 10
0.0
 20
0.0
 30
0.0
  3
*PAPER_SPACE
  1

  0
ENDBLK
  5
10
100
AcDbEntity
 67
               1
  8
0
390
0
100
AcDbBlockEnd
  0
BLOCK
  5
46
100
AcDbEntity
  8
0
390
0
100
AcDbBlockBegin
  2
_DOT
 70
               0
 10
0.0
 20
0.0
 30
0.0
  3
_DOT
  1

  0
POLYLINE
  5
47
100
AcDbEntity
  8
0
370
              -2
390
0
  6
ByBlock
 62
               0
100
AcDb2dPolyline
 66
               1
 10
0.0
 20
0.0
 30
0.0
 70
               1
 40
0.5
 41
0.5
  0
VERTEX
  5
48
100
AcDbEntity
  8
0
370
              -2
390
0
  6
ByBlock
 62
               0
100
AcDbVertex
100
AcDb2dVertex
 10
-0.25
 20
0.0
 30
0.0
 42
1.0
  0
VERTEX
  5
49
100
AcDbEntity
  8
0
370
              -2
390
0
  6
ByBlock
 62
               0
100
AcDbVertex
100
AcDb2dVertex
 10
0.25
 20
0.0
 30
0.0
 42
1.0
  0
SEQEND
  5
4A
100
AcDbEntity
  8
0
390
0
  0
LINE
  5
4B
100
AcDbEntity
  8
0
370
              -2
390
0
  6
ByBlock
 62
               0
100
AcDbLine
 10
-0.5
 20
0.0
 30
0.0
 11
-1.0
 21
0.0
 31
0.0
  0
ENDBLK
  5
4C
100
AcDbEntity
  8
0
390
0
100
AcDbBlockEnd
  0
BLOCK
  5
4F
100
AcDbEntity
  8
0
370
              -2
390
0
  6
ByBlock
 62
               0
100
AcDbBlockBegin
  2
VW_SLASH
 70
               0
 10
0.0
 20
0.0
 30
0.0
  3
VW_SLASH
  1

  0
LINE
  5
50
100
AcDbEntity
  8
0
370
              -2
390
0
  6
ByBlock
 62
               0
100
AcDbLine
 10
0.0
 20
0.0
 30
0.0
 11
-1.0
 21
0.0
 31
0.0
  0
LINE
  5
51
100
AcDbEntity
  8
0
370
              20
390
0
  6
ByBlock
 62
               0
100
AcDbLine
 10
-0.4987813153181721
 20
-0.4987813153181719
 30
0.0
 11
0.4987813153181721
 21
0.4987813153181719
 31
0.0
  0
ENDBLK
  5
52
100
AcDbEntity
  8
0
390
0
100
AcDbBlockEnd
  0
BLOCK
  5
54
100
AcDbEntity
  8
0
370
              -2
390
0
  6
ByBlock
 62
               0
100
AcDbBlockBegin
  2
VW_FILLEDARROW
 70
               0
 10
0.0
 20
0.0
 30
0.0
  3
VW_FILLEDARROW
  1

  0
SOLID
  5
55
100
AcDbEntity
  8
0
370
              -2
390
0
 62
               0
100
AcDbTrace
 10
0.0
 20
0.0
 30
0.0
 11
-1.4107666015625
 21
-0.3780137715974714
 31
0.0
 12
-1.4107666015625
 22
0.3780137715974717
 32
0.0
 13
-1.4107666015625
 23
0.3780137715974717
 33
0.0
  0
ENDBLK
  5
56
100
AcDbEntity
  8
0
390
0
100
AcDbBlockEnd
  0
BLOCK
  5
58
100
AcDbEntity
  8
template
390
0
100
AcDbBlockBegin
  2
グループ
 70
               0
 10
0.0
 20
0.0
 30
0.0
  3
グループ
  1

  0
LWPOLYLINE
  5
59
100
AcDbEntity
  8
0
370
              15
390
0
  6
Continuous
 62
               7
100
AcDbPolyline
 90
        8
 70
             129
 10
-5665.2938734858953
 20
-3291.1972052917054
 10
-5665.2938734858953
 20
-3297.1945939852812
 10
-5674.7950704038985
 20
-3297.1945939852812
 10
-5674.7950704038985
 20
-3321.6455572487898
 10
-5683.1504476656819
 20
-3321.6455572487898
 10
-5683.1504476656819
 20
-3297.1945939852812
 10
-5692.4834046119913
 20
-3297.1945939852812
 10
-5692.4834046119913
 20
-3291.1972052917054
  0
LWPOLYLINE
  5
5A
100
AcDbEntity
  8
0
370
              15
390
0
  6
Continuous
 62
               7
100
AcDbPolyline
 90
      101
 70
             128
 10
-5652.5655816553381
 20
-3291.9254537846418
 10
-5652.5502316265447
 20
-3291.9210930279542
 42
-0.0222221607806208
 10
-5652.2602270498819
 20
-3291.8524685627117
 10
-5652.2444332859031
 20
-3291.8494651396177
 42
-0.0146883565613459
 10
-5651.9817305806646
 20
-3291.8074619526656
 42
-0.0127458844167942
 10
-5651.7170916135119
 20
-3291.7799249845934
 10
-5651.6546365351987
 20
-3291.7750315620051
 42
-0.0198099018547146
 10
-5651.2637874257243
 20
-3291.7599464046084
 10
-5651.2119759562784
 20
-3291.7600001802734
 42
-0.0147617382768182
 10
-5650.7173524953087
 20
-3291.7751202055179
 10
-5650.6446610404382
 20
-3291.7794928124054
 42
-0.0162624548993486
 10
-5650.2545074109639
 20
-3291.8157256876784
 10
-5650.1329750197056
 20
-3291.8310122466746
 42
-0.0080020874657489
 10
-5649.9873959886136
 20
-3291.8516950939429
 10
-5649.9490765180244
 20
-3291.8577663717529
 42
-0.0053821929642202
 10
-5649.8805924127037
 20
-3291.8693738955758
 10
-5650.6069981119026
 20
-3294.0503023512897
 42
0.0108667757426388
 10
-5650.6743151820328
 20
-3294.0371152360699
 10
-5650.7117832052227
 20
-3294.0306174934753
 42
0.0170663203297661
 10
-5650.8549999921415
 20
-3294.010787896183
 10
-5650.9228753248217
 20
-3294.0037407255959
 42
0.0220162375262254
 10
-5651.203254732678
 20
-3293.9870583648258
 10
-5651.2811102997257
 20
-3293.9858589975597
 42
0.028260691576453
 10
-5651.6167466233055
 20
-3293.9996622745284
 10
-5651.6606598970866
 20
-3294.0039622645331
 42
0.0169677213670354
 10
-5651.9065843920371
 20
-3294.0364993140838
 42
0.0190576269887482
 10
-5652.1494923546152
 20
-3294.0866461861901
 10
-5652.1557515427285
 20
-3294.0881891602999
 42
0.0213685642833494
 10
-5652.4061360272053
 20
-3294.161389445404
 10
-5652.4116259221228
 20
-3294.1632524414636
 42
0.0237595297583266
 10
-5652.665120807018
 20
-3294.2629369633578
 10
-5652.6702228810509
 20
-3294.2652287388373
 42
0.0261857468806012
 10
-5652.9223936572816
 20
-3294.3947650762125
 10
-5652.93281984637
 20
-3294.4008305506818
 42
0.0272553062047284
 10
-5653.1692496216065
 20
-3294.5562027566248
 10
-5653.2040126351139
 20
-3294.5818639047152
 42
0.0325996893163178
 10
-5653.3541679787677
 20
-3294.708611777688
 10
-5653.3778774078801
 20
-3294.7314298061901
 42
0.0138050960616685
 10
-5653.4697605641004
 20
-3294.8248794677529
 42
0.012528010375723
 10
-5653.5566030969185
 20
-3294.9230427943353
 10
-5653.5802835418417
 20
-3294.9512012925402
 42
0.0205218024724245
 10
-5653.7053836173582
 20
-3295.1129946067731
 10
-5653.7278499578433
 20
-3295.1446543365964
 42
0.0163110129587237
 10
-5653.8835603370862
 20
-3295.3799847716527
 10
-5653.8862842331455
 20
-3295.3844085336518
 42
0.0131897341873172
 10
-5654.0330847540472
 20
-3295.6375406260086
 10
-5654.0347848494175
 20
-3295.6406588651516
 42
0.0107895576067586
 10
-5654.1725615516407
 20
-3295.9068740748112
 10
-5654.1732944411533
 20
-3295.9083683074332
 42
0.0091371507215259
 10
-5654.3017743898017
 20
-3296.1828935051917
 10
-5654.3315200212119
 20
-3296.2496000123519
 42
0.0135418326354944
 10
-5654.503233960284
 20
-3296.6645377976224
 10
-5654.5368387687276
 20
-3296.7524039399273
 42
0.0092834542415694
 10
-5654.7080678286384
 20
-3297.2263024382073
 10
-5654.7336849563644
 20
-3297.3015435080242
 42
0.0054261043579369
 10
-5654.8413231046488
 20
-3297.6293074810656
 10
-5654.8588490909442
 20
-3297.6846956436689
 42
0.0008225090801745
 10
-5654.9275191426577
 20
-3297.9029644014449
 10
-5655.9122082745898
 20
-3300.9278556947015
 10
-5652.679584434517
 20
-3300.9278556947015
 10
-5653.18377686437
 20
-3302.8323339930539
 10
-5656.4398331463535
 20
-3302.8323339930539
 10
-5662.2689821787071
 20
-3321.6455570590588
 10
-5664.0940797890171
 20
-3321.6455570590588
 10
-5658.2594017535166
 20
-3302.8323339930539
 10
-5660.6645181225567
 20
-3302.8323339930539
 10
-5660.1603256927037
 20
-3300.9278556947015
 10
-5657.7317768817529
 20
-3300.9278556947015
 10
-5656.8716219635653
 20
-3298.2914426940024
 42
-0.0005863560712982
 10
-5656.8348872855995
 20
-3298.1746162744657
 10
-5656.7587994517016
 20
-3297.9336239743252
 42
-0.0087522378934298
 10
-5656.55933130826
 20
-3297.3383478872211
 10
-5656.4670670328333
 20
-3297.0782077186723
 42
-0.0077400953828043
 10
-5656.2091333736998
 20
-3296.3852030411181
 10
-5656.1933684021287
 20
-3296.3447721577513
 42
-0.0082369946336593
 10
-5655.9462839315092
 20
-3295.7406930915358
 42
-0.0085725238359469
 10
-5655.6790378355026
 20
-3295.1452670522403
 10
-5655.5774082344897
 20
-3294.9288459502441
 42
-0.0168109410600259
 10
-5655.2904638057689
 20
-3294.3676384241594
 10
-5655.1646204152657
 20
-3294.1406743910829
 42
-0.0007817726832198
 10
-5655.1103360652533
 20
-3294.0431301461313
 10
-5655.1102077592222
 20
-3294.0429004373696
 42
-0.0036626142186111
 10
-5655.0553198952148
 20
-3293.946302557426
 42
-0.0080221150685415
 10
-5654.9981956398124
 20
-3293.8510233226807
 10
-5654.9674956884464
 20
-3293.801632373551
 42
-0.0202139325586163
 10
-5654.8398399486468
 20
-3293.6136507728784
 10
-5654.7857724834521
 20
-3293.5405719086284
 42
-0.0249323791799959
 10
-5654.5266096897312
 20
-3293.2245266664722
 10
-5654.502469875606
 20
-3293.1979123935616
 42
-0.0242132121545942
 10
-5654.1627891340677
 20
-3292.8580289073616
 10
-5654.1148775613092
 20
-3292.8145197711683
 42
-0.0251017527856783
 10
-5653.8308958606722
 20
-3292.581527025407
 10
-5653.8294503838679
 20
-3292.580457767835
 42
-0.0130868069062654
 10
-5653.5311897339016
 20
-3292.3716772992857
 10
-5653.5296279147624
 20
-3292.3706438590129
 42
-0.0290329526390981
 10
-5653.218516773366
 20
-3292.1898183573812
 10
-5653.1886712113755
 20
-3292.1747159745396
 42
-0.0160250190058247
 10
-5652.9227667976156
 20
-3292.0506998643286
 42
-0.0267600374801375
 10
-5652.6474907201491
 20
-3291.9499515437806
 10
-5652.620754800625
 20
-3291.941758984954
 42
-0.0049981587781794
 10
-5652.5655816553381
 20
-3291.9254537846418
 42
-0.0049981587781794
  0
LWPOLYLINE
  5
5B
100
AcDbEntity
  8
0
370
              15
390
0
  6
Continuous
 62
               7
100
AcDbPolyline
 90
      118
 70
             128
 10
-5632.7512140908921
 20
-3301.0018390225287
 10
-5630.8760921663916
 20
-3301.0018390225287
 10
-5631.7141310719917
 20
-3303.6834055489289
 42
-0.0010587229312486
 10
-5631.6826752563147
 20
-3303.6465010154502
 10
-5631.624481165788
 20
-3303.5785187593979
 42
-0.0071874740402414
 10
-5631.4741059476828
 20
-3303.4078780673617
 10
-5631.3323831744274
 20
-3303.2516419260555
 42
-0.0148118053506183
 10
-5630.8822538817103
 20
-3302.7840280800378
 10
-5630.7950315468224
 20
-3302.6986307591983
 42
-0.0086273358705928
 10
-5630.459482745805
 20
-3302.3812551251726
 10
-5630.4156490295727
 20
-3302.3412054808337
 42
-0.0103138323124105
 10
-5630.1576253273452
 20
-3302.1150423435015
 10
-5630.111850921011
 20
-3302.076560296236
 42
-0.0060206748561611
 10
-5629.939002856906
 20
-3301.9347656454866
 10
-5629.9369717260097
 20
-3301.9331399398466
 42
-0.0067069027267144
 10
-5629.7646789113578
 20
-3301.7989893060603
 10
-5629.7621301454183
 20
-3301.7970591361745
 42
-0.0076184352015999
 10
-5629.5912248795603
 20
-3301.6716842609412
 42
-0.0089652861648995
 10
-5629.4162639168198
 20
-3301.5520510006045
 10
-5629.3799121966795
 20
-3301.5281397871249
 42
-0.0156916245940311
 10
-5629.18395269952
 20
-3301.4078773006513
 42
-0.0023299011072374
 10
-5628.9836906555793
 20
-3301.2946993611326
 10
-5628.9683065231602
 20
-3301.2860993660461
 42
-0.0107669341497019
 10
-5628.7340696980546
 20
-3301.161699232694
 10
-5628.7118048969842
 20
-3301.1504824827462
 42
-0.0078058045886545
 10
-5628.4282147790191
 20
-3301.013121027102
 10
-5628.4183076913223
 20
-3301.0085118992392
 42
-0.0181829330471517
 10
-5628.1079982867104
 20
-3300.8776481581449
 10
-5628.0539428441407
 20
-3300.8571330382006
 42
-0.0208411536033994
 10
-5627.7048578766899
 20
-3300.7410425757071
 10
-5627.6905017765703
 20
-3300.7369241307561
 42
-0.022279981714539
 10
-5627.361781982645
 20
-3300.6582825646137
 10
-5627.3528930194152
 20
-3300.6565705540302
 42
-0.0215509523902135
 10
-5627.0364220511283
 20
-3300.6096548654941
 10
-5626.9939400900867
 20
-3300.6052173387038
 42
-0.0182545924875916
 10
-5626.7598313107746
 20
-3300.5893735133122
 10
-5626.7204302944074
 20
-3300.5881489682324
 42
-0.007296285650963
 10
-5626.5645074147378
 20
-3300.5855796397109
 10
-5626.5354077441925
 20
-3300.5855248043072
 42
-0.0059227516368474
 10
-5626.4376582450204
 20
-3300.5864985160974
 10
-5626.408416027527
 20
-3300.5871362827011
 42
-0.0011833111930353
 10
-5626.3691647438163
 20
-3300.5880852870109
 10
-5627.1645513394224
 20
-3303.1268192321099
 42
0.0143932051610544
 10
-5627.1909527217895
 20
-3303.1166202620598
 10
-5627.1982246941916
 20
-3303.1140490432072
 42
0.023438860351496
 10
-5627.2400555601316
 20
-3303.1014298074901
 10
-5627.2487372230362
 20
-3303.0992488454867
 42
0.0199162742989228
 10
-5627.3090260571162
 20
-3303.0866321101521
 10
-5627.3298399949226
 20
-3303.0831349107234
 42
0.0293643550636984
 10
-5627.4329148536863
 20
-3303.0719848650701
 10
-5627.4576000344023
 20
-3303.0707732480514
 42
0.0214606686833038
 10
-5627.6107409503529
 20
-3303.0698346876338
 10
-5627.6201128611719
 20
-3303.0701795991781
 42
0.0167564054188424
 10
-5627.7916330522885
 20
-3303.0822566415477
 10
-5627.8000928450392
 20
-3303.0831379819738
 42
0.0137677553217514
 10
-5627.9874461583004
 20
-3303.1078872905164
 10
-5627.9947978978125
 20
-3303.1090652104849
 42
0.0118497261470383
 10
-5628.1952956619134
 20
-3303.1460825606741
 10
-5628.2014456691613
 20
-3303.1473694233946
 42
0.0106421143918276
 10
-5628.4123265564367
 20
-3303.1962017989667
 10
-5628.4172353648346
 20
-3303.197449141654
 42
0.0099746379700949
 10
-5628.6356938339914
 20
-3303.2576236699674
 10
-5628.697241874167
 20
-3303.2759055485994
 42
0.0191613675848664
 10
-5629.0332263366845
 20
-3303.3898829288873
 10
-5629.1212861094245
 20
-3303.4235698392094
 42
0.02052740801466
 10
-5629.5065928813292
 20
-3303.589398247037
 10
-5629.5642421633065
 20
-3303.6170662116069
 42
0.018125691217922
 10
-5629.8225191039783
 20
-3303.7527500305873
 10
-5629.8754744872931
 20
-3303.7830676438025
 42
0.0140709242408474
 10
-5630.0204294219202
 20
-3303.8715623172366
 10
-5630.0466782905351
 20
-3303.8886191359497
 42
0.0086667884362118
 10
-5630.1356044520817
 20
-3303.9486218038346
 42
0.0036408192017967
 10
-5630.2230376901252
 20
-3304.0108026616344
 10
-5630.2582645645844
 20
-3304.0362436075402
 42
0.0052260781297166
 10
-5630.4144932620011
 20
-3304.151575994194
 10
-5630.4307001182342
 20
-3304.1638041047922
 42
0.0050024435887843
 10
-5630.6167034613009
 20
-3304.3070866730618
 10
-5630.6320216178074
 20
-3304.3191326955002
 42
0.0136138710277836
 10
-5630.8424628861285
 20
-3304.4940992004099
 10
-5630.876130761927
 20
-3304.5236781731278
 42
0.0172815186930625
 10
-5631.1405343035831
 20
-3304.7726748457444
 10
-5631.1430966494327
 20
-3304.7752606628983
 42
0.0189403857990494
 10
-5631.3936784480156
 20
-3305.0480659277073
 10
-5631.4263099415502
 20
-3305.0864098592033
 42
0.0185044199507866
 10
-5631.6182663805275
 20
-3305.3296584403229
 42
0.0088565243887948
 10
-5631.7967264871568
 20
-3305.5831748604746
 10
-5631.8059044668043
 20
-3305.596716240233
 42
0.0157195347222045
 10
-5631.9891250731398
 20
-3305.8862384495496
 10
-5632.0352080150878
 20
-3305.964390646599
 42
0.0095451879793916
 10
-5632.2002935652072
 20
-3306.256985288926
 10
-5632.2114414841544
 20
-3306.2776559610907
 42
0.0100351706262237
 10
-5632.3434852332957
 20
-3306.5347115215486
 42
0.0086935915418059
 10
-5632.4658163850836
 20
-3306.7965446669391
 10
-5632.4691371265044
 20
-3306.8039869899249
 42
0.0072580174857853
 10
-5632.5894835784457
 20
-3307.0845789814989
 10
-5632.5927452117558
 20
-3307.0924990075259
 42
0.0060005122621191
 10
-5632.7119458800744
 20
-3307.3921086780701
 10
-5632.7151568584395
 20
-3307.4004702060356
 42
0.00490177869472
 10
-5632.8340570172732
 20
-3307.7193991865724
 10
-5632.8372228236876
 20
-3307.7281521238701
 42
0.0039415167600135
 10
-5632.9566591017101
 20
-3308.0666941861814
 10
-5632.959790204397
 20
-3308.0757973871596
 42
0.0031035838751929
 10
-5633.0805949900632
 20
-3308.4342372488527
 10
-5633.0837050346199
 20
-3308.443657870308
 42
0.0025070747151988
 10
-5633.2066063859475
 20
-3308.8223050872903
 10
-5633.2439002823603
 20
-3308.9391967525048
 42
0.00290819102819
 10
-5633.4359185801486
 20
-3309.5533604107241
 10
-5633.4767217486879
 20
-3309.6865836530724
 42
0.0009266453725002
 10
-5633.7451391228578
 20
-3310.5688081125149
 10
-5633.7660265957938
 20
-3310.6379199927283
 42
-0.0005809993660575
 10
-5634.0433632762351
 20
-3311.5517280988711
 10
-5634.1096450744026
 20
-3311.7692130306859
 42
-0.0012018708171727
 10
-5634.2566293839373
 20
-3312.2473756955515
 10
-5634.3089492356985
 20
-3312.416134837048
 42
-0.0002691059612581
 10
-5634.3525187166715
 20
-3312.5564024567593
 10
-5637.1854746149611
 20
-3321.6455570590588
 10
-5639.0034635069396
 20
-3321.6455570590588
 10
-5632.7512140908921
 20
-3301.0018390225287
  0
SPLINE
  5
5C
100
AcDbEntity
  8
0
370
              15
390
0
  6
Continuous
 62
               7
100
AcDbSpline
210
0.0
220
0.0
230
1.0
 70
              13
 71
               2
 72
             782
 73
             779
 74
               0
 42
0.000001
 43
0.000001
 40
0.0
 40
0.0
 40
0.0
 40
1.0
 40
1.0
 40
2.0
 40
2.0
 40
3.0
 40
3.0
 40
4.0
 40
4.0
 40
5.0
 40
5.0
 40
6.0
 40
6.0
 40
7.0
 40
7.0
 40
8.0
 40
8.0
 40
9.0
 40
9.0
 40
10.0
 40
10.0
 40
11.0
 40
11.0
 40
12.0
 40
12.0
 40
13.0
 40
13.0
 40
14.0
 40
14.0
 40
15.0
 40
15.0
 40
16.0
 40
16.0
 40
17.0
 40
17.0
 40
18.0
 40
18.0
 40
19.0
 40
19.0
 40
20.0
 40
20.0
 40
21.0
 40
21.0
 40
22.0
 40
22.0
 40
23.0
 40
23.0
 40
24.0
 40
24.0
 40
25.0
 40
25.0
 40
26.0
 40
26.0
 40
27.0
 40
27.0
 40
28.0
 40
28.0
 40
29.0
 40
29.0
 40
30.0
 40
30.0
 40
31.0
 40
31.0
 40
32.0
 40
32.0
 40
33.0
 40
33.0
 40
34.0
 40
34.0
 40
35.0
 40
35.0
 40
36.0
 40
36.0
 40
37.0
 40
37.0
 40
38.0
 40
38.0
 40
39.0
 40
39.0
 40
40.0
 40
40.0
 40
41.0
 40
41.0
 40
42.0
 40
42.0
 40
43.0
 40
43.0
 40
44.0
 40
44.0
 40
45.0
 40
45.0
 40
46.0
 40
46.0
 40
47.0
 40
47.0
 40
48.0
 40
48.0
 40
49.0
 40
49.0
 40
50.0
 40
50.0
 40
51.0
 40
51.0
 40
52.0
 40
52.0
 40
53.0
 40
53.0
 40
54.0
 40
54.0
 40
55.0
 40
55.0
 40
56.0
 40
56.0
 40
57.0
 40
57.0
 40
58.0
 40
58.0
 40
59.0
 40
59.0
 40
60.0
 40
60.0
 40
61.0
 40
61.0
 40
62.0
 40
62.0
 40
63.0
 40
63.0
 40
64.0
 40
64.0
 40
65.0
 40
65.0
 40
66.0
 40
66.0
 40
67.0
 40
67.0
 40
68.0
 40
68.0
 40
69.0
 40
69.0
 40
70.0
 40
70.0
 40
71.0
 40
71.0
 40
72.0
 40
72.0
 40
73.0
 40
73.0
 40
74.0
 40
74.0
 40
75.0
 40
75.0
 40
76.0
 40
76.0
 40
77.0
 40
77.0
 40
78.0
 40
78.0
 40
79.0
 40
79.0
 40
80.0
 40
80.0
 40
81.0
 40
81.0
 40
82.0
 40
82.0
 40
83.0
 40
83.0
 40
84.0
 40
84.0
 40
85.0
 40
85.0
 40
86.0
 40
86.0
 40
87.0
 40
87.0
 40
88.0
 40
88.0
 40
89.0
 40
89.0
 40
90.0
 40
90.0
 40
91.0
 40
91.0
 40
92.0
 40
92.0
 40
93.0
 40
93.0
 40
94.0
 40
94.0
 40
95.0
 40
95.0
 40
96.0
 40
96.0
 40
97.0
 40
97.0
 40
98.0
 40
98.0
 40
99.0
 40
99.0
 40
100.0
 40
100.0
 40
101.0
 40
101.0
 40
102.0
 40
102.0
 40
103.0
 40
103.0
 40
104.0
 40
104.0
 40
105.0
 40
105.0
 40
106.0
 40
106.0
 40
107.0
 40
107.0
 40
108.0
 40
108.0
 40
109.0
 40
109.0
 40
110.0
 40
110.0
 40
111.0
 40
111.0
 40
112.0
 40
112.0
 40
113.0
 40
113.0
 40
114.0
 40
114.0
 40
115.0
 40
115.0
 40
116.0
 40
116.0
 40
117.0
 40
117.0
 40
118.0
 40
118.0
 40
119.0
 40
119.0
 40
120.0
 40
120.0
 40
121.0
 40
121.0
 40
122.0
 40
122.0
 40
123.0
 40
123.0
 40
124.0
 40
124.0
 40
125.0
 40
125.0
 40
126.0
 40
126.0
 40
127.0
 40
127.0
 40
128.0
 40
128.0
 40
129.0
 40
129.0
 40
130.0
 40
130.0
 40
131.0
 40
131.0
 40
132.0
 40
132.0
 40
133.0
 40
133.0
 40
134.0
 40
134.0
 40
135.0
 40
135.0
 40
136.0
 40
136.0
 40
137.0
 40
137.0
 40
138.0
 40
138.0
 40
139.0
 40
139.0
 40
140.0
 40
140.0
 40
141.0
 40
141.0
 40
142.0
 40
142.0
 40
143.0
 40
143.0
 40
144.0
 40
144.0
 40
145.0
 40
145.0
 40
146.0
 40
146.0
 40
147.0
 40
147.0
 40
148.0
 40
148.0
 40
149.0
 40
149.0
 40
150.0
 40
150.0
 40
151.0
 40
151.0
 40
152.0
 40
152.0
 40
153.0
 40
153.0
 40
154.0
 40
154.0
 40
155.0
 40
155.0
 40
156.0
 40
156.0
 40
157.0
 40
157.0
 40
158.0
 40
158.0
 40
159.0
 40
159.0
 40
160.0
 40
160.0
 40
161.0
 40
161.0
 40
162.0
 40
162.0
 40
163.0
 40
163.0
 40
164.0
 40
164.0
 40
165.0
 40
165.0
 40
166.0
 40
166.0
 40
167.0
 40
167.0
 40
168.0
 40
168.0
 40
169.0
 40
169.0
 40
170.0
 40
170.0
 40
171.0
 40
171.0
 40
172.0
 40
172.0
 40
173.0
 40
173.0
 40
174.0
 40
174.0
 40
175.0
 40
175.0
 40
176.0
 40
176.0
 40
177.0
 40
177.0
 40
178.0
 40
178.0
 40
179.0
 40
179.0
 40
180.0
 40
180.0
 40
181.0
 40
181.0
 40
182.0
 40
182.0
 40
183.0
 40
183.0
 40
184.0
 40
184.0
 40
185.0
 40
185.0
 40
186.0
 40
186.0
 40
187.0
 40
187.0
 40
188.0
 40
188.0
 40
189.0
 40
189.0
 40
190.0
 40
190.0
 40
191.0
 40
191.0
 40
192.0
 40
192.0
 40
193.0
 40
193.0
 40
194.0
 40
194.0
 40
195.0
 40
195.0
 40
196.0
 40
196.0
 40
197.0
 40
197.0
 40
198.0
 40
198.0
 40
199.0
 40
199.0
 40
200.0
 40
200.0
 40
201.0
 40
201.0
 40
202.0
 40
202.0
 40
203.0
 40
203.0
 40
204.0
 40
204.0
 40
205.0
 40
205.0
 40
206.0
 40
206.0
 40
207.0
 40
207.0
 40
208.0
 40
208.0
 40
209.0
 40
209.0
 40
210.0
 40
210.0
 40
211.0
 40
211.0
 40
212.0
 40
212.0
 40
213.0
 40
213.0
 40
214.0
 40
214.0
 40
215.0
 40
215.0
 40
216.0
 40
216.0
 40
217.0
 40
217.0
 40
218.0
 40
218.0
 40
219.0
 40
219.0
 40
220.0
 40
220.0
 40
221.0
 40
221.0
 40
222.0
 40
222.0
 40
223.0
 40
223.0
 40
224.0
 40
224.0
 40
225.0
 40
225.0
 40
226.0
 40
226.0
 40
227.0
 40
227.0
 40
228.0
 40
228.0
 40
229.0
 40
229.0
 40
230.0
 40
230.0
 40
231.0
 40
231.0
 40
232.0
 40
232.0
 40
233.0
 40
233.0
 40
234.0
 40
234.0
 40
235.0
 40
235.0
 40
236.0
 40
236.0
 40
237.0
 40
237.0
 40
238.0
 40
238.0
 40
239.0
 40
239.0
 40
240.0
 40
240.0
 40
241.0
 40
241.0
 40
242.0
 40
242.0
 40
243.0
 40
243.0
 40
244.0
 40
244.0
 40
245.0
 40
245.0
 40
246.0
 40
246.0
 40
247.0
 40
247.0
 40
248.0
 40
248.0
 40
249.0
 40
249.0
 40
250.0
 40
250.0
 40
251.0
 40
251.0
 40
252.0
 40
252.0
 40
253.0
 40
253.0
 40
254.0
 40
254.0
 40
255.0
 40
255.0
 40
256.0
 40
256.0
 40
257.0
 40
257.0
 40
258.0
 40
258.0
 40
259.0
 40
259.0
 40
260.0
 40
260.0
 40
261.0
 40
261.0
 40
262.0
 40
262.0
 40
263.0
 40
263.0
 40
264.0
 40
264.0
 40
265.0
 40
265.0
 40
266.0
 40
266.0
 40
267.0
 40
267.0
 40
268.0
 40
268.0
 40
269.0
 40
269.0
 40
270.0
 40
270.0
 40
271.0
 40
271.0
 40
272.0
 40
272.0
 40
273.0
 40
273.0
 40
274.0
 40
274.0
 40
275.0
 40
275.0
 40
276.0
 40
276.0
 40
277.0
 40
277.0
 40
278.0
 40
278.0
 40
279.0
 40
279.0
 40
280.0
 40
280.0
 40
281.0
 40
281.0
 40
282.0
 40
282.0
 40
283.0
 40
283.0
 40
284.0
 40
284.0
 40
285.0
 40
285.0
 40
286.0
 40
286.0
 40
287.0
 40
287.0
 40
288.0
 40
288.0
 40
289.0
 40
289.0
 40
290.0
 40
290.0
 40
291.0
 40
291.0
 40
292.0
 40
292.0
 40
293.0
 40
293.0
 40
294.0
 40
294.0
 40
295.0
 40
295.0
 40
296.0
 40
296.0
 40
297.0
 40
297.0
 40
298.0
 40
298.0
 40
299.0
 40
299.0
 40
300.0
 40
300.0
 40
301.0
 40
301.0
 40
302.0
 40
302.0
 40
303.0
 40
303.0
 40
304.0
 40
304.0
 40
305.0
 40
305.0
 40
306.0
 40
306.0
 40
307.0
 40
307.0
 40
308.0
 40
308.0
 40
309.0
 40
309.0
 40
310.0
 40
310.0
 40
311.0
 40
311.0
 40
312.0
 40
312.0
 40
313.0
 40
313.0
 40
314.0
 40
314.0
 40
315.0
 40
315.0
 40
316.0
 40
316.0
 40
317.0
 40
317.0
 40
318.0
 40
318.0
 40
319.0
 40
319.0
 40
320.0
 40
320.0
 40
321.0
 40
321.0
 40
322.0
 40
322.0
 40
323.0
 40
323.0
 40
324.0
 40
324.0
 40
325.0
 40
325.0
 40
326.0
 40
326.0
 40
327.0
 40
327.0
 40
328.0
 40
328.0
 40
329.0
 40
329.0
 40
330.0
 40
330.0
 40
331.0
 40
331.0
 40
332.0
 40
332.0
 40
333.0
 40
333.0
 40
334.0
 40
334.0
 40
335.0
 40
335.0
 40
336.0
 40
336.0
 40
337.0
 40
337.0
 40
338.0
 40
338.0
 40
339.0
 40
339.0
 40
340.0
 40
340.0
 40
341.0
 40
341.0
 40
342.0
 40
342.0
 40
343.0
 40
343.0
 40
344.0
 40
344.0
 40
345.0
 40
345.0
 40
346.0
 40
346.0
 40
347.0
 40
347.0
 40
348.0
 40
348.0
 40
349.0
 40
349.0
 40
350.0
 40
350.0
 40
351.0
 40
351.0
 40
352.0
 40
352.0
 40
353.0
 40
353.0
 40
354.0
 40
354.0
 40
355.0
 40
355.0
 40
356.0
 40
356.0
 40
357.0
 40
357.0
 40
358.0
 40
358.0
 40
359.0
 40
359.0
 40
360.0
 40
360.0
 40
361.0
 40
361.0
 40
362.0
 40
362.0
 40
363.0
 40
363.0
 40
364.0
 40
364.0
 40
365.0
 40
365.0
 40
366.0
 40
366.0
 40
367.0
 40
367.0
 40
368.0
 40
368.0
 40
369.0
 40
369.0
 40
370.0
 40
370.0
 40
371.0
 40
371.0
 40
372.0
 40
372.0
 40
373.0
 40
373.0
 40
374.0
 40
374.0
 40
375.0
 40
375.0
 40
376.0
 40
376.0
 40
377.0
 40
377.0
 40
378.0
 40
378.0
 40
379.0
 40
379.0
 40
380.0
 40
380.0
 40
381.0
 40
381.0
 40
382.0
 40
382.0
 40
383.0
 40
383.0
 40
384.0
 40
384.0
 40
385.0
 40
385.0
 40
386.0
 40
386.0
 40
387.0
 40
387.0
 40
388.0
 40
388.0
 40
389.0
 40
389.0
 40
389.0
 10
-5622.4225096401578
 20
-3300.9909126591665
 30
0.0
 41
1.0
 10
-5621.6040855314377
 20
-3300.9909126591665
 30
0.0
 41
1.0
 10
-5620.7856614227176
 20
-3300.9909126591665
 30
0.0
 41
1.0
 10
-5621.1994151582339
 20
-3302.3335389234162
 30
0.0
 41
1.0
 10
-5621.6131688937503
 20
-3303.6761651876659
 30
0.0
 41
1.0
 10
-5621.5948293985793
 20
-3303.6474644147493
 30
0.0
 41
0.9999957264383907
 10
-5621.5763224017455
 20
-3303.6188713645925
 30
0.0
 41
1.0
 10
-5621.5458930776113
 20
-3303.5718584862225
 30
0.0
 41
1.0
 10
-5621.5154637534779
 20
-3303.5248456078521
 30
0.0
 41
1.0
 10
-5621.4360981083792
 20
-3303.4022268009571
 30
0.0
 41
0.9995394069079089
 10
-5621.3494397168324
 20
-3303.2846487392239
 30
0.0
 41
1.0
 10
-5621.313682854563
 20
-3303.2361338466171
 30
0.0
 41
1.0
 10
-5621.2779259922927
 20
-3303.1876189540098
 30
0.0
 41
1.0
 10
-5621.144199324478
 20
-3303.0061786788888
 30
0.0
 41
0.9994460617143876
 10
-5620.9986988431938
 20
-3302.8340362812432
 30
0.0
 41
1.0
 10
-5620.9943106622177
 20
-3302.8288446008601
 30
0.0
 41
1.0
 10
-5620.9899224812425
 20
-3302.8236529204764
 30
0.0
 41
1.0
 10
-5620.8531983619023
 20
-3302.6618938835895
 30
0.0
 41
0.9994359394934249
 10
-5620.7059241315546
 20
-3302.5096776824294
 30
0.0
 41
1.0
 10
-5620.7035407776002
 20
-3302.5072143520547
 30
0.0
 41
1.0
 10
-5620.7011574236449
 20
-3302.50475102168
 30
0.0
 41
1.0
 10
-5620.5586499012024
 20
-3302.3574614812633
 30
0.0
 41
0.9995293688566815
 10
-5620.4073782202213
 20
-3302.2191882691004
 30
0.0
 41
1.0
 10
-5620.3880844609594
 20
-3302.2015523834498
 30
0.0
 41
1.0
 10
-5620.3687907016965
 20
-3302.1839164977996
 30
0.0
 41
1.0
 10
-5620.2561065392392
 20
-3302.0809150569366
 30
0.0
 41
0.9997087614803591
 10
-5620.1385836502841
 20
-3301.9834707761388
 30
0.0
 41
1.0
 10
-5620.1194175770952
 20
-3301.9675791976197
 30
0.0
 41
1.0
 10
-5620.1002515039063
 20
-3301.951687619101
 30
0.0
 41
1.0
 10
-5620.0210607613153
 20
-3301.8860264953296
 30
0.0
 41
0.9999595338694645
 10
-5619.9407014904737
 20
-3301.8218007646856
 30
0.0
 41
1.0
 10
-5619.8603422196275
 20
-3301.7575750340379
 30
0.0
 41
0.9999749417508317
 10
-5619.7790816852512
 20
-3301.6944934800663
 30
0.0
 41
1.0
 10
-5619.7580955390949
 20
-3301.6782021927693
 30
0.0
 41
1.0
 10
-5619.7371093929396
 20
-3301.6619109054727
 30
0.0
 41
1.0
 10
-5619.6525415076421
 20
-3301.5962618956346
 30
0.0
 41
0.9999792037121776
 10
-5619.5671339078726
 20
-3301.5317091139914
 30
0.0
 41
1.0
 10
-5619.5463090818994
 20
-3301.5159692916868
 30
0.0
 41
1.0
 10
-5619.5254842559252
 20
-3301.5002294693822
 30
0.0
 41
1.0
 10
-5619.4817263081695
 20
-3301.4671563323982
 30
0.0
 41
0.9999993373963816
 10
-5619.4380446219602
 20
-3301.4339825369238
 30
0.0
 41
1.0
 10
-5619.3943629358264
 20
-3301.4008087415054
 30
0.0
 41
0.9999160953814799
 10
-5619.3498365249152
 20
-3301.368777676314
 30
0.0
 41
1.0
 10
-5619.3170146374869
 20
-3301.3451665207231
 30
0.0
 41
1.0
 10
-5619.2841927500585
 20
-3301.3215553651316
 30
0.0
 41
1.0
 10
-5619.174022564297
 20
-3301.2423019887628
 30
0.0
 41
0.9980964527234305
 10
-5619.0549335707992
 20
-3301.177214515908
 30
0.0
 41
1.0
 10
-5619.0179009638723
 20
-3301.1569745363154
 30
0.0
 41
1.0
 10
-5618.9808683569454
 20
-3301.1367345567228
 30
0.0
 41
1.0
 10
-5618.8015413436688
 20
-3301.0387243060195
 30
0.0
 41
0.9984572810573015
 10
-5618.6124527773118
 20
-3300.9612020446739
 30
0.0
 41
1.0
 10
-5618.6088065079184
 20
-3300.9597071523372
 30
0.0
 41
1.0
 10
-5618.605160238526
 20
-3300.9582122600004
 30
0.0
 41
1.0
 10
-5618.4233642109557
 20
-3300.8836797833292
 30
0.0
 41
0.9987838528035058
 10
-5618.2351115523934
 20
-3300.8274141431621
 30
0.0
 41
1.0
 10
-5618.2308736031928
 20
-3300.8261474894712
 30
0.0
 41
1.0
 10
-5618.2266356539922
 20
-3300.8248808357803
 30
0.0
 41
1.0
 10
-5618.046858893832
 20
-3300.7711485029963
 30
0.0
 41
0.9990652816208563
 10
-5617.8631129621181
 20
-3300.7331448234545
 30
0.0
 41
1.0
 10
-5617.8579245610836
 20
-3300.7320717203474
 30
0.0
 41
1.0
 10
-5617.8527361600491
 20
-3300.7309986172399
 30
0.0
 41
1.0
 10
-5617.679367030405
 20
-3300.6951411439127
 30
0.0
 41
0.9992909934269977
 10
-5617.5037912639436
 20
-3300.6724307114455
 30
0.0
 41
1.0
 10
-5617.3282154974895
 20
-3300.6497202789801
 30
0.0
 41
0.9994553539449074
 10
-5617.1515240644003
 20
-3300.6386409747738
 30
0.0
 41
1.0
 10
-5617.1160896566034
 20
-3300.6364190867257
 30
0.0
 41
1.0
 10
-5617.0806552488057
 20
-3300.6341971986776
 30
0.0
 41
1.0
 10
-5616.914429482229
 20
-3300.6237741362661
 30
0.0
 41
0.999092809829451
 10
-5616.7479196903287
 20
-3300.6275337775
 30
0.0
 41
1.0
 10
-5616.7093578550512
 20
-3300.6284044690328
 30
0.0
 41
1.0
 10
-5616.6707960197737
 20
-3300.6292751605661
 30
0.0
 41
1.0
 10
-5616.5814098984201
 20
-3300.6312934187349
 30
0.0
 41
0.9998382089205102
 10
-5616.4921542156399
 20
-3300.6365255452629
 30
0.0
 41
1.0
 10
-5616.4917243094233
 20
-3300.6365507461651
 30
0.0
 41
1.0
 10
-5616.4912944032067
 20
-3300.6365759470668
 30
0.0
 41
1.0
 10
-5616.4028985328678
 20
-3300.641757671789
 30
0.0
 41
0.9997558016756234
 10
-5616.3148179556529
 20
-3300.650840187157
 30
0.0
 41
1.0
 10
-5616.3143418172167
 20
-3300.6508892846405
 30
0.0
 41
1.0
 10
-5616.3138656787796
 20
-3300.6509383821235
 30
0.0
 41
1.0
 10
-5616.2267373784462
 20
-3300.6599227025249
 30
0.0
 41
0.9996565144182775
 10
-5616.1401995251099
 20
-3300.6734600092127
 30
0.0
 41
1.0
 10
-5616.1397335997281
 20
-3300.6735328949444
 30
0.0
 41
1.0
 10
-5616.1392676743471
 20
-3300.6736057806766
 30
0.0
 41
1.0
 10
-5616.0536616717645
 20
-3300.6869973159028
 30
0.0
 41
0.9995321806868689
 10
-5615.9690345914405
 20
-3300.7055978043309
 30
0.0
 41
1.0
 10
-5615.9686453968643
 20
-3300.7056833467977
 30
0.0
 41
1.0
 10
-5615.9682562022881
 20
-3300.7057688892646
 30
0.0
 41
1.0
 10
-5615.8844075111083
 20
-3300.7241982927621
 30
0.0
 41
0.9993819199223198
 10
-5615.8020609769164
 20
-3300.7484736760207
 30
0.0
 41
1.0
 10
-5615.8018225434189
 20
-3300.74854396513
 30
0.0
 41
1.0
 10
-5615.8015841099214
 20
-3300.7486142542389
 30
0.0
 41
1.0
 10
-5615.7197144427155
 20
-3300.7727490592833
 30
0.0
 41
0.9992088568506383
 10
-5615.6400219237321
 20
-3300.8033142950762
 30
0.0
 41
1.0
 10
-5615.5603409328533
 20
-3300.8338738958096
 30
0.0
 41
0.9990226101774816
 10
-5615.4836702629455
 20
-3300.8713513274242
 30
0.0
 41
1.0
 10
-5615.4070111211486
 20
-3300.9088231239762
 30
0.0
 41
0.9988424273969963
 10
-5615.3343074939403
 20
-3300.9534878992272
 30
0.0
 41
1.0
 10
-5615.3340397855582
 20
-3300.953652363301
 30
0.0
 41
1.0
 10
-5615.333772077176
 20
-3300.9538168273748
 30
0.0
 41
1.0
 10
-5615.2605330332053
 20
-3300.9988105307721
 30
0.0
 41
0.9986928844489269
 10
-5615.1922701665007
 20
-3301.0510462650477
 30
0.0
 41
1.0
 10
-5615.1916888742753
 20
-3301.0514910782776
 30
0.0
 41
1.0
 10
-5615.1911075820499
 20
-3301.0519358915076
 30
0.0
 41
1.0
 10
-5615.1216821308944
 20
-3301.1050612522426
 30
0.0
 41
0.9986007262275641
 10
-5615.0582559611285
 20
-3301.1652220219362
 30
0.0
 41
1.0
 10
-5615.0573615456706
 20
-3301.1660703897714
 30
0.0
 41
1.0
 10
-5615.0564671302136
 20
-3301.1669187576067
 30
0.0
 41
1.0
 10
-5614.9912521295337
 20
-3301.2287762629694
 30
0.0
 41
0.9985581491382831
 10
-5614.9330445178366
 20
-3301.2972687532347
 30
0.0
 41
1.0
 10
-5614.9237860642379
 20
-3301.3081631109399
 30
0.0
 41
1.0
 10
-5614.9145276106392
 20
-3301.3190574686455
 30
0.0
 41
1.0
 10
-5614.8378030917447
 20
-3301.409338674322
 30
0.0
 41
0.9970460233520907
 10
-5614.775811190585
 20
-3301.5103057585052
 30
0.0
 41
1.0
 10
-5614.7613418255023
 20
-3301.533872217592
 30
0.0
 41
1.0
 10
-5614.7468724604196
 20
-3301.5574386766784
 30
0.0
 41
1.0
 10
-5614.7071357604118
 20
-3301.6221584007039
 30
0.0
 41
0.9988468816641586
 10
-5614.6737893896634
 20
-3301.690390853124
 30
0.0
 41
1.0
 10
-5614.6667533671771
 20
-3301.7047877742516
 30
0.0
 41
1.0
 10
-5614.6597173446899
 20
-3301.7191846953792
 30
0.0
 41
1.0
 10
-5614.6404430189159
 20
-3301.7586233055413
 30
0.0
 41
0.9998431189995379
 10
-5614.6225776914171
 20
-3301.7987198599922
 30
0.0
 41
1.0
 10
-5614.604712363981
 20
-3301.8388164143025
 30
0.0
 41
0.9999989989835711
 10
-5614.5867336406127
 20
-3301.8788622517668
 30
0.0
 41
1.0
 10
-5614.5805613289622
 20
-3301.8926104687043
 30
0.0
 41
1.0
 10
-5614.5743890173117
 20
-3301.9063586856423
 30
0.0
 41
1.0
 10
-5614.5440656707078
 20
-3301.9739009568348
 30
0.0
 41
0.9998790356319182
 10
-5614.5158577905768
 20
-3302.0423537087559
 30
0.0
 41
1.0
 10
-5614.5090226092816
 20
-3302.0589408102101
 30
0.0
 41
1.0
 10
-5614.5021874279864
 20
-3302.0755279116643
 30
0.0
 41
1.0
 10
-5614.478629765611
 20
-3302.1326958665391
 30
0.0
 41
0.999822757456074
 10
-5614.457241017225
 20
-3302.1907101748061
 30
0.0
 41
1.0
 10
-5614.4358522688399
 20
-3302.2487244830686
 30
0.0
 41
0.9996797971039222
 10
-5614.4174259838837
 20
-3302.3077466021778
 30
0.0
 41
1.0
 10
-5614.4135221811539
 20
-3302.3202510603587
 30
0.0
 41
1.0
 10
-5614.409618378425
 20
-3302.3327555185397
 30
0.0
 41
1.0
 10
-5614.3833844880146
 20
-3302.4167865539962
 30
0.0
 41
0.9979274938734494
 10
-5614.3681599645352
 20
-3302.5034909126584
 30
0.0
 41
1.0
 10
-5614.3659362772778
 20
-3302.5161549134591
 30
0.0
 41
1.0
 10
-5614.3637125900195
 20
-3302.5288189142602
 30
0.0
 41
1.0
 10
-5614.3527826503168
 20
-3302.5910654215695
 30
0.0
 41
0.9994985982134818
 10
-5614.3458144851384
 20
-3302.6538789227307
 30
0.0
 41
1.0
 10
-5614.3388463199617
 20
-3302.7166924238763
 30
0.0
 41
0.9996372611202716
 10
-5614.3352704541931
 20
-3302.7797900025648
 30
0.0
 41
1.0
 10
-5614.3351018767044
 20
-3302.782764619642
 30
0.0
 41
1.0
 10
-5614.3349332992148
 20
-3302.7857392367191
 30
0.0
 41
1.0
 10
-5614.3310202784678
 20
-3302.8547860495464
 30
0.0
 41
0.9997730630732252
 10
-5614.3300519649811
 20
-3302.9239368735598
 30
0.0
 41
1.0
 10
-5614.3299948585627
 20
-3302.9280150527215
 30
0.0
 41
1.0
 10
-5614.3299377521444
 20
-3302.9320932318833
 30
0.0
 41
1.0
 10
-5614.3288552258218
 20
-3303.0094004142447
 30
0.0
 41
0.9998772614074375
 10
-5614.3301953125538
 20
-3303.0867035608526
 30
0.0
 41
1.0
 10
-5614.3302845757516
 20
-3303.091852724644
 30
0.0
 41
1.0
 10
-5614.3303738389495
 20
-3303.0970018884354
 30
0.0
 41
1.0
 10
-5614.331892452079
 20
-3303.1846033626935
 30
0.0
 41
0.9999415567328478
 10
-5614.3353047623259
 20
-3303.272151524392
 30
0.0
 41
1.0
 10
-5614.3355460830007
 20
-3303.2783429841056
 30
0.0
 41
1.0
 10
-5614.3357874036747
 20
-3303.2845344438192
 30
0.0
 41
1.0
 10
-5614.339682355273
 20
-3303.3844655249982
 30
0.0
 41
0.9999716810430039
 10
-5614.345080938393
 20
-3303.4843266632574
 30
0.0
 41
1.0
 10
-5614.3482937371809
 20
-3303.5437559128977
 30
0.0
 41
1.0
 10
-5614.3515065359688
 20
-3303.6031851625376
 30
0.0
 41
1.0
 10
-5614.3595804451215
 20
-3303.7525335638065
 30
0.0
 41
0.9999819129912143
 10
-5614.3694502367371
 20
-3303.9017740415047
 30
0.0
 41
1.0
 10
-5614.3793200283535
 20
-3304.0510145192161
 30
0.0
 41
1.0
 10
-5614.3817593489175
 20
-3304.0882075650652
 30
0.0
 41
1.0
 10
-5614.3590611151594
 20
-3304.0494665678589
 30
0.0
 41
0.9999982128074887
 10
-5614.3362165564686
 20
-3304.0108116740112
 30
0.0
 41
1.0
 10
-5614.3093069965144
 20
-3303.9652784598393
 30
0.0
 41
1.0
 10
-5614.282397436561
 20
-3303.9197452456674
 30
0.0
 41
1.0
 10
-5614.2057337580363
 20
-3303.790023923601
 30
0.0
 41
0.9998609190056851
 10
-5614.124786445168
 20
-3303.6629315416608
 30
0.0
 41
1.0
 10
-5614.09513812369
 20
-3303.6163818087098
 30
0.0
 41
1.0
 10
-5614.0654898022131
 20
-3303.5698320757588
 30
0.0
 41
1.0
 10
-5613.9832175819693
 20
-3303.440659505753
 30
0.0
 41
0.999906760973462
 10
-5613.8974485725093
 20
-3303.3137818163177
 30
0.0
 41
1.0
 10
-5613.8950438692955
 20
-3303.3102245502441
 30
0.0
 41
1.0
 10
-5613.8926391660816
 20
-3303.3066672841701
 30
0.0
 41
1.0
 10
-5613.8116795630322
 20
-3303.1869041268583
 30
0.0
 41
0.9998784952149477
 10
-5613.7270259533643
 20
-3303.0697229101675
 30
0.0
 41
1.0
 10
-5613.6423723436874
 20
-3302.9525416934648
 30
0.0
 41
0.9998532968281561
 10
-5613.5537547228605
 20
-3302.8383287849883
 30
0.0
 41
1.0
 10
-5613.533792933873
 20
-3302.8126014639729
 30
0.0
 41
1.0
 10
-5613.5138311448854
 20
-3302.786874142957
 30
0.0
 41
1.0
 10
-5613.3953470951237
 20
-3302.634168531984
 30
0.0
 41
0.9991551975794447
 10
-5613.2647226454956
 20
-3302.4917089698961
 30
0.0
 41
1.0
 10
-5613.2612130295192
 20
-3302.4878813682753
 30
0.0
 41
1.0
 10
-5613.2577034135429
 20
-3302.4840537666546
 30
0.0
 41
1.0
 10
-5613.1340981958801
 20
-3302.3492494078205
 30
0.0
 41
0.9997418144180081
 10
-5613.0044960561709
 20
-3302.2201999972003
 30
0.0
 41
1.0
 10
-5612.874893916468
 20
-3302.0911505865861
 30
0.0
 41
0.9989238204634802
 10
-5612.7338913682152
 20
-3301.9746656245452
 30
0.0
 41
1.0
 10
-5612.6886436900822
 20
-3301.9372856329419
 30
0.0
 41
1.0
 10
-5612.6433960119493
 20
-3301.8999056413386
 30
0.0
 41
1.0
 10
-5612.5031559547206
 20
-3301.7840505880413
 30
0.0
 41
0.9990825084096825
 10
-5612.3535160221154
 20
-3301.6806215902075
 30
0.0
 41
1.0
 10
-5612.3434706580556
 20
-3301.6736783771257
 30
0.0
 41
1.0
 10
-5612.3334252939949
 20
-3301.6667351640435
 30
0.0
 41
1.0
 10
-5612.2038760895075
 20
-3301.5771925923723
 30
0.0
 41
0.9998164899826654
 10
-5612.0709918861348
 20
-3301.4926783508581
 30
0.0
 41
1.0
 10
-5612.0591463256133
 20
-3301.4851445843351
 30
0.0
 41
1.0
 10
-5612.0473007650908
 20
-3301.4776108178116
 30
0.0
 41
1.0
 10
-5611.9381076827558
 20
-3301.4081641093399
 30
0.0
 41
0.9997473449130873
 10
-5611.8259037255093
 20
-3301.3436951515259
 30
0.0
 41
1.0
 10
-5611.7136997682719
 20
-3301.2792261937161
 30
0.0
 41
0.9999327861142321
 10
-5611.600031157488
 20
-3301.2173762020243
 30
0.0
 41
1.0
 10
-5611.599479154931
 20
-3301.2170758433476
 30
0.0
 41
1.0
 10
-5611.5989271523749
 20
-3301.2167754846705
 30
0.0
 41
1.0
 10
-5611.4841545364861
 20
-3301.154324775629
 30
0.0
 41
0.9996956420484215
 10
-5611.3664412106418
 20
-3301.0976113086526
 30
0.0
 41
1.0
 10
-5611.3360008057516
 20
-3301.0829453319238
 30
0.0
 41
1.0
 10
-5611.3055604008623
 20
-3301.0682793551955
 30
0.0
 41
1.0
 10
-5611.2025832941281
 20
-3301.0186656967567
 30
0.0
 41
0.9998070570176344
 10
-5611.0977369051789
 20
-3300.9731351098517
 30
0.0
 41
1.0
 10
-5610.9928905162433
 20
-3300.9276045229526
 30
0.0
 41
0.9997827436147031
 10
-5610.8862375796407
 20
-3300.8864833516436
 30
0.0
 41
1.0
 10
-5610.8670147300036
 20
-3300.8790717780089
 30
0.0
 41
1.0
 10
-5610.8477918803655
 20
-3300.8716602043742
 30
0.0
 41
1.0
 10
-5610.7026932444869
 20
-3300.8157158857957
 30
0.0
 41
0.9988031841977407
 10
-5610.5528228818839
 20
-3300.7742158216283
 30
0.0
 41
1.0
 10
-5610.5279056335239
 20
-3300.7673160758222
 30
0.0
 41
1.0
 10
-5610.502988385163
 20
-3300.7604163300161
 30
0.0
 41
1.0
 10
-5610.3357183595117
 20
-3300.7140981876087
 30
0.0
 41
0.9984748040550873
 10
-5610.1643614508657
 20
-3300.6865039553441
 30
0.0
 41
1.0
 10
-5610.1596223146153
 20
-3300.6857407948301
 30
0.0
 41
1.0
 10
-5610.1548831783648
 20
-3300.6849776343165
 30
0.0
 41
1.0
 10
-5609.9930045422152
 20
-3300.6589097230785
 30
0.0
 41
0.9984436495478478
 10
-5609.8292297984917
 20
-3300.6510317692605
 30
0.0
 41
1.0
 10
-5609.8075325903592
 20
-3300.6499880820611
 30
0.0
 41
1.0
 10
-5609.7858353822276
 20
-3300.6489443948612
 30
0.0
 41
1.0
 10
-5609.6654550547664
 20
-3300.643153815442
 30
0.0
 41
0.9987954789335566
 10
-5609.5450868098578
 20
-3300.6491903431843
 30
0.0
 41
1.0
 10
-5609.5251220173686
 20
-3300.6501915875224
 30
0.0
 41
1.0
 10
-5609.5051572248785
 20
-3300.651192831861
 30
0.0
 41
1.0
 10
-5609.4247185649419
 20
-3300.655226870927
 30
0.0
 41
0.9997941595878507
 10
-5609.3445097868535
 20
-3300.6625209368476
 30
0.0
 41
1.0
 10
-5609.2643010087631
 20
-3300.6698150027682
 30
0.0
 41
0.9998589466237102
 10
-5609.1843824619127
 20
-3300.679798857218
 30
0.0
 41
1.0
 10
-5609.1519762601001
 20
-3300.6838472141376
 30
0.0
 41
1.0
 10
-5609.1195700582875
 20
-3300.6878955710572
 30
0.0
 41
1.0
 10
-5608.9748391078201
 20
-3300.7059761393448
 30
0.0
 41
0.9993495063248866
 10
-5608.8317878640582
 20
-3300.7344418490857
 30
0.0
 41
1.0
 10
-5608.7988541668892
 20
-3300.7409953123042
 30
0.0
 41
1.0
 10
-5608.7659204697202
 20
-3300.7475487755223
 30
0.0
 41
1.0
 10
-5608.6566266465206
 20
-3300.7692971096576
 30
0.0
 41
0.9996788715562502
 10
-5608.5485750745856
 20
-3300.796554909015
 30
0.0
 41
1.0
 10
-5608.5465120720564
 20
-3300.7970753355853
 30
0.0
 41
1.0
 10
-5608.5444490695272
 20
-3300.7975957621557
 30
0.0
 41
1.0
 10
-5608.4405235026379
 20
-3300.8238127083746
 30
0.0
 41
0.9995480654490979
 10
-5608.3383612673997
 20
-3300.8562276650027
 30
0.0
 41
1.0
 10
-5608.3366716252713
 20
-3300.8567637699166
 30
0.0
 41
1.0
 10
-5608.3349819831419
 20
-3300.8572998748305
 30
0.0
 41
1.0
 10
-5608.2361990321642
 20
-3300.8886426216291
 30
0.0
 41
0.9993867959455031
 10
-5608.1398518737278
 20
-3300.9268219909168
 30
0.0
 41
1.0
 10
-5608.1386089246371
 20
-3300.9273145328152
 30
0.0
 41
1.0
 10
-5608.1373659755463
 20
-3300.9278070747141
 30
0.0
 41
1.0
 10
-5608.043504715276
 20
-3300.9650013602118
 30
0.0
 41
0.9992050256525473
 10
-5607.9529050402516
 20
-3301.0095552594453
 30
0.0
 41
1.0
 10
-5607.9521703575338
 20
-3301.0099165519086
 30
0.0
 41
1.0
 10
-5607.9514356748168
 20
-3301.0102778443716
 30
0.0
 41
1.0
 10
-5607.8623053652145
 20
-3301.0541091586861
 30
0.0
 41
0.999022235074158
 10
-5607.777395303825
 20
-3301.1056424263825
 30
0.0
 41
1.0
 10
-5607.7772114185473
 20
-3301.1057540292841
 30
0.0
 41
1.0
 10
-5607.7770275332696
 20
-3301.1058656321861
 30
0.0
 41
1.0
 10
-5607.6924852424327
 20
-3301.1571756940803
 30
0.0
 41
0.9988642743808485
 10
-5607.613210707812
 20
-3301.2162998816057
 30
0.0
 41
1.0
 10
-5607.5339361731976
 20
-3301.2754240691261
 30
0.0
 41
0.998768123330784
 10
-5607.4609123889268
 20
-3301.3421147605222
 30
0.0
 41
1.0
 10
-5607.4605834609556
 20
-3301.342415161741
 30
0.0
 41
1.0
 10
-5607.4602545329844
 20
-3301.3427155629602
 30
0.0
 41
1.0
 10
-5607.3865728927849
 20
-3301.4100070567802
 30
0.0
 41
0.9987496570893439
 10
-5607.3199790874605
 20
-3301.484319870865
 30
0.0
 41
1.0
 10
-5607.3192069176948
 20
-3301.4851815442285
 30
0.0
 41
1.0
 10
-5607.3184347479291
 20
-3301.4860432175919
 30
0.0
 41
1.0
 10
-5607.2502966030788
 20
-3301.5620793783992
 30
0.0
 41
0.9988147669830181
 10
-5607.1898743488546
 20
-3301.6443803852403
 30
0.0
 41
1.0
 10
-5607.1887550227784
 20
-3301.6459050165913
 30
0.0
 41
1.0
 10
-5607.1876356967014
 20
-3301.6474296479419
 30
0.0
 41
1.0
 10
-5607.1249747903203
 20
-3301.7327799174909
 30
0.0
 41
0.998945263621879
 10
-5607.0704078773606
 20
-3301.8235186066445
 30
0.0
 41
1.0
 10
-5607.0690591512739
 20
-3301.8257613876722
 30
0.0
 41
1.0
 10
-5607.0677104251881
 20
-3301.8280041686994
 30
0.0
 41
1.0
 10
-5607.010446060056
 20
-3301.9232284199079
 30
0.0
 41
0.9991046436070421
 10
-5606.9614368467328
 20
-3302.0229528529348
 30
0.0
 41
1.0
 10
-5606.9599729851434
 20
-3302.0259315330077
 30
0.0
 41
1.0
 10
-5606.9585091235531
 20
-3302.0289102130801
 30
0.0
 41
1.0
 10
-5606.9065721870475
 20
-3302.1345920062599
 30
0.0
 41
0.9992763831101559
 10
-5606.8628190584886
 20
-3302.2439160682252
 30
0.0
 41
1.0
 10
-5606.8613397888294
 20
-3302.2476122557491
 30
0.0
 41
1.0
 10
-5606.8598605191701
 20
-3302.2513084432735
 30
0.0
 41
1.0
 10
-5606.813148851289
 20
-3302.3680248802962
 30
0.0
 41
0.9994163472885217
 10
-5606.7745158201005
 20
-3302.4876584687554
 30
0.0
 41
1.0
 10
-5606.773277667844
 20
-3302.4914926125684
 30
0.0
 41
1.0
 10
-5606.7720395155875
 20
-3302.495326756381
 30
0.0
 41
1.0
 10
-5606.7321559545808
 20
-3302.6188328178328
 30
0.0
 41
0.9997268055892797
 10
-5606.698087898676
 20
-3302.7440678497555
 30
0.0
 41
1.0
 10
-5606.6971577184067
 20
-3302.7474872158655
 30
0.0
 41
1.0
 10
-5606.6962275381366
 20
-3302.7509065819759
 30
0.0
 41
1.0
 10
-5606.664019842764
 20
-3302.869302881707
 30
0.0
 41
0.999670131899986
 10
-5606.6379342259934
 20
-3302.9891968349693
 30
0.0
 41
1.0
 10
-5606.6118486092209
 20
-3303.1090907882426
 30
0.0
 41
0.9995785451110441
 10
-5606.5927650318799
 20
-3303.2302965492845
 30
0.0
 41
1.0
 10
-5606.5885452497059
 20
-3303.2570977040527
 30
0.0
 41
1.0
 10
-5606.5843254675319
 20
-3303.283898858821
 30
0.0
 41
1.0
 10
-5606.5577504915973
 20
-3303.4526848325113
 30
0.0
 41
0.9979925101220427
 10
-5606.5527249056704
 20
-3303.6234761605892
 30
0.0
 41
1.0
 10
-5606.5519000932454
 20
-3303.6515068840918
 30
0.0
 41
1.0
 10
-5606.5510752808204
 20
-3303.6795376075943
 30
0.0
 41
1.0
 10
-5606.5476993197444
 20
-3303.7942674887017
 30
0.0
 41
0.9995314902263757
 10
-5606.5513495118821
 20
-3303.9089889724328
 30
0.0
 41
1.0
 10
-5606.5549997040216
 20
-3304.0237104561966
 30
0.0
 41
0.9996245486945106
 10
-5606.5649287991537
 20
-3304.1380597273333
 30
0.0
 41
1.0
 10
-5606.5650918471474
 20
-3304.1399374834564
 30
0.0
 41
1.0
 10
-5606.5652548951402
 20
-3304.1418152395795
 30
0.0
 41
1.0
 10
-5606.5755100862598
 20
-3304.2599200229752
 30
0.0
 41
0.9997286095000639
 10
-5606.5912554098313
 20
-3304.3774189318683
 30
0.0
 41
1.0
 10
-5606.5916489024821
 20
-3304.3803553565704
 30
0.0
 41
1.0
 10
-5606.592042395132
 20
-3304.3832917812724
 30
0.0
 41
1.0
 10
-5606.608574704007
 20
-3304.5066635395833
 30
0.0
 41
0.9998265533970742
 10
-5606.6296901627402
 20
-3304.6293340143807
 30
0.0
 41
1.0
 10
-5606.630366704876
 20
-3304.6332643928772
 30
0.0
 41
1.0
 10
-5606.6310432470109
 20
-3304.6371947713742
 30
0.0
 41
1.0
 10
-5606.6535117900166
 20
-3304.7677260031742
 30
0.0
 41
0.9999022530849766
 10
-5606.6796212546269
 20
-3304.8975779718144
 30
0.0
 41
1.0
 10
-5606.6805998957925
 20
-3304.9024451142022
 30
0.0
 41
1.0
 10
-5606.6815785369581
 20
-3304.9073122565906
 30
0.0
 41
1.0
 10
-5606.7096452839032
 20
-3305.0468985100251
 30
0.0
 41
0.9999524761933782
 10
-5606.740428252745
 20
-3305.1859110032206
 30
0.0
 41
1.0
 10
-5606.7417043599144
 20
-3305.191673762497
 30
0.0
 41
1.0
 10
-5606.7429804670846
 20
-3305.1974365217729
 30
0.0
 41
1.0
 10
-5606.7763156502779
 20
-3305.3479745335749
 30
0.0
 41
0.9999813588718356
 10
-5606.8114866510823
 20
-3305.4980942462662
 30
0.0
 41
1.0
 10
-5606.8130405765314
 20
-3305.5047268366543
 30
0.0
 41
1.0
 10
-5606.8145945019796
 20
-3305.5113594270429
 30
0.0
 41
1.0
 10
-5606.852873353665
 20
-3305.674744320444
 30
0.0
 41
0.9999955237632772
 10
-5606.8921292316309
 20
-3305.8378972239907
 30
0.0
 41
1.0
 10
-5606.9044108672842
 20
-3305.8889414145933
 30
0.0
 41
1.0
 10
-5606.9166925029376
 20
-3305.9399856051964
 30
0.0
 41
1.0
 10
-5606.9805116520502
 20
-3306.2052268892894
 30
0.0
 41
0.9999993604500913
 10
-5607.0449305991151
 20
-3306.4703231395442
 30
0.0
 41
1.0
 10
-5607.0496494347826
 20
-3306.4897420480793
 30
0.0
 41
1.0
 10
-5607.0543682704492
 20
-3306.5091609566139
 30
0.0
 41
1.0
 10
-5607.1282248887073
 20
-3306.8130950233613
 30
0.0
 41
0.9999659914728919
 10
-5607.207084484593
 20
-3307.1157695699221
 30
0.0
 41
1.0
 10
-5607.2120371735255
 20
-3307.1347787071095
 30
0.0
 41
1.0
 10
-5607.216989862457
 20
-3307.1537878442969
 30
0.0
 41
1.0
 10
-5607.3057548362049
 20
-3307.4944806652238
 30
0.0
 41
0.9999441976029398
 10
-5607.4016978691707
 20
-3307.8332220905331
 30
0.0
 41
1.0
 10
-5607.4183983875937
 20
-3307.8921858030517
 30
0.0
 41
1.0
 10
-5607.4350989060167
 20
-3307.9511495155703
 30
0.0
 41
1.0
 10
-5607.5644429758313
 20
-3308.4078183659258
 30
0.0
 41
0.999962512073007
 10
-5607.7016757431556
 20
-3308.8621788999226
 30
0.0
 41
1.0
 10
-5607.7374656862321
 20
-3308.980674926529
 30
0.0
 41
1.0
 10
-5607.7732556293086
 20
-3309.0991709531349
 30
0.0
 41
1.0
 10
-5607.8477758333584
 20
-3309.3458980312662
 30
0.0
 41
0.9999793386319144
 10
-5607.9254618564992
 20
-3309.591646670513
 30
0.0
 41
1.0
 10
-5608.0031478796363
 20
-3309.8373953097489
 30
0.0
 41
1.0
 10
-5608.0139274385065
 20
-3309.871413214124
 30
0.0
 41
1.0
 10
-5609.8643004917758
 20
-3315.7584851365914
 30
0.0
 41
1.0
 10
-5611.7146735450451
 20
-3321.6455570590588
 30
0.0
 41
1.0
 10
-5612.6759302350683
 20
-3321.6455570590588
 30
0.0
 41
1.0
 10
-5613.6371869250916
 20
-3321.6455570590588
 30
0.0
 41
1.0
 10
-5612.0182421464133
 20
-3316.4975285572691
 30
0.0
 41
1.0
 10
-5610.399297367735
 20
-3311.3495000554799
 30
0.0
 41
1.0
 10
-5610.3541315445564
 20
-3311.2054688331955
 30
0.0
 41
1.0
 10
-5610.3089657213777
 20
-3311.0614376109115
 30
0.0
 41
1.0
 10
-5610.1386613040195
 20
-3310.5183465817609
 30
0.0
 41
0.9999911657908069
 10
-5609.9729284923442
 20
-3309.973843050414
 30
0.0
 41
1.0
 10
-5609.9432325488369
 20
-3309.8762791103409
 30
0.0
 41
1.0
 10
-5609.9135366053297
 20
-3309.7787151702678
 30
0.0
 41
1.0
 10
-5609.8071956806562
 20
-3309.4293395190275
 30
0.0
 41
0.9999952428167658
 10
-5609.7030120913387
 20
-3309.0793144947011
 30
0.0
 41
1.0
 10
-5609.6979526209907
 20
-3309.0623162203715
 30
0.0
 41
1.0
 10
-5609.6928931506418
 20
-3309.0453179460419
 30
0.0
 41
1.0
 10
-5609.5988285019957
 20
-3308.7292894702905
 30
0.0
 41
0.9999931687501162
 10
-5609.5071026641399
 20
-3308.4125742570805
 30
0.0
 41
1.0
 10
-5609.5021673996753
 20
-3308.3955335477913
 30
0.0
 41
1.0
 10
-5609.4972321352107
 20
-3308.3784928385026
 30
0.0
 41
1.0
 10
-5609.415376826264
 20
-3308.0958590438036
 30
0.0
 41
0.9999893840813696
 10
-5609.3361295998093
 20
-3307.8124829145636
 30
0.0
 41
1.0
 10
-5609.2568823733518
 20
-3307.5291067853141
 30
0.0
 41
0.9999833980055983
 10
-5609.1809061326121
 20
-3307.2448362022906
 30
0.0
 41
1.0
 10
-5609.1719021958779
 20
-3307.2111473237683
 30
0.0
 41
1.0
 10
-5609.1628982591437
 20
-3307.1774584452464
 30
0.0
 41
1.0
 10
-5609.0939337102873
 20
-3306.9194226129866
 30
0.0
 41
0.9999233658069898
 10
-5609.0313787390796
 20
-3306.6597584543106
 30
0.0
 41
1.0
 10
-5608.9688237678592
 20
-3306.4000942955881
 30
0.0
 41
1.0
 10
-5608.9293403490019
 20
-3306.2362876311618
 30
0.0
 41
1.0
 10
-5608.9243617450084
 20
-3306.2156326692266
 30
0.0
 41
1.0
 10
-5608.9193831410157
 20
-3306.1949777072914
 30
0.0
 41
1.0
 10
-5608.8898569301309
 20
-3306.0724809666781
 30
0.0
 41
0.9999868670873031
 10
-5608.8615878461478
 20
-3305.9496880210904
 30
0.0
 41
1.0
 10
-5608.857690358971
 20
-3305.932758433592
 30
0.0
 41
1.0
 10
-5608.8537928717951
 20
-3305.9158288460935
 30
0.0
 41
1.0
 10
-5608.8333187621347
 20
-3305.8268950753741
 30
0.0
 41
0.9999778173356787
 10
-5608.8140311640354
 20
-3305.7376964582145
 30
0.0
 41
1.0
 10
-5608.7947435659253
 20
-3305.6484978410076
 30
0.0
 41
0.999960269286219
 10
-5608.7770492072978
 20
-3305.5589695526005
 30
0.0
 41
1.0
 10
-5608.7738453752154
 20
-3305.5427590976933
 30
0.0
 41
1.0
 10
-5608.7706415431339
 20
-3305.5265486427861
 30
0.0
 41
1.0
 10
-5608.7465395203471
 20
-3305.4045994445833
 30
0.0
 41
0.9995617985320189
 10
-5608.7296961731281
 20
-3305.281437696874
 30
0.0
 41
1.0
 10
-5608.7272316832214
 20
-3305.2634168795039
 30
0.0
 41
1.0
 10
-5608.7247671933146
 20
-3305.2453960621338
 30
0.0
 41
1.0
 10
-5608.704483932268
 20
-3305.0970810124418
 30
0.0
 41
0.9991121410638914
 10
-5608.6967585786806
 20
-3304.9475849136438
 30
0.0
 41
1.0
 10
-5608.6958397886565
 20
-3304.9298050770749
 30
0.0
 41
1.0
 10
-5608.6949209986324
 20
-3304.912025240506
 30
0.0
 41
1.0
 10
-5608.6890332250923
 20
-3304.798088814845
 30
0.0
 41
0.9989792494907033
 10
-5608.6934523172094
 20
-3304.6840859789395
 30
0.0
 41
1.0
 10
-5608.6941002890799
 20
-3304.6673697329861
 30
0.0
 41
1.0
 10
-5608.6947482609494
 20
-3304.6506534870327
 30
0.0
 41
1.0
 10
-5608.6978714093275
 20
-3304.5700831430149
 30
0.0
 41
0.9997820295390977
 10
-5608.7043554067022
 20
-3304.489713421297
 30
0.0
 41
1.0
 10
-5608.710839404077
 20
-3304.4093436995681
 30
0.0
 41
0.9998335105974381
 10
-5608.7202515995868
 20
-3304.3292640831332
 30
0.0
 41
1.0
 10
-5608.7218465242649
 20
-3304.3156943526351
 30
0.0
 41
1.0
 10
-5608.723441448943
 20
-3304.3021246221369
 30
0.0
 41
1.0
 10
-5608.7360434938091
 20
-3304.194905544713
 30
0.0
 41
0.999687645788082
 10
-5608.7539874066088
 20
-3304.0884501169853
 30
0.0
 41
1.0
 10
-5608.7562190697518
 20
-3304.0752103817604
 30
0.0
 41
1.0
 10
-5608.7584507328938
 20
-3304.0619706465359
 30
0.0
 41
1.0
 10
-5608.7722465543156
 20
-3303.9801245025701
 30
0.0
 41
0.9995547496493182
 10
-5608.7908998762096
 20
-3303.8992470053718
 30
0.0
 41
1.0
 10
-5608.7912738330833
 20
-3303.8976255946573
 30
0.0
 41
1.0
 10
-5608.7916477899562
 20
-3303.8960041839428
 30
0.0
 41
1.0
 10
-5608.8095531981044
 20
-3303.8183695081711
 30
0.0
 41
0.999489942717428
 10
-5608.832378106782
 20
-3303.7420362253461
 30
0.0
 41
1.0
 10
-5608.8328366335263
 20
-3303.7405027755458
 30
0.0
 41
1.0
 10
-5608.8332951602706
 20
-3303.7389693257455
 30
0.0
 41
1.0
 10
-5608.8552030154651
 20
-3303.6657029424982
 30
0.0
 41
0.9993784877589175
 10
-5608.8822186505677
 20
-3303.5941622373525
 30
0.0
 41
1.0
 10
-5608.8827503415414
 20
-3303.5927542546392
 30
0.0
 41
1.0
 10
-5608.883282032516
 20
-3303.5913462719259
 30
0.0
 41
1.0
 10
-5608.9092342856711
 20
-3303.5226215322004
 30
0.0
 41
0.9992430832255235
 10
-5608.9404508208336
 20
-3303.4561223801252
 30
0.0
 41
1.0
 10
-5608.9410329368911
 20
-3303.4548823250057
 30
0.0
 41
1.0
 10
-5608.9416150529487
 20
-3303.4536422698861
 30
0.0
 41
1.0
 10
-5608.9716673559942
 20
-3303.3896232280549
 30
0.0
 41
0.9990789632801415
 10
-5609.0070979827697
 20
-3303.3284166163071
 30
0.0
 41
1.0
 10
-5609.0076936889509
 20
-3303.3273875304494
 30
0.0
 41
1.0
 10
-5609.0082893951321
 20
-3303.3263584445917
 30
0.0
 41
1.0
 10
-5609.042528609546
 20
-3303.2672100045565
 30
0.0
 41
0.9988874801115451
 10
-5609.0821878855786
 20
-3303.2115502921397
 30
0.0
 41
1.0
 10
-5609.0827434116454
 20
-3303.2107706404613
 30
0.0
 41
1.0
 10
-5609.0832989377122
 20
-3303.2099909887829
 30
0.0
 41
1.0
 10
-5609.1218471616121
 20
-3303.155890579721
 30
0.0
 41
0.9986762060694991
 10
-5609.1657496328871
 20
-3303.1060368652829
 30
0.0
 41
1.0
 10
-5609.1661935932152
 20
-3303.1055327234703
 30
0.0
 41
1.0
 10
-5609.1666375535442
 20
-3303.1050285816577
 30
0.0
 41
1.0
 10
-5609.2096521041594
 20
-3303.0561831508476
 30
0.0
 41
0.998462164248741
 10
-5609.2578096609413
 20
-3303.0123998503727
 30
0.0
 41
1.0
 10
-5609.2580562954618
 20
-3303.0121756182057
 30
0.0
 41
1.0
 10
-5609.2583029299822
 20
-3303.0119513860386
 30
0.0
 41
1.0
 10
-5609.305967217726
 20
-3302.9686165498961
 30
0.0
 41
0.9982724693854913
 10
-5609.3583858495604
 20
-3302.9311721993836
 30
0.0
 41
1.0
 10
-5609.4108044813993
 20
-3302.8937278488679
 30
0.0
 41
0.9981399180163402
 10
-5609.4673905447944
 20
-3302.8629413294225
 30
0.0
 41
1.0
 10
-5609.4674362068727
 20
-3302.862916486265
 30
0.0
 41
1.0
 10
-5609.4674818689518
 20
-3302.862891643108
 30
0.0
 41
1.0
 10
-5609.5241592565026
 20
-3302.8320554373504
 30
0.0
 41
0.9980927086840764
 10
-5609.5842046075695
 20
-3302.8084386284972
 30
0.0
 41
1.0
 10
-5609.5846447772801
 20
-3302.8082655026228
 30
0.0
 41
1.0
 10
-5609.5850849469916
 20
-3302.8080923767479
 30
0.0
 41
1.0
 10
-5609.6460106374816
 20
-3302.7841293161446
 30
0.0
 41
0.9981411356555423
 10
-5609.7093991588745
 20
-3302.7677566746415
 30
0.0
 41
1.0
 10
-5609.7102812755784
 20
-3302.7675288324353
 30
0.0
 41
1.0
 10
-5609.7111633922832
 20
-3302.7673009902292
 30
0.0
 41
1.0
 10
-5609.7763161470793
 20
-3302.7504726643137
 30
0.0
 41
0.9983031812932685
 10
-5609.842983576068
 20
-3302.7413333031382
 30
0.0
 41
1.0
 10
-5609.8518546014802
 20
-3302.7401171844658
 30
0.0
 41
1.0
 10
-5609.8607256268915
 20
-3302.738901065793
 30
0.0
 41
1.0
 10
-5609.9150752693986
 20
-3302.7314503358016
 30
0.0
 41
0.9983887708259598
 10
-5609.9699191186855
 20
-3302.7302056621693
 30
0.0
 41
1.0
 10
-5609.9779825239075
 20
-3302.7300226642942
 30
0.0
 41
1.0
 10
-5609.9860459291303
 20
-3302.7298396664191
 30
0.0
 41
1.0
 10
-5610.0247629679834
 20
-3302.7289609885356
 30
0.0
 41
0.9998869563077988
 10
-5610.0634889211815
 20
-3302.7292468578953
 30
0.0
 41
1.0
 10
-5610.1022148744232
 20
-3302.7295327272554
 30
0.0
 41
0.9999972320093288
 10
-5610.1409390536719
 20
-3302.7300008267848
 30
0.0
 41
1.0
 10
-5610.1602920702135
 20
-3302.7302347668738
 30
0.0
 41
1.0
 10
-5610.179645086755
 20
-3302.7304687069627
 30
0.0
 41
1.0
 10
-5610.2570752991269
 20
-3302.7314046866704
 30
0.0
 41
0.999730494508658
 10
-5610.3343786053638
 20
-3302.7359337804573
 30
0.0
 41
1.0
 10
-5610.343428247068
 20
-3302.7364639864472
 30
0.0
 41
1.0
 10
-5610.3524778887713
 20
-3302.7369941924371
 30
0.0
 41
1.0
 10
-5610.4478804784248
 20
-3302.7425836982034
 30
0.0
 41
0.9997888306414717
 10
-5610.5429728142508
 20
-3302.7520886626912
 30
0.0
 41
1.0
 10
-5610.5516938758283
 20
-3302.7529603773237
 30
0.0
 41
1.0
 10
-5610.5604149374058
 20
-3302.7538320919562
 30
0.0
 41
1.0
 10
-5610.672949396394
 20
-3302.7650804857089
 30
0.0
 41
0.9984170238187885
 10
-5610.7835085437564
 20
-3302.7888965676475
 30
0.0
 41
1.0
 10
-5610.8198896747344
 20
-3302.7967336034517
 30
0.0
 41
1.0
 10
-5610.8562708057134
 20
-3302.8045706392563
 30
0.0
 41
1.0
 10
-5610.9714618741373
 20
-3302.8293845057669
 30
0.0
 41
0.9976592854202593
 10
-5611.0821900405444
 20
-3302.8696831829143
 30
0.0
 41
1.0
 10
-5611.1929182069498
 20
-3302.9099818600621
 30
0.0
 41
0.9993255074353941
 10
-5611.3003900057411
 20
-3302.9582987585541
 30
0.0
 41
1.0
 10
-5611.3050151846637
 20
-3302.9603781347537
 30
0.0
 41
1.0
 10
-5611.3096403635873
 20
-3302.9624575109533
 30
0.0
 41
1.0
 10
-5611.4263625202248
 20
-3303.0149331618454
 30
0.0
 41
0.9976475078275979
 10
-5611.5348098645336
 20
-3303.0828811515025
 30
0.0
 41
1.0
 10
-5611.553152258668
 20
-3303.094373630317
 30
0.0
 41
1.0
 10
-5611.5714946528024
 20
-3303.1058661091315
 30
0.0
 41
1.0
 10
-5611.6556968443547
 20
-3303.1586232299001
 30
0.0
 41
0.9995131336408011
 10
-5611.7364445593139
 20
-3303.2165294418542
 30
0.0
 41
1.0
 10
-5611.8171922742831
 20
-3303.274435653816
 30
0.0
 41
0.9995810107606138
 10
-5611.8944539220147
 20
-3303.3369173362844
 30
0.0
 41
1.0
 10
-5611.8974239532181
 20
-3303.3393192077433
 30
0.0
 41
1.0
 10
-5611.9003939844206
 20
-3303.3417210792022
 30
0.0
 41
1.0
 10
-5611.9835956945699
 20
-3303.409006504598
 30
0.0
 41
0.9996617837955834
 10
-5612.0631863817152
 20
-3303.480526960167
 30
0.0
 41
1.0
 10
-5612.0753171325869
 20
-3303.4914276931531
 30
0.0
 41
1.0
 10
-5612.0874478834594
 20
-3303.5023284261397
 30
0.0
 41
1.0
 10
-5612.1557234108614
 20
-3303.5636810416167
 30
0.0
 41
0.9997267750051397
 10
-5612.2210569191393
 20
-3303.6281575781372
 30
0.0
 41
1.0
 10
-5612.28639042741
 20
-3303.69263411465
 30
0.0
 41
0.9999667288964381
 10
-5612.3506633705738
 20
-3303.7581679215618
 30
0.0
 41
1.0
 10
-5612.4194908183472
 20
-3303.8283455803175
 30
0.0
 41
1.0
 10
-5612.4883182661197
 20
-3303.8985232390733
 30
0.0
 41
1.0
 10
-5612.6902461048185
 20
-3304.1044123634856
 30
0.0
 41
0.9988205335175062
 10
-5612.8712517217964
 20
-3304.3289165955443
 30
0.0
 41
1.0
 10
-5612.9018916867008
 20
-3304.3669198459747
 30
0.0
 41
1.0
 10
-5612.932531651606
 20
-3304.4049230964047
 30
0.0
 41
1.0
 10
-5613.1748171983972
 20
-3304.7054338293283
 30
0.0
 41
0.999707782675519
 10
-5613.4022951494981
 20
-3305.0173036235387
 30
0.0
 41
1.0
 10
-5613.40401856463
 20
-3305.0196664069199
 30
0.0
 41
1.0
 10
-5613.4057419797609
 20
-3305.0220291903006
 30
0.0
 41
1.0
 10
-5613.6366667611255
 20
-3305.3386245512738
 30
0.0
 41
0.9989147567079174
 10
-5613.8371302640107
 20
-3305.6753340124619
 30
0.0
 41
1.0
 10
-5613.8618714093109
 20
-3305.716890593003
 30
0.0
 41
1.0
 10
-5613.886612554611
 20
-3305.758447173544
 30
0.0
 41
1.0
 10
-5614.0418238532548
 20
-3306.0191485580085
 30
0.0
 41
0.9997476598181404
 10
-5614.1851688407714
 20
-3306.2865583066009
 30
0.0
 41
1.0
 10
-5614.3285138282863
 20
-3306.5539680551933
 30
0.0
 41
0.9996258967109658
 10
-5614.4570220802198
 20
-3306.8288159918211
 30
0.0
 41
1.0
 10
-5614.470221989659
 20
-3306.8570473918953
 30
0.0
 41
1.0
 10
-5614.4834218990991
 20
-3306.8852787919695
 30
0.0
 41
1.0
 10
-5614.6236306201054
 20
-3307.1851511899363
 30
0.0
 41
0.9998735413943495
 10
-5614.7542319668328
 20
-3307.4893307894199
 30
0.0
 41
1.0
 10
-5614.7576747948842
 20
-3307.4973493748648
 30
0.0
 41
1.0
 10
-5614.7611176229366
 20
-3307.5053679603102
 30
0.0
 41
1.0
 10
-5614.8848333135438
 20
-3307.7935103888658
 30
0.0
 41
0.9999377418862537
 10
-5615.0020881157279
 20
-3308.0843418565623
 30
0.0
 41
1.0
 10
-5615.1193429178911
 20
-3308.3751733242084
 30
0.0
 41
0.9999508299504042
 10
-5615.2308068612501
 20
-3308.6682730009807
 30
0.0
 41
1.0
 10
-5615.2338876299273
 20
-3308.6763740269844
 30
0.0
 41
1.0
 10
-5615.2369683986053
 20
-3308.6844750529876
 30
0.0
 41
1.0
 10
-5615.3545938793068
 20
-3308.9937767817346
 30
0.0
 41
0.9999609228436406
 10
-5615.4667324821748
 20
-3309.3051097977341
 30
0.0
 41
1.0
 10
-5615.4696884925279
 20
-3309.3133166381526
 30
0.0
 41
1.0
 10
-5615.4726445028809
 20
-3309.3215234785712
 30
0.0
 41
1.0
 10
-5615.5906951264378
 20
-3309.6492701753605
 30
0.0
 41
0.9999674607400703
 10
-5615.7034426524979
 20
-3309.9788787953298
 30
0.0
 41
1.0
 10
-5615.7548410430609
 20
-3310.1291379910235
 30
0.0
 41
1.0
 10
-5615.8062394336239
 20
-3310.2793971867177
 30
0.0
 41
1.0
 10
-5615.922250040393
 20
-3310.6185451692545
 30
0.0
 41
0.9999287532308209
 10
-5616.030131444375
 20
-3310.9603659082632
 30
0.0
 41
1.0
 10
-5616.076608700655
 20
-3311.1076284530818
 30
0.0
 41
1.0
 10
-5616.123085956935
 20
-3311.2548909979
 30
0.0
 41
1.0
 10
-5616.1380128484907
 20
-3311.3021866476993
 30
0.0
 41
0.9999998224033535
 10
-5616.1528833570765
 20
-3311.3495000554799
 30
0.0
 41
1.0
 10
-5617.7735394938718
 20
-3316.4975285572691
 30
0.0
 41
1.0
 10
-5619.3941956306671
 20
-3321.6455570590588
 30
0.0
 41
1.0
 10
-5620.2995040745582
 20
-3321.6455570590588
 30
0.0
 41
1.0
 10
-5621.2048125184492
 20
-3321.6455570590588
 30
0.0
 41
1.0
 10
-5619.3527281070637
 20
-3315.7584851365914
 30
0.0
 41
1.0
 10
-5617.5006436956783
 20
-3309.871413214124
 30
0.0
 41
1.0
 10
-5617.490521937375
 20
-3309.8393700006741
 30
0.0
 41
1.0
 10
-5617.4179142685252
 20
-3309.6090704588482
 30
0.0
 41
1.0
 10
-5617.3453065996473
 20
-3309.3787709169319
 30
0.0
 41
0.9999825681978227
 10
-5617.2754235604089
 20
-3309.147630021776
 30
0.0
 41
1.0
 10
-5617.2271324982685
 20
-3308.9879054383455
 30
0.0
 41
1.0
 10
-5617.1788414361272
 20
-3308.828180854915
 30
0.0
 41
1.0
 10
-5617.08168908282
 20
-3308.5068456331765
 30
0.0
 41
0.999967252895975
 10
-5616.9897502772028
 20
-3308.1839800876078
 30
0.0
 41
1.0
 10
-5616.986961393517
 20
-3308.1741862421632
 30
0.0
 41
1.0
 10
-5616.9841725098322
 20
-3308.1643923967181
 30
0.0
 41
1.0
 10
-5616.8978114715674
 20
-3307.8611145419763
 30
0.0
 41
0.9999899749169758
 10
-5616.8141698620448
 20
-3307.5570754535684
 30
0.0
 41
1.0
 10
-5616.8040639430183
 20
-3307.5203402158595
 30
0.0
 41
1.0
 10
-5616.7939580239927
 20
-3307.4836049781507
 30
0.0
 41
1.0
 10
-5616.7305282525022
 20
-3307.2530363650881
 30
0.0
 41
0.9999214200502606
 10
-5616.6728988241321
 20
-3307.0209500229066
 30
0.0
 41
1.0
 10
-5616.6601329719588
 20
-3306.9695391375408
 30
0.0
 41
1.0
 10
-5616.6473671197855
 20
-3306.9181282521745
 30
0.0
 41
1.0
 10
-5616.6152693957629
 20
-3306.7888636807302
 30
0.0
 41
0.9999828681676467
 10
-5616.5846871437589
 20
-3306.6592322062302
 30
0.0
 41
1.0
 10
-5616.5541048917621
 20
-3306.5296007317593
 30
0.0
 41
0.9999389844480037
 10
-5616.5263939029728
 20
-3306.3993252758551
 30
0.0
 41
1.0
 10
-5616.5192561592539
 20
-3306.3657691720218
 30
0.0
 41
1.0
 10
-5616.5121184155341
 20
-3306.3322130681881
 30
0.0
 41
1.0
 10
-5616.4701319393062
 20
-3306.134825404617
 30
0.0
 41
0.999893369944267
 10
-5616.4339276749042
 20
-3305.9362957968624
 30
0.0
 41
1.0
 10
-5616.4325548496872
 20
-3305.9287677761617
 30
0.0
 41
1.0
 10
-5616.4311820244702
 20
-3305.9212397554611
 30
0.0
 41
1.0
 10
-5616.3922321096397
 20
-3305.7076541063325
 30
0.0
 41
0.9996850305195374
 10
-5616.3640484333819
 20
-3305.4923831009191
 30
0.0
 41
1.0
 10
-5616.3620534000102
 20
-3305.4771447467783
 30
0.0
 41
1.0
 10
-5616.3600583666384
 20
-3305.461906392638
 30
0.0
 41
1.0
 10
-5616.3326505041778
 20
-3305.2525611654773
 30
0.0
 41
0.9994697936706519
 10
-5616.3189259449582
 20
-3305.0418759701433
 30
0.0
 41
1.0
 10
-5616.3184488757088
 20
-3305.034552497933
 30
0.0
 41
1.0
 10
-5616.3179718064594
 20
-3305.027229025723
 30
0.0
 41
1.0
 10
-5616.3052013857387
 20
-3304.8311907748139
 30
0.0
 41
0.9991804893136344
 10
-5616.3083297020121
 20
-3304.6347619248395
 30
0.0
 41
1.0
 10
-5616.308413580834
 20
-3304.6294951234358
 30
0.0
 41
1.0
 10
-5616.3084974596559
 20
-3304.6242283220322
 30
0.0
 41
1.0
 10
-5616.3114580182855
 20
-3304.4383330748756
 30
0.0
 41
0.9988448329324814
 10
-5616.3322495639086
 20
-3304.2535804850327
 30
0.0
 41
1.0
 10
-5616.3338436376116
 20
-3304.2394156292626
 30
0.0
 41
1.0
 10
-5616.3354377113146
 20
-3304.2252507734925
 30
0.0
 41
1.0
 10
-5616.3530411095317
 20
-3304.0688278951989
 30
0.0
 41
0.9985503209456281
 10
-5616.3873573818319
 20
-3303.9152037111098
 30
0.0
 41
1.0
 10
-5616.3949433739017
 20
-3303.8812433837143
 30
0.0
 41
1.0
 10
-5616.4025293659724
 20
-3303.8472830563187
 30
0.0
 41
1.0
 10
-5616.4216736541312
 20
-3303.7615795270253
 30
0.0
 41
0.9991036781372247
 10
-5616.4479985157832
 20
-3303.6778024396954
 30
0.0
 41
1.0
 10
-5616.4519807412389
 20
-3303.6651292771858
 30
0.0
 41
1.0
 10
-5616.4559629666946
 20
-3303.6524561146762
 30
0.0
 41
1.0
 10
-5616.4743233774343
 20
-3303.5940253523709
 30
0.0
 41
0.9998874504370201
 10
-5616.4944285851125
 20
-3303.5361717501473
 30
0.0
 41
1.0
 10
-5616.5145337927934
 20
-3303.4783181479156
 30
0.0
 41
0.9994041637540646
 10
-5616.5385824057321
 20
-3303.4219894440184
 30
0.0
 41
1.0
 10
-5616.542779189951
 20
-3303.412159379548
 30
0.0
 41
1.0
 10
-5616.54697597417
 20
-3303.4023293150776
 30
0.0
 41
1.0
 10
-5616.574854805167
 20
-3303.3370291491069
 30
0.0
 41
0.9991846840705388
 10
-5616.607911161861
 20
-3303.2741911178227
 30
0.0
 41
1.0
 10
-5616.6090477682583
 20
-3303.272030501364
 30
0.0
 41
1.0
 10
-5616.6101843746555
 20
-3303.2698698849053
 30
0.0
 41
1.0
 10
-5616.640967518555
 20
-3303.2113530865408
 30
0.0
 41
0.9989253167923647
 10
-5616.6770369426085
 20
-3303.1559381581524
 30
0.0
 41
1.0
 10
-5616.6780910672842
 20
-3303.1543186633871
 30
0.0
 41
1.0
 10
-5616.6791451919607
 20
-3303.1526991686223
 30
0.0
 41
1.0
 10
-5616.7131063666648
 20
-3303.1005232297589
 30
0.0
 41
0.9986467172830265
 10
-5616.7523035193008
 20
-3303.0521571961326
 30
0.0
 41
1.0
 10
-5616.7531776480046
 20
-3303.0510785938509
 30
0.0
 41
1.0
 10
-5616.7540517767084
 20
-3303.0499999915692
 30
0.0
 41
1.0
 10
-5616.7915006719413
 20
-3303.0037911624995
 30
0.0
 41
0.9984001104265006
 10
-5616.8339274024556
 20
-3302.9621060551344
 30
0.0
 41
1.0
 10
-5616.8345145405619
 20
-3302.9615291802565
 30
0.0
 41
1.0
 10
-5616.8351016786683
 20
-3302.9609523053782
 30
0.0
 41
1.0
 10
-5616.876354132969
 20
-3302.9204209477684
 30
0.0
 41
0.998244215908207
 10
-5616.9221102343081
 20
-3302.8850523865053
 30
0.0
 41
1.0
 10
-5616.92232502977
 20
-3302.8848863538624
 30
0.0
 41
1.0
 10
-5616.922539825232
 20
-3302.884720321219
 30
0.0
 41
1.0
 10
-5616.9678663356408
 20
-3302.8496838252472
 30
0.0
 41
0.9982450060835049
 10
-5617.0170173147153
 20
-3302.8202520422115
 30
0.0
 41
1.0
 10
-5617.0661682937862
 20
-3302.7908202591789
 30
0.0
 41
0.9983922639640022
 10
-5617.1183345999443
 20
-3302.7671406245272
 30
0.0
 41
1.0
 10
-5617.118561477273
 20
-3302.7670376390442
 30
0.0
 41
1.0
 10
-5617.1187883546008
 20
-3302.7669346535613
 30
0.0
 41
1.0
 10
-5617.1714084154146
 20
-3302.7430490479446
 30
0.0
 41
0.9986517147153234
 10
-5617.2262213882823
 20
-3302.7247479288226
 30
0.0
 41
1.0
 10
-5617.2268993097105
 20
-3302.7245215823909
 30
0.0
 41
1.0
 10
-5617.2275772311386
 20
-3302.7242952359593
 30
0.0
 41
1.0
 10
-5617.2837460468609
 20
-3302.7055414239753
 30
0.0
 41
0.9989435598959721
 10
-5617.3413994340199
 20
-3302.6920237217387
 30
0.0
 41
1.0
 10
-5617.3424795535984
 20
-3302.6917704714865
 30
0.0
 41
1.0
 10
-5617.343559673177
 20
-3302.6915172212343
 30
0.0
 41
1.0
 10
-5617.4033732994894
 20
-3302.6774930184947
 30
0.0
 41
0.9992249241243562
 10
-5617.464104808394
 20
-3302.6682176757777
 30
0.0
 41
1.0
 10
-5617.4655184966832
 20
-3302.6680017673702
 30
0.0
 41
1.0
 10
-5617.4669321849715
 20
-3302.6677858589628
 30
0.0
 41
1.0
 10
-5617.5304910704535
 20
-3302.6580786994314
 30
0.0
 41
0.9994396597834123
 10
-5617.5945570069816
 20
-3302.6526457770865
 30
0.0
 41
1.0
 10
-5617.6136976744629
 20
-3302.6510226093678
 30
0.0
 41
1.0
 10
-5617.6328383419441
 20
-3302.6493994416487
 30
0.0
 41
1.0
 10
-5617.735185613441
 20
-3302.6407201838661
 30
0.0
 41
0.998769340312204
 10
-5617.8378892370247
 20
-3302.6422232473192
 30
0.0
 41
1.0
 10
-5617.8481435712474
 20
-3302.6423733190932
 30
0.0
 41
1.0
 10
-5617.8583979054702
 20
-3302.6425233908672
 30
0.0
 41
1.0
 10
-5617.967953671653
 20
-3302.6441267351543
 30
0.0
 41
0.9989753644965413
 10
-5618.0769156716733
 20
-3302.6556297420798
 30
0.0
 41
1.0
 10
-5618.1858776716972
 20
-3302.6671327490062
 30
0.0
 41
0.9983190067305893
 10
-5618.2927764826591
 20
-3302.6911677407925
 30
0.0
 41
1.0
 10
-5618.3016774342632
 20
-3302.6931690193546
 30
0.0
 41
1.0
 10
-5618.3105783858682
 20
-3302.6951702979168
 30
0.0
 41
1.0
 10
-5618.4352791000429
 20
-3302.7232078468287
 30
0.0
 41
0.9985539388306137
 10
-5618.5562488537244
 20
-3302.7644715228748
 30
0.0
 41
1.0
 10
-5618.5585942846847
 20
-3302.7652715666909
 30
0.0
 41
1.0
 10
-5618.560939715645
 20
-3302.7660716105065
 30
0.0
 41
1.0
 10
-5618.6866003312398
 20
-3302.8089353741821
 30
0.0
 41
0.9988468746494021
 10
-5618.8075706735435
 20
-3302.8636534592456
 30
0.0
 41
1.0
 10
-5618.8107534955325
 20
-3302.8650931338057
 30
0.0
 41
1.0
 10
-5618.8139363175214
 20
-3302.8665328083657
 30
0.0
 41
1.0
 10
-5618.9412723037967
 20
-3302.9241302425471
 30
0.0
 41
0.9991322885920401
 10
-5619.0633728878602
 20
-3302.9921255747322
 30
0.0
 41
1.0
 10
-5619.0809748988995
 20
-3303.0019277767192
 30
0.0
 41
1.0
 10
-5619.0985769099379
 20
-3303.0117299787062
 30
0.0
 41
1.0
 10
-5619.2007535909979
 20
-3303.068630094489
 30
0.0
 41
0.9993860037851664
 10
-5619.2986945950743
 20
-3303.1325461100787
 30
0.0
 41
1.0
 10
-5619.3043129079251
 20
-3303.1362126047729
 30
0.0
 41
1.0
 10
-5619.3099312207769
 20
-3303.1398790994672
 30
0.0
 41
1.0
 10
-5619.396635599157
 20
-3303.1964621256739
 30
0.0
 41
0.9998821494953429
 10
-5619.4815619749606
 20
-3303.2556803557441
 30
0.0
 41
1.0
 10
-5619.5664883507707
 20
-3303.3148985858188
 30
0.0
 41
0.9997976482743892
 10
-5619.6489639811716
 20
-3303.3774849938586
 30
0.0
 41
1.0
 10
-5619.6636002459791
 20
-3303.3885916836407
 30
0.0
 41
1.0
 10
-5619.6782365107865
 20
-3303.3996983734223
 30
0.0
 41
1.0
 10
-5619.7899846707951
 20
-3303.4844981610204
 30
0.0
 41
0.9998091630801447
 10
-5619.898334948818
 20
-3303.5735985117171
 30
0.0
 41
1.0
 10
-5619.9113407013001
 20
-3303.5842936121671
 30
0.0
 41
1.0
 10
-5619.9243464537822
 20
-3303.5949887126171
 30
0.0
 41
1.0
 10
-5620.0587082367638
 20
-3303.7054792642107
 30
0.0
 41
0.9995035112318033
 10
-5620.1858441145278
 20
-3303.824213081225
 30
0.0
 41
1.0
 10
-5620.1954914249136
 20
-3303.8332228273821
 30
0.0
 41
1.0
 10
-5620.2051387352994
 20
-3303.8422325735387
 30
0.0
 41
1.0
 10
-5620.3285617980619
 20
-3303.9574989452917
 30
0.0
 41
0.9994630424300081
 10
-5620.4441702038521
 20
-3304.0806016885326
 30
0.0
 41
1.0
 10
-5620.4478530426222
 20
-3304.0845232680449
 30
0.0
 41
1.0
 10
-5620.4515358813933
 20
-3304.0884448475572
 30
0.0
 41
1.0
 10
-5620.559778609635
 20
-3304.2037044317667
 30
0.0
 41
0.9995160693750037
 10
-5620.6606446391679
 20
-3304.3254718496401
 30
0.0
 41
1.0
 10
-5620.6625783592417
 20
-3304.32780627384
 30
0.0
 41
1.0
 10
-5620.6645120793155
 20
-3304.3301406980399
 30
0.0
 41
1.0
 10
-5620.7615106686962
 20
-3304.4472392675084
 30
0.0
 41
0.9996561470513695
 10
-5620.8522368873655
 20
-3304.5692620299619
 30
0.0
 41
1.0
 10
-5620.8583945532664
 20
-3304.5775438190026
 30
0.0
 41
1.0
 10
-5620.8645522191673
 20
-3304.5858256080433
 30
0.0
 41
1.0
 10
-5620.9429631060348
 20
-3304.6912847924154
 30
0.0
 41
0.9998349055172435
 10
-5621.0174903879633
 20
-3304.7995233760748
 30
0.0
 41
1.0
 10
-5621.0920176698983
 20
-3304.9077619597429
 30
0.0
 41
0.9999728109559831
 10
-5621.16494056581
 20
-3305.0170878852996
 30
0.0
 41
1.0
 10
-5621.1662557812197
 20
-3305.0190596547991
 30
0.0
 41
1.0
 10
-5621.1675709966294
 20
-3305.0210314242981
 30
0.0
 41
1.0
 10
-5621.2431243233004
 20
-3305.1343008887648
 30
0.0
 41
0.9999972147456798
 10
-5621.3181421336139
 20
-3305.2479257315067
 30
0.0
 41
1.0
 10
-5621.3231136762979
 20
-3305.2554558200727
 30
0.0
 41
1.0
 10
-5621.3280852189819
 20
-3305.2629859086387
 30
0.0
 41
1.0
 10
-5621.413046114596
 20
-3305.3916709284131
 30
0.0
 41
0.9999371979004397
 10
-5621.4951014639955
 20
-3305.522227842182
 30
0.0
 41
1.0
 10
-5621.4986103483625
 20
-3305.5278107702547
 30
0.0
 41
1.0
 10
-5621.5021192327285
 20
-3305.5333936983275
 30
0.0
 41
1.0
 10
-5621.5911923508511
 20
-3305.6751164682278
 30
0.0
 41
0.9998272025611023
 10
-5621.6749357417239
 20
-3305.8200523449523
 30
0.0
 41
1.0
 10
-5621.6901509137551
 20
-3305.846385459422
 30
0.0
 41
1.0
 10
-5621.7053660857873
 20
-3305.8727185738917
 30
0.0
 41
1.0
 10
-5621.8195398207226
 20
-3306.0703206795552
 30
0.0
 41
0.9995217214837738
 10
-5621.9212795102812
 20
-3306.274603007425
 30
0.0
 41
1.0
 10
-5621.9289230729119
 20
-3306.2899504571178
 30
0.0
 41
1.0
 10
-5621.9365666355416
 20
-3306.3052979068111
 30
0.0
 41
1.0
 10
-5622.0234719281325
 20
-3306.4797943648946
 30
0.0
 41
0.9998269762608159
 10
-5622.1038263944056
 20
-3306.6574026516205
 30
0.0
 41
1.0
 10
-5622.1841808606905
 20
-3306.8350109383714
 30
0.0
 41
0.9998944747389987
 10
-5622.2593416552663
 20
-3307.0148786640298
 30
0.0
 41
1.0
 10
-5622.2642953248233
 20
-3307.0267333188649
 30
0.0
 41
1.0
 10
-5622.2692489943802
 20
-3307.0385879737005
 30
0.0
 41
1.0
 10
-5622.349896054955
 20
-3307.2315849137726
 30
0.0
 41
0.9999506734415236
 10
-5622.4266935838814
 20
-3307.4261457186831
 30
0.0
 41
1.0
 10
-5622.44129354914
 20
-3307.4631336404573
 30
0.0
 41
1.0
 10
-5622.4558935143978
 20
-3307.5001215622315
 30
0.0
 41
1.0
 10
-5622.5034911127741
 20
-3307.6207065235135
 30
0.0
 41
0.9999912393922459
 10
-5622.5500775568071
 20
-3307.7416857262351
 30
0.0
 41
1.0
 10
-5622.5966640007855
 20
-3307.8626649288171
 30
0.0
 41
0.9999927113977347
 10
-5622.6423252951363
 20
-3307.983996336201
 30
0.0
 41
1.0
 10
-5622.6562937265771
 20
-3308.0211133183161
 30
0.0
 41
1.0
 10
-5622.6702621580189
 20
-3308.0582303004312
 30
0.0
 41
1.0
 10
-5622.7438603152086
 20
-3308.2537956719334
 30
0.0
 41
0.9999487550949106
 10
-5622.8134839401864
 20
-3308.4508110371312
 30
0.0
 41
1.0
 10
-5622.8370775501089
 20
-3308.5175743473828
 30
0.0
 41
1.0
 10
-5622.8606711600314
 20
-3308.5843376576345
 30
0.0
 41
1.0
 10
-5622.9553567944085
 20
-3308.8522714924784
 30
0.0
 41
0.9999808436932592
 10
-5623.046718383066
 20
-3309.121356923788
 30
0.0
 41
1.0
 10
-5623.1380799717317
 20
-3309.3904423551235
 30
0.0
 41
0.9999873932892571
 10
-5623.2267346804629
 20
-3309.6604317101805
 30
0.0
 41
1.0
 10
-5623.2468270373138
 20
-3309.721621042876
 30
0.0
 41
1.0
 10
-5623.2669193941647
 20
-3309.7828103755719
 30
0.0
 41
1.0
 10
-5623.3957588166049
 20
-3310.175178396039
 30
0.0
 41
0.9999794883030189
 10
-5623.5195616015417
 20
-3310.5691646022483
 30
0.0
 41
1.0
 10
-5623.5307138609114
 20
-3310.6046552122712
 30
0.0
 41
1.0
 10
-5623.5418661202821
 20
-3310.640145822294
 30
0.0
 41
1.0
 10
-5623.684424284249
 20
-3311.0938185746036
 30
0.0
 41
0.9999982761820375
 10
-5623.825296724367
 20
-3311.5480175970524
 30
0.0
 41
1.0
 10
-5625.41343705694
 20
-3316.5967873280556
 30
0.0
 41
1.0
 10
-5627.0015773895129
 20
-3321.6455570590588
 30
0.0
 41
1.0
 10
-5627.9503280009885
 20
-3321.6455570590588
 30
0.0
 41
1.0
 10
-5628.8990786124641
 20
-3321.6455570590588
 30
0.0
 41
1.0
 10
-5625.660794126311
 20
-3311.3182348591126
 30
0.0
 41
1.0
 10
-5622.4225096401578
 20
-3300.9909126591665
 30
0.0
 41
1.0
  0
LWPOLYLINE
  5
5D
100
AcDbEntity
  8
0
370
              15
390
0
  6
Continuous
 62
               7
100
AcDbPolyline
 90
      232
 70
             128
 10
-5648.1260554139853
 20
-3302.0752554906817
 42
0.0004370800692752
 10
-5648.1789325879063
 20
-3302.1439221297419
 10
-5648.2182168191848
 20
-3302.1950292428346
 42
0.0030481992188806
 10
-5648.3485555363068
 20
-3302.3667509351822
 10
-5648.3870672080548
 20
-3302.418137718967
 42
0.0042058245763588
 10
-5648.591052258721
 20
-3302.6951434640368
 10
-5648.6434573812248
 20
-3302.7675763108214
 42
0.0120948898744478
 10
-5648.9395012979794
 20
-3303.1983259153603
 10
-5649.0356937971173
 20
-3303.3458066506078
 42
0.0141601263948705
 10
-5649.3393378440314
 20
-3303.8414759873303
 10
-5649.3788751114644
 20
-3303.910319954774
 42
0.0071131081317507
 10
-5649.5841474346953
 20
-3304.2798227536005
 42
0.0068458790994354
 10
-5649.7790269615198
 20
-3304.6549143170409
 10
-5649.7858388239956
 20
-3304.6684760308003
 42
0.0064120880296821
 10
-5649.9839810740368
 20
-3305.075900505713
 10
-5649.9915157595569
 20
-3305.0919123624403
 42
0.0058857236446055
 10
-5650.1942711514394
 20
-3305.5362884734991
 10
-5650.2024460777229
 20
-3305.554778627109
 42
0.0053189741894565
 10
-5650.4111503903687
 20
-3306.0407421009759
 10
-5650.4198981960717
 20
-3306.0617239792236
 42
0.0047503650414139
 10
-5650.6358719222171
 20
-3306.5939234124212
 10
-5650.6451401705699
 20
-3306.6173997885408
 42
0.0042071762173122
 10
-5650.8696875543264
 20
-3307.2004933826861
 10
-5650.8794369566467
 20
-3307.2264595574807
 42
0.0036680086489423
 10
-5651.1138915999982
 20
-3307.8650949421185
 10
-5651.1240993798074
 20
-3307.8935434763562
 42
0.0032573142627764
 10
-5651.3697316657481
 20
-3308.592396136034
 10
-5651.4383821866168
 20
-3308.7918592201695
 42
0.0026133366644996
 10
-5651.7868273853719
 20
-3309.8217225038343
 10
-5651.8500841729328
 20
-3310.0119533394072
 42
0.0020592950747685
 10
-5652.0639472418397
 20
-3310.6640569918404
 10
-5652.0669990330143
 20
-3310.6734934802857
 42
0.0025609928532302
 10
-5652.268819534489
 20
-3311.308638702616
 10
-5652.2714109016206
 20
-3311.316941043573
 42
0.0031362356249523
 10
-5652.4609016872928
 20
-3311.9377038997359
 10
-5652.4630327302229
 20
-3311.9448452059555
 42
0.0037229918024661
 10
-5652.6398331171467
 20
-3312.5538305079212
 10
-5652.6415117063316
 20
-3312.5597773980198
 42
0.0043077623708893
 10
-5652.8052525084186
 20
-3313.1595961298649
 42
0.0047654161832296
 10
-5652.9580812309569
 20
-3313.7622822188614
 10
-5652.9925458397729
 20
-3313.9038439959168
 42
0.0112969368437385
 10
-5653.188410197914
 20
-3314.7955361565296
 10
-5653.2164165870126
 20
-3314.9383642026387
 42
0.013005676257183
 10
-5653.4172538306593
 20
-3316.1253052742841
 10
-5653.4377935808043
 20
-3316.2693833877479
 42
0.0138721532144305
 10
-5653.5414965853442
 20
-3317.1762128735863
 10
-5653.5607920732518
 20
-3317.3997105955118
 42
0.0071254697006313
 10
-5653.5941387191751
 20
-3317.8628976043587
 10
-5653.5990996933406
 20
-3317.9489015989484
 42
0.0028881799201468
 10
-5653.6142379866287
 20
-3318.2406433087617
 42
0.0060297297124074
 10
-5653.6241701864037
 20
-3318.5325922448419
 10
-5653.6252324680718
 20
-3318.5809846168195
 42
0.0229523164173832
 10
-5653.6175014402852
 20
-3318.9037394630932
 10
-5653.613275666763
 20
-3318.9641429971325
 42
0.0123673300652909
 10
-5653.5941970202466
 20
-3319.1652637222842
 42
0.0128577674497652
 10
-5653.5650016298405
 20
-3319.3651615722138
 10
-5653.5578757564535
 20
-3319.4064903868075
 42
0.0285717853764913
 10
-5653.4933817547544
 20
-3319.6846065381319
 10
-5653.4797132310887
 20
-3319.7312613076074
 42
0.0316283099176779
 10
-5653.3639026511773
 20
-3320.0502758094244
 10
-5653.3608539594215
 20
-3320.0572621817514
 42
0.0338984824228162
 10
-5653.2114222484543
 20
-3320.3448281459391
 10
-5653.2091135190904
 20
-3320.3486191752058
 42
0.0350228718329112
 10
-5653.0267532284106
 20
-3320.6056711598917
 10
-5653.0258679766366
 20
-3320.606750237655
 42
0.0347476747511732
 10
-5652.8114432893954
 20
-3320.8339352848757
 42
0.0331337701913822
 10
-5652.5681999636536
 20
-3321.0300639469501
 10
-5652.5670998651331
 20
-3321.0308366501258
 42
0.030523331910019
 10
-5652.2985551695556
 20
-3321.1959648202192
 10
-5652.2953251250583
 20
-3321.1976888320796
 42
0.02737444811533
 10
-5652.0027714134922
 20
-3321.3338269759665
 10
-5651.9976668783465
 20
-3321.3358705604396
 42
0.0240964406208688
 10
-5651.6821898027056
 20
-3321.4448542867194
 10
-5651.6756064734909
 20
-3321.4467790263961
 42
0.0209636179815405
 10
-5651.3382063208364
 20
-3321.5302471743285
 10
-5651.3305738603894
 20
-3321.5317990873295
 42
0.0181388704687511
 10
-5650.9722514683872
 20
-3321.5912151805442
 10
-5650.9639706200132
 20
-3321.5922813643606
 42
0.0156086547602145
 10
-5650.585783255824
 20
-3321.6290175509375
 10
-5650.5425880035064
 20
-3321.631856053416
 42
0.0137148328998312
 10
-5650.2149148581984
 20
-3321.6443763086681
 10
-5650.1689786682809
 20
-3321.6448707417831
 42
0.0051057823861113
 10
-5649.9328330816797
 20
-3321.6450009961918
 42
0.0052256693310676
 10
-5649.6967357978692
 20
-3321.6402521717268
 10
-5649.6265090141515
 20
-3321.6381052057136
 42
0.0161507179034832
 10
-5649.2507719360519
 20
-3321.6144548353873
 10
-5649.2307589756774
 20
-3321.6125446400997
 42
0.0101216737842424
 10
-5648.816731754182
 20
-3321.5645517097337
 10
-5648.7826784647605
 20
-3321.5599040129246
 42
0.0245291776397145
 10
-5648.305888809211
 20
-3321.4708289348487
 10
-5648.2210654936871
 20
-3321.4506330145027
 42
0.0143509212552387
 10
-5647.8644343897458
 20
-3321.3548283807236
 42
0.0156557857018543
 10
-5647.5142183250155
 20
-3321.2378171649038
 10
-5647.5067171105238
 20
-3321.2350470031506
 42
0.0170137333636466
 10
-5647.1501211148397
 20
-3321.0893893882785
 10
-5647.1430171924349
 20
-3321.0862015527159
 42
0.0183105364411236
 10
-5646.7836675242716
 20
-3320.9088665108934
 10
-5646.7767207596298
 20
-3320.9051160760196
 42
0.0194899958165734
 10
-5646.4182400186437
 20
-3320.6931370941279
 10
-5646.4112261393084
 20
-3320.6886117518338
 42
0.0204869852968704
 10
-5646.0572118372129
 20
-3320.4390917367464
 10
-5646.049946228628
 20
-3320.4335116713996
 42
0.0212516938567758
 10
-5645.7039562975197
 20
-3320.143607674504
 10
-5645.6574396034503
 20
-3320.1011403644161
 42
0.0215248918251319
 10
-5645.3974134345572
 20
-3319.8423760854166
 10
-5645.352383700173
 20
-3319.7935319640633
 42
0.0114578554931272
 10
-5645.1975915464991
 20
-3319.6177090306087
 10
-5645.1863970105096
 20
-3319.6043902670599
 42
0.0061531305145919
 10
-5645.0599223645177
 20
-3319.4501007337576
 42
0.0006325587126882
 10
-5644.9355438803605
 20
-3319.2940973580744
 10
-5644.9125037453141
 20
-3319.2651238374224
 42
0.0041897761553925
 10
-5644.7440483413557
 20
-3319.0496044613783
 10
-5644.6855862214497
 20
-3318.9735031143755
 42
0.0092993880024033
 10
-5644.4089742942206
 20
-3318.5992243504838
 10
-5644.3265798010298
 20
-3318.4832873469272
 42
0.0159321727092739
 10
-5643.9799733183845
 20
-3317.9611131261668
 10
-5643.9356171829786
 20
-3317.8894335618893
 42
0.0085547317030949
 10
-5643.7011054176701
 20
-3317.4955586126921
 42
0.0084601156893094
 10
-5643.4801292402399
 20
-3317.0939317636812
 10
-5643.472013766398
 20
-3317.0785720813869
 42
0.0081429654271355
 10
-5643.2487644959629
 20
-3316.6388505688515
 10
-5643.2399043317764
 20
-3316.6206717268269
 42
0.007657458132497
 10
-5643.0134968212205
 20
-3316.1374888515979
 10
-5643.0040171804858
 20
-3316.116424373271
 42
0.0070682724197733
 10
-5642.7735722726893
 20
-3315.5843870685139
 10
-5642.7635819886973
 20
-3315.5603978794779
 42
0.0064559514446737
 10
-5642.528248780508
 20
-3314.9740856129406
 10
-5642.5178394223503
 20
-3314.9471506875166
 42
0.0058311413904625
 10
-5642.276792685594
 20
-3314.3011185931505
 10
-5642.2660376082003
 20
-3314.2712342519726
 42
0.0052312425814679
 10
-5642.0184563301682
 20
-3313.5600318381616
 10
-5642.0074124937801
 20
-3313.5272051260681
 42
0.0046680544786956
 10
-5641.7524840660735
 20
-3312.7453788104044
 10
-5641.7104919160047
 20
-3312.6123955730313
 42
0.0041666856450003
 10
-5641.5072059036065
 20
-3311.9494267980158
 10
-5641.4695434629211
 20
-3311.8228456902893
 42
0.001517097514799
 10
-5641.3483568845295
 20
-3311.4109773388682
 42
-0.0004887993104819
 10
-5641.228017111478
 20
-3310.9988589270715
 10
-5641.1515398539113
 20
-3310.7379015408851
 42
0.0002583378924359
 10
-5640.8783252839958
 20
-3309.8038448382117
 10
-5640.7965524341889
 20
-3309.5237455778406
 42
0.0006636169674557
 10
-5640.6026846742598
 20
-3308.8563926545362
 10
-5640.5975880198976
 20
-3308.8387610716036
 42
0.0010589131326801
 10
-5640.4161393189961
 20
-3308.2060297286075
 10
-5640.4111572484953
 20
-3308.1885168215172
 42
0.0015655524456342
 10
-5640.2428870413323
 20
-3307.5899001423863
 10
-5640.2380568409353
 20
-3307.5725079835142
 42
0.0021640440482513
 10
-5640.083766868931
 20
-3307.0074809654325
 10
-5640.07913264951
 20
-3306.9902162354724
 42
0.0028763871848022
 10
-5639.9396169314487
 20
-3306.4582482845917
 10
-5639.9352310672557
 20
-3306.4411243063373
 42
0.0037310511949992
 10
-5639.8112743754446
 20
-3305.941676712413
 10
-5639.8071991551724
 20
-3305.9247164412373
 42
0.0047652197769396
 10
-5639.6995752546472
 20
-3305.4572386728623
 10
-5639.6958846553243
 20
-3305.4404791177139
 42
0.006027669929044
 10
-5639.6053545561699
 20
-3305.0044033225681
 10
-5639.6021358658691
 20
-3304.9879021082011
 42
0.0075824337768414
 10
-5639.5294465564648
 20
-3304.582634943833
 10
-5639.5268011790849
 20
-3304.5664799963834
 42
0.0095130624606122
 10
-5639.4726859434531
 20
-3304.191390643311
 10
-5639.4656997195698
 20
-3304.135457085185
 42
0.0121054653257811
 10
-5639.4391083889932
 20
-3303.8705612567201
 10
-5639.4382418992318
 20
-3303.8591578137602
 42
0.0069050827388449
 10
-5639.4231530811967
 20
-3303.6162165869468
 10
-5639.4220177815268
 20
-3303.5926903298714
 42
0.0169063976718333
 10
-5639.4191905025473
 20
-3303.3964976026014
 10
-5639.420361154077
 20
-3303.3361618413178
 42
0.0052007732886775
 10
-5639.4226146026713
 20
-3303.2605684511
 42
0.0054038123307551
 10
-5639.4425781145246
 20
-3303.1405501550057
 10
-5639.4476639703807
 20
-3303.1118916685091
 42
0.0112050460477577
 10
-5639.4830483324467
 20
-3302.9355652301365
 10
-5639.5008732944798
 20
-3302.8560236434491
 42
0.0240764468025164
 10
-5639.5917706606269
 20
-3302.525786607946
 10
-5639.6103294234408
 20
-3302.4691664429502
 42
0.025681233183647
 10
-5639.7536923436292
 20
-3302.0974422366971
 10
-5639.7591017694513
 20
-3302.0853109017066
 42
0.0268360501221669
 10
-5639.9285290102998
 20
-3301.7543177676862
 10
-5639.934065417925
 20
-3301.7447980973911
 42
0.027467023172959
 10
-5640.126266394348
 20
-3301.4525107224567
 10
-5640.1316476943193
 20
-3301.4452315749036
 42
0.0275035967096705
 10
-5640.3432205738727
 20
-3301.1897156846112
 10
-5640.3482900748304
 20
-3301.1842365969901
 42
0.0269557673528464
 10
-5640.5756936182788
 20
-3300.9635943110184
 10
-5640.580436676074
 20
-3300.959464356547
 42
0.0259124802217212
 10
-5640.819991507492
 20
-3300.7717738294054
 10
-5640.8245223526674
 20
-3300.7685883270801
 42
0.0245162153005266
 10
-5641.0724387057689
 20
-3300.6118553179649
 10
-5641.0769652520848
 20
-3300.6092951207688
 42
0.0229282588839773
 10
-5641.3293848089206
 20
-3300.4814269282651
 10
-5641.3341653027446
 20
-3300.4792746285088
 42
0.0212984135684801
 10
-5641.5872032552188
 20
-3300.3780757112609
 10
-5641.5925075401874
 20
-3300.3762121485011
 42
0.0197555462332805
 10
-5641.8422858779113
 20
-3300.2993967305356
 42
0.0183511896800153
 10
-5642.0972146033773
 20
-3300.2418138235703
 10
-5642.1835798000984
 20
-3300.2256110331855
 42
0.033805787715267
 10
-5642.4690871493585
 20
-3300.191802628045
 10
-5642.5600925544186
 20
-3300.1872229727824
 42
0.0091990524492355
 10
-5642.6659396630339
 20
-3300.1838471168612
 42
0.0028333980853354
 10
-5642.7718535790873
 20
-3300.1830190093447
 10
-5642.7727690320762
 20
-3300.1830170395206
 42
-0.0023619827827044
 10
-5642.8805150471871
 20
-3300.1822761984422
 10
-5642.916920217358
 20
-3300.1818538919792
 42
0.0008824598509674
 10
-5643.0974762072719
 20
-3300.1800781137404
 10
-5643.141337639614
 20
-3300.1797241522154
 42
0.0038132665751532
 10
-5643.4096205354908
 20
-3300.1796052161485
 10
-5643.4261541902861
 20
-3300.1797239822922
 42
0.0060665569324861
 10
-5643.7274346818722
 20
-3300.1855442817127
 10
-5643.7416850139025
 20
-3300.1859925896806
 42
0.0080356953330443
 10
-5644.0711437302352
 20
-3300.2016603117472
 10
-5644.083213745329
 20
-3300.2024288946882
 42
0.0098996399121098
 10
-5644.4359768299882
 20
-3300.2319141238868
 10
-5644.446022539355
 20
-3300.2329544200843
 42
0.0117740981355893
 10
-5644.8171793977026
 20
-3300.2802466676139
 10
-5644.8254020941868
 20
-3300.2814917841847
 42
0.0137435215153502
 10
-5645.2099909136723
 20
-3300.3505887577467
 10
-5645.216647952795
 20
-3300.3519746539801
 42
0.0158359869373335
 10
-5645.6096450465948
 20
-3300.4468667424603
 10
-5645.6150582334649
 20
-3300.4483566833314
 42
0.0180554124032479
 10
-5646.011373278081
 20
-3300.5729946995712
 10
-5646.0159300661608
 20
-3300.5746107358364
 42
0.0203657431284938
 10
-5646.4104075839714
 20
-3300.7328710773518
 10
-5646.414551122979
 20
-3300.7347326987938
 42
0.022681968464048
 10
-5646.8019871791785
 20
-3300.9303752774631
 10
-5646.8061869702005
 20
-3300.9327408693853
 42
0.0248634984603765
 10
-5647.1813689113806
 20
-3301.169367515331
 10
-5647.2295638401638
 20
-3301.2032245571572
 42
0.0267044190881938
 10
-5647.5038565370824
 20
-3301.4186649330259
 42
0.0139303002207525
 10
-5647.7600237030219
 20
-3301.655903773938
 10
-5647.7648770887427
 20
-3301.660656436798
 42
0.0283460963444152
 10
-5648.0089496829687
 20
-3301.9283870972431
 10
-5648.0486181881251
 20
-3301.9771886747162
 42
0.0070695364812021
 10
-5648.1260554139853
 20
-3302.0752554906817
 42
0.0070695364812021
  0
LWPOLYLINE
  5
5E
100
AcDbEntity
  8
0
370
              15
390
0
  6
Continuous
 62
               7
100
AcDbPolyline
 90
      226
 70
             128
 10
-5651.6548758512317
 20
-3317.7968442968659
 42
-0.0026277636551788
 10
-5651.6549537350311
 20
-3317.7300723709463
 10
-5651.6547363767995
 20
-3317.6769171536794
 42
-0.0088680296720009
 10
-5651.6509597605054
 20
-3317.5039013712599
 10
-5651.648613401394
 20
-3317.4446213458227
 42
-0.0077381705637129
 10
-5651.632567290636
 20
-3317.1533608500954
 10
-5651.631699379458
 20
-3317.1410726163394
 42
-0.0068872530525738
 10
-5651.6050672997053
 20
-3316.8258508642239
 10
-5651.6038630755238
 20
-3316.8136098852519
 42
-0.0062130021495977
 10
-5651.5662693587055
 20
-3316.4747401940886
 10
-5651.5647654551613
 20
-3316.4625663220968
 42
-0.0056726929683419
 10
-5651.5158435956591
 20
-3316.1003710999844
 10
-5651.514070150015
 20
-3316.0882772997384
 42
-0.0052341884502657
 10
-5651.4534595637606
 20
-3315.7030840442567
 10
-5651.4514415749782
 20
-3315.6910791142277
 42
-0.0049768450165133
 10
-5651.378702893554
 20
-3315.2832345468037
 10
-5651.3544538788301
 20
-3315.1546865637893
 42
-0.0089029805620362
 10
-5651.2173730270324
 20
-3314.4929111163506
 10
-5651.1846276517172
 20
-3314.3478796858435
 42
-0.0080318257103783
 10
-5650.9550790373769
 20
-3313.4021700539938
 10
-5650.9430941109276
 20
-3313.3560394187994
 42
-0.0074265721316011
 10
-5650.659082572085
 20
-3312.3259748404466
 10
-5650.6392030289644
 20
-3312.2578407798451
 42
-0.0069711922704117
 10
-5650.3118984504536
 20
-3311.1915730395012
 10
-5650.2519465033447
 20
-3311.0055516811212
 42
-0.005207042289577
 10
-5650.0225212780888
 20
-3310.3182796040996
 10
-5650.0052400859086
 20
-3310.2682523234603
 42
-0.0009167004447333
 10
-5649.802148198627
 20
-3309.6837964753286
 42
-0.0025162726945117
 10
-5649.5950505683868
 20
-3309.1007552112269
 10
-5649.5578259565546
 20
-3308.9976056652481
 42
-0.0028212681454532
 10
-5649.3096500375968
 20
-3308.3218750330893
 10
-5649.2998192748582
 20
-3308.2955675884455
 42
-0.0031964916827319
 10
-5649.0635270171842
 20
-3307.6753628262854
 10
-5649.0538925631918
 20
-3307.6505528361581
 42
-0.0036281836450397
 10
-5648.8287866020837
 20
-3307.0831121552492
 10
-5648.8193481919388
 20
-3307.0598147237765
 42
-0.0041269166823871
 10
-5648.6047304952672
 20
-3306.5423738277682
 10
-5648.572097538874
 20
-3306.4654953814706
 42
-0.0047472213060555
 10
-5648.4150527332931
 20
-3306.1050739135235
 10
-5648.408158652087
 20
-3306.0896533161963
 42
-0.0025651660000752
 10
-5648.2598006182343
 20
-3305.7623252604435
 42
-0.0057144634986243
 10
-5648.1060509244535
 20
-3305.4375155870621
 10
-5648.0780202190463
 20
-3305.3800072046547
 42
-0.0065388068366696
 10
-5647.8945531913223
 20
-3305.0157747080216
 10
-5647.8860947355452
 20
-3304.9995151286553
 42
-0.0074510843042196
 10
-5647.7099124896658
 20
-3304.672826847529
 10
-5647.7017328191532
 20
-3304.6581860702927
 42
-0.0084648979866012
 10
-5647.532098966034
 20
-3304.3662770592991
 10
-5647.5242428395541
 20
-3304.3532700676615
 42
-0.0095638542788734
 10
-5647.3604073919514
 20
-3304.0933811956697
 10
-5647.3529324482843
 20
-3304.0820118342212
 42
-0.0107191626813352
 10
-5647.1941308678925
 20
-3303.8514005996703
 10
-5647.1871141341599
 20
-3303.8416645073039
 42
-0.0118458573901999
 10
-5647.0325660356493
 20
-3303.6375923119949
 42
-0.0129184518204959
 10
-5646.8681134120552
 20
-3303.4414317958331
 10
-5646.8379686396775
 20
-3303.4073057169176
 42
-0.0217742579640167
 10
-5646.6613563173487
 20
-3303.224098946675
 10
-5646.6506107728937
 20
-3303.2138821134768
 42
-0.0097266568617406
 10
-5646.4845531540332
 20
-3303.0620345390348
 42
-0.0187720905733976
 10
-5646.3102055781501
 20
-3302.9199656856499
 10
-5646.2794995874692
 20
-3302.8968066032489
 42
-0.0179428207504941
 10
-5646.0470788674738
 20
-3302.7342544261378
 10
-5646.0434265405556
 20
-3302.7318904912486
 42
-0.0170047877687001
 10
-5645.8076629030274
 20
-3302.5904299770987
 10
-5645.8038799142823
 20
-3302.5883316720633
 42
-0.0160190788381324
 10
-5645.5669713666448
 20
-3302.4666803700743
 42
-0.0151102861488844
 10
-5645.3229395841918
 20
-3302.3599975940169
 10
-5645.2705530819867
 20
-3302.3389574611247
 42
-0.0271945441889037
 10
-5644.9118905229316
 20
-3302.21709265042
 10
-5644.842825722445
 20
-3302.1977431091541
 42
-0.0237596594013114
 10
-5644.4270288754178
 20
-3302.1022923971709
 10
-5644.358966021683
 20
-3302.0900377090434
 42
-0.0213715440565967
 10
-5644.0730910902421
 20
-3302.0510906775344
 10
-5644.0129439240209
 20
-3302.0455009628331
 42
-0.0101465655798802
 10
-5643.8454513920296
 20
-3302.0333574195693
 10
-5643.8361110058504
 20
-3302.0328705045731
 42
-0.0100375910923369
 10
-5643.6869569052687
 20
-3302.0280946866469
 10
-5643.6766976355748
 20
-3302.0279722476325
 42
-0.0103625633359985
 10
-5643.5479896409333
 20
-3302.0291036811591
 10
-5643.52572398966
 20
-3302.0297610396242
 42
-0.0115689250142219
 10
-5643.4416732521386
 20
-3302.034190545869
 42
-0.0072438037434548
 10
-5643.3578349726895
 20
-3302.0417797456198
 10
-5643.3410344632266
 20
-3302.0435462883429
 42
-0.0217917313091673
 10
-5643.2244646999097
 20
-3302.0609661810645
 10
-5643.1588646093405
 20
-3302.0737127894795
 42
-0.0332943556730687
 10
-5642.9544724443185
 20
-3302.1277530807852
 10
-5642.9242998757936
 20
-3302.1379211578951
 42
-0.0184824084848525
 10
-5642.7857948193032
 20
-3302.1903721732901
 42
-0.0198002050638367
 10
-5642.6517204787942
 20
-3302.2532562334941
 10
-5642.6498338414267
 20
-3302.2542340203695
 42
-0.021224234297806
 10
-5642.5176948990274
 20
-3302.3299967591611
 10
-5642.5158796034812
 20
-3302.3311425613711
 42
-0.0226090605781747
 10
-5642.3873757022529
 20
-3302.4206222049406
 10
-5642.3855312605219
 20
-3302.422034457923
 42
-0.0238457052263359
 10
-5642.2623491792447
 20
-3302.5260303537711
 10
-5642.2603964506698
 20
-3302.5278452315515
 42
-0.0248160564143829
 10
-5642.1441949433602
 20
-3302.6471198327713
 10
-5642.1420913099673
 20
-3302.6495051664647
 42
-0.0254109591413648
 10
-5642.0344860920986
 20
-3302.7847935524328
 10
-5642.0322380701873
 20
-3302.7879351008296
 42
-0.0255528488278895
 10
-5641.9347913913916
 20
-3302.9399621550606
 10
-5641.9324602914739
 20
-3302.9440437666717
 42
-0.0252146793209594
 10
-5641.8466792654599
 20
-3303.1135460126802
 10
-5641.8443770263075
 20
-3303.1187280945815
 42
-0.0244265635944719
 10
-5641.7717223325462
 20
-3303.3064746666273
 10
-5641.762475931082
 20
-3303.3343400849512
 42
-0.0231319612929921
 10
-5641.7165531520859
 20
-3303.4976411317671
 42
-0.0112130424340774
 10
-5641.681917129551
 20
-3303.6638447319356
 10
-5641.6807146044348
 20
-3303.6703413188434
 42
-0.0210527881263028
 10
-5641.6550281290638
 20
-3303.85139696428
 10
-5641.651517534242
 20
-3303.8868025128318
 42
-0.0190029892400031
 10
-5641.6360760606976
 20
-3304.1403383591096
 10
-5641.635266084254
 20
-3304.1758139734729
 42
-0.0137974553673663
 10
-5641.6368149370883
 20
-3304.500845380172
 10
-5641.6376603920435
 20
-3304.526964124756
 42
-0.0081336634238974
 10
-5641.6525197272667
 20
-3304.8323115923986
 42
-0.0073526923577511
 10
-5641.6768282606417
 20
-3305.1370598366843
 10
-5641.6780896844248
 20
-3305.1503965113498
 42
-0.0066886138667424
 10
-5641.7138252704717
 20
-3305.4809825548518
 10
-5641.7154823599412
 20
-3305.4946041738385
 42
-0.0061359187349929
 10
-5641.7633329620003
 20
-3305.8513681539985
 10
-5641.7653704630648
 20
-3305.8652629567678
 42
-0.0056698610063045
 10
-5641.8260207938292
 20
-3306.2485415255883
 10
-5641.8284262271554
 20
-3306.2627006448365
 42
-0.0052721077264137
 10
-5641.9025584279616
 20
-3306.6728279845497
 10
-5641.9053215767963
 20
-3306.6872446199004
 42
-0.0049289272198171
 10
-5641.9936156948816
 20
-3307.1245531309551
 10
-5641.9967281895788
 20
-3307.1392219838385
 42
-0.004741595671605
 10
-5642.0999661811011
 20
-3307.6040187412004
 10
-5642.1347343914713
 20
-3307.7538258366321
 42
-0.0084404470903305
 10
-5642.324750835036
 20
-3308.5140498611399
 10
-5642.330877523028
 20
-3308.5369139853169
 42
-0.003963594027016
 10
-5642.5523312072864
 20
-3309.3379028494746
 10
-5642.5657080024912
 20
-3309.384834466156
 42
-0.0072475040840076
 10
-5642.8331548903379
 20
-3310.2740541824928
 10
-5642.9033672171736
 20
-3310.4957945324923
 42
-0.0051345458834235
 10
-5643.1901265892411
 20
-3311.3701197203295
 10
-5643.2116528559764
 20
-3311.4335459873632
 42
-0.0019150016602033
 10
-5643.4671862628757
 20
-3312.1770951076855
 10
-5643.4736538672705
 20
-3312.1956825726029
 42
-0.0021524362752462
 10
-5643.7221319183354
 20
-3312.9000083943147
 10
-5643.7313423390096
 20
-3312.9257619725545
 42
-0.0024331286826631
 10
-5643.9675975980681
 20
-3313.5763612807345
 10
-5643.976645550606
 20
-3313.6009045870551
 42
-0.002744972178213
 10
-5644.2012601214537
 20
-3314.2000344660137
 10
-5644.2101501288198
 20
-3314.2233570557969
 42
-0.003108322977733
 10
-5644.4236926154554
 20
-3314.7732810934453
 10
-5644.4324287471482
 20
-3314.7953708093469
 42
-0.0035311343277982
 10
-5644.635469932723
 20
-3315.2983539350334
 10
-5644.6440552718514
 20
-3315.3191966584964
 42
-0.0040245640941308
 10
-5644.8371670756651
 20
-3315.7775059811361
 10
-5644.8456031892883
 20
-3315.7970853492557
 42
-0.0046015135851643
 10
-5645.0293594824316
 20
-3316.2129903788505
 10
-5645.0376456602598
 20
-3316.231287518302
 42
-0.0052768638285557
 10
-5645.2126231792163
 20
-3316.6070604025726
 10
-5645.2207553898625
 20
-3316.6240537411554
 42
-0.0060672675619966
 10
-5645.3875350026092
 20
-3316.9619693642298
 10
-5645.3955044831055
 20
-3316.9776346232566
 42
-0.0069904648874453
 10
-5645.5546728770914
 20
-3317.2799704298909
 10
-5645.5624642767143
 20
-3317.2942809791402
 42
-0.0080637022764125
 10
-5645.7146161370483
 20
-3317.5633162822714
 10
-5645.7222051696899
 20
-3317.5762441478901
 42
-0.0093006455642049
 10
-5645.8679458462111
 20
-3317.8142585463752
 10
-5645.8752965129324
 20
-3317.8257765155131
 42
-0.0107060778074873
 10
-5646.0152450563937
 20
-3318.0350468329275
 10
-5646.0223068246814
 20
-3318.0451323755051
 42
-0.0122723111386957
 10
-5646.1571005428714
 20
-3318.2279257049822
 10
-5646.15742676643
 20
-3318.2283460927983
 42
-0.0141836319638028
 10
-5646.3010083693989
 20
-3318.4029158506219
 10
-5646.3079561250461
 20
-3318.4108908508806
 42
-0.0175957477209148
 10
-5646.4478622930856
 20
-3318.5605117392911
 42
-0.0080466359683495
 10
-5646.5953260581118
 20
-3318.7028342674384
 10
-5646.6413606026335
 20
-3318.7458547055335
 42
-0.0269600260406304
 10
-5646.8946408486127
 20
-3318.9581779640394
 10
-5646.9612079849139
 20
-3319.008129378667
 42
-0.0178362839752263
 10
-5647.2011524745694
 20
-3319.1751473049189
 10
-5647.20839744557
 20
-3319.1798158171237
 42
-0.0174650732643971
 10
-5647.4447336430112
 20
-3319.320676782083
 42
-0.0169240130168537
 10
-5647.6901998888734
 20
-3319.4449690418624
 10
-5647.7361860444271
 20
-3319.4663309974276
 42
-0.0318883036834159
 10
-5648.0865369000485
 20
-3319.602669306938
 10
-5648.1549024352125
 20
-3319.6243699274137
 42
-0.0284435909897608
 10
-5648.530952561503
 20
-3319.7205873628882
 10
-5648.5661107219994
 20
-3319.7274809587161
 42
-0.0243909341022621
 10
-5648.8795541829204
 20
-3319.7732019897467
 10
-5648.9298349096907
 20
-3319.778047536648
 42
-0.0196639292901642
 10
-5649.1454304872186
 20
-3319.7902958221616
 10
-5649.1972545583876
 20
-3319.7911990828984
 42
-0.0100501510711049
 10
-5649.3096778400468
 20
-3319.790898684545
 10
-5649.3413377013148
 20
-3319.7901776126614
 42
-0.0019752031035089
 10
-5649.3904300380718
 20
-3319.7888654524504
 10
-5649.393190341284
 20
-3319.7887807606244
 42
0.0065378752094849
 10
-5649.4367669160483
 20
-3319.788013869409
 42
-0.0167974694626924
 10
-5649.4802977389836
 20
-3319.7863539708833
 10
-5649.4843770782427
 20
-3319.7860609599884
 42
-0.0081283276155069
 10
-5649.5359368759919
 20
-3319.7815139663489
 10
-5649.5476764498599
 20
-3319.7802860487718
 42
-0.0126703440144696
 10
-5649.622394745651
 20
-3319.7705512577008
 10
-5649.6451826133298
 20
-3319.7669930017851
 42
-0.0117852088428629
 10
-5649.7647215991583
 20
-3319.7454300066288
 10
-5649.820102050925
 20
-3319.7340864663934
 42
-0.0251774592287146
 10
-5650.0469460899285
 20
-3319.675588456962
 10
-5650.0916652797769
 20
-3319.6616216376274
 42
-0.0146525199873717
 10
-5650.2780582673231
 20
-3319.5973551104271
 42
-0.0166929435841226
 10
-5650.460035923451
 20
-3319.5215479773719
 10
-5650.4646925547231
 20
-3319.5194230767584
 42
-0.0191684358438584
 10
-5650.6498761859748
 20
-3319.4261869929664
 10
-5650.6532087717287
 20
-3319.4243457454149
 42
-0.0221181781793486
 10
-5650.8365190756358
 20
-3319.3122122470413
 10
-5650.8388688796394
 20
-3319.3106279490535
 42
-0.0254984685397447
 10
-5651.0151590300275
 20
-3319.1782167990814
 10
-5651.0376411777288
 20
-3319.1594644901452
 42
-0.029249264876543
 10
-5651.1624101165689
 20
-3319.0423716905043
 42
-0.0159048957539603
 10
-5651.2762501140014
 20
-3318.914351698927
 10
-5651.2775689045984
 20
-3318.9127700858853
 42
-0.034381337955718
 10
-5651.3802061662245
 20
-3318.7708987601168
 10
-5651.4116976975893
 20
-3318.7203953680164
 42
-0.0369117275678258
 10
-5651.4975901994831
 20
-3318.556918127073
 42
-0.019175137991526
 10
-5651.5647835850395
 20
-3318.3845135210699
 10
-5651.5665469087999
 20
-3318.3794201763922
 42
-0.0378178042216688
 10
-5651.6163416275858
 20
-3318.1904794003044
 10
-5651.6223369233194
 20
-3318.1579187820889
 42
-0.0184846046481472
 10
-5651.6430541226091
 20
-3318.0161659615692
 42
-0.0179866351291302
 10
-5651.6533871276824
 20
-3317.8732751484695
 10
-5651.6534435701278
 20
-3317.8717174618755
 42
-0.0085497186260424
 10
-5651.6548758512317
 20
-3317.7968442968659
 42
-0.0085497186260424
  0
ENDBLK
  5
5F
100
AcDbEntity
  8
template
390
0
100
AcDbBlockEnd
  0
BLOCK
  5
60
100
AcDbEntity
  8
notes
390
0
100
AcDbBlockBegin
  2
*D4
 70
               1
 10
0.0
 20
0.0
 30
0.0
  3
*D4
  1

  0
LINE
  5
61
100
AcDbEntity
  8
0
370
              -2
390
0
  6
Continuous
 62
               0
100
AcDbLine
 10
-662.41034169371505
 20
442.2315023134563
 30
0.0
 11
-662.41034169371505
 21
351.03150231345626
 31
0.0
  0
LINE
  5
62
100
AcDbEntity
  8
0
370
              -2
390
0
  6
Continuous
 62
               0
100
AcDbLine
 10
-272.41034169371505
 20
442.2315023134563
 30
0.0
 11
-272.41034169371505
 21
351.03150231345626
 31
0.0
  0
LINE
  5
63
100
AcDbEntity
  8
0
370
              -2
390
0
  6
Continuous
 62
               0
100
AcDbLine
 10
-662.41034169371505
 20
351.03150231345626
 30
0.0
 11
-272.41034169371505
 21
351.03150231345626
 31
0.0
  0
CIRCLE
  5
64
102
{ACAD_REACTORS
330
65
102
}
100
AcDbEntity
  8
0
370
              -2
390
0
  6
Continuous
 62
               0
100
AcDbCircle
 10
-662.41034169371505
 20
351.03150231345626
 30
0.0
 40
1.9998779296875
  0
HATCH
  5
65
100
AcDbEntity
  8
0
370
              -2
390
0
  6
Continuous
 62
               0
100
AcDbHatch
 10
0.0
 20
0.0
 30
0.0
210
0.0
220
0.0
230
1.0
  2
SOLID
 70
               1
 71
               1
 91
        1
 92
        1
 93
        1
 72
               2
 10
-662.41034169371505
 20
351.03150231345626
 40
1.9998779296875
 50
0.0
 51
360.0
 73
               0
 97
        1
330
64
 75
               0
 76
               1
 98
        1
 10
0.0
 20
0.0
  0
CIRCLE
  5
66
102
{ACAD_REACTORS
330
67
102
}
100
AcDbEntity
  8
0
370
              -2
390
0
  6
Continuous
 62
               0
100
AcDbCircle
 10
-272.41034169371505
 20
351.03150231345626
 30
0.0
 40
1.9998779296875
  0
HATCH
  5
67
100
AcDbEntity
  8
0
370
              -2
390
0
  6
Continuous
 62
               0
100
AcDbHatch
 10
0.0
 20
0.0
 30
0.0
210
0.0
220
0.0
230
1.0
  2
SOLID
 70
               1
 71
               1
 91
        1
 92
        1
 93
        1
 72
               2
 10
-272.41034169371505
 20
351.03150231345626
 40
1.9998779296875
 50
0.0
 51
360.0
 73
               0
 97
        1
330
66
 75
               0
 76
               1
 98
        1
 10
0.0
 20
0.0
  0
MTEXT
  5
68
100
AcDbEntity
  8
0
390
0
 62
               0
100
AcDbMText
 10
-491.22284337589099
 20
384.90911950095619
 30
0.0
 40
24.432617187500004
 41
0.0
 71
               1
 72
               1
  1
390
  7
ＭＳ ゴシック
 73
               1
 44
0.7828267384257843
  0
POINT
  5
69
100
AcDbEntity
  8
Defpoints
370
               0
390
0
 62
               0
100
AcDbPoint
 10
-272.41034169371505
 20
467.2315023134563
 30
0.0
  0
POINT
  5
6A
100
AcDbEntity
  8
Defpoints
370
               0
390
0
 62
               0
100
AcDbPoint
 10
-662.41034169371505
 20
467.2315023134563
 30
0.0
  0
POINT
  5
6B
100
AcDbEntity
  8
Defpoints
370
               0
390
0
 62
               0
100
AcDbPoint
 10
-662.41034169371505
 20
351.03150231345626
 30
0.0
  0
ENDBLK
  5
6C
100
AcDbEntity
  8
notes
390
0
100
AcDbBlockEnd
  0
BLOCK
  5
6D
100
AcDbEntity
  8
notes
390
0
100
AcDbBlockBegin
  2
*D5
 70
               1
 10
0.0
 20
0.0
 30
0.0
  3
*D5
  1

  0
LINE
  5
6E
100
AcDbEntity
  8
0
370
              -2
390
0
  6
Continuous
 62
               0
100
AcDbLine
 10
260.78432508760852
 20
774.99999974351317
 30
0.0
 11
260.78432508760852
 21
845.30032945454946
 31
0.0
  0
LINE
  5
6F
100
AcDbEntity
  8
0
370
              -2
390
0
  6
Continuous
 62
               0
100
AcDbLine
 10
650.78432508760852
 20
774.99999999999977
 30
0.0
 11
650.78432508760852
 21
845.30032945454946
 31
0.0
  0
LINE
  5
70
100
AcDbEntity
  8
0
370
              -2
390
0
  6
Continuous
 62
               0
100
AcDbLine
 10
260.78432508760852
 20
845.30032945454946
 30
0.0
 11
650.78432508760852
 21
845.30032945454946
 31
0.0
  0
CIRCLE
  5
71
102
{ACAD_REACTORS
330
72
102
}
100
AcDbEntity
  8
0
370
              -2
390
0
  6
Continuous
 62
               0
100
AcDbCircle
 10
260.78432508760852
 20
845.30032945454946
 30
0.0
 40
1.9998779296875
  0
HATCH
  5
72
100
AcDbEntity
  8
0
370
              -2
390
0
  6
Continuous
 62
               0
100
AcDbHatch
 10
0.0
 20
0.0
 30
0.0
210
0.0
220
0.0
230
1.0
  2
SOLID
 70
               1
 71
               1
 91
        1
 92
        1
 93
        1
 72
               2
 10
260.78432508760852
 20
845.30032945454946
 40
1.9998779296875
 50
0.0
 51
360.0
 73
               0
 97
        1
330
71
 75
               0
 76
               1
 98
        1
 10
0.0
 20
0.0
  0
CIRCLE
  5
73
102
{ACAD_REACTORS
330
74
102
}
100
AcDbEntity
  8
0
370
              -2
390
0
  6
Continuous
 62
               0
100
AcDbCircle
 10
650.78432508760852
 20
845.30032945454946
 30
0.0
 40
1.9998779296875
  0
HATCH
  5
74
100
AcDbEntity
  8
0
370
              -2
390
0
  6
Continuous
 62
               0
100
AcDbHatch
 10
0.0
 20
0.0
 30
0.0
210
0.0
220
0.0
230
1.0
  2
SOLID
 70
               1
 71
               1
 91
        1
 92
        1
 93
        1
 72
               2
 10
650.78432508760852
 20
845.30032945454946
 40
1.9998779296875
 50
0.0
 51
360.0
 73
               0
 97
        1
330
73
 75
               0
 76
               1
 98
        1
 10
0.0
 20
0.0
  0
MTEXT
  5
75
100
AcDbEntity
  8
0
390
0
 62
               0
100
AcDbMText
 10
438.40990340196004
 20
879.17794664204939
 30
0.0
 40
24.432617187500004
 41
0.0
 71
               1
 72
               1
  1
390
  7
ＭＳ ゴシック
 73
               1
 44
0.7828267384257843
  0
POINT
  5
76
100
AcDbEntity
  8
Defpoints
370
               0
390
0
 62
               0
100
AcDbPoint
 10
650.78432508760852
 20
749.99999999999977
 30
0.0
  0
POINT
  5
77
100
AcDbEntity
  8
Defpoints
370
               0
390
0
 62
               0
100
AcDbPoint
 10
260.78432508760852
 20
749.99999974351317
 30
0.0
  0
POINT
  5
78
100
AcDbEntity
  8
Defpoints
370
               0
390
0
 62
               0
100
AcDbPoint
 10
260.78432508760852
 20
845.30032945454946
 30
0.0
  0
ENDBLK
  5
79
100
AcDbEntity
  8
notes
390
0
100
AcDbBlockEnd
  0
BLOCK
  5
7A
100
AcDbEntity
  8
notes
390
0
100
AcDbBlockBegin
  2
*D6
 70
               1
 10
0.0
 20
0.0
 30
0.0
  3
*D6
  1

  0
LINE
  5
7B
100
AcDbEntity
  8
0
370
              -2
390
0
  6
Continuous
 62
               0
100
AcDbLine
 10
-677.24229193425435
 20
771.99999950462939
 30
0.0
 11
-677.24229193425435
 21
849.99999950462939
 31
0.0
  0
LINE
  5
7C
100
AcDbEntity
  8
0
370
              -2
390
0
  6
Continuous
 62
               0
100
AcDbLine
 10
-257.24229042800289
 20
771.99999980880307
 30
0.0
 11
-257.24229042800289
 21
849.99999950462939
 31
0.0
  0
LINE
  5
7D
100
AcDbEntity
  8
0
370
              -2
390
0
  6
Continuous
 62
               0
100
AcDbLine
 10
-677.24229193425435
 20
849.99999950462939
 30
0.0
 11
-257.24229042800289
 21
849.99999950462939
 31
0.0
  0
CIRCLE
  5
7E
102
{ACAD_REACTORS
330
7F
102
}
100
AcDbEntity
  8
0
370
              -2
390
0
  6
Continuous
 62
               0
100
AcDbCircle
 10
-677.24229193425435
 20
849.99999950462939
 30
0.0
 40
1.9998779296875
  0
HATCH
  5
7F
100
AcDbEntity
  8
0
370
              -2
390
0
  6
Continuous
 62
               0
100
AcDbHatch
 10
0.0
 20
0.0
 30
0.0
210
0.0
220
0.0
230
1.0
  2
SOLID
 70
               1
 71
               1
 91
        1
 92
        1
 93
        1
 72
               2
 10
-677.24229193425435
 20
849.99999950462939
 40
1.9998779296875
 50
0.0
 51
360.0
 73
               0
 97
        1
330
7E
 75
               0
 76
               1
 98
        1
 10
0.0
 20
0.0
  0
CIRCLE
  5
80
102
{ACAD_REACTORS
330
81
102
}
100
AcDbEntity
  8
0
370
              -2
390
0
  6
Continuous
 62
               0
100
AcDbCircle
 10
-257.24229042800289
 20
849.99999950462939
 30
0.0
 40
1.9998779296875
  0
HATCH
  5
81
100
AcDbEntity
  8
0
370
              -2
390
0
  6
Continuous
 62
               0
100
AcDbHatch
 10
0.0
 20
0.0
 30
0.0
210
0.0
220
0.0
230
1.0
  2
SOLID
 70
               1
 71
               1
 91
        1
 92
        1
 93
        1
 72
               2
 10
-257.24229042800289
 20
849.99999950462939
 40
1.9998779296875
 50
0.0
 51
360.0
 73
               0
 97
        1
330
80
 75
               0
 76
               1
 98
        1
 10
0.0
 20
0.0
  0
MTEXT
  5
82
100
AcDbEntity
  8
0
390
0
 62
               0
100
AcDbMText
 10
-491.05479286330501
 20
883.87761669212932
 30
0.0
 40
24.432617187500004
 41
0.0
 71
               1
 72
               1
  1
420
  7
ＭＳ ゴシック
 73
               1
 44
0.7828267384257843
  0
POINT
  5
83
100
AcDbEntity
  8
Defpoints
370
               0
390
0
 62
               0
100
AcDbPoint
 10
-257.24229042800289
 20
746.99999980880307
 30
0.0
  0
POINT
  5
84
100
AcDbEntity
  8
Defpoints
370
               0
390
0
 62
               0
100
AcDbPoint
 10
-677.24229193425435
 20
746.99999950462939
 30
0.0
  0
POINT
  5
85
100
AcDbEntity
  8
Defpoints
370
               0
390
0
 62
               0
100
AcDbPoint
 10
-677.24229193425435
 20
849.99999950462939
 30
0.0
  0
ENDBLK
  5
86
100
AcDbEntity
  8
notes
390
0
100
AcDbBlockEnd
  0
BLOCK
  5
87
100
AcDbEntity
  8
notes
390
0
100
AcDbBlockBegin
  2
*D7
 70
               1
 10
0.0
 20
0.0
 30
0.0
  3
*D7
  1

  0
LINE
  5
88
100
AcDbEntity
  8
0
370
              -2
390
0
  6
Continuous
 62
               0
100
AcDbLine
 10
675.7843250876067
 20
459.99999999999977
 30
0.0
 11
751.98288789297203
 21
459.99999999999977
 31
0.0
  0
LINE
  5
89
100
AcDbEntity
  8
0
370
              -2
390
0
  6
Continuous
 62
               0
100
AcDbLine
 10
675.78432508760852
 20
749.99999999999977
 30
0.0
 11
751.98288789297203
 21
749.99999999999977
 31
0.0
  0
LINE
  5
8A
100
AcDbEntity
  8
0
370
              -2
390
0
  6
Continuous
 62
               0
100
AcDbLine
 10
751.98288789297203
 20
459.99999999999977
 30
0.0
 11
751.98288789297203
 21
749.99999999999977
 31
0.0
  0
CIRCLE
  5
8B
102
{ACAD_REACTORS
330
8C
102
}
100
AcDbEntity
  8
0
370
              -2
390
0
  6
Continuous
 62
               0
100
AcDbCircle
 10
751.98288789297203
 20
459.99999999999977
 30
0.0
 40
1.9998779296875
  0
HATCH
  5
8C
100
AcDbEntity
  8
0
370
              -2
390
0
  6
Continuous
 62
               0
100
AcDbHatch
 10
0.0
 20
0.0
 30
0.0
210
0.0
220
0.0
230
1.0
  2
SOLID
 70
               1
 71
               1
 91
        1
 92
        1
 93
        1
 72
               2
 10
751.98288789297203
 20
459.99999999999977
 40
1.9998779296875
 50
0.0
 51
360.0
 73
               0
 97
        1
330
8B
 75
               0
 76
               1
 98
        1
 10
0.0
 20
0.0
  0
CIRCLE
  5
8D
102
{ACAD_REACTORS
330
8E
102
}
100
AcDbEntity
  8
0
370
              -2
390
0
  6
Continuous
 62
               0
100
AcDbCircle
 10
751.98288789297203
 20
749.99999999999977
 30
0.0
 40
1.9998779296875
  0
HATCH
  5
8E
100
AcDbEntity
  8
0
370
              -2
390
0
  6
Continuous
 62
               0
100
AcDbHatch
 10
0.0
 20
0.0
 30
0.0
210
0.0
220
0.0
230
1.0
  2
SOLID
 70
               1
 71
               1
 91
        1
 92
        1
 93
        1
 72
               2
 10
751.98288789297203
 20
749.99999999999977
 40
1.9998779296875
 50
0.0
 51
360.0
 73
               0
 97
        1
330
8D
 75
               0
 76
               1
 98
        1
 10
0.0
 20
0.0
  0
MTEXT
  5
8F
100
AcDbEntity
  8
0
390
0
 62
               0
100
AcDbMText
 10
718.10527070547232
 20
575.09548379072135
 30
0.0
 40
24.432617187500004
 41
0.0
 71
               1
 72
               1
  1
290
  7
ＭＳ ゴシック
 11
0.0
 21
1.0
 31
0.0
 73
               1
 44
0.7828267384257843
  0
POINT
  5
90
100
AcDbEntity
  8
Defpoints
370
               0
390
0
 62
               0
100
AcDbPoint
 10
650.78432508760852
 20
749.99999999999977
 30
0.0
  0
POINT
  5
91
100
AcDbEntity
  8
Defpoints
370
               0
390
0
 62
               0
100
AcDbPoint
 10
650.7843250876067
 20
459.99999999999977
 30
0.0
  0
POINT
  5
92
100
AcDbEntity
  8
Defpoints
370
               0
390
0
 62
               0
100
AcDbPoint
 10
751.98288789297203
 20
459.99999999999977
 30
0.0
  0
ENDBLK
  5
93
100
AcDbEntity
  8
notes
390
0
100
AcDbBlockEnd
  0
BLOCK
  5
94
100
AcDbEntity
  8
notes
390
0
100
AcDbBlockBegin
  2
*D8
 70
               1
 10
0.0
 20
0.0
 30
0.0
  3
*D8
  1

  0
LINE
  5
95
100
AcDbEntity
  8
0
370
              -2
390
0
  6
Continuous
 62
               0
100
AcDbLine
 10
-235.24229042891966
 20
749.99999980880307
 30
0.0
 11
-157.24229042891966
 21
749.99999980880307
 31
0.0
  0
LINE
  5
96
100
AcDbEntity
  8
0
370
              -2
390
0
  6
Continuous
 62
               0
100
AcDbLine
 10
-284.90221182566984
 20
429.99999965680422
 30
0.0
 11
-157.24229042891966
 21
429.99999965680422
 31
0.0
  0
LINE
  5
97
100
AcDbEntity
  8
0
370
              -2
390
0
  6
Continuous
 62
               0
100
AcDbLine
 10
-157.24229042891966
 20
749.99999980880307
 30
0.0
 11
-157.24229042891966
 21
429.99999965680422
 31
0.0
  0
CIRCLE
  5
98
102
{ACAD_REACTORS
330
99
102
}
100
AcDbEntity
  8
0
370
              -2
390
0
  6
Continuous
 62
               0
100
AcDbCircle
 10
-157.24229042891966
 20
749.99999980880307
 30
0.0
 40
1.9998779296875
  0
HATCH
  5
99
100
AcDbEntity
  8
0
370
              -2
390
0
  6
Continuous
 62
               0
100
AcDbHatch
 10
0.0
 20
0.0
 30
0.0
210
0.0
220
0.0
230
1.0
  2
SOLID
 70
               1
 71
               1
 91
        1
 92
        1
 93
        1
 72
               2
 10
-157.24229042891966
 20
749.99999980880307
 40
1.9998779296875
 50
0.0
 51
360.0
 73
               0
 97
        1
330
98
 75
               0
 76
               1
 98
        1
 10
0.0
 20
0.0
  0
CIRCLE
  5
9A
102
{ACAD_REACTORS
330
9B
102
}
100
AcDbEntity
  8
0
370
              -2
390
0
  6
Continuous
 62
               0
100
AcDbCircle
 10
-157.24229042891966
 20
429.99999965680422
 30
0.0
 40
1.9998779296875
  0
HATCH
  5
9B
100
AcDbEntity
  8
0
370
              -2
390
0
  6
Continuous
 62
               0
100
AcDbHatch
 10
0.0
 20
0.0
 30
0.0
210
0.0
220
0.0
230
1.0
  2
SOLID
 70
               1
 71
               1
 91
        1
 92
        1
 93
        1
 72
               2
 10
-157.24229042891966
 20
429.99999965680422
 40
1.9998779296875
 50
0.0
 51
360.0
 73
               0
 97
        1
330
9A
 75
               0
 76
               1
 98
        1
 10
0.0
 20
0.0
  0
MTEXT
  5
9C
100
AcDbEntity
  8
0
390
0
 62
               0
100
AcDbMText
 10
-191.11990761641937
 20
566.18749805062816
 30
0.0
 40
24.432617187500004
 41
0.0
 71
               1
 72
               1
  1
320
  7
ＭＳ ゴシック
 11
0.0
 21
1.0
 31
0.0
 73
               1
 44
0.7828267384257843
  0
POINT
  5
9D
100
AcDbEntity
  8
Defpoints
370
               0
390
0
 62
               0
100
AcDbPoint
 10
-309.90221182566984
 20
429.99999965680422
 30
0.0
  0
POINT
  5
9E
100
AcDbEntity
  8
Defpoints
370
               0
390
0
 62
               0
100
AcDbPoint
 10
-260.24229042891966
 20
749.99999980880307
 30
0.0
  0
POINT
  5
9F
100
AcDbEntity
  8
Defpoints
370
               0
390
0
 62
               0
100
AcDbPoint
 10
-157.24229042891966
 20
749.99999980880307
 30
0.0
  0
ENDBLK
  5
A0
100
AcDbEntity
  8
notes
390
0
100
AcDbBlockEnd
  0
BLOCK
  5
A1
100
AcDbEntity
  8
notes
390
0
100
AcDbBlockBegin
  2
*D9
 70
               1
 10
0.0
 20
0.0
 30
0.0
  3
*D9
  1

  0
LINE
  5
A2
100
AcDbEntity
  8
0
370
              -2
390
0
  6
Continuous
 62
               0
100
AcDbLine
 10
-542.26553736393453
 20
-262.32768425731706
 30
0.0
 11
-542.26553736393453
 21
-167.32768425731706
 31
0.0
  0
LINE
  5
A3
100
AcDbEntity
  8
0
370
              -2
390
0
  6
Continuous
 62
               0
100
AcDbLine
 10
-392.26553736393453
 20
-262.32768425731706
 30
0.0
 11
-392.26553736393453
 21
-167.32768425731706
 31
0.0
  0
LINE
  5
A4
100
AcDbEntity
  8
0
370
              -2
390
0
  6
Continuous
 62
               0
100
AcDbLine
 10
-542.26553736393453
 20
-167.32768425731706
 30
0.0
 11
-392.26553736393453
 21
-167.32768425731706
 31
0.0
  0
CIRCLE
  5
A5
102
{ACAD_REACTORS
330
A6
102
}
100
AcDbEntity
  8
0
370
              -2
390
0
  6
Continuous
 62
               0
100
AcDbCircle
 10
-542.26553736393453
 20
-167.32768425731706
 30
0.0
 40
1.9998779296875
  0
HATCH
  5
A6
100
AcDbEntity
  8
0
370
              -2
390
0
  6
Continuous
 62
               0
100
AcDbHatch
 10
0.0
 20
0.0
 30
0.0
210
0.0
220
0.0
230
1.0
  2
SOLID
 70
               1
 71
               1
 91
        1
 92
        1
 93
        1
 72
               2
 10
-542.26553736393453
 20
-167.32768425731706
 40
1.9998779296875
 50
0.0
 51
360.0
 73
               0
 97
        1
330
A5
 75
               0
 76
               1
 98
        1
 10
0.0
 20
0.0
  0
CIRCLE
  5
A7
102
{ACAD_REACTORS
330
A8
102
}
100
AcDbEntity
  8
0
370
              -2
390
0
  6
Continuous
 62
               0
100
AcDbCircle
 10
-392.26553736393453
 20
-167.32768425731706
 30
0.0
 40
1.9998779296875
  0
HATCH
  5
A8
100
AcDbEntity
  8
0
370
              -2
390
0
  6
Continuous
 62
               0
100
AcDbHatch
 10
0.0
 20
0.0
 30
0.0
210
0.0
220
0.0
230
1.0
  2
SOLID
 70
               1
 71
               1
 91
        1
 92
        1
 93
        1
 72
               2
 10
-392.26553736393453
 20
-167.32768425731706
 40
1.9998779296875
 50
0.0
 51
360.0
 73
               0
 97
        1
330
A7
 75
               0
 76
               1
 98
        1
 10
0.0
 20
0.0
  0
MTEXT
  5
A9
100
AcDbEntity
  8
0
390
0
 62
               0
100
AcDbMText
 10
-491.07803904611046
 20
-133.4500670698169
 30
0.0
 40
24.432617187500004
 41
0.0
 71
               1
 72
               1
  1
150
  7
ＭＳ ゴシック
 73
               1
 44
0.7828267384257843
  0
POINT
  5
AA
100
AcDbEntity
  8
Defpoints
370
               0
390
0
 62
               0
100
AcDbPoint
 10
-392.26553736393453
 20
-287.32768425731706
 30
0.0
  0
POINT
  5
AB
100
AcDbEntity
  8
Defpoints
370
               0
390
0
 62
               0
100
AcDbPoint
 10
-542.26553736393453
 20
-287.32768425731706
 30
0.0
  0
POINT
  5
AC
100
AcDbEntity
  8
Defpoints
370
               0
390
0
 62
               0
100
AcDbPoint
 10
-542.26553736393453
 20
-167.32768425731706
 30
0.0
  0
ENDBLK
  5
AD
100
AcDbEntity
  8
notes
390
0
100
AcDbBlockEnd
  0
BLOCK
  5
AE
100
AcDbEntity
  8
notes
390
0
100
AcDbBlockBegin
  2
*D10
 70
               1
 10
0.0
 20
0.0
 30
0.0
  3
*D10
  1

  0
LINE
  5
AF
100
AcDbEntity
  8
0
370
              -2
390
0
  6
Continuous
 62
               0
100
AcDbLine
 10
661.76637013830077
 20
-245.35989508960097
 30
0.0
 11
661.76637013830077
 21
-167.35989508960097
 31
0.0
  0
LINE
  5
B0
100
AcDbEntity
  8
0
370
              -2
390
0
  6
Continuous
 62
               0
100
AcDbLine
 10
601.77966225452838
 20
-252.3461780923933
 30
0.0
 11
601.77966225452838
 21
-167.35989508960097
 31
0.0
  0
LINE
  5
B1
100
AcDbEntity
  8
0
370
              -2
390
0
  6
Continuous
 62
               0
100
AcDbLine
 10
661.76637013830077
 20
-167.35989508960097
 30
0.0
 11
601.77966225452838
 21
-167.35989508960097
 31
0.0
  0
CIRCLE
  5
B2
102
{ACAD_REACTORS
330
B3
102
}
100
AcDbEntity
  8
0
370
              -2
390
0
  6
Continuous
 62
               0
100
AcDbCircle
 10
661.76637013830077
 20
-167.35989508960097
 30
0.0
 40
1.9998779296875
  0
HATCH
  5
B3
100
AcDbEntity
  8
0
370
              -2
390
0
  6
Continuous
 62
               0
100
AcDbHatch
 10
0.0
 20
0.0
 30
0.0
210
0.0
220
0.0
230
1.0
  2
SOLID
 70
               1
 71
               1
 91
        1
 92
        1
 93
        1
 72
               2
 10
661.76637013830077
 20
-167.35989508960097
 40
1.9998779296875
 50
0.0
 51
360.0
 73
               0
 97
        1
330
B2
 75
               0
 76
               1
 98
        1
 10
0.0
 20
0.0
  0
CIRCLE
  5
B4
102
{ACAD_REACTORS
330
B5
102
}
100
AcDbEntity
  8
0
370
              -2
390
0
  6
Continuous
 62
               0
100
AcDbCircle
 10
601.77966225452838
 20
-167.35989508960097
 30
0.0
 40
1.9998779296875
  0
HATCH
  5
B5
100
AcDbEntity
  8
0
370
              -2
390
0
  6
Continuous
 62
               0
100
AcDbHatch
 10
0.0
 20
0.0
 30
0.0
210
0.0
220
0.0
230
1.0
  2
SOLID
 70
               1
 71
               1
 91
        1
 92
        1
 93
        1
 72
               2
 10
601.77966225452838
 20
-167.35989508960097
 40
1.9998779296875
 50
0.0
 51
360.0
 73
               0
 97
        1
330
B4
 75
               0
 76
               1
 98
        1
 10
0.0
 20
0.0
  0
MTEXT
  5
B6
100
AcDbEntity
  8
0
390
0
 62
               0
100
AcDbMText
 10
615.89801619641457
 20
-133.4822779021008
 30
0.0
 40
24.432617187500004
 41
0.0
 71
               1
 72
               1
  1
60
  7
ＭＳ ゴシック
 73
               1
 44
0.7828267384257843
  0
POINT
  5
B7
100
AcDbEntity
  8
Defpoints
370
               0
390
0
 62
               0
100
AcDbPoint
 10
601.77966225452838
 20
-277.3461780923933
 30
0.0
  0
POINT
  5
B8
100
AcDbEntity
  8
Defpoints
370
               0
390
0
 62
               0
100
AcDbPoint
 10
661.76637013830077
 20
-270.35989508960097
 30
0.0
  0
POINT
  5
B9
100
AcDbEntity
  8
Defpoints
370
               0
390
0
 62
               0
100
AcDbPoint
 10
661.76637013830077
 20
-167.35989508960097
 30
0.0
  0
ENDBLK
  5
BA
100
AcDbEntity
  8
notes
390
0
100
AcDbBlockEnd
  0
BLOCK
  5
BB
100
AcDbEntity
  8
notes
390
0
100
AcDbBlockBegin
  2
*D11
 70
               1
 10
0.0
 20
0.0
 30
0.0
  3
*D11
  1

  0
LINE
  5
BC
100
AcDbEntity
  8
0
370
              -2
390
0
  6
Continuous
 62
               0
100
AcDbLine
 10
477.20850447347129
 20
-372.35673065444939
 30
0.0
 11
474.56523512792046
 21
-372.35673065444939
 31
0.0
  0
LINE
  5
BD
100
AcDbEntity
  8
0
370
              -2
390
0
  6
Continuous
 62
               0
100
AcDbLine
 10
477.21404470151629
 20
-267.35673065444939
 30
0.0
 11
474.56523512792046
 21
-267.35673065444939
 31
0.0
  0
LINE
  5
BE
100
AcDbEntity
  8
0
370
              -2
390
0
  6
Continuous
 62
               0
100
AcDbLine
 10
474.56523512792046
 20
-267.35673065444939
 30
0.0
 11
474.56523512792046
 21
-112.2766270393015
 31
0.0
  0
LINE
  5
BF
100
AcDbEntity
  8
0
370
              -2
390
0
  6
Continuous
 62
               0
100
AcDbLine
 10
474.56523512792046
 20
-372.35673065444939
 30
0.0
 11
474.56523512792046
 21
-267.35673065444939
 31
0.0
  0
CIRCLE
  5
C0
102
{ACAD_REACTORS
330
C1
102
}
100
AcDbEntity
  8
0
370
              -2
390
0
  6
Continuous
 62
               0
100
AcDbCircle
 10
474.56523512792046
 20
-372.35673065444939
 30
0.0
 40
1.9998779296875
  0
HATCH
  5
C1
100
AcDbEntity
  8
0
370
              -2
390
0
  6
Continuous
 62
               0
100
AcDbHatch
 10
0.0
 20
0.0
 30
0.0
210
0.0
220
0.0
230
1.0
  2
SOLID
 70
               1
 71
               1
 91
        1
 92
        1
 93
        1
 72
               2
 10
474.56523512792046
 20
-372.35673065444939
 40
1.9998779296875
 50
0.0
 51
360.0
 73
               0
 97
        1
330
C0
 75
               0
 76
               1
 98
        1
 10
0.0
 20
0.0
  0
CIRCLE
  5
C2
102
{ACAD_REACTORS
330
C3
102
}
100
AcDbEntity
  8
0
370
              -2
390
0
  6
Continuous
 62
               0
100
AcDbCircle
 10
474.56523512792046
 20
-267.35673065444939
 30
0.0
 40
1.9998779296875
  0
HATCH
  5
C3
100
AcDbEntity
  8
0
370
              -2
390
0
  6
Continuous
 62
               0
100
AcDbHatch
 10
0.0
 20
0.0
 30
0.0
210
0.0
220
0.0
230
1.0
  2
SOLID
 70
               1
 71
               1
 91
        1
 92
        1
 93
        1
 72
               2
 10
474.56523512792046
 20
-267.35673065444939
 40
1.9998779296875
 50
0.0
 51
360.0
 73
               0
 97
        1
330
C2
 75
               0
 76
               1
 98
        1
 10
0.0
 20
0.0
  0
MTEXT
  5
C4
100
AcDbEntity
  8
0
390
0
 62
               0
100
AcDbMText
 10
440.68761794042075
 20
-255.1516270393015
 30
0.0
 40
24.432617187500004
 41
0.0
 71
               1
 72
               1
  1
105(深さ)
  7
ＭＳ ゴシック
 11
0.0
 21
1.0
 31
0.0
 73
               1
 44
0.7828267384257843
  0
POINT
  5
C5
100
AcDbEntity
  8
Defpoints
370
               0
390
0
 62
               0
100
AcDbPoint
 10
452.21404470151629
 20
-267.35673065444939
 30
0.0
  0
POINT
  5
C6
100
AcDbEntity
  8
Defpoints
370
               0
390
0
 62
               0
100
AcDbPoint
 10
452.20850447347129
 20
-372.35673065444939
 30
0.0
  0
POINT
  5
C7
100
AcDbEntity
  8
Defpoints
370
               0
390
0
 62
               0
100
AcDbPoint
 10
474.56523512792046
 20
-372.35673065444939
 30
0.0
  0
ENDBLK
  5
C8
100
AcDbEntity
  8
notes
390
0
100
AcDbBlockEnd
  0
BLOCK
  5
C9
100
AcDbEntity
  8
notes
390
0
100
AcDbBlockBegin
  2
*D12
 70
               1
 10
0.0
 20
0.0
 30
0.0
  3
*D12
  1

  0
LINE
  5
CA
100
AcDbEntity
  8
0
370
              -2
390
0
  6
Continuous
 62
               0
100
AcDbLine
 10
-587.25037861877991
 20
-307.31252551216198
 30
0.0
 11
-776.85037861878027
 21
-307.31252551216198
 31
0.0
  0
LINE
  5
CB
100
AcDbEntity
  8
0
370
              -2
390
0
  6
Continuous
 62
               0
100
AcDbLine
 10
-695.00548351456837
 20
-267.32006050271116
 30
0.0
 11
-776.85037861878027
 21
-267.32006050271116
 31
0.0
  0
LINE
  5
CC
100
AcDbEntity
  8
0
370
              -2
390
0
  6
Continuous
 62
               0
100
AcDbLine
 10
-776.85037861878027
 20
-307.31252551216198
 30
0.0
 11
-776.85037861878027
 21
-267.32006050271116
 31
0.0
  0
CIRCLE
  5
CD
102
{ACAD_REACTORS
330
CE
102
}
100
AcDbEntity
  8
0
370
              -2
390
0
  6
Continuous
 62
               0
100
AcDbCircle
 10
-776.85037861878027
 20
-307.31252551216198
 30
0.0
 40
1.9998779296875
  0
HATCH
  5
CE
100
AcDbEntity
  8
0
370
              -2
390
0
  6
Continuous
 62
               0
100
AcDbHatch
 10
0.0
 20
0.0
 30
0.0
210
0.0
220
0.0
230
1.0
  2
SOLID
 70
               1
 71
               1
 91
        1
 92
        1
 93
        1
 72
               2
 10
-776.85037861878027
 20
-307.31252551216198
 40
1.9998779296875
 50
0.0
 51
360.0
 73
               0
 97
        1
330
CD
 75
               0
 76
               1
 98
        1
 10
0.0
 20
0.0
  0
CIRCLE
  5
CF
102
{ACAD_REACTORS
330
D0
102
}
100
AcDbEntity
  8
0
370
              -2
390
0
  6
Continuous
 62
               0
100
AcDbCircle
 10
-776.85037861878027
 20
-267.32006050271116
 30
0.0
 40
1.9998779296875
  0
HATCH
  5
D0
100
AcDbEntity
  8
0
370
              -2
390
0
  6
Continuous
 62
               0
100
AcDbHatch
 10
0.0
 20
0.0
 30
0.0
210
0.0
220
0.0
230
1.0
  2
SOLID
 70
               1
 71
               1
 91
        1
 92
        1
 93
        1
 72
               2
 10
-776.85037861878027
 20
-267.32006050271116
 40
1.9998779296875
 50
0.0
 51
360.0
 73
               0
 97
        1
330
CF
 75
               0
 76
               1
 98
        1
 10
0.0
 20
0.0
  0
MTEXT
  5
D1
100
AcDbEntity
  8
0
390
0
 62
               0
100
AcDbMText
 10
-810.72799580627998
 20
-303.19129300743657
 30
0.0
 40
24.432617187500004
 41
0.0
 71
               1
 72
               1
  1
40
  7
ＭＳ ゴシック
 11
0.0
 21
1.0
 31
0.0
 73
               1
 44
0.7828267384257843
  0
POINT
  5
D2
100
AcDbEntity
  8
Defpoints
370
               0
390
0
 62
               0
100
AcDbPoint
 10
-670.00548351456837
 20
-267.32006050271116
 30
0.0
  0
POINT
  5
D3
100
AcDbEntity
  8
Defpoints
370
               0
390
0
 62
               0
100
AcDbPoint
 10
-562.25037861877991
 20
-307.31252551216198
 30
0.0
  0
POINT
  5
D4
100
AcDbEntity
  8
Defpoints
370
               0
390
0
 62
               0
100
AcDbPoint
 10
-776.85037861878027
 20
-307.31252551216198
 30
0.0
  0
ENDBLK
  5
D5
100
AcDbEntity
  8
notes
390
0
100
AcDbBlockEnd
  0
BLOCK
  5
D6
100
AcDbEntity
  8
notes
390
0
100
AcDbBlockBegin
  2
*D13
 70
               1
 10
0.0
 20
0.0
 30
0.0
  3
*D13
  1

  0
LINE
  5
D7
100
AcDbEntity
  8
0
370
              -2
390
0
  6
Continuous
 62
               0
100
AcDbLine
 10
-239.4573292107525
 20
-267.32006050271116
 30
0.0
 11
-176.33064044295043
 21
-267.32006050271116
 31
0.0
  0
LINE
  5
D8
100
AcDbEntity
  8
0
370
              -2
390
0
  6
Continuous
 62
               0
100
AcDbLine
 10
-408.48040187033439
 20
-427.32006050271161
 30
0.0
 11
-176.33064044295043
 21
-427.32006050271161
 31
0.0
  0
LINE
  5
D9
100
AcDbEntity
  8
0
370
              -2
390
0
  6
Continuous
 62
               0
100
AcDbLine
 10
-176.33064044295043
 20
-267.32006050271116
 30
0.0
 11
-176.33064044295043
 21
-427.32006050271161
 31
0.0
  0
CIRCLE
  5
DA
102
{ACAD_REACTORS
330
DB
102
}
100
AcDbEntity
  8
0
370
              -2
390
0
  6
Continuous
 62
               0
100
AcDbCircle
 10
-176.33064044295043
 20
-267.32006050271116
 30
0.0
 40
1.9998779296875
  0
HATCH
  5
DB
100
AcDbEntity
  8
0
370
              -2
390
0
  6
Continuous
 62
               0
100
AcDbHatch
 10
0.0
 20
0.0
 30
0.0
210
0.0
220
0.0
230
1.0
  2
SOLID
 70
               1
 71
               1
 91
        1
 92
        1
 93
        1
 72
               2
 10
-176.33064044295043
 20
-267.32006050271116
 40
1.9998779296875
 50
0.0
 51
360.0
 73
               0
 97
        1
330
DA
 75
               0
 76
               1
 98
        1
 10
0.0
 20
0.0
  0
CIRCLE
  5
DC
102
{ACAD_REACTORS
330
DD
102
}
100
AcDbEntity
  8
0
370
              -2
390
0
  6
Continuous
 62
               0
100
AcDbCircle
 10
-176.33064044295043
 20
-427.32006050271161
 30
0.0
 40
1.9998779296875
  0
HATCH
  5
DD
100
AcDbEntity
  8
0
370
              -2
390
0
  6
Continuous
 62
               0
100
AcDbHatch
 10
0.0
 20
0.0
 30
0.0
210
0.0
220
0.0
230
1.0
  2
SOLID
 70
               1
 71
               1
 91
        1
 92
        1
 93
        1
 72
               2
 10
-176.33064044295043
 20
-427.32006050271161
 40
1.9998779296875
 50
0.0
 51
360.0
 73
               0
 97
        1
330
DC
 75
               0
 76
               1
 98
        1
 10
0.0
 20
0.0
  0
MTEXT
  5
DE
100
AcDbEntity
  8
0
390
0
 62
               0
100
AcDbMText
 10
-210.20825763045013
 20
-371.13256218488709
 30
0.0
 40
24.432617187500004
 41
0.0
 71
               1
 72
               1
  1
160
  7
ＭＳ ゴシック
 11
0.0
 21
1.0
 31
0.0
 73
               1
 44
0.7828267384257843
  0
POINT
  5
DF
100
AcDbEntity
  8
Defpoints
370
               0
390
0
 62
               0
100
AcDbPoint
 10
-433.48040187033439
 20
-427.32006050271161
 30
0.0
  0
POINT
  5
E0
100
AcDbEntity
  8
Defpoints
370
               0
390
0
 62
               0
100
AcDbPoint
 10
-264.4573292107525
 20
-267.32006050271116
 30
0.0
  0
POINT
  5
E1
100
AcDbEntity
  8
Defpoints
370
               0
390
0
 62
               0
100
AcDbPoint
 10
-176.33064044295043
 20
-267.32006050271116
 30
0.0
  0
ENDBLK
  5
E2
100
AcDbEntity
  8
notes
390
0
100
AcDbBlockEnd
  0
BLOCK
  5
E3
100
AcDbEntity
  8
notes
390
0
100
AcDbBlockBegin
  2
*D14
 70
               1
 10
0.0
 20
0.0
 30
0.0
  3
*D14
  1

  0
LINE
  5
E4
100
AcDbEntity
  8
0
370
              -2
390
0
  6
Continuous
 62
               0
100
AcDbLine
 10
661.76635476959746
 20
-425.35990534286952
 30
0.0
 11
661.76635476959746
 21
-527.45990534286943
 31
0.0
  0
LINE
  5
E5
100
AcDbEntity
  8
0
370
              -2
390
0
  6
Continuous
 62
               0
100
AcDbLine
 10
481.76635476959746
 20
-452.49948090987141
 30
0.0
 11
481.76635476959746
 21
-527.45990534286943
 31
0.0
  0
LINE
  5
E6
100
AcDbEntity
  8
0
370
              -2
390
0
  6
Continuous
 62
               0
100
AcDbLine
 10
661.76635476959746
 20
-527.45990534286943
 30
0.0
 11
481.76635476959746
 21
-527.45990534286943
 31
0.0
  0
CIRCLE
  5
E7
102
{ACAD_REACTORS
330
E8
102
}
100
AcDbEntity
  8
0
370
              -2
390
0
  6
Continuous
 62
               0
100
AcDbCircle
 10
661.76635476959746
 20
-527.45990534286943
 30
0.0
 40
1.9998779296875
  0
HATCH
  5
E8
100
AcDbEntity
  8
0
370
              -2
390
0
  6
Continuous
 62
               0
100
AcDbHatch
 10
0.0
 20
0.0
 30
0.0
210
0.0
220
0.0
230
1.0
  2
SOLID
 70
               1
 71
               1
 91
        1
 92
        1
 93
        1
 72
               2
 10
661.76635476959746
 20
-527.45990534286943
 40
1.9998779296875
 50
0.0
 51
360.0
 73
               0
 97
        1
330
E7
 75
               0
 76
               1
 98
        1
 10
0.0
 20
0.0
  0
CIRCLE
  5
E9
102
{ACAD_REACTORS
330
EA
102
}
100
AcDbEntity
  8
0
370
              -2
390
0
  6
Continuous
 62
               0
100
AcDbCircle
 10
481.76635476959746
 20
-527.45990534286943
 30
0.0
 40
1.9998779296875
  0
HATCH
  5
EA
100
AcDbEntity
  8
0
370
              -2
390
0
  6
Continuous
 62
               0
100
AcDbHatch
 10
0.0
 20
0.0
 30
0.0
210
0.0
220
0.0
230
1.0
  2
SOLID
 70
               1
 71
               1
 91
        1
 92
        1
 93
        1
 72
               2
 10
481.76635476959746
 20
-527.45990534286943
 40
1.9998779296875
 50
0.0
 51
360.0
 73
               0
 97
        1
330
E9
 75
               0
 76
               1
 98
        1
 10
0.0
 20
0.0
  0
MTEXT
  5
EB
100
AcDbEntity
  8
0
390
0
 62
               0
100
AcDbMText
 10
547.95385308742152
 20
-493.58228815536927
 30
0.0
 40
24.432617187500004
 41
0.0
 71
               1
 72
               1
  1
180
  7
ＭＳ ゴシック
 73
               1
 44
0.7828267384257843
  0
POINT
  5
EC
100
AcDbEntity
  8
Defpoints
370
               0
390
0
 62
               0
100
AcDbPoint
 10
481.76635476959746
 20
-427.49948090987141
 30
0.0
  0
POINT
  5
ED
100
AcDbEntity
  8
Defpoints
370
               0
390
0
 62
               0
100
AcDbPoint
 10
661.76635476959746
 20
-400.35990534286952
 30
0.0
  0
POINT
  5
EE
100
AcDbEntity
  8
Defpoints
370
               0
390
0
 62
               0
100
AcDbPoint
 10
661.76635476959746
 20
-527.45990534286943
 30
0.0
  0
ENDBLK
  5
EF
100
AcDbEntity
  8
notes
390
0
100
AcDbBlockEnd
  0
BLOCK
  5
F0
100
AcDbEntity
  8
notes
390
0
100
AcDbBlockBegin
  2
*D15
 70
               1
 10
0.0
 20
0.0
 30
0.0
  3
*D15
  1

  0
LINE
  5
F1
100
AcDbEntity
  8
0
370
              -2
390
0
  6
Continuous
 62
               0
100
AcDbLine
 10
323.26310721996015
 20
-267.34938606496576
 30
0.0
 11
241.86310721996051
 21
-267.34938606496576
 31
0.0
  0
LINE
  5
F2
100
AcDbEntity
  8
0
370
              -2
390
0
  6
Continuous
 62
               0
100
AcDbLine
 10
322.62082270332667
 20
-327.34939430318241
 30
0.0
 11
241.86310721996051
 21
-327.34939430318241
 31
0.0
  0
LINE
  5
F3
100
AcDbEntity
  8
0
370
              -2
390
0
  6
Continuous
 62
               0
100
AcDbLine
 10
241.86310721996051
 20
-267.34938606496576
 30
0.0
 11
241.86310721996051
 21
-327.34939430318241
 31
0.0
  0
CIRCLE
  5
F4
102
{ACAD_REACTORS
330
F5
102
}
100
AcDbEntity
  8
0
370
              -2
390
0
  6
Continuous
 62
               0
100
AcDbCircle
 10
241.86310721996051
 20
-267.34938606496576
 30
0.0
 40
1.9998779296875
  0
HATCH
  5
F5
100
AcDbEntity
  8
0
370
              -2
390
0
  6
Continuous
 62
               0
100
AcDbHatch
 10
0.0
 20
0.0
 30
0.0
210
0.0
220
0.0
230
1.0
  2
SOLID
 70
               1
 71
               1
 91
        1
 92
        1
 93
        1
 72
               2
 10
241.86310721996051
 20
-267.34938606496576
 40
1.9998779296875
 50
0.0
 51
360.0
 73
               0
 97
        1
330
F4
 75
               0
 76
               1
 98
        1
 10
0.0
 20
0.0
  0
CIRCLE
  5
F6
102
{ACAD_REACTORS
330
F7
102
}
100
AcDbEntity
  8
0
370
              -2
390
0
  6
Continuous
 62
               0
100
AcDbCircle
 10
241.86310721996051
 20
-327.34939430318241
 30
0.0
 40
1.9998779296875
  0
HATCH
  5
F7
100
AcDbEntity
  8
0
370
              -2
390
0
  6
Continuous
 62
               0
100
AcDbHatch
 10
0.0
 20
0.0
 30
0.0
210
0.0
220
0.0
230
1.0
  2
SOLID
 70
               1
 71
               1
 91
        1
 92
        1
 93
        1
 72
               2
 10
241.86310721996051
 20
-327.34939430318241
 40
1.9998779296875
 50
0.0
 51
360.0
 73
               0
 97
        1
330
F6
 75
               0
 76
               1
 98
        1
 10
0.0
 20
0.0
  0
MTEXT
  5
F8
100
AcDbEntity
  8
0
390
0
 62
               0
100
AcDbMText
 10
207.9854900324608
 20
-313.22439018407408
 30
0.0
 40
24.432617187500004
 41
0.0
 71
               1
 72
               1
  1
60
  7
ＭＳ ゴシック
 11
0.0
 21
1.0
 31
0.0
 73
               1
 44
0.7828267384257843
  0
POINT
  5
F9
100
AcDbEntity
  8
Defpoints
370
               0
390
0
 62
               0
100
AcDbPoint
 10
347.62082270332667
 20
-327.34939430318241
 30
0.0
  0
POINT
  5
FA
100
AcDbEntity
  8
Defpoints
370
               0
390
0
 62
               0
100
AcDbPoint
 10
348.26310721996015
 20
-267.34938606496576
 30
0.0
  0
POINT
  5
FB
100
AcDbEntity
  8
Defpoints
370
               0
390
0
 62
               0
100
AcDbPoint
 10
241.86310721996051
 20
-267.34938606496576
 30
0.0
  0
ENDBLK
  5
FC
100
AcDbEntity
  8
notes
390
0
100
AcDbBlockEnd
  0
BLOCK
  5
FD
100
AcDbEntity
  8
notes
390
0
100
AcDbBlockBegin
  2
*D16
 70
               1
 10
0.0
 20
0.0
 30
0.0
  3
*D16
  1

  0
LINE
  5
FE
100
AcDbEntity
  8
0
370
              -2
390
0
  6
Continuous
 62
               0
100
AcDbLine
 10
337.49732180922365
 20
-327.34939430318605
 30
0.0
 11
241.86310721996051
 21
-327.34939430318605
 31
0.0
  0
LINE
  5
FF
100
AcDbEntity
  8
0
370
              -2
390
0
  6
Continuous
 62
               0
100
AcDbLine
 10
412.47415268847635
 20
-402.32622518243784
 30
0.0
 11
241.86310721996051
 21
-402.32622518243784
 31
0.0
  0
LINE
  5
100
100
AcDbEntity
  8
0
370
              -2
390
0
  6
Continuous
 62
               0
100
AcDbLine
 10
241.86310721996051
 20
-327.34939430318605
 30
0.0
 11
241.86310721996051
 21
-402.32622518243784
 31
0.0
  0
CIRCLE
  5
101
102
{ACAD_REACTORS
330
102
102
}
100
AcDbEntity
  8
0
370
              -2
390
0
  6
Continuous
 62
               0
100
AcDbCircle
 10
241.86310721996051
 20
-327.34939430318605
 30
0.0
 40
1.9998779296875
  0
HATCH
  5
102
100
AcDbEntity
  8
0
370
              -2
390
0
  6
Continuous
 62
               0
100
AcDbHatch
 10
0.0
 20
0.0
 30
0.0
210
0.0
220
0.0
230
1.0
  2
SOLID
 70
               1
 71
               1
 91
        1
 92
        1
 93
        1
 72
               2
 10
241.86310721996051
 20
-327.34939430318605
 40
1.9998779296875
 50
0.0
 51
360.0
 73
               0
 97
        1
330
101
 75
               0
 76
               1
 98
        1
 10
0.0
 20
0.0
  0
CIRCLE
  5
103
102
{ACAD_REACTORS
330
104
102
}
100
AcDbEntity
  8
0
370
              -2
390
0
  6
Continuous
 62
               0
100
AcDbCircle
 10
241.86310721996051
 20
-402.32622518243784
 30
0.0
 40
1.9998779296875
  0
HATCH
  5
104
100
AcDbEntity
  8
0
370
              -2
390
0
  6
Continuous
 62
               0
100
AcDbHatch
 10
0.0
 20
0.0
 30
0.0
210
0.0
220
0.0
230
1.0
  2
SOLID
 70
               1
 71
               1
 91
        1
 92
        1
 93
        1
 72
               2
 10
241.86310721996051
 20
-402.32622518243784
 40
1.9998779296875
 50
0.0
 51
360.0
 73
               0
 97
        1
330
103
 75
               0
 76
               1
 98
        1
 10
0.0
 20
0.0
  0
MTEXT
  5
105
100
AcDbEntity
  8
0
390
0
 62
               0
100
AcDbMText
 10
207.9854900324608
 20
-380.71280974281194
 30
0.0
 40
24.432617187500004
 41
0.0
 71
               1
 72
               1
  1
70
  7
ＭＳ ゴシック
 11
0.0
 21
1.0
 31
0.0
 73
               1
 44
0.7828267384257843
  0
POINT
  5
106
100
AcDbEntity
  8
Defpoints
370
               0
390
0
 62
               0
100
AcDbPoint
 10
437.47415268847635
 20
-402.32622518243784
 30
0.0
  0
POINT
  5
107
100
AcDbEntity
  8
Defpoints
370
               0
390
0
 62
               0
100
AcDbPoint
 10
362.49732180922365
 20
-327.34939430318605
 30
0.0
  0
POINT
  5
108
100
AcDbEntity
  8
Defpoints
370
               0
390
0
 62
               0
100
AcDbPoint
 10
241.86310721996051
 20
-327.34939430318605
 30
0.0
  0
ENDBLK
  5
109
100
AcDbEntity
  8
notes
390
0
100
AcDbBlockEnd
  0
BLOCK
  5
10A
100
AcDbEntity
  8
notes
390
0
100
AcDbBlockBegin
  2
*D17
 70
               1
 10
0.0
 20
0.0
 30
0.0
  3
*D17
  1

  0
LINE
  5
10B
100
AcDbEntity
  8
0
370
              -2
390
0
  6
Continuous
 62
               0
100
AcDbLine
 10
-699.24229193517112
 20
749.99999950462939
 30
0.0
 11
-777.2422924430075
 21
749.99999950462939
 31
0.0
  0
LINE
  5
10C
100
AcDbEntity
  8
0
370
              -2
390
0
  6
Continuous
 62
               0
100
AcDbLine
 10
-702.24229193425435
 20
649.99999965671623
 30
0.0
 11
-777.2422924430075
 21
649.99999965671623
 31
0.0
  0
LINE
  5
10D
100
AcDbEntity
  8
0
370
              -2
390
0
  6
Continuous
 62
               0
100
AcDbLine
 10
-777.2422924430075
 20
749.99999950462939
 30
0.0
 11
-777.2422924430075
 21
649.99999965671623
 31
0.0
  0
CIRCLE
  5
10E
102
{ACAD_REACTORS
330
10F
102
}
100
AcDbEntity
  8
0
370
              -2
390
0
  6
Continuous
 62
               0
100
AcDbCircle
 10
-777.2422924430075
 20
749.99999950462939
 30
0.0
 40
1.9998779296875
  0
HATCH
  5
10F
100
AcDbEntity
  8
0
370
              -2
390
0
  6
Continuous
 62
               0
100
AcDbHatch
 10
0.0
 20
0.0
 30
0.0
210
0.0
220
0.0
230
1.0
  2
SOLID
 70
               1
 71
               1
 91
        1
 92
        1
 93
        1
 72
               2
 10
-777.2422924430075
 20
749.99999950462939
 40
1.9998779296875
 50
0.0
 51
360.0
 73
               0
 97
        1
330
10E
 75
               0
 76
               1
 98
        1
 10
0.0
 20
0.0
  0
CIRCLE
  5
110
102
{ACAD_REACTORS
330
111
102
}
100
AcDbEntity
  8
0
370
              -2
390
0
  6
Continuous
 62
               0
100
AcDbCircle
 10
-777.2422924430075
 20
649.99999965671623
 30
0.0
 40
1.9998779296875
  0
HATCH
  5
111
100
AcDbEntity
  8
0
370
              -2
390
0
  6
Continuous
 62
               0
100
AcDbHatch
 10
0.0
 20
0.0
 30
0.0
210
0.0
220
0.0
230
1.0
  2
SOLID
 70
               1
 71
               1
 91
        1
 92
        1
 93
        1
 72
               2
 10
-777.2422924430075
 20
649.99999965671623
 40
1.9998779296875
 50
0.0
 51
360.0
 73
               0
 97
        1
330
110
 75
               0
 76
               1
 98
        1
 10
0.0
 20
0.0
  0
MTEXT
  5
112
100
AcDbEntity
  8
0
390
0
 62
               0
100
AcDbMText
 10
-811.11990963050721
 20
676.18749789849721
 30
0.0
 40
24.432617187500004
 41
0.0
 71
               1
 72
               1
  1
100
  7
ＭＳ ゴシック
 11
0.0
 21
1.0
 31
0.0
 73
               1
 44
0.7828267384257843
  0
POINT
  5
113
100
AcDbEntity
  8
Defpoints
370
               0
390
0
 62
               0
100
AcDbPoint
 10
-677.24229193425435
 20
649.99999965671623
 30
0.0
  0
POINT
  5
114
100
AcDbEntity
  8
Defpoints
370
               0
390
0
 62
               0
100
AcDbPoint
 10
-674.24229193517112
 20
749.99999950462939
 30
0.0
  0
POINT
  5
115
100
AcDbEntity
  8
Defpoints
370
               0
390
0
 62
               0
100
AcDbPoint
 10
-777.2422924430075
 20
749.99999950462939
 30
0.0
  0
ENDBLK
  5
116
100
AcDbEntity
  8
notes
390
0
100
AcDbBlockEnd
  0
BLOCK
  5
117
100
AcDbEntity
  8
notes
390
0
100
AcDbBlockBegin
  2
*D18
 70
               1
 10
0.0
 20
0.0
 30
0.0
  3
*D18
  1

  0
LINE
  5
118
100
AcDbEntity
  8
0
370
              -2
390
0
  6
Continuous
 62
               0
100
AcDbLine
 10
-702.24229193425435
 20
649.99999965671623
 30
0.0
 11
-777.2422924430075
 21
649.99999965671623
 31
0.0
  0
LINE
  5
119
100
AcDbEntity
  8
0
370
              -2
390
0
  6
Continuous
 62
               0
100
AcDbLine
 10
-687.0
 20
449.99999965671623
 30
0.0
 11
-777.2422924430075
 21
449.99999965671623
 31
0.0
  0
LINE
  5
11A
100
AcDbEntity
  8
0
370
              -2
390
0
  6
Continuous
 62
               0
100
AcDbLine
 10
-777.2422924430075
 20
649.99999965671623
 30
0.0
 11
-777.2422924430075
 21
449.99999965671623
 31
0.0
  0
CIRCLE
  5
11B
102
{ACAD_REACTORS
330
11C
102
}
100
AcDbEntity
  8
0
370
              -2
390
0
  6
Continuous
 62
               0
100
AcDbCircle
 10
-777.2422924430075
 20
649.99999965671623
 30
0.0
 40
1.9998779296875
  0
HATCH
  5
11C
100
AcDbEntity
  8
0
370
              -2
390
0
  6
Continuous
 62
               0
100
AcDbHatch
 10
0.0
 20
0.0
 30
0.0
210
0.0
220
0.0
230
1.0
  2
SOLID
 70
               1
 71
               1
 91
        1
 92
        1
 93
        1
 72
               2
 10
-777.2422924430075
 20
649.99999965671623
 40
1.9998779296875
 50
0.0
 51
360.0
 73
               0
 97
        1
330
11B
 75
               0
 76
               1
 98
        1
 10
0.0
 20
0.0
  0
CIRCLE
  5
11D
102
{ACAD_REACTORS
330
11E
102
}
100
AcDbEntity
  8
0
370
              -2
390
0
  6
Continuous
 62
               0
100
AcDbCircle
 10
-777.2422924430075
 20
449.99999965671623
 30
0.0
 40
1.9998779296875
  0
HATCH
  5
11E
100
AcDbEntity
  8
0
370
              -2
390
0
  6
Continuous
 62
               0
100
AcDbHatch
 10
0.0
 20
0.0
 30
0.0
210
0.0
220
0.0
230
1.0
  2
SOLID
 70
               1
 71
               1
 91
        1
 92
        1
 93
        1
 72
               2
 10
-777.2422924430075
 20
449.99999965671623
 40
1.9998779296875
 50
0.0
 51
360.0
 73
               0
 97
        1
330
11D
 75
               0
 76
               1
 98
        1
 10
0.0
 20
0.0
  0
MTEXT
  5
11F
100
AcDbEntity
  8
0
390
0
 62
               0
100
AcDbMText
 10
-811.11990963050721
 20
526.18749797454075
 30
0.0
 40
24.432617187500004
 41
0.0
 71
               1
 72
               1
  1
200
  7
ＭＳ ゴシック
 11
0.0
 21
1.0
 31
0.0
 73
               1
 44
0.7828267384257843
  0
POINT
  5
120
100
AcDbEntity
  8
Defpoints
370
               0
390
0
 62
               0
100
AcDbPoint
 10
-662.0
 20
449.99999965671623
 30
0.0
  0
POINT
  5
121
100
AcDbEntity
  8
Defpoints
370
               0
390
0
 62
               0
100
AcDbPoint
 10
-677.24229193425435
 20
649.99999965671623
 30
0.0
  0
POINT
  5
122
100
AcDbEntity
  8
Defpoints
370
               0
390
0
 62
               0
100
AcDbPoint
 10
-777.2422924430075
 20
649.99999965671623
 30
0.0
  0
ENDBLK
  5
123
100
AcDbEntity
  8
notes
390
0
100
AcDbBlockEnd
  0
ENDSEC
  0
SECTION
  2
ENTITIES
  0
MTEXT
  5
124
100
AcDbEntity
  8
template
390
0
 62
               7
100
AcDbMText
 10
-972.26511463136194
 20
-1133.1411540352781
 30
0.0
 40
16.288411458333332
 41
0.0
 71
               1
 72
               1
  1
品名
  7
ＭＳ ゴシック
 73
               1
 44
0.7828267384257843
  0
MTEXT
  5
125
100
AcDbEntity
  8
template
390
0
 62
               7
100
AcDbMText
 10
-972.26511463136194
 20
-1218.1411540352781
 30
0.0
 40
16.288411458333332
 41
0.0
 71
               1
 72
               1
  1
仕様
  7
ＭＳ ゴシック
 73
               1
 44
0.7828267384257843
  0
MTEXT
  5
126
100
AcDbEntity
  8
template
390
0
 62
               7
100
AcDbMText
 10
-919.26511463136194
 20
-1161.723614972778
 30
0.0
 40
24.432617187500004
 41
0.0
 71
               1
 72
               1
  1
手洗器 -CATALANO,Proiezioni-
  7
ＭＳ ゴシック
 73
               1
 44
0.7828267384257843
  0
LINE
  5
127
100
AcDbEntity
  8
template
370
               5
390
0
  6
Continuous
 62
               7
100
AcDbLine
 10
970.73488536815603
 20
-1209.7262321602782
 30
0.0
 11
-979.26511463184397
 21
-1209.7262321602782
 31
0.0
  0
LWPOLYLINE
  5
128
100
AcDbEntity
  8
template
370
               5
390
0
  6
Continuous
 62
               7
100
AcDbPolyline
 90
        5
 70
             128
 10
970.73488536863806
 20
1420.2737678397218
 10
-979.26511463136194
 20
1420.2737678397218
 10
-979.26511463136194
 20
-1379.7262321602782
 10
970.73488536863806
 20
-1379.7262321602782
 10
970.73488536863806
 20
1420.2737678397218
  0
LINE
  5
129
100
AcDbEntity
  8
template
370
               5
390
0
  6
Continuous
 62
               7
100
AcDbLine
 10
970.73488536815603
 20
-1124.7262321602782
 30
0.0
 11
-979.26511463184397
 21
-1124.7262321602782
 31
0.0
  0
LINE
  5
12A
100
AcDbEntity
  8
template
370
               5
390
0
  6
Continuous
 62
               7
100
AcDbLine
 10
970.73488536863806
 20
-1294.7262321602782
 30
0.0
 11
217.73488536863806
 21
-1294.7262321602782
 31
0.0
  0
MTEXT
  5
12B
100
AcDbEntity
  8
template
390
0
 62
               7
100
AcDbMText
 10
-979.26511463115821
 20
-1390.9417469254684
 30
0.0
 40
16.288411458333332
 41
0.0
 71
               1
 72
               1
  1
120305SH
  7
ＭＳ ゴシック
 73
               1
 44
0.7828267384257843
  0
MTEXT
  5
12C
100
AcDbEntity
  8
template
390
0
 62
               7
100
AcDbMText
 10
247.60629162089754
 20
-1324.6366266335856
 30
0.0
 40
24.432617187500004
 41
0.0
 71
               1
 72
               1
  1
大洋金物株式会社 ティーフォルム事業部
  7
ＭＳ ゴシック
 73
               1
 44
0.7828267384257843
  0
INSERT
  5
12D
100
AcDbEntity
  8
template
390
0
 62
               7
100
AcDbBlockReference
  2
グループ
 10
6548.4572666573667
 20
1970.9839594664415
 30
0.0
  0
MTEXT
  5
12E
100
AcDbEntity
  8
template
390
0
 62
               7
100
AcDbMText
 10
779.73488536889636
 20
-1246.723614972778
 30
0.0
 40
24.432617187500004
 41
0.0
 71
               1
 72
               1
  1
1:10
  7
ＭＳ ゴシック
 73
               1
 44
0.7828267384257843
  0
MTEXT
  5
12F
100
AcDbEntity
  8
template
390
0
 62
               7
100
AcDbMText
 10
726.73488536889636
 20
-1218.1411540352781
 30
0.0
 40
16.288411458333332
 41
0.0
 71
               1
 72
               1
  1
縮尺
  7
ＭＳ ゴシック
 73
               1
 44
0.7828267384257843
  0
LINE
  5
130
100
AcDbEntity
  8
template
370
               5
390
0
  6
Continuous
 62
               7
100
AcDbLine
 10
719.73488536889636
 20
-1294.7262321602782
 30
0.0
 11
719.73488536889636
 21
-1209.7262321602782
 31
0.0
  0
MTEXT
  5
131
100
AcDbEntity
  8
template
390
0
 62
               7
100
AcDbMText
 10
475.73488536889636
 20
-1218.1411540352781
 30
0.0
 40
16.288411458333332
 41
0.0
 71
               1
 72
               1
  1
容量
  7
ＭＳ ゴシック
 73
               1
 44
0.7828267384257843
  0
LINE
  5
132
100
AcDbEntity
  8
template
370
               5
390
0
  6
Continuous
 62
               7
100
AcDbLine
 10
468.73488536889636
 20
-1294.7262321602782
 30
0.0
 11
468.73488536889636
 21
-1209.7262321602782
 31
0.0
  0
MTEXT
  5
133
100
AcDbEntity
  8
template
390
0
 62
               7
100
AcDbMText
 10
224.73488536889636
 20
-1133.1411540352781
 30
0.0
 40
16.288411458333332
 41
0.0
 71
               1
 72
               1
  1
品番
  7
ＭＳ ゴシック
 73
               1
 44
0.7828267384257843
  0
MTEXT
  5
134
100
AcDbEntity
  8
template
390
0
 62
               7
100
AcDbMText
 10
224.73488536889636
 20
-1218.1411540352781
 30
0.0
 40
16.288411458333332
 41
0.0
 71
               1
 72
               1
  1
重量
  7
ＭＳ ゴシック
 73
               1
 44
0.7828267384257843
  0
MTEXT
  5
135
100
AcDbEntity
  8
template
390
0
 62
               7
100
AcDbMText
 10
277.73488536889636
 20
-1161.723614972778
 30
0.0
 40
24.432617187500004
 41
0.0
 71
               1
 72
               1
  1
ADF70-1710
  7
ＭＳ ゴシック
 73
               1
 44
0.7828267384257843
  0
LINE
  5
136
100
AcDbEntity
  8
template
370
               5
390
0
  6
Continuous
 62
               7
100
AcDbLine
 10
217.73488536889636
 20
-1379.7262321602782
 30
0.0
 11
217.73488536889636
 21
-1124.7262321602782
 31
0.0
  0
MTEXT
  5
137
100
AcDbEntity
  8
template
390
0
 62
               7
100
AcDbMText
 10
-919.26511463136194
 20
-1246.723614972778
 30
0.0
 40
24.432617187500004
 41
0.0
 71
               1
 72
               1
  1
壁掛け,半埋め込み/オーバーフロー付き/壁取付ボルト付属/\P陶器/ホワイト
  7
ＭＳ ゴシック
 73
               1
 44
1.3047112307096407
  0
MTEXT
  5
138
100
AcDbEntity
  8
template
390
0
 62
               7
100
AcDbMText
 10
531.2130336303826
 20
-1246.7440947235198
 30
0.0
 40
24.432617187500004
 41
0.0
 71
               1
 72
               1
  1
3L
  7
ＭＳ ゴシック
 73
               1
 44
0.7828267384257843
  0
MTEXT
  5
139
100
AcDbEntity
  8
template
390
0
 62
               7
100
AcDbMText
 10
277.63774726821066
 20
-1246.8450149341795
 30
0.0
 40
24.432617187500004
 41
0.0
 71
               1
 72
               1
  1
10kg
  7
ＭＳ ゴシック
 73
               1
 44
0.7828267384257843
  0
MTEXT
  5
13A
100
AcDbEntity
  8
notes
390
0
 62
               7
100
AcDbMText
 10
-815.13755605792085
 20
205.4034500566836
 30
0.0
 40
24.432617187500004
 41
842.88315656391467
 71
               1
 72
               1
  1
＝φ30もしくはφ35の水栓取付用穴あけ加工を承ります。\P   必要な場合、ご注文の際にご指示ください。
  7
ＭＳ ゴシック
 73
               1
 44
1.0437689845677123
  0
CIRCLE
  5
13B
100
AcDbEntity
  8
notes
370
               5
390
0
  6
STYLE_12
 62
               7
100
AcDbCircle
 10
-842.83064044295043
 20
194.83194834288065
 30
0.0
 40
17.5
  0
DIMENSION
  5
13C
100
AcDbEntity
  8
notes
370
               5
390
0
  6
Continuous
 62
               7
100
AcDbDimension
  2
*D4
 10
-662.41034169371505
 20
351.03150231345626
 30
0.0
 11
-467.41034169371505
 21
351.03150231345626
 31
0.0
 71
               5
 72
               1
 41
1.0
 42
0.0
  3
tform線あり
100
AcDbAlignedDimension
 13
-272.41034169371505
 23
467.2315023134563
 33
0.0
 14
-662.41034169371505
 24
467.2315023134563
 34
0.0
100
AcDbRotatedDimension
1001
ACAD
1000
DSTYLE
1002
{
1070
             279
1070
               2
1070
             340
1005
33
1070
             147
1040
5.0
1002
}
  0
MTEXT
  5
13D
100
AcDbEntity
  8
notes
390
0
 62
               7
100
AcDbMText
 10
119.90670321486414
 20
205.4034500566836
 30
0.0
 40
24.432617187500004
 41
764.7717154610109
 71
               1
 72
               1
  1
※陶器製品には寸法公差があります。\P  洗面器の収め方をご確認の上、必ず現物を合わせて\P  カウンターに切込を行ってください。
  7
ＭＳ ゴシック
 73
               1
 44
1.0437689845677123
  0
DIMENSION
  5
13E
100
AcDbEntity
  8
notes
370
               5
390
0
  6
Continuous
 62
               7
100
AcDbDimension
  2
*D5
 10
260.78432508760852
 20
845.30032945454946
 30
0.0
 11
462.22240508413597
 21
850.30032945454946
 31
0.0
 70
             128
 71
               5
 72
               1
 41
1.0
 42
0.0
  3
tform線あり
100
AcDbAlignedDimension
 13
650.78432508760852
 23
749.99999999999977
 33
0.0
 14
260.78432508760852
 24
749.99999974351317
 34
0.0
100
AcDbRotatedDimension
1001
ACAD
1000
DSTYLE
1002
{
1070
             271
1070
               0
1070
             279
1070
               2
1070
             340
1005
33
1070
             147
1040
5.0
1002
}
  0
DIMENSION
  5
13F
100
AcDbEntity
  8
notes
370
               5
390
0
  6
Continuous
 62
               7
100
AcDbDimension
  2
*D6
 10
-677.24229193425435
 20
849.99999950462939
 30
0.0
 11
-467.24229118112908
 21
849.99999950462939
 31
0.0
 71
               5
 72
               1
 41
1.0
 42
0.0
  3
tform線あり
100
AcDbAlignedDimension
 13
-257.24229042800289
 23
746.99999980880307
 33
0.0
 14
-677.24229193425435
 24
746.99999950462939
 34
0.0
100
AcDbRotatedDimension
1001
ACAD
1000
DSTYLE
1002
{
1070
             279
1070
               2
1070
             340
1005
33
1070
             147
1040
5.0
1002
}
  0
MTEXT
  5
140
100
AcDbEntity
  8
notes
390
0
 62
               7
100
AcDbMText
 10
320.19002807157449
 20
987.12761731899002
 30
0.0
 40
24.432617187500004
 41
0.0
 71
               1
 72
               1
  1
カウンター切込寸法
  7
ＭＳ ゴシック
 73
               1
 44
0.7828267384257843
  0
DIMENSION
  5
141
100
AcDbEntity
  8
notes
370
               5
390
0
  6
Continuous
 62
               7
100
AcDbDimension
  2
*D7
 10
751.98288789297203
 20
459.99999999999977
 30
0.0
 11
756.98288789297203
 21
598.90798547289683
 31
0.0
 70
             128
 71
               5
 72
               1
 41
1.0
 42
0.0
  3
tform線あり
100
AcDbAlignedDimension
 13
650.78432508760852
 23
749.99999999999977
 33
0.0
 14
650.7843250876067
 24
459.99999999999977
 34
0.0
 50
90.0
100
AcDbRotatedDimension
1001
ACAD
1000
DSTYLE
1002
{
1070
             271
1070
               0
1070
             279
1070
               2
1070
             340
1005
33
1070
             147
1040
5.0
1002
}
  0
DIMENSION
  5
142
100
AcDbEntity
  8
notes
370
               5
390
0
  6
Continuous
 62
               7
100
AcDbDimension
  2
*D8
 10
-157.24229042891966
 20
749.99999980880307
 30
0.0
 11
-157.24229042891966
 21
589.99999973280364
 31
0.0
 71
               5
 72
               1
 41
1.0
 42
0.0
  3
tform線あり
100
AcDbAlignedDimension
 13
-309.90221182566984
 23
429.99999965680422
 33
0.0
 14
-260.24229042891966
 24
749.99999980880307
 34
0.0
 50
90.0
100
AcDbRotatedDimension
1001
ACAD
1000
DSTYLE
1002
{
1070
             279
1070
               2
1070
             340
1005
33
1070
             147
1040
5.0
1002
}
  0
MTEXT
  5
143
100
AcDbEntity
  8
notes
390
0
 62
               7
100
AcDbMText
 10
-327.96938646798299
 20
-187.38458157444416
 30
0.0
 40
24.432617187500004
 41
0.0
 71
               1
 72
               1
  1
壁取付ボルト穴(2ヶ所)
  7
ＭＳ ゴシック
 73
               1
 44
0.7828267384257843
  0
LINE
  5
144
100
AcDbEntity
  8
notes
370
               5
390
0
  6
Continuous
 62
               7
100
AcDbLine
 10
-392.32255587223153
 20
-307.14287368638111
 30
0.0
 11
-306.87649886610961
 21
-221.69681668025783
 31
0.0
  0
DIMENSION
  5
145
100
AcDbEntity
  8
notes
370
               5
390
0
  6
Continuous
 62
               7
100
AcDbDimension
  2
*D9
 10
-542.26553736393453
 20
-167.32768425731706
 30
0.0
 11
-467.26553736393453
 21
-167.32768425731706
 31
0.0
 71
               5
 72
               1
 41
1.0
 42
0.0
  3
tform線あり
100
AcDbAlignedDimension
 13
-392.26553736393453
 23
-287.32768425731706
 33
0.0
 14
-542.26553736393453
 24
-287.32768425731706
 34
0.0
100
AcDbRotatedDimension
1001
ACAD
1000
DSTYLE
1002
{
1070
             279
1070
               2
1070
             340
1005
33
1070
             147
1040
5.0
1002
}
  0
DIMENSION
  5
146
100
AcDbEntity
  8
notes
370
               5
390
0
  6
Continuous
 62
               7
100
AcDbDimension
  2
*D10
 10
661.76637013830077
 20
-167.35989508960097
 30
0.0
 11
631.77301619641457
 21
-167.35989508960097
 31
0.0
 71
               5
 72
               1
 41
1.0
 42
0.0
  3
tform線あり
100
AcDbAlignedDimension
 13
601.77966225452838
 23
-277.3461780923933
 33
0.0
 14
661.76637013830077
 24
-270.35989508960097
 34
0.0
100
AcDbRotatedDimension
1001
ACAD
1000
DSTYLE
1002
{
1070
             279
1070
               2
1070
             340
1005
33
1070
             147
1040
5.0
1002
}
  0
DIMENSION
  5
147
100
AcDbEntity
  8
notes
370
               5
390
0
  6
Continuous
 62
               7
100
AcDbDimension
  2
*D11
 10
474.56523512792046
 20
-372.35673065444939
 30
0.0
 11
479.56523512792046
 21
-255.1516270393015
 31
0.0
 70
             128
 71
               5
 72
               1
 41
1.0
 42
0.0
  3
tform線あり
100
AcDbAlignedDimension
 13
452.21404470151629
 23
-267.35673065444939
 33
0.0
 14
452.20850447347129
 24
-372.35673065444939
 34
0.0
 50
90.0
100
AcDbRotatedDimension
1001
ACAD
1000
DSTYLE
1002
{
1070
             271
1070
               0
1070
             279
1070
               2
1070
             340
1005
33
1070
               3
1000
<>(深さ)
1070
             174
1070
               0
1070
             147
1040
5.0
1002
}
  0
DIMENSION
  5
148
100
AcDbEntity
  8
notes
370
               5
390
0
  6
Continuous
 62
               7
100
AcDbDimension
  2
*D12
 10
-776.85037861878027
 20
-307.31252551216198
 30
0.0
 11
-776.85037861878027
 21
-287.31629300743657
 31
0.0
 71
               5
 72
               1
 41
1.0
 42
0.0
  3
tform線あり
100
AcDbAlignedDimension
 13
-670.00548351456837
 23
-267.32006050271116
 33
0.0
 14
-562.25037861877991
 24
-307.31252551216198
 34
0.0
 50
90.0
100
AcDbRotatedDimension
1001
ACAD
1000
DSTYLE
1002
{
1070
             279
1070
               2
1070
             340
1005
33
1070
             147
1040
5.0
1002
}
  0
DIMENSION
  5
149
100
AcDbEntity
  8
notes
370
               5
390
0
  6
Continuous
 62
               7
100
AcDbDimension
  2
*D13
 10
-176.33064044295043
 20
-267.32006050271116
 30
0.0
 11
-176.33064044295043
 21
-347.32006050271161
 31
0.0
 71
               5
 72
               1
 41
1.0
 42
0.0
  3
tform線あり
100
AcDbAlignedDimension
 13
-433.48040187033439
 23
-427.32006050271161
 33
0.0
 14
-264.4573292107525
 24
-267.32006050271116
 34
0.0
 50
90.0
100
AcDbRotatedDimension
1001
ACAD
1000
DSTYLE
1002
{
1070
             279
1070
               2
1070
             340
1005
33
1070
             147
1040
5.0
1002
}
  0
DIMENSION
  5
14A
100
AcDbEntity
  8
notes
370
               5
390
0
  6
Continuous
 62
               7
100
AcDbDimension
  2
*D14
 10
661.76635476959746
 20
-527.45990534286943
 30
0.0
 11
571.76635476959746
 21
-527.45990534286943
 31
0.0
 71
               5
 72
               1
 41
1.0
 42
0.0
  3
tform線あり
100
AcDbAlignedDimension
 13
481.76635476959746
 23
-427.49948090987141
 33
0.0
 14
661.76635476959746
 24
-400.35990534286952
 34
0.0
100
AcDbRotatedDimension
1001
ACAD
1000
DSTYLE
1002
{
1070
             279
1070
               2
1070
             340
1005
33
1070
             147
1040
5.0
1002
}
  0
DIMENSION
  5
14B
100
AcDbEntity
  8
notes
370
               5
390
0
  6
Continuous
 62
               7
100
AcDbDimension
  2
*D15
 10
241.86310721996051
 20
-267.34938606496576
 30
0.0
 11
241.86310721996051
 21
-297.34939018407408
 31
0.0
 71
               5
 72
               1
 41
1.0
 42
0.0
  3
tform線あり
100
AcDbAlignedDimension
 13
347.62082270332667
 23
-327.34939430318241
 33
0.0
 14
348.26310721996015
 24
-267.34938606496576
 34
0.0
 50
90.0
100
AcDbRotatedDimension
1001
ACAD
1000
DSTYLE
1002
{
1070
             279
1070
               2
1070
             340
1005
33
1070
             147
1040
5.0
1002
}
  0
DIMENSION
  5
14C
100
AcDbEntity
  8
notes
370
               5
390
0
  6
Continuous
 62
               7
100
AcDbDimension
  2
*D16
 10
241.86310721996051
 20
-327.34939430318605
 30
0.0
 11
241.86310721996051
 21
-364.83780974281194
 31
0.0
 71
               5
 72
               1
 41
1.0
 42
0.0
  1
70
  3
tform線あり
100
AcDbAlignedDimension
 13
437.47415268847635
 23
-402.32622518243784
 33
0.0
 14
362.49732180922365
 24
-327.34939430318605
 34
0.0
 50
90.0
100
AcDbRotatedDimension
1001
ACAD
1000
DSTYLE
1002
{
1070
             279
1070
               2
1070
             340
1005
33
1070
             147
1040
5.0
1002
}
  0
LINE
  5
14D
100
AcDbEntity
  8
notes
370
               5
390
0
  6
Continuous
 62
               7
100
AcDbLine
 10
-681.0
 20
-327.32006874093054
 30
0.0
 11
-763.0
 21
-327.32006874093054
 31
0.0
  0
LINE
  5
14E
100
AcDbEntity
  8
notes
370
               5
390
0
  6
Continuous
 62
               7
100
AcDbLine
 10
-726.0
 20
-327.32006874093054
 30
0.0
 11
-726.0
 21
-457.00000000000023
 31
0.0
  0
MTEXT
  5
14F
100
AcDbEntity
  8
notes
390
0
 62
               7
100
AcDbMText
 10
-747.375
 20
-461.3760762423442
 30
0.0
 40
24.432617187500004
 41
0.0
 71
               1
 72
               1
  1
半埋め込み
  7
ＭＳ ゴシック
 73
               1
 44
0.7828267384257843
  0
DIMENSION
  5
150
100
AcDbEntity
  8
notes
370
               5
390
0
  6
Continuous
 62
               7
100
AcDbDimension
  2
*D17
 10
-777.2422924430075
 20
749.99999950462939
 30
0.0
 11
-777.2422924430075
 21
699.99999958067269
 31
0.0
 71
               5
 72
               1
 41
1.0
 42
0.0
  3
tform線あり
100
AcDbAlignedDimension
 13
-677.24229193425435
 23
649.99999965671623
 33
0.0
 14
-674.24229193517112
 24
749.99999950462939
 34
0.0
 50
90.0
100
AcDbRotatedDimension
1001
ACAD
1000
DSTYLE
1002
{
1070
             279
1070
               2
1070
             340
1005
33
1070
             147
1040
5.0
1002
}
  0
DIMENSION
  5
151
100
AcDbEntity
  8
notes
370
               5
390
0
  6
Continuous
 62
               7
100
AcDbDimension
  2
*D18
 10
-777.2422924430075
 20
649.99999965671623
 30
0.0
 11
-777.2422924430075
 21
549.99999965671623
 31
0.0
 71
               5
 72
               1
 41
1.0
 42
0.0
  3
tform線あり
100
AcDbAlignedDimension
 13
-662.0
 23
449.99999965671623
 33
0.0
 14
-677.24229193425435
 24
649.99999965671623
 34
0.0
 50
90.0
100
AcDbRotatedDimension
1001
ACAD
1000
DSTYLE
1002
{
1070
             279
1070
               2
1070
             340
1005
33
1070
             147
1040
5.0
1002
}
  0
LINE
  5
152
100
AcDbEntity
  8
ADF70-1710
370
              15
390
0
  6
Continuous
 62
               7
100
AcDbLine
 10
-624.53085998454208
 20
649.99999965671623
 30
0.0
 11
-309.9535028886703
 21
649.99999965671623
 31
0.0
  0
LINE
  5
153
100
AcDbEntity
  8
ADF70-1710
370
              15
390
0
  6
Continuous
 62
               7
100
AcDbLine
 10
-674.24229193517112
 20
749.99999950462939
 30
0.0
 11
-260.24229042891966
 21
749.99999980880307
 31
0.0
  0
ARC
  5
154
100
AcDbEntity
  8
ADF70-1710
370
              15
390
0
  6
Continuous
 62
               7
100
AcDbCircle
 10
-674.24229193425435
 20
746.99999950462939
 30
0.0
 40
3.0
100
AcDbArc
 50
90.000000017509038
 51
180.0
  0
LWPOLYLINE
  5
155
100
AcDbEntity
  8
ADF70-1710
370
              15
390
0
  6
Continuous
 62
               7
100
AcDbPolyline
 90
       50
 70
             128
 10
-662.41034169371505
 20
613.10027586502565
 42
-0.0110278090902509
 10
-662.37845928794741
 20
614.72195519946263
 10
-662.36708869281574
 20
614.9943927610982
 42
-0.0189830462152761
 10
-662.19468374548796
 20
617.1536960453443
 10
-662.16083150523809
 20
617.44014003394432
 42
-0.0139782059873414
 10
-661.86797798345378
 20
619.43740295568227
 42
-0.0139704478336228
 10
-661.46396192726024
 20
621.4153526873265
 42
-0.0139631925146346
 10
-660.95000843143225
 20
623.36809025451498
 42
-0.0139525041225995
 10
-660.32766933971288
 20
625.28973520781028
 42
-0.0139384315697063
 10
-659.59881952207161
 20
627.17451897713204
 42
-0.0139212751453657
 10
-658.76564557677193
 20
629.01680569890141
 42
-0.0139007070733825
 10
-657.83064051886777
 20
630.81109974045921
 42
-0.0138767991418499
 10
-656.79658390984059
 20
632.55208032705764
 42
-0.0138499931388991
 10
-655.6665270491776
 20
634.23461565220782
 42
-0.0138276780675748
 10
-654.44450542024879
 20
635.85286535363775
 10
-654.4437864638976
 20
635.85376459872714
 42
-0.0137958085559498
 10
-653.13278809967505
 20
637.40383143318923
 10
-653.13191327796994
 20
637.40480972071373
 42
-0.0137614239269114
 10
-651.73571806178825
 20
638.8822191323784
 10
-651.73468146272808
 20
638.88325725324739
 42
-0.0137246633236846
 10
-650.25729307774327
 20
640.28374740285267
 10
-650.25606909575436
 20
640.28484549426162
 42
-0.0136867236612693
 10
-648.70165510699462
 20
641.60441322839847
 10
-648.70022580360182
 20
641.60556078376158
 42
-0.0136476749294757
 10
-647.07311244412813
 20
642.84044508481588
 10
-647.07147558007637
 20
642.84161837236275
 42
-0.0136086230469196
 10
-645.37616091597829
 20
643.98827800310255
 10
-645.374274073577
 20
643.98948069772905
 42
-0.0135714602659383
 10
-643.61532554824043
 20
645.04464357931579
 10
-643.6131861007234
 20
645.04584927990709
 42
-0.0135362578892364
 10
-641.79530261025229
 20
646.00644806874175
 10
-641.79290930226671
 20
646.00763100072345
 42
-0.0135061329060826
 10
-639.92090831463884
 20
646.87079574060522
 10
-639.91820991173063
 20
646.87195263746889
 42
-0.0134818104425837
 10
-637.99691247921328
 20
647.63504040354997
 10
-637.99394191762622
 20
647.63612846480214
 42
-0.013466252329561
 10
-636.02833184139581
 20
648.29662939583818
 10
-636.02505570321591
 20
648.29763293711812
 42
-0.0134601098560762
 10
-634.02014221154059
 20
648.85321005456353
 10
-634.01656025303328
 20
648.85409956178341
 42
-0.0134732227038526
 10
-631.9774384493785
 20
649.30251614112171
 10
-631.90458277367543
 20
649.31649120842621
 42
-0.0135140756398478
 10
-629.97501505245145
 20
649.63281555977187
 10
-629.68399058418254
 20
649.67248167891762
 42
-0.0115131666978203
 10
-628.32438512567842
 20
649.82600073838148
 42
-0.0060875998453829
 10
-626.95995852478154
 20
649.93159613693865
 10
-626.75421661205655
 20
649.94500119583677
 42
-0.0168091264177867
 10
-624.97513847094706
 20
650.00096752769218
 10
-624.54754141988906
 20
650.00004074961726
 10
-624.53085998454208
 20
649.99999965671623
  0
LINE
  5
156
100
AcDbEntity
  8
ADF70-1710
370
              15
390
0
  6
Continuous
 62
               7
100
AcDbLine
 10
-662.41034169371505
 20
486.99999965671623
 30
0.0
 11
-662.41034169371505
 21
613.10027586502565
 31
0.0
  0
LWPOLYLINE
  5
157
100
AcDbEntity
  8
ADF70-1710
370
              15
390
0
  6
Continuous
 62
               7
100
AcDbPolyline
 90
       54
 70
             128
 10
-309.9535028886703
 20
649.99999965671623
 42
-0.0118332296383967
 10
-308.0873598632852
 20
649.96046636829305
 10
-307.99292334743132
 20
649.95622836283314
 42
-0.0144266816282274
 10
-305.96654686259353
 20
649.80661742712982
 10
-305.92763589695369
 20
649.8026130840301
 42
-0.0116337553544696
 10
-303.98910482591964
 20
649.55741998837448
 42
-0.0134819143047793
 10
-302.06550774634434
 20
649.21523902353488
 10
-301.99313764722956
 20
649.20034220192974
 42
-0.013465751320186
 10
-299.96210668159256
 20
648.72492563401602
 10
-299.95861872293335
 20
648.7240094552792
 42
-0.0134612629945778
 10
-297.96304219779904
 20
648.14198091083199
 10
-297.95983341254487
 20
648.14095054222844
 42
-0.0134693369309521
 10
-296.00484044415316
 20
647.45457256257146
 10
-296.00193474041407
 20
647.45346361961651
 42
-0.0134870679353446
 10
-294.0925155455534
 20
646.66511474821527
 10
-294.08990671903302
 20
646.66395432294189
 42
-0.0135132022935707
 10
-292.23097227860308
 20
645.77616250860638
 10
-292.22863109484297
 20
645.7749656675262
 42
-0.0135448019338521
 10
-290.42505223536409
 20
644.79045084306745
 10
-290.42298786633546
 20
644.78925028184858
 42
-0.0135803967358365
 10
-288.67950683576782
 20
643.71090631449488
 10
-288.67768434886875
 20
643.70970948685863
 42
-0.0136186249479063
 10
-286.99898984667016
 20
642.54066460821355
 10
-286.99739689695616
 20
642.5394895885197
 42
-0.013657342521265
 10
-285.3880601516139
 20
641.28309651879204
 10
-285.38669362815654
 20
641.28196829135186
 42
-0.0136962876554531
 10
-283.85113202410503
 20
639.94179407049614
 10
-283.84995283302578
 20
639.940706611623
 42
-0.0137342255077055
 10
-282.39248296339883
 20
638.52059443681424
 10
-282.391485533175
 20
638.51956768398099
 42
-0.0137700872048082
 10
-281.01623359830865
 20
637.02358516087679
 10
-281.01540399798068
 20
637.02263129884705
 42
-0.0138040866356921
 10
-279.72630422360544
 20
635.45507816571967
 10
-279.72561568257424
 20
635.45419213131663
 42
-0.0138353101098468
 10
-278.52641664428393
 20
633.81962565999584
 42
-0.0138702398378327
 10
-277.42006707623204
 20
632.12200495377397
 42
-0.0138947508140324
 10
-276.41050293010721
 20
630.367199558023
 42
-0.0139159395589761
 10
-275.50071391597248
 20
628.56039809888034
 42
-0.0139339659559076
 10
-274.69340734242905
 20
626.70696373212286
 10
-274.5988393352809
 20
626.47219269861671
 42
-0.0139452136625145
 10
-274.07217734362621
 20
625.05165248089929
 42
-0.0069790123673021
 10
-273.60533310128721
 20
623.61012685311402
 42
-0.0139623368755139
 10
-273.1994338331715
 20
622.15097068562341
 10
-273.13861699460631
 20
621.90605217981465
 42
-0.0139711145147709
 10
-272.70699133285689
 20
619.93383887941945
 10
-272.68490418132387
 20
619.81743460166399
 42
-0.0139785144693123
 10
-272.40179744219677
 20
618.05823018004753
 10
-272.3893673207258
 20
617.96432629930064
 42
-0.0107066744926389
 10
-272.21421515489783
 20
616.38126224461212
 42
-0.0113354518668297
 10
-272.10899882536887
 20
614.7920615097139
 10
-272.10783694969086
 20
614.76533206307477
 42
-0.0114348217420678
 10
-272.07397435017356
 20
613.11951225220173
 10
-272.07398144233048
 20
613.11642419473992
 10
-272.07402117949823
 20
613.10027586502565
  0
LINE
  5
158
100
AcDbEntity
  8
ADF70-1710
370
              15
390
0
  6
Continuous
 62
               7
100
AcDbLine
 10
-272.07402117949641
 20
613.10027586502565
 30
0.0
 11
-272.07402117949641
 21
487.0
 31
0.0
  0
ARC
  5
159
100
AcDbEntity
  8
ADF70-1710
370
              15
390
0
  6
Continuous
 62
               7
100
AcDbCircle
 10
-625.41034169371687
 20
486.99999965671623
 30
0.0
 40
37.0
100
AcDbArc
 50
180.0
 51
269.99999472873981
  0
LINE
  5
15A
100
AcDbEntity
  8
ADF70-1710
370
              15
390
0
  6
Continuous
 62
               7
100
AcDbLine
 10
-309.07424655415434
 20
449.99999965671623
 30
0.0
 11
-625.41034509774818
 21
449.99999965671623
 31
0.0
  0
LINE
  5
15B
100
AcDbEntity
  8
ADF70-1710
370
              15
390
0
  6
Continuous
 62
               7
100
AcDbLine
 10
-627.24229411958822
 20
429.99999965680422
 30
0.0
 11
-307.2422939765338
 21
429.99999965683196
 31
0.0
  0
ARC
  5
15C
100
AcDbEntity
  8
ADF70-1710
370
              15
390
0
  6
Continuous
 62
               7
100
AcDbCircle
 10
-627.24229193425435
 20
479.99999965680422
 30
0.0
 40
50.0
100
AcDbArc
 50
180.0
 51
269.99999749579183
  0
LINE
  5
15D
100
AcDbEntity
  8
ADF70-1710
370
              15
390
0
  6
Continuous
 62
               7
100
AcDbLine
 10
-677.24229193425435
 20
479.99999965680422
 30
0.0
 11
-677.24229193425435
 21
746.99999950462939
 31
0.0
  0
LINE
  5
15E
100
AcDbEntity
  8
ADF70-1710
370
              15
390
0
  6
Continuous
 62
               7
100
AcDbLine
 10
-257.24229616178127
 20
479.99999965680422
 30
0.0
 11
-257.24229049169844
 21
747.00061800746994
 31
0.0
  0
ARC
  5
15F
100
AcDbEntity
  8
ADF70-1710
370
              15
390
0
  6
Continuous
 62
               7
100
AcDbCircle
 10
-260.24229042800289
 20
746.99999980880307
 30
0.0
 40
3.0
100
AcDbArc
 50
0.0
 51
90.000000017509038
  0
CIRCLE
  5
160
100
AcDbEntity
  8
ADF70-1710
370
              15
390
0
  6
STYLE_12
 62
               7
100
AcDbCircle
 10
-467.24229197744626
 20
689.99999966957353
 30
0.0
 40
17.5
  0
CIRCLE
  5
161
100
AcDbEntity
  8
ADF70-1710
370
              15
390
0
  6
Continuous
 62
               7
100
AcDbCircle
 10
-467.24211030254355
 20
569.999999656716
 30
0.0
 40
22.499999999998181
  0
CIRCLE
  5
162
100
AcDbEntity
  8
ADF70-1710
370
              15
390
0
  6
Continuous
 62
               7
100
AcDbCircle
 10
-467.24211030254355
 20
569.999999656716
 30
0.0
 40
38.0
  0
SPLINE
  5
163
100
AcDbEntity
  8
ADF70-1710
370
              15
390
0
  6
Continuous
 62
               7
100
AcDbSpline
210
0.0
220
0.0
230
1.0
 70
               9
 71
               2
 72
              22
 73
              19
 74
               0
 42
0.000001
 43
0.000001
 40
0.0
 40
0.0
 40
0.0
 40
1.0
 40
2.0
 40
3.0
 40
3.0
 40
4.0
 40
5.0
 40
6.0
 40
7.0
 40
7.0
 40
8.0
 40
9.0
 40
10.0
 40
10.0
 40
11.0
 40
12.0
 40
13.0
 40
14.0
 40
14.0
 40
14.0
 10
-425.04368357490875
 20
646.66321557662741
 30
0.0
 10
-424.83993329602436
 20
646.39748050056915
 30
0.0
 10
-423.35723749596673
 20
646.08150265631048
 30
0.0
 10
-417.3815832529408
 20
645.52867020347321
 30
0.0
 10
-412.54368357490875
 20
645.56478588534083
 30
0.0
 10
-409.68176232611495
 20
645.56110170320744
 30
0.0
 10
-404.85449074510234
 20
645.76682893610723
 30
0.0
 10
-401.74269848439781
 20
646.08219042525343
 30
0.0
 10
-400.24743385379497
 20
646.39748050056869
 30
0.0
 10
-400.04368357490875
 20
646.66321557662741
 30
0.0
 10
-400.24743385379497
 20
646.92895065268613
 30
0.0
 10
-401.7301296538526
 20
647.24492849694388
 30
0.0
 10
-407.70578389688035
 20
647.79776094978115
 30
0.0
 10
-412.54368357490875
 20
647.76164526791354
 30
0.0
 10
-415.40560482370256
 20
647.76532945004601
 30
0.0
 10
-420.23287640471517
 20
647.55960221714668
 30
0.0
 10
-423.34466866542516
 20
647.24424072799729
 30
0.0
 10
-424.83993329602072
 20
646.92895065268613
 30
0.0
 10
-425.04368357490875
 20
646.66321557662741
 30
0.0
  0
ARC
  5
164
100
AcDbEntity
  8
ADF70-1710
370
              15
390
0
  6
Continuous
 62
               7
100
AcDbCircle
 10
-309.07424655415434
 20
486.99999965671623
 30
0.0
 40
37.000000000000156
100
AcDbArc
 50
270.00000527126019
 51
0.0
  0
ARC
  5
165
100
AcDbEntity
  8
ADF70-1710
370
              15
390
0
  6
Continuous
 62
               7
100
AcDbCircle
 10
-307.24229616178036
 20
479.99999965680422
 30
0.0
 40
50.00000000000005
100
AcDbArc
 50
270.00000250420811
 51
0.0
  0
LINE
  5
166
100
AcDbEntity
  8
ADF70-1710
370
              15
390
0
  6
Continuous
 62
               7
100
AcDbLine
 10
661.76636727520417
 20
-335.85989495845547
 30
0.0
 11
661.76635476959746
 21
-400.35990534286952
 31
0.0
  0
LINE
  5
167
100
AcDbEntity
  8
ADF70-1710
370
              15
390
0
  6
Continuous
 62
               7
100
AcDbLine
 10
661.76636727520417
 20
-335.85989495844819
 30
0.0
 11
661.76637013830077
 21
-270.35989508959369
 31
0.0
  0
ARC
  5
168
100
AcDbEntity
  8
ADF70-1710
370
              15
390
0
  6
Continuous
 62
               7
100
AcDbCircle
 10
515.9836566148515
 20
-424.99954479279199
 30
0.0
 40
2.4999361177656789
100
AcDbArc
 50
269.99865837578358
 51
355.00134162456641
  0
LINE
  5
169
100
AcDbEntity
  8
ADF70-1710
370
              15
390
0
  6
Continuous
 62
               7
100
AcDbLine
 10
515.98359807693851
 20
-427.49948090986959
 30
0.0
 11
504.77447611966636
 21
-427.49948090986959
 31
0.0
  0
LINE
  5
16A
100
AcDbEntity
  8
ADF70-1710
370
              15
390
0
  6
Continuous
 62
               7
100
AcDbLine
 10
518.56237005968433
 20
-424.20826538436972
 30
0.0
 11
518.47408482216633
 21
-425.21737026674032
 31
0.0
  0
LWPOLYLINE
  5
16B
100
AcDbEntity
  8
ADF70-1710
370
              15
390
0
  6
STYLE_12
 62
               7
100
AcDbPolyline
 90
        5
 70
             128
 10
557.95955522859913
 20
-272.83725059171297
 10
550.30660135198923
 20
-360.3109136717992
 42
-0.3788661086952304
 10
535.88717333114982
 20
-373.99443993586806
 10
527.75092803010921
 20
-374.26110349780788
 42
0.1673426090814724
 10
519.24049444832781
 20
-377.52795287241111
 42
0.1673426090814724
  0
LINE
  5
16C
100
AcDbEntity
  8
ADF70-1710
370
              15
390
0
  6
Continuous
 62
               7
100
AcDbLine
 10
563.93672341714682
 20
-267.36018504822891
 30
0.0
 11
658.76637013831169
 21
-267.35989495845911
 31
0.0
  0
LINE
  5
16D
100
AcDbEntity
  8
ADF70-1710
370
              15
390
0
  6
STYLE_12
 62
               7
100
AcDbLine
 10
519.24049444832781
 20
-377.52795287241111
 30
0.0
 11
505.95624682126436
 21
-388.67476015675288
 31
0.0
  0
ARC
  5
16E
100
AcDbEntity
  8
ADF70-1710
370
              15
390
0
  6
Continuous
 62
               7
100
AcDbCircle
 10
521.05293236099533
 20
-424.42623348922439
 30
0.0
 40
2.5001038880998578
100
AcDbArc
 50
106.25540506040693
 51
174.99839670553189
  0
POLYLINE
  5
16F
100
AcDbEntity
  8
ADF70-1710
370
              15
390
0
  6
Continuous
 62
               7
100
AcDb3dPolyline
 66
               1
 10
0.0
 20
0.0
 30
0.0
 70
               8
  0
VERTEX
  5
170
100
AcDbEntity
  8
ADF70-1710
370
              15
390
0
  6
Continuous
 62
               7
100
AcDbVertex
100
AcDb3dPolylineVertex
 10
563.93672341714682
 20
-267.36018504822891
 30
0.0
 70
              32
  0
VERTEX
  5
171
100
AcDbEntity
  8
ADF70-1710
370
              15
390
0
  6
Continuous
 62
               7
100
AcDbVertex
100
AcDb3dPolylineVertex
 10
562.83044209989475
 20
-267.46305509823628
 30
0.0
 70
              32
  0
VERTEX
  5
172
100
AcDbEntity
  8
ADF70-1710
370
              15
390
0
  6
Continuous
 62
               7
100
AcDbVertex
100
AcDb3dPolylineVertex
 10
561.76209518745145
 20
-267.76813783252942
 30
0.0
 70
              32
  0
VERTEX
  5
173
100
AcDbEntity
  8
ADF70-1710
370
              15
390
0
  6
Continuous
 62
               7
100
AcDbVertex
100
AcDb3dPolylineVertex
 10
560.76831631325422
 20
-268.26497195906336
 30
0.0
 70
              32
  0
VERTEX
  5
174
100
AcDbEntity
  8
ADF70-1710
370
              15
390
0
  6
Continuous
 62
               7
100
AcDbVertex
100
AcDb3dPolylineVertex
 10
559.88318217146389
 20
-268.93652102735791
 30
0.0
 70
              32
  0
VERTEX
  5
175
100
AcDbEntity
  8
ADF70-1710
370
              15
390
0
  6
Continuous
 62
               7
100
AcDbVertex
100
AcDb3dPolylineVertex
 10
559.13704402655731
 20
-269.75975760866709
 30
0.0
 70
              32
  0
VERTEX
  5
176
100
AcDbEntity
  8
ADF70-1710
370
              15
390
0
  6
Continuous
 62
               7
100
AcDbVertex
100
AcDb3dPolylineVertex
 10
558.55548696796086
 20
-270.70645290689458
 30
0.0
 70
              32
  0
VERTEX
  5
177
100
AcDbEntity
  8
ADF70-1710
370
              15
390
0
  6
Continuous
 62
               7
100
AcDbVertex
100
AcDb3dPolylineVertex
 10
558.15845259690741
 20
-271.74414472448439
 30
0.0
 70
              32
  0
VERTEX
  5
178
100
AcDbEntity
  8
ADF70-1710
370
              15
390
0
  6
Continuous
 62
               7
100
AcDbVertex
100
AcDb3dPolylineVertex
 10
557.95955522859913
 20
-272.83725059171297
 30
0.0
 70
              32
  0
SEQEND
  5
179
100
AcDbEntity
  8
ADF70-1710
370
              15
390
0
  6
Continuous
 62
               7
  0
POLYLINE
  5
17A
100
AcDbEntity
  8
ADF70-1710
370
              15
390
0
  6
Continuous
 62
               7
100
AcDb3dPolyline
 66
               1
 10
0.0
 20
0.0
 30
0.0
 70
               8
  0
VERTEX
  5
17B
100
AcDbEntity
  8
ADF70-1710
370
              15
390
0
  6
Continuous
 62
               7
100
AcDbVertex
100
AcDb3dPolylineVertex
 10
659.76635468217319
 20
-402.35990492251199
 30
0.0
 70
              32
  0
VERTEX
  5
17C
100
AcDbEntity
  8
ADF70-1710
370
              15
390
0
  6
Continuous
 62
               7
100
AcDbVertex
100
AcDb3dPolylineVertex
 10
660.15653528706662
 20
-402.32147550849345
 30
0.0
 70
              32
  0
VERTEX
  5
17D
100
AcDbEntity
  8
ADF70-1710
370
              15
390
0
  6
Continuous
 62
               7
100
AcDbVertex
100
AcDb3dPolylineVertex
 10
660.53172147665646
 20
-402.20766405284371
 30
0.0
 70
              32
  0
VERTEX
  5
17E
100
AcDbEntity
  8
ADF70-1710
370
              15
390
0
  6
Continuous
 62
               7
100
AcDbVertex
100
AcDb3dPolylineVertex
 10
660.87749505913234
 20
-402.02284426505389
 30
0.0
 70
              32
  0
VERTEX
  5
17F
100
AcDbEntity
  8
ADF70-1710
370
              15
390
0
  6
Continuous
 62
               7
100
AcDbVertex
100
AcDb3dPolylineVertex
 10
661.18056815243654
 20
-401.77411866441957
 30
0.0
 70
              32
  0
VERTEX
  5
180
100
AcDbEntity
  8
ADF70-1710
370
              15
390
0
  6
Continuous
 62
               7
100
AcDbVertex
100
AcDb3dPolylineVertex
 10
661.42929383002138
 20
-401.47104563426615
 30
0.0
 70
              32
  0
VERTEX
  5
181
100
AcDbEntity
  8
ADF70-1710
370
              15
390
0
  6
Continuous
 62
               7
100
AcDbVertex
100
AcDb3dPolylineVertex
 10
661.61411370560381
 20
-401.12527209871655
 30
0.0
 70
              32
  0
VERTEX
  5
182
100
AcDbEntity
  8
ADF70-1710
370
              15
390
0
  6
Continuous
 62
               7
100
AcDbVertex
100
AcDb3dPolylineVertex
 10
661.72792525651312
 20
-400.75008593802318
 30
0.0
 70
              32
  0
VERTEX
  5
183
100
AcDbEntity
  8
ADF70-1710
370
              15
390
0
  6
Continuous
 62
               7
100
AcDbVertex
100
AcDb3dPolylineVertex
 10
661.76635476959746
 20
-400.35990534288771
 30
0.0
 70
              32
  0
SEQEND
  5
184
100
AcDbEntity
  8
ADF70-1710
370
              15
390
0
  6
Continuous
 62
               7
  0
POLYLINE
  5
185
100
AcDbEntity
  8
ADF70-1710
370
              15
390
0
  6
Continuous
 62
               7
100
AcDb3dPolyline
 66
               1
 10
0.0
 20
0.0
 30
0.0
 70
               8
  0
VERTEX
  5
186
100
AcDbEntity
  8
ADF70-1710
370
              15
390
0
  6
Continuous
 62
               7
100
AcDbVertex
100
AcDb3dPolylineVertex
 10
661.76637013830077
 20
-270.35989508960097
 30
0.0
 70
              32
  0
VERTEX
  5
187
100
AcDbEntity
  8
ADF70-1710
370
              15
390
0
  6
Continuous
 62
               7
100
AcDbVertex
100
AcDb3dPolylineVertex
 10
661.70872600189796
 20
-269.77462410495605
 30
0.0
 70
              32
  0
VERTEX
  5
188
100
AcDbEntity
  8
ADF70-1710
370
              15
390
0
  6
Continuous
 62
               7
100
AcDbVertex
100
AcDb3dPolylineVertex
 10
661.53800877347567
 20
-269.21184475223595
 30
0.0
 70
              32
  0
VERTEX
  5
189
100
AcDbEntity
  8
ADF70-1710
370
              15
390
0
  6
Continuous
 62
               7
100
AcDbVertex
100
AcDb3dPolylineVertex
 10
661.26077902074758
 20
-268.69318432755404
 30
0.0
 70
              32
  0
VERTEX
  5
18A
100
AcDbEntity
  8
ADF70-1710
370
              15
390
0
  6
Continuous
 62
               7
100
AcDbVertex
100
AcDb3dPolylineVertex
 10
660.88769052823045
 20
-268.23857466126879
 30
0.0
 70
              32
  0
VERTEX
  5
18B
100
AcDbEntity
  8
ADF70-1710
370
              15
390
0
  6
Continuous
 62
               7
100
AcDbVertex
100
AcDb3dPolylineVertex
 10
660.43308087825608
 20
-267.86548614887738
 30
0.0
 70
              32
  0
VERTEX
  5
18C
100
AcDbEntity
  8
ADF70-1710
370
              15
390
0
  6
Continuous
 62
               7
100
AcDbVertex
100
AcDb3dPolylineVertex
 10
659.91442046569409
 20
-267.58825637347468
 30
0.0
 70
              32
  0
VERTEX
  5
18D
100
AcDbEntity
  8
ADF70-1710
370
              15
390
0
  6
Continuous
 62
               7
100
AcDbVertex
100
AcDb3dPolylineVertex
 10
659.3516411204364
 20
-267.41753912044965
 30
0.0
 70
              32
  0
VERTEX
  5
18E
100
AcDbEntity
  8
ADF70-1710
370
              15
390
0
  6
Continuous
 62
               7
100
AcDbVertex
100
AcDb3dPolylineVertex
 10
658.76637013831169
 20
-267.35989495845911
 30
0.0
 70
              32
  0
SEQEND
  5
18F
100
AcDbEntity
  8
ADF70-1710
370
              15
390
0
  6
Continuous
 62
               7
  0
LINE
  5
190
100
AcDbEntity
  8
ADF70-1710
370
              15
390
0
  6
STYLE_12
 62
               7
100
AcDbLine
 10
504.77474521593467
 20
-427.48378030839535
 30
0.0
 11
505.42064850225142
 21
-389.79812174699123
 31
0.0
  0
LINE
  5
191
100
AcDbEntity
  8
ADF70-1710
370
              15
390
0
  6
Continuous
 62
               7
100
AcDbLine
 10
504.77447611966636
 20
-427.49948090986959
 30
0.0
 11
458.77437590429327
 21
-427.49948090987323
 31
0.0
  0
POLYLINE
  5
192
100
AcDbEntity
  8
ADF70-1710
370
              15
390
0
  6
Continuous
 62
               7
100
AcDb3dPolyline
 66
               1
 10
0.0
 20
0.0
 30
0.0
 70
               8
  0
VERTEX
  5
193
100
AcDbEntity
  8
ADF70-1710
370
              15
390
0
  6
Continuous
 62
               7
100
AcDbVertex
100
AcDb3dPolylineVertex
 10
505.956246821268
 20
-388.67476015675288
 30
0.0
 70
              32
  0
VERTEX
  5
194
100
AcDbEntity
  8
ADF70-1710
370
              15
390
0
  6
Continuous
 62
               7
100
AcDbVertex
100
AcDb3dPolylineVertex
 10
505.83910681028829
 20
-388.78423845350039
 30
0.0
 70
              32
  0
VERTEX
  5
195
100
AcDbEntity
  8
ADF70-1710
370
              15
390
0
  6
Continuous
 62
               7
100
AcDbVertex
100
AcDb3dPolylineVertex
 10
505.73432139142278
 20
-388.90559452308275
 30
0.0
 70
              32
  0
VERTEX
  5
196
100
AcDbEntity
  8
ADF70-1710
370
              15
390
0
  6
Continuous
 62
               7
100
AcDbVertex
100
AcDb3dPolylineVertex
 10
505.64308778603481
 20
-389.0374418168683
 30
0.0
 70
              32
  0
VERTEX
  5
197
100
AcDbEntity
  8
ADF70-1710
370
              15
390
0
  6
Continuous
 62
               7
100
AcDbVertex
100
AcDb3dPolylineVertex
 10
505.56644837981185
 20
-389.17827391919286
 30
0.0
 70
              32
  0
VERTEX
  5
198
100
AcDbEntity
  8
ADF70-1710
370
              15
390
0
  6
Continuous
 62
               7
100
AcDbVertex
100
AcDb3dPolylineVertex
 10
505.50527881304515
 20
-389.32648175883855
 30
0.0
 70
              32
  0
VERTEX
  5
199
100
AcDbEntity
  8
ADF70-1710
370
              15
390
0
  6
Continuous
 62
               7
100
AcDbVertex
100
AcDb3dPolylineVertex
 10
505.46027797602437
 20
-389.48037199341684
 30
0.0
 70
              32
  0
VERTEX
  5
19A
100
AcDbEntity
  8
ADF70-1710
370
              15
390
0
  6
Continuous
 62
               7
100
AcDbVertex
100
AcDb3dPolylineVertex
 10
505.43196002390687
 20
-389.63818635657458
 30
0.0
 70
              32
  0
VERTEX
  5
19B
100
AcDbEntity
  8
ADF70-1710
370
              15
390
0
  6
Continuous
 62
               7
100
AcDbVertex
100
AcDb3dPolylineVertex
 10
505.42064850225324
 20
-389.79812174699487
 30
0.0
 70
              32
  0
SEQEND
  5
19C
100
AcDbEntity
  8
ADF70-1710
370
              15
390
0
  6
Continuous
 62
               7
  0
LINE
  5
19D
100
AcDbEntity
  8
ADF70-1710
370
              15
390
0
  6
STYLE_12
 62
               7
100
AcDbLine
 10
505.44523336183556
 20
-389.06895357502231
 30
0.0
 11
458.10361866212406
 21
-389.06895357502231
 31
0.0
  0
LINE
  5
19E
100
AcDbEntity
  8
ADF70-1710
370
              15
390
0
  6
STYLE_12
 62
               7
100
AcDbLine
 10
518.93652960950567
 20
-377.7484118694972
 30
0.0
 11
444.61235279629545
 21
-377.74841186950084
 31
0.0
  0
ARC
  5
19F
100
AcDbEntity
  8
ADF70-1710
370
              15
390
0
  6
Continuous
 62
               7
100
AcDbCircle
 10
447.56492631285073
 20
-424.98384419131412
 30
0.0
 40
2.4999361177700505
100
AcDbArc
 50
184.99865837584164
 51
270.00134162409137
  0
LINE
  5
1A0
100
AcDbEntity
  8
ADF70-1710
370
              15
390
0
  6
Continuous
 62
               7
100
AcDbLine
 10
458.77410680802495
 20
-427.48378030839535
 30
0.0
 11
447.56498485075281
 21
-427.48378030839535
 31
0.0
  0
LINE
  5
1A1
100
AcDbEntity
  8
ADF70-1710
370
              15
390
0
  6
Continuous
 62
               7
100
AcDbLine
 10
445.07449810552498
 20
-425.20166966526244
 30
0.0
 11
443.07315604016549
 21
-402.32622518243966
 31
0.0
  0
LINE
  5
1A2
100
AcDbEntity
  8
ADF70-1710
370
              15
390
0
  6
STYLE_12
 62
               7
100
AcDbLine
 10
457.59233610642696
 20
-388.65905955527501
 30
0.0
 11
444.01310297985401
 21
-377.26473004709783
 31
0.0
  0
LINE
  5
1A3
100
AcDbEntity
  8
ADF70-1710
370
              15
390
0
  6
STYLE_12
 62
               7
100
AcDbLine
 10
458.12793442543989
 20
-389.78242114551335
 30
0.0
 11
458.77410680802495
 21
-427.48378030839535
 31
0.0
  0
POLYLINE
  5
1A4
100
AcDbEntity
  8
ADF70-1710
370
              15
390
0
  6
Continuous
 62
               7
100
AcDb3dPolyline
 66
               1
 10
0.0
 20
0.0
 30
0.0
 70
               8
  0
VERTEX
  5
1A5
100
AcDbEntity
  8
ADF70-1710
370
              15
390
0
  6
Continuous
 62
               7
100
AcDbVertex
100
AcDb3dPolylineVertex
 10
444.01310297984764
 20
-377.26473004709328
 30
0.0
 70
              32
  0
VERTEX
  5
1A6
100
AcDbEntity
  8
ADF70-1710
370
              15
390
0
  6
Continuous
 62
               7
100
AcDbVertex
100
AcDb3dPolylineVertex
 10
443.14396609848518
 20
-376.58822226335337
 30
0.0
 70
              32
  0
VERTEX
  5
1A7
100
AcDbEntity
  8
ADF70-1710
370
              15
390
0
  6
Continuous
 62
               7
100
AcDbVertex
100
AcDb3dPolylineVertex
 10
442.22753233358708
 20
-375.9773124053861
 30
0.0
 70
              32
  0
VERTEX
  5
1A8
100
AcDbEntity
  8
ADF70-1710
370
              15
390
0
  6
Continuous
 62
               7
100
AcDbVertex
100
AcDb3dPolylineVertex
 10
441.26874253271217
 20
-375.43529412364092
 30
0.0
 70
              32
  0
VERTEX
  5
1A9
100
AcDbEntity
  8
ADF70-1710
370
              15
390
0
  6
Continuous
 62
               7
100
AcDbVertex
100
AcDb3dPolylineVertex
 10
440.27276590113252
 20
-374.96508964753207
 30
0.0
 70
              32
  0
VERTEX
  5
1AA
100
AcDbEntity
  8
ADF70-1710
370
              15
390
0
  6
Continuous
 62
               7
100
AcDbVertex
100
AcDb3dPolylineVertex
 10
439.24497213265022
 20
-374.56923403057476
 30
0.0
 70
              32
  0
VERTEX
  5
1AB
100
AcDbEntity
  8
ADF70-1710
370
              15
390
0
  6
Continuous
 62
               7
100
AcDbVertex
100
AcDb3dPolylineVertex
 10
438.19090245951611
 20
-374.24986148293715
 30
0.0
 70
              32
  0
VERTEX
  5
1AC
100
AcDbEntity
  8
ADF70-1710
370
              15
390
0
  6
Continuous
 62
               7
100
AcDbVertex
100
AcDb3dPolylineVertex
 10
437.11623977750423
 20
-374.00869386508907
 30
0.0
 70
              32
  0
VERTEX
  5
1AD
100
AcDbEntity
  8
ADF70-1710
370
              15
390
0
  6
Continuous
 62
               7
100
AcDbVertex
100
AcDb3dPolylineVertex
 10
436.02677800723905
 20
-373.84703140458691
 30
0.0
 70
              32
  0
SEQEND
  5
1AE
100
AcDbEntity
  8
ADF70-1710
370
              15
390
0
  6
Continuous
 62
               7
  0
ARC
  5
1AF
100
AcDbEntity
  8
ADF70-1710
370
              15
390
0
  6
Continuous
 62
               7
100
AcDbCircle
 10
456.62815469189809
 20
-389.80812621995369
 30
0.0
 40
1.4999999999999882
100
AcDbArc
 50
0.9819095812753509
 51
50.000000000032934
  0
LINE
  5
1B0
100
AcDbEntity
  8
ADF70-1710
370
              15
390
0
  6
Continuous
 62
               7
100
AcDbLine
 10
342.6215842275451
 20
-322.43665633536671
 30
0.0
 11
341.76659053946969
 21
-273.45410074983533
 31
0.0
  0
LINE
  5
1B1
100
AcDbEntity
  8
ADF70-1710
370
              15
390
0
  6
Continuous
 62
               7
100
AcDbLine
 10
347.62082270332667
 20
-327.34939430318241
 30
0.0
 11
350.74774837151745
 21
-327.34939430318241
 31
0.0
  0
ARC
  5
1B2
100
AcDbEntity
  8
ADF70-1710
370
              15
390
0
  6
Continuous
 62
               7
100
AcDbCircle
 10
347.62082270332667
 20
-322.34939430318241
 30
0.0
 40
4.9999999999995737
100
AcDbArc
 50
180.99999999997578
 51
270.0
  0
LINE
  5
1B3
100
AcDbEntity
  8
ADF70-1710
370
              15
390
0
  6
STYLE_12
 62
               7
100
AcDbLine
 10
348.76053748752565
 20
-267.34938606496576
 30
0.0
 11
347.76567695239282
 21
-267.34938606496576
 31
0.0
  0
POLYLINE
  5
1B4
100
AcDbEntity
  8
ADF70-1710
370
              15
390
0
  6
Continuous
 62
               7
100
AcDb3dPolyline
 66
               1
 10
0.0
 20
0.0
 30
0.0
 70
               8
  0
VERTEX
  5
1B5
100
AcDbEntity
  8
ADF70-1710
370
              15
390
0
  6
Continuous
 62
               7
100
AcDbVertex
100
AcDb3dPolylineVertex
 10
353.96983816211923
 20
-269.67357678828171
 30
0.0
 70
              32
  0
VERTEX
  5
1B6
100
AcDbEntity
  8
ADF70-1710
370
              15
390
0
  6
Continuous
 62
               7
100
AcDbVertex
100
AcDb3dPolylineVertex
 10
353.45153350727378
 20
-269.15375809181364
 30
0.0
 70
              32
  0
VERTEX
  5
1B7
100
AcDbEntity
  8
ADF70-1710
370
              15
390
0
  6
Continuous
 62
               7
100
AcDbVertex
100
AcDb3dPolylineVertex
 10
352.88164234661326
 20
-268.69107541715016
 30
0.0
 70
              32
  0
VERTEX
  5
1B8
100
AcDbEntity
  8
ADF70-1710
370
              15
390
0
  6
Continuous
 62
               7
100
AcDbVertex
100
AcDb3dPolylineVertex
 10
352.26643171612704
 20
-268.29061683930536
 30
0.0
 70
              32
  0
VERTEX
  5
1B9
100
AcDbEntity
  8
ADF70-1710
370
              15
390
0
  6
Continuous
 62
               7
100
AcDbVertex
100
AcDb3dPolylineVertex
 10
351.61266702547618
 20
-267.95678616113287
 30
0.0
 70
              32
  0
VERTEX
  5
1BA
100
AcDbEntity
  8
ADF70-1710
370
              15
390
0
  6
Continuous
 62
               7
100
AcDbVertex
100
AcDb3dPolylineVertex
 10
350.92753765945326
 20
-267.69325448515042
 30
0.0
 70
              32
  0
VERTEX
  5
1BB
100
AcDbEntity
  8
ADF70-1710
370
              15
390
0
  6
Continuous
 62
               7
100
AcDbVertex
100
AcDb3dPolylineVertex
 10
350.21857791704861
 20
-267.50291984279261
 30
0.0
 70
              32
  0
VERTEX
  5
1BC
100
AcDbEntity
  8
ADF70-1710
370
              15
390
0
  6
Continuous
 62
               7
100
AcDbVertex
100
AcDb3dPolylineVertex
 10
349.49358415750976
 20
-267.38787532504989
 30
0.0
 70
              32
  0
VERTEX
  5
1BD
100
AcDbEntity
  8
ADF70-1710
370
              15
390
0
  6
Continuous
 62
               7
100
AcDbVertex
100
AcDb3dPolylineVertex
 10
348.76052906456607
 20
-267.34938606495666
 30
0.0
 70
              32
  0
SEQEND
  5
1BE
100
AcDbEntity
  8
ADF70-1710
370
              15
390
0
  6
Continuous
 62
               7
  0
POLYLINE
  5
1BF
100
AcDbEntity
  8
ADF70-1710
370
              15
390
0
  6
Continuous
 62
               7
100
AcDb3dPolyline
 66
               1
 10
0.0
 20
0.0
 30
0.0
 70
               8
  0
VERTEX
  5
1C0
100
AcDbEntity
  8
ADF70-1710
370
              15
390
0
  6
Continuous
 62
               7
100
AcDbVertex
100
AcDb3dPolylineVertex
 10
347.76567695237645
 20
-267.34938606496394
 30
0.0
 70
              32
  0
VERTEX
  5
1C1
100
AcDbEntity
  8
ADF70-1710
370
              15
390
0
  6
Continuous
 62
               7
100
AcDbVertex
100
AcDb3dPolylineVertex
 10
346.58230579774317
 20
-267.46725739331009
 30
0.0
 70
              32
  0
VERTEX
  5
1C2
100
AcDbEntity
  8
ADF70-1710
370
              15
390
0
  6
Continuous
 62
               7
100
AcDbVertex
100
AcDb3dPolylineVertex
 10
345.44542560377158
 20
-267.81620490257387
 30
0.0
 70
              32
  0
VERTEX
  5
1C3
100
AcDbEntity
  8
ADF70-1710
370
              15
390
0
  6
Continuous
 62
               7
100
AcDbVertex
100
AcDb3dPolylineVertex
 10
344.39969739841399
 20
-268.38252059208003
 30
0.0
 70
              32
  0
VERTEX
  5
1C4
100
AcDbEntity
  8
ADF70-1710
370
              15
390
0
  6
Continuous
 62
               7
100
AcDbVertex
100
AcDb3dPolylineVertex
 10
343.48620140881394
 20
-269.14395740275427
 30
0.0
 70
              32
  0
VERTEX
  5
1C5
100
AcDbEntity
  8
ADF70-1710
370
              15
390
0
  6
Continuous
 62
               7
100
AcDbVertex
100
AcDb3dPolylineVertex
 10
342.74082327194719
 20
-270.07060316718866
 30
0.0
 70
              32
  0
VERTEX
  5
1C6
100
AcDbEntity
  8
ADF70-1710
370
              15
390
0
  6
Continuous
 62
               7
100
AcDbVertex
100
AcDb3dPolylineVertex
 10
342.19284430872995
 20
-271.12605567466358
 30
0.0
 70
              32
  0
VERTEX
  5
1C7
100
AcDbEntity
  8
ADF70-1710
370
              15
390
0
  6
Continuous
 62
               7
100
AcDbVertex
100
AcDb3dPolylineVertex
 10
341.86379124108225
 20
-272.26885269003174
 30
0.0
 70
              32
  0
VERTEX
  5
1C8
100
AcDbEntity
  8
ADF70-1710
370
              15
390
0
  6
Continuous
 62
               7
100
AcDbVertex
100
AcDb3dPolylineVertex
 10
341.76659053947151
 20
-273.45410074983624
 30
0.0
 70
              32
  0
SEQEND
  5
1C9
100
AcDbEntity
  8
ADF70-1710
370
              15
390
0
  6
Continuous
 62
               7
  0
LWPOLYLINE
  5
1CA
100
AcDbEntity
  8
ADF70-1710
370
              15
390
0
  6
STYLE_12
 62
               7
100
AcDbPolyline
 90
        4
 70
             128
 10
353.96983816212014
 20
-269.67357678828171
 10
412.7451073228367
 20
-364.4980734040771
 42
0.2121199024854679
 10
422.81159593014672
 20
-371.35362245195279
 10
436.02677800723905
 20
-373.84703140458691
  0
ARC
  5
1CB
100
AcDbEntity
  8
ADF70-1710
370
              15
390
0
  6
Continuous
 62
               7
100
AcDbCircle
 10
506.92069733206154
 20
-389.80812621995369
 30
0.0
 40
1.499999999999561
100
AcDbArc
 50
129.99999999996709
 51
179.01809041872465
  0
LINE
  5
1CC
100
AcDbEntity
  8
ADF70-1710
370
              15
390
0
  6
Continuous
 62
               7
100
AcDbLine
 10
-676.14443677454892
 20
-322.40733077311484
 30
0.0
 11
-676.99943046262433
 21
-273.42477518758028
 31
0.0
  0
ARC
  5
1CD
100
AcDbEntity
  8
ADF70-1710
370
              15
390
0
  6
Continuous
 62
               7
100
AcDbCircle
 10
-671.14519829876826
 20
-322.32006874093054
 30
0.0
 40
4.9999999999986642
100
AcDbArc
 50
180.99999999997598
 51
270.0
  0
LINE
  5
1CE
100
AcDbEntity
  8
ADF70-1710
370
              15
390
0
  6
Continuous
 62
               7
100
AcDbLine
 10
-343.4673531483777
 20
-402.32005885725607
 30
0.0
 11
-591.01723494774251
 21
-402.32005885725562
 31
0.0
  0
LINE
  5
1CF
100
AcDbEntity
  8
ADF70-1710
370
              15
390
0
  6
Continuous
 62
               7
100
AcDbLine
 10
-505.91862138929901
 20
-402.32005885725607
 30
0.0
 11
-503.97099516720482
 21
-424.58152769141702
 31
0.0
  0
POLYLINE
  5
1D0
100
AcDbEntity
  8
ADF70-1710
370
              15
390
0
  6
Continuous
 62
               7
100
AcDb3dPolyline
 66
               1
 10
0.0
 20
0.0
 30
0.0
 70
               8
  0
VERTEX
  5
1D1
100
AcDbEntity
  8
ADF70-1710
370
              15
390
0
  6
Continuous
 62
               7
100
AcDbVertex
100
AcDb3dPolylineVertex
 10
-503.97099515578157
 20
-424.58152769142976
 30
0.0
 70
              32
  0
VERTEX
  5
1D2
100
AcDbEntity
  8
ADF70-1710
370
              15
390
0
  6
Continuous
 62
               7
100
AcDbVertex
100
AcDb3dPolylineVertex
 10
-503.87154575065688
 20
-425.12808029687699
 30
0.0
 70
              32
  0
VERTEX
  5
1D3
100
AcDbEntity
  8
ADF70-1710
370
              15
390
0
  6
Continuous
 62
               7
100
AcDbVertex
100
AcDb3dPolylineVertex
 10
-503.67302811807713
 20
-425.646925827122
 30
0.0
 70
              32
  0
VERTEX
  5
1D4
100
AcDbEntity
  8
ADF70-1710
370
              15
390
0
  6
Continuous
 62
               7
100
AcDbVertex
100
AcDb3dPolylineVertex
 10
-503.38224940260534
 20
-426.12027313442354
 30
0.0
 70
              32
  0
VERTEX
  5
1D5
100
AcDbEntity
  8
ADF70-1710
370
              15
390
0
  6
Continuous
 62
               7
100
AcDbVertex
100
AcDb3dPolylineVertex
 10
-503.00918036969324
 20
-426.53189119936019
 30
0.0
 70
              32
  0
VERTEX
  5
1D6
100
AcDbEntity
  8
ADF70-1710
370
              15
390
0
  6
Continuous
 62
               7
100
AcDbVertex
100
AcDb3dPolylineVertex
 10
-502.56661350938793
 20
-426.86766569044153
 30
0.0
 70
              32
  0
VERTEX
  5
1D7
100
AcDbEntity
  8
ADF70-1710
370
              15
390
0
  6
Continuous
 62
               7
100
AcDbVertex
100
AcDb3dPolylineVertex
 10
-502.06972438346929
 20
-427.1160829427497
 30
0.0
 70
              32
  0
VERTEX
  5
1D8
100
AcDbEntity
  8
ADF70-1710
370
              15
390
0
  6
Continuous
 62
               7
100
AcDbVertex
100
AcDb3dPolylineVertex
 10
-501.53555125734601
 20
-427.26862476005977
 30
0.0
 70
              32
  0
VERTEX
  5
1D9
100
AcDbEntity
  8
ADF70-1710
370
              15
390
0
  6
Continuous
 62
               7
100
AcDbVertex
100
AcDb3dPolylineVertex
 10
-500.98241086008875
 20
-427.32006050271025
 30
0.0
 70
              32
  0
SEQEND
  5
1DA
100
AcDbEntity
  8
ADF70-1710
370
              15
390
0
  6
Continuous
 62
               7
  0
LINE
  5
1DB
100
AcDbEntity
  8
ADF70-1710
370
              15
390
0
  6
Continuous
 62
               7
100
AcDbLine
 10
-670.50291378213387
 20
-267.32006050271116
 30
0.0
 11
-263.98167431398724
 21
-267.32006050271252
 31
0.0
  0
LINE
  5
1DC
100
AcDbEntity
  8
ADF70-1710
370
              15
390
0
  6
Continuous
 62
               7
100
AcDbLine
 10
-670.00548351456837
 20
-267.32006050271116
 30
0.0
 11
-671.0003440497012
 21
-267.32006050271116
 31
0.0
  0
POLYLINE
  5
1DD
100
AcDbEntity
  8
ADF70-1710
370
              15
390
0
  6
Continuous
 62
               7
100
AcDb3dPolyline
 66
               1
 10
0.0
 20
0.0
 30
0.0
 70
               8
  0
VERTEX
  5
1DE
100
AcDbEntity
  8
ADF70-1710
370
              15
390
0
  6
Continuous
 62
               7
100
AcDbVertex
100
AcDb3dPolylineVertex
 10
-671.00034404972484
 20
-267.32006050270888
 30
0.0
 70
              32
  0
VERTEX
  5
1DF
100
AcDbEntity
  8
ADF70-1710
370
              15
390
0
  6
Continuous
 62
               7
100
AcDbVertex
100
AcDb3dPolylineVertex
 10
-672.1837152043563
 20
-267.4379318310564
 30
0.0
 70
              32
  0
VERTEX
  5
1E0
100
AcDbEntity
  8
ADF70-1710
370
              15
390
0
  6
Continuous
 62
               7
100
AcDbVertex
100
AcDb3dPolylineVertex
 10
-673.32059539832608
 20
-267.78687934032018
 30
0.0
 70
              32
  0
VERTEX
  5
1E1
100
AcDbEntity
  8
ADF70-1710
370
              15
390
0
  6
Continuous
 62
               7
100
AcDbVertex
100
AcDb3dPolylineVertex
 10
-674.36632360368367
 20
-268.35319502982634
 30
0.0
 70
              32
  0
VERTEX
  5
1E2
100
AcDbEntity
  8
ADF70-1710
370
              15
390
0
  6
Continuous
 62
               7
100
AcDbVertex
100
AcDb3dPolylineVertex
 10
-675.2798195932819
 20
-269.11463184050012
 30
0.0
 70
              32
  0
VERTEX
  5
1E3
100
AcDbEntity
  8
ADF70-1710
370
              15
390
0
  6
Continuous
 62
               7
100
AcDbVertex
100
AcDb3dPolylineVertex
 10
-676.02519773014774
 20
-270.04127760493452
 30
0.0
 70
              32
  0
VERTEX
  5
1E4
100
AcDbEntity
  8
ADF70-1710
370
              15
390
0
  6
Continuous
 62
               7
100
AcDbVertex
100
AcDb3dPolylineVertex
 10
-676.57317669336499
 20
-271.09673011240898
 30
0.0
 70
              32
  0
VERTEX
  5
1E5
100
AcDbEntity
  8
ADF70-1710
370
              15
390
0
  6
Continuous
 62
               7
100
AcDbVertex
100
AcDb3dPolylineVertex
 10
-676.90222976101268
 20
-272.23952712777668
 30
0.0
 70
              32
  0
VERTEX
  5
1E6
100
AcDbEntity
  8
ADF70-1710
370
              15
390
0
  6
Continuous
 62
               7
100
AcDbVertex
100
AcDb3dPolylineVertex
 10
-676.99943046262433
 20
-273.42477518758028
 30
0.0
 70
              32
  0
SEQEND
  5
1E7
100
AcDbEntity
  8
ADF70-1710
370
              15
390
0
  6
Continuous
 62
               7
  0
POLYLINE
  5
1E8
100
AcDbEntity
  8
ADF70-1710
370
              15
390
0
  6
Continuous
 62
               7
100
AcDb3dPolyline
 66
               1
 10
0.0
 20
0.0
 30
0.0
 70
               8
  0
VERTEX
  5
1E9
100
AcDbEntity
  8
ADF70-1710
370
              15
390
0
  6
Continuous
 62
               7
100
AcDbVertex
100
AcDb3dPolylineVertex
 10
-503.9709951506793
 20
-424.58152769143112
 30
0.0
 70
              32
  0
VERTEX
  5
1EA
100
AcDbEntity
  8
ADF70-1710
370
              15
390
0
  6
Continuous
 62
               7
100
AcDbVertex
100
AcDb3dPolylineVertex
 10
-503.87154574555461
 20
-425.12808029687835
 30
0.0
 70
              32
  0
VERTEX
  5
1EB
100
AcDbEntity
  8
ADF70-1710
370
              15
390
0
  6
Continuous
 62
               7
100
AcDbVertex
100
AcDb3dPolylineVertex
 10
-503.67302811297486
 20
-425.64692582712337
 30
0.0
 70
              32
  0
VERTEX
  5
1EC
100
AcDbEntity
  8
ADF70-1710
370
              15
390
0
  6
Continuous
 62
               7
100
AcDbVertex
100
AcDb3dPolylineVertex
 10
-503.38224939750307
 20
-426.12027313442491
 30
0.0
 70
              32
  0
VERTEX
  5
1ED
100
AcDbEntity
  8
ADF70-1710
370
              15
390
0
  6
Continuous
 62
               7
100
AcDbVertex
100
AcDb3dPolylineVertex
 10
-503.00918036459097
 20
-426.53189119936155
 30
0.0
 70
              32
  0
VERTEX
  5
1EE
100
AcDbEntity
  8
ADF70-1710
370
              15
390
0
  6
Continuous
 62
               7
100
AcDbVertex
100
AcDb3dPolylineVertex
 10
-502.56661350428567
 20
-426.86766569044289
 30
0.0
 70
              32
  0
VERTEX
  5
1EF
100
AcDbEntity
  8
ADF70-1710
370
              15
390
0
  6
Continuous
 62
               7
100
AcDbVertex
100
AcDb3dPolylineVertex
 10
-502.06972437836703
 20
-427.11608294275106
 30
0.0
 70
              32
  0
VERTEX
  5
1F0
100
AcDbEntity
  8
ADF70-1710
370
              15
390
0
  6
Continuous
 62
               7
100
AcDbVertex
100
AcDb3dPolylineVertex
 10
-501.53555125224375
 20
-427.26862476006113
 30
0.0
 70
              32
  0
VERTEX
  5
1F1
100
AcDbEntity
  8
ADF70-1710
370
              15
390
0
  6
Continuous
 62
               7
100
AcDbVertex
100
AcDb3dPolylineVertex
 10
-500.98241085498648
 20
-427.32006050271161
 30
0.0
 70
              32
  0
SEQEND
  5
1F2
100
AcDbEntity
  8
ADF70-1710
370
              15
390
0
  6
Continuous
 62
               7
  0
LINE
  5
1F3
100
AcDbEntity
  8
ADF70-1710
370
              15
390
0
  6
Continuous
 62
               7
100
AcDbLine
 10
-500.98241085498648
 20
-427.32006050271161
 30
0.0
 11
-433.48040187033439
 21
-427.32006050271161
 31
0.0
  0
LINE
  5
1F4
100
AcDbEntity
  8
ADF70-1710
370
              15
390
0
  6
Continuous
 62
               7
100
AcDbLine
 10
-258.31837595077195
 20
-322.40733077311484
 30
0.0
 11
-257.46338226269654
 21
-273.42477518758028
 31
0.0
  0
ARC
  5
1F5
100
AcDbEntity
  8
ADF70-1710
370
              15
390
0
  6
Continuous
 62
               7
100
AcDbCircle
 10
-263.31761442655443
 20
-322.32006874093054
 30
0.0
 40
5.0
100
AcDbArc
 50
270.0
 51
359.00000000002399
  0
LINE
  5
1F6
100
AcDbEntity
  8
ADF70-1710
370
              15
390
0
  6
Continuous
 62
               7
100
AcDbLine
 10
-428.54419133602005
 20
-402.32005885725607
 30
0.0
 11
-430.49181755811514
 21
-424.58152769141702
 31
0.0
  0
POLYLINE
  5
1F7
100
AcDbEntity
  8
ADF70-1710
370
              15
390
0
  6
Continuous
 62
               7
100
AcDb3dPolyline
 66
               1
 10
0.0
 20
0.0
 30
0.0
 70
               8
  0
VERTEX
  5
1F8
100
AcDbEntity
  8
ADF70-1710
370
              15
390
0
  6
Continuous
 62
               7
100
AcDbVertex
100
AcDb3dPolylineVertex
 10
-433.48040186523122
 20
-427.32006050271025
 30
0.0
 70
              32
  0
VERTEX
  5
1F9
100
AcDbEntity
  8
ADF70-1710
370
              15
390
0
  6
Continuous
 62
               7
100
AcDbVertex
100
AcDb3dPolylineVertex
 10
-432.92726146797395
 20
-427.26862476005977
 30
0.0
 70
              32
  0
VERTEX
  5
1FA
100
AcDbEntity
  8
ADF70-1710
370
              15
390
0
  6
Continuous
 62
               7
100
AcDbVertex
100
AcDb3dPolylineVertex
 10
-432.39308834185067
 20
-427.1160829427497
 30
0.0
 70
              32
  0
VERTEX
  5
1FB
100
AcDbEntity
  8
ADF70-1710
370
              15
390
0
  6
Continuous
 62
               7
100
AcDbVertex
100
AcDb3dPolylineVertex
 10
-431.89619921593203
 20
-426.86766569044153
 30
0.0
 70
              32
  0
VERTEX
  5
1FC
100
AcDbEntity
  8
ADF70-1710
370
              15
390
0
  6
Continuous
 62
               7
100
AcDbVertex
100
AcDb3dPolylineVertex
 10
-431.45363235562672
 20
-426.53189119936019
 30
0.0
 70
              32
  0
VERTEX
  5
1FD
100
AcDbEntity
  8
ADF70-1710
370
              15
390
0
  6
Continuous
 62
               7
100
AcDbVertex
100
AcDb3dPolylineVertex
 10
-431.08056332271462
 20
-426.12027313442354
 30
0.0
 70
              32
  0
VERTEX
  5
1FE
100
AcDbEntity
  8
ADF70-1710
370
              15
390
0
  6
Continuous
 62
               7
100
AcDbVertex
100
AcDb3dPolylineVertex
 10
-430.78978460724284
 20
-425.646925827122
 30
0.0
 70
              32
  0
VERTEX
  5
1FF
100
AcDbEntity
  8
ADF70-1710
370
              15
390
0
  6
Continuous
 62
               7
100
AcDbVertex
100
AcDb3dPolylineVertex
 10
-430.59126697466309
 20
-425.12808029687699
 30
0.0
 70
              32
  0
VERTEX
  5
200
100
AcDbEntity
  8
ADF70-1710
370
              15
390
0
  6
Continuous
 62
               7
100
AcDbVertex
100
AcDb3dPolylineVertex
 10
-430.4918175695384
 20
-424.58152769142976
 30
0.0
 70
              32
  0
SEQEND
  5
201
100
AcDbEntity
  8
ADF70-1710
370
              15
390
0
  6
Continuous
 62
               7
  0
LINE
  5
202
100
AcDbEntity
  8
ADF70-1710
370
              15
390
0
  6
Continuous
 62
               7
100
AcDbLine
 10
-264.4573292107525
 20
-267.32006050271116
 30
0.0
 11
-263.46246867561968
 21
-267.32006050271116
 31
0.0
  0
POLYLINE
  5
203
100
AcDbEntity
  8
ADF70-1710
370
              15
390
0
  6
Continuous
 62
               7
100
AcDb3dPolyline
 66
               1
 10
0.0
 20
0.0
 30
0.0
 70
               8
  0
VERTEX
  5
204
100
AcDbEntity
  8
ADF70-1710
370
              15
390
0
  6
Continuous
 62
               7
100
AcDbVertex
100
AcDb3dPolylineVertex
 10
-257.46338226269836
 20
-273.42477518758028
 30
0.0
 70
              32
  0
VERTEX
  5
205
100
AcDbEntity
  8
ADF70-1710
370
              15
390
0
  6
Continuous
 62
               7
100
AcDbVertex
100
AcDb3dPolylineVertex
 10
-257.56058296431002
 20
-272.23952712777577
 30
0.0
 70
              32
  0
VERTEX
  5
206
100
AcDbEntity
  8
ADF70-1710
370
              15
390
0
  6
Continuous
 62
               7
100
AcDbVertex
100
AcDb3dPolylineVertex
 10
-257.88963603195771
 20
-271.09673011240761
 30
0.0
 70
              32
  0
VERTEX
  5
207
100
AcDbEntity
  8
ADF70-1710
370
              15
390
0
  6
Continuous
 62
               7
100
AcDbVertex
100
AcDb3dPolylineVertex
 10
-258.43761499517495
 20
-270.0412776049327
 30
0.0
 70
              32
  0
VERTEX
  5
208
100
AcDbEntity
  8
ADF70-1710
370
              15
390
0
  6
Continuous
 62
               7
100
AcDbVertex
100
AcDb3dPolylineVertex
 10
-259.18299313204079
 20
-269.1146318404983
 30
0.0
 70
              32
  0
VERTEX
  5
209
100
AcDbEntity
  8
ADF70-1710
370
              15
390
0
  6
Continuous
 62
               7
100
AcDbVertex
100
AcDb3dPolylineVertex
 10
-260.09648912164084
 20
-268.35319502982452
 30
0.0
 70
              32
  0
VERTEX
  5
20A
100
AcDbEntity
  8
ADF70-1710
370
              15
390
0
  6
Continuous
 62
               7
100
AcDbVertex
100
AcDb3dPolylineVertex
 10
-261.14221732699843
 20
-267.78687934031836
 30
0.0
 70
              32
  0
VERTEX
  5
20B
100
AcDbEntity
  8
ADF70-1710
370
              15
390
0
  6
Continuous
 62
               7
100
AcDbVertex
100
AcDb3dPolylineVertex
 10
-262.27909752097003
 20
-267.43793183105549
 30
0.0
 70
              32
  0
VERTEX
  5
20C
100
AcDbEntity
  8
ADF70-1710
370
              15
390
0
  6
Continuous
 62
               7
100
AcDbVertex
100
AcDb3dPolylineVertex
 10
-263.4624686756033
 20
-267.32006050270888
 30
0.0
 70
              32
  0
SEQEND
  5
20D
100
AcDbEntity
  8
ADF70-1710
370
              15
390
0
  6
Continuous
 62
               7
  0
POLYLINE
  5
20E
100
AcDbEntity
  8
ADF70-1710
370
              15
390
0
  6
Continuous
 62
               7
100
AcDb3dPolyline
 66
               1
 10
0.0
 20
0.0
 30
0.0
 70
               8
  0
VERTEX
  5
20F
100
AcDbEntity
  8
ADF70-1710
370
              15
390
0
  6
Continuous
 62
               7
100
AcDbVertex
100
AcDb3dPolylineVertex
 10
-433.48040187033348
 20
-427.32006050271161
 30
0.0
 70
              32
  0
VERTEX
  5
210
100
AcDbEntity
  8
ADF70-1710
370
              15
390
0
  6
Continuous
 62
               7
100
AcDbVertex
100
AcDb3dPolylineVertex
 10
-432.92726147307621
 20
-427.26862476006113
 30
0.0
 70
              32
  0
VERTEX
  5
211
100
AcDbEntity
  8
ADF70-1710
370
              15
390
0
  6
Continuous
 62
               7
100
AcDbVertex
100
AcDb3dPolylineVertex
 10
-432.39308834695294
 20
-427.11608294275106
 30
0.0
 70
              32
  0
VERTEX
  5
212
100
AcDbEntity
  8
ADF70-1710
370
              15
390
0
  6
Continuous
 62
               7
100
AcDbVertex
100
AcDb3dPolylineVertex
 10
-431.89619922103429
 20
-426.86766569044289
 30
0.0
 70
              32
  0
VERTEX
  5
213
100
AcDbEntity
  8
ADF70-1710
370
              15
390
0
  6
Continuous
 62
               7
100
AcDbVertex
100
AcDb3dPolylineVertex
 10
-431.45363236072899
 20
-426.53189119936155
 30
0.0
 70
              32
  0
VERTEX
  5
214
100
AcDbEntity
  8
ADF70-1710
370
              15
390
0
  6
Continuous
 62
               7
100
AcDbVertex
100
AcDb3dPolylineVertex
 10
-431.08056332781689
 20
-426.12027313442491
 30
0.0
 70
              32
  0
VERTEX
  5
215
100
AcDbEntity
  8
ADF70-1710
370
              15
390
0
  6
Continuous
 62
               7
100
AcDbVertex
100
AcDb3dPolylineVertex
 10
-430.7897846123451
 20
-425.64692582712337
 30
0.0
 70
              32
  0
VERTEX
  5
216
100
AcDbEntity
  8
ADF70-1710
370
              15
390
0
  6
Continuous
 62
               7
100
AcDbVertex
100
AcDb3dPolylineVertex
 10
-430.59126697976535
 20
-425.12808029687835
 30
0.0
 70
              32
  0
VERTEX
  5
217
100
AcDbEntity
  8
ADF70-1710
370
              15
390
0
  6
Continuous
 62
               7
100
AcDbVertex
100
AcDb3dPolylineVertex
 10
-430.49181757464066
 20
-424.58152769143112
 30
0.0
 70
              32
  0
SEQEND
  5
218
100
AcDbEntity
  8
ADF70-1710
370
              15
390
0
  6
Continuous
 62
               7
  0
LINE
  5
219
100
AcDbEntity
  8
ADF70-1710
370
              15
390
0
  6
Continuous
 62
               7
100
AcDbLine
 10
-671.14519829876826
 20
-327.32006874093054
 30
0.0
 11
-263.31761442655443
 21
-327.32006874093054
 31
0.0
  0
LINE
  5
21A
100
AcDbEntity
  8
ADF70-1710
370
              15
390
0
  6
Continuous
 62
               7
100
AcDbLine
 10
520.35310433031918
 20
-422.02607512387181
 30
0.0
 11
555.41702845329564
 21
-406.69638724967604
 31
0.0
  0
LINE
  5
21B
100
AcDbEntity
  8
ADF70-1710
370
              15
390
0
  6
Continuous
 62
               7
100
AcDbLine
 10
374.42444379551216
 20
-327.34939430318605
 30
0.0
 11
419.13780087587293
 21
-399.48724475782797
 31
0.0
  0
LINE
  5
21C
100
AcDbEntity
  8
ADF70-1710
370
              15
390
0
  6
Continuous
 62
               7
100
AcDbLine
 10
424.23760040566049
 20
-402.32622518243966
 30
0.0
 11
660.0
 21
-402.32622518243966
 31
0.0
  0
LINE
  5
21D
100
AcDbEntity
  8
ADF70-1710
370
              15
390
0
  6
Continuous
 62
               7
100
AcDbLine
 10
348.76053748752565
 20
-267.34938606496576
 30
0.0
 11
563.93672341714682
 21
-267.36018504822891
 31
0.0
  0
LINE
  5
21E
100
AcDbEntity
  8
ADF70-1710
370
              15
390
0
  6
Continuous
 62
               7
100
AcDbLine
 10
-288.31451823501538
 20
470.74687217644623
 30
0.0
 11
-336.48990556815897
 21
517.92066458988893
 31
0.0
  0
LINE
  5
21F
100
AcDbEntity
  8
ADF70-1710
370
              15
390
0
  6
Continuous
 62
               7
100
AcDbLine
 10
-294.47396687161108
 20
639.46689583716989
 30
0.0
 11
-336.54632748575295
 21
625.99266875472176
 31
0.0
  0
LINE
  5
220
100
AcDbEntity
  8
ADF70-1710
370
              15
390
0
  6
Continuous
 62
               7
100
AcDbLine
 10
-646.16970225741807
 20
470.74687217644623
 30
0.0
 11
-597.99431492427448
 21
517.92066458988893
 31
0.0
  0
LINE
  5
221
100
AcDbEntity
  8
ADF70-1710
370
              15
390
0
  6
Continuous
 62
               7
100
AcDbLine
 10
-640.01025362082237
 20
639.46689583716989
 30
0.0
 11
-597.9378930066805
 21
625.99266875472176
 31
0.0
  0
LINE
  5
222
100
AcDbEntity
  8
ADF70-1710
370
              15
390
0
  6
Continuous
 62
               7
100
AcDbLine
 10
-641.20828447364602
 20
-327.32006874093008
 30
0.0
 11
-596.1055235246813
 21
-399.49957444265442
 31
0.0
  0
LINE
  5
223
100
AcDbEntity
  8
ADF70-1710
370
              15
390
0
  6
Continuous
 62
               7
100
AcDbLine
 10
-293.27630362246873
 20
-327.32006874093008
 30
0.0
 11
-338.3790645714389
 21
-399.49957444265533
 31
0.0
  0
ARC
  5
224
100
AcDbEntity
  8
ADF70-1710
370
              15
390
0
  6
Continuous
 62
               7
100
AcDbCircle
 10
-591.01723494774251
 20
-396.32005885725562
 30
0.0
 40
5.9999999999997353
100
AcDbArc
 50
211.99999999999164
 51
270.0
  0
ARC
  5
225
100
AcDbEntity
  8
ADF70-1710
370
              15
390
0
  6
Continuous
 62
               7
100
AcDbCircle
 10
-343.4673531483777
 20
-396.32005885725607
 30
0.0
 40
6.0
100
AcDbArc
 50
270.0
 51
327.99999999999739
  0
ARC
  5
226
100
AcDbEntity
  8
ADF70-1710
370
              15
390
0
  6
Continuous
 62
               7
100
AcDbCircle
 10
424.23760040565867
 20
-396.32622518243966
 30
0.0
 40
6.0000000000000187
100
AcDbArc
 50
211.79196447143005
 51
270.00000000001734
  0
ARC
  5
227
100
AcDbEntity
  8
ADF70-1710
370
              15
390
0
  6
Continuous
 62
               7
100
AcDbCircle
 10
537.17266111579829
 20
-365.56072072469465
 30
0.0
 40
44.999999999999517
100
AcDbArc
 50
293.91810010612556
 51
305.13885857713916
  0
LINE
  5
228
100
AcDbEntity
  8
ADF70-1710
370
              15
390
0
  6
Continuous
 62
               7
100
AcDbLine
 10
350.57019982293423
 20
-327.34939430318605
 30
0.0
 11
661.76636764721025
 21
-327.34939430318605
 31
0.0
  0
LWPOLYLINE
  5
229
100
AcDbEntity
  8
ADF70-1710
370
              15
390
0
  6
Continuous
 62
               7
100
AcDbPolyline
 90
       22
 70
             128
 10
-567.74741358761548
 20
628.60437151755787
 10
-566.56076832922645
 20
628.5407395240527
 42
0.013438127698342
 10
-563.38929164480942
 20
628.45604894434155
 42
0.0008754399954787
 10
-560.21554909743827
 20
628.46216802380036
 10
-558.40966029263382
 20
628.46881175591989
 42
-0.0001129141808936
 10
-551.62414555805935
 20
628.49224278450311
 10
-548.65414961667921
 20
628.50182774652922
 42
0.0000152226269976
 10
-535.9286389716699
 20
628.54328376884882
 10
-534.86672362468653
 20
628.54677551164082
 42
0.0002096980425498
 10
-520.01740663912733
 20
628.60183019661031
 10
-516.86855078945337
 20
628.6148253963554
 42
0.0003109126202841
 10
-504.20683274058501
 20
628.67495332159115
 10
-502.38382188919604
 20
628.68474405273855
 42
0.000069011658273
 10
-493.36816978665502
 20
628.73440826252477
 10
-492.39035853220048
 20
628.73992966239143
 42
-0.0003234873125244
 10
-485.33031295608362
 20
628.77522777184026
 10
-484.9325425414163
 20
628.77695915156664
 42
-0.0004642306894745
 10
-478.66799504087794
 20
628.79841043908345
 42
-0.0010870303466999
 10
-472.40342324208723
 20
628.80042575953485
 10
-471.55821094850671
 20
628.79886012146767
 42
0.0001610996215654
 10
-466.71892160260086
 20
628.79145523171064
 10
-466.68577575116706
 20
628.79141714933257
  0
LWPOLYLINE
  5
22A
100
AcDbEntity
  8
ADF70-1710
370
              15
390
0
  6
Continuous
 62
               7
100
AcDbPolyline
 90
       21
 70
             128
 10
-466.78837636956723
 20
518.27083528899493
 42
-0.0003744543423551
 10
-472.86214212894447
 20
518.26450405671017
 10
-473.89131744938459
 20
518.26420201339579
 42
-0.0009372537410665
 10
-482.02341449055893
 20
518.27705908118628
 10
-482.54642761561718
 20
518.27886637747224
 42
-0.0001888907751715
 10
-490.10489642082484
 20
518.30784050750754
 42
0.0000197665128457
 10
-497.66335552977944
 20
518.33937127896525
 10
-500.76771763288707
 20
518.35219866931425
 42
0.0003226885430903
 10
-514.53493317694574
 20
518.4002003663486
 10
-516.67762733488144
 20
518.40628836794713
 42
0.0001623086299402
 10
-532.84058856959018
 20
518.44696510948847
 42
0.0000111363744952
 10
-549.00356379138793
 20
518.48203508081724
 10
-552.98958561871768
 20
518.49059505935497
 42
-0.0002330921855385
 10
-561.31463676479598
 20
518.51235413044969
 10
-564.95712061351878
 20
518.5235725229345
 42
0.0003771185908773
 10
-565.9971957434982
 20
518.52599135455876
 42
0.0017792031411649
 10
-567.0372653441591
 20
518.52392472081965
 10
-567.5753904640469
 20
518.52094056324722
 42
0.010813578456331
 10
-569.69045958460902
 20
518.46345633118767
 10
-570.30599842610991
 20
518.43339537582642
 10
-570.33119658847045
 20
518.43215709646074
  0
LWPOLYLINE
  5
22B
100
AcDbEntity
  8
ADF70-1710
370
              15
390
0
  6
Continuous
 62
               7
100
AcDbPolyline
 90
       65
 70
             128
 10
-570.33119658847409
 20
518.43215709644801
 10
-570.47894813048697
 20
518.44867757441443
 42
-0.0132365669453296
 10
-571.77169848409176
 20
518.6279832927089
 10
-571.9125949970221
 20
518.6513421859072
 42
-0.0088566918058857
 10
-572.91553484614724
 20
518.8359261201183
 10
-572.92013182462688
 20
518.8368566294082
 42
-0.0090185158941673
 10
-573.90667031257999
 20
519.05514207043257
 10
-573.91127228111327
 20
519.05624774600142
 42
-0.0091898099252445
 10
-574.88004317371633
 20
519.30792465392778
 10
-574.88450021612243
 20
519.3091704231108
 42
-0.0093569605460283
 10
-575.83440126909136
 20
519.59394086711677
 10
-575.83856234686846
 20
519.59527366979887
 42
-0.0094904255770143
 10
-576.7687838693646
 20
519.91281442499371
 10
-576.77277407721976
 20
519.91426164599147
 42
-0.0096500668079058
 10
-577.68223449990364
 20
520.26412028828213
 10
-577.68617616163283
 20
520.2657245928217
 42
-0.0097936467691655
 10
-578.57352534359325
 20
520.64731140457707
 10
-578.58071621154158
 20
520.65057202426283
 42
-0.0099247048443807
 10
-579.43808019192875
 20
521.06003987815097
 10
-579.44126411509296
 20
521.06163885050864
 42
-0.0098506804621646
 10
-580.27546770617755
 20
521.50136514602468
 42
-0.010083338876499
 10
-581.09147509224567
 20
521.97398581386051
 10
-581.09446131950244
 20
521.97579678026591
 42
-0.0101924115003951
 10
-581.88774782287965
 20
522.47927452055592
 10
-581.88984773892389
 20
522.48066812390425
 42
-0.0102676769329059
 10
-582.6577310658131
 20
523.01330176100669
 10
-582.65959719218608
 20
523.01465376431656
 42
-0.0103146847098303
 10
-583.40123496050546
 20
523.5756549606615
 10
-583.40222306223677
 20
523.57643495499565
 42
-0.0103217076523635
 10
-584.11813923232057
 20
524.16595783960088
 42
-0.0103698470746324
 10
-584.8089317577751
 20
524.78447447271742
 42
-0.0104047847591873
 10
-585.47338638801284
 20
525.43110615821229
 42
-0.0104097295671563
 10
-586.11056811158778
 20
526.10506728183873
 42
-0.0103730807067569
 10
-586.71933795643054
 20
526.80508700675091
 10
-586.71978555842634
 20
526.80562379474986
 42
-0.0103857216601269
 10
-587.29984931501713
 20
527.53139815342615
 10
-587.30096635684731
 20
527.53285691461178
 42
-0.0103794128242999
 10
-587.85257084682326
 20
528.28505075209182
 10
-587.85407252090135
 20
528.28719025276609
 42
-0.0103374677631488
 10
-588.37696196635352
 20
529.06592684778934
 10
-588.37842831548096
 20
529.06821134361326
 42
-0.0102572856308795
 10
-588.8716481023821
 20
529.87244804842271
 10
-588.87305395709791
 20
529.87484959947801
 42
-0.0101748301032267
 10
-589.33572217707115
 20
530.70342477942631
 10
-589.3372808895474
 20
530.70635473030802
 42
-0.0101273755403624
 10
-589.76893269254833
 20
531.55894982451923
 10
-589.77069050093996
 20
531.56260363384285
 42
-0.0100171956228246
 10
-590.1710217795362
 20
532.43927144170334
 10
-590.17273074901368
 20
532.44322139145879
 42
-0.0098856972863625
 10
-590.54112121095295
 20
533.34309460232203
 10
-590.54267478779275
 20
533.34711442852949
 42
-0.0097256230346266
 10
-590.87844844256233
 20
534.26884343068104
 10
-590.87983737931063
 20
534.27289981969079
 42
-0.0095747888238869
 10
-591.18241465334086
 20
535.21506819189608
 10
-591.18369693646127
 20
535.21934029746308
 42
-0.009422191668362
 10
-591.45267307150243
 20
536.1809167784736
 10
-591.4538499474429
 20
536.18545177101601
 42
-0.0092429810356561
 10
-591.68893897607904
 20
537.16551359472874
 10
-591.68995122697925
 20
537.17010624574073
 42
-0.0090633837193832
 10
-591.89086768078869
 20
538.16734185476594
 10
-591.89211449594131
 20
538.17416706384597
 42
-0.0088844022574061
 10
-592.05787169157338
 20
539.18258113451452
 10
-592.05854173485841
 20
539.18716491643045
 42
-0.0084268169923689
 10
-592.18811053094305
 20
540.19154082310706
 10
-592.18841928139864
 20
540.19429832991273
  0
LWPOLYLINE
  5
22C
100
AcDbEntity
  8
ADF70-1710
370
              15
390
0
  6
Continuous
 62
               7
100
AcDbPolyline
 90
       23
 70
             128
 10
-592.18841928122583
 20
540.19429832993364
 10
-592.17987825760792
 20
540.37737119245003
 42
0.0071723718229104
 10
-592.11774261636765
 20
542.30187397098962
 10
-592.11158541218992
 20
542.64522256688019
 42
0.0043149593781975
 10
-592.10006300980967
 20
543.88401895862489
 42
0.0004184463461944
 10
-592.10026834160271
 20
545.12291461497648
 10
-592.10276923282345
 20
547.61724389354754
 42
-0.0001868796814245
 10
-592.10668556270502
 20
553.84479939758148
 10
-592.10722834162334
 20
555.97241222888738
 42
-0.0000886819018686
 10
-592.10804335583907
 20
566.45519501284343
 10
-592.10799250288255
 20
566.96568528460398
 42
0.0000659225667847
 10
-592.10836326017579
 20
578.46944872018889
 10
-592.10855505155632
 20
579.63837840167844
 42
-0.0000557783850506
 10
-592.10914555938416
 20
590.8823811875568
 10
-592.109021231523
 20
592.98823431439109
 42
-0.0002896036094423
 10
-592.10453289465477
 20
600.0205282977056
 10
-592.10137296247376
 20
602.61605278788079
 42
0.0001607845963853
 10
-592.09972342120818
 20
604.45729571757465
 10
-592.09937296058615
 20
605.0675191196799
 42
-0.0004843863274522
 10
-592.0984150175218
 20
605.68831484512816
 42
0.0041564092440336
 10
-592.10201605916336
 20
606.30907970690237
 10
-592.10214762205851
 20
606.31840074518504
 10
-592.10217403205479
 20
606.32017835853912
  0
LWPOLYLINE
  5
22D
100
AcDbEntity
  8
ADF70-1710
370
              15
390
0
  6
Continuous
 62
               7
100
AcDbPolyline
 90
       64
 70
             128
 10
-592.10217403188199
 20
606.32017835858778
 42
-0.0005689292503281
 10
-592.09441730477647
 20
606.57482489099448
 10
-592.09311083587454
 20
606.61616921662494
 42
-0.0064377030055161
 10
-592.07811051223689
 20
606.95330243079525
 10
-592.06567894427917
 20
607.16987052232776
 42
-0.0140815676028481
 10
-591.99983476064972
 20
607.93809202992361
 10
-591.96292941287265
 20
608.26138579324811
 42
-0.0203773989310223
 10
-591.76598008842575
 20
609.52671720683384
 10
-591.73543121451439
 20
609.68125686557278
 42
-0.0122151736253642
 10
-591.52494670033866
 20
610.62433602026363
 42
-0.0121894221864952
 10
-591.26870213719212
 20
611.55602432313185
 10
-591.26818815770002
 20
611.55772942413319
 42
-0.012134704557151
 10
-590.96583094239122
 20
612.47924094266909
 10
-590.96517169265826
 20
612.48109687560964
 42
-0.0120576308167743
 10
-590.61719233098756
 20
613.39058831477746
 10
-590.61639738621125
 20
613.39252476853289
 42
-0.0119480470342301
 10
-590.22348837411209
 20
614.28810595039681
 10
-590.22247086286279
 20
614.29028234661632
 42
-0.0118762384702327
 10
-589.78521404054663
 20
615.17043859200476
 10
-589.78375074209362
 20
615.17321647676044
 42
-0.0117789248757427
 10
-589.30230212044171
 20
616.03719762588617
 10
-589.30045221882301
 20
616.04034087052537
 42
-0.0116553812816633
 10
-588.77520802465278
 20
616.88701953460827
 10
-588.77318706513142
 20
616.89011385823983
 42
-0.0115060615608849
 10
-588.20511539766994
 20
617.71766139733586
 10
-588.20291553705374
 20
617.7207131318105
 42
-0.0113725132358455
 10
-587.59304713571692
 20
618.52741660658239
 10
-587.59055504155276
 20
618.53056169881143
 42
-0.0112227444873622
 10
-586.93974064217582
 20
619.31507240326437
 10
-586.93696323406493
 20
619.31827145810053
 42
-0.0110563364884741
 10
-586.24615279500449
 20
620.07929305180483
 10
-586.24322642820607
 20
620.08237699059418
 42
-0.0108824131868265
 10
-585.51371146414931
 20
620.81840928186762
 10
-585.51071250027508
 20
620.8213061377985
 42
-0.0107019902746245
 10
-584.74398951412059
 20
621.5308396901471
 10
-584.74094057642651
 20
621.53354240240151
 42
-0.0105273014280435
 10
-583.93857807485074
 20
622.21517327936954
 10
-583.93543698195663
 20
622.21772985636176
 42
-0.0103474422337673
 10
-583.09893364284835
 20
622.87026539741601
 10
-583.09573197174814
 20
622.87265804642652
 42
-0.0101683095607838
 10
-582.22666226168622
 20
623.49498992456574
 10
-582.22345885299728
 20
623.49718670465836
 42
-0.0099931594863459
 10
-581.32351057258165
 20
624.08824792593236
 10
-581.32035085790903
 20
624.09023391049459
 42
-0.0098144331127087
 10
-580.39129903066623
 20
624.64904066033228
 10
-580.38824862425281
 20
624.65079482679221
 42
-0.0096412380508219
 10
-579.43198967226272
 20
625.17643116425506
 10
-579.42904632838236
 20
625.17797592628085
 42
-0.0094792971016139
 10
-578.44744189847279
 20
625.6696495208364
 10
-578.44457131574018
 20
625.67101991870118
 42
-0.0093239757259077
 10
-577.43937953443128
 20
626.12807639927064
 10
-577.43661149597938
 20
626.12927324289967
 42
-0.0091760103257329
 10
-576.40961719043298
 20
626.55112800566712
 10
-576.40701340815758
 20
626.55214211785119
 42
-0.0090614023780539
 10
-575.36007195414186
 20
626.93820102362042
 10
-575.0911381432561
 20
627.03186991798566
 42
-0.0176336951207466
 10
-573.48177588946965
 20
627.52951587801999
 10
-573.47863413590039
 20
627.5303672457635
 42
-0.0086622788055159
 10
-571.83825670151964
 20
627.94451933447681
 10
-571.83250119991681
 20
627.94586683361331
 42
-0.0169655651582014
 10
-570.1621778764038
 20
628.27760069854503
 10
-569.8800700160391
 20
628.32374258353661
 42
-0.015581674890535
 10
-567.75630318889762
 20
628.60348234748335
 10
-567.74741358756273
 20
628.6043715175515
  0
LWPOLYLINE
  5
22E
100
AcDbEntity
  8
ADF70-1710
370
              15
390
0
  6
Continuous
 62
               7
100
AcDbPolyline
 90
       22
 70
             128
 10
-366.73716892830907
 20
628.60437151755787
 10
-367.92381418559853
 20
628.5407395360246
 42
-0.0134381210131632
 10
-371.09529087111241
 20
628.45604894562803
 42
-0.0008744671455657
 10
-374.26903344168022
 20
628.46216179688122
 10
-376.27379690855105
 20
628.46952933929288
 42
0.0001161437090804
 10
-383.45706146690918
 20
628.49425936482999
 10
-386.42705763897993
 20
628.50379435323248
 42
-0.0000260272567659
 10
-399.55031805643375
 20
628.54660889850265
 10
-400.41335901541152
 20
628.54946948925408
 42
-0.0002152822925985
 10
-415.26267517650103
 20
628.60508193090322
 10
-416.70451216368565
 20
628.61110259427778
 42
-0.0002842218156543
 10
-430.19488145450941
 20
628.67510285290609
 10
-432.16704983931049
 20
628.68558019921898
 42
-0.0000418418428043
 10
-441.71304166928621
 20
628.73709312413348
 10
-443.56921820614934
 20
628.74726492432342
 42
0.0002400407138858
 10
-449.40286665480016
 20
628.77643246620823
 42
0.0005034261579666
 10
-455.2365497400915
 20
628.7969257228433
 10
-455.75030382336081
 20
628.79821322019279
 42
0.0010896514766475
 10
-462.14744312030962
 20
628.80030348752121
 10
-462.926371566733
 20
628.79886048059052
 42
-0.0001611590213459
 10
-467.76566091331824
 20
628.79145523097395
 10
-467.7988067647575
 20
628.79141714933257
  0
LWPOLYLINE
  5
22F
100
AcDbEntity
  8
ADF70-1710
370
              15
390
0
  6
Continuous
 62
               7
100
AcDbPolyline
 90
       22
 70
             128
 10
-467.69620614635915
 20
518.27083528899493
 42
0.000359047145951
 10
-461.62244063054368
 20
518.26429902469567
 10
-461.25126212223586
 20
518.26416612337721
 42
0.0007767587577581
 10
-454.43514755487104
 20
518.27231455310812
 10
-453.77714606902373
 20
518.27412339198554
 42
0.0003665859905419
 10
-445.64506195013109
 20
518.30244067625381
 10
-445.39197665332722
 20
518.30350751960918
 42
-0.0000148535952789
 10
-436.75374162442768
 20
518.33966408994343
 10
-433.93619547566504
 20
518.35137363019203
 42
-0.0003351860186295
 10
-419.66283371987356
 20
518.40112419968091
 10
-417.60449531061749
 20
518.40691878261964
 42
-0.0001535003873069
 10
-401.71147949441638
 20
518.44678120151502
 42
-0.0000138636937497
 10
-385.81845048086689
 20
518.48132377994739
 10
-381.49499691048368
 20
518.49060067734172
 42
0.0002335926910957
 10
-373.16994574916225
 20
518.51235322528555
 10
-369.52746190232301
 20
518.52357240984747
 42
-0.0003771729538096
 10
-368.48738677243
 20
518.52599135455876
 42
-0.001779203142448
 10
-367.44731717173818
 20
518.52392472082124
 10
-366.90919205188129
 20
518.52094056324859
 42
-0.0108135784564684
 10
-364.79412293131736
 20
518.46345633118813
 10
-364.17858408981465
 20
518.43339537582642
 10
-364.15338592745411
 20
518.43215709646074
  0
LWPOLYLINE
  5
230
100
AcDbEntity
  8
ADF70-1710
370
              15
390
0
  6
Continuous
 62
               7
100
AcDbPolyline
 90
       61
 70
             128
 10
-364.15338592745229
 20
518.43215709644801
 10
-363.90441398817711
 20
518.45995642270509
 42
0.0173796406169603
 10
-362.33829204889935
 20
518.69017153816321
 10
-362.07803151323424
 20
518.73772126923836
 42
0.0096626630870766
 10
-361.04448507593042
 20
518.94726613039893
 10
-361.02038343636195
 20
518.95263945270858
 42
0.0091126253613871
 10
-360.04340228356614
 20
519.18922036148888
 10
-360.03140102144243
 20
519.19235912532849
 42
0.0092834337193709
 10
-359.08766691894107
 20
519.457993407809
 10
-359.08343439376313
 20
519.45927000679512
 42
0.0091353291757548
 10
-358.15853382420937
 20
519.75677474020222
 42
0.0095712450144042
 10
-357.24542301262227
 20
520.08866024229906
 10
-357.23818512710932
 20
520.09144894213046
 42
0.0097267094843322
 10
-356.3399657053933
 20
520.45774659847439
 42
0.0098411467096043
 10
-355.45676916928369
 20
520.85890436393015
 10
-355.28162652824994
 20
520.94265243059203
 42
0.0181340139953161
 10
-354.09710880224247
 20
521.56278635927265
 10
-353.92570107291795
 20
521.66060045629479
 42
0.0101360357965864
 10
-353.11630769436488
 20
522.1444902111698
 10
-353.11412835896863
 20
522.14585382265341
 42
0.0102218038912624
 10
-352.32940537930426
 20
522.65947036618763
 10
-352.32735585522551
 20
522.66087248722079
 42
0.0102880775706216
 10
-351.56839642062005
 20
523.20334715403123
 10
-351.56675327169069
 20
523.20457346348962
 42
0.0103209617717975
 10
-350.83402633659625
 20
523.77534013622153
 10
-350.83337728676997
 20
523.77586760283089
 42
0.0103301943194876
 10
-350.12611766284135
 20
524.37531966521169
 42
0.0103873204852146
 10
-349.44426850406944
 20
525.00357788801853
 42
0.0104143978593611
 10
-348.78901077750197
 20
525.65977623911749
 42
0.0104048609613616
 10
-348.1613622307832
 20
526.34296937943009
 42
0.0103708983755453
 10
-347.56246035256754
 20
527.05183316015086
 10
-347.56179057035843
 20
527.05266011634012
 42
0.0103901587496947
 10
-346.99152469642286
 20
527.78745303205847
 10
-346.99019800390852
 20
527.78923785476695
 42
0.0103681579542752
 10
-346.44834101942797
 20
528.550689326873
 10
-346.44684053441415
 20
528.5528932497034
 42
0.0103178719211366
 10
-345.93403006896733
 20
529.34057324514401
 10
-345.93258654123292
 20
529.34289386770956
 42
0.0102191857537158
 10
-345.44975862218507
 20
530.15566770744158
 10
-345.44834573391836
 20
530.15816077230397
 42
0.0101646907238764
 10
-344.99631932936518
 20
530.99498035561487
 10
-344.99468831155446
 20
530.9981523493143
 42
0.0100931586169832
 10
-344.57379283827595
 20
531.85900348195423
 10
-344.57201015507871
 20
531.86284415133946
 42
0.009974116598834
 10
-344.18258043026617
 20
532.74764302577341
 10
-344.18092384708416
 20
532.7516201682929
 42
0.0098347496884334
 10
-343.82368566212062
 20
533.65916991161203
 10
-343.82219135229388
 20
533.66319678354034
 42
0.0096681261471884
 10
-343.49778053126283
 20
534.59210112258847
 10
-343.49643735219433
 20
534.59620006547948
 42
0.0095272486734407
 10
-343.20538625452082
 20
535.54512210203234
 10
-343.20413727014511
 20
535.54948933594392
 42
0.009361005297361
 10
-342.94679596907827
 20
536.51751054494616
 10
-342.94566790069712
 20
536.52209814648313
 42
0.009181368139381
 10
-342.72230468168345
 20
537.50821483300251
 10
-342.72135403041193
 20
537.51280111662982
 42
0.0090336779060437
 10
-342.53231838226748
 20
538.51560792909822
 10
-342.50406232093246
 20
538.68195787141417
 42
0.0142443157031101
 10
-342.31493945745933
 20
540.02626916653185
 10
-342.29647178465802
 20
540.19154058418417
 10
-342.29616323452774
 20
540.19429832991273
  0
SPLINE
  5
231
100
AcDbEntity
  8
ADF70-1710
370
              15
390
0
  6
Continuous
 62
               7
100
AcDbSpline
210
0.0
220
0.0
230
1.0
 70
              12
 71
               2
 72
              48
 73
              45
 74
               0
 42
0.000001
 43
0.000001
 40
0.0
 40
0.0
 40
0.0
 40
1.0
 40
1.0
 40
2.0
 40
2.0
 40
3.0
 40
3.0
 40
4.0
 40
4.0
 40
5.0
 40
5.0
 40
6.0
 40
6.0
 40
7.0
 40
7.0
 40
8.0
 40
8.0
 40
9.0
 40
9.0
 40
10.0
 40
10.0
 40
11.0
 40
11.0
 40
12.0
 40
12.0
 40
13.0
 40
13.0
 40
14.0
 40
14.0
 40
15.0
 40
15.0
 40
16.0
 40
16.0
 40
17.0
 40
17.0
 40
18.0
 40
18.0
 40
19.0
 40
19.0
 40
20.0
 40
20.0
 40
21.0
 40
21.0
 40
22.0
 40
22.0
 40
22.0
 10
-342.29616323469872
 20
540.19429832993364
 30
0.0
 41
1.0
 10
-342.30043374955221
 20
540.28583475892106
 30
0.0
 41
1.0
 10
-342.30470426440661
 20
540.37737118790869
 30
0.0
 41
1.0
 10
-342.34957607776323
 20
541.33917689456257
 30
0.0
 41
0.9998971190667987
 10
-342.36683991943664
 20
542.30187396880638
 30
0.0
 41
1.0
 10
-342.36991851867697
 20
542.4735483004647
 30
0.0
 41
1.0
 10
-342.37299711791729
 20
542.64522263212302
 30
0.0
 41
1.0
 10
-342.38410376111005
 20
543.26457104301289
 30
0.0
 41
0.9999627524690119
 10
-342.38451799030645
 20
543.88401889393117
 30
0.0
 41
1.0
 10
-342.38493221950284
 20
544.5034667451298
 30
0.0
 41
0.9999997178739464
 10
-342.38441583678559
 20
545.12291451959459
 30
0.0
 41
1.0
 10
-342.38416501127085
 20
545.42380241097544
 30
0.0
 41
1.0
 10
-342.3839141857552
 20
545.72469030235629
 30
0.0
 41
1.0
 10
-342.38289615200756
 20
546.94591385987678
 30
0.0
 41
1.0
 10
-342.3794087045062
 20
551.31524448588607
 30
0.0
 41
1.0
 10
-342.37592125700667
 20
555.6845751108965
 30
0.0
 41
0.9999999126626071
 10
-342.3760923753307
 20
560.05390712433541
 30
0.0
 41
1.0
 10
-342.37611581478723
 20
560.65240974674384
 30
0.0
 41
1.0
 10
-342.37613925424284
 20
561.25091236915227
 30
0.0
 41
1.0
 10
-342.37635725148084
 20
566.81724962640919
 30
0.0
 41
1.0
 10
-342.3766509020179
 20
571.24248766749497
 30
0.0
 41
1.0
 10
-342.37694455255132
 20
575.66772571228353
 30
0.0
 41
0.9999999968646619
 10
-342.3761504012391
 20
580.09296369555614
 30
0.0
 41
1.0
 10
-342.37611377372377
 20
580.29706267347751
 30
0.0
 41
1.0
 10
-342.37607714620844
 20
580.50116165139889
 30
0.0
 41
1.0
 10
-342.37520973986375
 20
585.33459757476544
 30
0.0
 41
0.9999999957588742
 10
-342.37534856949151
 20
590.16803361495681
 30
0.0
 41
1.0
 10
-342.37538387535005
 20
591.39722803773475
 30
0.0
 41
1.0
 10
-342.37541918120769
 20
592.62642246051269
 30
0.0
 41
1.0
 10
-342.37552363877603
 20
596.26317474640814
 30
0.0
 41
0.9999998253698825
 10
-342.37992669865253
 20
599.89992436838384
 30
0.0
 41
1.0
 10
-342.38157092458368
 20
601.25798857857876
 30
0.0
 41
1.0
 10
-342.38321515051484
 20
602.61605278877391
 30
0.0
 41
1.0
 10
-342.38432975853084
 20
603.53667399216351
 30
0.0
 41
0.9999999490164065
 10
-342.38485879018026
 20
604.4572957182852
 30
0.0
 41
1.0
 10
-342.38503412141745
 20
604.76240741854804
 30
0.0
 41
1.0
 10
-342.38520945265464
 20
605.06751911881111
 30
0.0
 41
1.0
 10
-342.3853878218315
 20
605.37791744595302
 30
0.0
 41
0.9999995309542549
 10
-342.38616749838548
 20
605.68831484512475
 30
0.0
 41
1.0
 10
-342.38694717494036
 20
605.99871224367666
 30
0.0
 41
0.9999654491211458
 10
-342.38256645676211
 20
606.30907970690623
 30
0.0
 41
1.0
 10
-342.38250067531499
 20
606.31374022604564
 30
0.0
 41
1.0
 10
-342.38243489386787
 20
606.31840074518504
 30
0.0
 41
1.0
 10
-342.38242168886882
 20
606.31928955186208
 30
0.0
 41
1.0
 10
-342.38240848386977
 20
606.32017835853912
 30
0.0
 41
1.0
  0
LWPOLYLINE
  5
232
100
AcDbEntity
  8
ADF70-1710
370
              15
390
0
  6
Continuous
 62
               7
100
AcDbPolyline
 90
       66
 70
             128
 10
-342.38240848404439
 20
606.32017835858778
 42
0.0005689276420564
 10
-342.39016521032045
 20
606.57482489113681
 10
-342.3914716791096
 20
606.61616922169719
 42
0.0064366410136821
 10
-342.40647128537694
 20
606.95330248702089
 10
-342.41716987681775
 20
607.13969456843984
 42
0.0125294586789281
 10
-342.4756578340548
 20
607.84795301938493
 10
-342.49275840586324
 20
608.00648825301573
 42
0.0134929176734403
 10
-342.62808966861394
 20
609.00708478951447
 10
-342.63170565061318
 20
609.02929110280593
 42
0.012253514032159
 10
-342.8100518684987
 20
609.97745092839295
 42
0.0122099250837678
 10
-343.03455484629194
 20
610.91575621532115
 10
-343.03486427302687
 20
610.91692281662836
 42
0.0121736197011102
 10
-343.30551413545254
 20
611.84548760600273
 10
-343.30608728014977
 20
611.84728949673854
 42
0.0121132970105805
 10
-343.62273576137977
 20
612.7651950739546
 10
-343.62345089102746
 20
612.76711586158444
 42
0.0120256915817451
 10
-343.98554903862623
 20
613.67248035317175
 10
-343.98639368844124
 20
613.67445327606538
 42
0.0119212626785173
 10
-344.39320386313284
 20
614.56535263193246
 10
-344.39435559289723
 20
614.56772359798424
 42
0.0118527662423612
 10
-344.84546460661204
 20
615.44296884340383
 10
-344.84707544247522
 20
615.44592024390477
 42
0.0117426787865406
 10
-345.34232967270327
 20
616.30474018162454
 10
-345.34423729459377
 20
616.30787566657773
 42
0.0116120205944954
 10
-345.88301199233865
 20
617.14881953431018
 10
-345.88508080095835
 20
617.15188928095358
 42
0.0114616861561258
 10
-346.46635398934905
 20
617.97313193638547
 10
-346.46863607949672
 20
617.97620431345877
 42
0.0113304001523744
 10
-347.09143131830751
 20
618.77615038003114
 10
-347.09402149882226
 20
618.77932617244596
 42
0.011171815840256
 10
-347.75749797904882
 20
619.55668264868768
 10
-347.76031926814449
 20
619.55984241300871
 42
0.0110028167542534
 10
-348.46338999121872
 20
620.31321870339025
 10
-348.46631954162694
 20
620.31622255245588
 42
0.0108244221488479
 10
-349.2075890931701
 20
621.04408364145002
 10
-349.21058761741642
 20
621.04690306446582
 42
0.0106466689340027
 10
-349.98853925338062
 20
621.74778642496176
 10
-349.99161967897908
 20
621.75044507715393
 42
0.0104704870108176
 10
-350.80474453367333
 20
622.4230491837011
 10
-350.80791737568325
 20
622.42556369778163
 42
0.0102907421487034
 10
-351.65471331064509
 20
623.06873717596886
 10
-351.65792489968044
 20
623.07107386090956
 42
0.0101123024338651
 10
-352.53677455831257
 20
623.68371434102323
 10
-352.53998946483625
 20
623.68586014930065
 42
0.0099388957126199
 10
-353.44921235862967
 20
624.26694091258673
 10
-353.45236251805363
 20
624.26886707066569
 42
0.0097586505673094
 10
-354.390144772231
 20
624.81742029973475
 10
-354.39316359681743
 20
624.81910795905219
 42
0.0095904527815976
 10
-355.35757225002999
 20
625.33423185206652
 10
-355.36049102798097
 20
625.33571963795021
 42
0.0094300492986755
 10
-356.34969009914403
 20
625.81666111867503
 10
-356.35252846366257
 20
625.81797552084163
 42
0.0092781905193638
 10
-357.36475489622626
 20
626.26410287822
 10
-357.36748052787789
 20
626.26524425179969
 42
0.0091277247895653
 10
-358.40093663240532
 20
626.67600170207402
 10
-358.40347303430099
 20
626.67695658430262
 42
0.0090170136309075
 10
-359.45626104672374
 20
627.05176846971881
 10
-359.72646692635681
 20
627.1425107801208
 42
0.0175578067066659
 10
-361.3433054037796
 20
627.62302595169695
 10
-361.34637405399371
 20
627.62382183771524
 42
0.0086269309970544
 10
-362.99307717145257
 20
628.02072089518811
 10
-362.99863238374019
 20
628.02195884389289
 42
0.0168966056908176
 10
-364.6739197760553
 20
628.33629018732381
 10
-364.95660703339126
 20
628.37950062480468
 42
0.0129633443086119
 10
-366.72827977313227
 20
628.60348226864608
 10
-366.73716892836183
 20
628.6043715175515
  0
LINE
  5
233
100
AcDbEntity
  8
ADF70-1710
370
              15
390
0
  6
STYLE_12
 62
               7
100
AcDbLine
 10
-392.26553736393453
 20
-287.32768425731706
 30
0.0
 11
-392.26553736393453
 21
-327.29736676700736
 31
0.0
  0
LINE
  5
234
100
AcDbEntity
  8
ADF70-1710
370
              15
390
0
  6
STYLE_12
 62
               7
100
AcDbLine
 10
-372.28069610909097
 20
-307.31252551216198
 30
0.0
 11
-412.25037861877991
 21
-307.31252551216198
 31
0.0
  0
CIRCLE
  5
235
100
AcDbEntity
  8
ADF70-1710
370
              15
390
0
  6
STYLE_12
 62
               7
100
AcDbCircle
 10
-392.26553736393453
 20
-307.3372773732051
 30
0.0
 40
10.0
  0
LINE
  5
236
100
AcDbEntity
  8
ADF70-1710
370
              15
390
0
  6
STYLE_12
 62
               7
100
AcDbLine
 10
-542.26553736393453
 20
-287.32768425731706
 30
0.0
 11
-542.26553736393453
 21
-327.29736676700736
 31
0.0
  0
LINE
  5
237
100
AcDbEntity
  8
ADF70-1710
370
              15
390
0
  6
STYLE_12
 62
               7
100
AcDbLine
 10
-522.28069610909097
 20
-307.31252551216198
 30
0.0
 11
-562.25037861877991
 21
-307.31252551216198
 31
0.0
  0
CIRCLE
  5
238
100
AcDbEntity
  8
ADF70-1710
370
              15
390
0
  6
STYLE_12
 62
               7
100
AcDbCircle
 10
-542.26553736393453
 20
-307.3372773732051
 30
0.0
 40
10.0
  0
LINE
  5
239
100
AcDbEntity
  8
ADF70-1710
370
               5
390
0
  6
STYLE_12
 62
               7
100
AcDbLine
 10
248.78432433448143
 20
749.99999971642296
 30
0.0
 11
662.7843258407338
 21
750.00000002059664
 31
0.0
  0
ARC
  5
23A
100
AcDbEntity
  8
ADF70-1710
370
               5
390
0
  6
STYLE_12
 62
               7
100
AcDbCircle
 10
248.7843243353982
 20
746.99999971642296
 30
0.0
 40
3.0
100
AcDbArc
 50
90.000000017509038
 51
180.0
  0
LINE
  5
23B
100
AcDbEntity
  8
ADF70-1710
370
               5
390
0
  6
STYLE_12
 62
               7
100
AcDbLine
 10
295.78432215006433
 20
429.9999998685978
 30
0.0
 11
615.78432229311875
 21
429.99999986862554
 31
0.0
  0
ARC
  5
23C
100
AcDbEntity
  8
ADF70-1710
370
               5
390
0
  6
STYLE_12
 62
               7
100
AcDbCircle
 10
295.7843243353982
 20
479.9999998685978
 30
0.0
 40
50.0
100
AcDbArc
 50
180.0
 51
269.99999749579183
  0
LINE
  5
23D
100
AcDbEntity
  8
ADF70-1710
370
               5
390
0
  6
STYLE_12
 62
               7
100
AcDbLine
 10
245.7843243353982
 20
479.9999998685978
 30
0.0
 11
245.7843243353982
 21
746.99999971642296
 31
0.0
  0
LINE
  5
23E
100
AcDbEntity
  8
ADF70-1710
370
               5
390
0
  6
STYLE_12
 62
               7
100
AcDbLine
 10
665.78432010787219
 20
479.9999998685978
 30
0.0
 11
665.78432577795502
 21
747.00061821926352
 31
0.0
  0
ARC
  5
23F
100
AcDbEntity
  8
ADF70-1710
370
               5
390
0
  6
STYLE_12
 62
               7
100
AcDbCircle
 10
662.78432584165057
 20
747.00000002059664
 30
0.0
 40
3.0
100
AcDbArc
 50
0.0
 51
90.000000017509038
  0
CIRCLE
  5
240
100
AcDbEntity
  8
ADF70-1710
370
               5
390
0
  6
STYLE_12
 62
               7
100
AcDbCircle
 10
455.7843243353982
 20
691.21329406060227
 30
0.0
 40
17.5
  0
CIRCLE
  5
241
100
AcDbEntity
  8
ADF70-1710
370
               5
390
0
  6
STYLE_12
 62
               7
100
AcDbCircle
 10
455.78450609935317
 20
570.50805671174544
 30
0.0
 40
22.499999999998181
  0
ARC
  5
242
100
AcDbEntity
  8
ADF70-1710
370
               5
390
0
  6
STYLE_12
 62
               7
100
AcDbCircle
 10
615.78432010787219
 20
479.9999998685978
 30
0.0
 40
50.00000000000005
100
AcDbArc
 50
270.00000250420811
 51
0.0
  0
LINE
  5
243
100
AcDbEntity
  8
ADF70-1710
370
              15
390
0
  6
Continuous
 62
               7
100
AcDbLine
 10
650.7843250876067
 20
459.99999999999977
 30
0.0
 11
260.78432508760852
 21
460.00000000000023
 31
0.0
  0
LINE
  5
244
100
AcDbEntity
  8
ADF70-1710
370
              15
390
0
  6
Continuous
 62
               7
100
AcDbLine
 10
260.78432508760852
 20
749.99999974351317
 30
0.0
 11
260.78432508760852
 21
460.00000000000023
 31
0.0
  0
LINE
  5
245
100
AcDbEntity
  8
ADF70-1710
370
              15
390
0
  6
Continuous
 62
               7
100
AcDbLine
 10
650.78432508760852
 20
749.99999999999977
 30
0.0
 11
650.7843250876067
 21
459.99999999999977
 31
0.0
  0
LINE
  5
246
100
AcDbEntity
  8
ADF70-1710
370
              15
390
0
  6
Continuous
 62
               7
100
AcDbLine
 10
260.78432508760852
 20
749.99999974351317
 30
0.0
 11
650.78432508760852
 21
749.99999999999977
 31
0.0
  0
LINE
  5
247
100
AcDbEntity
  8
ADF70-1710
370
              15
390
0
  6
STYLE_12
 62
               7
100
AcDbLine
 10
-663.9154810826667
 20
-267.32006050271116
 30
0.0
 11
-664.91034161779953
 21
-267.32006050271116
 31
0.0
  0
POLYLINE
  5
248
100
AcDbEntity
  8
ADF70-1710
370
              15
390
0
  6
Continuous
 62
               7
100
AcDb3dPolyline
 66
               1
 10
0.0
 20
0.0
 30
0.0
 70
               8
  0
VERTEX
  5
249
100
AcDbEntity
  8
ADF70-1710
370
              15
390
0
  6
Continuous
 62
               7
100
AcDbVertex
100
AcDb3dPolylineVertex
 10
-658.70618040807312
 20
-269.64425122602711
 30
0.0
 70
              32
  0
VERTEX
  5
24A
100
AcDbEntity
  8
ADF70-1710
370
              15
390
0
  6
Continuous
 62
               7
100
AcDbVertex
100
AcDb3dPolylineVertex
 10
-659.22448506291857
 20
-269.12443252955904
 30
0.0
 70
              32
  0
VERTEX
  5
24B
100
AcDbEntity
  8
ADF70-1710
370
              15
390
0
  6
Continuous
 62
               7
100
AcDbVertex
100
AcDb3dPolylineVertex
 10
-659.79437622357909
 20
-268.66174985489556
 30
0.0
 70
              32
  0
VERTEX
  5
24C
100
AcDbEntity
  8
ADF70-1710
370
              15
390
0
  6
Continuous
 62
               7
100
AcDbVertex
100
AcDb3dPolylineVertex
 10
-660.40958685406531
 20
-268.26129127705076
 30
0.0
 70
              32
  0
VERTEX
  5
24D
100
AcDbEntity
  8
ADF70-1710
370
              15
390
0
  6
Continuous
 62
               7
100
AcDbVertex
100
AcDb3dPolylineVertex
 10
-661.06335154471617
 20
-267.92746059887827
 30
0.0
 70
              32
  0
VERTEX
  5
24E
100
AcDbEntity
  8
ADF70-1710
370
              15
390
0
  6
Continuous
 62
               7
100
AcDbVertex
100
AcDb3dPolylineVertex
 10
-661.74848091073909
 20
-267.66392892289582
 30
0.0
 70
              32
  0
VERTEX
  5
24F
100
AcDbEntity
  8
ADF70-1710
370
              15
390
0
  6
Continuous
 62
               7
100
AcDbVertex
100
AcDb3dPolylineVertex
 10
-662.45744065314375
 20
-267.47359428053801
 30
0.0
 70
              32
  0
VERTEX
  5
250
100
AcDbEntity
  8
ADF70-1710
370
              15
390
0
  6
Continuous
 62
               7
100
AcDbVertex
100
AcDb3dPolylineVertex
 10
-663.1824344126826
 20
-267.35854976279529
 30
0.0
 70
              32
  0
VERTEX
  5
251
100
AcDbEntity
  8
ADF70-1710
370
              15
390
0
  6
Continuous
 62
               7
100
AcDbVertex
100
AcDb3dPolylineVertex
 10
-663.91548950562628
 20
-267.32006050270206
 30
0.0
 70
              32
  0
SEQEND
  5
252
100
AcDbEntity
  8
ADF70-1710
370
              15
390
0
  6
Continuous
 62
               7
  0
LINE
  5
253
100
AcDbEntity
  8
ADF70-1710
370
              15
390
0
  6
STYLE_12
 62
               7
100
AcDbLine
 10
-589.86442264004563
 20
-371.32429688969819
 30
0.0
 11
-513.01318536867529
 21
-373.68331159890317
 31
0.0
  0
ARC
  5
254
100
AcDbEntity
  8
ADF70-1710
370
              15
390
0
  6
STYLE_12
 62
               7
100
AcDbCircle
 10
-587.18141242289676
 20
-356.56619890336219
 30
0.0
 40
14.999999999987967
100
AcDbArc
 50
211.79196447141166
 51
259.69620702544933
  0
LINE
  5
255
100
AcDbEntity
  8
ADF70-1710
370
              15
390
0
  6
STYLE_12
 62
               7
100
AcDbLine
 10
-658.70618040807221
 20
-269.64425122602711
 30
0.0
 11
-599.93091124735565
 21
-364.46874784182251
 31
0.0
  0
ARC
  5
256
100
AcDbEntity
  8
ADF70-1710
370
              15
390
0
  6
STYLE_12
 62
               7
100
AcDbCircle
 10
-420.80044239197196
 20
-388.08885527039433
 30
0.0
 40
14.000000000002787
100
AcDbArc
 50
91.99999999999207
 51
130.00000000000614
  0
LINE
  5
257
100
AcDbEntity
  8
ADF70-1710
370
              15
390
0
  6
STYLE_12
 62
               7
100
AcDbLine
 10
-429.79946892758653
 20
-377.36423306672737
 30
0.0
 11
-443.08371655464998
 21
-388.51104035106914
 31
0.0
  0
LINE
  5
258
100
AcDbEntity
  8
ADF70-1710
370
              15
390
0
  6
STYLE_12
 62
               7
100
AcDbLine
 10
-444.26521815997967
 20
-427.32006050271161
 30
0.0
 11
-443.61931487366292
 21
-389.63440194130749
 31
0.0
  0
LINE
  5
259
100
AcDbEntity
  8
ADF70-1710
370
              15
390
0
  6
STYLE_12
 62
               7
100
AcDbLine
 10
-443.59473001407878
 20
-388.90523376933857
 30
0.0
 11
-490.93634471379028
 21
-388.90523376933857
 31
0.0
  0
LINE
  5
25A
100
AcDbEntity
  8
ADF70-1710
370
              15
390
0
  6
STYLE_12
 62
               7
100
AcDbLine
 10
-430.10343376640867
 20
-377.58469206381346
 30
0.0
 11
-504.42761057961889
 21
-377.5846920638171
 31
0.0
  0
LINE
  5
25B
100
AcDbEntity
  8
ADF70-1710
370
              15
390
0
  6
STYLE_12
 62
               7
100
AcDbLine
 10
-491.44762726948738
 20
-388.49533974959127
 30
0.0
 11
-505.02686039606033
 21
-377.10101024141409
 31
0.0
  0
LINE
  5
25C
100
AcDbEntity
  8
ADF70-1710
370
              15
390
0
  6
STYLE_12
 62
               7
100
AcDbLine
 10
-490.91202895047445
 20
-389.61870133982961
 30
0.0
 11
-490.26585656788939
 21
-427.32006050271161
 31
0.0
  0
POLYLINE
  5
25D
100
AcDbEntity
  8
ADF70-1710
370
              15
390
0
  6
Continuous
 62
               7
100
AcDb3dPolyline
 66
               1
 10
0.0
 20
0.0
 30
0.0
 70
               8
  0
VERTEX
  5
25E
100
AcDbEntity
  8
ADF70-1710
370
              15
390
0
  6
Continuous
 62
               7
100
AcDbVertex
100
AcDb3dPolylineVertex
 10
-505.0268603960667
 20
-377.10101024140954
 30
0.0
 70
              32
  0
VERTEX
  5
25F
100
AcDbEntity
  8
ADF70-1710
370
              15
390
0
  6
Continuous
 62
               7
100
AcDbVertex
100
AcDb3dPolylineVertex
 10
-505.89599727742916
 20
-376.42450245766963
 30
0.0
 70
              32
  0
VERTEX
  5
260
100
AcDbEntity
  8
ADF70-1710
370
              15
390
0
  6
Continuous
 62
               7
100
AcDbVertex
100
AcDb3dPolylineVertex
 10
-506.81243104232726
 20
-375.81359259970236
 30
0.0
 70
              32
  0
VERTEX
  5
261
100
AcDbEntity
  8
ADF70-1710
370
              15
390
0
  6
Continuous
 62
               7
100
AcDbVertex
100
AcDb3dPolylineVertex
 10
-507.77122084320217
 20
-375.27157431795717
 30
0.0
 70
              32
  0
VERTEX
  5
262
100
AcDbEntity
  8
ADF70-1710
370
              15
390
0
  6
Continuous
 62
               7
100
AcDbVertex
100
AcDb3dPolylineVertex
 10
-508.76719747478182
 20
-374.80136984184833
 30
0.0
 70
              32
  0
VERTEX
  5
263
100
AcDbEntity
  8
ADF70-1710
370
              15
390
0
  6
Continuous
 62
               7
100
AcDbVertex
100
AcDb3dPolylineVertex
 10
-509.79499124326412
 20
-374.40551422489102
 30
0.0
 70
              32
  0
VERTEX
  5
264
100
AcDbEntity
  8
ADF70-1710
370
              15
390
0
  6
Continuous
 62
               7
100
AcDbVertex
100
AcDb3dPolylineVertex
 10
-510.84906091639823
 20
-374.08614167725341
 30
0.0
 70
              32
  0
VERTEX
  5
265
100
AcDbEntity
  8
ADF70-1710
370
              15
390
0
  6
Continuous
 62
               7
100
AcDbVertex
100
AcDb3dPolylineVertex
 10
-511.92372359841011
 20
-373.84497405940533
 30
0.0
 70
              32
  0
VERTEX
  5
266
100
AcDbEntity
  8
ADF70-1710
370
              15
390
0
  6
Continuous
 62
               7
100
AcDbVertex
100
AcDb3dPolylineVertex
 10
-513.01318536867529
 20
-373.68331159890317
 30
0.0
 70
              32
  0
SEQEND
  5
267
100
AcDbEntity
  8
ADF70-1710
370
              15
390
0
  6
Continuous
 62
               7
  0
LINE
  5
268
100
AcDbEntity
  8
ADF70-1710
370
              15
390
0
  6
STYLE_12
 62
               7
100
AcDbLine
 10
-270.61559364520235
 20
-267.32006050271116
 30
0.0
 11
-269.62073311006952
 21
-267.32006050271116
 31
0.0
  0
POLYLINE
  5
269
100
AcDbEntity
  8
ADF70-1710
370
              15
390
0
  6
Continuous
 62
               7
100
AcDb3dPolyline
 66
               1
 10
0.0
 20
0.0
 30
0.0
 70
               8
  0
VERTEX
  5
26A
100
AcDbEntity
  8
ADF70-1710
370
              15
390
0
  6
Continuous
 62
               7
100
AcDbVertex
100
AcDb3dPolylineVertex
 10
-275.82489431979593
 20
-269.64425122602711
 30
0.0
 70
              32
  0
VERTEX
  5
26B
100
AcDbEntity
  8
ADF70-1710
370
              15
390
0
  6
Continuous
 62
               7
100
AcDbVertex
100
AcDb3dPolylineVertex
 10
-275.30658966495048
 20
-269.12443252955904
 30
0.0
 70
              32
  0
VERTEX
  5
26C
100
AcDbEntity
  8
ADF70-1710
370
              15
390
0
  6
Continuous
 62
               7
100
AcDbVertex
100
AcDb3dPolylineVertex
 10
-274.73669850428996
 20
-268.66174985489556
 30
0.0
 70
              32
  0
VERTEX
  5
26D
100
AcDbEntity
  8
ADF70-1710
370
              15
390
0
  6
Continuous
 62
               7
100
AcDbVertex
100
AcDb3dPolylineVertex
 10
-274.12148787380374
 20
-268.26129127705076
 30
0.0
 70
              32
  0
VERTEX
  5
26E
100
AcDbEntity
  8
ADF70-1710
370
              15
390
0
  6
Continuous
 62
               7
100
AcDbVertex
100
AcDb3dPolylineVertex
 10
-273.46772318315288
 20
-267.92746059887827
 30
0.0
 70
              32
  0
VERTEX
  5
26F
100
AcDbEntity
  8
ADF70-1710
370
              15
390
0
  6
Continuous
 62
               7
100
AcDbVertex
100
AcDb3dPolylineVertex
 10
-272.78259381712996
 20
-267.66392892289582
 30
0.0
 70
              32
  0
VERTEX
  5
270
100
AcDbEntity
  8
ADF70-1710
370
              15
390
0
  6
Continuous
 62
               7
100
AcDbVertex
100
AcDb3dPolylineVertex
 10
-272.07363407472531
 20
-267.47359428053801
 30
0.0
 70
              32
  0
VERTEX
  5
271
100
AcDbEntity
  8
ADF70-1710
370
              15
390
0
  6
Continuous
 62
               7
100
AcDbVertex
100
AcDb3dPolylineVertex
 10
-271.34864031518646
 20
-267.35854976279529
 30
0.0
 70
              32
  0
VERTEX
  5
272
100
AcDbEntity
  8
ADF70-1710
370
              15
390
0
  6
Continuous
 62
               7
100
AcDbVertex
100
AcDb3dPolylineVertex
 10
-270.61558522224277
 20
-267.32006050270206
 30
0.0
 70
              32
  0
SEQEND
  5
273
100
AcDbEntity
  8
ADF70-1710
370
              15
390
0
  6
Continuous
 62
               7
  0
LINE
  5
274
100
AcDbEntity
  8
ADF70-1710
370
              15
390
0
  6
STYLE_12
 62
               7
100
AcDbLine
 10
-344.66665208782342
 20
-371.32429688969819
 30
0.0
 11
-421.51788935919376
 21
-373.68331159890317
 31
0.0
  0
ARC
  5
275
100
AcDbEntity
  8
ADF70-1710
370
              15
390
0
  6
STYLE_12
 62
               7
100
AcDbCircle
 10
-347.3496623049723
 20
-356.56619890336219
 30
0.0
 40
14.999999999987329
100
AcDbArc
 50
280.30379297455079
 51
328.20803552858837
  0
LINE
  5
276
100
AcDbEntity
  8
ADF70-1710
370
              15
390
0
  6
STYLE_12
 62
               7
100
AcDbLine
 10
-275.82489431979684
 20
-269.64425122602711
 30
0.0
 11
-334.6001634805134
 21
-364.46874784182251
 31
0.0
  0
LINE
  5
277
100
AcDbEntity
  8
ADF70-1710
370
              15
390
0
  6
Continuous
 62
               7
100
AcDbLine
 10
619.27966225452838
 20
-267.36001575074738
 30
0.0
 11
619.27966225452838
 21
-282.36001575074738
 31
0.0
  0
LINE
  5
278
100
AcDbEntity
  8
ADF70-1710
370
              15
390
0
  6
Continuous
 62
               7
100
AcDbLine
 10
584.27966225452838
 20
-267.36001575074738
 30
0.0
 11
584.27966225452838
 21
-282.36001575074738
 31
0.0
  0
ENDSEC
  0
SECTION
  2
OBJECTS
  0
DICTIONARY
  5
19
100
AcDbDictionary
280
               0
281
               1
  3
ACAD_GROUP
350
1A
  3
ACAD_MLINESTYLE
350
1B
  3
ACAD_LAYOUT
350
1E
  3
ACAD_PLOTSETTINGS
350
22
  3
ACAD_PLOTSTYLENAME
350
1F
  0
DICTIONARY
  5
1A
102
{ACAD_REACTORS
330
19
102
}
100
AcDbDictionary
280
               0
281
               1
  0
DICTIONARY
  5
1B
102
{ACAD_REACTORS
330
19
102
}
100
AcDbDictionary
280
               0
281
               1
  3
Standard
350
1C
  0
MLINESTYLE
  5
1C
102
{ACAD_REACTORS
330
1B
102
}
100
AcDbMlineStyle
  2
Standard
 70
               0
  3

 62
               0
 51
90.0
 52
90.0
 71
               2
 49
0.5
 62
             256
  6
ByLayer
 49
-0.5
 62
             256
  6
ByLayer
  0
ACDBDICTIONARYWDFLT
  5
1F
102
{ACAD_REACTORS
330
19
102
}
100
AcDbDictionary
281
               1
  3
Normal
350
1D
100
AcDbDictionaryWithDefault
340
1D
  0
ACDBPLACEHOLDER
  5
1D
102
{ACAD_REACTORS
330
1F
102
}
  0
LAYOUT
  5
20
102
{ACAD_REACTORS
330
1E
102
}
100
AcDbPlotSettings
  1

  2

  4

  6

 40
0.0
 41
0.0
 42
0.0
 43
0.0
 44
0.0
 45
0.0
 46
0.0
 47
0.0
 48
0.0
 49
0.0
140
0.0
141
0.0
142
1.0
143
1.0
 70
            1024
 72
               0
 73
               0
 74
               0
  7

 75
               0
147
1.0
148
0.0
149
0.0
100
AcDbLayout
  1
Model
 70
               0
 71
               0
 10
0.0
 20
0.0
 11
0.0
 21
0.0
 12
0.0
 22
0.0
 32
0.0
 14
0.0
 24
0.0
 34
0.0
 15
0.0
 25
0.0
 35
0.0
146
0.0
 13
0.0
 23
0.0
 33
0.0
 16
0.0
 26
0.0
 36
0.0
 17
0.0
 27
0.0
 37
0.0
 76
               0
330
A
331
0
345
0
346
0
  0
LAYOUT
  5
21
102
{ACAD_REACTORS
330
1E
102
}
100
AcDbPlotSettings
  1

  2

  4

  6

 40
0.0
 41
0.0
 42
0.0
 43
0.0
 44
0.0
 45
0.0
 46
0.0
 47
0.0
 48
0.0
 49
0.0
140
0.0
141
0.0
142
1.0
143
1.0
 70
               0
 72
               0
 73
               0
 74
               0
  7

 75
               0
147
1.0
148
0.0
149
0.0
100
AcDbLayout
  1
Layout1
 70
               0
 71
               0
 10
0.0
 20
0.0
 11
0.0
 21
0.0
 12
0.0
 22
0.0
 32
0.0
 14
0.0
 24
0.0
 34
0.0
 15
0.0
 25
0.0
 35
0.0
146
0.0
 13
0.0
 23
0.0
 33
0.0
 16
0.0
 26
0.0
 36
0.0
 17
0.0
 27
0.0
 37
0.0
 76
               0
330
B
331
0
345
0
346
0
  0
DICTIONARY
  5
1E
102
{ACAD_REACTORS
330
19
102
}
100
AcDbDictionary
280
               0
281
               1
  3
Layout1
350
21
  3
Model
350
20
  0
DICTIONARY
  5
22
102
{ACAD_REACTORS
330
19
102
}
100
AcDbDictionary
280
               0
281
               1
  0
ENDSEC
  0
EOF
