  0
SECTION
  2
HEADER
  9
$ACADVER
  1
AC1015
  9
$ACADMAINTVER
 70
               6
  9
$DWGCODEPAGE
  3
ANSI_932
  9
$INSBASE
 10
0.0
 20
0.0
 30
0.0
  9
$EXTMIN
 10
-975.00000000024102
 20
-1431.5255224711129
 30
-14.834305555555554
  9
$EXTMAX
 10
975.00000000024124
 20
1405.9972926412995
 30
14.834305555555554
  9
$LIMMIN
 10
0.0
 20
0.0
  9
$LIMMAX
 10
0.0
 20
0.0
  9
$ORTHOMODE
 70
               0
  9
$REGENMODE
 70
               1
  9
$FILLMODE
 70
               1
  9
$QTEXTMODE
 70
               0
  9
$MIRRTEXT
 70
               1
  9
$LTSCALE
 40
12.699999999999999
  9
$ATTMODE
 70
               1
  9
$TEXTSIZE
 40
0.2
  9
$TRACEWID
 40
1.0
  9
$TEXTSTYLE
  7
Standard
  9
$CLAYER
  8
template
  9
$CELTYPE
  6
Continuous
  9
$CECOLOR
 62
             256
  9
$CELTSCALE
 40
1.0
  9
$DISPSILH
 70
               0
  9
$DIMSCALE
 40
1.0
  9
$DIMASZ
 40
22.4482421875
  9
$DIMEXO
 40
15.875
  9
$DIMDLI
 40
10.16
  9
$DIMRND
 40
0.0
  9
$DIMDLE
 40
1.5874999999999999
  9
$DIMEXE
 40
31.75
  9
$DIMTP
 40
0.0
  9
$DIMTM
 40
0.0
  9
$DIMTXT
 40
24.432617187500004
  9
$DIMCEN
 40
0.0
  9
$DIMTSZ
 40
0.0
  9
$DIMTOL
 70
               0
  9
$DIMLIM
 70
               0
  9
$DIMTIH
 70
               0
  9
$DIMTOH
 70
               0
  9
$DIMSE1
 70
               0
  9
$DIMSE2
 70
               0
  9
$DIMTAD
 70
               1
  9
$DIMZIN
 70
              11
  9
$DIMBLK
  1
VW_SLASH
  9
$DIMASO
 70
               1
  9
$DIMSHO
 70
               1
  9
$DIMPOST
  1
<>
  9
$DIMAPOST
  1
[]
  9
$DIMALT
 70
               0
  9
$DIMALTD
 70
               1
  9
$DIMALTF
 40
1.0
  9
$DIMLFAC
 40
1.0
  9
$DIMTOFL
 70
               1
  9
$DIMTVP
 40
0.0
  9
$DIMTIX
 70
               1
  9
$DIMSOXD
 70
               0
  9
$DIMSAH
 70
               0
  9
$DIMBLK1
  1

  9
$DIMBLK2
  1

  9
$DIMSTYLE
  2
Arch
  9
$DIMCLRD
 70
               0
  9
$DIMCLRE
 70
               0
  9
$DIMCLRT
 70
               0
  9
$DIMTFAC
 40
1.0
  9
$DIMGAP
 40
1.5874999999999999
  9
$DIMJUST
 70
               0
  9
$DIMSD1
 70
               0
  9
$DIMSD2
 70
               0
  9
$DIMTOLJ
 70
               1
  9
$DIMTZIN
 70
              11
  9
$DIMALTZ
 70
              11
  9
$DIMALTTZ
 70
              11
  9
$DIMUPT
 70
               0
  9
$DIMDEC
 70
               1
  9
$DIMTDEC
 70
               1
  9
$DIMALTU
 70
               2
  9
$DIMALTTD
 70
               2
  9
$DIMTXSTY
  7
ＭＳ ゴシック
  9
$DIMAUNIT
 70
               0
  9
$DIMADEC
 70
               2
  9
$DIMALTRND
 40
0.0
  9
$DIMAZIN
 70
               0
  9
$DIMDSEP
 70
              46
  9
$DIMATFIT
 70
               0
  9
$DIMFRAC
 70
               2
  9
$DIMLDRBLK
  1

  9
$DIMLUNIT
 70
               2
  9
$DIMLWD
 70
              -2
  9
$DIMLWE
 70
              -2
  9
$DIMTMOVE
 70
               0
  9
$LUNITS
 70
               2
  9
$LUPREC
 70
               4
  9
$SKETCHINC
 40
0.1
  9
$FILLETRAD
 40
0.0
  9
$AUNITS
 70
               0
  9
$AUPREC
 70
               0
  9
$MENU
  1
acad
  9
$ELEVATION
 40
0.0
  9
$PELEVATION
 40
0.0
  9
$THICKNESS
 40
0.0
  9
$LIMCHECK
 70
               0
  9
$CHAMFERA
 40
0.0
  9
$CHAMFERB
 40
0.0
  9
$CHAMFERC
 40
0.0
  9
$CHAMFERD
 40
0.0
  9
$SKPOLY
 70
               0
  9
$TDCREATE
 40
2456050.601620371
  9
$TDUCREATE
 40
0.000000000
  9
$TDUPDATE
 40
2456050.601620371
  9
$TDUUPDATE
 40
0.000000000
  9
$TDINDWG
 40
0.0000000000
  9
$TDUSRTIMER
 40
0.0000000000
  9
$USRTIMER
 70
               1
  9
$ANGBASE
 50
0.0
  9
$ANGDIR
 70
               0
  9
$PDMODE
 70
               1
  9
$PDSIZE
 40
-2.0
  9
$PLINEWID
 40
0.0
  9
$SPLFRAME
 70
               0
  9
$SPLINETYPE
 70
               6
  9
$SPLINESEGS
 70
               8
  9
$HANDSEED
  5
1F7
  9
$SURFTAB1
 70
               6
  9
$SURFTAB2
 70
               6
  9
$SURFTYPE
 70
               6
  9
$SURFU
 70
               6
  9
$SURFV
 70
               6
  9
$UCSBASE
  2

  9
$UCSNAME
  2

  9
$UCSORG
 10
0.0
 20
0.0
 30
0.0
  9
$UCSXDIR
 10
1.0
 20
0.0
 30
0.0
  9
$UCSYDIR
 10
0.0
 20
1.0
 30
0.0
  9
$UCSORTHOREF
  2

  9
$UCSORTHOVIEW
 70
               0
  9
$UCSORGTOP
 10
0.0
 20
0.0
 30
0.0
  9
$UCSORGBOTTOM
 10
0.0
 20
0.0
 30
0.0
  9
$UCSORGLEFT
 10
0.0
 20
0.0
 30
0.0
  9
$UCSORGRIGHT
 10
0.0
 20
0.0
 30
0.0
  9
$UCSORGFRONT
 10
0.0
 20
0.0
 30
0.0
  9
$UCSORGBACK
 10
0.0
 20
0.0
 30
0.0
  9
$PUCSBASE
  2

  9
$PUCSNAME
  2

  9
$PUCSORG
 10
0.0
 20
0.0
 30
0.0
  9
$PUCSXDIR
 10
1.0
 20
0.0
 30
0.0
  9
$PUCSYDIR
 10
0.0
 20
1.0
 30
0.0
  9
$PUCSORTHOREF
  2

  9
$PUCSORTHOVIEW
 70
               0
  9
$PUCSORGTOP
 10
0.0
 20
0.0
 30
0.0
  9
$PUCSORGBOTTOM
 10
0.0
 20
0.0
 30
0.0
  9
$PUCSORGLEFT
 10
0.0
 20
0.0
 30
0.0
  9
$PUCSORGRIGHT
 10
0.0
 20
0.0
 30
0.0
  9
$PUCSORGFRONT
 10
0.0
 20
0.0
 30
0.0
  9
$PUCSORGBACK
 10
0.0
 20
0.0
 30
0.0
  9
$USERI1
 70
               0
  9
$USERI2
 70
               0
  9
$USERI3
 70
               0
  9
$USERI4
 70
               0
  9
$USERI5
 70
               0
  9
$USERR1
 40
0.0
  9
$USERR2
 40
0.0
  9
$USERR3
 40
0.0
  9
$USERR4
 40
0.0
  9
$USERR5
 40
0.0
  9
$WORLDVIEW
 70
               1
  9
$SHADEDGE
 70
               3
  9
$SHADEDIF
 70
              70
  9
$TILEMODE
 70
               1
  9
$MAXACTVP
 70
              64
  9
$PINSBASE
 10
0.0
 20
0.0
 30
0.0
  9
$PLIMCHECK
 70
               0
  9
$PEXTMIN
 10
1.0000000000000000E+20
 20
1.0000000000000000E+20
 30
1.0000000000000000E+20
  9
$PEXTMAX
 10
-1.0000000000000000E+20
 20
-1.0000000000000000E+20
 30
-1.0000000000000000E+20
  9
$PLIMMIN
 10
0.0
 20
0.0
  9
$PLIMMAX
 10
12.0
 20
9.0
  9
$UNITMODE
 70
               0
  9
$VISRETAIN
 70
               0
  9
$PLINEGEN
 70
               1
  9
$PSLTSCALE
 70
               0
  9
$TREEDEPTH
 70
            3020
  9
$CMLSTYLE
  2
Standard
  9
$CMLJUST
 70
               0
  9
$CMLSCALE
 40
1.0
  9
$PROXYGRAPHICS
 70
               0
  9
$MEASUREMENT
 70
               1
  9
$CELWEIGHT
370
               0
  9
$ENDCAPS
280
               0
  9
$JOINSTYLE
280
               0
  9
$LWDISPLAY
290
               1
  9
$INSUNITS
 70
               4
  9
$HYPERLINKBASE
  1

  9
$STYLESHEET
  1

  9
$XEDIT
290
               1
  9
$CEPSNTYPE
380
               0
  9
$PSTYLEMODE
290
               1
  9
$FINGERPRINTGUID
  2

  9
$VERSIONGUID
  2

  9
$EXTNAMES
290
               1
  9
$PSVPSCALE
 40
0.0
  0
ENDSEC
  0
SECTION
  2
CLASSES
  0
CLASS
  1
LWPOLYLINE
  2
AcDbPolyline
  3
AutoCAD 2000
 90
        0
280
               0
281
               1
  0
CLASS
  1
IMAGE
  2
AcDbRasterImage
  3
ISM
 90
      127
280
               0
281
               1
  0
CLASS
  1
OLE2FRAME
  2
AcDbOle2Frame
  3
AutoCAD 2000
 90
        0
280
               0
281
               1
  0
CLASS
  1
HATCH
  2
AcDbHatch
  3
AutoCAD 2000
 90
        0
280
               0
281
               1
  0
CLASS
  1
DICTIONARYVAR
  2
AcDbDictionaryVar
  3
AutoCAD 2000
 90
        0
280
               0
281
               0
  0
CLASS
  1
RASTERVARIABLES
  2
AcDbRasterVariables
  3
ISM
 90
        0
280
               0
281
               0
  0
CLASS
  1
IMAGEDEF
  2
AcDbRasterImageDef
  3
ISM
 90
        0
280
               0
281
               0
  0
CLASS
  1
IMAGEDEF_REACTOR
  2
AcDbRasterImageDefReactor
  3
ISM
 90
        1
280
               0
281
               0
  0
CLASS
  1
IDBUFFER
  2
AcDbIdBuffer
  3
AutoCAD 2000
 90
        0
280
               0
281
               0
  0
CLASS
  1
SPATIAL_FILTER
  2
AcDbSpatialFilter
  3
AutoCAD 2000
 90
        0
280
               0
281
               0
  0
CLASS
  1
XRECORD
  2
AcDbXrecord
  3
AutoCAD 2000
 90
        0
280
               0
281
               0
  0
CLASS
  1
SORTENTSTABLE
  2
AcDbSortentsTable
  3
AutoCAD 2000
 90
        0
280
               0
281
               0
  0
CLASS
  1
LAYER_INDEX
  2
AcDbLayerIndex
  3
AutoCAD 2000
 90
        0
280
               0
281
               0
  0
CLASS
  1
SPATIAL_INDEX
  2
AcDbSpatialIndex
  3
AutoCAD 2000
 90
        0
280
               0
281
               0
  0
CLASS
  1
OBJECT_PTR
  2
CAseDLPNTableRecord
  3
"ASE-LPNTableRecord"
 90
        1
280
               0
281
               0
  0
CLASS
  1
LAYOUT
  2
AcDbLayout
  3
AutoCAD 2000
 90
        0
280
               0
281
               0
  0
CLASS
  1
PLOTSETTINGS
  2
AcDbPlotSettings
  3
AutoCAD 2000
 90
        0
280
               0
281
               0
  0
CLASS
  1
ACDBDICTIONARYWDFLT
  2
AcDbDictionaryWithDefault
  3
AutoCAD 2000
 90
        0
280
               0
281
               0
  0
CLASS
  1
ACDBPLACEHOLDER
  2
AcDbPlaceHolder
  3
AutoCAD 2000
 90
        0
280
               0
281
               0
  0
ENDSEC
  0
SECTION
  2
TABLES
  0
TABLE
  2
VPORT
  5
7
100
AcDbSymbolTable
 70
               1
  0
VPORT
  5
15
100
AcDbSymbolTableRecord
100
AcDbViewportTableRecord
  2
*ACTIVE
 70
               0
 10
0.0
 20
0.0
 11
1.0
 21
1.0
 12
0.0000000000001137
 22
-12.764114914906713
 13
0.0
 23
0.0
 14
1.0
 24
1.0
 15
0.0
 25
0.0
 16
0.0
 26
0.0
 36
1.0
 17
0.0
 27
0.0
 37
0.0
 40
2837.5228151124124
 41
0.688564
 42
50.0
 43
0.0
 44
0.0
 50
0.0
 51
0.0
 71
               0
 72
            2000
 73
               1
 74
               1
 75
               0
 76
               0
 77
               0
 78
               0
281
               0
 65
               0
110
0.0
120
0.0
130
0.0
111
1.0
121
0.0
131
0.0
112
0.0
122
1.0
132
0.0
345
0
346
0
 79
               0
146
0.0
  0
ENDTAB
  0
TABLE
  2
LTYPE
  5
4
100
AcDbSymbolTable
 70
              28
  0
LTYPE
  5
11
100
AcDbSymbolTableRecord
100
AcDbLinetypeTableRecord
  2
ByBlock
 70
              64
  3

 72
              65
 73
               0
 40
0.0
  0
LTYPE
  5
12
100
AcDbSymbolTableRecord
100
AcDbLinetypeTableRecord
  2
ByLayer
 70
              64
  3

 72
              65
 73
               0
 40
0.0
  0
LTYPE
  5
13
100
AcDbSymbolTableRecord
100
AcDbLinetypeTableRecord
  2
Continuous
 70
              64
  3
Solid line
 72
              65
 73
               0
 40
0.0
  0
LTYPE
  5
36
100
AcDbSymbolTableRecord
100
AcDbLinetypeTableRecord
  2
STYLE_01
 70
               0
  3

 72
              65
 73
               2
 40
2.066929133858268
 49
1.377952755905512
 74
               0
 49
-0.688976377952756
 74
               0
  0
LTYPE
  5
37
100
AcDbSymbolTableRecord
100
AcDbLinetypeTableRecord
  2
STYLE_02
 70
               0
  3

 72
              65
 73
               2
 40
1.5748031496062995
 49
0.7874015748031498
 74
               0
 49
-0.7874015748031498
 74
               0
  0
LTYPE
  5
38
100
AcDbSymbolTableRecord
100
AcDbLinetypeTableRecord
  2
STYLE_03
 70
               0
  3

 72
              65
 73
               4
 40
0.4513891732283464
 49
0.1388889763779528
 74
               0
 49
-0.1388889763779528
 74
               0
 49
0.0347222440944882
 74
               0
 49
-0.1388889763779527
 74
               0
  0
LTYPE
  5
39
100
AcDbSymbolTableRecord
100
AcDbLinetypeTableRecord
  2
STYLE_04
 70
               0
  3

 72
              65
 73
               4
 40
0.2997984251968504
 49
0.2477153543307087
 74
               0
 49
-0.0173610236220472
 74
               0
 49
0.0173610236220472
 74
               0
 49
-0.0173610236220472
 74
               0
  0
LTYPE
  5
3A
100
AcDbSymbolTableRecord
100
AcDbLinetypeTableRecord
  2
STYLE_05
 70
               0
  3

 72
              65
 73
               4
 40
0.2997984251968504
 49
0.2477153543307087
 74
               0
 49
-0.0173610236220472
 74
               0
 49
0.0173610236220472
 74
               0
 49
-0.0173610236220472
 74
               0
  0
LTYPE
  5
3B
100
AcDbSymbolTableRecord
100
AcDbLinetypeTableRecord
  2
STYLE_06
 70
               0
  3

 72
              65
 73
               4
 40
0.2636738188976378
 49
0.2009931102362205
 74
               0
 49
-0.0145903543307086
 74
               0
 49
0.0335
 74
               0
 49
-0.0145903543307086
 74
               0
  0
LTYPE
  5
3C
100
AcDbSymbolTableRecord
100
AcDbLinetypeTableRecord
  2
STYLE_07
 70
               0
  3

 72
              65
 73
               4
 40
0.2636738188976378
 49
0.2009931102362205
 74
               0
 49
-0.0145903543307086
 74
               0
 49
0.0335
 74
               0
 49
-0.0145903543307086
 74
               0
  0
LTYPE
  5
3D
100
AcDbSymbolTableRecord
100
AcDbLinetypeTableRecord
  2
STYLE_08
 70
               0
  3

 72
              65
 73
               6
 40
2.5
 49
1.25
 74
               0
 49
-0.41656
 74
               0
 49
0.1388600000000001
 74
               0
 49
-0.2778600000000001
 74
               0
 49
0.1388599999999998
 74
               0
 49
-0.2778600000000001
 74
               0
  0
LTYPE
  5
3E
100
AcDbSymbolTableRecord
100
AcDbLinetypeTableRecord
  2
STYLE_09
 70
               0
  3

 72
              65
 73
               4
 40
10.0
 49
7.5
 74
               0
 49
-0.5555699999999997
 74
               0
 49
1.3888600000000006
 74
               0
 49
-0.5555699999999997
 74
               0
  0
LTYPE
  5
3F
100
AcDbSymbolTableRecord
100
AcDbLinetypeTableRecord
  2
STYLE_10
 70
               0
  3

 72
              65
 73
               6
 40
11.875
 49
7.5
 74
               0
 49
-0.5555699999999997
 74
               0
 49
1.3888600000000006
 74
               0
 49
-0.5555699999999997
 74
               0
 49
1.25
 74
               0
 49
-0.625
 74
               0
  0
LTYPE
  5
40
100
AcDbSymbolTableRecord
100
AcDbLinetypeTableRecord
  2
STYLE_11
 70
               0
  3

 72
              65
 73
               8
 40
0.1259842519685039
 49
0.0708661417322834
 74
               0
 49
-0.0078740157480315
 74
               0
 49
0.0078740157480315
 74
               0
 49
-0.0078740157480315
 74
               0
 49
0.0078740157480315
 74
               0
 49
-0.0078740157480315
 74
               0
 49
0.0078740157480315
 74
               0
 49
-0.0078740157480315
 74
               0
  0
LTYPE
  5
41
100
AcDbSymbolTableRecord
100
AcDbLinetypeTableRecord
  2
STYLE_12
 70
               0
  3

 72
              65
 73
              10
 40
0.1259842519685039
 49
0.0551181102362205
 74
               0
 49
-0.0078740157480315
 74
               0
 49
0.0078740157480315
 74
               0
 49
-0.0078740157480315
 74
               0
 49
0.0078740157480315
 74
               0
 49
-0.0078740157480315
 74
               0
 49
0.0078740157480315
 74
               0
 49
-0.0078740157480315
 74
               0
 49
0.0078740157480315
 74
               0
 49
-0.0078740157480315
 74
               0
  0
LTYPE
  5
42
100
AcDbSymbolTableRecord
100
AcDbLinetypeTableRecord
  2
STYLE_13
 70
               0
  3

 72
              65
 73
              10
 40
0.1259842519685039
 49
0.0551181102362205
 74
               0
 49
-0.0078740157480315
 74
               0
 49
0.0078740157480315
 74
               0
 49
-0.0078740157480315
 74
               0
 49
0.0078740157480315
 74
               0
 49
-0.0078740157480315
 74
               0
 49
0.0078740157480315
 74
               0
 49
-0.0078740157480315
 74
               0
 49
0.0078740157480315
 74
               0
 49
-0.0078740157480315
 74
               0
  0
LTYPE
  5
43
100
AcDbSymbolTableRecord
100
AcDbLinetypeTableRecord
  2
STYLE_14
 70
               0
  3

 72
              65
 73
              10
 40
0.1102362204724409
 49
0.0393700787401575
 74
               0
 49
-0.0078740157480315
 74
               0
 49
0.0078740157480315
 74
               0
 49
-0.0078740157480315
 74
               0
 49
0.0078740157480315
 74
               0
 49
-0.0078740157480315
 74
               0
 49
0.0078740157480315
 74
               0
 49
-0.0078740157480315
 74
               0
 49
0.0078740157480315
 74
               0
 49
-0.0078740157480315
 74
               0
  0
LTYPE
  5
44
100
AcDbSymbolTableRecord
100
AcDbLinetypeTableRecord
  2
STYLE_15
 70
               0
  3

 72
              65
 73
              10
 40
0.1102362204724409
 49
0.0393700787401575
 74
               0
 49
-0.0078740157480315
 74
               0
 49
0.0078740157480315
 74
               0
 49
-0.0078740157480315
 74
               0
 49
0.0078740157480315
 74
               0
 49
-0.0078740157480315
 74
               0
 49
0.0078740157480315
 74
               0
 49
-0.0078740157480315
 74
               0
 49
0.0078740157480315
 74
               0
 49
-0.0078740157480315
 74
               0
  0
LTYPE
  5
45
100
AcDbSymbolTableRecord
100
AcDbLinetypeTableRecord
  2
STYLE_16
 70
               0
  3

 72
              65
 73
               2
 40
0.1267842519685039
 49
0.1259842519685039
 74
               0
 49
-0.002
 74
               0
  0
LTYPE
  5
46
100
AcDbSymbolTableRecord
100
AcDbLinetypeTableRecord
  2
STYLE_17
 70
               0
  3

 72
              65
 73
               2
 40
0.1267842519685039
 49
0.1259842519685039
 74
               0
 49
-0.002
 74
               0
  0
LTYPE
  5
47
100
AcDbSymbolTableRecord
100
AcDbLinetypeTableRecord
  2
STYLE_18
 70
               0
  3

 72
              65
 73
               4
 40
0.1023622047244094
 49
0.0735433070866142
 74
               0
 49
-0.0096062992125984
 74
               0
 49
0.0096062992125984
 74
               0
 49
-0.0096062992125984
 74
               0
  0
LTYPE
  5
48
100
AcDbSymbolTableRecord
100
AcDbLinetypeTableRecord
  2
STYLE_19
 70
               0
  3

 72
              65
 73
               2
 40
0.1267842519685039
 49
0.1259842519685039
 74
               0
 49
-0.002
 74
               0
  0
LTYPE
  5
49
100
AcDbSymbolTableRecord
100
AcDbLinetypeTableRecord
  2
STYLE_20
 70
               0
  3

 72
              65
 73
               4
 40
0.1023622047244094
 49
0.0735433070866142
 74
               0
 49
-0.0096062992125984
 74
               0
 49
0.0096062992125984
 74
               0
 49
-0.0096062992125984
 74
               0
  0
LTYPE
  5
4A
100
AcDbSymbolTableRecord
100
AcDbLinetypeTableRecord
  2
STYLE_21
 70
               0
  3

 72
              65
 73
               2
 40
0.555555905511811
 49
0.2777779527559055
 74
               0
 49
-0.2777779527559055
 74
               0
  0
LTYPE
  5
4B
100
AcDbSymbolTableRecord
100
AcDbLinetypeTableRecord
  2
STYLE_22
 70
               0
  3

 72
              65
 73
               6
 40
23.75
 49
15.0
 74
               0
 49
-1.1111399999999994
 74
               0
 49
2.7777200000000013
 74
               0
 49
-1.1111399999999994
 74
               0
 49
2.5
 74
               0
 49
-1.25
 74
               0
  0
LTYPE
  5
4C
100
AcDbSymbolTableRecord
100
AcDbLinetypeTableRecord
  2
STYLE_23
 70
               0
  3

 72
              65
 73
               2
 40
1.5748031496062991
 49
0.7874015748031495
 74
               0
 49
-0.7874015748031495
 74
               0
  0
LTYPE
  5
4D
100
AcDbSymbolTableRecord
100
AcDbLinetypeTableRecord
  2
STYLE_24
 70
               0
  3

 72
              65
 73
               2
 40
15.748031496062991
 49
7.8740157480314954
 74
               0
 49
-7.8740157480314954
 74
               0
  0
LTYPE
  5
4E
100
AcDbSymbolTableRecord
100
AcDbLinetypeTableRecord
  2
STYLE_25
 70
               0
  3

 72
              65
 73
               2
 40
0.75
 49
0.4999999999999999
 74
               0
 49
-0.25
 74
               0
  0
ENDTAB
  0
TABLE
  2
LAYER
  5
2
100
AcDbSymbolTable
 70
               5
  0
LAYER
  5
14
100
AcDbSymbolTableRecord
100
AcDbLayerTableRecord
  2
0
 70
               0
 62
               7
  6
Continuous
290
               1
370
              -3
390
1D
  0
LAYER
  5
4F
100
AcDbSymbolTableRecord
100
AcDbLayerTableRecord
  2
Defpoints
 70
               0
 62
               7
  6
Continuous
290
               0
370
              -3
390
1D
  0
LAYER
  5
50
100
AcDbSymbolTableRecord
100
AcDbLayerTableRecord
  2
template
 70
               0
 62
               7
  6
Continuous
290
               1
370
              -3
390
1D
  0
LAYER
  5
51
100
AcDbSymbolTableRecord
100
AcDbLayerTableRecord
  2
notes
 70
               0
 62
               7
  6
Continuous
290
               1
370
              -3
390
1D
  0
LAYER
  5
52
100
AcDbSymbolTableRecord
100
AcDbLayerTableRecord
  2
ADF70-1801
 70
               0
 62
               7
  6
Continuous
290
               1
370
              -3
390
1D
  0
ENDTAB
  0
TABLE
  2
STYLE
  5
3
100
AcDbSymbolTable
 70
               2
  0
STYLE
  5
17
100
AcDbSymbolTableRecord
100
AcDbTextStyleTableRecord
  2
Standard
 70
               0
 40
0.0
 41
1.0
 50
0.0
 71
               0
 42
0.0
  3
txt
  4
BIGFONT.SHX
  0
STYLE
  5
35
100
AcDbSymbolTableRecord
100
AcDbTextStyleTableRecord
  2
ＭＳ ゴシック
 70
               0
 40
0.0
 41
1.0
 50
0.0
 71
               0
 42
0.0
  3

  4
ＭＳ ゴシック
1001
ACAD
1000
ＭＳ ゴシック
1071
        0
  0
ENDTAB
  0
TABLE
  2
VIEW
  5
5
100
AcDbSymbolTable
 70
               0
  0
ENDTAB
  0
TABLE
  2
UCS
  5
6
100
AcDbSymbolTable
 70
               0
  0
ENDTAB
  0
TABLE
  2
APPID
  5
8
100
AcDbSymbolTable
 70
               1
  0
APPID
  5
16
100
AcDbSymbolTableRecord
100
AcDbRegAppTableRecord
  2
ACAD
 70
               0
  0
ENDTAB
  0
TABLE
  2
DIMSTYLE
  5
9
100
AcDbSymbolTable
 70
               3
100
AcDbDimStyleTable
 71
               0
  0
DIMSTYLE
105
18
100
AcDbSymbolTableRecord
100
AcDbDimStyleTableRecord
  2
Standard
 70
               0
  3

  4

 40
1.0
 41
0.18
 42
0.0625
 43
0.38
 44
0.18
 45
0.0
 46
0.0
 47
0.0
 48
0.0
 71
               0
 72
               0
 73
               1
 74
               1
 75
               0
 76
               0
 77
               0
 78
               0
 79
               0
140
0.18
141
0.09
142
0.0
143
25.399999999999999
144
1.0
145
0.0
146
1.0
147
0.09
148
0.0
170
               0
171
               2
172
               0
173
               0
174
               0
175
               0
176
               0
177
               0
178
               0
179
               0
271
               4
272
               4
273
               2
274
               2
275
               0
276
               0
277
               2
278
              46
279
               0
280
               0
281
               0
282
               0
283
               1
284
               0
285
               0
286
               0
288
               0
289
               3
340
17
341
0
342
0
343
0
344
0
371
              -2
372
              -2
  0
DIMSTYLE
105
5B
100
AcDbSymbolTableRecord
100
AcDbDimStyleTableRecord
  2
tfrom線あり
 70
               0
  3
<>
  4
[]
 40
1.0
 41
3.999755859375
 42
24.999999999999996
 43
0.9999999999999999
 44
0.0
 45
0.0
 46
0.0
 47
0.0
 48
0.0
 71
               0
 72
               0
 73
               0
 74
               0
 75
               0
 76
               0
 77
               1
 78
              11
 79
               0
140
24.432617187500004
141
0.0
142
0.0
143
1.0
144
1.0
145
0.0
146
1.0
147
0.4999999999999999
148
0.0
170
               0
171
               1
172
               0
173
               0
174
               1
175
               0
176
               0
177
               0
178
               0
179
               2
271
               1
272
               1
273
               2
274
               2
275
               0
276
               2
277
               2
278
              46
279
               0
280
               0
281
               0
282
               0
283
               1
284
              11
285
              11
286
              11
288
               0
289
               0
340
35
341
53
342
53
343
0
344
0
371
              -2
372
              -2
  0
DIMSTYLE
105
65
100
AcDbSymbolTableRecord
100
AcDbDimStyleTableRecord
  2
Arch
 70
               0
  3
<>
  4
[]
 40
1.0
 41
22.4482421875
 42
15.875
 43
10.16
 44
31.75
 45
0.0
 46
1.5874999999999999
 47
0.0
 48
0.0
 71
               0
 72
               0
 73
               0
 74
               0
 75
               0
 76
               0
 77
               1
 78
              11
 79
               0
140
24.432617187500004
141
0.0
142
0.0
143
1.0
144
1.0
145
0.0
146
1.0
147
1.5874999999999999
148
0.0
170
               0
171
               1
172
               1
173
               0
174
               1
175
               0
176
               0
177
               0
178
               0
179
               2
271
               1
272
               1
273
               2
274
               2
275
               0
276
               2
277
               2
278
              46
279
               0
280
               0
281
               0
282
               0
283
               1
284
              11
285
              11
286
              11
288
               0
289
               0
340
35
341
61
342
5C
343
0
344
0
371
              -2
372
              -2
  0
ENDTAB
  0
TABLE
  2
BLOCK_RECORD
  5
1
100
AcDbSymbolTable
 70
              21
  0
BLOCK_RECORD
  5
A
100
AcDbSymbolTableRecord
100
AcDbBlockTableRecord
  2
*MODEL_SPACE
340
20
  0
BLOCK_RECORD
  5
B
100
AcDbSymbolTableRecord
100
AcDbBlockTableRecord
  2
*PAPER_SPACE
340
21
  0
BLOCK_RECORD
  5
53
100
AcDbSymbolTableRecord
100
AcDbBlockTableRecord
  2
_DOT
340
0
  0
BLOCK_RECORD
  5
5C
100
AcDbSymbolTableRecord
100
AcDbBlockTableRecord
  2
VW_SLASH
340
0
  0
BLOCK_RECORD
  5
61
100
AcDbSymbolTableRecord
100
AcDbBlockTableRecord
  2
VW_FILLEDARROW
340
0
  0
BLOCK_RECORD
  5
23
100
AcDbSymbolTableRecord
100
AcDbBlockTableRecord
  2
グループ
340
0
102
{BLKREFS
331
155
102
}
  0
BLOCK_RECORD
  5
24
100
AcDbSymbolTableRecord
100
AcDbBlockTableRecord
  2
*D4
340
0
  0
BLOCK_RECORD
  5
25
100
AcDbSymbolTableRecord
100
AcDbBlockTableRecord
  2
*D5
340
0
  0
BLOCK_RECORD
  5
26
100
AcDbSymbolTableRecord
100
AcDbBlockTableRecord
  2
*D6
340
0
  0
BLOCK_RECORD
  5
27
100
AcDbSymbolTableRecord
100
AcDbBlockTableRecord
  2
*D7
340
0
  0
BLOCK_RECORD
  5
28
100
AcDbSymbolTableRecord
100
AcDbBlockTableRecord
  2
*D8
340
0
  0
BLOCK_RECORD
  5
29
100
AcDbSymbolTableRecord
100
AcDbBlockTableRecord
  2
*D9
340
0
  0
BLOCK_RECORD
  5
2A
100
AcDbSymbolTableRecord
100
AcDbBlockTableRecord
  2
*D10
340
0
  0
BLOCK_RECORD
  5
2B
100
AcDbSymbolTableRecord
100
AcDbBlockTableRecord
  2
*D11
340
0
  0
BLOCK_RECORD
  5
2C
100
AcDbSymbolTableRecord
100
AcDbBlockTableRecord
  2
*D12
340
0
  0
BLOCK_RECORD
  5
2D
100
AcDbSymbolTableRecord
100
AcDbBlockTableRecord
  2
*D13
340
0
  0
BLOCK_RECORD
  5
2E
100
AcDbSymbolTableRecord
100
AcDbBlockTableRecord
  2
*D14
340
0
  0
BLOCK_RECORD
  5
2F
100
AcDbSymbolTableRecord
100
AcDbBlockTableRecord
  2
*D15
340
0
  0
BLOCK_RECORD
  5
30
100
AcDbSymbolTableRecord
100
AcDbBlockTableRecord
  2
*D16
340
0
  0
BLOCK_RECORD
  5
31
100
AcDbSymbolTableRecord
100
AcDbBlockTableRecord
  2
*D17
340
0
  0
BLOCK_RECORD
  5
32
100
AcDbSymbolTableRecord
100
AcDbBlockTableRecord
  2
*D18
340
0
  0
BLOCK_RECORD
  5
33
100
AcDbSymbolTableRecord
100
AcDbBlockTableRecord
  2
*D19
340
0
  0
BLOCK_RECORD
  5
34
100
AcDbSymbolTableRecord
100
AcDbBlockTableRecord
  2
*D20
340
0
  0
ENDTAB
  0
ENDSEC
  0
SECTION
  2
BLOCKS
  0
BLOCK
  5
D
100
AcDbEntity
  8
0
390
0
100
AcDbBlockBegin
  2
*MODEL_SPACE
 70
               0
 10
0.0
 20
0.0
 30
0.0
  3
*MODEL_SPACE
  1

  0
ENDBLK
  5
E
100
AcDbEntity
  8
0
390
0
100
AcDbBlockEnd
  0
BLOCK
  5
F
100
AcDbEntity
 67
               1
  8
0
390
0
100
AcDbBlockBegin
  2
*PAPER_SPACE
 70
               0
 10
0.0
 20
0.0
 30
0.0
  3
*PAPER_SPACE
  1

  0
ENDBLK
  5
10
100
AcDbEntity
 67
               1
  8
0
390
0
100
AcDbBlockEnd
  0
BLOCK
  5
54
100
AcDbEntity
  8
0
390
0
100
AcDbBlockBegin
  2
_DOT
 70
               0
 10
0.0
 20
0.0
 30
0.0
  3
_DOT
  1

  0
POLYLINE
  5
55
100
AcDbEntity
  8
0
370
              -2
390
0
  6
ByBlock
 62
               0
100
AcDb2dPolyline
 66
               1
 10
0.0
 20
0.0
 30
0.0
 70
               1
 40
0.5
 41
0.5
  0
VERTEX
  5
56
100
AcDbEntity
  8
0
370
              -2
390
0
  6
ByBlock
 62
               0
100
AcDbVertex
100
AcDb2dVertex
 10
-0.25
 20
0.0
 30
0.0
 42
1.0
  0
VERTEX
  5
57
100
AcDbEntity
  8
0
370
              -2
390
0
  6
ByBlock
 62
               0
100
AcDbVertex
100
AcDb2dVertex
 10
0.25
 20
0.0
 30
0.0
 42
1.0
  0
SEQEND
  5
58
100
AcDbEntity
  8
0
390
0
  0
LINE
  5
59
100
AcDbEntity
  8
0
370
              -2
390
0
  6
ByBlock
 62
               0
100
AcDbLine
 10
-0.5
 20
0.0
 30
0.0
 11
-1.0
 21
0.0
 31
0.0
  0
ENDBLK
  5
5A
100
AcDbEntity
  8
0
390
0
100
AcDbBlockEnd
  0
BLOCK
  5
5D
100
AcDbEntity
  8
0
370
              -2
390
0
  6
ByBlock
 62
               0
100
AcDbBlockBegin
  2
VW_SLASH
 70
               0
 10
0.0
 20
0.0
 30
0.0
  3
VW_SLASH
  1

  0
LINE
  5
5E
100
AcDbEntity
  8
0
370
              -2
390
0
  6
ByBlock
 62
               0
100
AcDbLine
 10
0.0
 20
0.0
 30
0.0
 11
-1.0
 21
0.0
 31
0.0
  0
LINE
  5
5F
100
AcDbEntity
  8
0
370
              20
390
0
  6
ByBlock
 62
               0
100
AcDbLine
 10
-0.4987813153181721
 20
-0.4987813153181719
 30
0.0
 11
0.4987813153181721
 21
0.4987813153181719
 31
0.0
  0
ENDBLK
  5
60
100
AcDbEntity
  8
0
390
0
100
AcDbBlockEnd
  0
BLOCK
  5
62
100
AcDbEntity
  8
0
370
              -2
390
0
  6
ByBlock
 62
               0
100
AcDbBlockBegin
  2
VW_FILLEDARROW
 70
               0
 10
0.0
 20
0.0
 30
0.0
  3
VW_FILLEDARROW
  1

  0
SOLID
  5
63
100
AcDbEntity
  8
0
370
              -2
390
0
 62
               0
100
AcDbTrace
 10
0.0
 20
0.0
 30
0.0
 11
-1.4107666015625
 21
-0.3780137715974714
 31
0.0
 12
-1.4107666015625
 22
0.3780137715974717
 32
0.0
 13
-1.4107666015625
 23
0.3780137715974717
 33
0.0
  0
ENDBLK
  5
64
100
AcDbEntity
  8
0
390
0
100
AcDbBlockEnd
  0
BLOCK
  5
66
100
AcDbEntity
  8
template
390
0
100
AcDbBlockBegin
  2
グループ
 70
               0
 10
0.0
 20
0.0
 30
0.0
  3
グループ
  1

  0
LWPOLYLINE
  5
67
100
AcDbEntity
  8
0
370
              15
390
0
  6
Continuous
 62
               7
100
AcDbPolyline
 90
        8
 70
             129
 10
-1133.5913164530962
 20
-1808.4543893976834
 10
-1133.5913164530962
 20
-1814.4517780912593
 10
-1143.0925133710994
 20
-1814.4517780912593
 10
-1143.0925133710994
 20
-1838.9027413547681
 10
-1151.4478906328823
 20
-1838.9027413547681
 10
-1151.4478906328823
 20
-1814.4517780912593
 10
-1160.7808475791917
 20
-1814.4517780912593
 10
-1160.7808475791917
 20
-1808.4543893976834
  0
LWPOLYLINE
  5
68
100
AcDbEntity
  8
0
370
              15
390
0
  6
Continuous
 62
               7
100
AcDbPolyline
 90
      101
 70
             128
 10
-1120.8630246225393
 20
-1809.1826378906198
 10
-1120.8476745937546
 20
-1809.1782771339349
 42
-0.0222221607814111
 10
-1120.5576700170832
 20
-1809.1096526686902
 10
-1120.5418762530921
 20
-1809.1066492455936
 42
-0.0146883565587998
 10
-1120.2791735478654
 20
-1809.0646460586438
 42
-0.0127458844183685
 10
-1120.014534580708
 20
-1809.037109090571
 10
-1119.9520795023996
 20
-1809.0322156679831
 42
-0.0198099018565911
 10
-1119.5612303929263
 20
-1809.0171305105864
 10
-1119.509418923479
 20
-1809.0171842862514
 42
-0.0147617382762329
 10
-1119.0147954625045
 20
-1809.0323043114965
 10
-1118.9421040076331
 20
-1809.0366769183838
 42
-0.0162624549003037
 10
-1118.5519503781652
 20
-1809.0729097936564
 10
-1118.4304179868986
 20
-1809.088196352654
 42
-0.0080020874665035
 10
-1118.2848389558144
 20
-1809.1088791999214
 10
-1118.2465194852207
 20
-1809.1149504777322
 42
-0.0053821929669343
 10
-1118.1780353799045
 20
-1809.126558001554
 10
-1118.9044410791032
 20
-1811.3074864572679
 42
0.0108667757396266
 10
-1118.9717581492409
 20
-1811.2942993420468
 10
-1119.0092261724235
 20
-1811.2878015994536
 42
0.0170663203316552
 10
-1119.1524429593412
 20
-1811.2679720021617
 10
-1119.2203182920221
 20
-1811.2609248315744
 42
0.0220162375275716
 10
-1119.5006976998777
 20
-1811.2442424708042
 10
-1119.5785532669302
 20
-1811.2430431035377
 42
0.0282606915788361
 10
-1119.9141895905072
 20
-1811.2568463805069
 10
-1119.9581028642792
 20
-1811.2611463705105
 42
0.0169677213685879
 10
-1120.2040273592386
 20
-1811.2936834200623
 42
0.0190576269864871
 10
-1120.4469353218185
 20
-1811.3438302921688
 10
-1120.4531945099295
 20
-1811.3453732662781
 42
0.0213685642853767
 10
-1120.7035789944123
 20
-1811.4185735513847
 10
-1120.7090688893236
 20
-1811.420436547442
 42
0.0237595297598791
 10
-1120.9625637742206
 20
-1811.5201210693369
 10
-1120.967665848252
 20
-1811.5224128448158
 42
0.0261857468818732
 10
-1121.2198366244806
 20
-1811.6519491821896
 10
-1121.230262813569
 20
-1811.6580146566589
 42
0.0272553062022487
 10
-1121.4666925888073
 20
-1811.8133868626028
 10
-1121.5014556023175
 20
-1811.8390480106955
 42
0.0325996893171745
 10
-1121.6516109459681
 20
-1811.9657958836665
 10
-1121.6753203750909
 20
-1811.9886139121791
 42
0.0138050960637922
 10
-1121.7672035313014
 20
-1812.0820635737309
 42
0.0125280103794119
 10
-1121.8540460641334
 20
-1812.180226900329
 10
-1121.8777265090434
 20
-1812.2083853985184
 42
0.0205218024734457
 10
-1122.0028265845565
 20
-1812.3701787127468
 10
-1122.0252929250441
 20
-1812.4018384425744
 42
0.016311012958463
 10
-1122.1810033042948
 20
-1812.6371688776435
 10
-1122.1837272003463
 20
-1812.6415926396298
 42
0.0131897341903084
 10
-1122.330527721253
 20
-1812.8947247319959
 10
-1122.3322278166188
 20
-1812.8978429711301
 42
0.0107895576065398
 10
-1122.4700045188301
 20
-1813.1640581807665
 10
-1122.4707374083546
 20
-1813.1655524134117
 42
0.0091371507218115
 10
-1122.5992173570005
 20
-1813.4400776111629
 10
-1122.6289629884134
 20
-1813.50678411833
 42
0.0135418326349668
 10
-1122.8006769274864
 20
-1813.921721903602
 10
-1122.8342817359223
 20
-1814.009588045888
 42
0.0092834542412995
 10
-1123.0055107958401
 20
-1814.4834865441853
 10
-1123.031127923555
 20
-1814.5587276139706
 42
0.0054261043581377
 10
-1123.1387660718506
 20
-1814.886491587044
 10
-1123.1562920580534
 20
-1814.9418797493545
 42
0.0008225090827391
 10
-1123.2249621098581
 20
-1815.1601485074232
 10
-1124.2096512417916
 20
-1818.1850398006798
 10
-1120.9770274017178
 20
-1818.1850398006798
 10
-1121.4812198315713
 20
-1820.0895180990321
 10
-1124.7372761135546
 20
-1820.0895180990321
 10
-1130.5664251459084
 20
-1838.902741165037
 10
-1132.3915227562188
 20
-1838.902741165037
 10
-1126.5568447207179
 20
-1820.0895180990321
 10
-1128.961961089758
 20
-1820.0895180990321
 10
-1128.4577686599046
 20
-1818.1850398006798
 10
-1126.0292198489547
 20
-1818.1850398006798
 10
-1125.1690649307661
 20
-1815.5486267999809
 42
-0.0005863560635115
 10
-1125.1323302525595
 20
-1815.4318003796798
 10
-1125.056242418902
 20
-1815.1908080803037
 42
-0.0087522378927026
 10
-1124.8567742754456
 20
-1814.5955319931575
 10
-1124.7645100000291
 20
-1814.3353918246362
 42
-0.0077400953829271
 10
-1124.5065763409007
 20
-1813.6423871470961
 10
-1124.4908113693214
 20
-1813.6019562637091
 42
-0.0082369946331478
 10
-1124.2437268987098
 20
-1812.9978771975143
 42
-0.0085725238364068
 10
-1123.9764808027035
 20
-1812.4024511582197
 10
-1123.8748512016994
 20
-1812.1860300562416
 42
-0.0168109410594685
 10
-1123.5879067729697
 20
-1811.6248225301376
 10
-1123.4620633825498
 20
-1811.3978584972108
 42
-0.0007817726874625
 10
-1123.4077790324541
 20
-1811.3003142521093
 10
-1123.407650726441
 20
-1811.3000845433803
 42
-0.003662614215108
 10
-1123.3527628624154
 20
-1811.2034866634042
 42
-0.0080221150679108
 10
-1123.2956386070098
 20
-1811.1082074286533
 10
-1123.2649386556475
 20
-1811.058816479529
 42
-0.020213932557275
 10
-1123.1372829158408
 20
-1810.870834878848
 10
-1123.0832154506531
 20
-1810.7977560146069
 42
-0.024932379180235
 10
-1122.8240526569346
 20
-1810.4817107724534
 10
-1122.7999128428069
 20
-1810.4550964995401
 42
-0.0242132121540964
 10
-1122.460232101264
 20
-1810.1152130133353
 10
-1122.4123205285139
 20
-1810.0717038771497
 42
-0.0251017527859433
 10
-1122.1283388278737
 20
-1809.838711131385
 10
-1122.1268933510594
 20
-1809.8376418738058
 42
-0.013086806903812
 10
-1121.8286327011026
 20
-1809.6288614052637
 10
-1121.8270708819609
 20
-1809.6278279649894
 42
-0.029032952638848
 10
-1121.5159597405666
 20
-1809.4470024633592
 10
-1121.4861141785805
 20
-1809.4319000805197
 42
-0.016025019004983
 10
-1121.220209764816
 20
-1809.3078839703066
 42
-0.0267600374779956
 10
-1120.9449336873447
 20
-1809.2071356497572
 10
-1120.9181977678263
 20
-1809.1989430909323
 42
-0.0049981587669359
 10
-1120.8630246225393
 20
-1809.1826378906198
 42
-0.0049981587669359
  0
LWPOLYLINE
  5
69
100
AcDbEntity
  8
0
370
              15
390
0
  6
Continuous
 62
               7
100
AcDbPolyline
 90
      118
 70
             128
 10
-1101.0486570580924
 20
-1818.2590231285071
 10
-1099.1735351335928
 20
-1818.2590231285071
 10
-1100.0115740391927
 20
-1820.9405896549072
 42
-0.0010587229236459
 10
-1099.9801182236356
 20
-1820.9036851215692
 10
-1099.9219241329888
 20
-1820.8357028653761
 42
-0.0071874740405495
 10
-1099.7715489148879
 20
-1820.6650621733438
 10
-1099.6298261416287
 20
-1820.508826032034
 42
-0.0148118053513198
 10
-1099.1796968489159
 20
-1820.0412121860211
 10
-1099.0924745140135
 20
-1819.955814865167
 42
-0.008627335869444
 10
-1098.7569257130056
 20
-1819.6384392311509
 10
-1098.7130919967801
 20
-1819.5983895868183
 42
-0.0103138323111963
 10
-1098.4550682945462
 20
-1819.3722264494795
 10
-1098.4092938882193
 20
-1819.3337444022195
 42
-0.0060206748571432
 10
-1098.236445824107
 20
-1819.191949751465
 10
-1098.2344146932248
 20
-1819.1903240458366
 42
-0.0067069027296149
 10
-1098.0621218785586
 20
-1819.0561734120388
 10
-1098.0595731126357
 20
-1819.0542432421657
 42
-0.0076184352050582
 10
-1097.8886678467611
 20
-1818.9288683669197
 42
-0.0089652861672036
 10
-1097.7137068840179
 20
-1818.8092351065814
 10
-1097.6773551638798
 20
-1818.7853238931027
 42
-0.0156916245936974
 10
-1097.4813956667215
 20
-1818.6650614066298
 42
-0.0023299011066834
 10
-1097.281133622774
 20
-1818.5518834671068
 10
-1097.2657494903617
 20
-1818.5432834720241
 42
-0.0107669341484588
 10
-1097.0315126652529
 20
-1818.4188833386709
 10
-1097.0092478641855
 20
-1818.4076665887246
 42
-0.007805804589974
 10
-1096.7256577462326
 20
-1818.2703051330861
 10
-1096.7157506585236
 20
-1818.2656960052177
 42
-0.0181829330475935
 10
-1096.4054412539124
 20
-1818.1348322641238
 10
-1096.3513858113379
 20
-1818.1143171441772
 42
-0.0208411536028411
 10
-1096.0023008438911
 20
-1817.9982266816855
 10
-1095.9879447437631
 20
-1817.9941082367318
 42
-0.0222799817140023
 10
-1095.6592249498465
 20
-1817.9154666705917
 10
-1095.6503359866101
 20
-1817.9137546600068
 42
-0.021550952388421
 10
-1095.3338650183296
 20
-1817.8668389714721
 10
-1095.2913830572802
 20
-1817.8624014446812
 42
-0.0182545924867516
 10
-1095.0572742779755
 20
-1817.8465576192905
 10
-1095.0178732616416
 20
-1817.8453330742116
 42
-0.0072962856535142
 10
-1094.8619503819386
 20
-1817.8427637456891
 10
-1094.8328507113761
 20
-1817.8427089102854
 42
-0.0059227516325542
 10
-1094.7351012122215
 20
-1817.8436826220759
 10
-1094.7058589947296
 20
-1817.8443203886795
 42
-0.00118331119042
 10
-1094.6666077110171
 20
-1817.8452693929892
 10
-1095.4619943066243
 20
-1820.3840033380882
 42
0.0143932051551795
 10
-1095.4883956889671
 20
-1820.3738043680457
 10
-1095.4956676613922
 20
-1820.3712331491856
 42
0.0234388603524641
 10
-1095.5374985273272
 20
-1820.3586139134695
 10
-1095.546180190237
 20
-1820.3564329514652
 42
0.0199162742977573
 10
-1095.606469024312
 20
-1820.343816216131
 10
-1095.6272829621232
 20
-1820.3403190167016
 42
0.0293643550665925
 10
-1095.7303578208812
 20
-1820.3291689710486
 10
-1095.7550430016026
 20
-1820.3279573540299
 42
0.0214606686861939
 10
-1095.9081839175537
 20
-1820.3270187936123
 10
-1095.9175558283732
 20
-1820.3273637051566
 42
0.0167564054173869
 10
-1096.0890760194843
 20
-1820.3394407475248
 10
-1096.0975358122405
 20
-1820.3403220879518
 42
0.0137677553246319
 10
-1096.2848891255101
 20
-1820.3650713964962
 10
-1096.2922408650129
 20
-1820.3662493164634
 42
0.0118497261489033
 10
-1096.4927386291192
 20
-1820.4032666666535
 10
-1096.4988886363617
 20
-1820.4045535293726
 42
0.0106421143890801
 10
-1096.7097695236514
 20
-1820.4533859049486
 10
-1096.7146783320356
 20
-1820.4546332476325
 42
0.0099746379705055
 10
-1096.9331368012045
 20
-1820.5148077759491
 10
-1096.9946848413683
 20
-1820.5330896545779
 42
0.0191613675858644
 10
-1097.3306693038812
 20
-1820.6470670348638
 10
-1097.4187290766265
 20
-1820.6807539451877
 42
0.0205274080142533
 10
-1097.8040358485302
 20
-1820.8465823530155
 10
-1097.8616851305119
 20
-1820.8742503175877
 42
0.0181256912196873
 10
-1098.1199620711791
 20
-1821.0099341365658
 10
-1098.1729174545012
 20
-1821.0402517497853
 42
0.0140709242425309
 10
-1098.3178723891215
 20
-1821.1287464232148
 10
-1098.3441212577318
 20
-1821.1458032419248
 42
0.0086667884394361
 10
-1098.4330474192825
 20
-1821.2058059098131
 42
0.0036408192019149
 10
-1098.5204806573161
 20
-1821.2679867676054
 10
-1098.5557075317847
 20
-1821.2934277135182
 42
0.0052260781278735
 10
-1098.7119362291789
 20
-1821.408760100155
 10
-1098.7281430854352
 20
-1821.4209882107707
 42
0.0050024435898205
 10
-1098.9141464284912
 20
-1821.5642707790307
 10
-1098.9294645850091
 20
-1821.5763168014787
 42
0.0136138710279571
 10
-1099.1399058533329
 20
-1821.7512833063904
 10
-1099.1735737291283
 20
-1821.7808622791063
 42
0.0172815186917793
 10
-1099.4379772707914
 20
-1822.0298589517304
 10
-1099.4405396166333
 20
-1822.0324447688768
 42
0.0189403857991029
 10
-1099.6911214152099
 20
-1822.305250033678
 10
-1099.7237529087497
 20
-1822.3435939651797
 42
0.0185044199505313
 10
-1099.9157093477284
 20
-1822.5868425463009
 42
0.008856524390055
 10
-1100.0941694543592
 20
-1822.8403589664547
 10
-1100.1033474340052
 20
-1822.853900346211
 42
0.0157195347231408
 10
-1100.2865680403413
 20
-1823.1434225555299
 10
-1100.3326509822696
 20
-1823.2215747525463
 42
0.0095451879778899
 10
-1100.497736532408
 20
-1823.514169394904
 10
-1100.5088844513396
 20
-1823.5348400670393
 42
0.0100351706253764
 10
-1100.6409282004968
 20
-1823.7918956275269
 42
0.0086935915424143
 10
-1100.7632593522917
 20
-1824.0537287729337
 10
-1100.7665800937052
 20
-1824.0611710959031
 42
0.0072580174863647
 10
-1100.8869265456478
 20
-1824.3417630874803
 10
-1100.8901881789566
 20
-1824.3496831135039
 42
0.0060005122619526
 10
-1101.0093888473018
 20
-1824.6492927841166
 10
-1101.0125998256408
 20
-1824.6576543120141
 42
0.0049017786981461
 10
-1101.131499984499
 20
-1824.9765832926198
 10
-1101.1346657908889
 20
-1824.9853362298486
 42
0.0039415167604942
 10
-1101.2541020689487
 20
-1825.3238782922717
 10
-1101.2572331715976
 20
-1825.332981493138
 42
0.0031035838762214
 10
-1101.37803795729
 20
-1825.6914213549094
 10
-1101.381148001821
 20
-1825.7008419762865
 42
0.0025070747152597
 10
-1101.504049353133
 20
-1826.0794891932198
 10
-1101.5413432495618
 20
-1826.1963808584833
 42
0.0029081910285646
 10
-1101.7333615473733
 20
-1826.8105445167773
 10
-1101.7741647158896
 20
-1826.9437677590508
 42
0.0009266453734063
 10
-1102.0425820902033
 20
-1827.8259922189704
 10
-1102.0634695628287
 20
-1827.8951040981556
 42
-0.0005809993665233
 10
-1102.3408062434362
 20
-1828.8089122048491
 10
-1102.4070880417071
 20
-1829.0263971370025
 42
-0.0012018708170111
 10
-1102.5540723511383
 20
-1829.5045598015295
 10
-1102.6063922027035
 20
-1829.6733189423942
 42
-0.0002691059603557
 10
-1102.6499616838723
 20
-1829.8135865627373
 10
-1105.4829175821617
 20
-1838.902741165037
 10
-1107.3009064741402
 20
-1838.902741165037
 10
-1101.0486570580924
 20
-1818.2590231285071
  0
SPLINE
  5
6A
100
AcDbEntity
  8
0
370
              15
390
0
  6
Continuous
 62
               7
100
AcDbSpline
210
0.0
220
0.0
230
1.0
 70
              13
 71
               2
 72
             782
 73
             779
 74
               0
 42
0.000001
 43
0.000001
 40
0.0
 40
0.0
 40
0.0
 40
1.0
 40
1.0
 40
2.0
 40
2.0
 40
3.0
 40
3.0
 40
4.0
 40
4.0
 40
5.0
 40
5.0
 40
6.0
 40
6.0
 40
7.0
 40
7.0
 40
8.0
 40
8.0
 40
9.0
 40
9.0
 40
10.0
 40
10.0
 40
11.0
 40
11.0
 40
12.0
 40
12.0
 40
13.0
 40
13.0
 40
14.0
 40
14.0
 40
15.0
 40
15.0
 40
16.0
 40
16.0
 40
17.0
 40
17.0
 40
18.0
 40
18.0
 40
19.0
 40
19.0
 40
20.0
 40
20.0
 40
21.0
 40
21.0
 40
22.0
 40
22.0
 40
23.0
 40
23.0
 40
24.0
 40
24.0
 40
25.0
 40
25.0
 40
26.0
 40
26.0
 40
27.0
 40
27.0
 40
28.0
 40
28.0
 40
29.0
 40
29.0
 40
30.0
 40
30.0
 40
31.0
 40
31.0
 40
32.0
 40
32.0
 40
33.0
 40
33.0
 40
34.0
 40
34.0
 40
35.0
 40
35.0
 40
36.0
 40
36.0
 40
37.0
 40
37.0
 40
38.0
 40
38.0
 40
39.0
 40
39.0
 40
40.0
 40
40.0
 40
41.0
 40
41.0
 40
42.0
 40
42.0
 40
43.0
 40
43.0
 40
44.0
 40
44.0
 40
45.0
 40
45.0
 40
46.0
 40
46.0
 40
47.0
 40
47.0
 40
48.0
 40
48.0
 40
49.0
 40
49.0
 40
50.0
 40
50.0
 40
51.0
 40
51.0
 40
52.0
 40
52.0
 40
53.0
 40
53.0
 40
54.0
 40
54.0
 40
55.0
 40
55.0
 40
56.0
 40
56.0
 40
57.0
 40
57.0
 40
58.0
 40
58.0
 40
59.0
 40
59.0
 40
60.0
 40
60.0
 40
61.0
 40
61.0
 40
62.0
 40
62.0
 40
63.0
 40
63.0
 40
64.0
 40
64.0
 40
65.0
 40
65.0
 40
66.0
 40
66.0
 40
67.0
 40
67.0
 40
68.0
 40
68.0
 40
69.0
 40
69.0
 40
70.0
 40
70.0
 40
71.0
 40
71.0
 40
72.0
 40
72.0
 40
73.0
 40
73.0
 40
74.0
 40
74.0
 40
75.0
 40
75.0
 40
76.0
 40
76.0
 40
77.0
 40
77.0
 40
78.0
 40
78.0
 40
79.0
 40
79.0
 40
80.0
 40
80.0
 40
81.0
 40
81.0
 40
82.0
 40
82.0
 40
83.0
 40
83.0
 40
84.0
 40
84.0
 40
85.0
 40
85.0
 40
86.0
 40
86.0
 40
87.0
 40
87.0
 40
88.0
 40
88.0
 40
89.0
 40
89.0
 40
90.0
 40
90.0
 40
91.0
 40
91.0
 40
92.0
 40
92.0
 40
93.0
 40
93.0
 40
94.0
 40
94.0
 40
95.0
 40
95.0
 40
96.0
 40
96.0
 40
97.0
 40
97.0
 40
98.0
 40
98.0
 40
99.0
 40
99.0
 40
100.0
 40
100.0
 40
101.0
 40
101.0
 40
102.0
 40
102.0
 40
103.0
 40
103.0
 40
104.0
 40
104.0
 40
105.0
 40
105.0
 40
106.0
 40
106.0
 40
107.0
 40
107.0
 40
108.0
 40
108.0
 40
109.0
 40
109.0
 40
110.0
 40
110.0
 40
111.0
 40
111.0
 40
112.0
 40
112.0
 40
113.0
 40
113.0
 40
114.0
 40
114.0
 40
115.0
 40
115.0
 40
116.0
 40
116.0
 40
117.0
 40
117.0
 40
118.0
 40
118.0
 40
119.0
 40
119.0
 40
120.0
 40
120.0
 40
121.0
 40
121.0
 40
122.0
 40
122.0
 40
123.0
 40
123.0
 40
124.0
 40
124.0
 40
125.0
 40
125.0
 40
126.0
 40
126.0
 40
127.0
 40
127.0
 40
128.0
 40
128.0
 40
129.0
 40
129.0
 40
130.0
 40
130.0
 40
131.0
 40
131.0
 40
132.0
 40
132.0
 40
133.0
 40
133.0
 40
134.0
 40
134.0
 40
135.0
 40
135.0
 40
136.0
 40
136.0
 40
137.0
 40
137.0
 40
138.0
 40
138.0
 40
139.0
 40
139.0
 40
140.0
 40
140.0
 40
141.0
 40
141.0
 40
142.0
 40
142.0
 40
143.0
 40
143.0
 40
144.0
 40
144.0
 40
145.0
 40
145.0
 40
146.0
 40
146.0
 40
147.0
 40
147.0
 40
148.0
 40
148.0
 40
149.0
 40
149.0
 40
150.0
 40
150.0
 40
151.0
 40
151.0
 40
152.0
 40
152.0
 40
153.0
 40
153.0
 40
154.0
 40
154.0
 40
155.0
 40
155.0
 40
156.0
 40
156.0
 40
157.0
 40
157.0
 40
158.0
 40
158.0
 40
159.0
 40
159.0
 40
160.0
 40
160.0
 40
161.0
 40
161.0
 40
162.0
 40
162.0
 40
163.0
 40
163.0
 40
164.0
 40
164.0
 40
165.0
 40
165.0
 40
166.0
 40
166.0
 40
167.0
 40
167.0
 40
168.0
 40
168.0
 40
169.0
 40
169.0
 40
170.0
 40
170.0
 40
171.0
 40
171.0
 40
172.0
 40
172.0
 40
173.0
 40
173.0
 40
174.0
 40
174.0
 40
175.0
 40
175.0
 40
176.0
 40
176.0
 40
177.0
 40
177.0
 40
178.0
 40
178.0
 40
179.0
 40
179.0
 40
180.0
 40
180.0
 40
181.0
 40
181.0
 40
182.0
 40
182.0
 40
183.0
 40
183.0
 40
184.0
 40
184.0
 40
185.0
 40
185.0
 40
186.0
 40
186.0
 40
187.0
 40
187.0
 40
188.0
 40
188.0
 40
189.0
 40
189.0
 40
190.0
 40
190.0
 40
191.0
 40
191.0
 40
192.0
 40
192.0
 40
193.0
 40
193.0
 40
194.0
 40
194.0
 40
195.0
 40
195.0
 40
196.0
 40
196.0
 40
197.0
 40
197.0
 40
198.0
 40
198.0
 40
199.0
 40
199.0
 40
200.0
 40
200.0
 40
201.0
 40
201.0
 40
202.0
 40
202.0
 40
203.0
 40
203.0
 40
204.0
 40
204.0
 40
205.0
 40
205.0
 40
206.0
 40
206.0
 40
207.0
 40
207.0
 40
208.0
 40
208.0
 40
209.0
 40
209.0
 40
210.0
 40
210.0
 40
211.0
 40
211.0
 40
212.0
 40
212.0
 40
213.0
 40
213.0
 40
214.0
 40
214.0
 40
215.0
 40
215.0
 40
216.0
 40
216.0
 40
217.0
 40
217.0
 40
218.0
 40
218.0
 40
219.0
 40
219.0
 40
220.0
 40
220.0
 40
221.0
 40
221.0
 40
222.0
 40
222.0
 40
223.0
 40
223.0
 40
224.0
 40
224.0
 40
225.0
 40
225.0
 40
226.0
 40
226.0
 40
227.0
 40
227.0
 40
228.0
 40
228.0
 40
229.0
 40
229.0
 40
230.0
 40
230.0
 40
231.0
 40
231.0
 40
232.0
 40
232.0
 40
233.0
 40
233.0
 40
234.0
 40
234.0
 40
235.0
 40
235.0
 40
236.0
 40
236.0
 40
237.0
 40
237.0
 40
238.0
 40
238.0
 40
239.0
 40
239.0
 40
240.0
 40
240.0
 40
241.0
 40
241.0
 40
242.0
 40
242.0
 40
243.0
 40
243.0
 40
244.0
 40
244.0
 40
245.0
 40
245.0
 40
246.0
 40
246.0
 40
247.0
 40
247.0
 40
248.0
 40
248.0
 40
249.0
 40
249.0
 40
250.0
 40
250.0
 40
251.0
 40
251.0
 40
252.0
 40
252.0
 40
253.0
 40
253.0
 40
254.0
 40
254.0
 40
255.0
 40
255.0
 40
256.0
 40
256.0
 40
257.0
 40
257.0
 40
258.0
 40
258.0
 40
259.0
 40
259.0
 40
260.0
 40
260.0
 40
261.0
 40
261.0
 40
262.0
 40
262.0
 40
263.0
 40
263.0
 40
264.0
 40
264.0
 40
265.0
 40
265.0
 40
266.0
 40
266.0
 40
267.0
 40
267.0
 40
268.0
 40
268.0
 40
269.0
 40
269.0
 40
270.0
 40
270.0
 40
271.0
 40
271.0
 40
272.0
 40
272.0
 40
273.0
 40
273.0
 40
274.0
 40
274.0
 40
275.0
 40
275.0
 40
276.0
 40
276.0
 40
277.0
 40
277.0
 40
278.0
 40
278.0
 40
279.0
 40
279.0
 40
280.0
 40
280.0
 40
281.0
 40
281.0
 40
282.0
 40
282.0
 40
283.0
 40
283.0
 40
284.0
 40
284.0
 40
285.0
 40
285.0
 40
286.0
 40
286.0
 40
287.0
 40
287.0
 40
288.0
 40
288.0
 40
289.0
 40
289.0
 40
290.0
 40
290.0
 40
291.0
 40
291.0
 40
292.0
 40
292.0
 40
293.0
 40
293.0
 40
294.0
 40
294.0
 40
295.0
 40
295.0
 40
296.0
 40
296.0
 40
297.0
 40
297.0
 40
298.0
 40
298.0
 40
299.0
 40
299.0
 40
300.0
 40
300.0
 40
301.0
 40
301.0
 40
302.0
 40
302.0
 40
303.0
 40
303.0
 40
304.0
 40
304.0
 40
305.0
 40
305.0
 40
306.0
 40
306.0
 40
307.0
 40
307.0
 40
308.0
 40
308.0
 40
309.0
 40
309.0
 40
310.0
 40
310.0
 40
311.0
 40
311.0
 40
312.0
 40
312.0
 40
313.0
 40
313.0
 40
314.0
 40
314.0
 40
315.0
 40
315.0
 40
316.0
 40
316.0
 40
317.0
 40
317.0
 40
318.0
 40
318.0
 40
319.0
 40
319.0
 40
320.0
 40
320.0
 40
321.0
 40
321.0
 40
322.0
 40
322.0
 40
323.0
 40
323.0
 40
324.0
 40
324.0
 40
325.0
 40
325.0
 40
326.0
 40
326.0
 40
327.0
 40
327.0
 40
328.0
 40
328.0
 40
329.0
 40
329.0
 40
330.0
 40
330.0
 40
331.0
 40
331.0
 40
332.0
 40
332.0
 40
333.0
 40
333.0
 40
334.0
 40
334.0
 40
335.0
 40
335.0
 40
336.0
 40
336.0
 40
337.0
 40
337.0
 40
338.0
 40
338.0
 40
339.0
 40
339.0
 40
340.0
 40
340.0
 40
341.0
 40
341.0
 40
342.0
 40
342.0
 40
343.0
 40
343.0
 40
344.0
 40
344.0
 40
345.0
 40
345.0
 40
346.0
 40
346.0
 40
347.0
 40
347.0
 40
348.0
 40
348.0
 40
349.0
 40
349.0
 40
350.0
 40
350.0
 40
351.0
 40
351.0
 40
352.0
 40
352.0
 40
353.0
 40
353.0
 40
354.0
 40
354.0
 40
355.0
 40
355.0
 40
356.0
 40
356.0
 40
357.0
 40
357.0
 40
358.0
 40
358.0
 40
359.0
 40
359.0
 40
360.0
 40
360.0
 40
361.0
 40
361.0
 40
362.0
 40
362.0
 40
363.0
 40
363.0
 40
364.0
 40
364.0
 40
365.0
 40
365.0
 40
366.0
 40
366.0
 40
367.0
 40
367.0
 40
368.0
 40
368.0
 40
369.0
 40
369.0
 40
370.0
 40
370.0
 40
371.0
 40
371.0
 40
372.0
 40
372.0
 40
373.0
 40
373.0
 40
374.0
 40
374.0
 40
375.0
 40
375.0
 40
376.0
 40
376.0
 40
377.0
 40
377.0
 40
378.0
 40
378.0
 40
379.0
 40
379.0
 40
380.0
 40
380.0
 40
381.0
 40
381.0
 40
382.0
 40
382.0
 40
383.0
 40
383.0
 40
384.0
 40
384.0
 40
385.0
 40
385.0
 40
386.0
 40
386.0
 40
387.0
 40
387.0
 40
388.0
 40
388.0
 40
389.0
 40
389.0
 40
389.0
 10
-1090.7199526073596
 20
-1818.2480967651447
 30
0.0
 41
1.0
 10
-1089.9015284986392
 20
-1818.2480967651447
 30
0.0
 41
1.0
 10
-1089.0831043899188
 20
-1818.2480967651447
 30
0.0
 41
1.0
 10
-1089.4968581254357
 20
-1819.5907230293944
 30
0.0
 41
1.0
 10
-1089.9106118609523
 20
-1820.9333492936441
 30
0.0
 41
1.0
 10
-1089.8922723657777
 20
-1820.9046485207223
 30
0.0
 41
0.9999957264348937
 10
-1089.8737653689395
 20
-1820.8760554705602
 30
0.0
 41
1.0
 10
-1089.8433360448093
 20
-1820.8290425921953
 30
0.0
 41
1.0
 10
-1089.8129067206789
 20
-1820.7820297138303
 30
0.0
 41
1.0
 10
-1089.7335410755736
 20
-1820.6594109069279
 30
0.0
 41
0.9995394069080856
 10
-1089.6468826840221
 20
-1820.5418328451869
 30
0.0
 41
1.0
 10
-1089.6111258217611
 20
-1820.493317952592
 30
0.0
 41
1.0
 10
-1089.5753689595003
 20
-1820.444803059997
 30
0.0
 41
1.0
 10
-1089.4416422916829
 20
-1820.2633627848711
 30
0.0
 41
0.9994460617143492
 10
-1089.2961418103953
 20
-1820.0912203872217
 30
0.0
 41
1.0
 10
-1089.2917536294199
 20
-1820.0860287068388
 30
0.0
 41
1.0
 10
-1089.2873654484445
 20
-1820.0808370264558
 30
0.0
 41
1.0
 10
-1089.150641329107
 20
-1819.9190779895719
 30
0.0
 41
0.9994359394934291
 10
-1089.0033670987559
 20
-1819.7668617884076
 30
0.0
 41
1.0
 10
-1089.0009837448029
 20
-1819.7643984580345
 30
0.0
 41
1.0
 10
-1088.9986003908496
 20
-1819.7619351276617
 30
0.0
 41
1.0
 10
-1088.8560928684053
 20
-1819.6146455872436
 30
0.0
 41
0.9995293688567368
 10
-1088.7048211874223
 20
-1819.4763723750789
 30
0.0
 41
1.0
 10
-1088.6855274281602
 20
-1819.4587364894287
 30
0.0
 41
1.0
 10
-1088.666233668898
 20
-1819.4411006037788
 30
0.0
 41
1.0
 10
-1088.5535495064407
 20
-1819.3380991629153
 30
0.0
 41
0.9997087614803759
 10
-1088.4360266174851
 20
-1819.2406548821168
 30
0.0
 41
1.0
 10
-1088.4168605443097
 20
-1819.2247633036088
 30
0.0
 41
1.0
 10
-1088.3976944711339
 20
-1819.2088717251008
 30
0.0
 41
1.0
 10
-1088.31850372853
 20
-1819.1432106013187
 30
0.0
 41
0.9999595338696219
 10
-1088.2381444576749
 20
-1819.078984870664
 30
0.0
 41
1.0
 10
-1088.1577851868228
 20
-1819.0147591400114
 30
0.0
 41
0.9999749417504336
 10
-1088.0765246524807
 20
-1818.9516775860659
 30
0.0
 41
1.0
 10
-1088.0555385063085
 20
-1818.9353862987568
 30
0.0
 41
1.0
 10
-1088.0345523601363
 20
-1818.9190950114478
 30
0.0
 41
1.0
 10
-1087.9499844748411
 20
-1818.8534460016122
 30
0.0
 41
0.9999792037115364
 10
-1087.8645768750739
 20
-1818.7888932199699
 30
0.0
 41
1.0
 10
-1087.8437520491859
 20
-1818.7731533977299
 30
0.0
 41
1.0
 10
-1087.8229272232979
 20
-1818.7574135754901
 30
0.0
 41
1.0
 10
-1087.779169275331
 20
-1818.7243404383464
 30
0.0
 41
0.9999993373975112
 10
-1087.7354875891613
 20
-1818.6911666429023
 30
0.0
 41
1.0
 10
-1087.6918059030193
 20
-1818.6579928474791
 30
0.0
 41
0.9999160953816804
 10
-1087.6472794921006
 20
-1818.6259617822816
 30
0.0
 41
1.0
 10
-1087.61445760468
 20
-1818.6023506266959
 30
0.0
 41
1.0
 10
-1087.5816357172594
 20
-1818.5787394711101
 30
0.0
 41
1.0
 10
-1087.4714655315015
 20
-1818.4994860947425
 30
0.0
 41
0.9980964527232026
 10
-1087.3523765380016
 20
-1818.4343986218869
 30
0.0
 41
1.0
 10
-1087.3153439310727
 20
-1818.4141586422934
 30
0.0
 41
1.0
 10
-1087.2783113241439
 20
-1818.3939186626999
 30
0.0
 41
1.0
 10
-1087.0989843108707
 20
-1818.2959084119987
 30
0.0
 41
0.9984572810572939
 10
-1086.9098957445121
 20
-1818.2183861506523
 30
0.0
 41
1.0
 10
-1086.9062494751151
 20
-1818.2168912583138
 30
0.0
 41
1.0
 10
-1086.9026032057179
 20
-1818.2153963659755
 30
0.0
 41
1.0
 10
-1086.7208071781522
 20
-1818.1408638893056
 30
0.0
 41
0.9987838528034244
 10
-1086.5325545195942
 20
-1818.0845982491403
 30
0.0
 41
1.0
 10
-1086.5283165703959
 20
-1818.0833315954501
 30
0.0
 41
1.0
 10
-1086.5240786211973
 20
-1818.0820649417601
 30
0.0
 41
1.0
 10
-1086.3443018610351
 20
-1818.0283326089746
 30
0.0
 41
0.999065281620713
 10
-1086.1605559293189
 20
-1817.9903289294325
 30
0.0
 41
1.0
 10
-1086.1553675282855
 20
-1817.9892558263255
 30
0.0
 41
1.0
 10
-1086.1501791272522
 20
-1817.9881827232186
 30
0.0
 41
1.0
 10
-1085.9768099976011
 20
-1817.9523252498902
 30
0.0
 41
0.9992909934270268
 10
-1085.8012342311449
 20
-1817.929614817424
 30
0.0
 41
1.0
 10
-1085.6256584646887
 20
-1817.9069043849577
 30
0.0
 41
0.9994553539448491
 10
-1085.4489670315977
 20
-1817.8958250807514
 30
0.0
 41
1.0
 10
-1085.4135326237993
 20
-1817.8936031927033
 30
0.0
 41
1.0
 10
-1085.3780982160008
 20
-1817.8913813046554
 30
0.0
 41
1.0
 10
-1085.2118724494321
 20
-1817.8809582422439
 30
0.0
 41
0.9990928098293244
 10
-1085.0453626575299
 20
-1817.8847178834785
 30
0.0
 41
1.0
 10
-1085.0068008222627
 20
-1817.8855885750113
 30
0.0
 41
1.0
 10
-1084.9682389869954
 20
-1817.8864592665441
 30
0.0
 41
1.0
 10
-1084.8788528656321
 20
-1817.8884775247127
 30
0.0
 41
0.9998382089205893
 10
-1084.7895971828411
 20
-1817.8937096512409
 30
0.0
 41
1.0
 10
-1084.7891672766236
 20
-1817.8937348521431
 30
0.0
 41
1.0
 10
-1084.7887373704064
 20
-1817.8937600530451
 30
0.0
 41
1.0
 10
-1084.7003415000574
 20
-1817.8989417777689
 30
0.0
 41
0.9997558016759265
 10
-1084.6122609228541
 20
-1817.9080242931354
 30
0.0
 41
1.0
 10
-1084.6117847844234
 20
-1817.908073390618
 30
0.0
 41
1.0
 10
-1084.6113086459929
 20
-1817.9081224881008
 30
0.0
 41
1.0
 10
-1084.5241803456527
 20
-1817.917106808502
 30
0.0
 41
0.9996565144181102
 10
-1084.4376424923112
 20
-1817.9306441151912
 30
0.0
 41
1.0
 10
-1084.4371765669323
 20
-1817.9307170009229
 30
0.0
 41
1.0
 10
-1084.4367106415534
 20
-1817.9307898866543
 30
0.0
 41
1.0
 10
-1084.3511046389679
 20
-1817.9441814218803
 30
0.0
 41
0.999532180686683
 10
-1084.2664775586413
 20
-1817.9627819103093
 30
0.0
 41
1.0
 10
-1084.2660883640697
 20
-1817.9628674527753
 30
0.0
 41
1.0
 10
-1084.2656991694978
 20
-1817.962952995241
 30
0.0
 41
1.0
 10
-1084.1818504783134
 20
-1817.9813823987386
 30
0.0
 41
0.9993819199219863
 10
-1084.099503944117
 20
-1818.0056577819992
 30
0.0
 41
1.0
 10
-1084.0992655106156
 20
-1818.0057280711094
 30
0.0
 41
1.0
 10
-1084.0990270771144
 20
-1818.0057983602198
 30
0.0
 41
1.0
 10
-1084.0171574099177
 20
-1818.0299331652611
 30
0.0
 41
0.9992088568506565
 10
-1083.9374648909325
 20
-1818.0604984010542
 30
0.0
 41
1.0
 10
-1083.8577839000536
 20
-1818.0910580017876
 30
0.0
 41
0.9990226101773496
 10
-1083.7811132301463
 20
-1818.1285354334022
 30
0.0
 41
1.0
 10
-1083.7044540883494
 20
-1818.1660072299549
 30
0.0
 41
0.9988424273972564
 10
-1083.6317504611384
 20
-1818.2106720052068
 30
0.0
 41
1.0
 10
-1083.6314827527578
 20
-1818.2108364692799
 30
0.0
 41
1.0
 10
-1083.6312150443773
 20
-1818.2110009333528
 30
0.0
 41
1.0
 10
-1083.5579760004036
 20
-1818.2559946367526
 30
0.0
 41
0.9986928844492742
 10
-1083.4897131336907
 20
-1818.3082303710344
 30
0.0
 41
1.0
 10
-1083.4891318414709
 20
-1818.30867518426
 30
0.0
 41
1.0
 10
-1083.4885505492512
 20
-1818.3091199974856
 30
0.0
 41
1.0
 10
-1083.4191250980953
 20
-1818.3622453582216
 30
0.0
 41
0.9986007262278545
 10
-1083.3556989283281
 20
-1818.4224061279153
 30
0.0
 41
1.0
 10
-1083.3548045128714
 20
-1818.4232544957499
 30
0.0
 41
1.0
 10
-1083.3539100974147
 20
-1818.4241028635847
 30
0.0
 41
1.0
 10
-1083.2886950967331
 20
-1818.485960368949
 30
0.0
 41
0.9985581491382208
 10
-1083.2304874850308
 20
-1818.5544528592213
 30
0.0
 41
1.0
 10
-1083.2212290314355
 20
-1818.5653472169224
 30
0.0
 41
1.0
 10
-1083.2119705778402
 20
-1818.5762415746235
 30
0.0
 41
1.0
 10
-1083.1352460589476
 20
-1818.6665227802973
 30
0.0
 41
0.9970460233519932
 10
-1083.0732541577891
 20
-1818.7674898644777
 30
0.0
 41
1.0
 10
-1083.0587847927077
 20
-1818.7910563235619
 30
0.0
 41
1.0
 10
-1083.0443154276265
 20
-1818.8146227826458
 30
0.0
 41
1.0
 10
-1083.0045787276154
 20
-1818.879342506676
 30
0.0
 41
0.9988468816637283
 10
-1082.9712323568647
 20
-1818.9475749591022
 30
0.0
 41
1.0
 10
-1082.9641963343745
 20
-1818.9619718802369
 30
0.0
 41
1.0
 10
-1082.9571603118843
 20
-1818.9763688013716
 30
0.0
 41
1.0
 10
-1082.9378859861145
 20
-1819.0158074115268
 30
0.0
 41
0.999843118999698
 10
-1082.9200206586183
 20
-1819.0559039659706
 30
0.0
 41
1.0
 10
-1082.902155331127
 20
-1819.0960005204029
 30
0.0
 41
0.9999989989872562
 10
-1082.8841766077048
 20
-1819.136046357987
 30
0.0
 41
1.0
 10
-1082.8780042961089
 20
-1819.1497945748038
 30
0.0
 41
1.0
 10
-1082.8718319845127
 20
-1819.1635427916203
 30
0.0
 41
1.0
 10
-1082.8415086379034
 20
-1819.2310850628264
 30
0.0
 41
0.9998790356322413
 10
-1082.8133007577665
 20
-1819.2995378147612
 30
0.0
 41
1.0
 10
-1082.8064655764792
 20
-1819.316124916196
 30
0.0
 41
1.0
 10
-1082.7996303951918
 20
-1819.3327120176309
 30
0.0
 41
1.0
 10
-1082.7760727328136
 20
-1819.3898799725118
 30
0.0
 41
0.9998227574562114
 10
-1082.754683984426
 20
-1819.4478942807846
 30
0.0
 41
1.0
 10
-1082.7332952360366
 20
-1819.5059085890618
 30
0.0
 41
0.9996797971041669
 10
-1082.7148689510773
 20
-1819.5649307081801
 30
0.0
 41
1.0
 10
-1082.7109651483518
 20
-1819.577435166349
 30
0.0
 41
1.0
 10
-1082.7070613456262
 20
-1819.5899396245179
 30
0.0
 41
1.0
 10
-1082.6808274552161
 20
-1819.6739706599737
 30
0.0
 41
0.9979274938735282
 10
-1082.6656029317369
 20
-1819.7606750186339
 30
0.0
 41
1.0
 10
-1082.6633792444752
 20
-1819.7733390194578
 30
0.0
 41
1.0
 10
-1082.6611555572135
 20
-1819.7860030202817
 30
0.0
 41
1.0
 10
-1082.6502256175161
 20
-1819.8482495275691
 30
0.0
 41
0.999498598213833
 10
-1082.6432574523394
 20
-1819.9110630287087
 30
0.0
 41
1.0
 10
-1082.6362892871623
 20
-1819.9738765298532
 30
0.0
 41
0.9996372611202536
 10
-1082.6327134213943
 20
-1820.0369741085392
 30
0.0
 41
1.0
 10
-1082.6325448439052
 20
-1820.0399487256182
 30
0.0
 41
1.0
 10
-1082.632376266416
 20
-1820.0429233426973
 30
0.0
 41
1.0
 10
-1082.6284632456695
 20
-1820.1119701555474
 30
0.0
 41
0.9997730630735644
 10
-1082.6274949321812
 20
-1820.1811209795846
 30
0.0
 41
1.0
 10
-1082.6274378257631
 20
-1820.185199158723
 30
0.0
 41
1.0
 10
-1082.6273807193452
 20
-1820.1892773378613
 30
0.0
 41
1.0
 10
-1082.6262981930211
 20
-1820.2665845201846
 30
0.0
 41
0.9998772614068956
 10
-1082.627638279753
 20
-1820.3438876667542
 30
0.0
 41
1.0
 10
-1082.6277275429516
 20
-1820.3490368305838
 30
0.0
 41
1.0
 10
-1082.6278168061503
 20
-1820.3541859944135
 30
0.0
 41
1.0
 10
-1082.6293354192796
 20
-1820.4417874686551
 30
0.0
 41
0.9999415567325382
 10
-1082.6327477295258
 20
-1820.5293356303373
 30
0.0
 41
1.0
 10
-1082.6329890502009
 20
-1820.5355270900673
 30
0.0
 41
1.0
 10
-1082.6332303708759
 20
-1820.5417185497975
 30
0.0
 41
1.0
 10
-1082.6371253224725
 20
-1820.641649630943
 30
0.0
 41
0.999971681042339
 10
-1082.6425239055907
 20
-1820.7415107691659
 30
0.0
 41
1.0
 10
-1082.6457367043786
 20
-1820.8009400188059
 30
0.0
 41
1.0
 10
-1082.6489495031665
 20
-1820.860369268446
 30
0.0
 41
1.0
 10
-1082.6570234123199
 20
-1821.0097176697491
 30
0.0
 41
0.9999819129897933
 10
-1082.6668932039381
 20
-1821.158958147483
 30
0.0
 41
1.0
 10
-1082.6767629955548
 20
-1821.3081986251943
 30
0.0
 41
1.0
 10
-1082.6792023161186
 20
-1821.3453916710437
 30
0.0
 41
1.0
 10
-1082.656504082277
 20
-1821.3066506736964
 30
0.0
 41
0.9999982128220364
 10
-1082.6336595235018
 20
-1821.2679957797047
 30
0.0
 41
1.0
 10
-1082.606749963632
 20
-1821.2224625656752
 30
0.0
 41
1.0
 10
-1082.5798404037623
 20
-1821.1769293516456
 30
0.0
 41
1.0
 10
-1082.5031767252374
 20
-1821.0472080295772
 30
0.0
 41
0.9998609190057376
 10
-1082.4222294123754
 20
-1820.9201156476479
 30
0.0
 41
1.0
 10
-1082.3925810908941
 20
-1820.873565914691
 30
0.0
 41
1.0
 10
-1082.3629327694127
 20
-1820.8270161817343
 30
0.0
 41
1.0
 10
-1082.2806605491744
 20
-1820.6978436117372
 30
0.0
 41
0.9999067609734009
 10
-1082.1948915397102
 20
-1820.5709659222957
 30
0.0
 41
1.0
 10
-1082.1924868365099
 20
-1820.5674086562417
 30
0.0
 41
1.0
 10
-1082.1900821333095
 20
-1820.5638513901879
 30
0.0
 41
1.0
 10
-1082.1091225302473
 20
-1820.4440882328563
 30
0.0
 41
0.9998784952149373
 10
-1082.0244689205647
 20
-1820.3269070161459
 30
0.0
 41
1.0
 10
-1081.939815310883
 20
-1820.2097257994365
 30
0.0
 41
0.9998532968282629
 10
-1081.8511976900602
 20
-1820.0955128909661
 30
0.0
 41
1.0
 10
-1081.8312359010697
 20
-1820.0697855699468
 30
0.0
 41
1.0
 10
-1081.8112741120792
 20
-1820.0440582489273
 30
0.0
 41
1.0
 10
-1081.6927900623202
 20
-1819.8913526379583
 30
0.0
 41
0.9991551975795453
 10
-1081.5621656126964
 20
-1819.7488930758743
 30
0.0
 41
1.0
 10
-1081.5586559967146
 20
-1819.7450654742479
 30
0.0
 41
1.0
 10
-1081.5551463807328
 20
-1819.7412378726212
 30
0.0
 41
1.0
 10
-1081.431541163071
 20
-1819.6064335137889
 30
0.0
 41
0.999741814418101
 10
-1081.3019390233721
 20
-1819.4773841031783
 30
0.0
 41
1.0
 10
-1081.1723368836722
 20
-1819.3483346925664
 30
0.0
 41
0.9989238204633105
 10
-1081.0313343354217
 20
-1819.231849730528
 30
0.0
 41
1.0
 10
-1080.9860866572817
 20
-1819.1944697389188
 30
0.0
 41
1.0
 10
-1080.9408389791415
 20
-1819.1570897473096
 30
0.0
 41
1.0
 10
-1080.80059892192
 20
-1819.0412346940186
 30
0.0
 41
0.9990825084096731
 10
-1080.650958989316
 20
-1818.9378056961855
 30
0.0
 41
1.0
 10
-1080.6409136252566
 20
-1818.9308624831042
 30
0.0
 41
1.0
 10
-1080.6308682611973
 20
-1818.9239192700231
 30
0.0
 41
1.0
 10
-1080.5013190567092
 20
-1818.8343766983508
 30
0.0
 41
0.9998164899827319
 10
-1080.3684348533357
 20
-1818.7498624568361
 30
0.0
 41
1.0
 10
-1080.3565892928109
 20
-1818.7423286903113
 30
0.0
 41
1.0
 10
-1080.3447437322864
 20
-1818.7347949237865
 30
0.0
 41
1.0
 10
-1080.2355506499607
 20
-1818.6653482153206
 30
0.0
 41
0.9997473449130776
 10
-1080.1233466927101
 20
-1818.6008792575042
 30
0.0
 41
1.0
 10
-1080.0111427354575
 20
-1818.5364102996868
 30
0.0
 41
0.9999327861145019
 10
-1079.8974741246896
 20
-1818.474560308003
 30
0.0
 41
1.0
 10
-1079.8969221221328
 20
-1818.4742599493259
 30
0.0
 41
1.0
 10
-1079.8963701195757
 20
-1818.4739595906487
 30
0.0
 41
1.0
 10
-1079.7815975036931
 20
-1818.41150888161
 30
0.0
 41
0.9996956420483614
 10
-1079.6638841778552
 20
-1818.3547954146363
 30
0.0
 41
1.0
 10
-1079.6334437729572
 20
-1818.3401294379037
 30
0.0
 41
1.0
 10
-1079.6030033680593
 20
-1818.3254634611712
 30
0.0
 41
1.0
 10
-1079.500026261318
 20
-1818.2758498027295
 30
0.0
 41
0.9998070570176803
 10
-1079.3951798723804
 20
-1818.2303192158297
 30
0.0
 41
1.0
 10
-1079.2903334834434
 20
-1818.1847886289304
 30
0.0
 41
0.9997827436147972
 10
-1079.1836805468379
 20
-1818.1436674576203
 30
0.0
 41
1.0
 10
-1079.1644576972024
 20
-1818.1362558839862
 30
0.0
 41
1.0
 10
-1079.1452348475668
 20
-1818.1288443103522
 30
0.0
 41
1.0
 10
-1079.0001362116936
 20
-1818.0728999917753
 30
0.0
 41
0.9988031841976607
 10
-1078.8502658490888
 20
-1818.0313999276077
 30
0.0
 41
1.0
 10
-1078.8253486007266
 20
-1818.0245001818012
 30
0.0
 41
1.0
 10
-1078.8004313523641
 20
-1818.0176004359944
 30
0.0
 41
1.0
 10
-1078.6331613267164
 20
-1817.9712822935874
 30
0.0
 41
0.9984748040549659
 10
-1078.461804418067
 20
-1817.9436880613223
 30
0.0
 41
1.0
 10
-1078.4570652818179
 20
-1817.942924900809
 30
0.0
 41
1.0
 10
-1078.4523261455686
 20
-1817.9421617402954
 30
0.0
 41
1.0
 10
-1078.2904475094174
 20
-1817.9160938290574
 30
0.0
 41
0.9984436495479946
 10
-1078.126672765693
 20
-1817.9082158752387
 30
0.0
 41
1.0
 10
-1078.1049755575596
 20
-1817.9071721880391
 30
0.0
 41
1.0
 10
-1078.0832783494261
 20
-1817.9061285008393
 30
0.0
 41
1.0
 10
-1077.9628980219663
 20
-1817.90033792142
 30
0.0
 41
0.9987954789335661
 10
-1077.8425297770586
 20
-1817.9063744491623
 30
0.0
 41
1.0
 10
-1077.8225649845651
 20
-1817.9073756935009
 30
0.0
 41
1.0
 10
-1077.8026001920716
 20
-1817.9083769378394
 30
0.0
 41
1.0
 10
-1077.7221615321496
 20
-1817.9124109769045
 30
0.0
 41
0.9997941595877952
 10
-1077.6419527540545
 20
-1817.9197050428256
 30
0.0
 41
1.0
 10
-1077.5617439759587
 20
-1817.9269991087469
 30
0.0
 41
0.9998589466238842
 10
-1077.4818254291031
 20
-1817.9369829631969
 30
0.0
 41
1.0
 10
-1077.4494192272959
 20
-1817.9410313201161
 30
0.0
 41
1.0
 10
-1077.4170130254886
 20
-1817.9450796770352
 30
0.0
 41
1.0
 10
-1077.272282075018
 20
-1817.9631602453235
 30
0.0
 41
0.9993495063248961
 10
-1077.1292308312532
 20
-1817.991625955065
 30
0.0
 41
1.0
 10
-1077.0962971341023
 20
-1817.9981794182795
 30
0.0
 41
1.0
 10
-1077.0633634369515
 20
-1818.004732881494
 30
0.0
 41
1.0
 10
-1076.9540696137449
 20
-1818.0264812156299
 30
0.0
 41
0.9996788715560984
 10
-1076.8460180417865
 20
-1818.0537390149934
 30
0.0
 41
1.0
 10
-1076.8439550392475
 20
-1818.0542594415665
 30
0.0
 41
1.0
 10
-1076.8418920367085
 20
-1818.0547798681393
 30
0.0
 41
1.0
 10
-1076.7379664698299
 20
-1818.0809968143565
 30
0.0
 41
0.9995480654492508
 10
-1076.6358042346005
 20
-1818.1134117709807
 30
0.0
 41
1.0
 10
-1076.6341145924694
 20
-1818.1139478758955
 30
0.0
 41
1.0
 10
-1076.632424950338
 20
-1818.1144839808101
 30
0.0
 41
1.0
 10
-1076.5336419993689
 20
-1818.1458267276062
 30
0.0
 41
0.9993867959456513
 10
-1076.4372948409284
 20
-1818.184006096895
 30
0.0
 41
1.0
 10
-1076.4360518918465
 20
-1818.18449863879
 30
0.0
 41
1.0
 10
-1076.4348089427644
 20
-1818.1849911806853
 30
0.0
 41
1.0
 10
-1076.3409476824888
 20
-1818.2221854661832
 30
0.0
 41
0.999205025652104
 10
-1076.2503480074527
 20
-1818.2667393654235
 30
0.0
 41
1.0
 10
-1076.2496133247382
 20
-1818.2671006578853
 30
0.0
 41
1.0
 10
-1076.248878642024
 20
-1818.2674619503471
 30
0.0
 41
1.0
 10
-1076.1597483324178
 20
-1818.3112932646632
 30
0.0
 41
0.9990222350742352
 10
-1076.0748382710258
 20
-1818.3628265323605
 30
0.0
 41
1.0
 10
-1076.0746543857422
 20
-1818.3629381352657
 30
0.0
 41
1.0
 10
-1076.0744705004586
 20
-1818.3630497381712
 30
0.0
 41
1.0
 10
-1075.989928209631
 20
-1818.4143598000596
 30
0.0
 41
0.9988642743805711
 10
-1075.9106536750128
 20
-1818.4734839875841
 30
0.0
 41
1.0
 10
-1075.831379140395
 20
-1818.5326081751084
 30
0.0
 41
0.9987681233309971
 10
-1075.7583553561201
 20
-1818.5992988665082
 30
0.0
 41
1.0
 10
-1075.7580264281532
 20
-1818.5995992677235
 30
0.0
 41
1.0
 10
-1075.7576975001862
 20
-1818.5998996689386
 30
0.0
 41
1.0
 10
-1075.6840158599784
 20
-1818.6671911627677
 30
0.0
 41
0.9987496570898353
 10
-1075.6174220546511
 20
-1818.7415039768546
 30
0.0
 41
1.0
 10
-1075.6166498848906
 20
-1818.7423656502124
 30
0.0
 41
1.0
 10
-1075.6158777151304
 20
-1818.7432273235702
 30
0.0
 41
1.0
 10
-1075.5477395702828
 20
-1818.819263484372
 30
0.0
 41
0.9988147669826746
 10
-1075.4873173160586
 20
-1818.9015644912135
 30
0.0
 41
1.0
 10
-1075.4861979899802
 20
-1818.9030891225668
 30
0.0
 41
1.0
 10
-1075.485078663902
 20
-1818.9046137539201
 30
0.0
 41
1.0
 10
-1075.4224177575211
 20
-1818.9899640234682
 30
0.0
 41
0.9989452636216087
 10
-1075.3678508445596
 20
-1819.0807027126264
 30
0.0
 41
1.0
 10
-1075.3665021184743
 20
-1819.082945493652
 30
0.0
 41
1.0
 10
-1075.3651533923887
 20
-1819.0851882746779
 30
0.0
 41
1.0
 10
-1075.3078890272566
 20
-1819.1804125258864
 30
0.0
 41
0.9991046436069736
 10
-1075.2588798139361
 20
-1819.2801369589099
 30
0.0
 41
1.0
 10
-1075.2574159523451
 20
-1819.2831156389843
 30
0.0
 41
1.0
 10
-1075.2559520907544
 20
-1819.2860943190585
 30
0.0
 41
1.0
 10
-1075.2040151542519
 20
-1819.3917761122311
 30
0.0
 41
0.9992763831101572
 10
-1075.1602620256958
 20
-1819.5011001741893
 30
0.0
 41
1.0
 10
-1075.1587827560334
 20
-1819.5047963617208
 30
0.0
 41
1.0
 10
-1075.1573034863709
 20
-1819.508492549252
 30
0.0
 41
1.0
 10
-1075.110591818489
 20
-1819.6252089862758
 30
0.0
 41
0.9994163472883518
 10
-1075.0719587872989
 20
-1819.7448425747407
 30
0.0
 41
1.0
 10
-1075.0707206350535
 20
-1819.7486767185192
 30
0.0
 41
1.0
 10
-1075.0694824828083
 20
-1819.7525108622974
 30
0.0
 41
1.0
 10
-1075.0295989217896
 20
-1819.8760169237794
 30
0.0
 41
0.9997268055890473
 10
-1074.9955308658766
 20
-1820.0012519557338
 30
0.0
 41
1.0
 10
-1074.994600685608
 20
-1820.0046713218396
 30
0.0
 41
1.0
 10
-1074.9936705053392
 20
-1820.0080906879455
 30
0.0
 41
1.0
 10
-1074.9614628099655
 20
-1820.1264869876807
 30
0.0
 41
0.9996701318999796
 10
-1074.9353771931942
 20
-1820.2463809409478
 30
0.0
 41
1.0
 10
-1074.9092915764238
 20
-1820.3662748942106
 30
0.0
 41
0.9995785451108931
 10
-1074.8902079990842
 20
-1820.4874806552421
 30
0.0
 41
1.0
 10
-1074.8859882169104
 20
-1820.5142818100069
 30
0.0
 41
1.0
 10
-1074.8817684347366
 20
-1820.5410829647717
 30
0.0
 41
1.0
 10
-1074.8551934587979
 20
-1820.7098689384757
 30
0.0
 41
0.997992510121645
 10
-1074.8501678728717
 20
-1820.8806602665677
 30
0.0
 41
1.0
 10
-1074.8493430604472
 20
-1820.9086909900425
 30
0.0
 41
1.0
 10
-1074.8485182480226
 20
-1820.9367217135173
 30
0.0
 41
1.0
 10
-1074.845142286945
 20
-1821.0514515946525
 30
0.0
 41
0.9995314902262773
 10
-1074.8487924790838
 20
-1821.1661730784112
 30
0.0
 41
1.0
 10
-1074.8524426712224
 20
-1821.2808945621655
 30
0.0
 41
0.9996245486944653
 10
-1074.8623717663536
 20
-1821.3952438332926
 30
0.0
 41
1.0
 10
-1074.8625348143476
 20
-1821.3971215894253
 30
0.0
 41
1.0
 10
-1074.8626978623415
 20
-1821.3989993455577
 30
0.0
 41
1.0
 10
-1074.8729530534611
 20
-1821.5171041289525
 30
0.0
 41
0.9997286095001957
 10
-1074.8886983770321
 20
-1821.6346030378459
 30
0.0
 41
1.0
 10
-1074.8890918696825
 20
-1821.6375394625484
 30
0.0
 41
1.0
 10
-1074.8894853623331
 20
-1821.6404758872507
 30
0.0
 41
1.0
 10
-1074.9060176712055
 20
-1821.7638476455522
 30
0.0
 41
0.9998265533968775
 10
-1074.927133129939
 20
-1821.8865181203437
 30
0.0
 41
1.0
 10
-1074.9278096720755
 20
-1821.8904484988482
 30
0.0
 41
1.0
 10
-1074.9284862142122
 20
-1821.8943788773527
 30
0.0
 41
1.0
 10
-1074.9509547572195
 20
-1822.0249101091586
 30
0.0
 41
0.9999022530854658
 10
-1074.9770642218298
 20
-1822.1547620777974
 30
0.0
 41
1.0
 10
-1074.9780428629947
 20
-1822.1596292201832
 30
0.0
 41
1.0
 10
-1074.9790215041598
 20
-1822.164496362569
 30
0.0
 41
1.0
 10
-1075.0070882511006
 20
-1822.3040826159831
 30
0.0
 41
0.9999524761938465
 10
-1075.0378712199354
 20
-1822.4430951091474
 30
0.0
 41
1.0
 10
-1075.0391473271106
 20
-1822.4488578684495
 30
0.0
 41
1.0
 10
-1075.0404234342861
 20
-1822.4546206277514
 30
0.0
 41
1.0
 10
-1075.073758617471
 20
-1822.6051586395176
 30
0.0
 41
0.9999813588714892
 10
-1075.1089296182665
 20
-1822.7552783521719
 30
0.0
 41
1.0
 10
-1075.1104835437236
 20
-1822.7619109425966
 30
0.0
 41
1.0
 10
-1075.1120374691807
 20
-1822.7685435330213
 30
0.0
 41
1.0
 10
-1075.1503163208936
 20
-1822.931928426538
 30
0.0
 41
0.9999955237722534
 10
-1075.189572198879
 20
-1823.0950813301656
 30
0.0
 41
1.0
 10
-1075.2018538345089
 20
-1823.14612552067
 30
0.0
 41
1.0
 10
-1075.2141354701389
 20
-1823.1971697111746
 30
0.0
 41
1.0
 10
-1075.2779546193769
 20
-1823.4624109957804
 30
0.0
 41
0.9999993604654156
 10
-1075.3423735665394
 20
-1823.7275072464427
 30
0.0
 41
1.0
 10
-1075.3470924020949
 20
-1823.7469261545173
 30
0.0
 41
1.0
 10
-1075.3518112376501
 20
-1823.7663450625919
 30
0.0
 41
1.0
 10
-1075.4256678559091
 20
-1824.0702791293452
 30
0.0
 41
0.9999659914729641
 10
-1075.5045274517929
 20
-1824.3729536758981
 30
0.0
 41
1.0
 10
-1075.5094801407251
 20
-1824.3919628130866
 30
0.0
 41
1.0
 10
-1075.5144328296574
 20
-1824.4109719502751
 30
0.0
 41
1.0
 10
-1075.6031978034027
 20
-1824.7516647711948
 30
0.0
 41
0.9999441976026219
 10
-1075.6991408363672
 20
-1825.090406196497
 30
0.0
 41
1.0
 10
-1075.7158413547922
 20
-1825.1493699090229
 30
0.0
 41
1.0
 10
-1075.7325418732171
 20
-1825.2083336215487
 30
0.0
 41
1.0
 10
-1075.8618859430326
 20
-1825.6650024719056
 30
0.0
 41
0.9999625120735735
 10
-1075.9991187103567
 20
-1826.119363005904
 30
0.0
 41
1.0
 10
-1076.0349086534393
 20
-1826.2378590325302
 30
0.0
 41
1.0
 10
-1076.0706985965221
 20
-1826.3563550591564
 30
0.0
 41
1.0
 10
-1076.1452188005619
 20
-1826.6030821372549
 30
0.0
 41
0.9999793386302398
 10
-1076.2229048236995
 20
-1826.8488307764912
 30
0.0
 41
1.0
 10
-1076.3005908468372
 20
-1827.0945794157274
 30
0.0
 41
1.0
 10
-1076.311370405708
 20
-1827.128597320102
 30
0.0
 41
1.0
 10
-1078.1617434589771
 20
-1833.0156692425694
 30
0.0
 41
1.0
 10
-1080.0121165122464
 20
-1838.902741165037
 30
0.0
 41
1.0
 10
-1080.9733732022698
 20
-1838.902741165037
 30
0.0
 41
1.0
 10
-1081.9346298922933
 20
-1838.902741165037
 30
0.0
 41
1.0
 10
-1080.315685113615
 20
-1833.7547126632476
 30
0.0
 41
1.0
 10
-1078.6967403349365
 20
-1828.6066841614581
 30
0.0
 41
1.0
 10
-1078.6515745117626
 20
-1828.4626529391899
 30
0.0
 41
1.0
 10
-1078.606408688589
 20
-1828.3186217169216
 30
0.0
 41
1.0
 10
-1078.4361042712253
 20
-1827.7755306877552
 30
0.0
 41
0.9999911657880738
 10
-1078.270371459545
 20
-1827.2310271563922
 30
0.0
 41
1.0
 10
-1078.2406755160459
 20
-1827.1334632163457
 30
0.0
 41
1.0
 10
-1078.2109795725466
 20
-1827.0358992762992
 30
0.0
 41
1.0
 10
-1078.1046386478665
 20
-1826.6865236250349
 30
0.0
 41
0.9999952428197837
 10
-1078.0004550585397
 20
-1826.3364986006791
 30
0.0
 41
1.0
 10
-1077.9953955882054
 20
-1826.3195003263977
 30
0.0
 41
1.0
 10
-1077.990336117871
 20
-1826.3025020521163
 30
0.0
 41
1.0
 10
-1077.8962714692111
 20
-1825.9864735763172
 30
0.0
 41
0.9999931687496713
 10
-1077.8045456313412
 20
-1825.6697583630589
 30
0.0
 41
1.0
 10
-1077.7996103668816
 20
-1825.652717653787
 30
0.0
 41
1.0
 10
-1077.7946751024217
 20
-1825.6356769445151
 30
0.0
 41
1.0
 10
-1077.7128197934671
 20
-1825.3530431497866
 30
0.0
 41
0.999989384080314
 10
-1077.6335725670108
 20
-1825.0696670205418
 30
0.0
 41
1.0
 10
-1077.5543253405563
 20
-1824.7862908913035
 30
0.0
 41
0.999983398008261
 10
-1077.4783490998186
 20
-1824.5020203082915
 30
0.0
 41
1.0
 10
-1077.4693451630937
 20
-1824.4683314298031
 30
0.0
 41
1.0
 10
-1077.4603412263689
 20
-1824.4346425513147
 30
0.0
 41
1.0
 10
-1077.3913766775015
 20
-1824.1766067190147
 30
0.0
 41
0.9999233658066656
 10
-1077.3288217062805
 20
-1823.9169425602888
 30
0.0
 41
1.0
 10
-1077.2662667350601
 20
-1823.6572784015664
 30
0.0
 41
1.0
 10
-1077.2267833162025
 20
-1823.4934717371402
 30
0.0
 41
1.0
 10
-1077.2218047122235
 20
-1823.4728167752623
 30
0.0
 41
1.0
 10
-1077.2168261082445
 20
-1823.4521618133847
 30
0.0
 41
1.0
 10
-1077.1872998973424
 20
-1823.3296650727036
 30
0.0
 41
0.9999868670871918
 10
-1077.1590308133486
 20
-1823.2068721270687
 30
0.0
 41
1.0
 10
-1077.1551333261891
 20
-1823.1899425396437
 30
0.0
 41
1.0
 10
-1077.1512358390296
 20
-1823.1730129522186
 30
0.0
 41
1.0
 10
-1077.1307617293514
 20
-1823.0840791814182
 30
0.0
 41
0.9999778173344365
 10
-1077.1114741312372
 20
-1822.9948805641927
 30
0.0
 41
1.0
 10
-1077.0921865331215
 20
-1822.9056819469624
 30
0.0
 41
0.9999602692860787
 10
-1077.0744921744899
 20
-1822.816153658531
 30
0.0
 41
1.0
 10
-1077.0712883424128
 20
-1822.7999432036477
 30
0.0
 41
1.0
 10
-1077.0680845103357
 20
-1822.7837327487646
 30
0.0
 41
1.0
 10
-1077.04398248755
 20
-1822.6617835505681
 30
0.0
 41
0.9995617985320625
 10
-1077.0271391403314
 20
-1822.5386218028636
 30
0.0
 41
1.0
 10
-1077.0246746504254
 20
-1822.5206009854983
 30
0.0
 41
1.0
 10
-1077.0222101605191
 20
-1822.5025801681331
 30
0.0
 41
1.0
 10
-1077.0019268994704
 20
-1822.3542651184307
 30
0.0
 41
0.999112141063971
 10
-1076.9942015458819
 20
-1822.2047690196223
 30
0.0
 41
1.0
 10
-1076.9932827558573
 20
-1822.1869891830477
 30
0.0
 41
1.0
 10
-1076.992363965833
 20
-1822.1692093464731
 30
0.0
 41
1.0
 10
-1076.9864761922936
 20
-1822.0552729208175
 30
0.0
 41
0.9989792494905591
 10
-1076.990895284411
 20
-1821.9412700849175
 30
0.0
 41
1.0
 10
-1076.9915432562798
 20
-1821.9245538389896
 30
0.0
 41
1.0
 10
-1076.9921912281484
 20
-1821.9078375930617
 30
0.0
 41
1.0
 10
-1076.9953143765283
 20
-1821.8272672490184
 30
0.0
 41
0.9997820295393721
 10
-1077.001798373904
 20
-1821.7468975272752
 30
0.0
 41
1.0
 10
-1077.0082823712794
 20
-1821.6665278055332
 30
0.0
 41
0.999833510597364
 10
-1077.0176945667909
 20
-1821.5864481890853
 30
0.0
 41
1.0
 10
-1077.0192894914676
 20
-1821.5728784586001
 30
0.0
 41
1.0
 10
-1077.0208844161441
 20
-1821.559308728115
 30
0.0
 41
1.0
 10
-1077.0334864610084
 20
-1821.452089650702
 30
0.0
 41
0.9996876457879411
 10
-1077.0514303738057
 20
-1821.345634222989
 30
0.0
 41
1.0
 10
-1077.0536620369512
 20
-1821.3323944877459
 30
0.0
 41
1.0
 10
-1077.0558937000967
 20
-1821.3191547525028
 30
0.0
 41
1.0
 10
-1077.0696895215181
 20
-1821.2373086085424
 30
0.0
 41
0.9995547496495038
 10
-1077.0883428434111
 20
-1821.1564311113498
 30
0.0
 41
1.0
 10
-1077.0887168002832
 20
-1821.1548097006412
 30
0.0
 41
1.0
 10
-1077.0890907571552
 20
-1821.1531882899326
 30
0.0
 41
1.0
 10
-1077.1069961653045
 20
-1821.0755536141555
 30
0.0
 41
0.9994899427175575
 10
-1077.1298210739831
 20
-1820.9992203313241
 30
0.0
 41
1.0
 10
-1077.1302796007249
 20
-1820.9976868815322
 30
0.0
 41
1.0
 10
-1077.1307381274667
 20
-1820.9961534317404
 30
0.0
 41
1.0
 10
-1077.1526459826632
 20
-1820.9228870484867
 30
0.0
 41
0.9993784877590189
 10
-1077.1796616177689
 20
-1820.8513463433308
 30
0.0
 41
1.0
 10
-1077.1801933087449
 20
-1820.8499383606124
 30
0.0
 41
1.0
 10
-1077.1807249997212
 20
-1820.8485303778941
 30
0.0
 41
1.0
 10
-1077.2066772528749
 20
-1820.7798056381735
 30
0.0
 41
0.9992430832254463
 10
-1077.2378937880349
 20
-1820.7133064861034
 30
0.0
 41
1.0
 10
-1077.2384759040915
 20
-1820.7120664309862
 30
0.0
 41
1.0
 10
-1077.2390580201479
 20
-1820.7108263758689
 30
0.0
 41
1.0
 10
-1077.2691103231941
 20
-1820.6468073340352
 30
0.0
 41
0.9990789632798216
 10
-1077.3045409499709
 20
-1820.5856007222856
 30
0.0
 41
1.0
 10
-1077.3051366561517
 20
-1820.5845716364283
 30
0.0
 41
1.0
 10
-1077.3057323623327
 20
-1820.5835425505711
 30
0.0
 41
1.0
 10
-1077.3399715767468
 20
-1820.5243941105375
 30
0.0
 41
0.998887480112109
 10
-1077.3796308527799
 20
-1820.4687343981182
 30
0.0
 41
1.0
 10
-1077.380186378844
 20
-1820.4679547464436
 30
0.0
 41
1.0
 10
-1077.3807419049081
 20
-1820.4671750947691
 30
0.0
 41
1.0
 10
-1077.4192901288118
 20
-1820.4130746857002
 30
0.0
 41
0.9986762060692653
 10
-1077.463192600088
 20
-1820.3632209712609
 30
0.0
 41
1.0
 10
-1077.4636365604206
 20
-1820.3627168294438
 30
0.0
 41
1.0
 10
-1077.4640805207532
 20
-1820.3622126876267
 30
0.0
 41
1.0
 10
-1077.5070950713646
 20
-1820.3133672568213
 30
0.0
 41
0.99846216424878
 10
-1077.5552526281417
 20
-1820.2695839563507
 30
0.0
 41
1.0
 10
-1077.5554992626585
 20
-1820.2693597241871
 30
0.0
 41
1.0
 10
-1077.5557458971753
 20
-1820.2691354920235
 30
0.0
 41
1.0
 10
-1077.6034101849198
 20
-1820.2258006558795
 30
0.0
 41
0.9982724693851269
 10
-1077.6558288167612
 20
-1820.188356305362
 30
0.0
 41
1.0
 10
-1077.7082474486003
 20
-1820.1509119548459
 30
0.0
 41
0.99813991801595
 10
-1077.7648335119914
 20
-1820.1201254354032
 30
0.0
 41
1.0
 10
-1077.7648791740721
 20
-1820.1201005922449
 30
0.0
 41
1.0
 10
-1077.7649248361527
 20
-1820.1200757490865
 30
0.0
 41
1.0
 10
-1077.8216022237036
 20
-1820.0892395433284
 30
0.0
 41
0.9980927086836621
 10
-1077.8816475747708
 20
-1820.0656227344757
 30
0.0
 41
1.0
 10
-1077.8820877444819
 20
-1820.0654496086008
 30
0.0
 41
1.0
 10
-1077.8825279141929
 20
-1820.0652764827262
 30
0.0
 41
1.0
 10
-1077.9434536046817
 20
-1820.0413134221239
 30
0.0
 41
0.9981411356561726
 10
-1078.0068421260803
 20
-1820.0249407806186
 30
0.0
 41
1.0
 10
-1078.0077242427826
 20
-1820.0247129384129
 30
0.0
 41
1.0
 10
-1078.0086063594849
 20
-1820.0244850962072
 30
0.0
 41
1.0
 10
-1078.0737591142877
 20
-1820.0076567702904
 30
0.0
 41
0.998303181293518
 10
-1078.1404265432832
 20
-1819.9985174091141
 30
0.0
 41
1.0
 10
-1078.1492975686851
 20
-1819.9973012904431
 30
0.0
 41
1.0
 10
-1078.1581685940873
 20
-1819.9960851717722
 30
0.0
 41
1.0
 10
-1078.2125182365926
 20
-1819.988634441781
 30
0.0
 41
0.9983887708264473
 10
-1078.2673620858868
 20
-1819.9873897681473
 30
0.0
 41
1.0
 10
-1078.275425491106
 20
-1819.9872067702725
 30
0.0
 41
1.0
 10
-1078.283488896325
 20
-1819.9870237723976
 30
0.0
 41
1.0
 10
-1078.3222059351817
 20
-1819.9861450945141
 30
0.0
 41
0.9998869563081082
 10
-1078.3609318883823
 20
-1819.9864309638738
 30
0.0
 41
1.0
 10
-1078.3996578415804
 20
-1819.9867168332335
 30
0.0
 41
0.9999972320070978
 10
-1078.438382020787
 20
-1819.9871849327624
 30
0.0
 41
1.0
 10
-1078.4577350373713
 20
-1819.9874188728518
 30
0.0
 41
1.0
 10
-1078.4770880539556
 20
-1819.9876528129412
 30
0.0
 41
1.0
 10
-1078.5545182663247
 20
-1819.9885887926491
 30
0.0
 41
0.9997304945087159
 10
-1078.6318215725607
 20
-1819.9931178864351
 30
0.0
 41
1.0
 10
-1078.6408712142666
 20
-1819.9936480924252
 30
0.0
 41
1.0
 10
-1078.6499208559726
 20
-1819.9941782984151
 30
0.0
 41
1.0
 10
-1078.7453234456214
 20
-1819.9997678041811
 30
0.0
 41
0.9997888306415579
 10
-1078.8404157814664
 20
-1820.0092727686704
 30
0.0
 41
1.0
 10
-1078.8491368430364
 20
-1820.0101444833022
 30
0.0
 41
1.0
 10
-1078.8578579046066
 20
-1820.0110161979342
 30
0.0
 41
1.0
 10
-1078.9703923635957
 20
-1820.0222645916876
 30
0.0
 41
0.9984170238190901
 10
-1079.0809515109477
 20
-1820.0460806736237
 30
0.0
 41
1.0
 10
-1079.1173326419321
 20
-1820.0539177094292
 30
0.0
 41
1.0
 10
-1079.1537137729165
 20
-1820.061754745235
 30
0.0
 41
1.0
 10
-1079.268904841339
 20
-1820.086568611745
 30
0.0
 41
0.9976592854199937
 10
-1079.3796330077455
 20
-1820.1268672888923
 30
0.0
 41
1.0
 10
-1079.4903611741506
 20
-1820.1671659660396
 30
0.0
 41
0.9993255074352483
 10
-1079.5978329729412
 20
-1820.2154828645319
 30
0.0
 41
1.0
 10
-1079.6024581518645
 20
-1820.2175622407317
 30
0.0
 41
1.0
 10
-1079.6070833307879
 20
-1820.2196416169313
 30
0.0
 41
1.0
 10
-1079.7238054874244
 20
-1820.272117267823
 30
0.0
 41
0.9976475078274973
 10
-1079.8322528317342
 20
-1820.340065257481
 30
0.0
 41
1.0
 10
-1079.8505952258695
 20
-1820.3515577362959
 30
0.0
 41
1.0
 10
-1079.8689376200048
 20
-1820.3630502151107
 30
0.0
 41
1.0
 10
-1079.9531398115564
 20
-1820.4158073358785
 30
0.0
 41
0.9995131336406212
 10
-1080.0338875265147
 20
-1820.4737135478324
 30
0.0
 41
1.0
 10
-1080.1146352414744
 20
-1820.5316197597872
 30
0.0
 41
0.9995810107605052
 10
-1080.1918968892055
 20
-1820.5941014422551
 30
0.0
 41
1.0
 10
-1080.1948669204135
 20
-1820.5965033137179
 30
0.0
 41
1.0
 10
-1080.1978369516212
 20
-1820.5989051851807
 30
0.0
 41
1.0
 10
-1080.28103866177
 20
-1820.6661906105755
 30
0.0
 41
0.9996617837955063
 10
-1080.3606293489058
 20
-1820.7377110661359
 30
0.0
 41
1.0
 10
-1080.3727600997825
 20
-1820.7486117991261
 30
0.0
 41
1.0
 10
-1080.3848908506591
 20
-1820.7595125321166
 30
0.0
 41
1.0
 10
-1080.4531663780572
 20
-1820.8208651475902
 30
0.0
 41
0.9997267750053022
 10
-1080.5184998863406
 20
-1820.8853416841152
 30
0.0
 41
1.0
 10
-1080.5838333946294
 20
-1820.9498182206457
 30
0.0
 41
0.9999667288962372
 10
-1080.6481063377817
 20
-1821.015352027546
 30
0.0
 41
1.0
 10
-1080.7169337855514
 20
-1821.0855296862987
 30
0.0
 41
1.0
 10
-1080.7857612333212
 20
-1821.1557073450517
 30
0.0
 41
1.0
 10
-1080.9876890720179
 20
-1821.3615964694625
 30
0.0
 41
0.9988205335175362
 10
-1081.1686946889977
 20
-1821.5861007015233
 30
0.0
 41
1.0
 10
-1081.1993346539023
 20
-1821.6241039519532
 30
0.0
 41
1.0
 10
-1081.2299746188069
 20
-1821.6621072023829
 30
0.0
 41
1.0
 10
-1081.4722601655963
 20
-1821.962617935304
 30
0.0
 41
0.99970778267547
 10
-1081.6997381167016
 20
-1822.2744877295206
 30
0.0
 41
1.0
 10
-1081.7014615318317
 20
-1822.2768505128997
 30
0.0
 41
1.0
 10
-1081.703184946962
 20
-1822.2792132962788
 30
0.0
 41
1.0
 10
-1081.9341097283284
 20
-1822.5958086572546
 30
0.0
 41
0.9989147567078955
 10
-1082.1345732312125
 20
-1822.9325181184402
 30
0.0
 41
1.0
 10
-1082.1593143765185
 20
-1822.9740746989914
 30
0.0
 41
1.0
 10
-1082.1840555218248
 20
-1823.0156312795425
 30
0.0
 41
1.0
 10
-1082.3392668204626
 20
-1823.2763326639963
 30
0.0
 41
0.9997476598181448
 10
-1082.4826118079725
 20
-1823.5437424125791
 30
0.0
 41
1.0
 10
-1082.6259567954824
 20
-1823.811152161162
 30
0.0
 41
0.9996258967109939
 10
-1082.7544650474142
 20
-1824.0860000977864
 30
0.0
 41
1.0
 10
-1082.7676649568657
 20
-1824.1142314978861
 30
0.0
 41
1.0
 10
-1082.7808648663174
 20
-1824.1424628979858
 30
0.0
 41
1.0
 10
-1082.9210735873148
 20
-1824.4423352959338
 30
0.0
 41
0.9998735413943825
 10
-1083.0516749340336
 20
-1824.7465148953979
 30
0.0
 41
1.0
 10
-1083.0551177620941
 20
-1824.7545334808626
 30
0.0
 41
1.0
 10
-1083.0585605901547
 20
-1824.7625520663273
 30
0.0
 41
1.0
 10
-1083.1822762807535
 20
-1825.0506944948645
 30
0.0
 41
0.9999377418859083
 10
-1083.2995310829288
 20
-1825.3415259625408
 30
0.0
 41
1.0
 10
-1083.4167858851056
 20
-1825.632357430221
 30
0.0
 41
0.9999508299508176
 10
-1083.5282498284832
 20
-1825.925457107043
 30
0.0
 41
1.0
 10
-1083.5313305971447
 20
-1825.9335581330042
 30
0.0
 41
1.0
 10
-1083.5344113658061
 20
-1825.9416591589656
 30
0.0
 41
1.0
 10
-1083.6520368465092
 20
-1826.2509608877167
 30
0.0
 41
0.9999609228431289
 10
-1083.7641754493852
 20
-1826.5622939037376
 30
0.0
 41
1.0
 10
-1083.7671314597335
 20
-1826.5705007441434
 30
0.0
 41
1.0
 10
-1083.7700874700818
 20
-1826.5787075845492
 30
0.0
 41
1.0
 10
-1083.8881380936534
 20
-1826.9064542813794
 30
0.0
 41
0.9999674607396182
 10
-1084.0008856197214
 20
-1827.2360629013733
 30
0.0
 41
1.0
 10
-1084.052284010284
 20
-1827.3863220970657
 30
0.0
 41
1.0
 10
-1084.1036824008465
 20
-1827.536581292758
 30
0.0
 41
1.0
 10
-1084.2196930076054
 20
-1827.8757292752639
 30
0.0
 41
0.9999287532304403
 10
-1084.3275744115767
 20
-1828.2175500142416
 30
0.0
 41
1.0
 10
-1084.3740516677012
 20
-1828.3648125585655
 30
0.0
 41
1.0
 10
-1084.4205289238255
 20
-1828.5120751028896
 30
0.0
 41
1.0
 10
-1084.4354558155351
 20
-1828.5593707531784
 30
0.0
 41
0.9999998224568777
 10
-1084.450326324278
 20
-1828.6066841614581
 30
0.0
 41
1.0
 10
-1086.0709824610735
 20
-1833.7547126632476
 30
0.0
 41
1.0
 10
-1087.6916385978689
 20
-1838.902741165037
 30
0.0
 41
1.0
 10
-1088.5969470417599
 20
-1838.902741165037
 30
0.0
 41
1.0
 10
-1089.5022554856507
 20
-1838.902741165037
 30
0.0
 41
1.0
 10
-1087.6501710742646
 20
-1833.0156692425694
 30
0.0
 41
1.0
 10
-1085.7980866628786
 20
-1827.128597320102
 30
0.0
 41
1.0
 10
-1085.7879649045758
 20
-1827.0965541066523
 30
0.0
 41
1.0
 10
-1085.7153572357261
 20
-1826.8662545648265
 30
0.0
 41
1.0
 10
-1085.642749566877
 20
-1826.6359550230029
 30
0.0
 41
0.9999825681963501
 10
-1085.5728665276661
 20
-1826.40481412794
 30
0.0
 41
1.0
 10
-1085.5245754655034
 20
-1826.2450895444376
 30
0.0
 41
1.0
 10
-1085.4762844033407
 20
-1826.0853649609353
 30
0.0
 41
1.0
 10
-1085.3791320500261
 20
-1825.7640297391677
 30
0.0
 41
0.9999672528961709
 10
-1085.2871932444041
 20
-1825.4411641935858
 30
0.0
 41
1.0
 10
-1085.2844043607381
 20
-1825.4313703482092
 30
0.0
 41
1.0
 10
-1085.2816154770721
 20
-1825.4215765028325
 30
0.0
 41
1.0
 10
-1085.1952544387839
 20
-1825.1182986480103
 30
0.0
 41
0.9999899749178415
 10
-1085.111612829246
 20
-1824.8142595595468
 30
0.0
 41
1.0
 10
-1085.1015069102295
 20
-1824.7775243218721
 30
0.0
 41
1.0
 10
-1085.091400991213
 20
-1824.7407890841973
 30
0.0
 41
1.0
 10
-1085.0279712197128
 20
-1824.5102204711004
 30
0.0
 41
0.9999214200503207
 10
-1084.9703417913336
 20
-1824.2781341288851
 30
0.0
 41
1.0
 10
-1084.9575759391523
 20
-1824.2267232434865
 30
0.0
 41
1.0
 10
-1084.9448100869713
 20
-1824.1753123580877
 30
0.0
 41
1.0
 10
-1084.9127123629555
 20
-1824.046047786675
 30
0.0
 41
0.9999828681674614
 10
-1084.8821301109606
 20
-1823.9164163122084
 30
0.0
 41
1.0
 10
-1084.8515478589652
 20
-1823.7867848377416
 30
0.0
 41
0.9999389844478683
 10
-1084.8238368701761
 20
-1823.6565093818424
 30
0.0
 41
1.0
 10
-1084.8166991264557
 20
-1823.6229532780044
 30
0.0
 41
1.0
 10
-1084.8095613827354
 20
-1823.5893971741662
 30
0.0
 41
1.0
 10
-1084.7675749065065
 20
-1823.3920095105948
 30
0.0
 41
0.99989336994408
 10
-1084.7313706421048
 20
-1823.1934799028402
 30
0.0
 41
1.0
 10
-1084.7299978168878
 20
-1823.1859518821398
 30
0.0
 41
1.0
 10
-1084.7286249916708
 20
-1823.1784238614393
 30
0.0
 41
1.0
 10
-1084.6896750768362
 20
-1822.9648382122896
 30
0.0
 41
0.9996850305193936
 10
-1084.6614914005777
 20
-1822.7495672068549
 30
0.0
 41
1.0
 10
-1084.6594963672087
 20
-1822.7343288527341
 30
0.0
 41
1.0
 10
-1084.6575013338395
 20
-1822.7190904986135
 30
0.0
 41
1.0
 10
-1084.63009347138
 20
-1822.5097452714554
 30
0.0
 41
0.9994697936706695
 10
-1084.6163689121599
 20
-1822.2990600761218
 30
0.0
 41
1.0
 10
-1084.6158918429105
 20
-1822.2917366039133
 30
0.0
 41
1.0
 10
-1084.6154147736609
 20
-1822.2844131317049
 30
0.0
 41
1.0
 10
-1084.6026443529406
 20
-1822.0883748807939
 30
0.0
 41
0.9991804893137386
 10
-1084.6057726692131
 20
-1821.8919460308175
 30
0.0
 41
1.0
 10
-1084.6058565480353
 20
-1821.8866792294048
 30
0.0
 41
1.0
 10
-1084.6059404268574
 20
-1821.8814124279918
 30
0.0
 41
1.0
 10
-1084.6089009854859
 20
-1821.6955171808438
 30
0.0
 41
0.9988448329321567
 10
-1084.6296925311096
 20
-1821.5107645910107
 30
0.0
 41
1.0
 10
-1084.6312866048127
 20
-1821.4965997352394
 30
0.0
 41
1.0
 10
-1084.6328806785157
 20
-1821.4824348794682
 30
0.0
 41
1.0
 10
-1084.6504840767334
 20
-1821.3260120011776
 30
0.0
 41
0.9985503209458793
 10
-1084.6848003490329
 20
-1821.1723878170881
 30
0.0
 41
1.0
 10
-1084.6923863411043
 20
-1821.1384274896868
 30
0.0
 41
1.0
 10
-1084.6999723331758
 20
-1821.1044671622858
 30
0.0
 41
1.0
 10
-1084.7191166213327
 20
-1821.0187636329981
 30
0.0
 41
0.9991036781370239
 10
-1084.7454414829836
 20
-1820.9349865456738
 30
0.0
 41
1.0
 10
-1084.7494237084393
 20
-1820.922313383164
 30
0.0
 41
1.0
 10
-1084.753405933895
 20
-1820.9096402206542
 30
0.0
 41
1.0
 10
-1084.7717663446347
 20
-1820.8512094583493
 30
0.0
 41
0.9998874504369739
 10
-1084.7918715523133
 20
-1820.7933558561256
 30
0.0
 41
1.0
 10
-1084.8119767599928
 20
-1820.7355022538998
 30
0.0
 41
0.9994041637543647
 10
-1084.8360253729284
 20
-1820.6791735500076
 30
0.0
 41
1.0
 10
-1084.8402221571505
 20
-1820.6693434855301
 30
0.0
 41
1.0
 10
-1084.8444189413726
 20
-1820.6595134210525
 30
0.0
 41
1.0
 10
-1084.872297772368
 20
-1820.5942132550831
 30
0.0
 41
0.9991846840702099
 10
-1084.9053541290618
 20
-1820.5313752238012
 30
0.0
 41
1.0
 10
-1084.9064907354577
 20
-1820.5292146073452
 30
0.0
 41
1.0
 10
-1084.9076273418534
 20
-1820.527053990889
 30
0.0
 41
1.0
 10
-1084.9384104857556
 20
-1820.4685371925195
 30
0.0
 41
0.9989253167922224
 10
-1084.9744799098098
 20
-1820.4131222641308
 30
0.0
 41
1.0
 10
-1084.9755340344846
 20
-1820.4115027693674
 30
0.0
 41
1.0
 10
-1084.9765881591595
 20
-1820.409883274604
 30
0.0
 41
1.0
 10
-1085.0105493338654
 20
-1820.3577073357394
 30
0.0
 41
0.998646717283604
 10
-1085.049746486502
 20
-1820.3093413021111
 30
0.0
 41
1.0
 10
-1085.0506206152031
 20
-1820.3082626998323
 30
0.0
 41
1.0
 10
-1085.0514947439042
 20
-1820.3071840975535
 30
0.0
 41
1.0
 10
-1085.0889436391399
 20
-1820.2609752684807
 30
0.0
 41
0.9984001104267486
 10
-1085.1313703696567
 20
-1820.2192901611124
 30
0.0
 41
1.0
 10
-1085.1319575077669
 20
-1820.2187132862305
 30
0.0
 41
1.0
 10
-1085.1325446458768
 20
-1820.2181364113487
 30
0.0
 41
1.0
 10
-1085.1737971001746
 20
-1820.177605053743
 30
0.0
 41
0.998244215908261
 10
-1085.2195532015094
 20
-1820.1422364924836
 30
0.0
 41
1.0
 10
-1085.2197679969713
 20
-1820.1420704598399
 30
0.0
 41
1.0
 10
-1085.2199827924335
 20
-1820.1419044271966
 30
0.0
 41
1.0
 10
-1085.2653093028453
 20
-1820.1068679312232
 30
0.0
 41
0.9982450060836392
 10
-1085.3144602819168
 20
-1820.0774361481899
 30
0.0
 41
1.0
 10
-1085.3636112609888
 20
-1820.0480043651562
 30
0.0
 41
0.9983922639634045
 10
-1085.4157775671538
 20
-1820.024324730502
 30
0.0
 41
1.0
 10
-1085.4160044444779
 20
-1820.0242217450207
 30
0.0
 41
1.0
 10
-1085.4162313218023
 20
-1820.0241187595393
 30
0.0
 41
1.0
 10
-1085.4688513826152
 20
-1820.0002331539229
 30
0.0
 41
0.9986517147150561
 10
-1085.5236643554822
 20
-1819.9819320348013
 30
0.0
 41
1.0
 10
-1085.5243422769111
 20
-1819.9817056883694
 30
0.0
 41
1.0
 10
-1085.5250201983399
 20
-1819.9814793419378
 30
0.0
 41
1.0
 10
-1085.5811890140662
 20
-1819.9627255299522
 30
0.0
 41
0.9989435598955112
 10
-1085.6388424012205
 20
-1819.9492078277174
 30
0.0
 41
1.0
 10
-1085.6399225207992
 20
-1819.948954577465
 30
0.0
 41
1.0
 10
-1085.6410026403782
 20
-1819.9487013272126
 30
0.0
 41
1.0
 10
-1085.7008162666925
 20
-1819.9346771244723
 30
0.0
 41
0.9992249241239953
 10
-1085.7615477755894
 20
-1819.925401781757
 30
0.0
 41
1.0
 10
-1085.7629614638809
 20
-1819.9251858733492
 30
0.0
 41
1.0
 10
-1085.7643751521723
 20
-1819.9249699649413
 30
0.0
 41
1.0
 10
-1085.8279340376534
 20
-1819.9152628054101
 30
0.0
 41
0.9994396597833226
 10
-1085.891999974192
 20
-1819.9098298830643
 30
0.0
 41
1.0
 10
-1085.9111406416682
 20
-1819.9082067153458
 30
0.0
 41
1.0
 10
-1085.9302813091444
 20
-1819.9065835476272
 30
0.0
 41
1.0
 10
-1086.0326285806368
 20
-1819.8979042898443
 30
0.0
 41
0.998769340312166
 10
-1086.1353322042239
 20
-1819.899407353297
 30
0.0
 41
1.0
 10
-1086.1455865384514
 20
-1819.8995574250712
 30
0.0
 41
1.0
 10
-1086.1558408726789
 20
-1819.8997074968454
 30
0.0
 41
1.0
 10
-1086.2653966388575
 20
-1819.9013108411327
 30
0.0
 41
0.9989753644966247
 10
-1086.3743586388739
 20
-1819.9128138480578
 30
0.0
 41
1.0
 10
-1086.4833206388917
 20
-1819.9243168549833
 30
0.0
 41
0.9983190067305579
 10
-1086.5902194498578
 20
-1819.9483518467705
 30
0.0
 41
1.0
 10
-1086.5991204014633
 20
-1819.9503531253329
 30
0.0
 41
1.0
 10
-1086.6080213530688
 20
-1819.9523544038952
 30
0.0
 41
1.0
 10
-1086.7327220672464
 20
-1819.9803919528072
 30
0.0
 41
0.9985539388303304
 10
-1086.8536918209229
 20
-1820.0216556288522
 30
0.0
 41
1.0
 10
-1086.8560372518843
 20
-1820.0224556726685
 30
0.0
 41
1.0
 10
-1086.8583826828458
 20
-1820.0232557164845
 30
0.0
 41
1.0
 10
-1086.9840432984447
 20
-1820.0661194801621
 30
0.0
 41
0.9988468746493825
 10
-1087.1050136407455
 20
-1820.1208375652247
 30
0.0
 41
1.0
 10
-1087.1081964627338
 20
-1820.1222772397846
 30
0.0
 41
1.0
 10
-1087.111379284722
 20
-1820.1237169143442
 30
0.0
 41
1.0
 10
-1087.2387152709998
 20
-1820.1813143485265
 30
0.0
 41
0.9991322885919478
 10
-1087.3608158550574
 20
-1820.2493096807086
 30
0.0
 41
1.0
 10
-1087.3784178661022
 20
-1820.259111882699
 30
0.0
 41
1.0
 10
-1087.3960198771472
 20
-1820.2689140846894
 30
0.0
 41
1.0
 10
-1087.4981965582031
 20
-1820.3258142004695
 30
0.0
 41
0.999386003784973
 10
-1087.5961375622751
 20
-1820.3897302160572
 30
0.0
 41
1.0
 10
-1087.6017558751289
 20
-1820.393396710753
 30
0.0
 41
1.0
 10
-1087.6073741879827
 20
-1820.3970632054488
 30
0.0
 41
1.0
 10
-1087.6940785663496
 20
-1820.4536462316466
 30
0.0
 41
0.9998821494954826
 10
-1087.779004942161
 20
-1820.5128644617225
 30
0.0
 41
1.0
 10
-1087.8639313179749
 20
-1820.5720826917998
 30
0.0
 41
0.9997976482743427
 10
-1087.9464069483795
 20
-1820.6346690998423
 30
0.0
 41
1.0
 10
-1087.9610432131835
 20
-1820.6457757896214
 30
0.0
 41
1.0
 10
-1087.9756794779873
 20
-1820.6568824794006
 30
0.0
 41
1.0
 10
-1088.0874276380018
 20
-1820.7416822670027
 30
0.0
 41
0.9998091630799104
 10
-1088.19577791603
 20
-1820.8307826177047
 30
0.0
 41
1.0
 10
-1088.2087836685066
 20
-1820.8414777181501
 30
0.0
 41
1.0
 10
-1088.2217894209832
 20
-1820.8521728185956
 30
0.0
 41
1.0
 10
-1088.3561512039651
 20
-1820.9626633701885
 30
0.0
 41
0.9995035112317061
 10
-1088.4832870817279
 20
-1821.081397187203
 30
0.0
 41
1.0
 10
-1088.4929343921162
 20
-1821.0904069333619
 30
0.0
 41
1.0
 10
-1088.5025817025048
 20
-1821.0994166795208
 30
0.0
 41
1.0
 10
-1088.6260047652693
 20
-1821.2146830512759
 30
0.0
 41
0.9994630424298849
 10
-1088.7416131710529
 20
-1821.3377857945106
 30
0.0
 41
1.0
 10
-1088.745296009824
 20
-1821.3417073740234
 30
0.0
 41
1.0
 10
-1088.7489788485948
 20
-1821.3456289535359
 30
0.0
 41
1.0
 10
-1088.8572215768361
 20
-1821.4608885377452
 30
0.0
 41
0.9995160693750586
 10
-1088.9580876063687
 20
-1821.5826559556185
 30
0.0
 41
1.0
 10
-1088.9600213264489
 20
-1821.5849903798257
 30
0.0
 41
1.0
 10
-1088.9619550465288
 20
-1821.5873248040332
 30
0.0
 41
1.0
 10
-1089.0589536359005
 20
-1821.704423373491
 30
0.0
 41
0.999656147051386
 10
-1089.1496798545663
 20
-1821.8264461359402
 30
0.0
 41
1.0
 10
-1089.155837520469
 20
-1821.8347279249833
 30
0.0
 41
1.0
 10
-1089.1619951863715
 20
-1821.8430097140265
 30
0.0
 41
1.0
 10
-1089.2404060732333
 20
-1821.9484688983907
 30
0.0
 41
0.9998349055174278
 10
-1089.3149333551646
 20
-1822.0567074820528
 30
0.0
 41
1.0
 10
-1089.3894606370957
 20
-1822.1649460657145
 30
0.0
 41
0.9999728109568564
 10
-1089.4623835330033
 20
-1822.2742719912658
 30
0.0
 41
1.0
 10
-1089.4636987484168
 20
-1822.2762437607712
 30
0.0
 41
1.0
 10
-1089.4650139638304
 20
-1822.2782155302764
 30
0.0
 41
1.0
 10
-1089.5405672905688
 20
-1822.3914849948437
 30
0.0
 41
0.9999972147473982
 10
-1089.6155851009478
 20
-1822.5051098376871
 30
0.0
 41
1.0
 10
-1089.6205566435654
 20
-1822.5126399261521
 30
0.0
 41
1.0
 10
-1089.6255281861829
 20
-1822.5201700146172
 30
0.0
 41
1.0
 10
-1089.7104890818023
 20
-1822.6488550343984
 30
0.0
 41
0.9999371979007529
 10
-1089.7925444312059
 20
-1822.779411948175
 30
0.0
 41
1.0
 10
-1089.7960533155679
 20
-1822.7849948762405
 30
0.0
 41
1.0
 10
-1089.7995621999298
 20
-1822.7905778043057
 30
0.0
 41
1.0
 10
-1089.8886353180576
 20
-1822.9323005742131
 30
0.0
 41
0.9998272025609558
 10
-1089.9723787089392
 20
-1823.0772364509546
 30
0.0
 41
1.0
 10
-1089.9875938809639
 20
-1823.1035695654123
 30
0.0
 41
1.0
 10
-1090.0028090529886
 20
-1823.1299026798702
 30
0.0
 41
1.0
 10
-1090.1169827879189
 20
-1823.3275047855263
 30
0.0
 41
0.9995217214838074
 10
-1090.2187224774746
 20
-1823.5317871133886
 30
0.0
 41
1.0
 10
-1090.2263660401095
 20
-1823.547134563091
 30
0.0
 41
1.0
 10
-1090.2340096027442
 20
-1823.5624820127935
 30
0.0
 41
1.0
 10
-1090.3209148953338
 20
-1823.7369784708744
 30
0.0
 41
0.9998269762607392
 10
-1090.4012693616062
 20
-1823.9145867575987
 30
0.0
 41
1.0
 10
-1090.4816238278784
 20
-1824.0921950443226
 30
0.0
 41
0.9998944747388112
 10
-1090.5567846224435
 20
-1824.2720627699528
 30
0.0
 41
1.0
 10
-1090.5617382920341
 20
-1824.2839174248691
 30
0.0
 41
1.0
 10
-1090.5666919616249
 20
-1824.2957720797854
 30
0.0
 41
1.0
 10
-1090.6473390221779
 20
-1824.4887690198043
 30
0.0
 41
0.9999506734413161
 10
-1090.724136551082
 20
-1824.6833298246615
 30
0.0
 41
1.0
 10
-1090.7387365163572
 20
-1824.7203177464787
 30
0.0
 41
1.0
 10
-1090.7533364816327
 20
-1824.7573056682959
 30
0.0
 41
1.0
 10
-1090.8009340799922
 20
-1824.8778906295345
 30
0.0
 41
0.9999912393910695
 10
-1090.8475205240079
 20
-1824.9988698322136
 30
0.0
 41
1.0
 10
-1090.8941069680307
 20
-1825.1198490349097
 30
0.0
 41
0.99999271139568
 10
-1090.939768262424
 20
-1825.2411804424091
 30
0.0
 41
1.0
 10
-1090.9537366938221
 20
-1825.2782974244092
 30
0.0
 41
1.0
 10
-1090.9677051252202
 20
-1825.3154144064092
 30
0.0
 41
1.0
 10
-1091.0413032824104
 20
-1825.5109797779105
 30
0.0
 41
0.9999487550949625
 10
-1091.110926907382
 20
-1825.7079951430931
 30
0.0
 41
1.0
 10
-1091.1345205173216
 20
-1825.7747584533931
 30
0.0
 41
1.0
 10
-1091.1581141272609
 20
-1825.8415217636934
 30
0.0
 41
1.0
 10
-1091.252799761628
 20
-1826.1094555985076
 30
0.0
 41
0.9999808436940001
 10
-1091.3441613502673
 20
-1826.3785410297664
 30
0.0
 41
1.0
 10
-1091.4355229389118
 20
-1826.6476264610401
 30
0.0
 41
0.9999873932901205
 10
-1091.5241776476323
 20
-1826.9176158160608
 30
0.0
 41
1.0
 10
-1091.5442700044989
 20
-1826.9788051488053
 30
0.0
 41
1.0
 10
-1091.5643623613655
 20
-1827.0399944815501
 30
0.0
 41
1.0
 10
-1091.6932017838219
 20
-1827.4323625020675
 30
0.0
 41
0.999979488303352
 10
-1091.8170045687812
 20
-1827.8263487083491
 30
0.0
 41
1.0
 10
-1091.8281568282114
 20
-1827.8618393185634
 30
0.0
 41
1.0
 10
-1091.8393090876418
 20
-1827.8973299287775
 30
0.0
 41
1.0
 10
-1091.9818672515419
 20
-1828.3510026808726
 30
0.0
 41
0.9999982761851488
 10
-1092.1227396915681
 20
-1828.8052017030304
 30
0.0
 41
1.0
 10
-1093.7108800241408
 20
-1833.8539714340336
 30
0.0
 41
1.0
 10
-1095.2990203567133
 20
-1838.902741165037
 30
0.0
 41
1.0
 10
-1096.2477709681898
 20
-1838.902741165037
 30
0.0
 41
1.0
 10
-1097.1965215796661
 20
-1838.902741165037
 30
0.0
 41
1.0
 10
-1093.9582370935127
 20
-1828.5754189650909
 30
0.0
 41
1.0
 10
-1090.7199526073596
 20
-1818.2480967651447
 30
0.0
 41
1.0
  0
LWPOLYLINE
  5
6B
100
AcDbEntity
  8
0
370
              15
390
0
  6
Continuous
 62
               7
100
AcDbPolyline
 90
      232
 70
             128
 10
-1116.4234983811866
 20
-1819.3324395966599
 42
0.000437080068672
 10
-1116.4763755552499
 20
-1819.4011062359045
 10
-1116.5156597863861
 20
-1819.4522133488126
 42
0.0030481992173372
 10
-1116.6459985035142
 20
-1819.6239350411688
 10
-1116.6845101752558
 20
-1819.6753218249451
 42
0.0042058245758638
 10
-1116.8884952259273
 20
-1819.9523275700208
 10
-1116.9409003484263
 20
-1820.0247604167994
 42
0.0120948898741528
 10
-1117.2369442651905
 20
-1820.4555100213529
 10
-1117.3331367643109
 20
-1820.6029907565751
 42
0.0141601263948666
 10
-1117.6367808112318
 20
-1821.0986600933088
 10
-1117.676318078655
 20
-1821.1675040607358
 42
0.0071131081302745
 10
-1117.8815904018961
 20
-1821.5370068595787
 42
0.0068458791001917
 10
-1118.0764699287367
 20
-1821.9120984230499
 10
-1118.0832817911969
 20
-1821.9256601367783
 42
0.0064120880290446
 10
-1118.2814240412404
 20
-1822.3330846116958
 10
-1118.2889587267582
 20
-1822.3490964684186
 42
0.0058857236448696
 10
-1118.4917141186268
 20
-1822.7934725794466
 10
-1118.4998890449237
 20
-1822.8119627330875
 42
0.0053189741896783
 10
-1118.7085933575881
 20
-1823.297926206998
 10
-1118.7173411632727
 20
-1823.3189080852017
 42
0.0047503650421648
 10
-1118.9333148894298
 20
-1823.8511075184274
 10
-1118.9425831377716
 20
-1823.8745838945192
 42
0.0042071762171868
 10
-1119.1671305215018
 20
-1824.4576774885957
 10
-1119.176879923848
 20
-1824.4836436634587
 42
0.0036680086484845
 10
-1119.4113345671649
 20
-1825.1222790480026
 10
-1119.421542347008
 20
-1825.1507275823342
 42
0.0032573142627487
 10
-1119.6671746329785
 20
-1825.8495802420985
 10
-1119.7358251538144
 20
-1826.049043326138
 42
0.0026133366648634
 10
-1120.0842703525732
 20
-1827.0789066098125
 10
-1120.14752714008
 20
-1827.2691374452236
 42
0.0020592950742463
 10
-1120.361390209041
 20
-1827.9212410978187
 10
-1120.3644420002011
 20
-1827.930677586219
 42
0.0025609928533711
 10
-1120.5662625016898
 20
-1828.5658228085942
 10
-1120.5688538688175
 20
-1828.5741251495383
 42
0.0031362356241358
 10
-1120.7583446544936
 20
-1829.1948880057143
 10
-1120.7604756974238
 20
-1829.2020293119347
 42
0.0037229918029377
 10
-1120.9372760843473
 20
-1829.8110146138997
 10
-1120.9389546735529
 20
-1829.8169615040706
 42
0.0043077623705704
 10
-1121.1026954756189
 20
-1830.4167802358429
 42
0.0047654161824855
 10
-1121.2555241981379
 20
-1831.019466324758
 10
-1121.289988806974
 20
-1831.1610281018952
 42
0.0112969368447162
 10
-1121.4858531651171
 20
-1832.0527202625176
 10
-1121.5138595542142
 20
-1832.1955483086172
 42
0.0130056762571115
 10
-1121.7146967978606
 20
-1833.3824893802621
 10
-1121.7352365480074
 20
-1833.5265674937366
 42
0.0138721532145096
 10
-1121.8389395525458
 20
-1834.4333969795648
 10
-1121.8582350404536
 20
-1834.6568947014894
 42
0.0071254697006732
 10
-1121.8915816863764
 20
-1835.1200817103372
 10
-1121.8965426605391
 20
-1835.2060857048864
 42
0.0028881799196086
 10
-1121.9116809538295
 20
-1835.4978274147397
 42
0.0060297297131336
 10
-1121.9216131536045
 20
-1835.7897763508452
 10
-1121.9226754352719
 20
-1835.8381687227868
 42
0.0229523164155324
 10
-1121.9149444074862
 20
-1836.1609235690712
 10
-1121.9107186339659
 20
-1836.2213271030885
 42
0.0123673300671251
 10
-1121.8916399874474
 20
-1836.4224478282622
 42
0.0128577674477374
 10
-1121.8624445970408
 20
-1836.622345678192
 10
-1121.8553187236544
 20
-1836.663674492786
 42
0.0285717853759467
 10
-1121.7908247219598
 20
-1836.9417906440956
 10
-1121.7771561982927
 20
-1836.9884454135747
 42
0.0316283099156118
 10
-1121.6613456183779
 20
-1837.3074599154024
 10
-1121.6582969266219
 20
-1837.314446287729
 42
0.0338984824240455
 10
-1121.5088652156553
 20
-1837.6020122519171
 10
-1121.5065564862848
 20
-1837.6058032811941
 42
0.0350228718355961
 10
-1121.3241961956119
 20
-1837.8628552658699
 10
-1121.3233109438368
 20
-1837.8639343436341
 42
0.034747674752858
 10
-1121.1088862565966
 20
-1838.0911193908541
 42
0.0331337701908738
 10
-1120.8656429308523
 20
-1838.2872480529297
 10
-1120.8645428323341
 20
-1838.2880207561038
 42
0.0305233319086002
 10
-1120.5959981367603
 20
-1838.4531489261956
 10
-1120.5927680922596
 20
-1838.4548729380581
 42
0.0273744481149595
 10
-1120.3002143806871
 20
-1838.5910110819477
 10
-1120.2951098455478
 20
-1838.5930546664181
 42
0.0240964406193329
 10
-1119.9796327698989
 20
-1838.7020383927006
 10
-1119.9730494406922
 20
-1838.7039631323746
 42
0.0209636179809699
 10
-1119.6356492880439
 20
-1838.7874312803056
 10
-1119.6280168275907
 20
-1838.788983193308
 42
0.0181388704693655
 10
-1119.2696944355887
 20
-1838.8483992865224
 10
-1119.2614135872141
 20
-1838.8494654703391
 42
0.0156086547584875
 10
-1118.8832262230262
 20
-1838.8862016569158
 10
-1118.8400309707017
 20
-1838.8890401593944
 42
0.0137148329019587
 10
-1118.5123578253992
 20
-1838.9015604146462
 10
-1118.4664216354604
 20
-1838.9020548477613
 42
0.0051057823885863
 10
-1118.230276048881
 20
-1838.9021851021703
 42
0.0052256693313186
 10
-1117.9941787650887
 20
-1838.897436277706
 10
-1117.9239519813532
 20
-1838.8952893116921
 42
0.016150717904936
 10
-1117.5482149032496
 20
-1838.8716389413653
 10
-1117.5282019428787
 20
-1838.869728746078
 42
0.0101216737834036
 10
-1117.1141747213901
 20
-1838.8217358157126
 10
-1117.0801214319613
 20
-1838.8170881189028
 42
0.0245291776398489
 10
-1116.6033317764088
 20
-1838.7280130408262
 10
-1116.5185084608834
 20
-1838.7078171204801
 42
0.0143509212557841
 10
-1116.1618773569467
 20
-1838.612012486702
 42
0.0156557857035894
 10
-1115.8116612922204
 20
-1838.4950012708837
 10
-1115.8041600777246
 20
-1838.4922311091291
 42
0.0170137333626495
 10
-1115.4475640820453
 20
-1838.3465734942588
 10
-1115.4404601596357
 20
-1838.3433856586942
 42
0.018310536440836
 10
-1115.0811104914724
 20
-1838.1660506168714
 10
-1115.0741637268306
 20
-1838.1623001819976
 42
0.0194899958153707
 10
-1114.7156829858432
 20
-1837.9503212001046
 10
-1114.7086691065101
 20
-1837.9457958578118
 42
0.0204869852952667
 10
-1114.3546548044178
 20
-1837.6962758427273
 10
-1114.347389195829
 20
-1837.6906957773776
 42
0.0212516938558939
 10
-1114.00139926472
 20
-1837.4007917804822
 10
-1113.9548825706449
 20
-1837.3583244703891
 42
0.0215248918252111
 10
-1113.6948564017578
 20
-1837.0995601913951
 10
-1113.6498266673768
 20
-1837.0507160700447
 42
0.0114578554960278
 10
-1113.4950345136999
 20
-1836.8748931365867
 10
-1113.4838399777204
 20
-1836.8615743730497
 42
0.0061531305134257
 10
-1113.3573653317189
 20
-1836.7072848397356
 42
0.0006325587121287
 10
-1113.2329868475433
 20
-1836.5512814640301
 10
-1113.2099467125156
 20
-1836.5223079434006
 42
0.0041897761555449
 10
-1113.0414913085369
 20
-1836.3067885673313
 10
-1112.9830291886506
 20
-1836.2306872203535
 42
0.0092993880034274
 10
-1112.7064172614298
 20
-1835.8564084564739
 10
-1112.6240227682276
 20
-1835.7404714529007
 42
0.0159321727086148
 10
-1112.2774162855856
 20
-1835.218297232145
 10
-1112.2330601501958
 20
-1835.1466176678941
 42
0.0085547317021943
 10
-1111.9985483848709
 20
-1834.7527427186703
 42
0.0084601156890042
 10
-1111.7775722074271
 20
-1834.3511158696351
 10
-1111.7694567335984
 20
-1834.3357561873652
 42
0.008142965428662
 10
-1111.5462074631582
 20
-1833.8960346748188
 10
-1111.5373472989768
 20
-1833.8778558328049
 42
0.0076574581329121
 10
-1111.3109397884105
 20
-1833.3946729575525
 10
-1111.3014601476866
 20
-1833.373608479249
 42
0.0070682724203536
 10
-1111.0710152398781
 20
-1832.8415711744635
 10
-1111.0610249558981
 20
-1832.8175819854559
 42
0.0064559514446651
 10
-1110.8256917477179
 20
-1832.2312697189413
 10
-1110.8152823895514
 20
-1832.204334793495
 42
0.0058311413905387
 10
-1110.5742356527912
 20
-1831.558302699118
 10
-1110.5634805754012
 20
-1831.5284183579506
 42
0.0052312425818168
 10
-1110.3158992973611
 20
-1830.8172159441187
 10
-1110.3048554609804
 20
-1830.7843892320466
 42
0.0046680544796782
 10
-1110.0499270332466
 20
-1830.0025629162935
 10
-1110.0079348832023
 20
-1829.8695796789996
 42
0.0041666856444108
 10
-1109.8046488708073
 20
-1829.206610903994
 10
-1109.7669864301486
 20
-1829.0800297963572
 42
0.0015170975157595
 10
-1109.6457998517305
 20
-1828.6681614448466
 42
-0.0004887993116034
 10
-1109.5254600786088
 20
-1828.2560430328094
 10
-1109.4489828211124
 20
-1827.9950856468636
 42
0.0002583378928656
 10
-1109.1757682510377
 20
-1827.0610289436486
 10
-1109.0939954014593
 20
-1826.7809296840594
 42
0.0006636169673616
 10
-1108.9001276414601
 20
-1826.1135767605144
 10
-1108.8950309871009
 20
-1826.0959451775921
 42
0.0010589131323917
 10
-1108.7135822861965
 20
-1825.4632138345855
 10
-1108.7086002157139
 20
-1825.4457009275584
 42
0.0015655524460863
 10
-1108.5403300085331
 20
-1824.8470842483646
 10
-1108.5354998081261
 20
-1824.8296920894572
 42
0.0021640440475491
 10
-1108.3812098361323
 20
-1824.2646650714105
 10
-1108.3765756166983
 20
-1824.2474003414015
 42
0.0028763871854077
 10
-1108.2370598986492
 20
-1823.7154323905697
 10
-1108.2326740344856
 20
-1823.6983084124295
 42
0.0037310511945454
 10
-1108.1087173426451
 20
-1823.1988608183915
 10
-1108.1046421223573
 20
-1823.1819005471507
 42
0.0047652197768595
 10
-1107.9970182218476
 20
-1822.7144227788408
 10
-1107.9933276225227
 20
-1822.6976632236831
 42
0.0060276699302783
 10
-1107.9027975233707
 20
-1822.2615874285466
 10
-1107.8995788330826
 20
-1822.2450862142427
 42
0.0075824337759498
 10
-1107.8268895236661
 20
-1821.8398190498112
 10
-1107.8242441462862
 20
-1821.8236641023634
 42
0.0095130624604159
 10
-1107.7701289106546
 20
-1821.448574749289
 10
-1107.7631426867722
 20
-1821.3926411911734
 42
0.0121054653225842
 10
-1107.736551356194
 20
-1821.1277453626985
 10
-1107.7356848664347
 20
-1821.1163419197705
 42
0.0069050827389334
 10
-1107.7205960483971
 20
-1820.8734006929253
 10
-1107.7194607487286
 20
-1820.8498744358815
 42
0.0169063976697944
 10
-1107.7166334697481
 20
-1820.6536817085798
 10
-1107.7178041212794
 20
-1820.5933459472262
 42
0.0052007732903348
 10
-1107.7200575698723
 20
-1820.5177525570784
 42
0.0054038123297264
 10
-1107.740021081712
 20
-1820.3977342610633
 10
-1107.7451069375816
 20
-1820.3690757744873
 42
0.0112050460460978
 10
-1107.7804912996398
 20
-1820.1927493361507
 10
-1107.7983162616808
 20
-1820.1132077494276
 42
0.0240764468010779
 10
-1107.8892136278271
 20
-1819.782970713926
 10
-1107.9077723906391
 20
-1819.7263505489361
 42
0.0256812331832477
 10
-1108.05113531083
 20
-1819.3546263426751
 10
-1108.0565447366505
 20
-1819.3424950076871
 42
0.0268360501215484
 10
-1108.2259719775011
 20
-1819.0115018736644
 10
-1108.2315083851361
 20
-1819.0019822033521
 42
0.027467023172804
 10
-1108.4237093615495
 20
-1818.7096948284347
 10
-1108.4290906615113
 20
-1818.7024156808945
 42
0.0275035967097975
 10
-1108.640663541074
 20
-1818.4468997905894
 10
-1108.6457330420376
 20
-1818.441420702962
 42
0.0269557673523291
 10
-1108.8731365854801
 20
-1818.2207784169968
 10
-1108.8778796432598
 20
-1818.2166484625384
 42
0.0259124802202418
 10
-1109.1174344746935
 20
-1818.0289579353835
 10
-1109.1219653198689
 20
-1818.0257724330577
 42
0.0245162152998009
 10
-1109.3698816729702
 20
-1817.8690394239429
 10
-1109.3744082192993
 20
-1817.8664792267393
 42
0.0229282588845957
 10
-1109.6268277761219
 20
-1817.7386110342431
 10
-1109.6316082699591
 20
-1817.7364587344809
 42
0.0212984135699384
 10
-1109.8846462224203
 20
-1817.6352598172389
 10
-1109.8899505073912
 20
-1817.6333962544784
 42
0.019755546234859
 10
-1110.1397288451128
 20
-1817.5565808365141
 42
0.0183511896790592
 10
-1110.3946575705793
 20
-1817.4989979295478
 10
-1110.4810227672992
 20
-1817.4827951391635
 42
0.0338057877148385
 10
-1110.7665301165594
 20
-1817.448986734023
 10
-1110.8575355216117
 20
-1817.4444070787613
 42
0.0091990524509317
 10
-1110.9633826302352
 20
-1817.4410312228397
 42
0.0028333980789409
 10
-1111.069296546231
 20
-1817.4402031153231
 10
-1111.0702119992775
 20
-1817.440201145499
 42
-0.0023619827790674
 10
-1111.1779580144218
 20
-1817.43946030442
 10
-1111.2143631845593
 20
-1817.4390379979573
 42
0.0008824598472874
 10
-1111.3949191743611
 20
-1817.4372622197195
 10
-1111.438780606815
 20
-1817.4369082581934
 42
0.0038132665764034
 10
-1111.7070635026853
 20
-1817.4367893221267
 10
-1111.7235971574873
 20
-1817.4369080882705
 42
0.0060665569334882
 10
-1112.0248776490873
 20
-1817.4427283876914
 10
-1112.039127981104
 20
-1817.4431766956588
 42
0.008035695333648
 10
-1112.3685866974381
 20
-1817.4588444177255
 10
-1112.3806567125305
 20
-1817.4596130006662
 42
0.0098996399106233
 10
-1112.7334197971779
 20
-1817.4890982298641
 10
-1112.743465506556
 20
-1817.4901385260625
 42
0.0117740981369909
 10
-1113.1146223649071
 20
-1817.5374307735929
 10
-1113.1228450613874
 20
-1817.5386758901632
 42
0.0137435215137844
 10
-1113.5074338808768
 20
-1817.6077728637258
 10
-1113.5140909199959
 20
-1817.6091587599585
 42
0.015835986938526
 10
-1113.9070880137965
 20
-1817.7040508484386
 10
-1113.9125012006655
 20
-1817.7055407893097
 42
0.0180554124030432
 10
-1114.3088162452809
 20
-1817.8301788055496
 10
-1114.3133730333611
 20
-1817.8317948418148
 42
0.020365743128545
 10
-1114.7078505511745
 20
-1817.9900551833312
 10
-1114.7119940901798
 20
-1817.9919168047722
 42
0.022681968465517
 10
-1115.0994301463834
 20
-1818.1875593834434
 10
-1115.1036299374018
 20
-1818.1899249753633
 42
0.0248634984605656
 10
-1115.4788118785841
 20
-1818.4265516213111
 10
-1115.5270068073678
 20
-1818.4604086631366
 42
0.0267044190886631
 10
-1115.8012995042834
 20
-1818.6758490390043
 42
0.0139303002203129
 10
-1116.0574666702241
 20
-1818.9130878799183
 10
-1116.062320055943
 20
-1818.9178405427763
 42
0.0283460963443639
 10
-1116.3063926501707
 20
-1819.1855712032216
 10
-1116.3460611553269
 20
-1819.2343727806945
 42
0.0070695364826334
 10
-1116.4234983811866
 20
-1819.3324395966599
 42
0.0070695364826334
  0
LWPOLYLINE
  5
6C
100
AcDbEntity
  8
0
370
              15
390
0
  6
Continuous
 62
               7
100
AcDbPolyline
 90
      226
 70
             128
 10
-1119.952318818433
 20
-1835.0540284028439
 42
-0.0026277636670592
 10
-1119.952396702233
 20
-1834.9872564771679
 10
-1119.952179344001
 20
-1834.9341012596578
 42
-0.0088680296721629
 10
-1119.9484027277078
 20
-1834.7610854772481
 10
-1119.9460563685957
 20
-1834.7018054518012
 42
-0.0077381705617459
 10
-1119.9300102578325
 20
-1834.4105449560041
 10
-1119.9291423466593
 20
-1834.3982567223179
 42
-0.0068872530535734
 10
-1119.9025102669111
 20
-1834.0830349702485
 10
-1119.9013060427251
 20
-1834.0707939912299
 42
-0.006213002149028
 10
-1119.8637123258966
 20
-1833.7319242999865
 10
-1119.8622084223621
 20
-1833.719750428075
 42
-0.005672692966962
 10
-1119.8132865628602
 20
-1833.3575552059638
 10
-1119.8115131172156
 20
-1833.3454614057164
 42
-0.0052341884496757
 10
-1119.7509025309553
 20
-1832.9602681501965
 10
-1119.748884542179
 20
-1832.9482632202059
 42
-0.0049768450164073
 10
-1119.6761458607491
 20
-1832.5404186527542
 10
-1119.6518968460309
 20
-1832.4118706697673
 42
-0.0089029805624705
 10
-1119.5148159942364
 20
-1831.7500952223468
 10
-1119.4820706189175
 20
-1831.6050637918215
 42
-0.0080318257100249
 10
-1119.2525220045777
 20
-1830.6593541599716
 10
-1119.2405370781285
 20
-1830.6132235247778
 42
-0.0074265721319169
 10
-1118.9565255392783
 20
-1829.5831589463962
 10
-1118.9366459961614
 20
-1829.5150248858056
 42
-0.0069711922701518
 10
-1118.6093414176553
 20
-1828.4487571454797
 10
-1118.5493894705542
 20
-1828.2627357871224
 42
-0.0052070422895397
 10
-1118.3199642452905
 20
-1827.5754637100779
 10
-1118.3026830530973
 20
-1827.5254364293999
 42
-0.0009167004446803
 10
-1118.0995911658288
 20
-1826.9409805813066
 42
-0.0025162726943876
 10
-1117.892493535566
 20
-1826.357939317144
 10
-1117.8552689237617
 20
-1826.2547897712413
 42
-0.0028212681457681
 10
-1117.6070930047977
 20
-1825.5790591390678
 10
-1117.5972622420379
 20
-1825.5527516943669
 42
-0.0031964916822457
 10
-1117.3609699843846
 20
-1824.9325469322639
 10
-1117.3513355303805
 20
-1824.9077369421072
 42
-0.0036281836451525
 10
-1117.1262295692845
 20
-1824.3402962612276
 10
-1117.1167911591253
 20
-1824.3169988297204
 42
-0.0041269166831387
 10
-1116.902173462468
 20
-1823.7995579337464
 10
-1116.8695405060457
 20
-1823.7226794873818
 42
-0.0047472213054927
 10
-1116.7124957004935
 20
-1823.362258019502
 10
-1116.7056016192823
 20
-1823.3468374221636
 42
-0.0025651659997181
 10
-1116.5572435854351
 20
-1823.0195093664215
 42
-0.0057144634992036
 10
-1116.4034938916623
 20
-1822.6946996930556
 10
-1116.3754631862655
 20
-1822.6371913106705
 42
-0.00653880683742
 10
-1116.1919961585229
 20
-1822.2729588139998
 10
-1116.1835377027439
 20
-1822.2566992346294
 42
-0.0074510843024741
 10
-1116.0073554568664
 20
-1821.9300109535075
 10
-1115.9991757863349
 20
-1821.9153701762377
 42
-0.0084648979855796
 10
-1115.8295419332353
 20
-1821.6234611652776
 10
-1115.8216858067478
 20
-1821.6104541736277
 42
-0.0095638542803729
 10
-1115.6578503591531
 20
-1821.3505653016482
 10
-1115.6503754154805
 20
-1821.3391959401915
 42
-0.0107191626805483
 10
-1115.4915738350937
 20
-1821.1085847056488
 10
-1115.4845571013627
 20
-1821.0988486132842
 42
-0.0118458573904057
 10
-1115.3300090028501
 20
-1820.8947764179734
 42
-0.0129184518183948
 10
-1115.1655563792463
 20
-1820.6986159017999
 10
-1115.1354116068858
 20
-1820.6644898229035
 42
-0.0217742579638561
 10
-1114.9587992845502
 20
-1820.4812830526535
 10
-1114.9480537400889
 20
-1820.4710662194495
 42
-0.0097266568649192
 10
-1114.781996121234
 20
-1820.3192186450131
 42
-0.0187720905720521
 10
-1114.6076485453455
 20
-1820.1771497916247
 10
-1114.5769425546682
 20
-1820.1539907092263
 42
-0.0179428207519311
 10
-1114.3445218346742
 20
-1819.991438532116
 10
-1114.340869507763
 20
-1819.9890745972314
 42
-0.0170047877701013
 10
-1114.105105870228
 20
-1819.8476140830767
 10
-1114.1013228814811
 20
-1819.8455157780402
 42
-0.0160190788361482
 10
-1113.8644143338461
 20
-1819.7238644760523
 42
-0.0151102861488665
 10
-1113.6203825513971
 20
-1819.6171816999968
 10
-1113.5679960491877
 20
-1819.5961415671031
 42
-0.027194544188753
 10
-1113.209333490131
 20
-1819.4742767563976
 10
-1113.1402686896411
 20
-1819.4549272151307
 42
-0.02375965940234
 10
-1112.7244718426189
 20
-1819.3594765031494
 10
-1112.6564089888923
 20
-1819.3472218150232
 42
-0.021371544055657
 10
-1112.3705340574431
 20
-1819.3082747835126
 10
-1112.3103868912178
 20
-1819.3026850688111
 42
-0.0101465655820592
 10
-1112.1428943592309
 20
-1819.2905415255477
 10
-1112.1335539730246
 20
-1819.29005461055
 42
-0.0100375910876342
 10
-1111.9843998724702
 20
-1819.2852787926251
 10
-1111.9741406027933
 20
-1819.2851563536108
 42
-0.0103625633384041
 10
-1111.8454326081351
 20
-1819.2862877871373
 10
-1111.8231669568631
 20
-1819.2869451456024
 42
-0.0115689250238423
 10
-1111.7391162193401
 20
-1819.2913746518475
 42
-0.0072438037442778
 10
-1111.6552779399015
 20
-1819.2989638515967
 10
-1111.6384774304281
 20
-1819.3007303943209
 42
-0.0217917313121333
 10
-1111.5219076671119
 20
-1819.3181502870423
 10
-1111.4563075765459
 20
-1819.3308968954566
 42
-0.0332943556752646
 10
-1111.2519154115196
 20
-1819.3849371867636
 10
-1111.2217428429642
 20
-1819.3951052638838
 42
-0.0184824084795329
 10
-1111.083237786504
 20
-1819.4475562792686
 42
-0.0198002050702926
 10
-1110.9491634460064
 20
-1819.5104403394671
 10
-1110.947276808628
 20
-1819.5114181263477
 42
-0.0212242342979448
 10
-1110.8151378662301
 20
-1819.587180865138
 10
-1110.8133225706824
 20
-1819.5883266673491
 42
-0.0226090605777589
 10
-1110.6848186694565
 20
-1819.6778063109166
 10
-1110.6829742277232
 20
-1819.679218563901
 42
-0.0238457052224304
 10
-1110.5597921464264
 20
-1819.7832144597669
 10
-1110.5578394178713
 20
-1819.7850293375295
 42
-0.0248160564148846
 10
-1110.4416379105712
 20
-1819.9043039387377
 10
-1110.4395342771686
 20
-1819.9066892724427
 42
-0.0254109591445797
 10
-1110.3319290593015
 20
-1820.0419776584085
 10
-1110.3296810373886
 20
-1820.0451192068076
 42
-0.0255528488271408
 10
-1110.2322343585888
 20
-1820.1971462610463
 10
-1110.2299032586752
 20
-1820.2012278726497
 42
-0.0252146793217987
 10
-1110.1441222326653
 20
-1820.3707301186485
 10
-1110.1418199935085
 20
-1820.3759122005595
 42
-0.0244265635960725
 10
-1110.0691652997489
 20
-1820.563658772601
 10
-1110.0599188982787
 20
-1820.5915241909436
 42
-0.0231319612904992
 10
-1110.0139961192867
 20
-1820.7548252377455
 42
-0.0112130424356129
 10
-1109.979360096748
 20
-1820.921028837935
 10
-1109.9781575716358
 20
-1820.9275254248214
 42
-0.0210527881237406
 10
-1109.9524710962651
 20
-1821.1085810702612
 10
-1109.9489605014433
 20
-1821.14398661881
 42
-0.0190029892424528
 10
-1109.9335190278987
 20
-1821.397522465084
 10
-1109.9327090514546
 20
-1821.4329980794514
 42
-0.0137974553661337
 10
-1109.93425790429
 20
-1821.7580294861823
 10
-1109.9351033592457
 20
-1821.7841482307776
 42
-0.0081336634214594
 10
-1109.9499626944682
 20
-1822.0894956983768
 42
-0.0073526923571809
 10
-1109.9742712278432
 20
-1822.3942439426655
 10
-1109.9755326516256
 20
-1822.407580617328
 42
-0.0066886138694277
 10
-1110.0112682376723
 20
-1822.738166660826
 10
-1110.0129253271421
 20
-1822.7517882798165
 42
-0.0061359187358175
 10
-1110.060775929192
 20
-1823.1085522599112
 10
-1110.0628134302656
 20
-1823.1224470627458
 42
-0.0056698610062262
 10
-1110.1234637610335
 20
-1823.5057256315879
 10
-1110.1258691943558
 20
-1823.5198847508145
 42
-0.005272107727289
 10
-1110.2000013951556
 20
-1823.9300120904923
 10
-1110.2027645439973
 20
-1823.9444287258784
 42
-0.0049289272177094
 10
-1110.2910586620987
 20
-1824.3817372370077
 10
-1110.2941711567798
 20
-1824.3964060898168
 42
-0.0047415956712552
 10
-1110.3974091483108
 20
-1824.8612028472214
 10
-1110.4321773586719
 20
-1825.0110099426106
 42
-0.0084404470902376
 10
-1110.6221938022436
 20
-1825.7712339671416
 10
-1110.6283204902293
 20
-1825.7940980912952
 42
-0.0039635940257362
 10
-1110.8497741745136
 20
-1826.5950869555436
 10
-1110.8631509696929
 20
-1826.6420185721345
 42
-0.007247504083705
 10
-1111.1305978575579
 20
-1827.5312382885299
 10
-1111.2008101843828
 20
-1827.7529786384946
 42
-0.0051345458829086
 10
-1111.4875695564424
 20
-1828.6273038263078
 10
-1111.5090958232047
 20
-1828.6907300934226
 42
-0.0019150016602395
 10
-1111.7646292300765
 20
-1829.4342792136638
 10
-1111.7710968344795
 20
-1829.4528666786043
 42
-0.0021524362754042
 10
-1112.0195748855367
 20
-1830.1571925002931
 10
-1112.0287853062325
 20
-1830.1829460785932
 42
-0.0024331286819301
 10
-1112.2650405652689
 20
-1830.833545386713
 10
-1112.2740885178193
 20
-1830.858088693067
 42
-0.0027449721788652
 10
-1112.498703088655
 20
-1831.4572185719917
 10
-1112.5075930960475
 20
-1831.4805411618447
 42
-0.0031083229768556
 10
-1112.7211355826571
 20
-1832.0304651994236
 10
-1112.7298717143262
 20
-1832.0525549152649
 42
-0.0035311343284212
 10
-1112.9329128999245
 20
-1832.5555380410115
 10
-1112.9414982390663
 20
-1832.5763807645076
 42
-0.004024564094736
 10
-1113.1346100428666
 20
-1833.0346900871141
 10
-1113.1430461564669
 20
-1833.05426945518
 42
-0.0046015135852834
 10
-1113.3268024496333
 20
-1833.4701744848285
 10
-1113.3350886274638
 20
-1833.4884716242855
 42
-0.0052768638269263
 10
-1113.5100661464171
 20
-1833.8642445085509
 10
-1113.5181983570435
 20
-1833.8812378470932
 42
-0.0060672675637032
 10
-1113.68497796981
 20
-1834.2191534702083
 10
-1113.6929474502888
 20
-1834.2348187292002
 42
-0.0069904648869806
 10
-1113.8521158442932
 20
-1834.5371545358694
 10
-1113.8599072439063
 20
-1834.5514650851007
 42
-0.0080637022764444
 10
-1114.0120591042498
 20
-1834.8205003882497
 10
-1114.0196481368785
 20
-1834.8334282538458
 42
-0.0093006455672708
 10
-1114.1653888134126
 20
-1835.0714426523537
 10
-1114.1727394801569
 20
-1835.0829606215279
 42
-0.0107060778045668
 10
-1114.3126880235948
 20
-1835.2922309389057
 10
-1114.3197497918716
 20
-1835.3023164814674
 42
-0.012272311141594
 10
-1114.4545435100724
 20
-1835.4851098109607
 10
-1114.4548697336265
 20
-1835.4855301987702
 42
-0.0141836319628417
 10
-1114.5984513366006
 20
-1835.6600999565999
 10
-1114.6053990922492
 20
-1835.6680749568609
 42
-0.0175957477206791
 10
-1114.7453052602873
 20
-1835.8176958452693
 42
-0.008046635967292
 10
-1114.8927690253197
 20
-1835.9600183734228
 10
-1114.9388035698348
 20
-1836.0030388115117
 42
-0.0269600260395019
 10
-1115.1920838158169
 20
-1836.2153620700203
 10
-1115.2586509521152
 20
-1836.265313484645
 42
-0.0178362839753588
 10
-1115.4985954417707
 20
-1836.4323314108972
 10
-1115.5058404127687
 20
-1836.4369999231005
 42
-0.0174650732652018
 10
-1115.7421766102125
 20
-1836.5778608880612
 42
-0.0169240130164818
 10
-1115.9876428560706
 20
-1836.702153147839
 10
-1116.0336290116279
 20
-1836.7235151034058
 42
-0.0318883036840642
 10
-1116.3839798672479
 20
-1836.859853412916
 10
-1116.4523454024113
 20
-1836.881554033391
 42
-0.0284435909900041
 10
-1116.8283955287038
 20
-1836.9777714688662
 10
-1116.863553689202
 20
-1836.9846650646946
 42
-0.0243909341012497
 10
-1117.1769971501212
 20
-1837.0303860957247
 10
-1117.2272778768915
 20
-1837.0352316426263
 42
-0.0196639292930697
 10
-1117.4428734544194
 20
-1837.0474799281399
 10
-1117.4946975255841
 20
-1837.0483831888766
 42
-0.0100501510682274
 10
-1117.6071208072472
 20
-1837.0480827905235
 10
-1117.6387806686109
 20
-1837.0473617186376
 42
-0.0019752031141675
 10
-1117.6878730052726
 20
-1837.0460495584284
 10
-1117.690633308503
 20
-1837.0459648666019
 42
0.0065378752000416
 10
-1117.7342098832496
 20
-1837.0451979753873
 42
-0.0167974694613674
 10
-1117.7777407061833
 20
-1837.0435380768613
 10
-1117.7818200454435
 20
-1837.0432450659664
 42
-0.0081283276255837
 10
-1117.8333798431895
 20
-1837.0386980723276
 10
-1117.8451194170607
 20
-1837.0374701547501
 42
-0.0126703440179538
 10
-1117.9198377128528
 20
-1837.0277353636789
 10
-1117.9426255805311
 20
-1837.0241771077633
 42
-0.0117852088424564
 10
-1118.0621645663684
 20
-1837.0026141126052
 10
-1118.1175450181263
 20
-1836.9912705723716
 42
-0.0251774592298433
 10
-1118.3443890571316
 20
-1836.9327725629394
 10
-1118.3891082469831
 20
-1836.918805743604
 42
-0.0146525199891567
 10
-1118.5755012345237
 20
-1836.8545392164051
 42
-0.0166929435859362
 10
-1118.7574788906495
 20
-1836.7787320833511
 10
-1118.7621355219235
 20
-1836.7766071827366
 42
-0.0191684358436075
 10
-1118.9473191531731
 20
-1836.6833710989465
 10
-1118.9506517389298
 20
-1836.6815298513934
 42
-0.0221181781818344
 10
-1119.1339620428257
 20
-1836.5693963530266
 10
-1119.1363118468403
 20
-1836.5678120550315
 42
-0.025498468538336
 10
-1119.3126019972258
 20
-1836.4354009050619
 10
-1119.3350841449253
 20
-1836.4166485961277
 42
-0.0292492648807421
 10
-1119.4598530837707
 20
-1836.2995557964825
 42
-0.0159048957501316
 10
-1119.5736930812209
 20
-1836.1715358048832
 10
-1119.5750118718001
 20
-1836.1699541918633
 42
-0.0343813379569387
 10
-1119.6776491334251
 20
-1836.0280828660955
 10
-1119.7091406647871
 20
-1835.9775794739996
 42
-0.036911727570362
 10
-1119.7950331666843
 20
-1835.8141022330515
 42
-0.0191751379907719
 10
-1119.8622265522415
 20
-1835.641697627045
 10
-1119.8639898760009
 20
-1835.6366042823706
 42
-0.0378178042220984
 10
-1119.9137845947857
 20
-1835.447663506287
 10
-1119.9197798905159
 20
-1835.4151028880906
 42
-0.0184846046473705
 10
-1119.9404970898099
 20
-1835.2733500675474
 42
-0.0179866351316182
 10
-1119.9508300948835
 20
-1835.1304592544657
 10
-1119.9508865373293
 20
-1835.1289015678537
 42
-0.0085497186124174
 10
-1119.952318818433
 20
-1835.0540284028439
 42
-0.0085497186124174
  0
ENDBLK
  5
6D
100
AcDbEntity
  8
template
390
0
100
AcDbBlockEnd
  0
BLOCK
  5
6E
100
AcDbEntity
  8
notes
390
0
100
AcDbBlockBegin
  2
*D4
 70
               1
 10
0.0
 20
0.0
 30
0.0
  3
*D4
  1

  0
LINE
  5
6F
100
AcDbEntity
  8
0
370
              -2
390
0
  6
Continuous
 62
               0
100
AcDbLine
 10
-635.40721257914174
 20
990.41002365467762
 30
0.0
 11
-635.40721257914174
 21
1065.4100236546776
 31
0.0
  0
LINE
  5
70
100
AcDbEntity
  8
0
370
              -2
390
0
  6
Continuous
 62
               0
100
AcDbLine
 10
-335.40721257914174
 20
990.41002365467762
 30
0.0
 11
-335.40721257914174
 21
1065.4100236546776
 31
0.0
  0
LINE
  5
71
100
AcDbEntity
  8
0
370
              -2
390
0
  6
Continuous
 62
               0
100
AcDbLine
 10
-635.40721257914174
 20
1065.4100236546776
 30
0.0
 11
-335.40721257914174
 21
1065.4100236546776
 31
0.0
  0
CIRCLE
  5
72
102
{ACAD_REACTORS
330
73
102
}
100
AcDbEntity
  8
0
370
              -2
390
0
  6
Continuous
 62
               0
100
AcDbCircle
 10
-635.40721257914174
 20
1065.4100236546776
 30
0.0
 40
1.9998779296875
  0
HATCH
  5
73
100
AcDbEntity
  8
0
370
              -2
390
0
  6
Continuous
 62
               0
100
AcDbHatch
 10
0.0
 20
0.0
 30
0.0
210
0.0
220
0.0
230
1.0
  2
SOLID
 70
               1
 71
               1
 91
        1
 92
        1
 93
        1
 72
               2
 10
-635.40721257914174
 20
1065.4100236546776
 40
1.9998779296875
 50
0.0
 51
360.0
 73
               0
 97
        1
330
72
 75
               0
 76
               1
 98
        1
 10
0.0
 20
0.0
  0
CIRCLE
  5
74
102
{ACAD_REACTORS
330
75
102
}
100
AcDbEntity
  8
0
370
              -2
390
0
  6
Continuous
 62
               0
100
AcDbCircle
 10
-335.40721257914174
 20
1065.4100236546776
 30
0.0
 40
1.9998779296875
  0
HATCH
  5
75
100
AcDbEntity
  8
0
370
              -2
390
0
  6
Continuous
 62
               0
100
AcDbHatch
 10
0.0
 20
0.0
 30
0.0
210
0.0
220
0.0
230
1.0
  2
SOLID
 70
               1
 71
               1
 91
        1
 92
        1
 93
        1
 72
               2
 10
-335.40721257914174
 20
1065.4100236546776
 40
1.9998779296875
 50
0.0
 51
360.0
 73
               0
 97
        1
330
74
 75
               0
 76
               1
 98
        1
 10
0.0
 20
0.0
  0
MTEXT
  5
76
100
AcDbEntity
  8
0
390
0
 62
               0
100
AcDbMText
 10
-509.21971426131722
 20
1099.2876408421778
 30
0.0
 40
24.432617187500004
 41
0.0
 71
               1
 72
               1
  1
300
  7
ＭＳ ゴシック
 73
               1
 44
0.7828267384257843
  0
POINT
  5
77
100
AcDbEntity
  8
Defpoints
370
               0
390
0
 62
               0
100
AcDbPoint
 10
-335.40721257914174
 20
965.41002365467762
 30
0.0
  0
POINT
  5
78
100
AcDbEntity
  8
Defpoints
370
               0
390
0
 62
               0
100
AcDbPoint
 10
-635.40721257914174
 20
965.41002365467762
 30
0.0
  0
POINT
  5
79
100
AcDbEntity
  8
Defpoints
370
               0
390
0
 62
               0
100
AcDbPoint
 10
-635.40721257914174
 20
1065.4100236546776
 30
0.0
  0
ENDBLK
  5
7A
100
AcDbEntity
  8
notes
390
0
100
AcDbBlockEnd
  0
BLOCK
  5
7B
100
AcDbEntity
  8
notes
390
0
100
AcDbBlockBegin
  2
*D5
 70
               1
 10
0.0
 20
0.0
 30
0.0
  3
*D5
  1

  0
LINE
  5
7C
100
AcDbEntity
  8
0
370
              -2
390
0
  6
Continuous
 62
               0
100
AcDbLine
 10
-310.40721257914174
 20
965.41002365467762
 30
0.0
 11
-235.40721257914174
 21
965.41002365467762
 31
0.0
  0
LINE
  5
7D
100
AcDbEntity
  8
0
370
              -2
390
0
  6
Continuous
 62
               0
100
AcDbLine
 10
-310.40721257914174
 20
645.41002365467762
 30
0.0
 11
-235.40721257914174
 21
645.41002365467762
 31
0.0
  0
LINE
  5
7E
100
AcDbEntity
  8
0
370
              -2
390
0
  6
Continuous
 62
               0
100
AcDbLine
 10
-235.40721257914174
 20
965.41002365467762
 30
0.0
 11
-235.40721257914174
 21
645.41002365467762
 31
0.0
  0
CIRCLE
  5
7F
102
{ACAD_REACTORS
330
80
102
}
100
AcDbEntity
  8
0
370
              -2
390
0
  6
Continuous
 62
               0
100
AcDbCircle
 10
-235.40721257914174
 20
965.41002365467762
 30
0.0
 40
1.9998779296875
  0
HATCH
  5
80
100
AcDbEntity
  8
0
370
              -2
390
0
  6
Continuous
 62
               0
100
AcDbHatch
 10
0.0
 20
0.0
 30
0.0
210
0.0
220
0.0
230
1.0
  2
SOLID
 70
               1
 71
               1
 91
        1
 92
        1
 93
        1
 72
               2
 10
-235.40721257914174
 20
965.41002365467762
 40
1.9998779296875
 50
0.0
 51
360.0
 73
               0
 97
        1
330
7F
 75
               0
 76
               1
 98
        1
 10
0.0
 20
0.0
  0
CIRCLE
  5
81
102
{ACAD_REACTORS
330
82
102
}
100
AcDbEntity
  8
0
370
              -2
390
0
  6
Continuous
 62
               0
100
AcDbCircle
 10
-235.40721257914174
 20
645.41002365467762
 30
0.0
 40
1.9998779296875
  0
HATCH
  5
82
100
AcDbEntity
  8
0
370
              -2
390
0
  6
Continuous
 62
               0
100
AcDbHatch
 10
0.0
 20
0.0
 30
0.0
210
0.0
220
0.0
230
1.0
  2
SOLID
 70
               1
 71
               1
 91
        1
 92
        1
 93
        1
 72
               2
 10
-235.40721257914174
 20
645.41002365467762
 40
1.9998779296875
 50
0.0
 51
360.0
 73
               0
 97
        1
330
81
 75
               0
 76
               1
 98
        1
 10
0.0
 20
0.0
  0
MTEXT
  5
83
100
AcDbEntity
  8
0
390
0
 62
               0
100
AcDbMText
 10
-269.28482976664191
 20
781.59752197250214
 30
0.0
 40
24.432617187500004
 41
0.0
 71
               1
 72
               1
  1
320
  7
ＭＳ ゴシック
 11
0.0
 21
1.0
 31
0.0
 73
               1
 44
0.7828267384257843
  0
POINT
  5
84
100
AcDbEntity
  8
Defpoints
370
               0
390
0
 62
               0
100
AcDbPoint
 10
-335.40721257914174
 20
645.41002365467762
 30
0.0
  0
POINT
  5
85
100
AcDbEntity
  8
Defpoints
370
               0
390
0
 62
               0
100
AcDbPoint
 10
-335.40721257914174
 20
965.41002365467762
 30
0.0
  0
POINT
  5
86
100
AcDbEntity
  8
Defpoints
370
               0
390
0
 62
               0
100
AcDbPoint
 10
-235.40721257914174
 20
965.41002365467762
 30
0.0
  0
ENDBLK
  5
87
100
AcDbEntity
  8
notes
390
0
100
AcDbBlockEnd
  0
BLOCK
  5
88
100
AcDbEntity
  8
notes
390
0
100
AcDbBlockBegin
  2
*D6
 70
               1
 10
0.0
 20
0.0
 30
0.0
  3
*D6
  1

  0
LINE
  5
89
100
AcDbEntity
  8
0
370
              -2
390
0
  6
Continuous
 62
               0
100
AcDbLine
 10
-229.26172188942019
 20
-881.44530301175791
 30
0.0
 11
-35.407212579141742
 21
-881.44530301175791
 31
0.0
  0
LINE
  5
8A
100
AcDbEntity
  8
0
370
              -2
390
0
  6
Continuous
 62
               0
100
AcDbLine
 10
-229.41237877786443
 20
38.554696988241915
 30
0.0
 11
-35.407212579141742
 21
38.554696988241915
 31
0.0
  0
LINE
  5
8B
100
AcDbEntity
  8
0
370
              -2
390
0
  6
Continuous
 62
               0
100
AcDbLine
 10
-35.407212579141742
 20
-881.44530301175791
 30
0.0
 11
-35.407212579141742
 21
38.554696988241915
 31
0.0
  0
CIRCLE
  5
8C
102
{ACAD_REACTORS
330
8D
102
}
100
AcDbEntity
  8
0
370
              -2
390
0
  6
Continuous
 62
               0
100
AcDbCircle
 10
-35.407212579141742
 20
-881.44530301175791
 30
0.0
 40
1.9998779296875
  0
HATCH
  5
8D
100
AcDbEntity
  8
0
370
              -2
390
0
  6
Continuous
 62
               0
100
AcDbHatch
 10
0.0
 20
0.0
 30
0.0
210
0.0
220
0.0
230
1.0
  2
SOLID
 70
               1
 71
               1
 91
        1
 92
        1
 93
        1
 72
               2
 10
-35.407212579141742
 20
-881.44530301175791
 40
1.9998779296875
 50
0.0
 51
360.0
 73
               0
 97
        1
330
8C
 75
               0
 76
               1
 98
        1
 10
0.0
 20
0.0
  0
CIRCLE
  5
8E
102
{ACAD_REACTORS
330
8F
102
}
100
AcDbEntity
  8
0
370
              -2
390
0
  6
Continuous
 62
               0
100
AcDbCircle
 10
-35.407212579141742
 20
38.554696988241915
 30
0.0
 40
1.9998779296875
  0
HATCH
  5
8F
100
AcDbEntity
  8
0
370
              -2
390
0
  6
Continuous
 62
               0
100
AcDbHatch
 10
0.0
 20
0.0
 30
0.0
210
0.0
220
0.0
230
1.0
  2
SOLID
 70
               1
 71
               1
 91
        1
 92
        1
 93
        1
 72
               2
 10
-35.407212579141742
 20
38.554696988241915
 40
1.9998779296875
 50
0.0
 51
360.0
 73
               0
 97
        1
330
8E
 75
               0
 76
               1
 98
        1
 10
0.0
 20
0.0
  0
MTEXT
  5
90
100
AcDbEntity
  8
0
390
0
 62
               0
100
AcDbMText
 10
-69.284829766641906
 20
-445.25780469393345
 30
0.0
 40
24.432617187500004
 41
0.0
 71
               1
 72
               1
  1
920
  7
ＭＳ ゴシック
 11
0.0
 21
1.0
 31
0.0
 73
               1
 44
0.7828267384257843
  0
POINT
  5
91
100
AcDbEntity
  8
Defpoints
370
               0
390
0
 62
               0
100
AcDbPoint
 10
-254.41237877786443
 20
38.554696988241915
 30
0.0
  0
POINT
  5
92
100
AcDbEntity
  8
Defpoints
370
               0
390
0
 62
               0
100
AcDbPoint
 10
-254.26172188942019
 20
-881.44530301175791
 30
0.0
  0
POINT
  5
93
100
AcDbEntity
  8
Defpoints
370
               0
390
0
 62
               0
100
AcDbPoint
 10
-35.407212579141742
 20
-881.44530301175791
 30
0.0
  0
ENDBLK
  5
94
100
AcDbEntity
  8
notes
390
0
100
AcDbBlockEnd
  0
BLOCK
  5
95
100
AcDbEntity
  8
notes
390
0
100
AcDbBlockBegin
  2
*D7
 70
               1
 10
0.0
 20
0.0
 30
0.0
  3
*D7
  1

  0
LINE
  5
96
100
AcDbEntity
  8
0
370
              -2
390
0
  6
Continuous
 62
               0
100
AcDbLine
 10
458.76172779337253
 20
-282.49103065650883
 30
0.0
 11
363.76172779337253
 21
-282.49103065650883
 31
0.0
  0
LINE
  5
97
100
AcDbEntity
  8
0
370
              -2
390
0
  6
Continuous
 62
               0
100
AcDbLine
 10
458.76172779337253
 20
-562.49103065650843
 30
0.0
 11
363.76172779337253
 21
-562.49103065650843
 31
0.0
  0
LINE
  5
98
100
AcDbEntity
  8
0
370
              -2
390
0
  6
Continuous
 62
               0
100
AcDbLine
 10
363.76172779337253
 20
-282.49103065650883
 30
0.0
 11
363.76172779337253
 21
-562.49103065650843
 31
0.0
  0
CIRCLE
  5
99
102
{ACAD_REACTORS
330
9A
102
}
100
AcDbEntity
  8
0
370
              -2
390
0
  6
Continuous
 62
               0
100
AcDbCircle
 10
363.76172779337253
 20
-282.49103065650883
 30
0.0
 40
1.9998779296875
  0
HATCH
  5
9A
100
AcDbEntity
  8
0
370
              -2
390
0
  6
Continuous
 62
               0
100
AcDbHatch
 10
0.0
 20
0.0
 30
0.0
210
0.0
220
0.0
230
1.0
  2
SOLID
 70
               1
 71
               1
 91
        1
 92
        1
 93
        1
 72
               2
 10
363.76172779337253
 20
-282.49103065650883
 40
1.9998779296875
 50
0.0
 51
360.0
 73
               0
 97
        1
330
99
 75
               0
 76
               1
 98
        1
 10
0.0
 20
0.0
  0
CIRCLE
  5
9B
102
{ACAD_REACTORS
330
9C
102
}
100
AcDbEntity
  8
0
370
              -2
390
0
  6
Continuous
 62
               0
100
AcDbCircle
 10
363.76172779337253
 20
-562.49103065650843
 30
0.0
 40
1.9998779296875
  0
HATCH
  5
9C
100
AcDbEntity
  8
0
370
              -2
390
0
  6
Continuous
 62
               0
100
AcDbHatch
 10
0.0
 20
0.0
 30
0.0
210
0.0
220
0.0
230
1.0
  2
SOLID
 70
               1
 71
               1
 91
        1
 92
        1
 93
        1
 72
               2
 10
363.76172779337253
 20
-562.49103065650843
 40
1.9998779296875
 50
0.0
 51
360.0
 73
               0
 97
        1
330
9B
 75
               0
 76
               1
 98
        1
 10
0.0
 20
0.0
  0
MTEXT
  5
9D
100
AcDbEntity
  8
0
390
0
 62
               0
100
AcDbMText
 10
329.88411060587259
 20
-446.30353233868419
 30
0.0
 40
24.432617187500004
 41
0.0
 71
               1
 72
               1
  1
280
  7
ＭＳ ゴシック
 11
0.0
 21
1.0
 31
0.0
 73
               1
 44
0.7828267384257843
  0
POINT
  5
9E
100
AcDbEntity
  8
Defpoints
370
               0
390
0
 62
               0
100
AcDbPoint
 10
483.76172779337253
 20
-562.49103065650843
 30
0.0
  0
POINT
  5
9F
100
AcDbEntity
  8
Defpoints
370
               0
390
0
 62
               0
100
AcDbPoint
 10
483.76172779337253
 20
-282.49103065650883
 30
0.0
  0
POINT
  5
A0
100
AcDbEntity
  8
Defpoints
370
               0
390
0
 62
               0
100
AcDbPoint
 10
363.76172779337253
 20
-282.49103065650883
 30
0.0
  0
ENDBLK
  5
A1
100
AcDbEntity
  8
notes
390
0
100
AcDbBlockEnd
  0
BLOCK
  5
A2
100
AcDbEntity
  8
notes
390
0
100
AcDbBlockBegin
  2
*D8
 70
               1
 10
0.0
 20
0.0
 30
0.0
  3
*D8
  1

  0
LINE
  5
A3
100
AcDbEntity
  8
0
370
              -2
390
0
  6
Continuous
 62
               0
100
AcDbLine
 10
438.98302159068862
 20
1063.4550015820782
 30
0.0
 11
363.98302159068862
 21
1063.4550015820782
 31
0.0
  0
LINE
  5
A4
100
AcDbEntity
  8
0
370
              -2
390
0
  6
Continuous
 62
               0
100
AcDbLine
 10
438.98302159068862
 20
978.45500158207824
 30
0.0
 11
363.98302159068862
 21
978.45500158207824
 31
0.0
  0
LINE
  5
A5
100
AcDbEntity
  8
0
370
              -2
390
0
  6
Continuous
 62
               0
100
AcDbLine
 10
363.98302159068862
 20
1063.4550015820782
 30
0.0
 11
363.98302159068862
 21
978.45500158207824
 31
0.0
  0
CIRCLE
  5
A6
102
{ACAD_REACTORS
330
A7
102
}
100
AcDbEntity
  8
0
370
              -2
390
0
  6
Continuous
 62
               0
100
AcDbCircle
 10
363.98302159068862
 20
1063.4550015820782
 30
0.0
 40
1.9998779296875
  0
HATCH
  5
A7
100
AcDbEntity
  8
0
370
              -2
390
0
  6
Continuous
 62
               0
100
AcDbHatch
 10
0.0
 20
0.0
 30
0.0
210
0.0
220
0.0
230
1.0
  2
SOLID
 70
               1
 71
               1
 91
        1
 92
        1
 93
        1
 72
               2
 10
363.98302159068862
 20
1063.4550015820782
 40
1.9998779296875
 50
0.0
 51
360.0
 73
               0
 97
        1
330
A6
 75
               0
 76
               1
 98
        1
 10
0.0
 20
0.0
  0
CIRCLE
  5
A8
102
{ACAD_REACTORS
330
A9
102
}
100
AcDbEntity
  8
0
370
              -2
390
0
  6
Continuous
 62
               0
100
AcDbCircle
 10
363.98302159068862
 20
978.45500158207824
 30
0.0
 40
1.9998779296875
  0
HATCH
  5
A9
100
AcDbEntity
  8
0
370
              -2
390
0
  6
Continuous
 62
               0
100
AcDbHatch
 10
0.0
 20
0.0
 30
0.0
210
0.0
220
0.0
230
1.0
  2
SOLID
 70
               1
 71
               1
 91
        1
 92
        1
 93
        1
 72
               2
 10
363.98302159068862
 20
978.45500158207824
 40
1.9998779296875
 50
0.0
 51
360.0
 73
               0
 97
        1
330
A8
 75
               0
 76
               1
 98
        1
 10
0.0
 20
0.0
  0
MTEXT
  5
AA
100
AcDbEntity
  8
0
390
0
 62
               0
100
AcDbMText
 10
330.10540440318869
 20
1005.0800015820782
 30
0.0
 40
24.432617187500004
 41
0.0
 71
               1
 72
               1
  1
85
  7
ＭＳ ゴシック
 11
0.0
 21
1.0
 31
0.0
 73
               1
 44
0.7828267384257843
  0
POINT
  5
AB
100
AcDbEntity
  8
Defpoints
370
               0
390
0
 62
               0
100
AcDbPoint
 10
463.98302159068862
 20
978.45500158207824
 30
0.0
  0
POINT
  5
AC
100
AcDbEntity
  8
Defpoints
370
               0
390
0
 62
               0
100
AcDbPoint
 10
463.98302159068862
 20
1063.4550015820782
 30
0.0
  0
POINT
  5
AD
100
AcDbEntity
  8
Defpoints
370
               0
390
0
 62
               0
100
AcDbPoint
 10
363.98302159068862
 20
1063.4550015820782
 30
0.0
  0
ENDBLK
  5
AE
100
AcDbEntity
  8
notes
390
0
100
AcDbBlockEnd
  0
BLOCK
  5
AF
100
AcDbEntity
  8
notes
390
0
100
AcDbBlockBegin
  2
*D9
 70
               1
 10
0.0
 20
0.0
 30
0.0
  3
*D9
  1

  0
LINE
  5
B0
100
AcDbEntity
  8
0
370
              -2
390
0
  6
Continuous
 62
               0
100
AcDbLine
 10
463.98302159068862
 20
824.91854257731359
 30
0.0
 11
463.98302159068862
 21
800.58520924397965
 31
0.0
  0
LINE
  5
B1
100
AcDbEntity
  8
0
370
              -2
390
0
  6
Continuous
 62
               0
100
AcDbLine
 10
573.98302159068862
 20
824.91854257731359
 30
0.0
 11
573.98302159068862
 21
800.58520924397965
 31
0.0
  0
LINE
  5
B2
100
AcDbEntity
  8
0
370
              -2
390
0
  6
Continuous
 62
               0
100
AcDbLine
 10
463.98302159068862
 20
800.58520924397965
 30
0.0
 11
296.10802159068862
 21
800.58520924397965
 31
0.0
  0
LINE
  5
B3
100
AcDbEntity
  8
0
370
              -2
390
0
  6
Continuous
 62
               0
100
AcDbLine
 10
463.98302159068862
 20
800.58520924397965
 30
0.0
 11
573.98302159068862
 21
800.58520924397965
 31
0.0
  0
CIRCLE
  5
B4
102
{ACAD_REACTORS
330
B5
102
}
100
AcDbEntity
  8
0
370
              -2
390
0
  6
Continuous
 62
               0
100
AcDbCircle
 10
463.98302159068862
 20
800.58520924397965
 30
0.0
 40
1.9998779296875
  0
HATCH
  5
B5
100
AcDbEntity
  8
0
370
              -2
390
0
  6
Continuous
 62
               0
100
AcDbHatch
 10
0.0
 20
0.0
 30
0.0
210
0.0
220
0.0
230
1.0
  2
SOLID
 70
               1
 71
               1
 91
        1
 92
        1
 93
        1
 72
               2
 10
463.98302159068862
 20
800.58520924397965
 40
1.9998779296875
 50
0.0
 51
360.0
 73
               0
 97
        1
330
B4
 75
               0
 76
               1
 98
        1
 10
0.0
 20
0.0
  0
CIRCLE
  5
B6
102
{ACAD_REACTORS
330
B7
102
}
100
AcDbEntity
  8
0
370
              -2
390
0
  6
Continuous
 62
               0
100
AcDbCircle
 10
573.98302159068862
 20
800.58520924397965
 30
0.0
 40
1.9998779296875
  0
HATCH
  5
B7
100
AcDbEntity
  8
0
370
              -2
390
0
  6
Continuous
 62
               0
100
AcDbHatch
 10
0.0
 20
0.0
 30
0.0
210
0.0
220
0.0
230
1.0
  2
SOLID
 70
               1
 71
               1
 91
        1
 92
        1
 93
        1
 72
               2
 10
573.98302159068862
 20
800.58520924397965
 40
1.9998779296875
 50
0.0
 51
360.0
 73
               0
 97
        1
330
B6
 75
               0
 76
               1
 98
        1
 10
0.0
 20
0.0
  0
MTEXT
  5
B8
100
AcDbEntity
  8
0
390
0
 62
               0
100
AcDbMText
 10
296.10802159068862
 20
834.4628264314797
 30
0.0
 40
24.432617187500004
 41
0.0
 71
               1
 72
               1
  1
110(深さ)
  7
ＭＳ ゴシック
 73
               1
 44
0.7828267384257843
  0
POINT
  5
B9
100
AcDbEntity
  8
Defpoints
370
               0
390
0
 62
               0
100
AcDbPoint
 10
573.98302159068862
 20
799.91854257731359
 30
0.0
  0
POINT
  5
BA
100
AcDbEntity
  8
Defpoints
370
               0
390
0
 62
               0
100
AcDbPoint
 10
463.98302159068862
 20
799.91854257731359
 30
0.0
  0
POINT
  5
BB
100
AcDbEntity
  8
Defpoints
370
               0
390
0
 62
               0
100
AcDbPoint
 10
463.98302159068862
 20
800.58520924397965
 30
0.0
  0
ENDBLK
  5
BC
100
AcDbEntity
  8
notes
390
0
100
AcDbBlockEnd
  0
BLOCK
  5
BD
100
AcDbEntity
  8
notes
390
0
100
AcDbBlockBegin
  2
*D10
 70
               1
 10
0.0
 20
0.0
 30
0.0
  3
*D10
  1

  0
LINE
  5
BE
100
AcDbEntity
  8
0
370
              -2
390
0
  6
Continuous
 62
               0
100
AcDbLine
 10
629.07817151357176
 20
1063.4550015820782
 30
0.0
 11
703.51984367976047
 21
1063.4550015820782
 31
0.0
  0
LINE
  5
BF
100
AcDbEntity
  8
0
370
              -2
390
0
  6
Continuous
 62
               0
100
AcDbLine
 10
605.22851636220457
 20
803.45500158207824
 30
0.0
 11
703.51984367976047
 21
803.45500158207824
 31
0.0
  0
LINE
  5
C0
100
AcDbEntity
  8
0
370
              -2
390
0
  6
Continuous
 62
               0
100
AcDbLine
 10
703.51984367976047
 20
1063.4550015820782
 30
0.0
 11
703.51984367976047
 21
803.45500158207824
 31
0.0
  0
CIRCLE
  5
C1
102
{ACAD_REACTORS
330
C2
102
}
100
AcDbEntity
  8
0
370
              -2
390
0
  6
Continuous
 62
               0
100
AcDbCircle
 10
703.51984367976047
 20
1063.4550015820782
 30
0.0
 40
1.9998779296875
  0
HATCH
  5
C2
100
AcDbEntity
  8
0
370
              -2
390
0
  6
Continuous
 62
               0
100
AcDbHatch
 10
0.0
 20
0.0
 30
0.0
210
0.0
220
0.0
230
1.0
  2
SOLID
 70
               1
 71
               1
 91
        1
 92
        1
 93
        1
 72
               2
 10
703.51984367976047
 20
1063.4550015820782
 40
1.9998779296875
 50
0.0
 51
360.0
 73
               0
 97
        1
330
C1
 75
               0
 76
               1
 98
        1
 10
0.0
 20
0.0
  0
CIRCLE
  5
C3
102
{ACAD_REACTORS
330
C4
102
}
100
AcDbEntity
  8
0
370
              -2
390
0
  6
Continuous
 62
               0
100
AcDbCircle
 10
703.51984367976047
 20
803.45500158207824
 30
0.0
 40
1.9998779296875
  0
HATCH
  5
C4
100
AcDbEntity
  8
0
370
              -2
390
0
  6
Continuous
 62
               0
100
AcDbHatch
 10
0.0
 20
0.0
 30
0.0
210
0.0
220
0.0
230
1.0
  2
SOLID
 70
               1
 71
               1
 91
        1
 92
        1
 93
        1
 72
               2
 10
703.51984367976047
 20
803.45500158207824
 40
1.9998779296875
 50
0.0
 51
360.0
 73
               0
 97
        1
330
C3
 75
               0
 76
               1
 98
        1
 10
0.0
 20
0.0
  0
MTEXT
  5
C5
100
AcDbEntity
  8
0
390
0
 62
               0
100
AcDbMText
 10
669.64222649226053
 20
909.64249989990276
 30
0.0
 40
24.432617187500004
 41
0.0
 71
               1
 72
               1
  1
260
  7
ＭＳ ゴシック
 11
0.0
 21
1.0
 31
0.0
 73
               1
 44
0.7828267384257843
  0
POINT
  5
C6
100
AcDbEntity
  8
Defpoints
370
               0
390
0
 62
               0
100
AcDbPoint
 10
580.22851636220457
 20
803.45500158207824
 30
0.0
  0
POINT
  5
C7
100
AcDbEntity
  8
Defpoints
370
               0
390
0
 62
               0
100
AcDbPoint
 10
604.07817151357176
 20
1063.4550015820782
 30
0.0
  0
POINT
  5
C8
100
AcDbEntity
  8
Defpoints
370
               0
390
0
 62
               0
100
AcDbPoint
 10
703.51984367976047
 20
1063.4550015820782
 30
0.0
  0
ENDBLK
  5
C9
100
AcDbEntity
  8
notes
390
0
100
AcDbBlockEnd
  0
BLOCK
  5
CA
100
AcDbEntity
  8
notes
390
0
100
AcDbBlockBegin
  2
*D11
 70
               1
 10
0.0
 20
0.0
 30
0.0
  3
*D11
  1

  0
LINE
  5
CB
100
AcDbEntity
  8
0
370
              -2
390
0
  6
Continuous
 62
               0
100
AcDbLine
 10
625.23818679026022
 20
-50.000000000000057
 30
0.0
 11
756.71429859596765
 21
-50.000000000000057
 31
0.0
  0
LINE
  5
CC
100
AcDbEntity
  8
0
370
              -2
390
0
  6
Continuous
 62
               0
100
AcDbLine
 10
625.23818679025976
 20
-795.0
 30
0.0
 11
756.71429859596765
 21
-795.0
 31
0.0
  0
LINE
  5
CD
100
AcDbEntity
  8
0
370
              -2
390
0
  6
Continuous
 62
               0
100
AcDbLine
 10
756.71429859596765
 20
-50.000000000000057
 30
0.0
 11
756.71429859596765
 21
-795.0
 31
0.0
  0
CIRCLE
  5
CE
102
{ACAD_REACTORS
330
CF
102
}
100
AcDbEntity
  8
0
370
              -2
390
0
  6
Continuous
 62
               0
100
AcDbCircle
 10
756.71429859596765
 20
-50.000000000000057
 30
0.0
 40
1.9998779296875
  0
HATCH
  5
CF
100
AcDbEntity
  8
0
370
              -2
390
0
  6
Continuous
 62
               0
100
AcDbHatch
 10
0.0
 20
0.0
 30
0.0
210
0.0
220
0.0
230
1.0
  2
SOLID
 70
               1
 71
               1
 91
        1
 92
        1
 93
        1
 72
               2
 10
756.71429859596765
 20
-50.000000000000057
 40
1.9998779296875
 50
0.0
 51
360.0
 73
               0
 97
        1
330
CE
 75
               0
 76
               1
 98
        1
 10
0.0
 20
0.0
  0
CIRCLE
  5
D0
102
{ACAD_REACTORS
330
D1
102
}
100
AcDbEntity
  8
0
370
              -2
390
0
  6
Continuous
 62
               0
100
AcDbCircle
 10
756.71429859596765
 20
-795.0
 30
0.0
 40
1.9998779296875
  0
HATCH
  5
D1
100
AcDbEntity
  8
0
370
              -2
390
0
  6
Continuous
 62
               0
100
AcDbHatch
 10
0.0
 20
0.0
 30
0.0
210
0.0
220
0.0
230
1.0
  2
SOLID
 70
               1
 71
               1
 91
        1
 92
        1
 93
        1
 72
               2
 10
756.71429859596765
 20
-795.0
 40
1.9998779296875
 50
0.0
 51
360.0
 73
               0
 97
        1
330
D0
 75
               0
 76
               1
 98
        1
 10
0.0
 20
0.0
  0
MTEXT
  5
D2
100
AcDbEntity
  8
0
390
0
 62
               0
100
AcDbMText
 10
722.83668140846771
 20
-446.31250168217554
 30
0.0
 40
24.432617187500004
 41
0.0
 71
               1
 72
               1
  1
745
  7
ＭＳ ゴシック
 11
0.0
 21
1.0
 31
0.0
 73
               1
 44
0.7828267384257843
  0
POINT
  5
D3
100
AcDbEntity
  8
Defpoints
370
               0
390
0
 62
               0
100
AcDbPoint
 10
600.23818679025976
 20
-795.0
 30
0.0
  0
POINT
  5
D4
100
AcDbEntity
  8
Defpoints
370
               0
390
0
 62
               0
100
AcDbPoint
 10
600.23818679026022
 20
-50.000000000000057
 30
0.0
  0
POINT
  5
D5
100
AcDbEntity
  8
Defpoints
370
               0
390
0
 62
               0
100
AcDbPoint
 10
756.71429859596765
 20
-50.000000000000057
 30
0.0
  0
ENDBLK
  5
D6
100
AcDbEntity
  8
notes
390
0
100
AcDbBlockEnd
  0
BLOCK
  5
D7
100
AcDbEntity
  8
notes
390
0
100
AcDbBlockBegin
  2
*D12
 70
               1
 10
0.0
 20
0.0
 30
0.0
  3
*D12
  1

  0
LINE
  5
D8
100
AcDbEntity
  8
0
370
              -2
390
0
  6
Continuous
 62
               0
100
AcDbLine
 10
629.07817151357176
 20
1063.4550015820782
 30
0.0
 11
814.71429859596742
 21
1063.4550015820782
 31
0.0
  0
LINE
  5
D9
100
AcDbEntity
  8
0
370
              -2
390
0
  6
Continuous
 62
               0
100
AcDbLine
 10
625.23251725100727
 20
683.48959111784632
 30
0.0
 11
814.71429859596742
 21
683.48959111784632
 31
0.0
  0
LINE
  5
DA
100
AcDbEntity
  8
0
370
              -2
390
0
  6
Continuous
 62
               0
100
AcDbLine
 10
814.71429859596742
 20
1063.4550015820782
 30
0.0
 11
814.71429859596742
 21
683.48959111784632
 31
0.0
  0
CIRCLE
  5
DB
102
{ACAD_REACTORS
330
DC
102
}
100
AcDbEntity
  8
0
370
              -2
390
0
  6
Continuous
 62
               0
100
AcDbCircle
 10
814.71429859596742
 20
1063.4550015820782
 30
0.0
 40
1.9998779296875
  0
HATCH
  5
DC
100
AcDbEntity
  8
0
370
              -2
390
0
  6
Continuous
 62
               0
100
AcDbHatch
 10
0.0
 20
0.0
 30
0.0
210
0.0
220
0.0
230
1.0
  2
SOLID
 70
               1
 71
               1
 91
        1
 92
        1
 93
        1
 72
               2
 10
814.71429859596742
 20
1063.4550015820782
 40
1.9998779296875
 50
0.0
 51
360.0
 73
               0
 97
        1
330
DB
 75
               0
 76
               1
 98
        1
 10
0.0
 20
0.0
  0
CIRCLE
  5
DD
102
{ACAD_REACTORS
330
DE
102
}
100
AcDbEntity
  8
0
370
              -2
390
0
  6
Continuous
 62
               0
100
AcDbCircle
 10
814.71429859596742
 20
683.48959111784632
 30
0.0
 40
1.9998779296875
  0
HATCH
  5
DE
100
AcDbEntity
  8
0
370
              -2
390
0
  6
Continuous
 62
               0
100
AcDbHatch
 10
0.0
 20
0.0
 30
0.0
210
0.0
220
0.0
230
1.0
  2
SOLID
 70
               1
 71
               1
 91
        1
 92
        1
 93
        1
 72
               2
 10
814.71429859596742
 20
683.48959111784632
 40
1.9998779296875
 50
0.0
 51
360.0
 73
               0
 97
        1
330
DD
 75
               0
 76
               1
 98
        1
 10
0.0
 20
0.0
  0
MTEXT
  5
DF
100
AcDbEntity
  8
0
390
0
 62
               0
100
AcDbMText
 10
780.83668140846748
 20
849.65979466778674
 30
0.0
 40
24.432617187500004
 41
0.0
 71
               1
 72
               1
  1
380
  7
ＭＳ ゴシック
 11
0.0
 21
1.0
 31
0.0
 73
               1
 44
0.7828267384257843
  0
POINT
  5
E0
100
AcDbEntity
  8
Defpoints
370
               0
390
0
 62
               0
100
AcDbPoint
 10
600.23251725100727
 20
683.48959111784632
 30
0.0
  0
POINT
  5
E1
100
AcDbEntity
  8
Defpoints
370
               0
390
0
 62
               0
100
AcDbPoint
 10
604.07817151357176
 20
1063.4550015820782
 30
0.0
  0
POINT
  5
E2
100
AcDbEntity
  8
Defpoints
370
               0
390
0
 62
               0
100
AcDbPoint
 10
814.71429859596742
 20
1063.4550015820782
 30
0.0
  0
ENDBLK
  5
E3
100
AcDbEntity
  8
notes
390
0
100
AcDbBlockEnd
  0
BLOCK
  5
E4
100
AcDbEntity
  8
notes
390
0
100
AcDbBlockBegin
  2
*D13
 70
               1
 10
0.0
 20
0.0
 30
0.0
  3
*D13
  1

  0
LINE
  5
E5
100
AcDbEntity
  8
0
370
              -2
390
0
  6
Continuous
 62
               0
100
AcDbLine
 10
-657.55298950794531
 20
-922.52570328249476
 30
0.0
 11
-785.40721257914174
 21
-922.52570328249476
 31
0.0
  0
LINE
  5
E6
100
AcDbEntity
  8
0
370
              -2
390
0
  6
Continuous
 62
               0
100
AcDbLine
 10
-657.55298950794531
 20
77.474296717505013
 30
0.0
 11
-785.40721257914174
 21
77.474296717505013
 31
0.0
  0
LINE
  5
E7
100
AcDbEntity
  8
0
370
              -2
390
0
  6
Continuous
 62
               0
100
AcDbLine
 10
-785.40721257914174
 20
-922.52570328249476
 30
0.0
 11
-785.40721257914174
 21
77.474296717505013
 31
0.0
  0
CIRCLE
  5
E8
102
{ACAD_REACTORS
330
E9
102
}
100
AcDbEntity
  8
0
370
              -2
390
0
  6
Continuous
 62
               0
100
AcDbCircle
 10
-785.40721257914174
 20
-922.52570328249476
 30
0.0
 40
1.9998779296875
  0
HATCH
  5
E9
100
AcDbEntity
  8
0
370
              -2
390
0
  6
Continuous
 62
               0
100
AcDbHatch
 10
0.0
 20
0.0
 30
0.0
210
0.0
220
0.0
230
1.0
  2
SOLID
 70
               1
 71
               1
 91
        1
 92
        1
 93
        1
 72
               2
 10
-785.40721257914174
 20
-922.52570328249476
 40
1.9998779296875
 50
0.0
 51
360.0
 73
               0
 97
        1
330
E8
 75
               0
 76
               1
 98
        1
 10
0.0
 20
0.0
  0
CIRCLE
  5
EA
102
{ACAD_REACTORS
330
EB
102
}
100
AcDbEntity
  8
0
370
              -2
390
0
  6
Continuous
 62
               0
100
AcDbCircle
 10
-785.40721257914174
 20
77.474296717505013
 30
0.0
 40
1.9998779296875
  0
HATCH
  5
EB
100
AcDbEntity
  8
0
370
              -2
390
0
  6
Continuous
 62
               0
100
AcDbHatch
 10
0.0
 20
0.0
 30
0.0
210
0.0
220
0.0
230
1.0
  2
SOLID
 70
               1
 71
               1
 91
        1
 92
        1
 93
        1
 72
               2
 10
-785.40721257914174
 20
77.474296717505013
 40
1.9998779296875
 50
0.0
 51
360.0
 73
               0
 97
        1
330
EA
 75
               0
 76
               1
 98
        1
 10
0.0
 20
0.0
  0
MTEXT
  5
EC
100
AcDbEntity
  8
0
390
0
 62
               0
100
AcDbMText
 10
-819.28482976664191
 20
-454.27570328249493
 30
0.0
 40
24.432617187500004
 41
0.0
 71
               1
 72
               1
  1
1000
  7
ＭＳ ゴシック
 11
0.0
 21
1.0
 31
0.0
 73
               1
 44
0.7828267384257843
  0
POINT
  5
ED
100
AcDbEntity
  8
Defpoints
370
               0
390
0
 62
               0
100
AcDbPoint
 10
-632.55298950794531
 20
77.474296717505013
 30
0.0
  0
POINT
  5
EE
100
AcDbEntity
  8
Defpoints
370
               0
390
0
 62
               0
100
AcDbPoint
 10
-632.55298950794531
 20
-922.52570328249476
 30
0.0
  0
POINT
  5
EF
100
AcDbEntity
  8
Defpoints
370
               0
390
0
 62
               0
100
AcDbPoint
 10
-785.40721257914174
 20
-922.52570328249476
 30
0.0
  0
ENDBLK
  5
F0
100
AcDbEntity
  8
notes
390
0
100
AcDbBlockEnd
  0
BLOCK
  5
F1
100
AcDbEntity
  8
notes
390
0
100
AcDbBlockBegin
  2
*D14
 70
               1
 10
0.0
 20
0.0
 30
0.0
  3
*D14
  1

  0
LINE
  5
F2
100
AcDbEntity
  8
0
370
              -2
390
0
  6
Continuous
 62
               0
100
AcDbLine
 10
-589.90717735564067
 20
-522.52570328249112
 30
0.0
 11
-735.40721257914174
 21
-522.52570328249112
 31
0.0
  0
LINE
  5
F3
100
AcDbEntity
  8
0
370
              -2
390
0
  6
Continuous
 62
               0
100
AcDbLine
 10
-589.90717735564067
 20
-422.5259318790151
 30
0.0
 11
-735.40721257914174
 21
-422.5259318790151
 31
0.0
  0
LINE
  5
F4
100
AcDbEntity
  8
0
370
              -2
390
0
  6
Continuous
 62
               0
100
AcDbLine
 10
-735.40721257914174
 20
-522.52570328249112
 30
0.0
 11
-735.40721257914174
 21
-422.5259318790151
 31
0.0
  0
CIRCLE
  5
F5
102
{ACAD_REACTORS
330
F6
102
}
100
AcDbEntity
  8
0
370
              -2
390
0
  6
Continuous
 62
               0
100
AcDbCircle
 10
-735.40721257914174
 20
-522.52570328249112
 30
0.0
 40
1.9998779296875
  0
HATCH
  5
F6
100
AcDbEntity
  8
0
370
              -2
390
0
  6
Continuous
 62
               0
100
AcDbHatch
 10
0.0
 20
0.0
 30
0.0
210
0.0
220
0.0
230
1.0
  2
SOLID
 70
               1
 71
               1
 91
        1
 92
        1
 93
        1
 72
               2
 10
-735.40721257914174
 20
-522.52570328249112
 40
1.9998779296875
 50
0.0
 51
360.0
 73
               0
 97
        1
330
F5
 75
               0
 76
               1
 98
        1
 10
0.0
 20
0.0
  0
CIRCLE
  5
F7
102
{ACAD_REACTORS
330
F8
102
}
100
AcDbEntity
  8
0
370
              -2
390
0
  6
Continuous
 62
               0
100
AcDbCircle
 10
-735.40721257914174
 20
-422.5259318790151
 30
0.0
 40
1.9998779296875
  0
HATCH
  5
F8
100
AcDbEntity
  8
0
370
              -2
390
0
  6
Continuous
 62
               0
100
AcDbHatch
 10
0.0
 20
0.0
 30
0.0
210
0.0
220
0.0
230
1.0
  2
SOLID
 70
               1
 71
               1
 91
        1
 92
        1
 93
        1
 72
               2
 10
-735.40721257914174
 20
-422.5259318790151
 40
1.9998779296875
 50
0.0
 51
360.0
 73
               0
 97
        1
330
F7
 75
               0
 76
               1
 98
        1
 10
0.0
 20
0.0
  0
MTEXT
  5
F9
100
AcDbEntity
  8
0
390
0
 62
               0
100
AcDbMText
 10
-769.28482976664191
 20
-496.33831926292856
 30
0.0
 40
24.432617187500004
 41
0.0
 71
               1
 72
               1
  1
100
  7
ＭＳ ゴシック
 11
0.0
 21
1.0
 31
0.0
 73
               1
 44
0.7828267384257843
  0
POINT
  5
FA
100
AcDbEntity
  8
Defpoints
370
               0
390
0
 62
               0
100
AcDbPoint
 10
-564.90717735564067
 20
-422.5259318790151
 30
0.0
  0
POINT
  5
FB
100
AcDbEntity
  8
Defpoints
370
               0
390
0
 62
               0
100
AcDbPoint
 10
-564.90717735564067
 20
-522.52570328249112
 30
0.0
  0
POINT
  5
FC
100
AcDbEntity
  8
Defpoints
370
               0
390
0
 62
               0
100
AcDbPoint
 10
-735.40721257914174
 20
-522.52570328249112
 30
0.0
  0
ENDBLK
  5
FD
100
AcDbEntity
  8
notes
390
0
100
AcDbBlockEnd
  0
BLOCK
  5
FE
100
AcDbEntity
  8
notes
390
0
100
AcDbBlockBegin
  2
*D15
 70
               1
 10
0.0
 20
0.0
 30
0.0
  3
*D15
  1

  0
LINE
  5
FF
100
AcDbEntity
  8
0
370
              -2
390
0
  6
Continuous
 62
               0
100
AcDbLine
 10
-589.90717735564067
 20
-422.5259318790151
 30
0.0
 11
-735.40721257914174
 21
-422.5259318790151
 31
0.0
  0
LINE
  5
100
100
AcDbEntity
  8
0
370
              -2
390
0
  6
Continuous
 62
               0
100
AcDbLine
 10
-589.90717735564067
 20
-322.52570328249675
 30
0.0
 11
-735.40721257914174
 21
-322.52570328249675
 31
0.0
  0
LINE
  5
101
100
AcDbEntity
  8
0
370
              -2
390
0
  6
Continuous
 62
               0
100
AcDbLine
 10
-735.40721257914174
 20
-422.5259318790151
 30
0.0
 11
-735.40721257914174
 21
-322.52570328249675
 31
0.0
  0
CIRCLE
  5
102
102
{ACAD_REACTORS
330
103
102
}
100
AcDbEntity
  8
0
370
              -2
390
0
  6
Continuous
 62
               0
100
AcDbCircle
 10
-735.40721257914174
 20
-422.5259318790151
 30
0.0
 40
1.9998779296875
  0
HATCH
  5
103
100
AcDbEntity
  8
0
370
              -2
390
0
  6
Continuous
 62
               0
100
AcDbHatch
 10
0.0
 20
0.0
 30
0.0
210
0.0
220
0.0
230
1.0
  2
SOLID
 70
               1
 71
               1
 91
        1
 92
        1
 93
        1
 72
               2
 10
-735.40721257914174
 20
-422.5259318790151
 40
1.9998779296875
 50
0.0
 51
360.0
 73
               0
 97
        1
330
102
 75
               0
 76
               1
 98
        1
 10
0.0
 20
0.0
  0
CIRCLE
  5
104
102
{ACAD_REACTORS
330
105
102
}
100
AcDbEntity
  8
0
370
              -2
390
0
  6
Continuous
 62
               0
100
AcDbCircle
 10
-735.40721257914174
 20
-322.52570328249675
 30
0.0
 40
1.9998779296875
  0
HATCH
  5
105
100
AcDbEntity
  8
0
370
              -2
390
0
  6
Continuous
 62
               0
100
AcDbHatch
 10
0.0
 20
0.0
 30
0.0
210
0.0
220
0.0
230
1.0
  2
SOLID
 70
               1
 71
               1
 91
        1
 92
        1
 93
        1
 72
               2
 10
-735.40721257914174
 20
-322.52570328249675
 40
1.9998779296875
 50
0.0
 51
360.0
 73
               0
 97
        1
330
104
 75
               0
 76
               1
 98
        1
 10
0.0
 20
0.0
  0
MTEXT
  5
106
100
AcDbEntity
  8
0
390
0
 62
               0
100
AcDbMText
 10
-769.28482976664191
 20
-396.33831926293141
 30
0.0
 40
24.432617187500004
 41
0.0
 71
               1
 72
               1
  1
100
  7
ＭＳ ゴシック
 11
0.0
 21
1.0
 31
0.0
 73
               1
 44
0.7828267384257843
  0
POINT
  5
107
100
AcDbEntity
  8
Defpoints
370
               0
390
0
 62
               0
100
AcDbPoint
 10
-564.90717735564067
 20
-322.52570328249675
 30
0.0
  0
POINT
  5
108
100
AcDbEntity
  8
Defpoints
370
               0
390
0
 62
               0
100
AcDbPoint
 10
-564.90717735564067
 20
-422.5259318790151
 30
0.0
  0
POINT
  5
109
100
AcDbEntity
  8
Defpoints
370
               0
390
0
 62
               0
100
AcDbPoint
 10
-735.40721257914174
 20
-422.5259318790151
 30
0.0
  0
ENDBLK
  5
10A
100
AcDbEntity
  8
notes
390
0
100
AcDbBlockEnd
  0
BLOCK
  5
10B
100
AcDbEntity
  8
notes
390
0
100
AcDbBlockBegin
  2
*D16
 70
               1
 10
0.0
 20
0.0
 30
0.0
  3
*D16
  1

  0
LINE
  5
10C
100
AcDbEntity
  8
0
370
              -2
390
0
  6
Continuous
 62
               0
100
AcDbLine
 10
-500.40722110764045
 20
-942.91799064030283
 30
0.0
 11
-500.40722110764045
 21
-1022.5257032824948
 31
0.0
  0
LINE
  5
10D
100
AcDbEntity
  8
0
370
              -2
390
0
  6
Continuous
 62
               0
100
AcDbLine
 10
-165.40720405064349
 20
-738.91113293775106
 30
0.0
 11
-165.40720405064349
 21
-1022.5257032824948
 31
0.0
  0
LINE
  5
10E
100
AcDbEntity
  8
0
370
              -2
390
0
  6
Continuous
 62
               0
100
AcDbLine
 10
-500.40722110764045
 20
-1022.5257032824948
 30
0.0
 11
-165.40720405064349
 21
-1022.5257032824948
 31
0.0
  0
CIRCLE
  5
10F
102
{ACAD_REACTORS
330
110
102
}
100
AcDbEntity
  8
0
370
              -2
390
0
  6
Continuous
 62
               0
100
AcDbCircle
 10
-500.40722110764045
 20
-1022.5257032824948
 30
0.0
 40
1.9998779296875
  0
HATCH
  5
110
100
AcDbEntity
  8
0
370
              -2
390
0
  6
Continuous
 62
               0
100
AcDbHatch
 10
0.0
 20
0.0
 30
0.0
210
0.0
220
0.0
230
1.0
  2
SOLID
 70
               1
 71
               1
 91
        1
 92
        1
 93
        1
 72
               2
 10
-500.40722110764045
 20
-1022.5257032824948
 40
1.9998779296875
 50
0.0
 51
360.0
 73
               0
 97
        1
330
10F
 75
               0
 76
               1
 98
        1
 10
0.0
 20
0.0
  0
CIRCLE
  5
111
102
{ACAD_REACTORS
330
112
102
}
100
AcDbEntity
  8
0
370
              -2
390
0
  6
Continuous
 62
               0
100
AcDbCircle
 10
-165.40720405064349
 20
-1022.5257032824948
 30
0.0
 40
1.9998779296875
  0
HATCH
  5
112
100
AcDbEntity
  8
0
370
              -2
390
0
  6
Continuous
 62
               0
100
AcDbHatch
 10
0.0
 20
0.0
 30
0.0
210
0.0
220
0.0
230
1.0
  2
SOLID
 70
               1
 71
               1
 91
        1
 92
        1
 93
        1
 72
               2
 10
-165.40720405064349
 20
-1022.5257032824948
 40
1.9998779296875
 50
0.0
 51
360.0
 73
               0
 97
        1
330
111
 75
               0
 76
               1
 98
        1
 10
0.0
 20
0.0
  0
MTEXT
  5
113
100
AcDbEntity
  8
0
390
0
 62
               0
100
AcDbMText
 10
-356.71971426131722
 20
-988.64808609499482
 30
0.0
 40
24.432617187500004
 41
0.0
 71
               1
 72
               1
  1
335
  7
ＭＳ ゴシック
 73
               1
 44
0.7828267384257843
  0
POINT
  5
114
100
AcDbEntity
  8
Defpoints
370
               0
390
0
 62
               0
100
AcDbPoint
 10
-165.40720405064349
 20
-713.91113293775106
 30
0.0
  0
POINT
  5
115
100
AcDbEntity
  8
Defpoints
370
               0
390
0
 62
               0
100
AcDbPoint
 10
-500.40722110764045
 20
-917.91799064030283
 30
0.0
  0
POINT
  5
116
100
AcDbEntity
  8
Defpoints
370
               0
390
0
 62
               0
100
AcDbPoint
 10
-500.40722110764045
 20
-1022.5257032824948
 30
0.0
  0
ENDBLK
  5
117
100
AcDbEntity
  8
notes
390
0
100
AcDbBlockEnd
  0
BLOCK
  5
118
100
AcDbEntity
  8
notes
390
0
100
AcDbBlockBegin
  2
*D17
 70
               1
 10
0.0
 20
0.0
 30
0.0
  3
*D17
  1

  0
LINE
  5
119
100
AcDbEntity
  8
0
370
              -2
390
0
  6
Continuous
 62
               0
100
AcDbLine
 10
-500.40722110764045
 20
-944.52570328249476
 30
0.0
 11
-500.40722110764045
 21
-1022.5257032824948
 31
0.0
  0
LINE
  5
11A
100
AcDbEntity
  8
0
370
              -2
390
0
  6
Continuous
 62
               0
100
AcDbLine
 10
-635.40721257914174
 20
-944.52570328249476
 30
0.0
 11
-635.40721257914174
 21
-1022.5257032824948
 31
0.0
  0
LINE
  5
11B
100
AcDbEntity
  8
0
370
              -2
390
0
  6
Continuous
 62
               0
100
AcDbLine
 10
-500.40722110764045
 20
-1022.5257032824948
 30
0.0
 11
-635.40721257914174
 21
-1022.5257032824948
 31
0.0
  0
CIRCLE
  5
11C
102
{ACAD_REACTORS
330
11D
102
}
100
AcDbEntity
  8
0
370
              -2
390
0
  6
Continuous
 62
               0
100
AcDbCircle
 10
-500.40722110764045
 20
-1022.5257032824948
 30
0.0
 40
1.9998779296875
  0
HATCH
  5
11D
100
AcDbEntity
  8
0
370
              -2
390
0
  6
Continuous
 62
               0
100
AcDbHatch
 10
0.0
 20
0.0
 30
0.0
210
0.0
220
0.0
230
1.0
  2
SOLID
 70
               1
 71
               1
 91
        1
 92
        1
 93
        1
 72
               2
 10
-500.40722110764045
 20
-1022.5257032824948
 40
1.9998779296875
 50
0.0
 51
360.0
 73
               0
 97
        1
330
11C
 75
               0
 76
               1
 98
        1
 10
0.0
 20
0.0
  0
CIRCLE
  5
11E
102
{ACAD_REACTORS
330
11F
102
}
100
AcDbEntity
  8
0
370
              -2
390
0
  6
Continuous
 62
               0
100
AcDbCircle
 10
-635.40721257914174
 20
-1022.5257032824948
 30
0.0
 40
1.9998779296875
  0
HATCH
  5
11F
100
AcDbEntity
  8
0
370
              -2
390
0
  6
Continuous
 62
               0
100
AcDbHatch
 10
0.0
 20
0.0
 30
0.0
210
0.0
220
0.0
230
1.0
  2
SOLID
 70
               1
 71
               1
 91
        1
 92
        1
 93
        1
 72
               2
 10
-635.40721257914174
 20
-1022.5257032824948
 40
1.9998779296875
 50
0.0
 51
360.0
 73
               0
 97
        1
330
11E
 75
               0
 76
               1
 98
        1
 10
0.0
 20
0.0
  0
MTEXT
  5
120
100
AcDbEntity
  8
0
390
0
 62
               0
100
AcDbMText
 10
-591.7197185255668
 20
-988.64808609499482
 30
0.0
 40
24.432617187500004
 41
0.0
 71
               1
 72
               1
  1
135
  7
ＭＳ ゴシック
 73
               1
 44
0.7828267384257843
  0
POINT
  5
121
100
AcDbEntity
  8
Defpoints
370
               0
390
0
 62
               0
100
AcDbPoint
 10
-635.40721257914174
 20
-919.52570328249476
 30
0.0
  0
POINT
  5
122
100
AcDbEntity
  8
Defpoints
370
               0
390
0
 62
               0
100
AcDbPoint
 10
-500.40722110764045
 20
-919.52570328249476
 30
0.0
  0
POINT
  5
123
100
AcDbEntity
  8
Defpoints
370
               0
390
0
 62
               0
100
AcDbPoint
 10
-500.40722110764045
 20
-1022.5257032824948
 30
0.0
  0
ENDBLK
  5
124
100
AcDbEntity
  8
notes
390
0
100
AcDbBlockEnd
  0
BLOCK
  5
125
100
AcDbEntity
  8
notes
390
0
100
AcDbBlockBegin
  2
*D18
 70
               1
 10
0.0
 20
0.0
 30
0.0
  3
*D18
  1

  0
LINE
  5
126
100
AcDbEntity
  8
0
370
              -2
390
0
  6
Continuous
 62
               0
100
AcDbLine
 10
-635.40721257914174
 20
99.474296717504558
 30
0.0
 11
-635.40721257914174
 21
177.47429671750501
 31
0.0
  0
LINE
  5
127
100
AcDbEntity
  8
0
370
              -2
390
0
  6
Continuous
 62
               0
100
AcDbLine
 10
-135.40721257914174
 20
99.474296717504558
 30
0.0
 11
-135.40721257914174
 21
177.47429671750501
 31
0.0
  0
LINE
  5
128
100
AcDbEntity
  8
0
370
              -2
390
0
  6
Continuous
 62
               0
100
AcDbLine
 10
-635.40721257914174
 20
177.47429671750501
 30
0.0
 11
-135.40721257914174
 21
177.47429671750501
 31
0.0
  0
CIRCLE
  5
129
102
{ACAD_REACTORS
330
12A
102
}
100
AcDbEntity
  8
0
370
              -2
390
0
  6
Continuous
 62
               0
100
AcDbCircle
 10
-635.40721257914174
 20
177.47429671750501
 30
0.0
 40
1.9998779296875
  0
HATCH
  5
12A
100
AcDbEntity
  8
0
370
              -2
390
0
  6
Continuous
 62
               0
100
AcDbHatch
 10
0.0
 20
0.0
 30
0.0
210
0.0
220
0.0
230
1.0
  2
SOLID
 70
               1
 71
               1
 91
        1
 92
        1
 93
        1
 72
               2
 10
-635.40721257914174
 20
177.47429671750501
 40
1.9998779296875
 50
0.0
 51
360.0
 73
               0
 97
        1
330
129
 75
               0
 76
               1
 98
        1
 10
0.0
 20
0.0
  0
CIRCLE
  5
12B
102
{ACAD_REACTORS
330
12C
102
}
100
AcDbEntity
  8
0
370
              -2
390
0
  6
Continuous
 62
               0
100
AcDbCircle
 10
-135.40721257914174
 20
177.47429671750501
 30
0.0
 40
1.9998779296875
  0
HATCH
  5
12C
100
AcDbEntity
  8
0
370
              -2
390
0
  6
Continuous
 62
               0
100
AcDbHatch
 10
0.0
 20
0.0
 30
0.0
210
0.0
220
0.0
230
1.0
  2
SOLID
 70
               1
 71
               1
 91
        1
 92
        1
 93
        1
 72
               2
 10
-135.40721257914174
 20
177.47429671750501
 40
1.9998779296875
 50
0.0
 51
360.0
 73
               0
 97
        1
330
12B
 75
               0
 76
               1
 98
        1
 10
0.0
 20
0.0
  0
MTEXT
  5
12D
100
AcDbEntity
  8
0
390
0
 62
               0
100
AcDbMText
 10
-409.21971426131722
 20
211.35191390500501
 30
0.0
 40
24.432617187500004
 41
0.0
 71
               1
 72
               1
  1
500
  7
ＭＳ ゴシック
 73
               1
 44
0.7828267384257843
  0
POINT
  5
12E
100
AcDbEntity
  8
Defpoints
370
               0
390
0
 62
               0
100
AcDbPoint
 10
-135.40721257914174
 20
74.474296717504558
 30
0.0
  0
POINT
  5
12F
100
AcDbEntity
  8
Defpoints
370
               0
390
0
 62
               0
100
AcDbPoint
 10
-635.40721257914174
 20
74.474296717504558
 30
0.0
  0
POINT
  5
130
100
AcDbEntity
  8
Defpoints
370
               0
390
0
 62
               0
100
AcDbPoint
 10
-635.40721257914174
 20
177.47429671750501
 30
0.0
  0
ENDBLK
  5
131
100
AcDbEntity
  8
notes
390
0
100
AcDbBlockEnd
  0
BLOCK
  5
132
100
AcDbEntity
  8
notes
390
0
100
AcDbBlockBegin
  2
*D19
 70
               1
 10
0.0
 20
0.0
 30
0.0
  3
*D19
  1

  0
LINE
  5
133
100
AcDbEntity
  8
0
370
              -2
390
0
  6
Continuous
 62
               0
100
AcDbLine
 10
603.85687771625567
 20
-29.557210463934041
 30
0.0
 11
603.85687771625567
 21
177.5091979400118
 31
0.0
  0
LINE
  5
134
100
AcDbEntity
  8
0
370
              -2
390
0
  6
Continuous
 62
               0
100
AcDbLine
 10
463.85687771625567
 20
97.32086672967182
 30
0.0
 11
463.85687771625567
 21
177.5091979400118
 31
0.0
  0
LINE
  5
135
100
AcDbEntity
  8
0
370
              -2
390
0
  6
Continuous
 62
               0
100
AcDbLine
 10
603.85687771625567
 20
177.5091979400118
 30
0.0
 11
463.85687771625567
 21
177.5091979400118
 31
0.0
  0
CIRCLE
  5
136
102
{ACAD_REACTORS
330
137
102
}
100
AcDbEntity
  8
0
370
              -2
390
0
  6
Continuous
 62
               0
100
AcDbCircle
 10
603.85687771625567
 20
177.5091979400118
 30
0.0
 40
1.9998779296875
  0
HATCH
  5
137
100
AcDbEntity
  8
0
370
              -2
390
0
  6
Continuous
 62
               0
100
AcDbHatch
 10
0.0
 20
0.0
 30
0.0
210
0.0
220
0.0
230
1.0
  2
SOLID
 70
               1
 71
               1
 91
        1
 92
        1
 93
        1
 72
               2
 10
603.85687771625567
 20
177.5091979400118
 40
1.9998779296875
 50
0.0
 51
360.0
 73
               0
 97
        1
330
136
 75
               0
 76
               1
 98
        1
 10
0.0
 20
0.0
  0
CIRCLE
  5
138
102
{ACAD_REACTORS
330
139
102
}
100
AcDbEntity
  8
0
370
              -2
390
0
  6
Continuous
 62
               0
100
AcDbCircle
 10
463.85687771625567
 20
177.5091979400118
 30
0.0
 40
1.9998779296875
  0
HATCH
  5
139
100
AcDbEntity
  8
0
370
              -2
390
0
  6
Continuous
 62
               0
100
AcDbHatch
 10
0.0
 20
0.0
 30
0.0
210
0.0
220
0.0
230
1.0
  2
SOLID
 70
               1
 71
               1
 91
        1
 92
        1
 93
        1
 72
               2
 10
463.85687771625567
 20
177.5091979400118
 40
1.9998779296875
 50
0.0
 51
360.0
 73
               0
 97
        1
330
138
 75
               0
 76
               1
 98
        1
 10
0.0
 20
0.0
  0
MTEXT
  5
13A
100
AcDbEntity
  8
0
390
0
 62
               0
100
AcDbMText
 10
510.04437603408019
 20
211.3868151275118
 30
0.0
 40
24.432617187500004
 41
0.0
 71
               1
 72
               1
  1
140
  7
ＭＳ ゴシック
 73
               1
 44
0.7828267384257843
  0
POINT
  5
13B
100
AcDbEntity
  8
Defpoints
370
               0
390
0
 62
               0
100
AcDbPoint
 10
463.85687771625567
 20
72.32086672967182
 30
0.0
  0
POINT
  5
13C
100
AcDbEntity
  8
Defpoints
370
               0
390
0
 62
               0
100
AcDbPoint
 10
603.85687771625567
 20
-54.557210463934041
 30
0.0
  0
POINT
  5
13D
100
AcDbEntity
  8
Defpoints
370
               0
390
0
 62
               0
100
AcDbPoint
 10
603.85687771625567
 20
177.5091979400118
 30
0.0
  0
ENDBLK
  5
13E
100
AcDbEntity
  8
notes
390
0
100
AcDbBlockEnd
  0
BLOCK
  5
13F
100
AcDbEntity
  8
notes
390
0
100
AcDbBlockBegin
  2
*D20
 70
               1
 10
0.0
 20
0.0
 30
0.0
  3
*D20
  1

  0
LINE
  5
140
100
AcDbEntity
  8
0
370
              -2
390
0
  6
Continuous
 62
               0
100
AcDbLine
 10
503.76172779337253
 20
-607.49103065650843
 30
0.0
 11
503.76172779337253
 21
-1006.6507032824948
 31
0.0
  0
LINE
  5
141
100
AcDbEntity
  8
0
370
              -2
390
0
  6
Continuous
 62
               0
100
AcDbLine
 10
463.76172779337253
 20
-941.59232632315252
 30
0.0
 11
463.76172779337253
 21
-1006.6507032824948
 31
0.0
  0
LINE
  5
142
100
AcDbEntity
  8
0
370
              -2
390
0
  6
Continuous
 62
               0
100
AcDbLine
 10
503.76172779337253
 20
-1006.6507032824948
 30
0.0
 11
463.76172779337253
 21
-1006.6507032824948
 31
0.0
  0
CIRCLE
  5
143
102
{ACAD_REACTORS
330
144
102
}
100
AcDbEntity
  8
0
370
              -2
390
0
  6
Continuous
 62
               0
100
AcDbCircle
 10
503.76172779337253
 20
-1006.6507032824948
 30
0.0
 40
1.9998779296875
  0
HATCH
  5
144
100
AcDbEntity
  8
0
370
              -2
390
0
  6
Continuous
 62
               0
100
AcDbHatch
 10
0.0
 20
0.0
 30
0.0
210
0.0
220
0.0
230
1.0
  2
SOLID
 70
               1
 71
               1
 91
        1
 92
        1
 93
        1
 72
               2
 10
503.76172779337253
 20
-1006.6507032824948
 40
1.9998779296875
 50
0.0
 51
360.0
 73
               0
 97
        1
330
143
 75
               0
 76
               1
 98
        1
 10
0.0
 20
0.0
  0
CIRCLE
  5
145
102
{ACAD_REACTORS
330
146
102
}
100
AcDbEntity
  8
0
370
              -2
390
0
  6
Continuous
 62
               0
100
AcDbCircle
 10
463.76172779337253
 20
-1006.6507032824948
 30
0.0
 40
1.9998779296875
  0
HATCH
  5
146
100
AcDbEntity
  8
0
370
              -2
390
0
  6
Continuous
 62
               0
100
AcDbHatch
 10
0.0
 20
0.0
 30
0.0
210
0.0
220
0.0
230
1.0
  2
SOLID
 70
               1
 71
               1
 91
        1
 92
        1
 93
        1
 72
               2
 10
463.76172779337253
 20
-1006.6507032824948
 40
1.9998779296875
 50
0.0
 51
360.0
 73
               0
 97
        1
330
145
 75
               0
 76
               1
 98
        1
 10
0.0
 20
0.0
  0
MTEXT
  5
147
100
AcDbEntity
  8
0
390
0
 62
               0
100
AcDbMText
 10
467.88672779337253
 20
-972.77308609499482
 30
0.0
 40
24.432617187500004
 41
0.0
 71
               1
 72
               1
  1
40
  7
ＭＳ ゴシック
 73
               1
 44
0.7828267384257843
  0
POINT
  5
148
100
AcDbEntity
  8
Defpoints
370
               0
390
0
 62
               0
100
AcDbPoint
 10
463.76172779337253
 20
-916.59232632315252
 30
0.0
  0
POINT
  5
149
100
AcDbEntity
  8
Defpoints
370
               0
390
0
 62
               0
100
AcDbPoint
 10
503.76172779337253
 20
-582.49103065650843
 30
0.0
  0
POINT
  5
14A
100
AcDbEntity
  8
Defpoints
370
               0
390
0
 62
               0
100
AcDbPoint
 10
503.76172779337253
 20
-1006.6507032824948
 30
0.0
  0
ENDBLK
  5
14B
100
AcDbEntity
  8
notes
390
0
100
AcDbBlockEnd
  0
ENDSEC
  0
SECTION
  2
ENTITIES
  0
MTEXT
  5
14C
100
AcDbEntity
  8
template
390
0
 62
               7
100
AcDbMText
 10
-967.99999999975898
 20
-1147.4176292337004
 30
0.0
 40
16.288411458333332
 41
0.0
 71
               1
 72
               1
  1
品名
  7
ＭＳ ゴシック
 73
               1
 44
0.7828267384257843
  0
MTEXT
  5
14D
100
AcDbEntity
  8
template
390
0
 62
               7
100
AcDbMText
 10
-967.99999999975898
 20
-1232.4176292337004
 30
0.0
 40
16.288411458333332
 41
0.0
 71
               1
 72
               1
  1
仕様
  7
ＭＳ ゴシック
 73
               1
 44
0.7828267384257843
  0
MTEXT
  5
14E
100
AcDbEntity
  8
template
390
0
 62
               7
100
AcDbMText
 10
-935.84307032303195
 20
-1184.4575172688988
 30
0.0
 40
24.432617187500004
 41
0.0
 71
               1
 72
               1
  1
洗面器 -CATALANO,Muse-
  7
ＭＳ ゴシック
 73
               1
 44
0.7828267384257843
  0
LINE
  5
14F
100
AcDbEntity
  8
template
370
               5
390
0
  6
Continuous
 62
               7
100
AcDbLine
 10
974.99999999975876
 20
-1224.0027073587005
 30
0.0
 11
-975.00000000024102
 21
-1224.0027073587005
 31
0.0
  0
LWPOLYLINE
  5
150
100
AcDbEntity
  8
template
370
               5
390
0
  6
Continuous
 62
               7
100
AcDbPolyline
 90
        5
 70
             128
 10
975.00000000024124
 20
1405.9972926412995
 10
-974.99999999975898
 20
1405.9972926412995
 10
-974.99999999975898
 20
-1394.0027073587005
 10
975.00000000024124
 20
-1394.0027073587005
 10
975.00000000024124
 20
1405.9972926412995
  0
LINE
  5
151
100
AcDbEntity
  8
template
370
               5
390
0
  6
Continuous
 62
               7
100
AcDbLine
 10
974.99999999975876
 20
-1139.0027073587005
 30
0.0
 11
-975.00000000024102
 21
-1139.0027073587005
 31
0.0
  0
LINE
  5
152
100
AcDbEntity
  8
template
370
               5
390
0
  6
Continuous
 62
               7
100
AcDbLine
 10
975.00000000024124
 20
-1309.0027073587005
 30
0.0
 11
222.00000000024124
 21
-1309.0027073587005
 31
0.0
  0
MTEXT
  5
153
100
AcDbEntity
  8
template
390
0
 62
               7
100
AcDbMText
 10
-974.99999999955617
 20
-1405.8565294155574
 30
0.0
 40
21.717881944444446
 41
0.0
 71
               1
 72
               1
  1
110609SH
  7
ＭＳ ゴシック
 73
               1
 44
0.7828267384257843
  0
MTEXT
  5
154
100
AcDbEntity
  8
template
390
0
 62
               7
100
AcDbMText
 10
251.87140625250095
 20
-1338.9131018320081
 30
0.0
 40
24.432617187500004
 41
0.0
 71
               1
 72
               1
  1
大洋金物株式会社 ティーフォルム事業部
  7
ＭＳ ゴシック
 73
               1
 44
0.7828267384257843
  0
INSERT
  5
155
100
AcDbEntity
  8
template
390
0
 62
               7
100
AcDbBlockReference
  2
グループ
 10
2021.019824256171
 20
473.96466837399743
 30
0.0
  0
MTEXT
  5
156
100
AcDbEntity
  8
template
390
0
 62
               7
100
AcDbMText
 10
784.00000000049999
 20
-1261.0000901712006
 30
0.0
 40
24.432617187500004
 41
0.0
 71
               1
 72
               1
  1
1:10
  7
ＭＳ ゴシック
 73
               1
 44
0.7828267384257843
  0
MTEXT
  5
157
100
AcDbEntity
  8
template
390
0
 62
               7
100
AcDbMText
 10
731.00000000049999
 20
-1232.4176292337004
 30
0.0
 40
16.288411458333332
 41
0.0
 71
               1
 72
               1
  1
縮尺
  7
ＭＳ ゴシック
 73
               1
 44
0.7828267384257843
  0
LINE
  5
158
100
AcDbEntity
  8
template
370
               5
390
0
  6
Continuous
 62
               7
100
AcDbLine
 10
724.00000000049999
 20
-1309.0027073587005
 30
0.0
 11
724.00000000049999
 21
-1224.0027073587005
 31
0.0
  0
MTEXT
  5
159
100
AcDbEntity
  8
template
390
0
 62
               7
100
AcDbMText
 10
480.00000000049999
 20
-1232.4176292337004
 30
0.0
 40
16.288411458333332
 41
0.0
 71
               1
 72
               1
  1
容量
  7
ＭＳ ゴシック
 73
               1
 44
0.7828267384257843
  0
MTEXT
  5
15A
100
AcDbEntity
  8
template
390
0
 62
               7
100
AcDbMText
 10
533.00000000049999
 20
-1261.0000901712006
 30
0.0
 40
24.432617187500004
 41
0.0
 71
               1
 72
               1
  1
18L
  7
ＭＳ ゴシック
 73
               1
 44
0.7828267384257843
  0
LINE
  5
15B
100
AcDbEntity
  8
template
370
               5
390
0
  6
Continuous
 62
               7
100
AcDbLine
 10
473.00000000049999
 20
-1309.0027073587005
 30
0.0
 11
473.00000000049999
 21
-1224.0027073587005
 31
0.0
  0
MTEXT
  5
15C
100
AcDbEntity
  8
template
390
0
 62
               7
100
AcDbMText
 10
229.00000000049999
 20
-1147.4176292337004
 30
0.0
 40
16.288411458333332
 41
0.0
 71
               1
 72
               1
  1
品番
  7
ＭＳ ゴシック
 73
               1
 44
0.7828267384257843
  0
MTEXT
  5
15D
100
AcDbEntity
  8
template
390
0
 62
               7
100
AcDbMText
 10
229.00000000049999
 20
-1232.4176292337004
 30
0.0
 40
16.288411458333332
 41
0.0
 71
               1
 72
               1
  1
重量
  7
ＭＳ ゴシック
 73
               1
 44
0.7828267384257843
  0
MTEXT
  5
15E
100
AcDbEntity
  8
template
390
0
 62
               7
100
AcDbMText
 10
282.00000000049999
 20
-1176.0000901712006
 30
0.0
 40
24.432617187500004
 41
0.0
 71
               1
 72
               1
  1
ADF70-1802
  7
ＭＳ ゴシック
 73
               1
 44
0.7828267384257843
  0
MTEXT
  5
15F
100
AcDbEntity
  8
template
390
0
 62
               7
100
AcDbMText
 10
282.00000000049999
 20
-1261.0000901712006
 30
0.0
 40
24.432617187500004
 41
0.0
 71
               1
 72
               1
  1
24kg
  7
ＭＳ ゴシック
 73
               1
 44
0.7828267384257843
  0
LINE
  5
160
100
AcDbEntity
  8
template
370
               5
390
0
  6
Continuous
 62
               7
100
AcDbLine
 10
222.00000000049999
 20
-1394.0027073587005
 30
0.0
 11
222.00000000049999
 21
-1139.0027073587005
 31
0.0
  0
MTEXT
  5
161
100
AcDbEntity
  8
template
390
0
 62
               7
100
AcDbMText
 10
-939.91485419515357
 20
-1273.9149443665976
 30
0.0
 40
24.432617187500004
 41
0.0
 71
               1
 72
               1
  1
壁掛け,カウンタ ートップ/オーバーフローなし/壁取付ボルト,専用排水目皿付属/\P陶器
  7
ＭＳ ゴシック
 73
               1
 44
1.3047112307096407
  0
MTEXT
  5
162
100
AcDbEntity
  8
template
390
0
 62
               7
100
AcDbMText
 10
282.00000000049999
 20
-1043.0000901712006
 30
0.0
 40
24.432617187500004
 41
0.0
 71
               1
 72
               1
  1
ADF70-1802-001 ホワイト\PADF70-1802-005 ブラック
  7
ＭＳ ゴシック
 73
               1
 44
0.7828267384257843
  0
LINE
  5
163
100
AcDbEntity
  8
template
370
               5
390
0
  6
STYLE_24
 62
               7
100
AcDbLine
 10
463.98302159068862
 20
995.95500158207824
 30
0.0
 11
478.98302159068862
 21
995.95500158207824
 31
0.0
  0
LINE
  5
164
100
AcDbEntity
  8
template
370
               5
390
0
  6
STYLE_24
 62
               7
100
AcDbLine
 10
463.98302159068862
 20
960.95500158207824
 30
0.0
 11
478.98302159068862
 21
960.95500158207824
 31
0.0
  0
CIRCLE
  5
165
100
AcDbEntity
  8
notes
370
              15
390
0
  6
STYLE_23
 62
               7
100
AcDbCircle
 10
39.346133728314953
 20
-845.1679255953527
 30
0.0
 40
17.5
  0
DIMENSION
  5
166
100
AcDbEntity
  8
notes
370
               5
390
0
  6
Continuous
 62
               7
100
AcDbDimension
  2
*D4
 10
-635.40721257914174
 20
1065.4100236546776
 30
0.0
 11
-485.40721257914174
 21
1065.4100236546776
 31
0.0
 71
               5
 72
               1
 41
1.0
 42
0.0
  3
tfrom線あり
100
AcDbAlignedDimension
 13
-335.40721257914174
 23
965.41002365467762
 33
0.0
 14
-635.40721257914174
 24
965.41002365467762
 34
0.0
100
AcDbRotatedDimension
1001
ACAD
1000
DSTYLE
1002
{
1070
             279
1070
               2
1070
             340
1005
35
1070
             147
1040
5.0
1002
}
  0
DIMENSION
  5
167
100
AcDbEntity
  8
notes
370
               5
390
0
  6
Continuous
 62
               7
100
AcDbDimension
  2
*D5
 10
-235.40721257914174
 20
965.41002365467762
 30
0.0
 11
-235.40721257914174
 21
805.41002365467762
 31
0.0
 71
               5
 72
               1
 41
1.0
 42
0.0
  3
tfrom線あり
100
AcDbAlignedDimension
 13
-335.40721257914174
 23
645.41002365467762
 33
0.0
 14
-335.40721257914174
 24
965.41002365467762
 34
0.0
 50
90.0
100
AcDbRotatedDimension
1001
ACAD
1000
DSTYLE
1002
{
1070
             279
1070
               2
1070
             340
1005
35
1070
             147
1040
5.0
1002
}
  0
DIMENSION
  5
168
100
AcDbEntity
  8
notes
370
               5
390
0
  6
Continuous
 62
               7
100
AcDbDimension
  2
*D6
 10
-35.407212579141742
 20
-881.44530301175791
 30
0.0
 11
-35.407212579141742
 21
-421.44530301175797
 31
0.0
 71
               5
 72
               1
 41
1.0
 42
0.0
  3
tfrom線あり
100
AcDbAlignedDimension
 13
-254.41237877786443
 23
38.554696988241915
 33
0.0
 14
-254.26172188942019
 24
-881.44530301175791
 34
0.0
 50
90.0
100
AcDbRotatedDimension
1001
ACAD
1000
DSTYLE
1002
{
1070
             279
1070
               2
1070
             340
1005
35
1070
             147
1040
5.0
1002
}
  0
DIMENSION
  5
169
100
AcDbEntity
  8
notes
370
               5
390
0
  6
Continuous
 62
               7
100
AcDbDimension
  2
*D7
 10
363.76172779337253
 20
-282.49103065650883
 30
0.0
 11
363.76172779337253
 21
-422.49103065650871
 31
0.0
 71
               5
 72
               1
 41
1.0
 42
0.0
  3
tfrom線あり
100
AcDbAlignedDimension
 13
483.76172779337253
 23
-562.49103065650843
 33
0.0
 14
483.76172779337253
 24
-282.49103065650883
 34
0.0
 50
90.0
100
AcDbRotatedDimension
1001
ACAD
1000
DSTYLE
1002
{
1070
             279
1070
               2
1070
             340
1005
35
1070
             147
1040
5.0
1002
}
  0
DIMENSION
  5
16A
100
AcDbEntity
  8
notes
370
               5
390
0
  6
Continuous
 62
               7
100
AcDbDimension
  2
*D8
 10
363.98302159068862
 20
1063.4550015820782
 30
0.0
 11
363.98302159068862
 21
1020.9550015820782
 31
0.0
 71
               5
 72
               1
 41
1.0
 42
0.0
  3
tfrom線あり
100
AcDbAlignedDimension
 13
463.98302159068862
 23
978.45500158207824
 33
0.0
 14
463.98302159068862
 24
1063.4550015820782
 34
0.0
 50
90.0
100
AcDbRotatedDimension
1001
ACAD
1000
DSTYLE
1002
{
1070
             279
1070
               2
1070
             340
1005
35
1070
             147
1040
5.0
1002
}
  0
DIMENSION
  5
16B
100
AcDbEntity
  8
notes
370
               5
390
0
  6
Continuous
 62
               7
100
AcDbDimension
  2
*D9
 10
463.98302159068862
 20
800.58520924397965
 30
0.0
 11
438.98302159068862
 21
805.58520924397965
 31
0.0
 70
             128
 71
               5
 72
               1
 41
1.0
 42
0.0
  3
tfrom線あり
100
AcDbAlignedDimension
 13
573.98302159068862
 23
799.91854257731359
 33
0.0
 14
463.98302159068862
 24
799.91854257731359
 34
0.0
100
AcDbRotatedDimension
1001
ACAD
1000
DSTYLE
1002
{
1070
             279
1070
               2
1070
             340
1005
35
1070
               3
1000
<>(深さ)
1070
             174
1070
               0
1070
             147
1040
5.0
1002
}
  0
MTEXT
  5
16C
100
AcDbEntity
  8
notes
390
0
 62
               7
100
AcDbMText
 10
28.470725788912887
 20
-822.11442200502825
 30
0.0
 40
24.432617187500004
 41
842.88315656391467
 71
               1
 72
               1
  1
＝φ30もしくはφ35の水栓取付用穴あけ加工を承ります。\P   必要な場合、ご注文の際にご指示ください。
  7
ＭＳ ゴシック
 11
0.0
 21
1.0
 31
0.0
 73
               1
 44
1.0437689845677123
  0
MTEXT
  5
16D
100
AcDbEntity
  8
notes
390
0
 62
               7
100
AcDbMText
 10
28.470725788912887
 20
437.69524697171801
 30
0.0
 40
24.432617187500004
 41
764.7717154610109
 71
               1
 72
               1
  1
※陶器製品には寸法公差があります。\P  洗面器の収め方をご確認の上、必ず現物を合わせて\P  カウンターに切込を行ってください。
  7
ＭＳ ゴシック
 11
0.0
 21
1.0
 31
0.0
 73
               1
 44
1.0437689845677123
  0
MTEXT
  5
16E
100
AcDbEntity
  8
notes
390
0
 62
               7
100
AcDbMText
 10
374.68936231281759
 20
-201.05756444345201
 30
0.0
 40
24.432617187500004
 41
0.0
 71
               1
 72
               1
  1
壁取付ボルト穴(2ヶ所）
  7
ＭＳ ゴシック
 11
0.0
 21
1.0
 31
0.0
 73
               1
 44
0.7828267384257843
  0
MTEXT
  5
16F
100
AcDbEntity
  8
notes
390
0
 62
               7
100
AcDbMText
 10
173.49683448184578
 20
437.69524697171801
 30
0.0
 40
24.432617187500004
 41
0.0
 71
               1
 72
               1
  1
※カウンタートップ置きの場合も壁固定が必要です。\P
  7
ＭＳ ゴシック
 11
0.0
 21
1.0
 31
0.0
 73
               1
 44
0.7828267384257843
  0
LINE
  5
170
100
AcDbEntity
  8
notes
370
               5
390
0
  6
Continuous
 62
               7
100
AcDbLine
 10
504.12882917466209
 20
-282.52572188114885
 30
0.0
 11
406.79278742085717
 21
-185.18968012734382
 31
0.0
  0
DIMENSION
  5
171
100
AcDbEntity
  8
notes
370
               5
390
0
  6
Continuous
 62
               7
100
AcDbDimension
  2
*D10
 10
703.51984367976047
 20
1063.4550015820782
 30
0.0
 11
703.51984367976047
 21
933.45500158207824
 31
0.0
 71
               5
 72
               1
 41
1.0
 42
0.0
  3
tfrom線あり
100
AcDbAlignedDimension
 13
580.22851636220457
 23
803.45500158207824
 33
0.0
 14
604.07817151357176
 24
1063.4550015820782
 34
0.0
 50
90.0
100
AcDbRotatedDimension
1001
ACAD
1000
DSTYLE
1002
{
1070
             279
1070
               2
1070
             340
1005
35
1070
             147
1040
5.0
1002
}
  0
DIMENSION
  5
172
100
AcDbEntity
  8
notes
370
               5
390
0
  6
Continuous
 62
               7
100
AcDbDimension
  2
*D11
 10
756.71429859596765
 20
-50.000000000000057
 30
0.0
 11
756.71429859596765
 21
-422.50000000000006
 31
0.0
 71
               5
 72
               1
 41
1.0
 42
0.0
  3
tfrom線あり
100
AcDbAlignedDimension
 13
600.23818679025976
 23
-795.0
 33
0.0
 14
600.23818679026022
 24
-50.000000000000057
 34
0.0
 50
90.0
100
AcDbRotatedDimension
1001
ACAD
1000
DSTYLE
1002
{
1070
             279
1070
               2
1070
             340
1005
35
1070
             147
1040
5.0
1002
}
  0
DIMENSION
  5
173
100
AcDbEntity
  8
notes
370
               5
390
0
  6
Continuous
 62
               7
100
AcDbDimension
  2
*D12
 10
814.71429859596742
 20
1063.4550015820782
 30
0.0
 11
814.71429859596742
 21
873.47229634996233
 31
0.0
 71
               5
 72
               1
 41
1.0
 42
0.0
  3
tfrom線あり
100
AcDbAlignedDimension
 13
600.23251725100727
 23
683.48959111784632
 33
0.0
 14
604.07817151357176
 24
1063.4550015820782
 34
0.0
 50
90.0
100
AcDbRotatedDimension
1001
ACAD
1000
DSTYLE
1002
{
1070
             279
1070
               2
1070
             340
1005
35
1070
             147
1040
5.0
1002
}
  0
DIMENSION
  5
174
100
AcDbEntity
  8
notes
370
               5
390
0
  6
Continuous
 62
               7
100
AcDbDimension
  2
*D13
 10
-785.40721257914174
 20
-922.52570328249476
 30
0.0
 11
-785.40721257914174
 21
-422.52570328249493
 31
0.0
 71
               5
 72
               1
 41
1.0
 42
0.0
  3
tfrom線あり
100
AcDbAlignedDimension
 13
-632.55298950794531
 23
77.474296717505013
 33
0.0
 14
-632.55298950794531
 24
-922.52570328249476
 34
0.0
 50
90.0
100
AcDbRotatedDimension
1001
ACAD
1000
DSTYLE
1002
{
1070
             279
1070
               2
1070
             340
1005
35
1070
             147
1040
5.0
1002
}
  0
DIMENSION
  5
175
100
AcDbEntity
  8
notes
370
               5
390
0
  6
Continuous
 62
               7
100
AcDbDimension
  2
*D14
 10
-735.40721257914174
 20
-522.52570328249112
 30
0.0
 11
-735.40721257914174
 21
-472.52581758075308
 31
0.0
 71
               5
 72
               1
 41
1.0
 42
0.0
  3
tfrom線あり
100
AcDbAlignedDimension
 13
-564.90717735564067
 23
-422.5259318790151
 33
0.0
 14
-564.90717735564067
 24
-522.52570328249112
 34
0.0
 50
90.0
100
AcDbRotatedDimension
1001
ACAD
1000
DSTYLE
1002
{
1070
             279
1070
               2
1070
             340
1005
35
1070
             147
1040
5.0
1002
}
  0
DIMENSION
  5
176
100
AcDbEntity
  8
notes
370
               5
390
0
  6
Continuous
 62
               7
100
AcDbDimension
  2
*D15
 10
-735.40721257914174
 20
-422.5259318790151
 30
0.0
 11
-735.40721257914174
 21
-372.52581758075593
 31
0.0
 71
               5
 72
               1
 41
1.0
 42
0.0
  3
tfrom線あり
100
AcDbAlignedDimension
 13
-564.90717735564067
 23
-322.52570328249675
 33
0.0
 14
-564.90717735564067
 24
-422.5259318790151
 34
0.0
 50
90.0
100
AcDbRotatedDimension
1001
ACAD
1000
DSTYLE
1002
{
1070
             279
1070
               2
1070
             340
1005
35
1070
             147
1040
5.0
1002
}
  0
DIMENSION
  5
177
100
AcDbEntity
  8
notes
370
               5
390
0
  6
Continuous
 62
               7
100
AcDbDimension
  2
*D16
 10
-500.40722110764045
 20
-1022.5257032824948
 30
0.0
 11
-332.90721257914174
 21
-1022.5257032824948
 31
0.0
 71
               5
 72
               1
 41
1.0
 42
0.0
  3
tfrom線あり
100
AcDbAlignedDimension
 13
-165.40720405064349
 23
-713.91113293775106
 33
0.0
 14
-500.40722110764045
 24
-917.91799064030283
 34
0.0
100
AcDbRotatedDimension
1001
ACAD
1000
DSTYLE
1002
{
1070
             279
1070
               2
1070
             340
1005
35
1070
             147
1040
5.0
1002
}
  0
DIMENSION
  5
178
100
AcDbEntity
  8
notes
370
               5
390
0
  6
Continuous
 62
               7
100
AcDbDimension
  2
*D17
 10
-500.40722110764045
 20
-1022.5257032824948
 30
0.0
 11
-567.90721684339132
 21
-1022.5257032824948
 31
0.0
 71
               5
 72
               1
 41
1.0
 42
0.0
  3
tfrom線あり
100
AcDbAlignedDimension
 13
-635.40721257914174
 23
-919.52570328249476
 33
0.0
 14
-500.40722110764045
 24
-919.52570328249476
 34
0.0
100
AcDbRotatedDimension
1001
ACAD
1000
DSTYLE
1002
{
1070
             279
1070
               2
1070
             340
1005
35
1070
             147
1040
5.0
1002
}
  0
DIMENSION
  5
179
100
AcDbEntity
  8
notes
370
               5
390
0
  6
Continuous
 62
               7
100
AcDbDimension
  2
*D18
 10
-635.40721257914174
 20
177.47429671750501
 30
0.0
 11
-385.40721257914174
 21
177.47429671750501
 31
0.0
 71
               5
 72
               1
 41
1.0
 42
0.0
  3
tfrom線あり
100
AcDbAlignedDimension
 13
-135.40721257914174
 23
74.474296717504558
 33
0.0
 14
-635.40721257914174
 24
74.474296717504558
 34
0.0
100
AcDbRotatedDimension
1001
ACAD
1000
DSTYLE
1002
{
1070
             279
1070
               2
1070
             340
1005
35
1070
             147
1040
5.0
1002
}
  0
DIMENSION
  5
17A
100
AcDbEntity
  8
notes
370
               5
390
0
  6
Continuous
 62
               7
100
AcDbDimension
  2
*D19
 10
603.85687771625567
 20
177.5091979400118
 30
0.0
 11
533.85687771625567
 21
177.5091979400118
 31
0.0
 71
               5
 72
               1
 41
1.0
 42
0.0
  3
tfrom線あり
100
AcDbAlignedDimension
 13
463.85687771625567
 23
72.32086672967182
 33
0.0
 14
603.85687771625567
 24
-54.557210463934041
 34
0.0
100
AcDbRotatedDimension
1001
ACAD
1000
DSTYLE
1002
{
1070
             279
1070
               2
1070
             340
1005
35
1070
             147
1040
5.0
1002
}
  0
DIMENSION
  5
17B
100
AcDbEntity
  8
notes
370
               5
390
0
  6
Continuous
 62
               7
100
AcDbDimension
  2
*D20
 10
503.76172779337253
 20
-1006.6507032824948
 30
0.0
 11
483.76172779337253
 21
-1001.6507032824948
 31
0.0
 70
             128
 71
               5
 72
               1
 41
1.0
 42
0.0
  3
tfrom線あり
100
AcDbAlignedDimension
 13
463.76172779337253
 23
-916.59232632315252
 33
0.0
 14
503.76172779337253
 24
-582.49103065650843
 34
0.0
100
AcDbRotatedDimension
1001
ACAD
1000
DSTYLE
1002
{
1070
             279
1070
               2
1070
             340
1005
35
1070
             147
1040
5.0
1002
}
  0
MTEXT
  5
17C
100
AcDbEntity
  8
notes
390
0
 62
               7
100
AcDbMText
 10
-847.56946251048203
 20
666.20343219381277
 30
0.0
 40
24.432617187500004
 41
0.0
 71
               1
 72
               1
  1
カウンター切込寸法
  7
ＭＳ ゴシック
 11
0.0
 21
1.0
 31
0.0
 73
               1
 44
0.7828267384257843
  0
CIRCLE
  5
17D
100
AcDbEntity
  8
ADF70-1801
370
              15
390
0
  6
STYLE_23
 62
               7
100
AcDbCircle
 10
-550.40717735564067
 20
-322.52570328249675
 30
0.0
 40
17.5
  0
CIRCLE
  5
17E
100
AcDbEntity
  8
ADF70-1801
370
              15
390
0
  6
STYLE_23
 62
               7
100
AcDbCircle
 10
-550.40717735564067
 20
-522.52570328249112
 30
0.0
 40
17.499999999999886
  0
LINE
  5
17F
100
AcDbEntity
  8
ADF70-1801
370
              15
390
0
  6
Continuous
 62
               7
100
AcDbLine
 10
-632.30251408903405
 20
-922.5238757635525
 30
0.0
 11
-329.0150492829971
 21
-911.93284411532431
 31
0.0
  0
LWPOLYLINE
  5
180
100
AcDbEntity
  8
ADF70-1801
370
              15
390
0
  6
Continuous
 62
               7
100
AcDbPolyline
 90
       70
 70
             128
 10
-329.0150492829971
 20
-911.93284411532431
 42
0.004675326562907
 10
-327.1337604133646
 20
-911.8495291905972
 10
-325.72582153485018
 20
-911.77398036370732
 42
0.0180298517900573
 10
-321.04461507001406
 20
-911.35311831195531
 10
-319.64500582568917
 20
-911.17622742442495
 42
0.0172237223673732
 10
-312.24208799120424
 20
-909.98030745547885
 42
0.0164117225314851
 10
-304.93585233856629
 20
-908.28941141483483
 42
0.0156228928012916
 10
-297.74955444103125
 20
-906.13325183651318
 42
0.0148622406450167
 10
-290.70475338883853
 20
-903.54226819437349
 10
-290.70116743509288
 20
-903.5408269548675
 42
0.0141711934946888
 10
-283.80865148559405
 20
-900.541071741726
 42
0.0135385082040055
 10
-277.08998123024503
 20
-897.16289065705269
 10
-277.0864586831517
 20
-897.1609983399328
 42
0.0129930703510781
 10
-270.56309371037787
 20
-893.43507008570577
 42
0.0125349064860281
 10
-264.23821813771792
 20
-889.38100776306101
 10
-264.02797491307911
 20
-889.23868906775215
 42
0.0138009685402258
 10
-257.51338609853019
 20
-884.5615514628746
 10
-257.24368893332257
 20
-884.35641128560815
 42
0.0136782957887814
 10
-250.46802258184425
 20
-878.90374997683853
 10
-250.40788745290638
 20
-878.8525847170115
 42
0.0129391324972194
 10
-243.81614200574177
 20
-872.94333195811396
 42
0.0121984768503006
 10
-237.53021261972435
 20
-866.71063977846188
 42
0.0114571095657594
 10
-231.54175245923716
 20
-860.18307182616036
 42
0.0107196947912588
 10
-225.84553285980382
 20
-853.3930629087497
 10
-225.84240364096604
 20
-853.38916612192975
 42
0.0100232247778957
 10
-220.42390738870472
 20
-846.35737425412231
 42
0.0093185060762224
 10
-215.27754023676607
 20
-839.11614669168171
 42
0.0087816691397449
 10
-210.39501789559245
 20
-831.69111968344328
 42
0.0085184144607015
 10
-205.77163946256223
 20
-824.100644942705
 42
0.0082593211673693
 10
-201.40476489429693
 20
-816.35804948210057
 42
0.0080543264727445
 10
-197.29232975856439
 20
-808.47631532425044
 10
-196.2948562829979
 20
-806.48711007757902
 42
0.0153095929428076
 10
-190.68497059015544
 20
-794.38890493587223
 10
-188.93721000980395
 20
-790.29583961676735
 42
0.0144264630412232
 10
-184.06092172005629
 20
-777.89743842936537
 10
-183.30611079314667
 20
-775.80278239977451
 42
0.0067668551836373
 10
-180.41078847078188
 20
-767.413782549914
 42
0.0060053693604294
 10
-177.73099109345731
 20
-758.95456113736918
 42
0.0052255300935031
 10
-175.24197267340514
 20
-750.43756434732722
 42
0.0044419564212181
 10
-172.91733872635359
 20
-741.87135270690942
 42
0.003658340838336
 10
-170.73069103053649
 20
-733.2644540672693
 42
0.0028764841800257
 10
-168.65564343129427
 20
-724.62539213900141
 42
0.0021021114160299
 10
-166.66590606023192
 20
-715.96266934748837
 42
0.001212830183989
 10
-164.73332188248651
 20
-707.2855489699964
 10
-164.25538886469894
 20
-705.11487475082731
 42
0.001854031354488
 10
-161.43631603850508
 20
-692.08126480053147
 10
-160.97494134601766
 20
-689.90921195568285
 42
0.0029204509395007
 10
-157.38385073873542
 20
-672.5035337918705
 10
-157.16527994439684
 20
-671.41194886625362
 42
0.0040068529942677
 10
-154.23605202041335
 20
-656.14845701649688
 10
-154.03532720130579
 20
-655.05527098265588
 42
0.003722979910954
 10
-151.72754381741743
 20
-641.93749295184966
 42
0.0042182760090795
 10
-149.62840140960907
 20
-628.7848211812609
 10
-149.46264640474419
 20
-627.68680203550321
 42
0.0050512807910491
 10
-147.29842422132197
 20
-612.29851738837101
 10
-147.15471716048523
 20
-611.19607088025623
 42
0.0042827856325641
 10
-145.00933404326224
 20
-593.56055828503668
 10
-144.7600952603334
 20
-591.3543180792758
 42
0.0034916067681429
 10
-143.356529616236
 20
-578.10101419146486
 42
0.0014365197778104
 10
-142.08363176368584
 20
-564.83425169230281
 10
-141.67207626276831
 20
-560.4111916797051
 42
0.005400708707628
 10
-139.85329257573676
 20
-538.27500604720763
 10
-139.37945065510303
 20
-531.62910424288157
 42
0.0055089479156894
 10
-137.24292186557705
 20
-496.15792822082125
 10
-137.02368251235657
 20
-491.70020794197495
 42
0.0057819518666396
 10
-136.01734220430171
 20
-464.9331837974384
 10
-135.90122015956604
 20
-460.47049881365098
 42
0.0030335884894235
 10
-135.54499877043918
 20
-442.61504574706595
 42
0.0031196550874494
 10
-135.40854414978139
 20
-424.75762506864356
 42
0.000401069755895
 10
-135.40720715835505
 20
-422.52570328249539
 42
0.000401069755895
  0
LWPOLYLINE
  5
181
100
AcDbEntity
  8
ADF70-1801
370
              15
390
0
  6
Continuous
 62
               7
100
AcDbPolyline
 90
       83
 70
             128
 10
-332.90721257914174
 20
-881.99329142507622
 42
0.00058806845117
 10
-332.7544917198029
 20
-881.99394077173315
 10
-331.79941813673759
 20
-881.99687829193158
 42
0.0140458104238608
 10
-329.73799846659858
 20
-881.94530301175996
 10
-328.43871149329425
 20
-881.87624093145791
 42
0.0180029445584266
 10
-323.79510962736913
 20
-881.46137022314247
 10
-323.14539988975275
 20
-881.37965967440073
 42
0.0155006757967761
 10
-318.91641804280471
 20
-880.71407172134468
 42
0.0111998875521049
 10
-314.72802600236037
 20
-879.82351729742368
 10
-314.05234460531028
 20
-879.66395386856698
 42
0.0217246281006662
 10
-308.59950766148086
 20
-878.12340819763858
 10
-307.61216991642186
 20
-877.79754233708081
 42
0.0200901692749404
 10
-300.36099079361111
 20
-875.07675889072357
 10
-300.28243061577177
 20
-875.04362397645423
 42
0.0189945550926991
 10
-293.11084724732973
 20
-871.6925578253954
 10
-293.04813835559889
 20
-871.66029990064044
 42
0.0177733595309149
 10
-286.01851727697886
 20
-867.72221857288901
 10
-285.97514059599371
 20
-867.69585078317209
 42
0.0170229042190017
 10
-279.15113316243105
 20
-863.22267875682928
 10
-279.1138811082169
 20
-863.19640466526516
 42
0.0162504156229868
 10
-272.52934899741513
 20
-858.22422896744183
 10
-272.49869424836879
 20
-858.19947644286913
 42
0.0152507068868512
 10
-266.18011093628002
 20
-852.77096584158335
 10
-266.14435325697877
 20
-852.73829803250533
 42
0.0142611314562776
 10
-260.08702828358764
 20
-846.87887749339302
 10
-260.04523918278574
 20
-846.83608053577973
 42
0.0132948233402657
 10
-254.23830033130844
 20
-840.56383057266771
 10
-254.19798304175492
 20
-840.51789080274511
 42
0.0122851359393699
 10
-248.64075890280401
 20
-833.86276643254814
 10
-248.60163050590472
 20
-833.81349621582558
 42
0.0113696861431473
 10
-243.28913987331907
 20
-826.80244997305454
 10
-243.25729465317681
 20
-826.75837586249668
 42
0.0104015745474951
 10
-238.19296840521247
 20
-819.4329977444263
 10
-238.16906974433095
 20
-819.39684388599198
 42
0.0099896189901837
 10
-233.36119334581781
 20
-811.79772542375167
 10
-233.34369652600253
 20
-811.76880785098751
 42
0.0095913755580379
 10
-228.80307534583108
 20
-803.92867733006074
 10
-228.79255480455004
 20
-803.90968078597643
 42
0.0092730248388717
 10
-224.53050417582926
 20
-795.86539655705724
 10
-224.52121904087653
 20
-795.8470573765278
 42
0.0089549804212486
 10
-220.53723604548031
 20
-787.61568508453433
 10
-220.52930254167859
 20
-787.59851606840812
 42
0.0086545183628532
 10
-216.82231615035289
 20
-779.1972778724512
 10
-216.78836703294883
 20
-779.11658478931963
 42
0.0086350527638971
 10
-213.30894529953048
 20
-770.42969679580278
 10
-213.09640319239679
 20
-769.87130510364227
 42
0.0100521322030154
 10
-209.54169273886009
 20
-759.93606720364596
 10
-209.2937852260161
 20
-759.19664072638716
 42
0.0078209590358755
 10
-206.25301290237667
 20
-749.63324730390264
 10
-206.16963658598752
 20
-749.35608425282658
 42
0.0058386441514675
 10
-203.55133344441128
 20
-740.26887478843355
 42
0.0046986026371019
 10
-201.125045744609
 20
-731.12828877415609
 10
-201.11174118430563
 20
-731.07619709664505
 42
0.0037962493893463
 10
-198.81523964085818
 20
-721.79119046399592
 10
-198.50794153474271
 20
-720.50699556783798
 42
0.0027346588068645
 10
-196.8096035648141
 20
-713.23414278005885
 42
0.0010376095859058
 10
-195.1661625679194
 20
-705.9485906691541
 10
-194.73055508214566
 20
-703.99865266837469
 42
0.001949439740965
 10
-192.27467967916755
 20
-692.80023885330684
 10
-191.60735323842937
 20
-689.69960702477078
 42
0.0012520253380011
 10
-189.55140018754355
 20
-680.02927093508606
 42
0.0016855776149523
 10
-187.55230255765537
 20
-670.34704733897388
 10
-187.53560463823442
 20
-670.26477475419711
 42
0.0020384418709188
 10
-185.5932823665853
 20
-660.49046907398565
 10
-185.57440298716028
 20
-660.39339422131025
 42
0.0023763090001313
 10
-183.75529815052596
 20
-650.79667403225199
 42
0.0026301390781478
 10
-182.03237803647153
 20
-641.18224518219813
 10
-181.60047557273947
 20
-638.69686722418419
 42
0.0064074398003249
 10
-179.25174240235947
 20
-624.0725193877945
 10
-179.2356054850984
 20
-623.96310568440617
 42
0.0029957454812898
 10
-177.15407154288914
 20
-609.23897368373287
 42
0.0050525174994321
 10
-175.30986391782108
 20
-594.48373382096406
 10
-175.2774767175556
 20
-594.20145901002911
 42
0.002203334662833
 10
-173.70245100236298
 20
-579.91861682994295
 42
0.0032960112976059
 10
-172.28462656247302
 20
-565.61948756645165
 10
-171.6465395113164
 20
-558.72140152272368
 42
0.00583626890469
 10
-169.375175404939
 20
-530.59024025299664
 10
-169.13972831846104
 20
-527.17815913661275
 42
0.0050548945275608
 10
-167.10678380929721
 20
-492.63531938870136
 42
0.0061526938075777
 10
-165.84859162827252
 20
-458.05644334681637
 10
-165.81726903422214
 20
-456.75510477356733
 42
0.0059688947762952
 10
-165.40720405064349
 20
-422.94317518231873
 42
0.0000992677225077
 10
-165.40720779041658
 20
-422.52570328249539
 42
0.0000992677225077
  0
LWPOLYLINE
  5
182
100
AcDbEntity
  8
ADF70-1801
370
              15
390
0
  6
Continuous
 62
               7
100
AcDbPolyline
 90
       83
 70
             128
 10
-332.90721257914174
 20
-881.99329142507622
 42
-0.0005880684502969
 10
-333.05993343840964
 20
-881.99394077173292
 10
-334.0150070215459
 20
-881.99687829193067
 42
-0.014045810423402
 10
-336.07642669168854
 20
-881.94530301175814
 10
-337.37571366498923
 20
-881.87624093145678
 42
-0.0180029445583995
 10
-342.0193155309089
 20
-881.46137022314338
 10
-342.66902526853528
 20
-881.3796596744005
 42
-0.0155006757969356
 10
-346.89800711547969
 20
-880.71407172134514
 42
-0.011199887552046
 10
-351.08639915591311
 20
-879.82351729742641
 10
-351.76208055297411
 20
-879.66395386856721
 42
-0.0217246281006812
 10
-357.21491749680717
 20
-878.1234081976379
 10
-358.20225524186208
 20
-877.79754233708127
 42
-0.0200901692749622
 10
-365.45343436467419
 20
-875.07675889072289
 10
-365.53199454251171
 20
-875.04362397645446
 42
-0.018994555092691
 10
-372.70357791095375
 20
-871.6925578253954
 10
-372.76628680268459
 20
-871.66029990064044
 42
-0.0177733595309575
 10
-379.79590788131281
 20
-867.72221857288378
 10
-379.83928456229023
 20
-867.69585078317164
 42
-0.0170229042189519
 10
-386.66329199585243
 20
-863.22267875682883
 10
-386.70054405006658
 20
-863.19640466526471
 42
-0.0162504156229928
 10
-393.28507616087063
 20
-858.22422896743979
 10
-393.31573090991469
 20
-858.1994764428689
 42
-0.0152507068867747
 10
-399.63431422200301
 20
-852.77096584158403
 10
-399.67007190130516
 20
-852.7382980325051
 42
-0.0142611314562824
 10
-405.72739687469675
 20
-846.87887749339234
 10
-405.76918597549775
 20
-846.83608053577996
 42
-0.0132948233402819
 10
-411.57612482696823
 20
-840.56383057267453
 10
-411.61644211652856
 20
-840.51789080274443
 42
-0.012285135939388
 10
-417.17366625547311
 20
-833.86276643255451
 10
-417.21279465237876
 20
-833.81349621582422
 42
-0.011369686143019
 10
-422.52528528496714
 20
-826.80244997305135
 10
-422.55713050510712
 20
-826.75837586249622
 42
-0.0104015745475845
 10
-427.62145675307283
 20
-819.43299774442471
 10
-427.64535541395344
 20
-819.39684388599244
 42
-0.0099896189901093
 10
-432.45323181246795
 20
-811.79772542374826
 10
-432.47072863228141
 20
-811.76880785098706
 42
-0.009591375558014
 10
-437.01134981245195
 20
-803.92867733006301
 10
-437.02187035373481
 20
-803.90968078597552
 42
-0.0092730248388897
 10
-441.2839209824474
 20
-795.8653965570727
 10
-441.29320611740786
 20
-795.84705737652803
 42
-0.0089549804212719
 10
-445.2771891128059
 20
-787.61568508453024
 10
-445.28512261660535
 20
-787.59851606840834
 42
-0.0086545183628355
 10
-448.99210900792423
 20
-779.19727787246552
 10
-449.0260581253342
 20
-779.11658478931986
 42
-0.0086350527638802
 10
-452.50547985874982
 20
-770.42969679581188
 10
-452.71802196588669
 20
-769.87130510364227
 42
-0.0100521322030382
 10
-456.27273241941839
 20
-759.93606720366256
 10
-456.52063993225511
 20
-759.19664072642445
 42
-0.0078209590359154
 10
-459.56141225590682
 20
-749.63324730390332
 10
-459.64478857228005
 20
-749.35608425288001
 42
-0.0058386441515044
 10
-462.26309171387129
 20
-740.26887478843446
 42
-0.0046986026371137
 10
-464.68937941367312
 20
-731.12828877415882
 10
-464.7026839739774
 20
-731.07619709664505
 42
-0.0037962493893134
 10
-466.99918551743121
 20
-721.79119046397409
 10
-467.30648362355259
 20
-720.50699556779091
 42
-0.002734658807004
 10
-469.0048215934703
 20
-713.23414278005839
 42
-0.0010376095858857
 10
-470.64826259037591
 20
-705.94859066910021
 10
-471.08387007613783
 20
-703.99865266837492
 42
-0.0019494397409935
 10
-473.5397454791073
 20
-692.80023885334663
 10
-474.20707191982774
 20
-689.69960702489402
 42
-0.0012520253379623
 10
-476.26302497073993
 20
-680.02927093508652
 42
-0.0016855776149482
 10
-478.26212260062812
 20
-670.34704733897343
 10
-478.27882052006271
 20
-670.26477475412821
 42
-0.0020384418709562
 10
-480.22114279169818
 20
-660.49046907398542
 10
-480.24002217111047
 20
-660.3933942213755
 42
-0.0023763090001109
 10
-482.05912700775752
 20
-650.79667403225221
 42
-0.0026301390781451
 10
-483.78204712181105
 20
-641.18224518220518
 10
-484.21394958554401
 20
-638.69686722418464
 42
-0.0064074398002696
 10
-486.56268275592629
 20
-624.07251938778677
 10
-486.57881967318008
 20
-623.96310568444642
 42
-0.0029957454812898
 10
-488.66035361539525
 20
-609.23897368373241
 42
-0.0050525174994527
 10
-490.50456124045468
 20
-594.48373382102614
 10
-490.53694844073107
 20
-594.20145900999842
 42
-0.0022033346628141
 10
-492.11197415592005
 20
-579.91861682994454
 42
-0.0032960112976186
 10
-493.52979859581501
 20
-565.61948756640641
 10
-494.16788564696753
 20
-558.72140152272436
 42
-0.0058362689046959
 10
-496.43924975334539
 20
-530.59024025299595
 10
-496.67469683982199
 20
-527.17815913663458
 42
-0.0050548945275485
 10
-498.70764134898627
 20
-492.63531938870136
 42
-0.0061526938075449
 10
-499.96583353001233
 20
-458.05644334680193
 10
-499.99715612406271
 20
-456.75510477356687
 42
-0.0059688947763428
 10
-500.40722110764045
 20
-422.94317518231918
 42
-0.000099271170515
 10
-500.40721736786691
 20
-422.52570328249539
 42
-0.000099271170515
  0
POLYLINE
  5
183
100
AcDbEntity
  8
ADF70-1801
370
              15
390
0
  6
Continuous
 62
               7
100
AcDb3dPolyline
 66
               1
 10
0.0
 20
0.0
 30
0.0
 70
               8
  0
VERTEX
  5
184
100
AcDbEntity
  8
ADF70-1801
370
              15
390
0
  6
Continuous
 62
               7
100
AcDbVertex
100
AcDb3dPolylineVertex
 10
-635.4072125791422
 20
-919.52570328250749
 30
0.0
 70
              32
  0
VERTEX
  5
185
100
AcDbEntity
  8
ADF70-1801
370
              15
390
0
  6
Continuous
 62
               7
100
AcDbVertex
100
AcDb3dPolylineVertex
 10
-635.34698669300224
 20
-920.12380708575756
 30
0.0
 70
              32
  0
VERTEX
  5
186
100
AcDbEntity
  8
ADF70-1801
370
              15
390
0
  6
Continuous
 62
               7
100
AcDbVertex
100
AcDb3dPolylineVertex
 10
-635.16872713949579
 20
-920.69789666797169
 30
0.0
 70
              32
  0
VERTEX
  5
187
100
AcDbEntity
  8
ADF70-1801
370
              15
390
0
  6
Continuous
 62
               7
100
AcDbVertex
100
AcDb3dPolylineVertex
 10
-634.87959114500381
 20
-921.22492199327598
 30
0.0
 70
              32
  0
VERTEX
  5
188
100
AcDbEntity
  8
ADF70-1801
370
              15
390
0
  6
Continuous
 62
               7
100
AcDbVertex
100
AcDb3dPolylineVertex
 10
-634.49118769051438
 20
-921.6837226835155
 30
0.0
 70
              32
  0
VERTEX
  5
189
100
AcDbEntity
  8
ADF70-1801
370
              15
390
0
  6
Continuous
 62
               7
100
AcDbVertex
100
AcDb3dPolylineVertex
 10
-634.0191114041786
 20
-922.05587761993638
 30
0.0
 70
              32
  0
VERTEX
  5
18A
100
AcDbEntity
  8
ADF70-1801
370
              15
390
0
  6
Continuous
 62
               7
100
AcDbVertex
100
AcDb3dPolylineVertex
 10
-633.482316427775
 20
-922.32644456198796
 30
0.0
 70
              32
  0
VERTEX
  5
18B
100
AcDbEntity
  8
ADF70-1801
370
              15
390
0
  6
Continuous
 62
               7
100
AcDbVertex
100
AcDb3dPolylineVertex
 10
-632.90235539672221
 20
-922.48456008710718
 30
0.0
 70
              32
  0
VERTEX
  5
18C
100
AcDbEntity
  8
ADF70-1801
370
              15
390
0
  6
Continuous
 62
               7
100
AcDbVertex
100
AcDb3dPolylineVertex
 10
-632.3025140890345
 20
-922.5238757635525
 30
0.0
 70
              32
  0
SEQEND
  5
18D
100
AcDbEntity
  8
ADF70-1801
370
              15
390
0
  6
Continuous
 62
               7
  0
LINE
  5
18E
100
AcDbEntity
  8
ADF70-1801
370
              15
390
0
  6
Continuous
 62
               7
100
AcDbLine
 10
-632.30251408903405
 20
77.472469198561839
 30
0.0
 11
-329.0150492829971
 21
66.881437550333658
 31
0.0
  0
LWPOLYLINE
  5
18F
100
AcDbEntity
  8
ADF70-1801
370
              15
390
0
  6
Continuous
 62
               7
100
AcDbPolyline
 90
       70
 70
             128
 10
-329.0150492829971
 20
66.881437550333658
 42
-0.0046753265628313
 10
-327.13376041337642
 20
66.798122625607164
 10
-325.72582153485018
 20
66.722573798716667
 42
-0.0180298517901274
 10
-321.04461507000815
 20
66.301711746963349
 10
-319.64500582569372
 20
66.124820859433783
 42
-0.0172237223672514
 10
-312.24208799120424
 20
64.928900890487739
 42
-0.0164115335155981
 10
-304.93585233856629
 20
63.238004849845311
 42
-0.0156103122709331
 10
-297.74955444103125
 20
61.08184527152207
 42
-0.01486224064467
 10
-290.7047533888408
 20
58.490861629383744
 10
-290.70116743509288
 20
58.489420389876841
 42
-0.0141605880809708
 10
-283.80865148559405
 20
55.489665176736935
 42
-0.0135382439433579
 10
-277.08998123024503
 20
52.111484092063392
 10
-277.08645868315489
 20
52.109591774945272
 42
-0.0129930703512288
 10
-270.56309371037787
 20
48.383663520715118
 42
-0.0125349064857827
 10
-264.23821813771792
 20
44.329601198069724
 10
-264.02797491307956
 20
44.187282502761263
 42
-0.0138009685403093
 10
-257.51338609852701
 20
39.510144897882924
 10
-257.24368893332257
 20
39.305004720618854
 42
-0.0136782957888352
 10
-250.4680225818488
 20
33.852343411852416
 10
-250.40788745290683
 20
33.801178152021521
 42
-0.0129469985479335
 10
-243.81614200574131
 20
27.891925393124211
 42
-0.012193695734059
 10
-237.5302126197239
 20
21.659233213471907
 42
-0.0114461289344093
 10
-231.54175245923716
 20
15.131665261170383
 42
-0.0107196947913837
 10
-225.8455328598011
 20
8.3416563437565969
 10
-225.84240364096604
 20
8.3377595569402843
 42
-0.0100139091611897
 10
-220.42390738870472
 20
1.3059676891317054
 42
-0.009314171330963
 10
-215.27754023676698
 20
-5.9352598733084392
 42
-0.0087805790558357
 10
-210.3950178955929
 20
-13.36028688154687
 42
-0.0085173743545586
 10
-205.77163946256223
 20
-20.950761622284915
 42
-0.0082577088678795
 10
-201.40476489429693
 20
-28.69335708288844
 42
-0.0080543264727583
 10
-197.29232975855712
 20
-36.575091240754375
 10
-196.2948562829979
 20
-38.564296487411582
 42
-0.0153095929428108
 10
-190.68497059015817
 20
-50.662501629112342
 10
-188.93721000980486
 20
-54.755566948222111
 42
-0.0144264630412463
 10
-184.06092172005629
 20
-67.153968135624098
 10
-183.30611079314713
 20
-69.248624165212789
 42
-0.0067668551836619
 10
-180.41078847078188
 20
-77.637624015076369
 42
-0.0060070116434526
 10
-177.73099109345731
 20
-86.096845427621417
 42
-0.0052246360473623
 10
-175.24197267340514
 20
-94.613842217662693
 42
-0.004440062203821
 10
-172.91733872635359
 20
-103.18005385808095
 42
-0.0036564566166402
 10
-170.73069103053695
 20
-111.78695249772176
 42
-0.0028751419566124
 10
-168.65564343129427
 20
-120.42601442598942
 42
-0.0021014583993249
 10
-166.66590606023192
 20
-129.08873721750109
 42
-0.001212830184052
 10
-164.73332188246741
 20
-137.76585759508072
 10
-164.25538886469894
 20
-139.93653181416306
 42
-0.0018540313544842
 10
-161.43631603855465
 20
-152.97014176422778
 10
-160.97494134601766
 20
-155.14219460930752
 42
-0.0029216157229164
 10
-157.38385073873542
 20
-172.54787277311897
 10
-157.16527994439502
 20
-173.63945769874562
 42
-0.0040068529942902
 10
-154.23605202041381
 20
-188.90294954849395
 10
-154.0353272013067
 20
-189.99613558233278
 42
-0.0037229799109447
 10
-151.72754381741743
 20
-203.11391361314071
 42
-0.0042182760090778
 10
-149.6284014096118
 20
-216.2665853837097
 10
-149.46264640474419
 20
-217.36460452948694
 42
-0.0050512807910574
 10
-147.2984242213206
 20
-232.75288917663266
 10
-147.15471716048523
 20
-233.85533568473414
 42
-0.0042817679572442
 10
-145.00933404326224
 20
-251.49084827995392
 10
-144.76009526032249
 20
-253.69708848581053
 42
-0.003491606768119
 10
-143.356529616236
 20
-266.9503923735262
 42
-0.0014365197778201
 10
-142.08363176367357
 20
-280.21715487282
 10
-141.67207626276831
 20
-284.64021488528641
 42
-0.0054007087076511
 10
-139.8532925757363
 20
-306.77640051779093
 10
-139.37945065510303
 20
-313.42230232210926
 42
-0.0055089479156881
 10
-137.24292186558023
 20
-348.89347834411984
 10
-137.02368251235657
 20
-353.35119862302491
 42
-0.0057819518666552
 10
-136.01734220430217
 20
-380.11822276755191
 10
-135.90122015956831
 20
-384.58090775126158
 42
-0.0030335884894235
 10
-135.54499877043963
 20
-402.43636081792437
 42
-0.0031200202579032
 10
-135.40854414978139
 20
-420.29378149634721
 42
-0.0004010515360652
 10
-135.40720715835505
 20
-422.52570328249539
 42
-0.0004010515360652
  0
LWPOLYLINE
  5
190
100
AcDbEntity
  8
ADF70-1801
370
              15
390
0
  6
Continuous
 62
               7
100
AcDbPolyline
 90
       83
 70
             128
 10
-332.90721257914174
 20
36.941884860085565
 42
-0.0005880684505093
 10
-332.75449171983746
 20
36.942534206742266
 10
-331.79941813673759
 20
36.945471726939786
 42
-0.0140458104234193
 10
-329.73799846659585
 20
36.893896446767485
 10
-328.43871149329379
 20
36.824834366466348
 42
-0.0180029445586759
 10
-323.79510962737322
 20
36.409963658152719
 10
-323.14539988974911
 20
36.32825310941007
 42
-0.0155006757968344
 10
-318.91641804280471
 20
35.662665156354024
 42
-0.0111998875519623
 10
-314.72802600236309
 20
34.77211073243393
 10
-314.05234460531028
 20
34.612547303576775
 42
-0.0217246281008876
 10
-308.59950766147858
 20
33.072001632647357
 10
-307.61216991642232
 20
32.746135772089701
 42
-0.0200901692746623
 10
-300.36099079361202
 20
30.025352325733365
 10
-300.28243061577177
 20
29.992217411463571
 42
-0.0189945550928831
 10
-293.11084724732927
 20
26.641151260405934
 10
-293.04813835559889
 20
26.608893335651373
 42
-0.0177733595309235
 10
-286.01851727697613
 20
22.670812007897325
 10
-285.97514059599371
 20
22.644444218182116
 42
-0.0170229042190115
 10
-279.15113316243287
 20
18.17127219184016
 10
-279.1138811082169
 20
18.144998100274734
 42
-0.0162504156229817
 10
-272.52934899740831
 20
13.172822402445263
 10
-272.49869424836879
 20
13.148069877878015
 42
-0.0152507068867546
 10
-266.18011093628093
 20
7.7195592765941115
 10
-266.14435325697832
 20
7.6868914675147266
 42
-0.0142611314562766
 10
-260.087028283579
 20
1.8274709283957122
 10
-260.04523918278528
 20
1.7846739707904931
 42
-0.0132948233402923
 10
-254.23830033131162
 20
-4.4875759923182841
 10
-254.19798304175492
 20
-4.5335157622443489
 42
-0.0122851359393163
 10
-248.64075890279719
 20
-11.188640132451212
 10
-248.60163050590472
 20
-11.23791034916502
 42
-0.0113696861431009
 10
-243.28913987332044
 20
-18.248956591933904
 10
-243.25729465317636
 20
-18.293030702494377
 42
-0.0104015745475879
 10
-238.19296840521019
 20
-25.618408820568277
 10
-238.16906974433095
 20
-25.654562678998843
 42
-0.0099896189901545
 10
-233.36119334581736
 20
-33.253681141242566
 10
-233.34369652600344
 20
-33.282598714003996
 42
-0.0095913755579966
 10
-228.80307534582744
 20
-41.122729234936912
 10
-228.79255480454958
 20
-41.141725779015076
 42
-0.0092730248388807
 10
-224.53050417581699
 20
-49.186010007957123
 10
-224.52121904087653
 20
-49.20434918846189
 42
-0.0089549804212796
 10
-220.53723604548986
 20
-57.435721480433301
 10
-220.52930254167859
 20
-57.452890496580892
 42
-0.0086545183628564
 10
-216.82231615034561
 20
-65.854128692556344
 10
-216.78836703294928
 20
-65.934821775670287
 42
-0.0086350527638384
 10
-213.30894529952275
 20
-74.621709769208053
 10
-213.09640319239679
 20
-75.180101461348329
 42
-0.0100521322030105
 10
-209.54169273886055
 20
-85.115339361342478
 10
-209.29378522602383
 20
-85.854765838580136
 42
-0.0078209590358471
 10
-206.25301290237621
 20
-95.418159261087283
 10
-206.16963658598479
 20
-95.695322312170276
 42
-0.0058386441515353
 10
-203.55133344441128
 20
-104.78253177655637
 42
-0.0046986026370797
 10
-201.12504574460945
 20
-113.92311779083656
 10
-201.11174118430608
 20
-113.97520946834692
 42
-0.0037962493893682
 10
-198.81523964086227
 20
-123.26021610097672
 10
-198.50794153473316
 20
-124.54441099719173
 42
-0.0027346588069888
 10
-196.80960356481319
 20
-131.81726378493084
 42
-0.0010376095858991
 10
-195.1661625679244
 20
-139.10281589581342
 10
-194.73055508214566
 20
-141.05275389661546
 42
-0.0019494397409793
 10
-192.27467967918619
 20
-152.25116771159827
 10
-191.60735323847666
 20
-155.35179953999972
 42
-0.0012520253379734
 10
-189.55140018754355
 20
-165.02213562990431
 42
-0.0016855776150059
 10
-187.55230255767719
 20
-174.7043592259094
 10
-187.53560463823351
 20
-174.78663181079679
 42
-0.002038441870963
 10
-185.5932823665853
 20
-184.56093749100336
 10
-185.57440298716028
 20
-184.65801234367888
 42
-0.0023763090001138
 10
-183.75529815052596
 20
-194.25473253273793
 42
-0.0026301390781398
 10
-182.03237803647426
 20
-203.86916138277644
 10
-181.60047557273947
 20
-206.35453934080618
 42
-0.0064074398003032
 10
-179.25174240235992
 20
-220.97888717719053
 10
-179.23560548509249
 20
-221.08830088062376
 42
-0.0029957454812852
 10
-177.15407154288914
 20
-235.81243288125637
 42
-0.0050525174994321
 10
-175.30986391782562
 20
-250.56767274398948
 10
-175.27747671755424
 20
-250.84994755497229
 42
-0.0022033346628519
 10
-173.70245100236298
 20
-265.13278973504583
 42
-0.0032960112976122
 10
-172.2846265624712
 20
-279.4319189985568
 10
-171.6465395113164
 20
-286.33000504226646
 42
-0.0058362689046912
 10
-169.37517540493855
 20
-314.4611663120034
 10
-169.13972831846331
 20
-317.87324742834409
 42
-0.0050548945275471
 10
-167.10678380929767
 20
-352.41608717628827
 42
-0.0061526938075799
 10
-165.84859162827206
 20
-386.99496321818418
 10
-165.81726903422168
 20
-388.29630179143254
 42
-0.0059688947763091
 10
-165.40720405064349
 20
-422.10823138267159
 42
-0.0000992711707946
 10
-165.40720779041658
 20
-422.52570328249539
 42
-0.0000992711707946
  0
LWPOLYLINE
  5
191
100
AcDbEntity
  8
ADF70-1801
370
              15
390
0
  6
Continuous
 62
               7
100
AcDbPolyline
 90
       83
 70
             128
 10
-332.90721257914174
 20
36.941884860085565
 42
0.0005880684514768
 10
-333.05993343839509
 20
36.942534206741982
 10
-334.0150070215459
 20
36.945471726938649
 42
0.0140458104228497
 10
-336.07642669168854
 20
36.893896446765439
 10
-337.37571366498923
 20
36.824834366464756
 42
0.0180029445586041
 10
-342.01931553091163
 20
36.409963658152321
 10
-342.66902526853346
 20
36.328253109410184
 42
0.0155006757969146
 10
-346.89800711547969
 20
35.662665156354251
 42
0.0111998875519542
 10
-351.08639915591948
 20
34.772110732433646
 10
-351.76208055297411
 20
34.612547303575866
 42
0.0217246281006639
 10
-357.21491749680354
 20
33.072001632647641
 10
-358.20225524186208
 20
32.746135772089929
 42
0.0200901692749446
 10
-365.45343436467101
 20
30.025352325733763
 10
-365.53199454251171
 20
29.992217411463798
 42
0.0189945550927338
 10
-372.70357791095421
 20
26.641151260404797
 10
-372.76628680268459
 20
26.608893335650237
 42
0.0177733595309027
 10
-379.79590788130827
 20
22.670812007896984
 10
-379.83928456228978
 20
22.644444218182343
 42
0.0170229042191168
 10
-386.66329199584698
 20
18.171272191842434
 10
-386.70054405006658
 20
18.144998100274506
 42
0.0162504156228731
 10
-393.28507616087199
 20
13.172822402447821
 10
-393.31573090991469
 20
13.148069877878015
 42
0.0152507068868735
 10
-399.63431422199983
 20
7.7195592765967831
 10
-399.67007190130516
 20
7.686891467514954
 42
0.014261131456223
 10
-405.72739687469993
 20
1.8274709283994071
 10
-405.76918597549775
 20
1.7846739707902657
 42
0.0132948233403822
 10
-411.57612482697323
 20
-4.4875759923206715
 10
-411.61644211652811
 20
-4.5335157622445763
 42
0.0122851359392767
 10
-417.17366625548493
 20
-11.188640132450985
 10
-417.21279465237831
 20
-11.237910349165702
 42
0.0113696861431094
 10
-422.52528528496396
 20
-18.248956591935439
 10
-422.55713050510667
 20
-18.29303070249415
 42
0.0104015745475538
 10
-427.6214567530692
 20
-25.618408820562024
 10
-427.64535541395298
 20
-25.654562678999071
 42
0.0099896189901489
 10
-432.45323181247113
 20
-33.25368114124791
 10
-432.47072863228186
 20
-33.282598714004223
 42
0.0095913755580256
 10
-437.01134981245332
 20
-41.122729234930318
 10
-437.02187035373481
 20
-41.141725779015076
 42
0.009273024838841
 10
-441.2839209824524
 20
-49.186010007927337
 10
-441.29320611740786
 20
-49.204349188462118
 42
0.0089549804213494
 10
-445.27718911281136
 20
-57.435721480471841
 10
-445.28512261660535
 20
-57.452890496582029
 42
0.0086545183627152
 10
-448.99210900793378
 20
-65.854128692546794
 10
-449.0260581253342
 20
-65.934821775670287
 42
0.0086350527639325
 10
-452.50547985875755
 20
-74.621709769197821
 10
-452.71802196588669
 20
-75.180101461347419
 42
0.0100521322029919
 10
-456.27273241942066
 20
-85.115339361336112
 10
-456.52063993226102
 20
-85.854765838583319
 42
0.0078209590358693
 10
-459.56141225590727
 20
-95.418159261087965
 10
-459.64478857229278
 20
-95.695322312151291
 42
0.0058386441514592
 10
-462.26309171387129
 20
-104.78253177655705
 42
0.004698602637031
 10
-464.68937941367631
 20
-113.92311779084656
 10
-464.70268397397695
 20
-113.97520946834578
 42
0.0037962493893591
 10
-466.99918551744031
 20
-123.26021610105425
 10
-467.30648362353941
 20
-124.54441099714478
 42
0.0027346588069888
 10
-469.0048215934703
 20
-131.81726378493062
 42
0.0010376095859326
 10
-470.64826259036045
 20
-139.10281589582092
 10
-471.08387007613783
 20
-141.05275389661659
 42
0.0019494397409366
 10
-473.53974547911594
 20
-152.25116771168433
 10
-474.20707191979318
 20
-155.35179953993537
 42
0.0012520253380066
 10
-476.26302497074039
 20
-165.0221356299034
 42
0.0016855776149359
 10
-478.26212260062266
 20
-174.70435922599023
 10
-478.27882052004134
 20
-174.78663181075609
 42
0.0020384418708847
 10
-480.22114279169818
 20
-184.56093749100381
 10
-480.24002217111274
 20
-184.65801234362488
 42
0.0023763090000934
 10
-482.05912700775798
 20
-194.25473253273748
 42
0.0026301390781689
 10
-483.78204712180241
 20
-203.86916138273324
 10
-484.21394958554447
 20
-206.3545393408055
 42
0.0064074398002837
 10
-486.56268275592493
 20
-220.9788871772019
 10
-486.57881967318144
 20
-221.08830088056112
 42
0.0029957454813014
 10
-488.6603536153948
 20
-235.81243288125728
 42
0.0050525174994582
 10
-490.50456124046013
 20
-250.56767274401062
 10
-490.53694844073289
 20
-250.84994755500833
 42
0.0022033346628078
 10
-492.11197415592051
 20
-265.13278973504606
 42
0.0032960112976396
 10
-493.52979859581592
 20
-279.43191899859306
 10
-494.16788564696708
 20
-286.33000504226601
 42
0.0058362689046888
 10
-496.43924975334357
 20
-314.46116631198203
 10
-496.6746968398179
 20
-317.87324742830714
 42
0.0050548945275485
 10
-498.70764134898627
 20
-352.41608717628895
 42
0.0061526938075641
 10
-499.96583353001097
 20
-386.9949632181544
 10
-499.99715612406226
 20
-388.29630179143254
 42
0.0059688947763231
 10
-500.40722110764045
 20
-422.10823138267159
 42
0.0000992677220883
 10
-500.40721736786691
 20
-422.52570328249539
 42
0.0000992677220883
  0
ARC
  5
192
100
AcDbEntity
  8
ADF70-1801
370
              15
390
0
  6
Continuous
 62
               7
100
AcDbCircle
 10
-632.40721257914174
 20
74.474296717504615
 30
0.0
 40
3.0000000000000009
100
AcDbArc
 50
87.999999999996348
 51
179.99999999976555
  0
LINE
  5
193
100
AcDbEntity
  8
ADF70-1801
370
              15
390
0
  6
Continuous
 62
               7
100
AcDbLine
 10
-635.40721257914174
 20
-919.52570328249521
 30
0.0
 11
-635.40721257914174
 21
74.474296717504558
 31
0.0
  0
CIRCLE
  5
194
100
AcDbEntity
  8
ADF70-1801
370
              15
390
0
  6
STYLE_23
 62
               7
100
AcDbCircle
 10
-550.40717735564067
 20
-422.5259318790151
 30
0.0
 40
17.5
  0
CIRCLE
  5
195
100
AcDbEntity
  8
ADF70-1801
370
              15
390
0
  6
Continuous
 62
               7
100
AcDbCircle
 10
-375.40721257914174
 20
-422.52593187901556
 30
0.0
 40
41.049999999999727
  0
CIRCLE
  5
196
100
AcDbEntity
  8
ADF70-1801
370
              15
390
0
  6
Continuous
 62
               7
100
AcDbCircle
 10
-375.40721257914174
 20
-422.52593187901556
 30
0.0
 40
24.049999999999727
  0
ARC
  5
197
100
AcDbEntity
  8
ADF70-1801
370
              15
390
0
  6
Continuous
 62
               7
100
AcDbCircle
 10
450.02581092995729
 20
-810.67512016895716
 30
0.0
 40
113.74024769764533
100
AcDbArc
 50
280.55507242615812
 51
308.34994486238855
  0
ARC
  5
198
100
AcDbEntity
  8
ADF70-1801
370
              15
390
0
  6
Continuous
 62
               7
100
AcDbCircle
 10
422.62981486862759
 20
-782.17233113519842
 30
0.0
 40
153.13850843758499
100
AcDbArc
 50
309.77183554411511
 51
331.03010490947247
  0
ARC
  5
199
100
AcDbEntity
  8
ADF70-1801
370
              15
390
0
  6
Continuous
 62
               7
100
AcDbCircle
 10
612.86271193654261
 20
-825.12811529393093
 30
0.0
 40
31.809038022235292
100
AcDbArc
 50
113.38357901807466
 51
135.75711925981946
  0
ARC
  5
19A
100
AcDbEntity
  8
ADF70-1801
370
              15
390
0
  6
Continuous
 62
               7
100
AcDbCircle
 10
670.86845272129517
 20
-878.62341521569033
 30
0.0
 40
110.70826602902216
100
AcDbArc
 50
136.86848066822827
 51
153.85176687367613
  0
ARC
  5
19B
100
AcDbEntity
  8
ADF70-1801
370
              15
390
0
  6
Continuous
 62
               7
100
AcDbCircle
 10
214.62204826023094
 20
-646.91048071937166
 30
0.0
 40
401.01913891223114
100
AcDbArc
 50
328.51632595753682
 51
332.86113255671967
  0
LINE
  5
19C
100
AcDbEntity
  8
ADF70-1801
370
              15
390
0
  6
Continuous
 62
               7
100
AcDbLine
 10
603.85687771625567
 20
-54.557210463934041
 30
0.0
 11
603.85687771625567
 21
-790.42439365604196
 31
0.0
  0
ARC
  5
19D
100
AcDbEntity
  8
ADF70-1801
370
              15
390
0
  6
Continuous
 62
               7
100
AcDbCircle
 10
597.85687771625612
 20
-790.42439365604196
 30
0.0
 40
5.9999999999996065
100
AcDbArc
 50
293.38357901806927
 51
0.0
  0
ARC
  5
19E
100
AcDbEntity
  8
ADF70-1801
370
              15
390
0
  6
Continuous
 62
               7
100
AcDbCircle
 10
469.76172779337253
 20
-916.59232632315252
 30
0.0
 40
6.0
100
AcDbArc
 50
180.0
 51
280.55507242615556
  0
ARC
  5
19F
100
AcDbEntity
  8
ADF70-1801
370
              15
390
0
  6
STYLE_23
 62
               7
100
AcDbCircle
 10
637.48472714516924
 20
-1096.1006421282032
 30
0.0
 40
275.70850639726206
100
AcDbArc
 50
116.59673813633117
 51
124.67088669135347
  0
ARC
  5
1A0
100
AcDbEntity
  8
ADF70-1801
370
              15
390
0
  6
STYLE_23
 62
               7
100
AcDbCircle
 10
511.98117860879961
 20
-908.48846469283035
 30
0.0
 40
50.138668755968844
100
AcDbArc
 50
128.68188447425035
 51
164.10306504310441
  0
ARC
  5
1A1
100
AcDbEntity
  8
ADF70-1801
370
              15
390
0
  6
STYLE_23
 62
               7
100
AcDbCircle
 10
468.06806765985789
 20
-789.08284555826003
 30
0.0
 40
75.977293472591498
100
AcDbArc
 50
307.24157462602699
 51
343.15492605394246
  0
ARC
  5
1A2
100
AcDbEntity
  8
ADF70-1801
370
              15
390
0
  6
STYLE_23
 62
               7
100
AcDbCircle
 10
54.410350421957219
 20
-644.78067756093196
 30
0.0
 40
514.02596519130225
100
AcDbArc
 50
341.12152719022959
 51
353.34476007550842
  0
ARC
  5
1A3
100
AcDbEntity
  8
ADF70-1801
370
              15
390
0
  6
STYLE_23
 62
               7
100
AcDbCircle
 10
595.72283465599844
 20
-468.60785062137194
 30
0.0
 40
20.214464377713782
100
AcDbArc
 50
153.85905998139972
 51
176.65350939306421
  0
LINE
  5
1A4
100
AcDbEntity
  8
ADF70-1801
370
              15
390
0
  6
STYLE_23
 62
               7
100
AcDbLine
 10
584.85119242352698
 20
-448.4745032215032
 30
0.0
 11
577.57604733295489
 21
-459.70174710018574
 31
0.0
  0
ARC
  5
1A5
100
AcDbEntity
  8
ADF70-1801
370
              15
390
0
  6
Continuous
 62
               7
100
AcDbCircle
 10
609.69602997608854
 20
658.89063669419818
 30
0.0
 40
26.356529206906057
100
AcDbArc
 50
111.04233270071838
 51
129.21685868506438
  0
ARC
  5
1A6
100
AcDbEntity
  8
ADF70-1801
370
              15
390
0
  6
Continuous
 62
               7
100
AcDbCircle
 10
661.82013027266885
 20
614.1632169130221
 30
0.0
 40
94.741736729068109
100
AcDbArc
 50
136.55711893766608
 51
144.86733802772207
  0
ARC
  5
1A7
100
AcDbEntity
  8
ADF70-1801
370
              15
390
0
  6
Continuous
 62
               7
100
AcDbCircle
 10
465.09804225021526
 20
687.44535340988193
 30
0.0
 40
123.56076155437516
100
AcDbArc
 50
272.38148598613236
 51
287.0795756391766
  0
ARC
  5
1A8
100
AcDbEntity
  8
ADF70-1801
370
              15
390
0
  6
Continuous
 62
               7
100
AcDbCircle
 10
468.26769772774333
 20
657.02485287647767
 30
0.0
 40
93.737154248820573
100
AcDbArc
 50
292.24234286209241
 51
315.46397584069103
  0
ARC
  5
1A9
100
AcDbEntity
  8
ADF70-1801
370
              15
390
0
  6
Continuous
 62
               7
100
AcDbCircle
 10
393.02087105456576
 20
722.9086953397931
 30
0.0
 40
193.66918541810128
100
AcDbArc
 50
317.18376414493878
 51
332.04535857254888
  0
ARC
  5
1AA
100
AcDbEntity
  8
ADF70-1801
370
              15
390
0
  6
Continuous
 62
               7
100
AcDbCircle
 10
277.56236006309609
 20
798.18113271362893
 30
0.0
 40
331.17246901168085
100
AcDbArc
 50
329.90546678623394
 51
333.43485947019593
  0
ARC
  5
1AB
100
AcDbEntity
  8
ADF70-1801
370
              15
390
0
  6
Continuous
 62
               7
100
AcDbCircle
 10
788.93127231385415
 20
540.20621379507247
 30
0.0
 40
241.58836376594931
100
AcDbArc
 50
147.87242953618855
 51
152.94920134055789
  0
ARC
  5
1AC
100
AcDbEntity
  8
ADF70-1801
370
              15
390
0
  6
Continuous
 62
               7
100
AcDbCircle
 10
598.07817151357222
 20
689.08948347784724
 30
0.0
 40
6.0000000000001057
100
AcDbArc
 50
291.04233270071524
 51
0.0
  0
LINE
  5
1AD
100
AcDbEntity
  8
ADF70-1801
370
              15
390
0
  6
Continuous
 62
               7
100
AcDbLine
 10
463.98302159068862
 20
569.98612799915554
 30
0.0
 11
463.98302159068862
 21
1063.4550015820782
 31
0.0
  0
ARC
  5
1AE
100
AcDbEntity
  8
ADF70-1801
370
              15
390
0
  6
Continuous
 62
               7
100
AcDbCircle
 10
469.98302159068862
 20
569.98612799915554
 30
0.0
 40
6.0
100
AcDbArc
 50
180.0
 51
272.38148598613549
  0
ARC
  5
1AF
100
AcDbEntity
  8
ADF70-1801
370
              15
390
0
  6
STYLE_23
 62
               7
100
AcDbCircle
 10
459.66675858333519
 20
733.24294267477751
 30
0.0
 40
114.87548537279243
100
AcDbArc
 50
327.27104683100202
 51
352.94285426222035
  0
ARC
  5
1B0
100
AcDbEntity
  8
ADF70-1801
370
              15
390
0
  6
STYLE_23
 62
               7
100
AcDbCircle
 10
425.4638450475054
 20
745.37480740284798
 30
0.0
 40
150.43594543499697
100
AcDbArc
 50
301.62735401697222
 51
330.42870279377325
  0
ARC
  5
1B1
100
AcDbEntity
  8
ADF70-1801
370
              15
390
0
  6
STYLE_23
 62
               7
100
AcDbCircle
 10
564.48820700836677
 20
477.86047669972857
 30
0.0
 40
151.83819097807174
100
AcDbArc
 50
113.33203838797968
 51
125.58434946635356
  0
ARC
  5
1B2
100
AcDbEntity
  8
ADF70-1801
370
              15
390
0
  6
STYLE_23
 62
               7
100
AcDbCircle
 10
492.67845305446099
 20
577.89670847004163
 30
0.0
 40
28.69721567488412
100
AcDbArc
 50
125.20736827916477
 51
179.87224209654462
  0
ARC
  5
1B3
100
AcDbEntity
  8
ADF70-1801
370
              15
390
0
  6
STYLE_23
 62
               7
100
AcDbCircle
 10
595.94412845331499
 20
851.55239079700868
 30
0.0
 40
20.214464377714322
100
AcDbArc
 50
183.34649060693829
 51
206.14094001860207
  0
LINE
  5
1B4
100
AcDbEntity
  8
ADF70-1801
370
              15
390
0
  6
STYLE_23
 62
               7
100
AcDbLine
 10
586.37431151956844
 20
829.41002365467762
 30
0.0
 11
577.79734113027098
 21
842.64628727582158
 31
0.0
  0
ARC
  5
1B5
100
AcDbEntity
  8
ADF70-1801
370
              15
390
0
  6
STYLE_23
 62
               7
100
AcDbCircle
 10
527.13309731351865
 20
844.26645989774397
 30
0.0
 40
48.99180180018908
100
AcDbArc
 50
6.2015998704022923
 51
53.291611924926436
  0
ARC
  5
1B6
100
AcDbEntity
  8
ADF70-1801
370
              15
390
0
  6
STYLE_23
 62
               7
100
AcDbCircle
 10
493.09399630102052
 20
781.51778386620936
 30
0.0
 40
120.07889382511887
100
AcDbArc
 50
58.173432310469998
 51
79.265187702461688
  0
ARC
  5
1B7
100
AcDbEntity
  8
ADF70-1801
370
              15
390
0
  6
STYLE_23
 62
               7
100
AcDbCircle
 10
425.63179267587248
 20
587.96807683039242
 30
0.0
 40
324.21961613477049
100
AcDbArc
 50
73.91514061622216
 51
77.774951484149938
  0
ARC
  5
1B8
100
AcDbEntity
  8
ADF70-1801
370
              15
390
0
  6
STYLE_23
 62
               7
100
AcDbCircle
 10
517.71170707825058
 20
970.15994873218142
 30
0.0
 40
69.397758067905116
100
AcDbArc
 50
229.72813515322883
 51
250.27186484677196
  0
ARC
  5
1B9
100
AcDbEntity
  8
ADF70-1801
370
              15
390
0
  6
STYLE_23
 62
               7
100
AcDbCircle
 10
492.36937643510009
 20
938.11058094552163
 30
0.0
 40
28.596259727405517
100
AcDbArc
 50
187.03449446878093
 51
226.95935221645183
  0
LINE
  5
1BA
100
AcDbEntity
  8
ADF70-1801
370
              15
390
0
  6
Continuous
 62
               7
100
AcDbLine
 10
463.98302159068862
 20
1063.4550015820782
 30
0.0
 11
604.07817151357176
 21
1063.4550015820782
 31
0.0
  0
LINE
  5
1BB
100
AcDbEntity
  8
ADF70-1801
370
              15
390
0
  6
Continuous
 62
               7
100
AcDbLine
 10
604.07817151357176
 20
689.08948347784724
 30
0.0
 11
604.07817151357176
 21
1063.4550015820782
 31
0.0
  0
ARC
  5
1BC
100
AcDbEntity
  8
ADF70-1801
370
              15
390
0
  6
Continuous
 62
               7
100
AcDbCircle
 10
450.02581092995729
 20
-34.306483951018834
 30
0.0
 40
113.74024769764553
100
AcDbArc
 50
51.650055137611467
 51
79.444927573841682
  0
ARC
  5
1BD
100
AcDbEntity
  8
ADF70-1801
370
              15
390
0
  6
Continuous
 62
               7
100
AcDbCircle
 10
422.62981486862805
 20
-62.809272984777579
 30
0.0
 40
153.13850843758462
100
AcDbArc
 50
28.969895090527622
 51
50.228164455885036
  0
ARC
  5
1BE
100
AcDbEntity
  8
ADF70-1801
370
              15
390
0
  6
Continuous
 62
               7
100
AcDbCircle
 10
612.86271193654261
 20
-19.853488826045066
 30
0.0
 40
31.809038022235217
100
AcDbArc
 50
224.24288074018057
 51
246.61642098192615
  0
ARC
  5
1BF
100
AcDbEntity
  8
ADF70-1801
370
              15
390
0
  6
Continuous
 62
               7
100
AcDbCircle
 10
670.86845272129517
 20
33.641811095714331
 30
0.0
 40
110.70826602902214
100
AcDbArc
 50
206.14823312632387
 51
223.13151933177176
  0
ARC
  5
1C0
100
AcDbEntity
  8
ADF70-1801
370
              15
390
0
  6
Continuous
 62
               7
100
AcDbCircle
 10
214.62204826023094
 20
-198.07112340060434
 30
0.0
 40
401.01913891223114
100
AcDbArc
 50
27.138867443280414
 51
31.483674042463267
  0
ARC
  5
1C1
100
AcDbEntity
  8
ADF70-1801
370
              15
390
0
  6
Continuous
 62
               7
100
AcDbCircle
 10
597.85687771625612
 20
-54.557210463934041
 30
0.0
 40
5.9999999999995453
100
AcDbArc
 50
0.0
 51
66.616420981926751
  0
LINE
  5
1C2
100
AcDbEntity
  8
ADF70-1801
370
              15
390
0
  6
Continuous
 62
               7
100
AcDbLine
 10
463.76172779337253
 20
-916.59232632315252
 30
0.0
 11
463.76172779337253
 21
71.610722203176579
 31
0.0
  0
ARC
  5
1C3
100
AcDbEntity
  8
ADF70-1801
370
              15
390
0
  6
Continuous
 62
               7
100
AcDbCircle
 10
469.76172779337253
 20
71.610722203176579
 30
0.0
 40
6.0000000000001412
100
AcDbArc
 50
79.444927573840189
 51
180.0
  0
ARC
  5
1C4
100
AcDbEntity
  8
ADF70-1801
370
              15
390
0
  6
STYLE_23
 62
               7
100
AcDbCircle
 10
637.4847271451697
 20
251.11903800822765
 30
0.0
 40
275.70850639726262
100
AcDbArc
 50
235.32911330864653
 51
243.4032618636688
  0
ARC
  5
1C5
100
AcDbEntity
  8
ADF70-1801
370
              15
390
0
  6
STYLE_23
 62
               7
100
AcDbCircle
 10
511.98117860879961
 20
63.506860572854862
 30
0.0
 40
50.138668755969263
100
AcDbArc
 50
195.89693495689608
 51
231.31811552574999
  0
ARC
  5
1C6
100
AcDbEntity
  8
ADF70-1801
370
              15
390
0
  6
STYLE_23
 62
               7
100
AcDbCircle
 10
468.06806765985834
 20
-55.898758561715965
 30
0.0
 40
75.977293472591185
100
AcDbArc
 50
16.845073946057706
 51
52.75842537397331
  0
ARC
  5
1C7
100
AcDbEntity
  8
ADF70-1801
370
              15
390
0
  6
STYLE_23
 62
               7
100
AcDbCircle
 10
54.410350421957219
 20
-200.20092655904404
 30
0.0
 40
514.02596519130225
100
AcDbArc
 50
6.6552399244915419
 51
18.8784728097704
  0
ARC
  5
1C8
100
AcDbEntity
  8
ADF70-1801
370
              15
390
0
  6
STYLE_23
 62
               7
100
AcDbCircle
 10
595.72283465599844
 20
-376.3742106916456
 30
0.0
 40
20.214464377713814
100
AcDbArc
 50
183.34649060693579
 51
206.14094001860028
  0
LINE
  5
1C9
100
AcDbEntity
  8
ADF70-1801
370
              15
390
0
  6
STYLE_23
 62
               7
100
AcDbLine
 10
584.82977318850544
 20
-396.4745032215032
 30
0.0
 11
577.57604733295489
 21
-385.2803142128318
 31
0.0
  0
ARC
  5
1CA
100
AcDbEntity
  8
ADF70-1801
370
              15
390
0
  6
STYLE_23
 62
               7
100
AcDbCircle
 10
-1967.9340723424975
 20
-472.65092140820735
 30
0.0
 40
2543.482275561495
100
AcDbArc
 50
354.77330050488274
 51
0.1176576558230522
  0
ARC
  5
1CB
100
AcDbEntity
  8
ADF70-1801
370
              15
390
0
  6
STYLE_23
 62
               7
100
AcDbCircle
 10
-1967.9340723424975
 20
-372.3306827117687
 30
0.0
 40
2543.482275561495
100
AcDbArc
 50
359.88234234417689
 51
5.2266994951172583
  0
LINE
  5
1CC
100
AcDbEntity
  8
ADF70-1801
370
              15
390
0
  6
STYLE_23
 62
               7
100
AcDbLine
 10
503.76172779337253
 20
-302.49103065650883
 30
0.0
 11
503.76172779337253
 21
-262.49103065650883
 31
0.0
  0
LINE
  5
1CD
100
AcDbEntity
  8
ADF70-1801
370
              15
390
0
  6
STYLE_23
 62
               7
100
AcDbLine
 10
523.76172779337253
 20
-282.49103065650883
 30
0.0
 11
483.76172779337253
 21
-282.49103065650883
 31
0.0
  0
CIRCLE
  5
1CE
100
AcDbEntity
  8
ADF70-1801
370
              15
390
0
  6
STYLE_23
 62
               7
100
AcDbCircle
 10
503.76172779337253
 20
-282.4908020599882
 30
0.0
 40
10.0
  0
LINE
  5
1CF
100
AcDbEntity
  8
ADF70-1801
370
              15
390
0
  6
STYLE_23
 62
               7
100
AcDbLine
 10
503.76172779337253
 20
-582.49103065650843
 30
0.0
 11
503.76172779337253
 21
-542.49103065650843
 31
0.0
  0
LINE
  5
1D0
100
AcDbEntity
  8
ADF70-1801
370
              15
390
0
  6
STYLE_23
 62
               7
100
AcDbLine
 10
523.76172779337253
 20
-562.49103065650843
 30
0.0
 11
483.76172779337253
 21
-562.49103065650843
 31
0.0
  0
CIRCLE
  5
1D1
100
AcDbEntity
  8
ADF70-1801
370
              15
390
0
  6
STYLE_23
 62
               7
100
AcDbCircle
 10
503.76172779337253
 20
-562.4908020599878
 30
0.0
 40
10.0
  0
POLYLINE
  5
1D2
100
AcDbEntity
  8
ADF70-1801
370
              15
390
0
  6
Continuous
 62
               7
100
AcDb2dPolyline
 66
               1
 10
0.0
 20
0.0
 30
0.0
 70
               1
 75
               5
  0
VERTEX
  5
1D3
100
AcDbEntity
  8
ADF70-1801
370
              15
390
0
  6
Continuous
 62
               7
100
AcDbVertex
100
AcDb2dVertex
 10
-635.40721257914174
 20
965.41002365467762
 30
0.0
  0
VERTEX
  5
1D4
100
AcDbEntity
  8
ADF70-1801
370
              15
390
0
  6
Continuous
 62
               7
100
AcDbVertex
100
AcDb2dVertex
 10
-335.40721257914174
 20
965.41002365467762
 30
0.0
  0
VERTEX
  5
1D5
100
AcDbEntity
  8
ADF70-1801
370
              15
390
0
  6
Continuous
 62
               7
100
AcDbVertex
100
AcDb2dVertex
 10
-335.40721257914174
 20
645.41002365467762
 30
0.0
  0
VERTEX
  5
1D6
100
AcDbEntity
  8
ADF70-1801
370
              15
390
0
  6
Continuous
 62
               7
100
AcDbVertex
100
AcDb2dVertex
 10
-635.40721257914174
 20
645.41002365467762
 30
0.0
  0
SEQEND
  5
1D7
100
AcDbEntity
  8
ADF70-1801
370
              15
390
0
  6
Continuous
 62
               7
  0
LINE
  5
1D8
100
AcDbEntity
  8
ADF70-1801
370
               5
390
0
  6
Continuous
 62
               7
100
AcDbLine
 10
-635.39337391508207
 20
255.46495686985369
 30
0.0
 11
-635.39337391508207
 21
1355.4649568698537
 31
0.0
  0
LINE
  5
1D9
100
AcDbEntity
  8
ADF70-1801
370
               5
390
0
  6
Continuous
 62
               7
100
AcDbLine
 10
-635.39337391508207
 20
1264.1649568698538
 30
0.0
 11
-672.39337391508207
 21
1301.1649568698538
 31
0.0
  0
LINE
  5
1DA
100
AcDbEntity
  8
ADF70-1801
370
               5
390
0
  6
Continuous
 62
               7
100
AcDbLine
 10
-635.39337391508207
 20
1284.1649568698538
 30
0.0
 11
-672.39337391508207
 21
1321.1649568698538
 31
0.0
  0
LINE
  5
1DB
100
AcDbEntity
  8
ADF70-1801
370
               5
390
0
  6
Continuous
 62
               7
100
AcDbLine
 10
-635.39337391508207
 20
1304.1649568698538
 30
0.0
 11
-672.39337391508207
 21
1341.1649568698538
 31
0.0
  0
CIRCLE
  5
1DC
100
AcDbEntity
  8
ADF70-1801
370
               5
390
0
  6
STYLE_23
 62
               7
100
AcDbCircle
 10
-547.40717735564067
 20
905.45523017859705
 30
0.0
 40
17.5
  0
CIRCLE
  5
1DD
100
AcDbEntity
  8
ADF70-1801
370
               5
390
0
  6
STYLE_23
 62
               7
100
AcDbCircle
 10
-547.40717735564067
 20
705.45523017860239
 30
0.0
 40
17.5
  0
LINE
  5
1DE
100
AcDbEntity
  8
ADF70-1801
370
               5
390
0
  6
STYLE_23
 62
               7
100
AcDbLine
 10
-632.30251408903405
 20
305.45705769754102
 30
0.0
 11
-329.0150492829971
 21
316.0480893457692
 31
0.0
  0
LWPOLYLINE
  5
1DF
100
AcDbEntity
  8
ADF70-1801
370
               5
390
0
  6
STYLE_23
 62
               7
100
AcDbPolyline
 90
       70
 70
             128
 10
-329.0150492829971
 20
316.0480893457692
 42
0.0046753265628535
 10
-327.13376041337006
 20
316.13140427049598
 10
-325.72582153485018
 20
316.20695309738619
 42
0.0180298517900831
 10
-321.04461507001133
 20
316.62781514913843
 10
-319.64500582569099
 20
316.80470603666845
 42
0.0172237223673853
 10
-312.24208799120424
 20
318.00062600561466
 42
0.0164117225314842
 10
-304.93585233856629
 20
319.69152204625868
 42
0.015622892801289
 10
-297.74955444103125
 20
321.84768162458033
 42
0.0148622406450186
 10
-290.70475338883489
 20
324.43866526672139
 10
-290.70116743509288
 20
324.44010650622602
 42
0.0141711934946863
 10
-283.80865148559405
 20
327.43986171936751
 42
0.0135385082040045
 10
-277.08998123024503
 20
330.81804280404083
 10
-277.08645868315125
 20
330.81993512116082
 42
0.0129930703510391
 10
-270.56309371037787
 20
334.54586337538774
 42
0.0125349064860287
 10
-264.23821813771792
 20
338.59992569803251
 10
-264.02797491307911
 20
338.74224439334137
 42
0.0138009685402258
 10
-257.51338609853019
 20
343.41938199821902
 10
-257.24368893332257
 20
343.62452217548537
 42
0.0136782957887641
 10
-250.4680225818438
 20
349.07718348425499
 10
-250.40788745290638
 20
349.12834874408202
 42
0.0129391324972205
 10
-243.81614200574177
 20
355.03760150297956
 42
0.0121984768503001
 10
-237.53021261972435
 20
361.27029368263163
 42
0.0114571095657582
 10
-231.54175245923716
 20
367.79786163493316
 42
0.0107196947912594
 10
-225.84553285980155
 20
374.58787055234677
 10
-225.84240364096604
 20
374.59176733916377
 42
0.0100232247778943
 10
-220.42390738870472
 20
381.62355920697121
 42
0.0093185060761926
 10
-215.27754023676607
 20
388.86478676941186
 42
0.0087816691397149
 10
-210.39501789559245
 20
396.28981377765035
 42
0.0085184144607007
 10
-205.77163946256223
 20
403.88028851838862
 42
0.0082593211673693
 10
-201.40476489429693
 20
411.62288397899306
 42
0.0080543264727677
 10
-197.29232975856439
 20
419.50461813684393
 10
-196.2948562829979
 20
421.49382338351461
 42
0.0153095929428017
 10
-190.68497059015954
 20
433.59202852521207
 10
-188.93721000980213
 20
437.68509384433145
 42
0.0144264630412395
 10
-184.06092172005629
 20
450.08349503172826
 10
-183.30611079314758
 20
452.17815106131559
 42
0.0067668551836034
 10
-180.41078847078188
 20
460.56715091117957
 42
0.0060053693604213
 10
-177.73099109345731
 20
469.02637232372439
 42
0.0052255300935044
 10
-175.24197267340514
 20
477.54336911376635
 42
0.0044419564212165
 10
-172.91733872635359
 20
486.10958075418415
 42
0.0036583408383266
 10
-170.73069103053649
 20
494.71647939382427
 42
0.0028764841800208
 10
-168.65564343129427
 20
503.35554132209217
 42
0.0021021114160398
 10
-166.66590606023192
 20
512.01826411360514
 42
0.0012128301840005
 10
-164.73332188245149
 20
520.69538449125548
 10
-164.25538886469894
 20
522.8660587102662
 42
0.0018540313544917
 10
-161.43631603850554
 20
535.89966866056034
 10
-160.97494134601766
 20
538.07172150541066
 42
0.0029204509395007
 10
-157.38385073873542
 20
555.47739966922313
 10
-157.16527994438866
 20
556.56898459488161
 42
0.0040068529942867
 10
-154.23605202041335
 20
571.83247644459675
 10
-154.03532720130715
 20
572.92566247842865
 42
0.0037229799109484
 10
-151.72754381741743
 20
586.04344050924396
 42
0.0042182760090499
 10
-149.62840140961498
 20
599.19611227979078
 10
-149.46264640474419
 20
600.29413142559042
 42
0.0050512807910684
 10
-147.29842422131878
 20
615.6824160727499
 10
-147.15471716048523
 20
616.7848625808374
 42
0.0042827856325657
 10
-145.00933404326224
 20
634.42037517605695
 10
-144.76009526032794
 20
636.6266153818633
 42
0.0034916067681449
 10
-143.356529616236
 20
649.87991926962877
 42
0.0014365197778297
 10
-142.08363176366811
 20
663.14668176898181
 10
-141.67207626276831
 20
667.56974178138842
 42
0.0054007087076331
 10
-139.8532925757363
 20
689.70592741389498
 10
-139.37945065510303
 20
696.35182921821195
 42
0.0055089479156919
 10
-137.2429218655775
 20
731.82300524026709
 10
-137.0236825123543
 20
736.28072551917126
 42
0.0057819518666564
 10
-136.01734220430171
 20
763.0477496636554
 10
-135.90122015956604
 20
767.51043464743702
 42
0.003033588489419
 10
-135.54499877043918
 20
785.36588771402785
 42
0.0031196550874494
 10
-135.40854414978139
 20
803.22330839245024
 42
0.000401069755895
 10
-135.40720715835505
 20
805.45523017859841
 42
0.000401069755895
  0
POLYLINE
  5
1E0
100
AcDbEntity
  8
ADF70-1801
370
               5
390
0
  6
Continuous
 62
               7
100
AcDb3dPolyline
 66
               1
 10
0.0
 20
0.0
 30
0.0
 70
               8
  0
VERTEX
  5
1E1
100
AcDbEntity
  8
ADF70-1801
370
               5
390
0
  6
Continuous
 62
               7
100
AcDbVertex
100
AcDb3dPolylineVertex
 10
-635.4072125791422
 20
308.45523017858579
 30
0.0
 70
              32
  0
VERTEX
  5
1E2
100
AcDbEntity
  8
ADF70-1801
370
               5
390
0
  6
Continuous
 62
               7
100
AcDbVertex
100
AcDb3dPolylineVertex
 10
-635.34698669300224
 20
307.85712637533572
 30
0.0
 70
              32
  0
VERTEX
  5
1E3
100
AcDbEntity
  8
ADF70-1801
370
               5
390
0
  6
Continuous
 62
               7
100
AcDbVertex
100
AcDb3dPolylineVertex
 10
-635.16872713949579
 20
307.2830367931216
 30
0.0
 70
              32
  0
VERTEX
  5
1E4
100
AcDbEntity
  8
ADF70-1801
370
               5
390
0
  6
Continuous
 62
               7
100
AcDbVertex
100
AcDb3dPolylineVertex
 10
-634.87959114500381
 20
306.7560114678173
 30
0.0
 70
              32
  0
VERTEX
  5
1E5
100
AcDbEntity
  8
ADF70-1801
370
               5
390
0
  6
Continuous
 62
               7
100
AcDbVertex
100
AcDb3dPolylineVertex
 10
-634.49118769051438
 20
306.29721077757779
 30
0.0
 70
              32
  0
VERTEX
  5
1E6
100
AcDbEntity
  8
ADF70-1801
370
               5
390
0
  6
Continuous
 62
               7
100
AcDbVertex
100
AcDb3dPolylineVertex
 10
-634.0191114041786
 20
305.9250558411569
 30
0.0
 70
              32
  0
VERTEX
  5
1E7
100
AcDbEntity
  8
ADF70-1801
370
               5
390
0
  6
Continuous
 62
               7
100
AcDbVertex
100
AcDb3dPolylineVertex
 10
-633.482316427775
 20
305.65448889910533
 30
0.0
 70
              32
  0
VERTEX
  5
1E8
100
AcDbEntity
  8
ADF70-1801
370
               5
390
0
  6
Continuous
 62
               7
100
AcDbVertex
100
AcDb3dPolylineVertex
 10
-632.90235539672221
 20
305.4963733739861
 30
0.0
 70
              32
  0
VERTEX
  5
1E9
100
AcDbEntity
  8
ADF70-1801
370
               5
390
0
  6
Continuous
 62
               7
100
AcDbVertex
100
AcDb3dPolylineVertex
 10
-632.3025140890345
 20
305.45705769754079
 30
0.0
 70
              32
  0
SEQEND
  5
1EA
100
AcDbEntity
  8
ADF70-1801
370
               5
390
0
  6
Continuous
 62
               7
  0
LINE
  5
1EB
100
AcDbEntity
  8
ADF70-1801
370
               5
390
0
  6
STYLE_23
 62
               7
100
AcDbLine
 10
-632.30251408903405
 20
1305.4534026596557
 30
0.0
 11
-329.0150492829971
 21
1294.8623710114275
 31
0.0
  0
LWPOLYLINE
  5
1EC
100
AcDbEntity
  8
ADF70-1801
370
               5
390
0
  6
STYLE_23
 62
               7
100
AcDbPolyline
 90
       70
 70
             128
 10
-329.0150492829971
 20
1294.8623710114275
 42
-0.0046753265628743
 10
-327.1337604133646
 20
1294.7790560867004
 10
-325.72582153485018
 20
1294.7035072598105
 42
-0.018029851790142
 10
-321.04461507001179
 20
1294.2826452080578
 10
-319.64500582569372
 20
1294.1057543205277
 42
-0.017223722367253
 10
-312.24208799120424
 20
1292.9098343515816
 42
-0.0164115335155993
 10
-304.93585233856629
 20
1291.2189383109392
 42
-0.0156103122709331
 10
-297.74955444103125
 20
1289.0627787326159
 42
-0.0148622406447134
 10
-290.70475338883716
 20
1286.4717950904762
 10
-290.70116743509288
 20
1286.4703538509707
 42
-0.0141605880809728
 10
-283.80865148559405
 20
1283.4705986378308
 42
-0.0135382439433589
 10
-277.08998123024503
 20
1280.0924175531572
 10
-277.08645868315489
 20
1280.0905252360392
 42
-0.0129930703512032
 10
-270.56309371037787
 20
1276.364596981809
 42
-0.0125349064857855
 10
-264.23821813771792
 20
1272.3105346591637
 10
-264.02797491307956
 20
1272.1682159638551
 42
-0.0138009685403013
 10
-257.51338609853246
 20
1267.4910783589808
 10
-257.24368893332257
 20
1267.2859381817127
 42
-0.0136782957888312
 10
-250.46802258184107
 20
1261.8332768729395
 10
-250.40788745290683
 20
1261.7821116131154
 42
-0.0129469985479335
 10
-243.81614200574131
 20
1255.8728588542181
 42
-0.012193695734059
 10
-237.5302126197239
 20
1249.6401666745658
 42
-0.0114461289344081
 10
-231.54175245923716
 20
1243.1125987222642
 42
-0.0107196947914019
 10
-225.84553285980883
 20
1236.3225898048602
 10
-225.84240364096604
 20
1236.3186930180341
 42
-0.0100139091611876
 10
-220.42390738870472
 20
1229.2869011502255
 42
-0.009314171330963
 10
-215.27754023676698
 20
1222.0456735877854
 42
-0.0087805790558349
 10
-210.3950178955929
 20
1214.6206465795469
 42
-0.0085173743545578
 10
-205.77163946256223
 20
1207.0301718388089
 42
-0.0082577088678787
 10
-201.40476489429693
 20
1199.2875763782054
 42
-0.0080543264727677
 10
-197.29232975856257
 20
1191.40584222035
 10
-196.2948562829979
 20
1189.4166369736822
 42
-0.0153095929427999
 10
-190.68497059015772
 20
1177.3184318319811
 10
-188.93721000980076
 20
1173.2253665128624
 42
-0.0144264630412285
 10
-184.06092172005629
 20
1160.8269653254697
 10
-183.30611079314758
 20
1158.7323092958823
 42
-0.0067668551836619
 10
-180.41078847078188
 20
1150.3433094460174
 42
-0.0060070116434514
 10
-177.73099109345731
 20
1141.8840880334724
 42
-0.005224636047361
 10
-175.24197267340514
 20
1133.3670912434311
 42
-0.004440062203821
 10
-172.91733872635359
 20
1124.8008796030128
 42
-0.0036564566166402
 10
-170.73069103053695
 20
1116.193980963372
 42
-0.0028751419566149
 10
-168.65564343129427
 20
1107.5549190351044
 42
-0.0021014583993249
 10
-166.66590606023192
 20
1098.8921962435927
 42
-0.0012128301840462
 10
-164.73332188243239
 20
1090.2150758658543
 10
-164.25538886469894
 20
1088.0444016469307
 42
-0.0018540313544543
 10
-161.43631603853282
 20
1075.0107916967656
 10
-160.97494134601766
 20
1072.8387388517863
 42
-0.0029216157229164
 10
-157.38385073873542
 20
1055.4330606879748
 10
-157.16527994439548
 20
1054.3414757623495
 42
-0.0040068529942954
 10
-154.23605202041381
 20
1039.0779839125998
 10
-154.0353272013067
 20
1037.9847978787625
 42
-0.0037229799109373
 10
-151.72754381741743
 20
1024.8670198479531
 42
-0.0042182760090663
 10
-149.6284014096118
 20
1011.7143480773855
 10
-149.46264640474419
 20
1010.6163289316069
 42
-0.0050512807910478
 10
-147.29842422132015
 20
995.22804428445897
 10
-147.15471716048523
 20
994.12559777635965
 42
-0.0042817679572426
 10
-145.00933404326224
 20
976.49008518113988
 10
-144.76009526032794
 20
974.28384497532841
 42
-0.0034916067681449
 10
-143.356529616236
 20
961.0305410875676
 42
-0.0014365197778394
 10
-142.08363176368448
 20
947.76377858839169
 10
-141.67207626276831
 20
943.34071857580739
 42
-0.0054007087076447
 10
-139.85329257573585
 20
921.20453294329707
 10
-139.37945065510303
 20
914.55863113898454
 42
-0.0055089479156831
 10
-137.24292186557977
 20
879.08745511696816
 10
-137.02368251235794
 20
874.62973483809219
 42
-0.0057819518666636
 10
-136.01734220430217
 20
847.86271069354189
 10
-135.9012201595674
 20
843.40002570979732
 42
-0.003033588489419
 10
-135.54499877043963
 20
825.54457264316943
 42
-0.0031200202579032
 10
-135.40854414978139
 20
807.68715196474659
 42
-0.0004010515360652
 10
-135.40720715835505
 20
805.45523017859841
 42
-0.0004010515360652
  0
ARC
  5
1ED
100
AcDbEntity
  8
ADF70-1801
370
               5
390
0
  6
STYLE_23
 62
               7
100
AcDbCircle
 10
-632.40721257914174
 20
1302.4552301785984
 30
0.0
 40
3.0000000000000009
100
AcDbArc
 50
87.999999999996348
 51
179.99999999976555
  0
LINE
  5
1EE
100
AcDbEntity
  8
ADF70-1801
370
               5
390
0
  6
STYLE_23
 62
               7
100
AcDbLine
 10
-635.40721257914174
 20
308.4552301785983
 30
0.0
 11
-635.40721257914174
 21
1302.4552301785984
 31
0.0
  0
CIRCLE
  5
1EF
100
AcDbEntity
  8
ADF70-1801
370
               5
390
0
  6
STYLE_23
 62
               7
100
AcDbCircle
 10
-547.40717735564067
 20
805.45500158207869
 30
0.0
 40
17.5
  0
CIRCLE
  5
1F0
100
AcDbEntity
  8
ADF70-1801
370
               5
390
0
  6
STYLE_23
 62
               7
100
AcDbCircle
 10
-377.40721257914174
 20
805.45500158207824
 30
0.0
 40
24.049999999999727
  0
LINE
  5
1F1
100
AcDbEntity
  8
ADF70-1801
370
              15
390
0
  6
STYLE_24
 62
               7
100
AcDbLine
 10
586.37431151956844
 20
829.41002365467762
 30
0.0
 11
604.07817151357176
 21
829.41002365467762
 31
0.0
  0
LINE
  5
1F2
100
AcDbEntity
  8
ADF70-1801
370
              15
390
0
  6
STYLE_24
 62
               7
100
AcDbLine
 10
604.07817151357176
 20
777.41002365467762
 30
0.0
 11
586.37431151956844
 21
777.41002365467762
 31
0.0
  0
LINE
  5
1F3
100
AcDbEntity
  8
ADF70-1801
370
              15
390
0
  6
STYLE_23
 62
               7
100
AcDbLine
 10
586.37431151956844
 20
777.41002365467762
 30
0.0
 11
577.79734113027098
 21
764.17376003353365
 31
0.0
  0
LINE
  5
1F4
100
AcDbEntity
  8
ADF70-1801
370
              15
390
0
  6
STYLE_23
 62
               7
100
AcDbLine
 10
573.67195966054442
 20
719.12942904493536
 30
0.0
 11
577.79734113027098
 21
764.17376003353365
 31
0.0
  0
LINE
  5
1F5
100
AcDbEntity
  8
ADF70-1801
370
               5
390
0
  6
STYLE_24
 62
               7
100
AcDbLine
 10
584.82977318850544
 20
-396.4745032215032
 30
0.0
 11
603.85687771625567
 21
-396.4745032215032
 31
0.0
  0
LINE
  5
1F6
100
AcDbEntity
  8
ADF70-1801
370
               5
390
0
  6
STYLE_24
 62
               7
100
AcDbLine
 10
584.85119242352698
 20
-448.4745032215032
 30
0.0
 11
603.85687771625567
 21
-448.4745032215032
 31
0.0
  0
ENDSEC
  0
SECTION
  2
OBJECTS
  0
DICTIONARY
  5
19
100
AcDbDictionary
280
               0
281
               1
  3
ACAD_GROUP
350
1A
  3
ACAD_MLINESTYLE
350
1B
  3
ACAD_LAYOUT
350
1E
  3
ACAD_PLOTSETTINGS
350
22
  3
ACAD_PLOTSTYLENAME
350
1F
  0
DICTIONARY
  5
1A
102
{ACAD_REACTORS
330
19
102
}
100
AcDbDictionary
280
               0
281
               1
  0
DICTIONARY
  5
1B
102
{ACAD_REACTORS
330
19
102
}
100
AcDbDictionary
280
               0
281
               1
  3
Standard
350
1C
  0
MLINESTYLE
  5
1C
102
{ACAD_REACTORS
330
1B
102
}
100
AcDbMlineStyle
  2
Standard
 70
               0
  3

 62
               0
 51
90.0
 52
90.0
 71
               2
 49
0.5
 62
             256
  6
ByLayer
 49
-0.5
 62
             256
  6
ByLayer
  0
ACDBDICTIONARYWDFLT
  5
1F
102
{ACAD_REACTORS
330
19
102
}
100
AcDbDictionary
281
               1
  3
Normal
350
1D
100
AcDbDictionaryWithDefault
340
1D
  0
ACDBPLACEHOLDER
  5
1D
102
{ACAD_REACTORS
330
1F
102
}
  0
LAYOUT
  5
20
102
{ACAD_REACTORS
330
1E
102
}
100
AcDbPlotSettings
  1

  2

  4

  6

 40
0.0
 41
0.0
 42
0.0
 43
0.0
 44
0.0
 45
0.0
 46
0.0
 47
0.0
 48
0.0
 49
0.0
140
0.0
141
0.0
142
1.0
143
1.0
 70
            1024
 72
               0
 73
               0
 74
               0
  7

 75
               0
147
1.0
148
0.0
149
0.0
100
AcDbLayout
  1
Model
 70
               0
 71
               0
 10
0.0
 20
0.0
 11
0.0
 21
0.0
 12
0.0
 22
0.0
 32
0.0
 14
0.0
 24
0.0
 34
0.0
 15
0.0
 25
0.0
 35
0.0
146
0.0
 13
0.0
 23
0.0
 33
0.0
 16
0.0
 26
0.0
 36
0.0
 17
0.0
 27
0.0
 37
0.0
 76
               0
330
A
331
0
345
0
346
0
  0
LAYOUT
  5
21
102
{ACAD_REACTORS
330
1E
102
}
100
AcDbPlotSettings
  1

  2

  4

  6

 40
0.0
 41
0.0
 42
0.0
 43
0.0
 44
0.0
 45
0.0
 46
0.0
 47
0.0
 48
0.0
 49
0.0
140
0.0
141
0.0
142
1.0
143
1.0
 70
               0
 72
               0
 73
               0
 74
               0
  7

 75
               0
147
1.0
148
0.0
149
0.0
100
AcDbLayout
  1
Layout1
 70
               0
 71
               0
 10
0.0
 20
0.0
 11
0.0
 21
0.0
 12
0.0
 22
0.0
 32
0.0
 14
0.0
 24
0.0
 34
0.0
 15
0.0
 25
0.0
 35
0.0
146
0.0
 13
0.0
 23
0.0
 33
0.0
 16
0.0
 26
0.0
 36
0.0
 17
0.0
 27
0.0
 37
0.0
 76
               0
330
B
331
0
345
0
346
0
  0
DICTIONARY
  5
1E
102
{ACAD_REACTORS
330
19
102
}
100
AcDbDictionary
280
               0
281
               1
  3
Layout1
350
21
  3
Model
350
20
  0
DICTIONARY
  5
22
102
{ACAD_REACTORS
330
19
102
}
100
AcDbDictionary
280
               0
281
               1
  0
ENDSEC
  0
EOF
