  0
SECTION
  2
HEADER
  9
$ACADVER
  1
AC1015
  9
$ACADMAINTVER
 70
               6
  9
$DWGCODEPAGE
  3
ANSI_932
  9
$INSBASE
 10
0.0
 20
0.0
 30
0.0
  9
$EXTMIN
 10
-974.50180589148704
 20
-1406.0239294415692
 30
-14.834305555555554
  9
$EXTMAX
 10
975.49819410899488
 20
1431.4988856708433
 30
14.834305555555554
  9
$LIMMIN
 10
0.0
 20
0.0
  9
$LIMMAX
 10
0.0
 20
0.0
  9
$ORTHOMODE
 70
               0
  9
$REGENMODE
 70
               1
  9
$FILLMODE
 70
               1
  9
$QTEXTMODE
 70
               0
  9
$MIRRTEXT
 70
               1
  9
$LTSCALE
 40
12.699999999999999
  9
$ATTMODE
 70
               1
  9
$TEXTSIZE
 40
0.2
  9
$TRACEWID
 40
1.0
  9
$TEXTSTYLE
  7
Standard
  9
$CLAYER
  8
ADF70-2005
  9
$CELTYPE
  6
Continuous
  9
$CECOLOR
 62
             256
  9
$CELTSCALE
 40
1.0
  9
$DISPSILH
 70
               0
  9
$DIMSCALE
 40
1.0
  9
$DIMASZ
 40
22.4482421875
  9
$DIMEXO
 40
15.875
  9
$DIMDLI
 40
10.16
  9
$DIMRND
 40
0.0
  9
$DIMDLE
 40
1.5874999999999999
  9
$DIMEXE
 40
31.75
  9
$DIMTP
 40
0.0
  9
$DIMTM
 40
0.0
  9
$DIMTXT
 40
24.432617187500004
  9
$DIMCEN
 40
0.0
  9
$DIMTSZ
 40
0.0
  9
$DIMTOL
 70
               0
  9
$DIMLIM
 70
               0
  9
$DIMTIH
 70
               0
  9
$DIMTOH
 70
               0
  9
$DIMSE1
 70
               0
  9
$DIMSE2
 70
               0
  9
$DIMTAD
 70
               1
  9
$DIMZIN
 70
              11
  9
$DIMBLK
  1
VW_SLASH
  9
$DIMASO
 70
               1
  9
$DIMSHO
 70
               1
  9
$DIMPOST
  1
<>
  9
$DIMAPOST
  1
[]
  9
$DIMALT
 70
               0
  9
$DIMALTD
 70
               1
  9
$DIMALTF
 40
1.0
  9
$DIMLFAC
 40
1.0
  9
$DIMTOFL
 70
               1
  9
$DIMTVP
 40
0.0
  9
$DIMTIX
 70
               1
  9
$DIMSOXD
 70
               0
  9
$DIMSAH
 70
               0
  9
$DIMBLK1
  1

  9
$DIMBLK2
  1

  9
$DIMSTYLE
  2
Arch
  9
$DIMCLRD
 70
               0
  9
$DIMCLRE
 70
               0
  9
$DIMCLRT
 70
               0
  9
$DIMTFAC
 40
1.0
  9
$DIMGAP
 40
1.5874999999999999
  9
$DIMJUST
 70
               0
  9
$DIMSD1
 70
               0
  9
$DIMSD2
 70
               0
  9
$DIMTOLJ
 70
               1
  9
$DIMTZIN
 70
              11
  9
$DIMALTZ
 70
              11
  9
$DIMALTTZ
 70
              11
  9
$DIMUPT
 70
               0
  9
$DIMDEC
 70
               1
  9
$DIMTDEC
 70
               1
  9
$DIMALTU
 70
               2
  9
$DIMALTTD
 70
               2
  9
$DIMTXSTY
  7
ＭＳ ゴシック
  9
$DIMAUNIT
 70
               0
  9
$DIMADEC
 70
               2
  9
$DIMALTRND
 40
0.0
  9
$DIMAZIN
 70
               0
  9
$DIMDSEP
 70
              46
  9
$DIMATFIT
 70
               0
  9
$DIMFRAC
 70
               2
  9
$DIMLDRBLK
  1

  9
$DIMLUNIT
 70
               2
  9
$DIMLWD
 70
              -2
  9
$DIMLWE
 70
              -2
  9
$DIMTMOVE
 70
               0
  9
$LUNITS
 70
               2
  9
$LUPREC
 70
               4
  9
$SKETCHINC
 40
0.1
  9
$FILLETRAD
 40
0.0
  9
$AUNITS
 70
               0
  9
$AUPREC
 70
               0
  9
$MENU
  1
acad
  9
$ELEVATION
 40
0.0
  9
$PELEVATION
 40
0.0
  9
$THICKNESS
 40
0.0
  9
$LIMCHECK
 70
               0
  9
$CHAMFERA
 40
0.0
  9
$CHAMFERB
 40
0.0
  9
$CHAMFERC
 40
0.0
  9
$CHAMFERD
 40
0.0
  9
$SKPOLY
 70
               0
  9
$TDCREATE
 40
2455995.745416667
  9
$TDUCREATE
 40
0.000000000
  9
$TDUPDATE
 40
2455995.745416667
  9
$TDUUPDATE
 40
0.000000000
  9
$TDINDWG
 40
0.0000000000
  9
$TDUSRTIMER
 40
0.0000000000
  9
$USRTIMER
 70
               1
  9
$ANGBASE
 50
0.0
  9
$ANGDIR
 70
               0
  9
$PDMODE
 70
               1
  9
$PDSIZE
 40
-2.0
  9
$PLINEWID
 40
0.0
  9
$SPLFRAME
 70
               0
  9
$SPLINETYPE
 70
               6
  9
$SPLINESEGS
 70
               8
  9
$HANDSEED
  5
19F
  9
$SURFTAB1
 70
               6
  9
$SURFTAB2
 70
               6
  9
$SURFTYPE
 70
               6
  9
$SURFU
 70
               6
  9
$SURFV
 70
               6
  9
$UCSBASE
  2

  9
$UCSNAME
  2

  9
$UCSORG
 10
0.0
 20
0.0
 30
0.0
  9
$UCSXDIR
 10
1.0
 20
0.0
 30
0.0
  9
$UCSYDIR
 10
0.0
 20
1.0
 30
0.0
  9
$UCSORTHOREF
  2

  9
$UCSORTHOVIEW
 70
               0
  9
$UCSORGTOP
 10
0.0
 20
0.0
 30
0.0
  9
$UCSORGBOTTOM
 10
0.0
 20
0.0
 30
0.0
  9
$UCSORGLEFT
 10
0.0
 20
0.0
 30
0.0
  9
$UCSORGRIGHT
 10
0.0
 20
0.0
 30
0.0
  9
$UCSORGFRONT
 10
0.0
 20
0.0
 30
0.0
  9
$UCSORGBACK
 10
0.0
 20
0.0
 30
0.0
  9
$PUCSBASE
  2

  9
$PUCSNAME
  2

  9
$PUCSORG
 10
0.0
 20
0.0
 30
0.0
  9
$PUCSXDIR
 10
1.0
 20
0.0
 30
0.0
  9
$PUCSYDIR
 10
0.0
 20
1.0
 30
0.0
  9
$PUCSORTHOREF
  2

  9
$PUCSORTHOVIEW
 70
               0
  9
$PUCSORGTOP
 10
0.0
 20
0.0
 30
0.0
  9
$PUCSORGBOTTOM
 10
0.0
 20
0.0
 30
0.0
  9
$PUCSORGLEFT
 10
0.0
 20
0.0
 30
0.0
  9
$PUCSORGRIGHT
 10
0.0
 20
0.0
 30
0.0
  9
$PUCSORGFRONT
 10
0.0
 20
0.0
 30
0.0
  9
$PUCSORGBACK
 10
0.0
 20
0.0
 30
0.0
  9
$USERI1
 70
               0
  9
$USERI2
 70
               0
  9
$USERI3
 70
               0
  9
$USERI4
 70
               0
  9
$USERI5
 70
               0
  9
$USERR1
 40
0.0
  9
$USERR2
 40
0.0
  9
$USERR3
 40
0.0
  9
$USERR4
 40
0.0
  9
$USERR5
 40
0.0
  9
$WORLDVIEW
 70
               1
  9
$SHADEDGE
 70
               3
  9
$SHADEDIF
 70
              70
  9
$TILEMODE
 70
               1
  9
$MAXACTVP
 70
              64
  9
$PINSBASE
 10
0.0
 20
0.0
 30
0.0
  9
$PLIMCHECK
 70
               0
  9
$PEXTMIN
 10
1.0000000000000000E+20
 20
1.0000000000000000E+20
 30
1.0000000000000000E+20
  9
$PEXTMAX
 10
-1.0000000000000000E+20
 20
-1.0000000000000000E+20
 30
-1.0000000000000000E+20
  9
$PLIMMIN
 10
0.0
 20
0.0
  9
$PLIMMAX
 10
12.0
 20
9.0
  9
$UNITMODE
 70
               0
  9
$VISRETAIN
 70
               0
  9
$PLINEGEN
 70
               1
  9
$PSLTSCALE
 70
               0
  9
$TREEDEPTH
 70
            3020
  9
$CMLSTYLE
  2
Standard
  9
$CMLJUST
 70
               0
  9
$CMLSCALE
 40
1.0
  9
$PROXYGRAPHICS
 70
               0
  9
$MEASUREMENT
 70
               1
  9
$CELWEIGHT
370
               0
  9
$ENDCAPS
280
               0
  9
$JOINSTYLE
280
               0
  9
$LWDISPLAY
290
               1
  9
$INSUNITS
 70
               4
  9
$HYPERLINKBASE
  1

  9
$STYLESHEET
  1

  9
$XEDIT
290
               1
  9
$CEPSNTYPE
380
               0
  9
$PSTYLEMODE
290
               1
  9
$FINGERPRINTGUID
  2

  9
$VERSIONGUID
  2

  9
$EXTNAMES
290
               1
  9
$PSVPSCALE
 40
0.0
  0
ENDSEC
  0
SECTION
  2
CLASSES
  0
CLASS
  1
LWPOLYLINE
  2
AcDbPolyline
  3
AutoCAD 2000
 90
        0
280
               0
281
               1
  0
CLASS
  1
IMAGE
  2
AcDbRasterImage
  3
ISM
 90
      127
280
               0
281
               1
  0
CLASS
  1
OLE2FRAME
  2
AcDbOle2Frame
  3
AutoCAD 2000
 90
        0
280
               0
281
               1
  0
CLASS
  1
HATCH
  2
AcDbHatch
  3
AutoCAD 2000
 90
        0
280
               0
281
               1
  0
CLASS
  1
DICTIONARYVAR
  2
AcDbDictionaryVar
  3
AutoCAD 2000
 90
        0
280
               0
281
               0
  0
CLASS
  1
RASTERVARIABLES
  2
AcDbRasterVariables
  3
ISM
 90
        0
280
               0
281
               0
  0
CLASS
  1
IMAGEDEF
  2
AcDbRasterImageDef
  3
ISM
 90
        0
280
               0
281
               0
  0
CLASS
  1
IMAGEDEF_REACTOR
  2
AcDbRasterImageDefReactor
  3
ISM
 90
        1
280
               0
281
               0
  0
CLASS
  1
IDBUFFER
  2
AcDbIdBuffer
  3
AutoCAD 2000
 90
        0
280
               0
281
               0
  0
CLASS
  1
SPATIAL_FILTER
  2
AcDbSpatialFilter
  3
AutoCAD 2000
 90
        0
280
               0
281
               0
  0
CLASS
  1
XRECORD
  2
AcDbXrecord
  3
AutoCAD 2000
 90
        0
280
               0
281
               0
  0
CLASS
  1
SORTENTSTABLE
  2
AcDbSortentsTable
  3
AutoCAD 2000
 90
        0
280
               0
281
               0
  0
CLASS
  1
LAYER_INDEX
  2
AcDbLayerIndex
  3
AutoCAD 2000
 90
        0
280
               0
281
               0
  0
CLASS
  1
SPATIAL_INDEX
  2
AcDbSpatialIndex
  3
AutoCAD 2000
 90
        0
280
               0
281
               0
  0
CLASS
  1
OBJECT_PTR
  2
CAseDLPNTableRecord
  3
"ASE-LPNTableRecord"
 90
        1
280
               0
281
               0
  0
CLASS
  1
LAYOUT
  2
AcDbLayout
  3
AutoCAD 2000
 90
        0
280
               0
281
               0
  0
CLASS
  1
PLOTSETTINGS
  2
AcDbPlotSettings
  3
AutoCAD 2000
 90
        0
280
               0
281
               0
  0
CLASS
  1
ACDBDICTIONARYWDFLT
  2
AcDbDictionaryWithDefault
  3
AutoCAD 2000
 90
        0
280
               0
281
               0
  0
CLASS
  1
ACDBPLACEHOLDER
  2
AcDbPlaceHolder
  3
AutoCAD 2000
 90
        0
280
               0
281
               0
  0
ENDSEC
  0
SECTION
  2
TABLES
  0
TABLE
  2
VPORT
  5
7
100
AcDbSymbolTable
 70
               1
  0
VPORT
  5
15
100
AcDbSymbolTableRecord
100
AcDbViewportTableRecord
  2
*ACTIVE
 70
               0
 10
0.0
 20
0.0
 11
1.0
 21
1.0
 12
0.4981941087539781
 22
12.737478114637042
 13
0.0
 23
0.0
 14
1.0
 24
1.0
 15
0.0
 25
0.0
 16
0.0
 26
0.0
 36
1.0
 17
0.0
 27
0.0
 37
0.0
 40
2837.5228151124124
 41
0.688564
 42
50.0
 43
0.0
 44
0.0
 50
0.0
 51
0.0
 71
               0
 72
            2000
 73
               1
 74
               1
 75
               0
 76
               0
 77
               0
 78
               0
281
               0
 65
               0
110
0.0
120
0.0
130
0.0
111
1.0
121
0.0
131
0.0
112
0.0
122
1.0
132
0.0
345
0
346
0
 79
               0
146
0.0
  0
ENDTAB
  0
TABLE
  2
LTYPE
  5
4
100
AcDbSymbolTable
 70
              15
  0
LTYPE
  5
11
100
AcDbSymbolTableRecord
100
AcDbLinetypeTableRecord
  2
ByBlock
 70
              64
  3

 72
              65
 73
               0
 40
0.0
  0
LTYPE
  5
12
100
AcDbSymbolTableRecord
100
AcDbLinetypeTableRecord
  2
ByLayer
 70
              64
  3

 72
              65
 73
               0
 40
0.0
  0
LTYPE
  5
13
100
AcDbSymbolTableRecord
100
AcDbLinetypeTableRecord
  2
Continuous
 70
              64
  3
Solid line
 72
              65
 73
               0
 40
0.0
  0
LTYPE
  5
32
100
AcDbSymbolTableRecord
100
AcDbLinetypeTableRecord
  2
STYLE_01
 70
               0
  3

 72
              65
 73
               2
 40
0.7076726616417839
 49
0.4162780337860838
 74
               0
 49
-0.2913946278557001
 74
               0
  0
LTYPE
  5
33
100
AcDbSymbolTableRecord
100
AcDbLinetypeTableRecord
  2
STYLE_02
 70
               0
  3

 72
              65
 73
               2
 40
0.7076726616417839
 49
0.4162780337860838
 74
               0
 49
-0.2913946278557001
 74
               0
  0
LTYPE
  5
34
100
AcDbSymbolTableRecord
100
AcDbLinetypeTableRecord
  2
STYLE_03
 70
               0
  3

 72
              65
 73
               2
 40
0.7076726616417839
 49
0.4162780337860838
 74
               0
 49
-0.2913946278557001
 74
               0
  0
LTYPE
  5
35
100
AcDbSymbolTableRecord
100
AcDbLinetypeTableRecord
  2
STYLE_04
 70
               0
  3

 72
              65
 73
               2
 40
0.7076726616417839
 49
0.4162780337860838
 74
               0
 49
-0.2913946278557001
 74
               0
  0
LTYPE
  5
36
100
AcDbSymbolTableRecord
100
AcDbLinetypeTableRecord
  2
STYLE_05
 70
               0
  3

 72
              65
 73
               2
 40
1.2488341434126671
 49
0.6244170717063335
 74
               0
 49
-0.6244170717063335
 74
               0
  0
LTYPE
  5
37
100
AcDbSymbolTableRecord
100
AcDbLinetypeTableRecord
  2
STYLE_06
 70
               0
  3

 72
              65
 73
               2
 40
1.2488341434126671
 49
0.6244170717063335
 74
               0
 49
-0.6244170717063335
 74
               0
  0
LTYPE
  5
38
100
AcDbSymbolTableRecord
100
AcDbLinetypeTableRecord
  2
STYLE_07
 70
               0
  3

 72
              65
 73
               2
 40
1.2488341434126671
 49
0.6244170717063335
 74
               0
 49
-0.6244170717063335
 74
               0
  0
LTYPE
  5
39
100
AcDbSymbolTableRecord
100
AcDbLinetypeTableRecord
  2
STYLE_08
 70
               0
  3

 72
              65
 73
               2
 40
0.6081893029086976
 49
0.4053419511253549
 74
               0
 49
-0.2028473517833426
 74
               0
  0
LTYPE
  5
3A
100
AcDbSymbolTableRecord
100
AcDbLinetypeTableRecord
  2
STYLE_09
 70
               0
  3

 72
              65
 73
               2
 40
0.6081893029086976
 49
0.4053419511253549
 74
               0
 49
-0.2028473517833426
 74
               0
  0
LTYPE
  5
3B
100
AcDbSymbolTableRecord
100
AcDbLinetypeTableRecord
  2
STYLE_10
 70
               0
  3

 72
              65
 73
               2
 40
0.6081893029086976
 49
0.4053419511253549
 74
               0
 49
-0.2028473517833426
 74
               0
  0
LTYPE
  5
3C
100
AcDbSymbolTableRecord
100
AcDbLinetypeTableRecord
  2
STYLE_11
 70
               0
  3

 72
              65
 73
               2
 40
0.6081893029086976
 49
0.4053419511253549
 74
               0
 49
-0.2028473517833426
 74
               0
  0
LTYPE
  5
3D
100
AcDbSymbolTableRecord
100
AcDbLinetypeTableRecord
  2
STYLE_12
 70
               0
  3

 72
              65
 73
               2
 40
1.5748031496062991
 49
0.7874015748031495
 74
               0
 49
-0.7874015748031495
 74
               0
  0
ENDTAB
  0
TABLE
  2
LAYER
  5
2
100
AcDbSymbolTable
 70
               5
  0
LAYER
  5
14
100
AcDbSymbolTableRecord
100
AcDbLayerTableRecord
  2
0
 70
               0
 62
               7
  6
Continuous
290
               1
370
              -3
390
1D
  0
LAYER
  5
3E
100
AcDbSymbolTableRecord
100
AcDbLayerTableRecord
  2
Defpoints
 70
               0
 62
               7
  6
Continuous
290
               0
370
              -3
390
1D
  0
LAYER
  5
3F
100
AcDbSymbolTableRecord
100
AcDbLayerTableRecord
  2
template
 70
               0
 62
               7
  6
Continuous
290
               1
370
              -3
390
1D
  0
LAYER
  5
40
100
AcDbSymbolTableRecord
100
AcDbLayerTableRecord
  2
notes
 70
               0
 62
               7
  6
Continuous
290
               1
370
              -3
390
1D
  0
LAYER
  5
41
100
AcDbSymbolTableRecord
100
AcDbLayerTableRecord
  2
ADF70-2005
 70
               0
 62
               7
  6
Continuous
290
               1
370
              -3
390
1D
  0
ENDTAB
  0
TABLE
  2
STYLE
  5
3
100
AcDbSymbolTable
 70
               2
  0
STYLE
  5
17
100
AcDbSymbolTableRecord
100
AcDbTextStyleTableRecord
  2
Standard
 70
               0
 40
0.0
 41
1.0
 50
0.0
 71
               0
 42
0.0
  3
txt
  4
BIGFONT.SHX
  0
STYLE
  5
31
100
AcDbSymbolTableRecord
100
AcDbTextStyleTableRecord
  2
ＭＳ ゴシック
 70
               0
 40
0.0
 41
1.0
 50
0.0
 71
               0
 42
0.0
  3

  4
ＭＳ ゴシック
1001
ACAD
1000
ＭＳ ゴシック
1071
        0
  0
ENDTAB
  0
TABLE
  2
VIEW
  5
5
100
AcDbSymbolTable
 70
               0
  0
ENDTAB
  0
TABLE
  2
UCS
  5
6
100
AcDbSymbolTable
 70
               0
  0
ENDTAB
  0
TABLE
  2
APPID
  5
8
100
AcDbSymbolTable
 70
               1
  0
APPID
  5
16
100
AcDbSymbolTableRecord
100
AcDbRegAppTableRecord
  2
ACAD
 70
               0
  0
ENDTAB
  0
TABLE
  2
DIMSTYLE
  5
9
100
AcDbSymbolTable
 70
               3
100
AcDbDimStyleTable
 71
               0
  0
DIMSTYLE
105
18
100
AcDbSymbolTableRecord
100
AcDbDimStyleTableRecord
  2
Standard
 70
               0
  3

  4

 40
1.0
 41
0.18
 42
0.0625
 43
0.38
 44
0.18
 45
0.0
 46
0.0
 47
0.0
 48
0.0
 71
               0
 72
               0
 73
               1
 74
               1
 75
               0
 76
               0
 77
               0
 78
               0
 79
               0
140
0.18
141
0.09
142
0.0
143
25.399999999999999
144
1.0
145
0.0
146
1.0
147
0.09
148
0.0
170
               0
171
               2
172
               0
173
               0
174
               0
175
               0
176
               0
177
               0
178
               0
179
               0
271
               4
272
               4
273
               2
274
               2
275
               0
276
               0
277
               2
278
              46
279
               0
280
               0
281
               0
282
               0
283
               1
284
               0
285
               0
286
               0
288
               0
289
               3
340
17
341
0
342
0
343
0
344
0
371
              -2
372
              -2
  0
DIMSTYLE
105
4A
100
AcDbSymbolTableRecord
100
AcDbDimStyleTableRecord
  2
tform線あり
 70
               0
  3
<>
  4
[]
 40
1.0
 41
3.999755859375
 42
24.999999999999996
 43
0.9999999999999999
 44
0.0
 45
0.0
 46
0.0
 47
0.0
 48
0.0
 71
               0
 72
               0
 73
               0
 74
               0
 75
               0
 76
               0
 77
               1
 78
              11
 79
               0
140
24.432617187500004
141
0.0
142
0.0
143
1.0
144
1.0
145
0.0
146
1.0
147
0.4999999999999999
148
0.0
170
               0
171
               1
172
               1
173
               0
174
               1
175
               0
176
               0
177
               0
178
               0
179
               2
271
               1
272
               1
273
               2
274
               2
275
               0
276
               2
277
               2
278
              46
279
               0
280
               0
281
               0
282
               0
283
               1
284
              11
285
              11
286
              11
288
               0
289
               0
340
31
341
42
342
42
343
0
344
0
371
              -2
372
              -2
  0
DIMSTYLE
105
54
100
AcDbSymbolTableRecord
100
AcDbDimStyleTableRecord
  2
Arch
 70
               0
  3
<>
  4
[]
 40
1.0
 41
22.4482421875
 42
15.875
 43
10.16
 44
31.75
 45
0.0
 46
1.5874999999999999
 47
0.0
 48
0.0
 71
               0
 72
               0
 73
               0
 74
               0
 75
               0
 76
               0
 77
               1
 78
              11
 79
               0
140
24.432617187500004
141
0.0
142
0.0
143
1.0
144
1.0
145
0.0
146
1.0
147
1.5874999999999999
148
0.0
170
               0
171
               1
172
               1
173
               0
174
               1
175
               0
176
               0
177
               0
178
               0
179
               2
271
               1
272
               1
273
               2
274
               2
275
               0
276
               2
277
               2
278
              46
279
               0
280
               0
281
               0
282
               0
283
               1
284
              11
285
              11
286
              11
288
               0
289
               0
340
31
341
50
342
4B
343
0
344
0
371
              -2
372
              -2
  0
ENDTAB
  0
TABLE
  2
BLOCK_RECORD
  5
1
100
AcDbSymbolTable
 70
              17
  0
BLOCK_RECORD
  5
A
100
AcDbSymbolTableRecord
100
AcDbBlockTableRecord
  2
*MODEL_SPACE
340
20
  0
BLOCK_RECORD
  5
B
100
AcDbSymbolTableRecord
100
AcDbBlockTableRecord
  2
*PAPER_SPACE
340
21
  0
BLOCK_RECORD
  5
42
100
AcDbSymbolTableRecord
100
AcDbBlockTableRecord
  2
_DOT
340
0
  0
BLOCK_RECORD
  5
4B
100
AcDbSymbolTableRecord
100
AcDbBlockTableRecord
  2
VW_SLASH
340
0
  0
BLOCK_RECORD
  5
50
100
AcDbSymbolTableRecord
100
AcDbBlockTableRecord
  2
VW_FILLEDARROW
340
0
  0
BLOCK_RECORD
  5
23
100
AcDbSymbolTableRecord
100
AcDbBlockTableRecord
  2
グループ
340
0
102
{BLKREFS
331
10C
102
}
  0
BLOCK_RECORD
  5
24
100
AcDbSymbolTableRecord
100
AcDbBlockTableRecord
  2
*D4
340
0
  0
BLOCK_RECORD
  5
25
100
AcDbSymbolTableRecord
100
AcDbBlockTableRecord
  2
*D5
340
0
  0
BLOCK_RECORD
  5
26
100
AcDbSymbolTableRecord
100
AcDbBlockTableRecord
  2
*D6
340
0
  0
BLOCK_RECORD
  5
27
100
AcDbSymbolTableRecord
100
AcDbBlockTableRecord
  2
*D7
340
0
  0
BLOCK_RECORD
  5
28
100
AcDbSymbolTableRecord
100
AcDbBlockTableRecord
  2
*D8
340
0
  0
BLOCK_RECORD
  5
29
100
AcDbSymbolTableRecord
100
AcDbBlockTableRecord
  2
*D9
340
0
  0
BLOCK_RECORD
  5
2A
100
AcDbSymbolTableRecord
100
AcDbBlockTableRecord
  2
*D10
340
0
  0
BLOCK_RECORD
  5
2B
100
AcDbSymbolTableRecord
100
AcDbBlockTableRecord
  2
*D11
340
0
  0
BLOCK_RECORD
  5
2C
100
AcDbSymbolTableRecord
100
AcDbBlockTableRecord
  2
*D12
340
0
  0
BLOCK_RECORD
  5
2D
100
AcDbSymbolTableRecord
100
AcDbBlockTableRecord
  2
*D13
340
0
  0
BLOCK_RECORD
  5
2E
100
AcDbSymbolTableRecord
100
AcDbBlockTableRecord
  2
*D14
340
0
  0
BLOCK_RECORD
  5
2F
100
AcDbSymbolTableRecord
100
AcDbBlockTableRecord
  2
*D15
340
0
  0
BLOCK_RECORD
  5
30
100
AcDbSymbolTableRecord
100
AcDbBlockTableRecord
  2
*D16
340
0
  0
ENDTAB
  0
ENDSEC
  0
SECTION
  2
BLOCKS
  0
BLOCK
  5
D
100
AcDbEntity
  8
0
390
0
100
AcDbBlockBegin
  2
*MODEL_SPACE
 70
               0
 10
0.0
 20
0.0
 30
0.0
  3
*MODEL_SPACE
  1

  0
ENDBLK
  5
E
100
AcDbEntity
  8
0
390
0
100
AcDbBlockEnd
  0
BLOCK
  5
F
100
AcDbEntity
 67
               1
  8
0
390
0
100
AcDbBlockBegin
  2
*PAPER_SPACE
 70
               0
 10
0.0
 20
0.0
 30
0.0
  3
*PAPER_SPACE
  1

  0
ENDBLK
  5
10
100
AcDbEntity
 67
               1
  8
0
390
0
100
AcDbBlockEnd
  0
BLOCK
  5
43
100
AcDbEntity
  8
0
390
0
100
AcDbBlockBegin
  2
_DOT
 70
               0
 10
0.0
 20
0.0
 30
0.0
  3
_DOT
  1

  0
POLYLINE
  5
44
100
AcDbEntity
  8
0
370
              -2
390
0
  6
ByBlock
 62
               0
100
AcDb2dPolyline
 66
               1
 10
0.0
 20
0.0
 30
0.0
 70
               1
 40
0.5
 41
0.5
  0
VERTEX
  5
45
100
AcDbEntity
  8
0
370
              -2
390
0
  6
ByBlock
 62
               0
100
AcDbVertex
100
AcDb2dVertex
 10
-0.25
 20
0.0
 30
0.0
 42
1.0
  0
VERTEX
  5
46
100
AcDbEntity
  8
0
370
              -2
390
0
  6
ByBlock
 62
               0
100
AcDbVertex
100
AcDb2dVertex
 10
0.25
 20
0.0
 30
0.0
 42
1.0
  0
SEQEND
  5
47
100
AcDbEntity
  8
0
390
0
  0
LINE
  5
48
100
AcDbEntity
  8
0
370
              -2
390
0
  6
ByBlock
 62
               0
100
AcDbLine
 10
-0.5
 20
0.0
 30
0.0
 11
-1.0
 21
0.0
 31
0.0
  0
ENDBLK
  5
49
100
AcDbEntity
  8
0
390
0
100
AcDbBlockEnd
  0
BLOCK
  5
4C
100
AcDbEntity
  8
0
370
              -2
390
0
  6
ByBlock
 62
               0
100
AcDbBlockBegin
  2
VW_SLASH
 70
               0
 10
0.0
 20
0.0
 30
0.0
  3
VW_SLASH
  1

  0
LINE
  5
4D
100
AcDbEntity
  8
0
370
              -2
390
0
  6
ByBlock
 62
               0
100
AcDbLine
 10
0.0
 20
0.0
 30
0.0
 11
-1.0
 21
0.0
 31
0.0
  0
LINE
  5
4E
100
AcDbEntity
  8
0
370
              20
390
0
  6
ByBlock
 62
               0
100
AcDbLine
 10
-0.4987813153181721
 20
-0.4987813153181719
 30
0.0
 11
0.4987813153181721
 21
0.4987813153181719
 31
0.0
  0
ENDBLK
  5
4F
100
AcDbEntity
  8
0
390
0
100
AcDbBlockEnd
  0
BLOCK
  5
51
100
AcDbEntity
  8
0
370
              -2
390
0
  6
ByBlock
 62
               0
100
AcDbBlockBegin
  2
VW_FILLEDARROW
 70
               0
 10
0.0
 20
0.0
 30
0.0
  3
VW_FILLEDARROW
  1

  0
SOLID
  5
52
100
AcDbEntity
  8
0
370
              -2
390
0
 62
               0
100
AcDbTrace
 10
0.0
 20
0.0
 30
0.0
 11
-1.4107666015625
 21
-0.3780137715974714
 31
0.0
 12
-1.4107666015625
 22
0.3780137715974717
 32
0.0
 13
-1.4107666015625
 23
0.3780137715974717
 33
0.0
  0
ENDBLK
  5
53
100
AcDbEntity
  8
0
390
0
100
AcDbBlockEnd
  0
BLOCK
  5
55
100
AcDbEntity
  8
template
390
0
100
AcDbBlockBegin
  2
グループ
 70
               0
 10
0.0
 20
0.0
 30
0.0
  3
グループ
  1

  0
LWPOLYLINE
  5
56
100
AcDbEntity
  8
0
370
              15
390
0
  6
Continuous
 62
               7
100
AcDbPolyline
 90
        8
 70
             129
 10
317.66746088659636
 20
-1675.5452316116375
 10
317.66746088659636
 20
-1681.5426203052134
 10
308.16626396859317
 20
-1681.5426203052134
 10
308.16626396859317
 20
-1705.9935835687224
 10
299.81088670680981
 20
-1705.9935835687224
 10
299.81088670680981
 20
-1681.5426203052134
 10
290.47792976050039
 20
-1681.5426203052134
 10
290.47792976050039
 20
-1675.5452316116375
  0
LWPOLYLINE
  5
57
100
AcDbEntity
  8
0
370
              15
390
0
  6
Continuous
 62
               7
100
AcDbPolyline
 90
      101
 70
             128
 10
330.39575271715364
 20
-1676.273480104574
 10
330.41110274593592
 20
-1676.2691193478897
 42
-0.0222221607812972
 10
330.7011073226098
 20
-1676.2004948826443
 10
330.71690108660295
 20
-1676.1974914595473
 42
-0.0146883565587029
 10
330.97960379182712
 20
-1676.1554882725979
 42
-0.0127458844186338
 10
331.24424275898281
 20
-1676.1279513045254
 10
331.30669783729297
 20
-1676.1230578819373
 42
-0.0198099018569953
 10
331.69754694676402
 20
-1676.1079727245408
 10
331.74935841621334
 20
-1676.1080265002058
 42
-0.0147617382761233
 10
332.24398187718839
 20
-1676.1231465254509
 10
332.31667333206656
 20
-1676.1275191323389
 42
-0.01626245490044
 10
332.70682696152778
 20
-1676.1637520076108
 10
332.82835935279036
 20
-1676.1790385666079
 42
-0.0080020874669467
 10
332.97393838387814
 20
-1676.1997214138757
 10
333.01225785446661
 20
-1676.2057926916857
 42
-0.0053821929667628
 10
333.08074195978804
 20
-1676.2174002155084
 10
332.35433626058909
 20
-1678.3983286712223
 42
0.0108667757414211
 10
332.28701919045847
 20
-1678.3851415560023
 10
332.24955116726903
 20
-1678.378643813408
 42
0.0170663203308936
 10
332.10633438035137
 20
-1678.3588142161161
 10
332.03845904767002
 20
-1678.3517670455287
 42
0.0220162375271965
 10
331.75807963981856
 20
-1678.3350846847586
 10
331.68022407276192
 20
-1678.3338853174921
 42
0.0282606915786233
 10
331.34458774918619
 20
-1678.347688594461
 10
331.30067447541569
 20
-1678.3519885844644
 42
0.0169677213687222
 10
331.05474998045463
 20
-1678.3845256340167
 42
0.0190576269869455
 10
330.81184201786874
 20
-1678.4346725061246
 10
330.80558282976324
 20
-1678.4362154802325
 42
0.0213685642843042
 10
330.55519834528599
 20
-1678.5094157653368
 10
330.54970845036894
 20
-1678.5112787613962
 42
0.0237595297601663
 10
330.29621356547023
 20
-1678.610963283292
 10
330.2911114914408
 20
-1678.6132550587699
 42
0.0261857468810123
 10
330.03894071521182
 20
-1678.742791396144
 10
330.02851452612339
 20
-1678.7488568706131
 42
0.0272553062028038
 10
329.79208475088524
 20
-1678.9042290765572
 10
329.75732173737674
 20
-1678.9298902246487
 42
0.032599689316502
 10
329.60716639372401
 20
-1679.0566380976209
 10
329.58345696459622
 20
-1679.079456126138
 42
0.0138050960668234
 10
329.49157380839131
 20
-1679.1729057876853
 42
0.0125280103771136
 10
329.40473127555902
 20
-1679.2710691142845
 10
329.38105083065
 20
-1679.2992276124726
 42
0.0205218024735134
 10
329.25595075513553
 20
-1679.4610209267016
 10
329.23348441464839
 20
-1679.4926806565286
 42
0.0163110129594472
 10
329.07777403539978
 20
-1679.7280110915942
 10
329.07505013934622
 20
-1679.732434853584
 42
0.0131897341886749
 10
328.92824961844133
 20
-1679.9855669459473
 10
328.92654952307419
 20
-1679.9886851850843
 42
0.0107895576069999
 10
328.78877282086347
 20
-1680.2549003947195
 10
328.7880399313384
 20
-1680.256394627366
 42
0.0091371507210412
 10
328.65955998269021
 20
-1680.530919825123
 10
328.62981435127983
 20
-1680.5976263322843
 42
0.0135418326357159
 10
328.45810041220682
 20
-1681.0125641175566
 10
328.42449560377452
 20
-1681.1004302598328
 42
0.0092834542408905
 10
328.25326654385333
 20
-1681.5743287581397
 10
328.22764941613542
 20
-1681.6495698279339
 42
0.0054261043584702
 10
328.12001126784287
 20
-1681.9773338009982
 10
328.1024852816567
 20
-1682.0327219632561
 42
0.0008225090785632
 10
328.03381522983398
 20
-1682.2509907213775
 10
327.04912609790188
 20
-1685.2758820146341
 10
330.28174993797472
 20
-1685.2758820146341
 10
329.77755750812173
 20
-1687.1803603129865
 10
326.52150122613818
 20
-1687.1803603129865
 10
320.69235219378459
 20
-1705.9935833789914
 10
318.86725458347462
 20
-1705.9935833789914
 10
324.70193261897509
 20
-1687.1803603129865
 10
322.29681624993498
 20
-1687.1803603129865
 10
322.80100867978797
 20
-1685.2758820146341
 10
325.22955749073878
 20
-1685.2758820146341
 10
326.0897124089264
 20
-1682.639469013935
 42
-0.0005863560652866
 10
326.12644708708729
 20
-1682.5226425937781
 10
326.20253492079007
 20
-1682.2816502942578
 42
-0.0087522378931031
 10
326.40200306424629
 20
-1681.6863742071137
 10
326.49426733966351
 20
-1681.4262340385903
 42
-0.0077400953826375
 10
326.75220099879186
 20
-1680.7332293610502
 10
326.76796597037014
 20
-1680.6927984776657
 42
-0.0082369946332549
 10
327.01505044098246
 20
-1680.0887194114684
 42
-0.0085725238361039
 10
327.2822965369844
 20
-1679.4932933721827
 10
327.38392613799215
 20
-1679.2768722701969
 42
-0.0168109410601768
 10
327.67087056672278
 20
-1678.7156647440918
 10
327.79671395716093
 20
-1678.4887007111329
 42
-0.000781772685279
 10
327.85099830723846
 20
-1678.3911564660634
 10
327.85112661326008
 20
-1678.3909267573192
 42
-0.003662614218973
 10
327.90601447727693
 20
-1678.2943288773586
 42
-0.0080221150659243
 10
327.96313873268116
 20
-1678.1990496426104
 10
327.99383868404527
 20
-1678.1496586934834
 42
-0.0202139325568614
 10
328.12149442385441
 20
-1677.9616770927985
 10
328.17556188903961
 20
-1677.888598228561
 42
-0.0249323791802225
 10
328.43472468275655
 20
-1677.5725529864092
 10
328.45886449688567
 20
-1677.5459387134943
 42
-0.0242132121537117
 10
328.79854523842891
 20
-1677.2060552272894
 10
328.84645681117735
 20
-1677.1625460911055
 42
-0.0251017527857504
 10
329.13043851181953
 20
-1676.9295533453394
 10
329.13188398863053
 20
-1676.9284840877624
 42
-0.0130868069037059
 10
329.43014463859015
 20
-1676.7197036192181
 10
329.43170645773313
 20
-1676.7186701789428
 42
-0.0290329526387669
 10
329.74281759912571
 20
-1676.5378446773136
 10
329.7726631611136
 20
-1676.5227422944731
 42
-0.0160250190054104
 10
330.03856757487608
 20
-1676.3987261842608
 42
-0.0267600374781323
 10
330.31384365234697
 20
-1676.2979778637118
 10
330.34057957186667
 20
-1676.2897853048867
 42
-0.0049981587629275
 10
330.39575271715364
 20
-1676.273480104574
 42
-0.0049981587629275
  0
LWPOLYLINE
  5
58
100
AcDbEntity
  8
0
370
              15
390
0
  6
Continuous
 62
               7
100
AcDbPolyline
 90
      118
 70
             128
 10
350.21012028159964
 20
-1685.3498653424613
 10
352.08524220610013
 20
-1685.3498653424613
 10
351.24720330050002
 20
-1688.0314318688615
 42
-0.0010587229290071
 10
351.27865911608848
 20
-1687.9945273354858
 10
351.33685320670372
 20
-1687.9265450793303
 42
-0.007187474040535
 10
351.48722842479276
 20
-1687.7559043873116
 10
351.62895119806433
 20
-1687.5996682459881
 42
-0.014811805351045
 10
352.07908049077798
 20
-1687.1320543999739
 10
352.16630282568008
 20
-1687.0466570791202
 42
-0.0086273358694086
 10
352.50185162668674
 20
-1686.729281445105
 10
352.54568534291127
 20
-1686.6892318007731
 42
-0.0103138323119172
 10
352.80370904514655
 20
-1686.4630686634337
 10
352.84948345147058
 20
-1686.4245866161762
 42
-0.0060206748553715
 10
353.02233151558573
 20
-1686.2827919654192
 10
353.02436264647304
 20
-1686.2811662597869
 42
-0.0067069027304158
 10
353.1966554611339
 20
-1686.1470156259929
 10
353.19920422706355
 20
-1686.1450854561149
 42
-0.007618435204446
 10
353.37010949293142
 20
-1686.0197105808738
 42
-0.0089652861674838
 10
353.54507045566822
 20
-1685.9000773205398
 10
353.58142217580723
 20
-1685.8761661070607
 42
-0.0156916245943228
 10
353.77738167297173
 20
-1685.7559036205839
 42
-0.0023299011057631
 10
353.97764371692995
 20
-1685.6427256810553
 10
353.9930278493315
 20
-1685.6341256859785
 42
-0.0107669341487322
 10
354.22726467443312
 20
-1685.5097255526287
 10
354.24952947550753
 20
-1685.498508802679
 42
-0.0078058045893961
 10
354.53311959346809
 20
-1685.3611473470369
 10
354.54302668116941
 20
-1685.3565382191721
 42
-0.0181829330472098
 10
354.85333608578594
 20
-1685.2256744780761
 10
354.90739152834993
 20
-1685.2051593581336
 42
-0.0208411536029601
 10
355.25647649580185
 20
-1685.0890688956397
 10
355.27083259592757
 20
-1685.0849504506866
 42
-0.0222799817142772
 10
355.59955238984674
 20
-1685.0063088845459
 10
355.60844135308525
 20
-1685.0045968739605
 42
-0.0215509523877323
 10
355.92491232136342
 20
-1684.9576811854265
 10
355.96739428241557
 20
-1684.9532436586353
 42
-0.0182545924872133
 10
356.20150306171706
 20
-1684.9373998332446
 10
356.24090407805932
 20
-1684.9361752881655
 42
-0.0072962856532298
 10
356.39682695775389
 20
-1684.9336059596433
 10
356.42592662830941
 20
-1684.9335511242396
 42
-0.0059227516328588
 10
356.52367612747128
 20
-1684.9345248360301
 10
356.55291834499479
 20
-1684.9351626026346
 42
-0.0011833111896049
 10
356.59216962867538
 20
-1684.9361116069435
 10
355.79678303306935
 20
-1687.4748455520426
 42
0.0143932051515497
 10
355.77038165071122
 20
-1687.4646465819949
 10
355.76310967830011
 20
-1687.4620753631398
 42
0.0234388603493636
 10
355.72127881236793
 20
-1687.4494561274246
 10
355.71259714945552
 20
-1687.4472751654196
 42
0.019916274298385
 10
355.65230831537809
 20
-1687.4346584300849
 10
355.63149437756908
 20
-1687.431161230656
 42
0.0293643550664888
 10
355.52841951880845
 20
-1687.4200111850027
 10
355.50373433808943
 20
-1687.4187995679843
 42
0.0214606686863008
 10
355.35059342213896
 20
-1687.4178610075667
 10
355.34122151131976
 20
-1687.418205919111
 42
0.0167564054189436
 10
355.16970132021015
 20
-1687.4302829614792
 10
355.16124152745249
 20
-1687.4311643019062
 42
0.0137677553245724
 10
354.9738882141786
 20
-1687.455913610451
 10
354.96653647467917
 20
-1687.4570915304178
 42
0.0118497261480414
 10
354.76603871058279
 20
-1687.4941088806056
 10
354.75988870333038
 20
-1687.495395743327
 42
0.0106421143895093
 10
354.54900781603953
 20
-1687.5442281189034
 10
354.54409900765711
 20
-1687.5454754615869
 42
0.0099746379697796
 10
354.32564053849484
 20
-1687.6056499899016
 10
354.26409249832466
 20
-1687.6239318685323
 42
0.019161367586048
 10
353.92810803581051
 20
-1687.7379092488186
 10
353.84004826306142
 20
-1687.7715961591439
 42
0.020527408014556
 10
353.45474149116251
 20
-1687.9374245669696
 10
353.39709220918087
 20
-1687.9650925315418
 42
0.0181256912198482
 10
353.13881526851344
 20
-1688.1007763505199
 10
353.0858598852015
 20
-1688.1310939637335
 42
0.0140709242408193
 10
352.94090495057151
 20
-1688.2195886371692
 10
352.91465608195341
 20
-1688.2366454558844
 42
0.0086667884374756
 10
352.82572992041003
 20
-1688.2966481237675
 42
0.0036408192040401
 10
352.73829668237937
 20
-1688.3588289815573
 10
352.70306980790735
 20
-1688.3842699274726
 42
0.0052260781283967
 10
352.54684111051046
 20
-1688.4996023141116
 10
352.53063425425751
 20
-1688.5118304247248
 42
0.0050024435886233
 10
352.34463091121205
 20
-1688.6551129929771
 10
352.32931275468434
 20
-1688.6671590154328
 42
0.0136138710271598
 10
352.11887148635367
 20
-1688.8421255203505
 10
352.08520361056469
 20
-1688.8717044930604
 42
0.0172815186925869
 10
351.82080006890499
 20
-1689.1207011656804
 10
351.81823772305904
 20
-1689.1232869828309
 42
0.0189403857988575
 10
351.56765592447988
 20
-1689.3960922476356
 10
351.53502443094328
 20
-1689.4344361791334
 42
0.0185044199508843
 10
351.34306799196418
 20
-1689.6776847602553
 42
0.0088565243898073
 10
351.16460788533578
 20
-1689.9312011804054
 10
351.15542990568736
 20
-1689.9447425601652
 42
0.0157195347225576
 10
350.97220929935315
 20
-1690.2342647694804
 10
350.9261263574175
 20
-1690.3124169665093
 42
0.0095451879794658
 10
350.76104080728453
 20
-1690.6050116088584
 10
350.74989288835889
 20
-1690.625682280983
 42
0.0100351706243332
 10
350.61784913919598
 20
-1690.882737841481
 42
0.0086935915428047
 10
350.49551798739964
 20
-1691.1445709868904
 10
350.49219724598731
 20
-1691.1520133098572
 42
0.0072580174867186
 10
350.37185079404213
 20
-1691.4326053014408
 10
350.36858916073595
 20
-1691.4405253274583
 42
0.0060005122621989
 10
350.24938849238947
 20
-1691.7401349980748
 10
350.24617751405219
 20
-1691.7484965259682
 42
0.004901778696375
 10
350.12727735519616
 20
-1692.067425506568
 10
350.12411154880408
 20
-1692.076178443803
 42
0.0039415167617389
 10
350.00467527074545
 20
-1692.4147205062204
 10
350.00154416809471
 20
-1692.4238237070924
 42
0.0031035838762438
 10
349.88073938240842
 20
-1692.7822635688469
 10
349.87762933787178
 20
-1692.7916841902406
 42
0.0025070747153926
 10
349.75472798655034
 20
-1693.1703314072045
 10
349.71743409013141
 20
-1693.2872230724374
 42
0.0029081910283356
 10
349.52541579232098
 20
-1693.9013867307283
 10
349.48461262380386
 20
-1694.034609973005
 42
0.0009266453730618
 10
349.21619524949028
 20
-1694.9168344329239
 10
349.19530777683508
 20
-1694.9859463122077
 42
-0.0005809993664397
 10
348.91797109625657
 20
-1695.8997544188035
 10
348.85168929799192
 20
-1696.1172393509355
 42
-0.0012018708168494
 10
348.70470498855445
 20
-1696.5954020154838
 10
348.65238513695351
 20
-1696.7641611564641
 42
-0.0002691059622637
 10
348.60881565582019
 20
-1696.9044287766915
 10
345.77585975753061
 20
-1705.9935833789914
 10
343.95787086555208
 20
-1705.9935833789914
 10
350.21012028159964
 20
-1685.3498653424613
  0
SPLINE
  5
59
100
AcDbEntity
  8
0
370
              15
390
0
  6
Continuous
 62
               7
100
AcDbSpline
210
0.0
220
0.0
230
1.0
 70
              13
 71
               2
 72
             782
 73
             779
 74
               0
 42
0.000001
 43
0.000001
 40
0.0
 40
0.0
 40
0.0
 40
1.0
 40
1.0
 40
2.0
 40
2.0
 40
3.0
 40
3.0
 40
4.0
 40
4.0
 40
5.0
 40
5.0
 40
6.0
 40
6.0
 40
7.0
 40
7.0
 40
8.0
 40
8.0
 40
9.0
 40
9.0
 40
10.0
 40
10.0
 40
11.0
 40
11.0
 40
12.0
 40
12.0
 40
13.0
 40
13.0
 40
14.0
 40
14.0
 40
15.0
 40
15.0
 40
16.0
 40
16.0
 40
17.0
 40
17.0
 40
18.0
 40
18.0
 40
19.0
 40
19.0
 40
20.0
 40
20.0
 40
21.0
 40
21.0
 40
22.0
 40
22.0
 40
23.0
 40
23.0
 40
24.0
 40
24.0
 40
25.0
 40
25.0
 40
26.0
 40
26.0
 40
27.0
 40
27.0
 40
28.0
 40
28.0
 40
29.0
 40
29.0
 40
30.0
 40
30.0
 40
31.0
 40
31.0
 40
32.0
 40
32.0
 40
33.0
 40
33.0
 40
34.0
 40
34.0
 40
35.0
 40
35.0
 40
36.0
 40
36.0
 40
37.0
 40
37.0
 40
38.0
 40
38.0
 40
39.0
 40
39.0
 40
40.0
 40
40.0
 40
41.0
 40
41.0
 40
42.0
 40
42.0
 40
43.0
 40
43.0
 40
44.0
 40
44.0
 40
45.0
 40
45.0
 40
46.0
 40
46.0
 40
47.0
 40
47.0
 40
48.0
 40
48.0
 40
49.0
 40
49.0
 40
50.0
 40
50.0
 40
51.0
 40
51.0
 40
52.0
 40
52.0
 40
53.0
 40
53.0
 40
54.0
 40
54.0
 40
55.0
 40
55.0
 40
56.0
 40
56.0
 40
57.0
 40
57.0
 40
58.0
 40
58.0
 40
59.0
 40
59.0
 40
60.0
 40
60.0
 40
61.0
 40
61.0
 40
62.0
 40
62.0
 40
63.0
 40
63.0
 40
64.0
 40
64.0
 40
65.0
 40
65.0
 40
66.0
 40
66.0
 40
67.0
 40
67.0
 40
68.0
 40
68.0
 40
69.0
 40
69.0
 40
70.0
 40
70.0
 40
71.0
 40
71.0
 40
72.0
 40
72.0
 40
73.0
 40
73.0
 40
74.0
 40
74.0
 40
75.0
 40
75.0
 40
76.0
 40
76.0
 40
77.0
 40
77.0
 40
78.0
 40
78.0
 40
79.0
 40
79.0
 40
80.0
 40
80.0
 40
81.0
 40
81.0
 40
82.0
 40
82.0
 40
83.0
 40
83.0
 40
84.0
 40
84.0
 40
85.0
 40
85.0
 40
86.0
 40
86.0
 40
87.0
 40
87.0
 40
88.0
 40
88.0
 40
89.0
 40
89.0
 40
90.0
 40
90.0
 40
91.0
 40
91.0
 40
92.0
 40
92.0
 40
93.0
 40
93.0
 40
94.0
 40
94.0
 40
95.0
 40
95.0
 40
96.0
 40
96.0
 40
97.0
 40
97.0
 40
98.0
 40
98.0
 40
99.0
 40
99.0
 40
100.0
 40
100.0
 40
101.0
 40
101.0
 40
102.0
 40
102.0
 40
103.0
 40
103.0
 40
104.0
 40
104.0
 40
105.0
 40
105.0
 40
106.0
 40
106.0
 40
107.0
 40
107.0
 40
108.0
 40
108.0
 40
109.0
 40
109.0
 40
110.0
 40
110.0
 40
111.0
 40
111.0
 40
112.0
 40
112.0
 40
113.0
 40
113.0
 40
114.0
 40
114.0
 40
115.0
 40
115.0
 40
116.0
 40
116.0
 40
117.0
 40
117.0
 40
118.0
 40
118.0
 40
119.0
 40
119.0
 40
120.0
 40
120.0
 40
121.0
 40
121.0
 40
122.0
 40
122.0
 40
123.0
 40
123.0
 40
124.0
 40
124.0
 40
125.0
 40
125.0
 40
126.0
 40
126.0
 40
127.0
 40
127.0
 40
128.0
 40
128.0
 40
129.0
 40
129.0
 40
130.0
 40
130.0
 40
131.0
 40
131.0
 40
132.0
 40
132.0
 40
133.0
 40
133.0
 40
134.0
 40
134.0
 40
135.0
 40
135.0
 40
136.0
 40
136.0
 40
137.0
 40
137.0
 40
138.0
 40
138.0
 40
139.0
 40
139.0
 40
140.0
 40
140.0
 40
141.0
 40
141.0
 40
142.0
 40
142.0
 40
143.0
 40
143.0
 40
144.0
 40
144.0
 40
145.0
 40
145.0
 40
146.0
 40
146.0
 40
147.0
 40
147.0
 40
148.0
 40
148.0
 40
149.0
 40
149.0
 40
150.0
 40
150.0
 40
151.0
 40
151.0
 40
152.0
 40
152.0
 40
153.0
 40
153.0
 40
154.0
 40
154.0
 40
155.0
 40
155.0
 40
156.0
 40
156.0
 40
157.0
 40
157.0
 40
158.0
 40
158.0
 40
159.0
 40
159.0
 40
160.0
 40
160.0
 40
161.0
 40
161.0
 40
162.0
 40
162.0
 40
163.0
 40
163.0
 40
164.0
 40
164.0
 40
165.0
 40
165.0
 40
166.0
 40
166.0
 40
167.0
 40
167.0
 40
168.0
 40
168.0
 40
169.0
 40
169.0
 40
170.0
 40
170.0
 40
171.0
 40
171.0
 40
172.0
 40
172.0
 40
173.0
 40
173.0
 40
174.0
 40
174.0
 40
175.0
 40
175.0
 40
176.0
 40
176.0
 40
177.0
 40
177.0
 40
178.0
 40
178.0
 40
179.0
 40
179.0
 40
180.0
 40
180.0
 40
181.0
 40
181.0
 40
182.0
 40
182.0
 40
183.0
 40
183.0
 40
184.0
 40
184.0
 40
185.0
 40
185.0
 40
186.0
 40
186.0
 40
187.0
 40
187.0
 40
188.0
 40
188.0
 40
189.0
 40
189.0
 40
190.0
 40
190.0
 40
191.0
 40
191.0
 40
192.0
 40
192.0
 40
193.0
 40
193.0
 40
194.0
 40
194.0
 40
195.0
 40
195.0
 40
196.0
 40
196.0
 40
197.0
 40
197.0
 40
198.0
 40
198.0
 40
199.0
 40
199.0
 40
200.0
 40
200.0
 40
201.0
 40
201.0
 40
202.0
 40
202.0
 40
203.0
 40
203.0
 40
204.0
 40
204.0
 40
205.0
 40
205.0
 40
206.0
 40
206.0
 40
207.0
 40
207.0
 40
208.0
 40
208.0
 40
209.0
 40
209.0
 40
210.0
 40
210.0
 40
211.0
 40
211.0
 40
212.0
 40
212.0
 40
213.0
 40
213.0
 40
214.0
 40
214.0
 40
215.0
 40
215.0
 40
216.0
 40
216.0
 40
217.0
 40
217.0
 40
218.0
 40
218.0
 40
219.0
 40
219.0
 40
220.0
 40
220.0
 40
221.0
 40
221.0
 40
222.0
 40
222.0
 40
223.0
 40
223.0
 40
224.0
 40
224.0
 40
225.0
 40
225.0
 40
226.0
 40
226.0
 40
227.0
 40
227.0
 40
228.0
 40
228.0
 40
229.0
 40
229.0
 40
230.0
 40
230.0
 40
231.0
 40
231.0
 40
232.0
 40
232.0
 40
233.0
 40
233.0
 40
234.0
 40
234.0
 40
235.0
 40
235.0
 40
236.0
 40
236.0
 40
237.0
 40
237.0
 40
238.0
 40
238.0
 40
239.0
 40
239.0
 40
240.0
 40
240.0
 40
241.0
 40
241.0
 40
242.0
 40
242.0
 40
243.0
 40
243.0
 40
244.0
 40
244.0
 40
245.0
 40
245.0
 40
246.0
 40
246.0
 40
247.0
 40
247.0
 40
248.0
 40
248.0
 40
249.0
 40
249.0
 40
250.0
 40
250.0
 40
251.0
 40
251.0
 40
252.0
 40
252.0
 40
253.0
 40
253.0
 40
254.0
 40
254.0
 40
255.0
 40
255.0
 40
256.0
 40
256.0
 40
257.0
 40
257.0
 40
258.0
 40
258.0
 40
259.0
 40
259.0
 40
260.0
 40
260.0
 40
261.0
 40
261.0
 40
262.0
 40
262.0
 40
263.0
 40
263.0
 40
264.0
 40
264.0
 40
265.0
 40
265.0
 40
266.0
 40
266.0
 40
267.0
 40
267.0
 40
268.0
 40
268.0
 40
269.0
 40
269.0
 40
270.0
 40
270.0
 40
271.0
 40
271.0
 40
272.0
 40
272.0
 40
273.0
 40
273.0
 40
274.0
 40
274.0
 40
275.0
 40
275.0
 40
276.0
 40
276.0
 40
277.0
 40
277.0
 40
278.0
 40
278.0
 40
279.0
 40
279.0
 40
280.0
 40
280.0
 40
281.0
 40
281.0
 40
282.0
 40
282.0
 40
283.0
 40
283.0
 40
284.0
 40
284.0
 40
285.0
 40
285.0
 40
286.0
 40
286.0
 40
287.0
 40
287.0
 40
288.0
 40
288.0
 40
289.0
 40
289.0
 40
290.0
 40
290.0
 40
291.0
 40
291.0
 40
292.0
 40
292.0
 40
293.0
 40
293.0
 40
294.0
 40
294.0
 40
295.0
 40
295.0
 40
296.0
 40
296.0
 40
297.0
 40
297.0
 40
298.0
 40
298.0
 40
299.0
 40
299.0
 40
300.0
 40
300.0
 40
301.0
 40
301.0
 40
302.0
 40
302.0
 40
303.0
 40
303.0
 40
304.0
 40
304.0
 40
305.0
 40
305.0
 40
306.0
 40
306.0
 40
307.0
 40
307.0
 40
308.0
 40
308.0
 40
309.0
 40
309.0
 40
310.0
 40
310.0
 40
311.0
 40
311.0
 40
312.0
 40
312.0
 40
313.0
 40
313.0
 40
314.0
 40
314.0
 40
315.0
 40
315.0
 40
316.0
 40
316.0
 40
317.0
 40
317.0
 40
318.0
 40
318.0
 40
319.0
 40
319.0
 40
320.0
 40
320.0
 40
321.0
 40
321.0
 40
322.0
 40
322.0
 40
323.0
 40
323.0
 40
324.0
 40
324.0
 40
325.0
 40
325.0
 40
326.0
 40
326.0
 40
327.0
 40
327.0
 40
328.0
 40
328.0
 40
329.0
 40
329.0
 40
330.0
 40
330.0
 40
331.0
 40
331.0
 40
332.0
 40
332.0
 40
333.0
 40
333.0
 40
334.0
 40
334.0
 40
335.0
 40
335.0
 40
336.0
 40
336.0
 40
337.0
 40
337.0
 40
338.0
 40
338.0
 40
339.0
 40
339.0
 40
340.0
 40
340.0
 40
341.0
 40
341.0
 40
342.0
 40
342.0
 40
343.0
 40
343.0
 40
344.0
 40
344.0
 40
345.0
 40
345.0
 40
346.0
 40
346.0
 40
347.0
 40
347.0
 40
348.0
 40
348.0
 40
349.0
 40
349.0
 40
350.0
 40
350.0
 40
351.0
 40
351.0
 40
352.0
 40
352.0
 40
353.0
 40
353.0
 40
354.0
 40
354.0
 40
355.0
 40
355.0
 40
356.0
 40
356.0
 40
357.0
 40
357.0
 40
358.0
 40
358.0
 40
359.0
 40
359.0
 40
360.0
 40
360.0
 40
361.0
 40
361.0
 40
362.0
 40
362.0
 40
363.0
 40
363.0
 40
364.0
 40
364.0
 40
365.0
 40
365.0
 40
366.0
 40
366.0
 40
367.0
 40
367.0
 40
368.0
 40
368.0
 40
369.0
 40
369.0
 40
370.0
 40
370.0
 40
371.0
 40
371.0
 40
372.0
 40
372.0
 40
373.0
 40
373.0
 40
374.0
 40
374.0
 40
375.0
 40
375.0
 40
376.0
 40
376.0
 40
377.0
 40
377.0
 40
378.0
 40
378.0
 40
379.0
 40
379.0
 40
380.0
 40
380.0
 40
381.0
 40
381.0
 40
382.0
 40
382.0
 40
383.0
 40
383.0
 40
384.0
 40
384.0
 40
385.0
 40
385.0
 40
386.0
 40
386.0
 40
387.0
 40
387.0
 40
388.0
 40
388.0
 40
389.0
 40
389.0
 40
389.0
 10
360.53882473233386
 20
-1685.3389389790991
 30
0.0
 41
1.0
 10
361.357248841054
 20
-1685.3389389790991
 30
0.0
 41
1.0
 10
362.17567294977414
 20
-1685.3389389790991
 30
0.0
 41
1.0
 10
361.76191921425777
 20
-1686.6815652433488
 30
0.0
 41
1.0
 10
361.34816547874141
 20
-1688.0241915075985
 30
0.0
 41
1.0
 10
361.36650497390985
 20
-1687.9954907346855
 30
0.0
 41
0.9999957264438288
 10
361.38501197075055
 20
-1687.9668976845194
 30
0.0
 41
1.0
 10
361.41544129488216
 20
-1687.9198848061519
 30
0.0
 41
1.0
 10
361.44587061901382
 20
-1687.8728719277844
 30
0.0
 41
1.0
 10
361.52523626411823
 20
-1687.7502531208825
 30
0.0
 41
0.999539406908009
 10
361.61189465566878
 20
-1687.6326750591431
 30
0.0
 41
1.0
 10
361.64765151793108
 20
-1687.5841601665463
 30
0.0
 41
1.0
 10
361.68340838019344
 20
-1687.5356452739495
 30
0.0
 41
1.0
 10
361.81713504800996
 20
-1687.3542049988257
 30
0.0
 41
0.9994460617143586
 10
361.96263552929793
 20
-1687.1820626011761
 30
0.0
 41
1.0
 10
361.96702371027322
 20
-1687.1768709207931
 30
0.0
 41
1.0
 10
361.97141189124852
 20
-1687.1716792404102
 30
0.0
 41
1.0
 10
362.10813601058629
 20
-1687.0099202035262
 30
0.0
 41
0.9994359394934791
 10
362.25541024093707
 20
-1686.857704002362
 30
0.0
 41
1.0
 10
362.25779359489206
 20
-1686.8552406719871
 30
0.0
 41
1.0
 10
362.260176948847
 20
-1686.8527773416122
 30
0.0
 41
1.0
 10
362.40268447128915
 20
-1686.7054878011966
 30
0.0
 41
0.9995293688567779
 10
362.55395615227042
 20
-1686.567214589033
 30
0.0
 41
1.0
 10
362.5732499115328
 20
-1686.5495787033828
 30
0.0
 41
1.0
 10
362.59254367079512
 20
-1686.5319428177324
 30
0.0
 41
1.0
 10
362.7052278332518
 20
-1686.4289413768695
 30
0.0
 41
0.9997087614803686
 10
362.82275072220762
 20
-1686.331497096071
 30
0.0
 41
1.0
 10
362.8419167953802
 20
-1686.3156055175655
 30
0.0
 41
1.0
 10
362.86108286855278
 20
-1686.29971393906
 30
0.0
 41
1.0
 10
362.94027361116309
 20
-1686.2340528152729
 30
0.0
 41
0.9999595338698158
 10
363.02063288201805
 20
-1686.1698270846182
 30
0.0
 41
1.0
 10
363.1009921528713
 20
-1686.1056013539649
 30
0.0
 41
0.9999749417503079
 10
363.1822526872146
 20
-1686.0425198000185
 30
0.0
 41
1.0
 10
363.20323883338347
 20
-1686.0262285127119
 30
0.0
 41
1.0
 10
363.22422497955228
 20
-1686.0099372254053
 30
0.0
 41
1.0
 10
363.30879286484725
 20
-1685.9442882155695
 30
0.0
 41
0.9999792037120268
 10
363.39420046461908
 20
-1685.8797354339242
 30
0.0
 41
1.0
 10
363.4150252905045
 20
-1685.8639956116863
 30
0.0
 41
1.0
 10
363.43585011638993
 20
-1685.8482557894483
 30
0.0
 41
1.0
 10
363.47960806438243
 20
-1685.8151826522853
 30
0.0
 41
0.999999337387144
 10
363.52328975053149
 20
-1685.7820088568565
 30
0.0
 41
1.0
 10
363.56697143667049
 20
-1685.7488350614351
 30
0.0
 41
0.9999160953814105
 10
363.61149784759073
 20
-1685.7168039962366
 30
0.0
 41
1.0
 10
363.64431973501195
 20
-1685.6931928406507
 30
0.0
 41
1.0
 10
363.67714162243317
 20
-1685.6695816850645
 30
0.0
 41
1.0
 10
363.7873118081925
 20
-1685.5903283086964
 30
0.0
 41
0.9980964527233199
 10
363.90640080169334
 20
-1685.5252408358401
 30
0.0
 41
1.0
 10
363.94343340862116
 20
-1685.5050008562471
 30
0.0
 41
1.0
 10
363.98046601554898
 20
-1685.484760876654
 30
0.0
 41
1.0
 10
364.15979302882113
 20
-1685.386750625953
 30
0.0
 41
0.9984572810572328
 10
364.34888159517993
 20
-1685.3092283646067
 30
0.0
 41
1.0
 10
364.3525278645738
 20
-1685.3077334722695
 30
0.0
 41
1.0
 10
364.35617413396767
 20
-1685.3062385799324
 30
0.0
 41
1.0
 10
364.53797016153726
 20
-1685.2317061032609
 30
0.0
 41
0.9987838528033913
 10
364.72622282009831
 20
-1685.1754404630947
 30
0.0
 41
1.0
 10
364.73046076929819
 20
-1685.1741738094042
 30
0.0
 41
1.0
 10
364.73469871849807
 20
-1685.1729071557136
 30
0.0
 41
1.0
 10
364.9144754786592
 20
-1685.1191748229287
 30
0.0
 41
0.9990652816207288
 10
365.09822141037364
 20
-1685.0811711433869
 30
0.0
 41
1.0
 10
365.10340981140507
 20
-1685.0800980402805
 30
0.0
 41
1.0
 10
365.1085982124365
 20
-1685.0790249371739
 30
0.0
 41
1.0
 10
365.28196734208967
 20
-1685.0431674638448
 30
0.0
 41
0.9992909934270527
 10
365.45754310854807
 20
-1685.0204570313783
 30
0.0
 41
1.0
 10
365.63311887500743
 20
-1684.9977465989118
 30
0.0
 41
0.9994553539449139
 10
365.8098103081017
 20
-1684.9866672947055
 30
0.0
 41
1.0
 10
365.84524471589435
 20
-1684.9844454066579
 30
0.0
 41
1.0
 10
365.880679123687
 20
-1684.9822235186102
 30
0.0
 41
1.0
 10
366.04690489025847
 20
-1684.9718004561983
 30
0.0
 41
0.9990928098293079
 10
366.21341468216303
 20
-1684.9755600974327
 30
0.0
 41
1.0
 10
366.25197651743593
 20
-1684.9764307889657
 30
0.0
 41
1.0
 10
366.29053835270884
 20
-1684.9773014804987
 30
0.0
 41
1.0
 10
366.37992447406685
 20
-1684.9793197386671
 30
0.0
 41
0.9998382089205947
 10
366.46918015685185
 20
-1684.9845518651953
 30
0.0
 41
1.0
 10
366.46961006307322
 20
-1684.9845770660977
 30
0.0
 41
1.0
 10
366.47003996929465
 20
-1684.9846022669999
 30
0.0
 41
1.0
 10
366.55843583963951
 20
-1684.9897839917237
 30
0.0
 41
0.9997558016758964
 10
366.64651641683884
 20
-1684.9988665070898
 30
0.0
 41
1.0
 10
366.64699255527012
 20
-1684.9989156045726
 30
0.0
 41
1.0
 10
366.6474686937014
 20
-1684.9989647020552
 30
0.0
 41
1.0
 10
366.73459699404117
 20
-1685.0079490224564
 30
0.0
 41
0.9996565144180732
 10
366.82113484738181
 20
-1685.0214863291453
 30
0.0
 41
1.0
 10
366.82160077275739
 20
-1685.0215592148763
 30
0.0
 41
1.0
 10
366.82206669813297
 20
-1685.0216321006073
 30
0.0
 41
1.0
 10
366.9076727007216
 20
-1685.035023635834
 30
0.0
 41
0.999532180686715
 10
366.9922997810512
 20
-1685.0536241242637
 30
0.0
 41
1.0
 10
366.99268897562354
 20
-1685.0537096667297
 30
0.0
 41
1.0
 10
366.99307817019587
 20
-1685.0537952091956
 30
0.0
 41
1.0
 10
367.07692686137955
 20
-1685.0722246126932
 30
0.0
 41
0.9993819199219884
 10
367.15927339557527
 20
-1685.0964999959535
 30
0.0
 41
1.0
 10
367.15951182907258
 20
-1685.0965702850626
 30
0.0
 41
1.0
 10
367.15975026256996
 20
-1685.0966405741719
 30
0.0
 41
1.0
 10
367.24161992977054
 20
-1685.1207753792137
 30
0.0
 41
0.9992088568504695
 10
367.32131244875961
 20
-1685.1513406150086
 30
0.0
 41
1.0
 10
367.40099343963885
 20
-1685.181900215742
 30
0.0
 41
0.9990226101774559
 10
367.47766410954625
 20
-1685.2193776473564
 30
0.0
 41
1.0
 10
367.55432325134393
 20
-1685.256849443909
 30
0.0
 41
0.9988424273970126
 10
367.62702687855631
 20
-1685.3015142191623
 30
0.0
 41
1.0
 10
367.62729458693599
 20
-1685.3016786832347
 30
0.0
 41
1.0
 10
367.62756229531567
 20
-1685.3018431473072
 30
0.0
 41
1.0
 10
367.70080133928712
 20
-1685.3468368507054
 30
0.0
 41
0.9986928844493052
 10
367.76906420599698
 20
-1685.3990725849847
 30
0.0
 41
1.0
 10
367.7696454982194
 20
-1685.3995173982123
 30
0.0
 41
1.0
 10
367.77022679044182
 20
-1685.39996221144
 30
0.0
 41
1.0
 10
367.83965224159704
 20
-1685.453087572175
 30
0.0
 41
0.9986007262277095
 10
367.90307841136388
 20
-1685.513248341869
 30
0.0
 41
1.0
 10
367.90397282682102
 20
-1685.5140967097041
 30
0.0
 41
1.0
 10
367.9048672422781
 20
-1685.5149450775391
 30
0.0
 41
1.0
 10
367.97008224295888
 20
-1685.5768025829029
 30
0.0
 41
0.9985581491383047
 10
368.02828985466078
 20
-1685.6452950731743
 30
0.0
 41
1.0
 10
368.03754830825665
 20
-1685.6561894308761
 30
0.0
 41
1.0
 10
368.04680676185251
 20
-1685.6670837885779
 30
0.0
 41
1.0
 10
368.12353128074562
 20
-1685.7573649942522
 30
0.0
 41
0.9970460233518048
 10
368.18552318190478
 20
-1685.8583320784342
 30
0.0
 41
1.0
 10
368.19999254698484
 20
-1685.8818985375165
 30
0.0
 41
1.0
 10
368.21446191206485
 20
-1685.9054649965985
 30
0.0
 41
1.0
 10
368.25419861207655
 20
-1685.97018472063
 30
0.0
 41
0.9988468816639212
 10
368.28754498282831
 20
-1686.0384171730566
 30
0.0
 41
1.0
 10
368.29458100531963
 20
-1686.0528140941933
 30
0.0
 41
1.0
 10
368.30161702781101
 20
-1686.0672110153303
 30
0.0
 41
1.0
 10
368.32089135357933
 20
-1686.1066496254816
 30
0.0
 41
0.9998431189994848
 10
368.33875668107464
 20
-1686.146746179925
 30
0.0
 41
1.0
 10
368.35662200857411
 20
-1686.1868427343777
 30
0.0
 41
0.9999989989808132
 10
368.37460073199082
 20
-1686.2268885719486
 30
0.0
 41
1.0
 10
368.38077304358546
 20
-1686.2406367887615
 30
0.0
 41
1.0
 10
368.38694535518005
 20
-1686.2543850055747
 30
0.0
 41
1.0
 10
368.41726870179184
 20
-1686.3219272767849
 30
0.0
 41
0.9998790356318837
 10
368.44547658192886
 20
-1686.390380028721
 30
0.0
 41
1.0
 10
368.452311763213
 20
-1686.4069671301484
 30
0.0
 41
1.0
 10
368.45914694449715
 20
-1686.4235542315757
 30
0.0
 41
1.0
 10
368.48270460687655
 20
-1686.4807221864598
 30
0.0
 41
0.9998227574561683
 10
368.50409335526672
 20
-1686.5387364947387
 30
0.0
 41
1.0
 10
368.52548210365615
 20
-1686.5967508030158
 30
0.0
 41
0.9996797971041134
 10
368.54390838861588
 20
-1686.6557729221352
 30
0.0
 41
1.0
 10
368.54781219134134
 20
-1686.6682773803036
 30
0.0
 41
1.0
 10
368.55171599406674
 20
-1686.6807818384723
 30
0.0
 41
1.0
 10
368.57794988447739
 20
-1686.7648128739293
 30
0.0
 41
0.9979274938733476
 10
368.59317440795621
 20
-1686.8515172325888
 30
0.0
 41
1.0
 10
368.59539809521743
 20
-1686.8641812334101
 30
0.0
 41
1.0
 10
368.5976217824786
 20
-1686.8768452342315
 30
0.0
 41
1.0
 10
368.60855172217668
 20
-1686.9390917415208
 30
0.0
 41
0.999498598213719
 10
368.61551988735334
 20
-1687.001905242663
 30
0.0
 41
1.0
 10
368.62248805253
 20
-1687.0647187438071
 30
0.0
 41
0.9996372611204637
 10
368.62606391829831
 20
-1687.1278163224881
 30
0.0
 41
1.0
 10
368.62623249578763
 20
-1687.13079093957
 30
0.0
 41
1.0
 10
368.62640107327695
 20
-1687.1337655566517
 30
0.0
 41
1.0
 10
368.63031409402384
 20
-1687.2028123695006
 30
0.0
 41
0.999773063073483
 10
368.63128240751121
 20
-1687.2719631935322
 30
0.0
 41
1.0
 10
368.63133951392928
 20
-1687.2760413726739
 30
0.0
 41
1.0
 10
368.63139662034735
 20
-1687.2801195518157
 30
0.0
 41
1.0
 10
368.63247914667102
 20
-1687.3574267341282
 30
0.0
 41
0.9998772614071146
 10
368.63113905993964
 20
-1687.4347298806945
 30
0.0
 41
1.0
 10
368.63104979674091
 20
-1687.4398790445312
 30
0.0
 41
1.0
 10
368.63096053354218
 20
-1687.4450282083678
 30
0.0
 41
1.0
 10
368.62944192041368
 20
-1687.5326296825981
 30
0.0
 41
0.9999415567325534
 10
368.62602961016779
 20
-1687.6201778442739
 30
0.0
 41
1.0
 10
368.62578828949245
 20
-1687.6263693040128
 30
0.0
 41
1.0
 10
368.62554696881705
 20
-1687.6325607637518
 30
0.0
 41
1.0
 10
368.62165201722064
 20
-1687.7324918448985
 30
0.0
 41
0.9999716810425247
 10
368.61625343410179
 20
-1687.8323529831298
 30
0.0
 41
1.0
 10
368.61304063531304
 20
-1687.8917822327853
 30
0.0
 41
1.0
 10
368.60982783652423
 20
-1687.9512114824408
 30
0.0
 41
1.0
 10
368.60175392737119
 20
-1688.1005598837237
 30
0.0
 41
0.9999819129909288
 10
368.59188413575464
 20
-1688.2498003614373
 30
0.0
 41
1.0
 10
368.5820143441382
 20
-1688.3990408391487
 30
0.0
 41
1.0
 10
368.57957502357419
 20
-1688.4362338849978
 30
0.0
 41
1.0
 10
368.60227325741084
 20
-1688.3974928876587
 30
0.0
 41
0.999998212803052
 10
368.62511781619281
 20
-1688.3588379936559
 30
0.0
 41
1.0
 10
368.65202737606171
 20
-1688.313304779628
 30
0.0
 41
1.0
 10
368.67893693593066
 20
-1688.2677715656
 30
0.0
 41
1.0
 10
368.75560061446038
 20
-1688.1380502435247
 30
0.0
 41
0.9998609190056553
 10
368.83654792732364
 20
-1688.0109578615929
 30
0.0
 41
1.0
 10
368.86619624880154
 20
-1687.9644081286415
 30
0.0
 41
1.0
 10
368.89584457027939
 20
-1687.9178583956902
 30
0.0
 41
1.0
 10
368.97811679051881
 20
-1687.7886858256911
 30
0.0
 41
0.9999067609735368
 10
369.06388579998236
 20
-1687.6618081362501
 30
0.0
 41
1.0
 10
369.06629050318423
 20
-1687.6582508701938
 30
0.0
 41
1.0
 10
369.06869520638611
 20
-1687.6546936041375
 30
0.0
 41
1.0
 10
369.14965480944818
 20
-1687.5349304468059
 30
0.0
 41
0.9998784952147624
 10
369.23430841912739
 20
-1687.4177492301001
 30
0.0
 41
1.0
 10
369.31896202880893
 20
-1687.3005680133908
 30
0.0
 41
0.9998532968283992
 10
369.40757964963001
 20
-1687.1863551049225
 30
0.0
 41
1.0
 10
369.42754143862163
 20
-1687.1606277839019
 30
0.0
 41
1.0
 10
369.44750322761325
 20
-1687.134900462881
 30
0.0
 41
1.0
 10
369.56598727737196
 20
-1686.9821948519127
 30
0.0
 41
0.9991551975795303
 10
369.69661172699614
 20
-1686.8397352898285
 30
0.0
 41
1.0
 10
369.70012134297639
 20
-1686.8359076882036
 30
0.0
 41
1.0
 10
369.70363095895664
 20
-1686.8320800865788
 30
0.0
 41
1.0
 10
369.82723617662128
 20
-1686.6972757277433
 30
0.0
 41
0.9997418144181026
 10
369.95683831632084
 20
-1686.5682263171325
 30
0.0
 41
1.0
 10
370.08644045602153
 20
-1686.4391769065203
 30
0.0
 41
0.9989238204633966
 10
370.22744300427172
 20
-1686.3226919444819
 30
0.0
 41
1.0
 10
370.27269068241151
 20
-1686.2853119528727
 30
0.0
 41
1.0
 10
370.31793836055124
 20
-1686.2479319612637
 30
0.0
 41
1.0
 10
370.45817841777244
 20
-1686.1320769079728
 30
0.0
 41
0.9990825084096418
 10
370.60781835037631
 20
-1686.0286479101399
 30
0.0
 41
1.0
 10
370.617863714431
 20
-1686.021704697062
 30
0.0
 41
1.0
 10
370.62790907848574
 20
-1686.0147614839839
 30
0.0
 41
1.0
 10
370.7574582829788
 20
-1685.9252189123079
 30
0.0
 41
0.9998164899825469
 10
370.89034248635687
 20
-1685.8407046707905
 30
0.0
 41
1.0
 10
370.90218804688391
 20
-1685.8331709042641
 30
0.0
 41
1.0
 10
370.91403360741089
 20
-1685.8256371377379
 30
0.0
 41
1.0
 10
371.02322668973397
 20
-1685.7561904292738
 30
0.0
 41
0.9997473449130385
 10
371.1354306469824
 20
-1685.6917214714585
 30
0.0
 41
1.0
 10
371.2476346042348
 20
-1685.627252513641
 30
0.0
 41
0.9999327861139243
 10
371.36130321500042
 20
-1685.5654025219587
 30
0.0
 41
1.0
 10
371.36185521755863
 20
-1685.5651021632809
 30
0.0
 41
1.0
 10
371.36240722011678
 20
-1685.5648018046031
 30
0.0
 41
1.0
 10
371.47717983599978
 20
-1685.5023510955643
 30
0.0
 41
0.9996956420483188
 10
371.59489316183613
 20
-1685.4456376285916
 30
0.0
 41
1.0
 10
371.62533356673697
 20
-1685.4309716518578
 30
0.0
 41
1.0
 10
371.65577397163781
 20
-1685.4163056751238
 30
0.0
 41
1.0
 10
371.75875107837692
 20
-1685.3666920166829
 30
0.0
 41
0.9998070570177212
 10
371.86359746731284
 20
-1685.3211614297841
 30
0.0
 41
1.0
 10
371.96844385625116
 20
-1685.2756308428841
 30
0.0
 41
0.9997827436147294
 10
372.07509679285806
 20
-1685.2345096715733
 30
0.0
 41
1.0
 10
372.09431964249211
 20
-1685.2270980979399
 30
0.0
 41
1.0
 10
372.11354249212616
 20
-1685.2196865243066
 30
0.0
 41
1.0
 10
372.2586411279982
 20
-1685.1637422057299
 30
0.0
 41
0.9988031841976919
 10
372.40851149060217
 20
-1685.1222421415623
 30
0.0
 41
1.0
 10
372.43342873896688
 20
-1685.1153423957549
 30
0.0
 41
1.0
 10
372.45834598733154
 20
-1685.1084426499476
 30
0.0
 41
1.0
 10
372.62561601297807
 20
-1685.0621245075411
 30
0.0
 41
0.9984748040549928
 10
372.79697292162598
 20
-1685.0345302752764
 30
0.0
 41
1.0
 10
372.80171205787394
 20
-1685.0337671147631
 30
0.0
 41
1.0
 10
372.80645119412191
 20
-1685.0330039542498
 30
0.0
 41
1.0
 10
372.96832983027412
 20
-1685.0069360430116
 30
0.0
 41
0.9984436495480068
 10
373.13210457399998
 20
-1684.9990580891929
 30
0.0
 41
1.0
 10
373.15380178213275
 20
-1684.9980144019933
 30
0.0
 41
1.0
 10
373.17549899026545
 20
-1684.9969707147934
 30
0.0
 41
1.0
 10
373.29587931772568
 20
-1684.9911801353742
 30
0.0
 41
0.998795478933562
 10
373.41624756263388
 20
-1684.9972166631164
 30
0.0
 41
1.0
 10
373.43621235512683
 20
-1684.998217907455
 30
0.0
 41
1.0
 10
373.45617714761971
 20
-1684.9992191517936
 30
0.0
 41
1.0
 10
373.53661580754232
 20
-1685.0032531908587
 30
0.0
 41
0.9997941595876986
 10
373.61682458563826
 20
-1685.0105472567798
 30
0.0
 41
1.0
 10
373.69703336373198
 20
-1685.0178413227006
 30
0.0
 41
0.9998589466236855
 10
373.77695191058524
 20
-1685.0278251771506
 30
0.0
 41
1.0
 10
373.8093581123947
 20
-1685.03187353407
 30
0.0
 41
1.0
 10
373.84176431420417
 20
-1685.0359218909894
 30
0.0
 41
1.0
 10
373.98649526467614
 20
-1685.0540024592781
 30
0.0
 41
0.9993495063249721
 10
374.12954650844233
 20
-1685.0824681690199
 30
0.0
 41
1.0
 10
374.16248020559294
 20
-1685.0890216322346
 30
0.0
 41
1.0
 10
374.1954139027435
 20
-1685.095575095449
 30
0.0
 41
1.0
 10
374.30470772594907
 20
-1685.1173234295848
 30
0.0
 41
0.999678871556163
 10
374.41275929790606
 20
-1685.1445812289478
 30
0.0
 41
1.0
 10
374.41482230044653
 20
-1685.1451016555211
 30
0.0
 41
1.0
 10
374.416885302987
 20
-1685.1456220820944
 30
0.0
 41
1.0
 10
374.52081086986414
 20
-1685.1718390283113
 30
0.0
 41
0.9995480654492611
 10
374.622973105092
 20
-1685.2042539849351
 30
0.0
 41
1.0
 10
374.62466274721982
 20
-1685.2047900898488
 30
0.0
 41
1.0
 10
374.62635238934763
 20
-1685.2053261947622
 30
0.0
 41
1.0
 10
374.72513534031964
 20
-1685.2366689415587
 30
0.0
 41
0.9993867959456184
 10
374.82148249876388
 20
-1685.2748483108492
 30
0.0
 41
1.0
 10
374.82272544784951
 20
-1685.2753408527458
 30
0.0
 41
1.0
 10
374.82396839693513
 20
-1685.2758333946424
 30
0.0
 41
1.0
 10
374.91782965720705
 20
-1685.3130276801392
 30
0.0
 41
0.9992050256521649
 10
375.0084293322401
 20
-1685.3575815793777
 30
0.0
 41
1.0
 10
375.00916401495294
 20
-1685.3579428718385
 30
0.0
 41
1.0
 10
375.00989869766579
 20
-1685.3583041642996
 30
0.0
 41
1.0
 10
375.09902900727332
 20
-1685.4021354786162
 30
0.0
 41
0.9990222350740921
 10
375.18393906866675
 20
-1685.4536687463149
 30
0.0
 41
1.0
 10
375.18412295394887
 20
-1685.4537803492194
 30
0.0
 41
1.0
 10
375.18430683923106
 20
-1685.4538919521237
 30
0.0
 41
1.0
 10
375.26884913005972
 20
-1685.5052020140131
 30
0.0
 41
0.9988642743807449
 10
375.34812366467975
 20
-1685.5643262015385
 30
0.0
 41
1.0
 10
375.4273981993004
 20
-1685.6234503890646
 30
0.0
 41
0.9987681233310303
 10
375.50042198357687
 20
-1685.6901410804655
 30
0.0
 41
1.0
 10
375.50075091154207
 20
-1685.690441481679
 30
0.0
 41
1.0
 10
375.50107983950727
 20
-1685.6907418828928
 30
0.0
 41
1.0
 10
375.57476147971437
 20
-1685.758033376721
 30
0.0
 41
0.998749657089711
 10
375.64135528504153
 20
-1685.8323461908083
 30
0.0
 41
1.0
 10
375.64212745480205
 20
-1685.8332078641663
 30
0.0
 41
1.0
 10
375.64289962456257
 20
-1685.8340695375243
 30
0.0
 41
1.0
 10
375.71103776940998
 20
-1685.9101056983266
 30
0.0
 41
0.9988147669827366
 10
375.77146002363526
 20
-1685.9924067051697
 30
0.0
 41
1.0
 10
375.77257934971283
 20
-1685.9939313365221
 30
0.0
 41
1.0
 10
375.77369867579034
 20
-1685.9954559678742
 30
0.0
 41
1.0
 10
375.83635958217076
 20
-1686.0808062374219
 30
0.0
 41
0.9989452636216499
 10
375.89092649513123
 20
-1686.171544926578
 30
0.0
 41
1.0
 10
375.8922752212174
 20
-1686.173787707605
 30
0.0
 41
1.0
 10
375.89362394730358
 20
-1686.176030488632
 30
0.0
 41
1.0
 10
375.9508883124372
 20
-1686.2712547398437
 30
0.0
 41
0.99910464360715
 10
375.99989752575902
 20
-1686.3709791728686
 30
0.0
 41
1.0
 10
376.00136138734882
 20
-1686.3739578529407
 30
0.0
 41
1.0
 10
376.00282524893862
 20
-1686.3769365330127
 30
0.0
 41
1.0
 10
376.05476218544072
 20
-1686.4826183261832
 30
0.0
 41
0.9992763831099377
 10
376.09851531399534
 20
-1686.5919423881396
 30
0.0
 41
1.0
 10
376.09999458365849
 20
-1686.5956385756729
 30
0.0
 41
1.0
 10
376.10147385332164
 20
-1686.5993347632061
 30
0.0
 41
1.0
 10
376.14818552120261
 20
-1686.716051200229
 30
0.0
 41
0.9994163472884622
 10
376.18681855239254
 20
-1686.8356847886928
 30
0.0
 41
1.0
 10
376.18805670463939
 20
-1686.8395189324758
 30
0.0
 41
1.0
 10
376.18929485688619
 20
-1686.8433530762588
 30
0.0
 41
1.0
 10
376.22917841790394
 20
-1686.9668591377383
 30
0.0
 41
0.9997268055891516
 10
376.26324647381568
 20
-1687.0920941696879
 30
0.0
 41
1.0
 10
376.2641766540853
 20
-1687.0955135357972
 30
0.0
 41
1.0
 10
376.26510683435498
 20
-1687.0989329019062
 30
0.0
 41
1.0
 10
376.29731452972743
 20
-1687.2173292016373
 30
0.0
 41
0.9996701319000464
 10
376.32340014649833
 20
-1687.3372231549022
 30
0.0
 41
1.0
 10
376.34948576326912
 20
-1687.4571171081675
 30
0.0
 41
0.9995785451109239
 10
376.3685693406087
 20
-1687.5783228691978
 30
0.0
 41
1.0
 10
376.37278912278236
 20
-1687.6051240239624
 30
0.0
 41
1.0
 10
376.37700890495597
 20
-1687.631925178727
 30
0.0
 41
1.0
 10
376.40358388089442
 20
-1687.8007111524303
 30
0.0
 41
0.9979925101218002
 10
376.4086094668213
 20
-1687.9715024805221
 30
0.0
 41
1.0
 10
376.40943427924606
 20
-1687.9995332040025
 30
0.0
 41
1.0
 10
376.41025909167075
 20
-1688.027563927483
 30
0.0
 41
1.0
 10
376.41363505274819
 20
-1688.1422938086134
 30
0.0
 41
0.9995314902262471
 10
376.4099848606096
 20
-1688.2570152923656
 30
0.0
 41
1.0
 10
376.40633466847095
 20
-1688.3717367761185
 30
0.0
 41
0.9996245486944406
 10
376.39640557333991
 20
-1688.486086047242
 30
0.0
 41
1.0
 10
376.39624252534566
 20
-1688.4879638033769
 30
0.0
 41
1.0
 10
376.39607947735146
 20
-1688.4898415595119
 30
0.0
 41
1.0
 10
376.3858242862317
 20
-1688.6079463429089
 30
0.0
 41
0.9997286095000951
 10
376.3700789626605
 20
-1688.7254452518
 30
0.0
 41
1.0
 10
376.3696854700101
 20
-1688.7283816765025
 30
0.0
 41
1.0
 10
376.36929197735969
 20
-1688.7313181012048
 30
0.0
 41
1.0
 10
376.35275966848769
 20
-1688.8546898595018
 30
0.0
 41
0.9998265533969519
 10
376.33164420975561
 20
-1688.977360334289
 30
0.0
 41
1.0
 10
376.33096766761821
 20
-1688.981290712798
 30
0.0
 41
1.0
 10
376.33029112548081
 20
-1688.9852210913068
 30
0.0
 41
1.0
 10
376.30782258247496
 20
-1689.1157523231061
 30
0.0
 41
0.9999022530851306
 10
376.28171311786565
 20
-1689.2456042917422
 30
0.0
 41
1.0
 10
376.28073447669965
 20
-1689.2504714341328
 30
0.0
 41
1.0
 10
376.27975583553359
 20
-1689.2553385765234
 30
0.0
 41
1.0
 10
376.25168908859399
 20
-1689.3949248299314
 30
0.0
 41
0.9999524761932745
 10
376.22090611975796
 20
-1689.5339373231013
 30
0.0
 41
1.0
 10
376.21963001258251
 20
-1689.5397000824037
 30
0.0
 41
1.0
 10
376.21835390540707
 20
-1689.5454628417058
 30
0.0
 41
1.0
 10
376.1850187222193
 20
-1689.6960008534832
 30
0.0
 41
0.9999813588731017
 10
376.1498477214231
 20
-1689.8461205661395
 30
0.0
 41
1.0
 10
376.14829379596756
 20
-1689.8527531565574
 30
0.0
 41
1.0
 10
376.14673987051208
 20
-1689.8593857469755
 30
0.0
 41
1.0
 10
376.10846101879793
 20
-1690.0227706404976
 30
0.0
 41
0.9999955237692363
 10
376.06920514082003
 20
-1690.1859235440938
 30
0.0
 41
1.0
 10
376.05692350518706
 20
-1690.2369677346114
 30
0.0
 41
1.0
 10
376.04464186955408
 20
-1690.2880119251288
 30
0.0
 41
1.0
 10
375.98082272031525
 20
-1690.55325320974
 30
0.0
 41
0.9999993604138531
 10
375.9164037731303
 20
-1690.8183494604916
 30
0.0
 41
1.0
 10
375.91168493758641
 20
-1690.8377683685189
 30
0.0
 41
1.0
 10
375.90696610204247
 20
-1690.8571872765463
 30
0.0
 41
1.0
 10
375.83310948377886
 20
-1691.1611213433148
 30
0.0
 41
0.9999659914728017
 10
375.75424988789308
 20
-1691.4637958898757
 30
0.0
 41
1.0
 10
375.74929719896386
 20
-1691.4828050270526
 30
0.0
 41
1.0
 10
375.74434451003469
 20
-1691.5018141642295
 30
0.0
 41
1.0
 10
375.65557953629127
 20
-1691.8425069851426
 30
0.0
 41
0.9999441976027841
 10
375.55963650332592
 20
-1692.1812484104478
 30
0.0
 41
1.0
 10
375.54293598490045
 20
-1692.2402121229752
 30
0.0
 41
1.0
 10
375.52623546647499
 20
-1692.2991758355029
 30
0.0
 41
1.0
 10
375.39689139666365
 20
-1692.755844685847
 30
0.0
 41
0.9999625120734161
 10
375.25965862933936
 20
-1693.2102052198447
 30
0.0
 41
1.0
 10
375.22386868625233
 20
-1693.3287012464848
 30
0.0
 41
1.0
 10
375.18807874316536
 20
-1693.4471972731251
 30
0.0
 41
1.0
 10
375.11355853912607
 20
-1693.6939243512206
 30
0.0
 41
0.9999793386301012
 10
375.03587251599254
 20
-1693.9396729904454
 30
0.0
 41
1.0
 10
374.95818649285536
 20
-1694.1854216296815
 30
0.0
 41
1.0
 10
374.94740693398523
 20
-1694.2194395340562
 30
0.0
 41
1.0
 10
373.09703388071591
 20
-1700.1065114565238
 30
0.0
 41
1.0
 10
371.24666082744659
 20
-1705.9935833789914
 30
0.0
 41
1.0
 10
370.28540413742337
 20
-1705.9935833789914
 30
0.0
 41
1.0
 10
369.32414744740015
 20
-1705.9935833789914
 30
0.0
 41
1.0
 10
370.94309222607842
 20
-1700.8455548772019
 30
0.0
 41
1.0
 10
372.56203700475669
 20
-1695.6975263754125
 30
0.0
 41
1.0
 10
372.60720282793022
 20
-1695.5534951531445
 30
0.0
 41
1.0
 10
372.65236865110376
 20
-1695.4094639308762
 30
0.0
 41
1.0
 10
372.82267306846688
 20
-1694.8663729017096
 30
0.0
 41
0.9999911657872646
 10
372.98840588014752
 20
-1694.3218693703463
 30
0.0
 41
1.0
 10
373.01810182365386
 20
-1694.2243054302767
 30
0.0
 41
1.0
 10
373.04779776716026
 20
-1694.126741490207
 30
0.0
 41
1.0
 10
373.15413869183169
 20
-1693.7773658389715
 30
0.0
 41
0.9999952428188662
 10
373.25832228115303
 20
-1693.4273408146332
 30
0.0
 41
1.0
 10
373.26338175148101
 20
-1693.4103425403732
 30
0.0
 41
1.0
 10
373.26844122180898
 20
-1693.393344266113
 30
0.0
 41
1.0
 10
373.36250587047493
 20
-1693.0773157902936
 30
0.0
 41
0.9999931687499153
 10
373.45423170835181
 20
-1692.7606005770133
 30
0.0
 41
1.0
 10
373.45916697281245
 20
-1692.7435598677384
 30
0.0
 41
1.0
 10
373.46410223727315
 20
-1692.7265191584636
 30
0.0
 41
1.0
 10
373.54595754622574
 20
-1692.443885363743
 30
0.0
 41
0.9999893840784375
 10
373.62520477268242
 20
-1692.1605092344962
 30
0.0
 41
1.0
 10
373.70445199913917
 20
-1691.8771331052494
 30
0.0
 41
0.9999833980064052
 10
373.78042823987602
 20
-1691.592862522238
 30
0.0
 41
1.0
 10
373.78943217660139
 20
-1691.559173643748
 30
0.0
 41
1.0
 10
373.79843611332672
 20
-1691.5254847652579
 30
0.0
 41
1.0
 10
373.86740066219107
 20
-1691.2674489329675
 30
0.0
 41
0.9999233658064574
 10
373.92995563341208
 20
-1691.0077847742432
 30
0.0
 41
1.0
 10
373.99251060463246
 20
-1690.7481206155207
 30
0.0
 41
1.0
 10
374.0319940234898
 20
-1690.5843139510946
 30
0.0
 41
1.0
 10
374.03697262746823
 20
-1690.5636589892192
 30
0.0
 41
1.0
 10
374.0419512314466
 20
-1690.5430040273441
 30
0.0
 41
1.0
 10
374.07147744235021
 20
-1690.4205072866557
 30
0.0
 41
0.9999868670858364
 10
374.09974652634389
 20
-1690.297714341023
 30
0.0
 41
1.0
 10
374.10364401350199
 20
-1690.2807847536046
 30
0.0
 41
1.0
 10
374.10754150066009
 20
-1690.2638551661864
 30
0.0
 41
1.0
 10
374.12801561034229
 20
-1690.1749213953708
 30
0.0
 41
0.9999778173351462
 10
374.14730320845626
 20
-1690.0857227781471
 30
0.0
 41
1.0
 10
374.16659080657354
 20
-1689.9965241609088
 30
0.0
 41
0.9999602692860204
 10
374.1842851652043
 20
-1689.9069958724817
 30
0.0
 41
1.0
 10
374.18748899728104
 20
-1689.8907854176005
 30
0.0
 41
1.0
 10
374.19069282935777
 20
-1689.874574962719
 30
0.0
 41
1.0
 10
374.21479485214377
 20
-1689.7526257645206
 30
0.0
 41
0.9995617985320466
 10
374.23163819936207
 20
-1689.6294640168167
 30
0.0
 41
1.0
 10
374.23410268926847
 20
-1689.6114431994497
 30
0.0
 41
1.0
 10
374.23656717917487
 20
-1689.5934223820827
 30
0.0
 41
1.0
 10
374.25685044022276
 20
-1689.4451073323833
 30
0.0
 41
0.9991121410639915
 10
374.2645757938111
 20
-1689.2956112335764
 30
0.0
 41
1.0
 10
374.26549458383568
 20
-1689.2778313970002
 30
0.0
 41
1.0
 10
374.26641337386019
 20
-1689.2600515604242
 30
0.0
 41
1.0
 10
374.27230114739939
 20
-1689.1461151347698
 30
0.0
 41
0.9989792494905954
 10
374.26788205528226
 20
-1689.0321122988719
 30
0.0
 41
1.0
 10
374.26723408341365
 20
-1689.0153960529447
 30
0.0
 41
1.0
 10
374.26658611154505
 20
-1688.9986798070177
 30
0.0
 41
1.0
 10
374.26346296316513
 20
-1688.9181094629732
 30
0.0
 41
0.9997820295394493
 10
374.25697896578947
 20
-1688.8377397412294
 30
0.0
 41
1.0
 10
374.25049496841388
 20
-1688.7573700194862
 30
0.0
 41
0.9998335105971901
 10
374.24108277290139
 20
-1688.677290403034
 30
0.0
 41
1.0
 10
374.23948784822505
 20
-1688.6637206725518
 30
0.0
 41
1.0
 10
374.23789292354866
 20
-1688.6501509420693
 30
0.0
 41
1.0
 10
374.22529087868367
 20
-1688.542931864655
 30
0.0
 41
0.999687645788209
 10
374.20734696588579
 20
-1688.4364764369363
 30
0.0
 41
1.0
 10
374.20511530274086
 20
-1688.4232367016962
 30
0.0
 41
1.0
 10
374.20288363959594
 20
-1688.409996966456
 30
0.0
 41
1.0
 10
374.1890878181751
 20
-1688.3281508224945
 30
0.0
 41
0.9995547496492999
 10
374.17043449628216
 20
-1688.2472733253041
 30
0.0
 41
1.0
 10
374.1700605394106
 20
-1688.2456519145976
 30
0.0
 41
1.0
 10
374.16968658253904
 20
-1688.2440305038911
 30
0.0
 41
1.0
 10
374.1517811743887
 20
-1688.1663958281104
 30
0.0
 41
0.999489942717505
 10
374.12895626570969
 20
-1688.0900625452784
 30
0.0
 41
1.0
 10
374.12849773896897
 20
-1688.08852909549
 30
0.0
 41
1.0
 10
374.12803921222826
 20
-1688.0869956457016
 30
0.0
 41
1.0
 10
374.10613135703005
 20
-1688.0137292624431
 30
0.0
 41
0.9993784877591582
 10
374.07911572192404
 20
-1687.9421885572849
 30
0.0
 41
1.0
 10
374.07858403094735
 20
-1687.940780574565
 30
0.0
 41
1.0
 10
374.07805233997067
 20
-1687.9393725918449
 30
0.0
 41
1.0
 10
374.0521000868178
 20
-1687.8706478521256
 30
0.0
 41
0.9992430832252547
 10
374.02088355165813
 20
-1687.8041487000576
 30
0.0
 41
1.0
 10
374.02030143560125
 20
-1687.8029086449396
 30
0.0
 41
1.0
 10
374.01971931954432
 20
-1687.8016685898217
 30
0.0
 41
1.0
 10
373.98966701649789
 20
-1687.7376495479884
 30
0.0
 41
0.999078963280068
 10
373.95423638972204
 20
-1687.6764429362397
 30
0.0
 41
1.0
 10
373.95364068354058
 20
-1687.6754138503816
 30
0.0
 41
1.0
 10
373.95304497735913
 20
-1687.6743847645232
 30
0.0
 41
1.0
 10
373.91880576294602
 20
-1687.6152363244908
 30
0.0
 41
0.9988874801118398
 10
373.8791464869131
 20
-1687.5595766120723
 30
0.0
 41
1.0
 10
373.87859096084838
 20
-1687.5587969603971
 30
0.0
 41
1.0
 10
373.87803543478367
 20
-1687.5580173087217
 30
0.0
 41
1.0
 10
373.83948721088052
 20
-1687.5039168996548
 30
0.0
 41
0.9986762060696114
 10
373.79558473960458
 20
-1687.4540631852153
 30
0.0
 41
1.0
 10
373.79514077927303
 20
-1687.4535590433993
 30
0.0
 41
1.0
 10
373.79469681894147
 20
-1687.4530549015835
 30
0.0
 41
1.0
 10
373.75168226832852
 20
-1687.4042094707761
 30
0.0
 41
0.9984621642486785
 10
373.70352471155036
 20
-1687.3604261703049
 30
0.0
 41
1.0
 10
373.70327807703381
 20
-1687.3602019381415
 30
0.0
 41
1.0
 10
373.70303144251727
 20
-1687.3599777059781
 30
0.0
 41
1.0
 10
373.65536715477265
 20
-1687.3166428698341
 30
0.0
 41
0.9982724693854046
 10
373.60294852293134
 20
-1687.2791985193162
 30
0.0
 41
1.0
 10
373.55052989108952
 20
-1687.241754168798
 30
0.0
 41
0.9981399180156317
 10
373.49394382769549
 20
-1687.2109676493544
 30
0.0
 41
1.0
 10
373.49389816561768
 20
-1687.2109428061976
 30
0.0
 41
1.0
 10
373.49385250353987
 20
-1687.2109179630409
 30
0.0
 41
1.0
 10
373.43717511598931
 20
-1687.180081757283
 30
0.0
 41
0.998092708683915
 10
373.37712976492287
 20
-1687.1564649484303
 30
0.0
 41
1.0
 10
373.37668959521147
 20
-1687.1562918225554
 30
0.0
 41
1.0
 10
373.37624942550008
 20
-1687.1561186966806
 30
0.0
 41
1.0
 10
373.31532373501113
 20
-1687.1321556360781
 30
0.0
 41
0.9981411356560228
 10
373.251935213612
 20
-1687.1157829945728
 30
0.0
 41
1.0
 10
373.25105309691025
 20
-1687.1155551523671
 30
0.0
 41
1.0
 10
373.25017098020851
 20
-1687.1153273101615
 30
0.0
 41
1.0
 10
373.18501822540566
 20
-1687.098498984245
 30
0.0
 41
0.9983031812935156
 10
373.11835079641082
 20
-1687.0893596230687
 30
0.0
 41
1.0
 10
373.10947977100761
 20
-1687.0881435043975
 30
0.0
 41
1.0
 10
373.1006087456044
 20
-1687.0869273857263
 30
0.0
 41
1.0
 10
373.04625910309971
 20
-1687.0794766557351
 30
0.0
 41
0.9983887708264334
 10
372.99141525380617
 20
-1687.0782319821017
 30
0.0
 41
1.0
 10
372.98335184858558
 20
-1687.0780489842268
 30
0.0
 41
1.0
 10
372.975288443365
 20
-1687.0778659863518
 30
0.0
 41
1.0
 10
372.93657140451
 20
-1687.0769873084682
 30
0.0
 41
0.9998869563080352
 10
372.89784545131022
 20
-1687.0772731778279
 30
0.0
 41
1.0
 10
372.85911949812532
 20
-1687.0775590471874
 30
0.0
 41
0.9999972320068692
 10
372.82039531893309
 20
-1687.0780271467163
 30
0.0
 41
1.0
 10
372.80104230233485
 20
-1687.0782610868059
 30
0.0
 41
1.0
 10
372.78168928573666
 20
-1687.0784950268956
 30
0.0
 41
1.0
 10
372.70425907336863
 20
-1687.0794310066035
 30
0.0
 41
0.9997304945087198
 10
372.62695576713372
 20
-1687.0839601003893
 30
0.0
 41
1.0
 10
372.61790612542706
 20
-1687.0844903063794
 30
0.0
 41
1.0
 10
372.60885648372039
 20
-1687.0850205123693
 30
0.0
 41
1.0
 10
372.51345389407396
 20
-1687.0906100181351
 30
0.0
 41
0.999788830641549
 10
372.41836155823097
 20
-1687.1001149826243
 30
0.0
 41
1.0
 10
372.40964049665843
 20
-1687.1009866972563
 30
0.0
 41
1.0
 10
372.40091943508594
 20
-1687.1018584118885
 30
0.0
 41
1.0
 10
372.28838497609587
 20
-1687.113106805642
 30
0.0
 41
0.9984170238190188
 10
372.17782582874281
 20
-1687.1369228875785
 30
0.0
 41
1.0
 10
372.14144469775908
 20
-1687.1447599233841
 30
0.0
 41
1.0
 10
372.10506356677541
 20
-1687.1525969591896
 30
0.0
 41
1.0
 10
371.98987249835301
 20
-1687.1774108256996
 30
0.0
 41
0.9976592854199808
 10
371.87914433194726
 20
-1687.2177095028467
 30
0.0
 41
1.0
 10
371.76841616554111
 20
-1687.258008179994
 30
0.0
 41
0.9993255074352082
 10
371.66094436674888
 20
-1687.3063250784871
 30
0.0
 41
1.0
 10
371.65631918782663
 20
-1687.3084044546863
 30
0.0
 41
1.0
 10
371.65169400890443
 20
-1687.3104838308857
 30
0.0
 41
1.0
 10
371.53497185226752
 20
-1687.3629594817774
 30
0.0
 41
0.9976475078274664
 10
371.42652450795782
 20
-1687.4309074714354
 30
0.0
 41
1.0
 10
371.40818211382282
 20
-1687.4423999502501
 30
0.0
 41
1.0
 10
371.38983971968776
 20
-1687.4538924290648
 30
0.0
 41
1.0
 10
371.30563752813623
 20
-1687.5066495498331
 30
0.0
 41
0.9995131336407553
 10
371.22488981317781
 20
-1687.5645557617866
 30
0.0
 41
1.0
 10
371.14414209822058
 20
-1687.6224619737393
 30
0.0
 41
0.9995810107605455
 10
371.06688045049117
 20
-1687.6849436562059
 30
0.0
 41
1.0
 10
371.06391041928111
 20
-1687.6873455276705
 30
0.0
 41
1.0
 10
371.06094038807112
 20
-1687.6897473991348
 30
0.0
 41
1.0
 10
370.97773867792279
 20
-1687.7570328245297
 30
0.0
 41
0.9996617837954341
 10
370.89814799078522
 20
-1687.8285532800917
 30
0.0
 41
1.0
 10
370.88601723990746
 20
-1687.839454013083
 30
0.0
 41
1.0
 10
370.87388648902964
 20
-1687.8503547460743
 30
0.0
 41
1.0
 10
370.80561096163325
 20
-1687.9117073615466
 30
0.0
 41
0.9997267750051594
 10
370.74027745335241
 20
-1687.9761838980696
 30
0.0
 41
1.0
 10
370.67494394507969
 20
-1688.0406604345844
 30
0.0
 41
0.9999667288962699
 10
370.61067100193958
 20
-1688.1061942414719
 30
0.0
 41
1.0
 10
370.54184355415578
 20
-1688.1763719002388
 30
0.0
 41
1.0
 10
370.47301610637203
 20
-1688.2465495590059
 30
0.0
 41
1.0
 10
370.27108826767346
 20
-1688.4524386834184
 30
0.0
 41
0.9988205335175278
 10
370.09008265069275
 20
-1688.6769429154804
 30
0.0
 41
1.0
 10
370.05944268578924
 20
-1688.7149461659087
 30
0.0
 41
1.0
 10
370.02880272088566
 20
-1688.7529494163373
 30
0.0
 41
1.0
 10
369.78651717409906
 20
-1689.0534601492543
 30
0.0
 41
0.9997077826754595
 10
369.55903922299467
 20
-1689.36532994347
 30
0.0
 41
1.0
 10
369.55731580786272
 20
-1689.3676927268516
 30
0.0
 41
1.0
 10
369.55559239273077
 20
-1689.3700555102332
 30
0.0
 41
1.0
 10
369.32466761136453
 20
-1689.6866508712098
 30
0.0
 41
0.9989147567079292
 10
369.12420410848131
 20
-1690.0233603323941
 30
0.0
 41
1.0
 10
369.0994629631756
 20
-1690.0649169129445
 30
0.0
 41
1.0
 10
369.07472181786983
 20
-1690.1064734934948
 30
0.0
 41
1.0
 10
368.91951051923047
 20
-1690.3671748779509
 30
0.0
 41
0.9997476598181686
 10
368.77616553172027
 20
-1690.6345846265335
 30
0.0
 41
1.0
 10
368.63282054420984
 20
-1690.9019943751166
 30
0.0
 41
0.9996258967109768
 10
368.50431229227786
 20
-1691.1768423117414
 30
0.0
 41
1.0
 10
368.49111238282808
 20
-1691.2050737118375
 30
0.0
 41
1.0
 10
368.4779124733783
 20
-1691.2333051119333
 30
0.0
 41
1.0
 10
368.33770375237935
 20
-1691.5331775098846
 30
0.0
 41
0.9998735413945789
 10
368.20710240565893
 20
-1691.8373571093523
 30
0.0
 41
1.0
 10
368.20365957759748
 20
-1691.8453756948193
 30
0.0
 41
1.0
 10
368.20021674953603
 20
-1691.853394280286
 30
0.0
 41
1.0
 10
368.07650105893799
 20
-1692.1415367088211
 30
0.0
 41
0.9999377418861818
 10
367.95924625676378
 20
-1692.4323681764949
 30
0.0
 41
1.0
 10
367.84199145458666
 20
-1692.7231996441756
 30
0.0
 41
0.9999508299511052
 10
367.73052751120906
 20
-1693.0162993209983
 30
0.0
 41
1.0
 10
367.72744674254773
 20
-1693.0244003469593
 30
0.0
 41
1.0
 10
367.72436597388639
 20
-1693.03250137292
 30
0.0
 41
1.0
 10
367.60674049318925
 20
-1693.3418031016558
 30
0.0
 41
0.9999609228433434
 10
367.49460189031447
 20
-1693.6531361176724
 30
0.0
 41
1.0
 10
367.49164587996262
 20
-1693.661342958088
 30
0.0
 41
1.0
 10
367.48868986961077
 20
-1693.6695497985036
 30
0.0
 41
1.0
 10
367.37063924603916
 20
-1693.9972964953331
 30
0.0
 41
0.9999674607398783
 10
367.25789171996712
 20
-1694.3269051153402
 30
0.0
 41
1.0
 10
367.20649332940536
 20
-1694.4771643110307
 30
0.0
 41
1.0
 10
367.15509493884355
 20
-1694.627423506721
 30
0.0
 41
1.0
 10
367.03908433208591
 20
-1694.9665714892244
 30
0.0
 41
0.9999287532311049
 10
366.9312029281167
 20
-1695.3083922281958
 30
0.0
 41
1.0
 10
366.88472567198858
 20
-1695.4556547725315
 30
0.0
 41
1.0
 10
366.83824841586051
 20
-1695.6029173168674
 30
0.0
 41
1.0
 10
366.82332152414131
 20
-1695.6502129671865
 30
0.0
 41
0.9999998222779786
 10
366.80845101541524
 20
-1695.6975263754125
 30
0.0
 41
1.0
 10
365.18779487861991
 20
-1700.8455548772019
 30
0.0
 41
1.0
 10
363.56713874182458
 20
-1705.9935833789914
 30
0.0
 41
1.0
 10
362.66183029793353
 20
-1705.9935833789914
 30
0.0
 41
1.0
 10
361.75652185404249
 20
-1705.9935833789914
 30
0.0
 41
1.0
 10
363.60860626542797
 20
-1700.1065114565238
 30
0.0
 41
1.0
 10
365.46069067681344
 20
-1694.2194395340562
 30
0.0
 41
1.0
 10
365.47081243511673
 20
-1694.1873963206067
 30
0.0
 41
1.0
 10
365.54342010396647
 20
-1693.9570967787809
 30
0.0
 41
1.0
 10
365.61602777281041
 20
-1693.7267972369732
 30
0.0
 41
0.9999825681970997
 10
365.68591081201936
 20
-1693.4956563419182
 30
0.0
 41
1.0
 10
365.73420187418458
 20
-1693.3359317584082
 30
0.0
 41
1.0
 10
365.78249293634974
 20
-1693.1762071748983
 30
0.0
 41
1.0
 10
365.87964528966609
 20
-1692.8548719531261
 30
0.0
 41
0.9999672528970064
 10
365.9715840952889
 20
-1692.5320064075399
 30
0.0
 41
1.0
 10
365.97437297895982
 20
-1692.5222125621458
 30
0.0
 41
1.0
 10
365.97716186263074
 20
-1692.5124187167517
 30
0.0
 41
1.0
 10
366.06352290091672
 20
-1692.2091408619356
 30
0.0
 41
0.9999899749174549
 10
366.14716451044694
 20
-1691.9051017735012
 30
0.0
 41
1.0
 10
366.15727042946548
 20
-1691.8683665358194
 30
0.0
 41
1.0
 10
366.16737634848403
 20
-1691.8316312981374
 30
0.0
 41
1.0
 10
366.23080611998262
 20
-1691.6010626850473
 30
0.0
 41
0.9999214200501639
 10
366.28843554835964
 20
-1691.3689763428395
 30
0.0
 41
1.0
 10
366.30120140054157
 20
-1691.3175654574375
 30
0.0
 41
1.0
 10
366.3139672527235
 20
-1691.2661545720357
 30
0.0
 41
1.0
 10
366.34606497673803
 20
-1691.1368900006264
 30
0.0
 41
0.9999828681660007
 10
366.37664722873285
 20
-1691.0072585261628
 30
0.0
 41
1.0
 10
366.40722948072766
 20
-1690.8776270516996
 30
0.0
 41
0.9999389844479802
 10
366.43494046951679
 20
-1690.7473515957979
 30
0.0
 41
1.0
 10
366.44207821323721
 20
-1690.713795491959
 30
0.0
 41
1.0
 10
366.44921595695757
 20
-1690.6802393881203
 30
0.0
 41
1.0
 10
366.49120243318691
 20
-1690.4828517245435
 30
0.0
 41
0.9998933699441157
 10
366.52740669758867
 20
-1690.2843221167871
 30
0.0
 41
1.0
 10
366.52877952280505
 20
-1690.2767940960903
 30
0.0
 41
1.0
 10
366.53015234802149
 20
-1690.2692660753935
 30
0.0
 41
1.0
 10
366.56910226285646
 20
-1690.0556804262419
 30
0.0
 41
0.9996850305194091
 10
366.59728593911575
 20
-1689.8404094208049
 30
0.0
 41
1.0
 10
366.59928097248502
 20
-1689.8251710666837
 30
0.0
 41
1.0
 10
366.60127600585429
 20
-1689.8099327125622
 30
0.0
 41
1.0
 10
366.6286838683136
 20
-1689.6005874854086
 30
0.0
 41
0.9994697936706589
 10
366.6424084275335
 20
-1689.389902290076
 30
0.0
 41
1.0
 10
366.64288549678315
 20
-1689.3825788178651
 30
0.0
 41
1.0
 10
366.64336256603281
 20
-1689.3752553456545
 30
0.0
 41
1.0
 10
366.65613298675299
 20
-1689.1792170947456
 30
0.0
 41
0.9991804893136221
 10
366.65300467047962
 20
-1688.9827882447717
 30
0.0
 41
1.0
 10
366.65292079165749
 20
-1688.9775214433585
 30
0.0
 41
1.0
 10
366.65283691283531
 20
-1688.972254641945
 30
0.0
 41
1.0
 10
366.64987635420613
 20
-1688.786359394797
 30
0.0
 41
0.9988448329323285
 10
366.62908480858312
 20
-1688.6016068049648
 30
0.0
 41
1.0
 10
366.62749073488015
 20
-1688.5874419491938
 30
0.0
 41
1.0
 10
366.62589666117719
 20
-1688.5732770934226
 30
0.0
 41
1.0
 10
366.60829326295982
 20
-1688.4168542151303
 30
0.0
 41
0.998550320945662
 10
366.57397699065984
 20
-1688.2632300310422
 30
0.0
 41
1.0
 10
366.56639099858847
 20
-1688.2292697036419
 30
0.0
 41
1.0
 10
366.5588050065171
 20
-1688.1953093762418
 30
0.0
 41
1.0
 10
366.53966071835953
 20
-1688.1096058469518
 30
0.0
 41
0.9991036781370417
 10
366.51333585670852
 20
-1688.025828759628
 30
0.0
 41
1.0
 10
366.50935363125251
 20
-1688.0131555971172
 30
0.0
 41
1.0
 10
366.5053714057965
 20
-1688.0004824346065
 30
0.0
 41
1.0
 10
366.4870109950561
 20
-1687.9420516722992
 30
0.0
 41
0.9998874504369232
 10
366.46690578737923
 20
-1687.8841980700797
 30
0.0
 41
1.0
 10
366.44680057970049
 20
-1687.8263444678548
 30
0.0
 41
0.9994041637542319
 10
366.42275196676655
 20
-1687.7700157639665
 30
0.0
 41
1.0
 10
366.4185551825426
 20
-1687.7601856994847
 30
0.0
 41
1.0
 10
366.41435839831871
 20
-1687.7503556350032
 30
0.0
 41
1.0
 10
366.38647956732348
 20
-1687.6850554690352
 30
0.0
 41
0.9991846840703146
 10
366.35342321063069
 20
-1687.6222174377556
 30
0.0
 41
1.0
 10
366.35228660423553
 20
-1687.6200568213008
 30
0.0
 41
1.0
 10
366.35114999784037
 20
-1687.6178962048457
 30
0.0
 41
1.0
 10
366.32036685393808
 20
-1687.559379406476
 30
0.0
 41
0.9989253167924397
 10
366.28429742988317
 20
-1687.503964478085
 30
0.0
 41
1.0
 10
366.283243305209
 20
-1687.5023449833229
 30
0.0
 41
1.0
 10
366.28218918053489
 20
-1687.5007254885606
 30
0.0
 41
1.0
 10
366.24822800582916
 20
-1687.4485495496951
 30
0.0
 41
0.9986467172832539
 10
366.20903085319094
 20
-1687.4001835160652
 30
0.0
 41
1.0
 10
366.20815672449066
 20
-1687.3991049137876
 30
0.0
 41
1.0
 10
366.20728259579033
 20
-1687.3980263115097
 30
0.0
 41
1.0
 10
366.16983370055323
 20
-1687.351817482436
 30
0.0
 41
0.9984001104271082
 10
366.12740697003608
 20
-1687.3101323750668
 30
0.0
 41
1.0
 10
366.12681983192715
 20
-1687.309555500186
 30
0.0
 41
1.0
 10
366.12623269381817
 20
-1687.3089786253051
 30
0.0
 41
1.0
 10
366.08498023951927
 20
-1687.2684472676981
 30
0.0
 41
0.9982442159082308
 10
366.03922413818361
 20
-1687.2330787064377
 30
0.0
 41
1.0
 10
366.03900934272144
 20
-1687.2329126737941
 30
0.0
 41
1.0
 10
366.03879454725933
 20
-1687.2327466411507
 30
0.0
 41
1.0
 10
365.99346803684813
 20
-1687.1977101451776
 30
0.0
 41
0.9982450060834878
 10
365.9443170577764
 20
-1687.1682783621441
 30
0.0
 41
1.0
 10
365.89516607870479
 20
-1687.1388465791106
 30
0.0
 41
0.9983922639635007
 10
365.84299977253988
 20
-1687.1151669444566
 30
0.0
 41
1.0
 10
365.84277289521538
 20
-1687.115063958975
 30
0.0
 41
1.0
 10
365.84254601789087
 20
-1687.1149609734937
 30
0.0
 41
1.0
 10
365.78992595707609
 20
-1687.0910753678763
 30
0.0
 41
0.9986517147149007
 10
365.73511298420715
 20
-1687.0727742487545
 30
0.0
 41
1.0
 10
365.73443506278011
 20
-1687.0725479023233
 30
0.0
 41
1.0
 10
365.73375714135307
 20
-1687.0723215558921
 30
0.0
 41
1.0
 10
365.67758832562811
 20
-1687.0535677439073
 30
0.0
 41
0.9989435598957327
 10
365.61993493847604
 20
-1687.0400500416724
 30
0.0
 41
1.0
 10
365.61885481889539
 20
-1687.0397967914196
 30
0.0
 41
1.0
 10
365.61777469931474
 20
-1687.0395435411669
 30
0.0
 41
1.0
 10
365.55796107300176
 20
-1687.0255193384266
 30
0.0
 41
0.9992249241240301
 10
365.49722956410602
 20
-1687.0162439957116
 30
0.0
 41
1.0
 10
365.49581587581315
 20
-1687.0160280873035
 30
0.0
 41
1.0
 10
365.49440218752022
 20
-1687.0158121788954
 30
0.0
 41
1.0
 10
365.43084330203988
 20
-1687.0061050193644
 30
0.0
 41
0.9994396597833511
 10
365.36677736550178
 20
-1687.0006720970187
 30
0.0
 41
1.0
 10
365.3476366980247
 20
-1686.9990489293
 30
0.0
 41
1.0
 10
365.32849603054763
 20
-1686.9974257615816
 30
0.0
 41
1.0
 10
365.22614875905424
 20
-1686.9887465037987
 30
0.0
 41
0.9987693403121337
 10
365.12344513546668
 20
-1686.9902495672513
 30
0.0
 41
1.0
 10
365.11319080124065
 20
-1686.9903996390253
 30
0.0
 41
1.0
 10
365.10293646701462
 20
-1686.9905497107995
 30
0.0
 41
1.0
 10
364.99338070083525
 20
-1686.9921530550869
 30
0.0
 41
0.9989753644965979
 10
364.8844187008184
 20
-1687.0036560620122
 30
0.0
 41
1.0
 10
364.77545670080173
 20
-1687.0151590689375
 30
0.0
 41
0.9983190067306278
 10
364.66855788983668
 20
-1687.0391940607242
 30
0.0
 41
1.0
 10
364.65965693823011
 20
-1687.0411953392868
 30
0.0
 41
1.0
 10
364.65075598662349
 20
-1687.0431966178496
 30
0.0
 41
1.0
 10
364.52605527244521
 20
-1687.0712341667618
 30
0.0
 41
0.9985539388303502
 10
364.40508551876798
 20
-1687.112497842807
 30
0.0
 41
1.0
 10
364.40274008780739
 20
-1687.1132978866231
 30
0.0
 41
1.0
 10
364.40039465684674
 20
-1687.1140979304389
 30
0.0
 41
1.0
 10
364.27473404124908
 20
-1687.1569616941158
 30
0.0
 41
0.9988468746493875
 10
364.15376369895034
 20
-1687.2116797791773
 30
0.0
 41
1.0
 10
364.1505808769603
 20
-1687.2131194537378
 30
0.0
 41
1.0
 10
364.14739805497027
 20
-1687.2145591282983
 30
0.0
 41
1.0
 10
364.02006206869095
 20
-1687.2721565624813
 30
0.0
 41
0.9991322885918758
 10
363.89796148463182
 20
-1687.3401518946648
 30
0.0
 41
1.0
 10
363.88035947358981
 20
-1687.3499540966536
 30
0.0
 41
1.0
 10
363.86275746254779
 20
-1687.3597562986422
 30
0.0
 41
1.0
 10
363.76058078149134
 20
-1687.4166564144227
 30
0.0
 41
0.9993860037850072
 10
363.66263977741744
 20
-1687.4805724300115
 30
0.0
 41
1.0
 10
363.65702146456653
 20
-1687.4842389247056
 30
0.0
 41
1.0
 10
363.65140315171561
 20
-1687.4879054193996
 30
0.0
 41
1.0
 10
363.56469877334706
 20
-1687.5444884455981
 30
0.0
 41
0.9998821494954413
 10
363.47977239753106
 20
-1687.6037066756767
 30
0.0
 41
1.0
 10
363.39484602171922
 20
-1687.6629249057526
 30
0.0
 41
0.9997976482743569
 10
363.31237039131906
 20
-1687.7255113137919
 30
0.0
 41
1.0
 10
363.29773412651213
 20
-1687.7366180035733
 30
0.0
 41
1.0
 10
363.28309786170519
 20
-1687.7477246933547
 30
0.0
 41
1.0
 10
363.17134970168888
 20
-1687.8325244809587
 30
0.0
 41
0.9998091630801088
 10
363.06299942365712
 20
-1687.9216248316634
 30
0.0
 41
1.0
 10
363.0499936711833
 20
-1687.9323199321066
 30
0.0
 41
1.0
 10
363.03698791870954
 20
-1687.9430150325497
 30
0.0
 41
1.0
 10
362.9026261357281
 20
-1688.0535055841424
 30
0.0
 41
0.9995035112317605
 10
362.77549025796469
 20
-1688.172239401157
 30
0.0
 41
1.0
 10
362.76584294757782
 20
-1688.1812491473145
 30
0.0
 41
1.0
 10
362.75619563719096
 20
-1688.190258893472
 30
0.0
 41
1.0
 10
362.63277257442445
 20
-1688.3055252652289
 30
0.0
 41
0.99946304242994
 10
362.51716416863962
 20
-1688.4286280084648
 30
0.0
 41
1.0
 10
362.51348132986902
 20
-1688.4325495879771
 30
0.0
 41
1.0
 10
362.50979849109837
 20
-1688.4364711674891
 30
0.0
 41
1.0
 10
362.40155576285696
 20
-1688.5517307516984
 30
0.0
 41
0.9995160693750151
 10
362.30068973332379
 20
-1688.6734981695727
 30
0.0
 41
1.0
 10
362.29875601324147
 20
-1688.6758325937826
 30
0.0
 41
1.0
 10
362.29682229315915
 20
-1688.6781670179928
 30
0.0
 41
1.0
 10
362.19982370378983
 20
-1688.7952655874481
 30
0.0
 41
0.9996561470513723
 10
362.1090974851262
 20
-1688.9172883498945
 30
0.0
 41
1.0
 10
362.10293981922609
 20
-1688.9255701389343
 30
0.0
 41
1.0
 10
362.09678215332593
 20
-1688.9338519279743
 30
0.0
 41
1.0
 10
362.01837126646262
 20
-1689.0393111123408
 30
0.0
 41
0.9998349055172906
 10
361.94384398452837
 20
-1689.147549696007
 30
0.0
 41
1.0
 10
361.86931670259656
 20
-1689.25578827967
 30
0.0
 41
0.9999728109557144
 10
361.79639380668499
 20
-1689.3651142052267
 30
0.0
 41
1.0
 10
361.79507859127364
 20
-1689.3670859747285
 30
0.0
 41
1.0
 10
361.79376337586234
 20
-1689.3690577442305
 30
0.0
 41
1.0
 10
361.71821004913397
 20
-1689.4823272087824
 30
0.0
 41
0.9999972147276447
 10
361.64319223876657
 20
-1689.5959520516085
 30
0.0
 41
1.0
 10
361.63822069613821
 20
-1689.6034821400899
 30
0.0
 41
1.0
 10
361.63324915350984
 20
-1689.6110122285713
 30
0.0
 41
1.0
 10
361.54828825788661
 20
-1689.7396972483589
 30
0.0
 41
0.9999371979010826
 10
361.46623290847714
 20
-1689.8702541621453
 30
0.0
 41
1.0
 10
361.46272402412012
 20
-1689.8758370902028
 30
0.0
 41
1.0
 10
361.45921513976316
 20
-1689.8814200182601
 30
0.0
 41
1.0
 10
361.37014202163698
 20
-1690.0231427881652
 30
0.0
 41
0.999827202561059
 10
361.28639863075779
 20
-1690.1680786649019
 30
0.0
 41
1.0
 10
361.27118345873112
 20
-1690.1944117793632
 30
0.0
 41
1.0
 10
361.25596828670439
 20
-1690.2207448938243
 30
0.0
 41
1.0
 10
361.14179455177435
 20
-1690.4183469994791
 30
0.0
 41
0.9995217214838327
 10
361.04005486221826
 20
-1690.6226293273419
 30
0.0
 41
1.0
 10
361.03241129958207
 20
-1690.6379767770472
 30
0.0
 41
1.0
 10
361.02476773694588
 20
-1690.6533242267524
 30
0.0
 41
1.0
 10
360.93786244435682
 20
-1690.8278206848327
 30
0.0
 41
0.9998269762607592
 10
360.85750797808612
 20
-1691.0054289715529
 30
0.0
 41
1.0
 10
360.77715351181479
 20
-1691.1830372582745
 30
0.0
 41
0.9998944747387778
 10
360.70199271725062
 20
-1691.3629049839019
 30
0.0
 41
1.0
 10
360.69703904765663
 20
-1691.3747596388262
 30
0.0
 41
1.0
 10
360.69208537806259
 20
-1691.3866142937504
 30
0.0
 41
1.0
 10
360.61143831751258
 20
-1691.5796112337616
 30
0.0
 41
0.9999506734407123
 10
360.53464078861032
 20
-1691.7741720386159
 30
0.0
 41
1.0
 10
360.52004082334417
 20
-1691.8111599604099
 30
0.0
 41
1.0
 10
360.50544085807798
 20
-1691.8481478822041
 30
0.0
 41
1.0
 10
360.45784325971181
 20
-1691.9687328434602
 30
0.0
 41
0.9999912393922775
 10
360.41125681568462
 20
-1692.089712046168
 30
0.0
 41
1.0
 10
360.36467037167017
 20
-1692.2106912488427
 30
0.0
 41
0.9999927113956671
 10
360.31900907727976
 20
-1692.3320226563349
 30
0.0
 41
1.0
 10
360.30504064587626
 20
-1692.3691396383492
 30
0.0
 41
1.0
 10
360.29107221447282
 20
-1692.4062566203636
 30
0.0
 41
1.0
 10
360.21747405728297
 20
-1692.6018219918649
 30
0.0
 41
0.9999487550946212
 10
360.14785043230944
 20
-1692.7988373570522
 30
0.0
 41
1.0
 10
360.1242568223696
 20
-1692.865600667353
 30
0.0
 41
1.0
 10
360.10066321242982
 20
-1692.9323639776537
 30
0.0
 41
1.0
 10
360.00597757806361
 20
-1693.2002978124656
 30
0.0
 41
0.9999808436928763
 10
359.91461598942567
 20
-1693.4693832437208
 30
0.0
 41
1.0
 10
359.82325440078586
 20
-1693.7384686749813
 30
0.0
 41
0.9999873932916158
 10
359.7345996920655
 20
-1694.0084580299999
 30
0.0
 41
1.0
 10
359.71450733519623
 20
-1694.0696473627522
 30
0.0
 41
1.0
 10
359.69441497832702
 20
-1694.1308366955045
 30
0.0
 41
1.0
 10
359.56557555587221
 20
-1694.5232047160157
 30
0.0
 41
0.9999794883030113
 10
359.44177277091546
 20
-1694.9171909222903
 30
0.0
 41
1.0
 10
359.43062051148394
 20
-1694.9526815325084
 30
0.0
 41
1.0
 10
359.41946825205241
 20
-1694.9881721427266
 30
0.0
 41
1.0
 10
359.27691008814452
 20
-1695.4418448948472
 30
0.0
 41
0.9999982761683667
 10
359.13603764812467
 20
-1695.8960439169846
 30
0.0
 41
1.0
 10
357.54789731555172
 20
-1700.944813647988
 30
0.0
 41
1.0
 10
355.95975698297877
 20
-1705.9935833789914
 30
0.0
 41
1.0
 10
355.01100637150319
 20
-1705.9935833789914
 30
0.0
 41
1.0
 10
354.0622557600276
 20
-1705.9935833789914
 30
0.0
 41
1.0
 10
357.30054024618073
 20
-1695.6662611790453
 30
0.0
 41
1.0
 10
360.53882473233386
 20
-1685.3389389790991
 30
0.0
 41
1.0
  0
LWPOLYLINE
  5
5A
100
AcDbEntity
  8
0
370
              15
390
0
  6
Continuous
 62
               7
100
AcDbPolyline
 90
      232
 70
             128
 10
334.83527895850636
 20
-1686.4232818106143
 42
0.0004370800647031
 10
334.78240178463597
 20
-1686.4919484496086
 10
334.74311755330689
 20
-1686.543055562767
 42
0.0030481992191492
 10
334.61277883616333
 20
-1686.7147772551432
 10
334.57426716443695
 20
-1686.7661640388992
 42
0.0042058245761773
 10
334.37028211375934
 20
-1687.0431697839842
 10
334.31787699126687
 20
-1687.1156026307538
 42
0.01209488987317
 10
334.02183307451077
 20
-1687.5463522352945
 10
333.92564057537754
 20
-1687.6938329705358
 42
0.0141601263955061
 10
333.62199652846027
 20
-1688.189502307263
 10
333.58245926103274
 20
-1688.2583462746975
 42
0.0071131081308872
 10
333.37718693779641
 20
-1688.6278490735328
 42
0.0068458790998957
 10
333.18230741095482
 20
-1689.002940637007
 10
333.17549554849609
 20
-1689.0165023507327
 42
0.0064120880289158
 10
332.97735329845239
 20
-1689.4239268256504
 10
332.96981861293477
 20
-1689.4399386823729
 42
0.0058857236443578
 10
332.76706322106838
 20
-1689.8843147933953
 10
332.75888829476878
 20
-1689.9028049470419
 42
0.0053189741901885
 10
332.55018398210183
 20
-1690.3887684209585
 10
332.54143617642001
 20
-1690.4097502991558
 42
0.0047503650418025
 10
332.32546245026975
 20
-1690.9419497323659
 10
332.3161942019218
 20
-1690.9654261084734
 42
0.0042071762166508
 10
332.09164681818902
 20
-1691.5485197025555
 10
332.08189741584499
 20
-1691.5744858774128
 42
0.0036680086488193
 10
331.84744277253048
 20
-1692.2131212619488
 10
331.83723499268433
 20
-1692.2415697962886
 42
0.0032573142631876
 10
331.59160270671697
 20
-1692.9404224560444
 10
331.52295218588165
 20
-1693.1398855400823
 42
0.0026133366643642
 10
331.1745069871198
 20
-1694.1697488237667
 10
331.11125019962276
 20
-1694.3599796591486
 42
0.0020592950742159
 10
330.89738713065196
 20
-1695.0120833117728
 10
330.89433533948829
 20
-1695.0215198001843
 42
0.0025609928530595
 10
330.69251483800269
 20
-1695.6566650225484
 10
330.68992347086885
 20
-1695.6649673635118
 42
0.0031362356248284
 10
330.50043268519892
 20
-1696.2857302196685
 10
330.4983016422745
 20
-1696.2928715258695
 42
0.0037229918022462
 10
330.32150125534497
 20
-1696.9018568278539
 10
330.31982266613625
 20
-1696.9078037180363
 42
0.0043077623712035
 10
330.15608186407314
 20
-1697.5076224497973
 42
0.0047654161826602
 10
330.00325314155953
 20
-1698.1103085386922
 10
329.9687885327188
 20
-1698.2518703158494
 42
0.0112969368441853
 10
329.77292417457591
 20
-1699.1435624764729
 10
329.74491778547906
 20
-1699.2863905225715
 42
0.0130056762571969
 10
329.54408054183239
 20
-1700.4733315942165
 10
329.52354079168487
 20
-1700.6174097076969
 42
0.0138721532145611
 10
329.41983778714746
 20
-1701.5242391935192
 10
329.40054229923948
 20
-1701.7477369154453
 42
0.0071254697003343
 10
329.36719565331657
 20
-1702.2109239242914
 10
329.36223467915249
 20
-1702.296927918863
 42
0.0028881799205072
 10
329.34709638586298
 20
-1702.5886696286941
 42
0.0060297297131843
 10
329.33716418608736
 20
-1702.8806185648073
 10
329.33610190442016
 20
-1702.9290109367414
 42
0.0229523164166119
 10
329.34383293220651
 20
-1703.2517657830256
 10
329.34805870572717
 20
-1703.3121693170426
 42
0.0123673300637852
 10
329.36713735224509
 20
-1703.5132900422166
 42
0.0128577674502831
 10
329.39633274265077
 20
-1703.7131878921421
 10
329.40345861603817
 20
-1703.7545167067403
 42
0.0285717853752618
 10
329.46795261773434
 20
-1704.0326328580545
 10
329.4816211414003
 20
-1704.0792876275304
 42
0.0316283099167222
 10
329.59743172131436
 20
-1704.3983021293566
 10
329.60048041306993
 20
-1704.4052885016822
 42
0.0338984824237917
 10
329.74991212403745
 20
-1704.6928544658713
 10
329.75222085340704
 20
-1704.6966454951466
 42
0.0350228718351131
 10
329.93458114408111
 20
-1704.9536974798241
 10
329.93546639585628
 20
-1704.9547765575883
 42
0.034747674752852
 10
330.14989108309635
 20
-1705.1819616048083
 42
0.0331337701910599
 10
330.39313440884217
 20
-1705.3780902668855
 10
330.39423450735865
 20
-1705.3788629700582
 42
0.0305233319085669
 10
330.66277920293169
 20
-1705.5439911401493
 10
330.66600924743341
 20
-1705.5457151520122
 42
0.0273744481149112
 10
330.95856295900938
 20
-1705.6818532959035
 10
330.96366749414517
 20
-1705.6838968803725
 42
0.0240964406202453
 10
331.2791445697884
 20
-1705.7928806066529
 10
331.28572789900079
 20
-1705.7948053463288
 42
0.0209636179807368
 10
331.62312805165504
 20
-1705.8782734942611
 10
331.63076051210226
 20
-1705.8798254072622
 42
0.0181388704694663
 10
331.98908290410083
 20
-1705.9392415004761
 10
331.99736375247846
 20
-1705.9403076842932
 42
0.0156086547587398
 10
332.37555111667069
 20
-1705.9770438708701
 10
332.41874636899837
 20
-1705.979882373349
 42
0.013714832902379
 10
332.74641951429328
 20
-1705.9924026286003
 10
332.79235570421667
 20
-1705.9928970617154
 42
0.0051057823883648
 10
333.02850129081196
 20
-1705.9930273161247
 42
0.0052256693313093
 10
333.2645985746048
 20
-1705.9882784916599
 10
333.33482535834025
 20
-1705.9861315256462
 42
0.0161507179051472
 10
333.710562436445
 20
-1705.9624811553192
 10
333.73057539681429
 20
-1705.9605709600321
 42
0.0101216737831643
 10
334.14460261829993
 20
-1705.9125780296672
 10
334.17865590773124
 20
-1705.9079303328569
 42
0.024529177639617
 10
334.65544556328371
 20
-1705.8188552547806
 10
334.7402688788053
 20
-1705.7986593344353
 42
0.0143509212562327
 10
335.09689998274587
 20
-1705.7028547006562
 42
0.0156557857031502
 10
335.44711604747528
 20
-1705.5858434848367
 10
335.45461726196788
 20
-1705.5830733230832
 42
0.0170137333639578
 10
335.81121325765201
 20
-1705.4374157082109
 10
335.81831718005685
 20
-1705.4342278726485
 42
0.0183105364403256
 10
336.17766684821703
 20
-1705.2568928308274
 10
336.18461361286188
 20
-1705.253142395952
 42
0.0194899958152306
 10
336.54309435384783
 20
-1705.0411634140603
 10
336.55010823318332
 20
-1705.0366380717662
 42
0.0204869852958306
 10
336.90412253527921
 20
-1704.7871180566785
 10
336.91138814386375
 20
-1704.781537991332
 42
0.0212516938547386
 10
337.25737807496967
 20
-1704.4916339944389
 10
337.30389476904656
 20
-1704.4491666843439
 42
0.0215248918252786
 10
337.56392093793454
 20
-1704.1904024053492
 10
337.60895067232292
 20
-1704.1415582839909
 42
0.0114578554955588
 10
337.76374282599261
 20
-1703.9657353505411
 10
337.77493736196658
 20
-1703.9524165870109
 42
0.0061531305127411
 10
337.90141200797405
 20
-1703.79812705369
 42
0.0006325587124359
 10
338.02579049222311
 20
-1703.6421236778922
 10
338.04883062717761
 20
-1703.613150157355
 42
0.0041897761567092
 10
338.21728603115628
 20
-1703.3976307812852
 10
338.27574815104197
 20
-1703.3215294343079
 42
0.0092993880024884
 10
338.55236007826301
 20
-1702.9472506704271
 10
338.63475457146404
 20
-1702.831313666856
 42
0.0159321727090908
 10
338.9813610541072
 20
-1702.3091394460992
 10
339.02571718949781
 20
-1702.2374598818465
 42
0.0085547317022251
 10
339.26022895482163
 20
-1701.8435849326245
 42
0.0084601156890477
 10
339.48120513226422
 20
-1701.4419580835909
 10
339.48932060609366
 20
-1701.4265984013193
 42
0.0081429654280364
 10
339.71256987653362
 20
-1700.9868768887738
 10
339.72143004071529
 20
-1700.9686980467593
 42
0.0076574581334297
 10
339.94783755128435
 20
-1700.4855151715017
 10
339.95731719200592
 20
-1700.4644506932032
 42
0.0070682724200482
 10
340.18776209981479
 20
-1699.932413388417
 10
340.19775238379441
 20
-1699.9084241994103
 42
0.0064559514445727
 10
340.43308559197703
 20
-1699.3221119328898
 10
340.44349495014137
 20
-1699.2951770074492
 42
0.0058311413908779
 10
340.68454168690329
 20
-1698.6491449130672
 10
340.69529676429136
 20
-1698.619260571905
 42
0.0052312425815847
 10
340.94287804233102
 20
-1697.9080581580729
 10
340.95392187871164
 20
-1697.8752314460007
 42
0.0046680544793066
 10
341.2088503064445
 20
-1697.0934051302524
 10
341.25084245649077
 20
-1696.9604218929524
 42
0.0041666856447688
 10
341.45412846888519
 20
-1696.2974531179484
 10
341.49179090955471
 20
-1696.1708720102749
 42
0.0015170975148493
 10
341.61297748796221
 20
-1695.759003658801
 42
-0.0004887993103826
 10
341.73331726111462
 20
-1695.3468852466603
 10
341.80979451858036
 20
-1695.0859278608179
 42
0.0002583378926239
 10
342.08300908870609
 20
-1694.1518711574256
 10
342.1647819382091
 20
-1693.8717718980945
 42
0.0006636169670165
 10
342.35864969823194
 20
-1693.2044189744686
 10
342.3637463525809
 20
-1693.1867873915819
 42
0.0010589131326014
 10
342.5451950534956
 20
-1692.5540560485397
 10
342.55017712397682
 20
-1692.5365431415169
 42
0.0015655524454746
 10
342.71844733115938
 20
-1691.9379264623187
 10
342.72327753157106
 20
-1691.9205343033948
 42
0.0021640440483635
 10
342.87756750356073
 20
-1691.3555072853649
 10
342.88220172299225
 20
-1691.338242555365
 42
0.002876387185205
 10
343.02171744104305
 20
-1690.8062746045241
 10
343.02610330521156
 20
-1690.7891506263645
 42
0.0037310511946961
 10
343.15005999704715
 20
-1690.2897030323456
 10
343.15413521733791
 20
-1690.2727427610928
 42
0.0047652197776022
 10
343.26175911784446
 20
-1689.8052649927949
 10
343.26544971716697
 20
-1689.7885054376486
 42
0.0060276699291384
 10
343.35597981632179
 20
-1689.3524296425007
 10
343.3591985066098
 20
-1689.3359284281976
 42
0.0075824337765759
 10
343.43188781602692
 20
-1688.9306612637654
 10
343.43453319340807
 20
-1688.9145063163094
 42
0.0095130624602853
 10
343.48864842903856
 20
-1688.5394169632432
 10
343.49563465292061
 20
-1688.4834834051317
 42
0.0121054653244791
 10
343.52222598349852
 20
-1688.2185875766529
 10
343.52309247325826
 20
-1688.2071841337201
 42
0.0069050827370498
 10
343.53818129129502
 20
-1687.9642429068795
 10
343.53931659096367
 20
-1687.9407166498329
 42
0.0169063976686279
 10
343.54214386994443
 20
-1687.744523922534
 10
343.54097321841351
 20
-1687.6841881611867
 42
0.0052007732921735
 10
343.53871976982043
 20
-1687.6085947710326
 42
0.0054038123306177
 10
343.51875625798078
 20
-1687.4885764750188
 10
343.51367040211096
 20
-1687.4599179884415
 42
0.0112050460454944
 10
343.47828604005247
 20
-1687.2835915501025
 10
343.46046107801192
 20
-1687.2040499633817
 42
0.0240764468019563
 10
343.36956371186534
 20
-1686.8738129278795
 10
343.3510049490522
 20
-1686.8171927628866
 42
0.0256812331827676
 10
343.20764202886255
 20
-1686.4454685566295
 10
343.20223260304135
 20
-1686.4333372216402
 42
0.026836050121194
 10
343.03280536219188
 20
-1686.1023440876188
 10
343.02726895455743
 20
-1686.0928244173074
 42
0.0274670231736645
 10
342.83506797814368
 20
-1685.8005370423891
 10
342.8296866781792
 20
-1685.7932578948453
 42
0.0275035967101341
 10
342.61811379861899
 20
-1685.5377420045436
 10
342.61304429765454
 20
-1685.5322629169154
 42
0.0269557673527019
 10
342.38564075421289
 20
-1685.311620630951
 10
342.38089769642812
 20
-1685.3074906764884
 42
0.0259124802206037
 10
342.14134286499973
 20
-1685.1198001493378
 10
342.13681201981808
 20
-1685.1166146470077
 42
0.0245162153017846
 10
341.88889566672276
 20
-1684.9598816378971
 10
341.88436912040083
 20
-1684.9573214406976
 42
0.0229282588827948
 10
341.63194956357108
 20
-1684.8294532481973
 10
341.62716906973293
 20
-1684.8273009484346
 42
0.0212984135704766
 10
341.3741311172729
 20
-1684.726102031193
 10
341.36882683230527
 20
-1684.7242384684337
 42
0.0197555462335257
 10
341.1190484945804
 20
-1684.6474230504682
 42
0.0183511896793761
 10
340.8641197691158
 20
-1684.5898401435024
 10
340.77775457239272
 20
-1684.5736373531174
 42
0.0338057877147275
 10
340.49224722313318
 20
-1684.5398289479774
 10
340.40124181809267
 20
-1684.5352492927161
 42
0.0091990524493758
 10
340.29539470945781
 20
-1684.5318734367941
 42
0.0028333980780494
 10
340.18948079345705
 20
-1684.5310453292773
 10
340.18856534041549
 20
-1684.5310433594532
 42
-0.0023619827795462
 10
340.08081932529132
 20
-1684.5303025183744
 10
340.04441415513372
 20
-1684.5298802119116
 42
0.0008824598476177
 10
339.86385816531958
 20
-1684.5281044336739
 10
339.81999673287771
 20
-1684.5277504721478
 42
0.0038132665772459
 10
339.55171383699678
 20
-1684.5276315360811
 10
339.53518018220564
 20
-1684.5277503022246
 42
0.0060665569336826
 10
339.2338996906123
 20
-1684.5335706016456
 10
339.21964935858921
 20
-1684.534018909613
 42
0.0080356953337603
 10
338.89019064224209
 20
-1684.5496866316803
 10
338.87812062716273
 20
-1684.5504552146203
 42
0.009899639910211
 10
338.52535754251761
 20
-1684.5799404438178
 10
338.51531183313671
 20
-1684.5809807400167
 42
0.0117740981368358
 10
338.14415497479098
 20
-1684.6282729875461
 10
338.13593227830495
 20
-1684.6295181041173
 42
0.0137435215137652
 10
337.75134345881713
 20
-1684.6986150776797
 10
337.74468641969668
 20
-1684.7000009739127
 42
0.0158359869385874
 10
337.35168932588971
 20
-1684.7948930623947
 10
337.34627613902683
 20
-1684.7963830032641
 42
0.0180554124027546
 10
336.9499610944153
 20
-1684.9210210195024
 10
336.94540430633094
 20
-1684.922637055769
 42
0.0203657431288371
 10
336.55092678851878
 20
-1685.0808973972853
 10
336.54678324951271
 20
-1685.0827590187266
 42
0.022681968464956
 10
336.15934719330988
 20
-1685.2784015973973
 10
336.15514740229116
 20
-1685.2807671893174
 42
0.0248634984609315
 10
335.7799654611099
 20
-1685.5173938352648
 10
335.7317705323278
 20
-1685.5512508770892
 42
0.0267044190869224
 10
335.45747783540935
 20
-1685.7666912529585
 42
0.0139303002209968
 10
335.20131066946703
 20
-1686.0039300938734
 10
335.19645728374906
 20
-1686.0086827567304
 42
0.0283460963448558
 10
334.9523846895251
 20
-1686.2764134171728
 10
334.91271618436656
 20
-1686.3252149946488
 42
0.0070695364812011
 10
334.83527895850636
 20
-1686.4232818106143
 42
0.0070695364812011
  0
LWPOLYLINE
  5
5B
100
AcDbEntity
  8
0
370
              15
390
0
  6
Continuous
 62
               7
100
AcDbPolyline
 90
      226
 70
             128
 10
331.30645852125997
 20
-1702.144870616798
 42
-0.0026277636640594
 10
331.30638063745994
 20
-1702.0780986910793
 10
331.30659799569219
 20
-1702.024943473612
 42
-0.0088680296722255
 10
331.31037461198531
 20
-1701.8519276912104
 10
331.31272097109775
 20
-1701.7926476657553
 42
-0.0077381705615666
 10
331.32876708186058
 20
-1701.5013871699573
 10
331.32963499303366
 20
-1701.4890989362721
 42
-0.0068872530529426
 10
331.3562670727822
 20
-1701.173877184199
 10
331.3574712969679
 20
-1701.1616362051843
 42
-0.0062130021478038
 10
331.39506501379549
 20
-1700.8227665139448
 10
331.39656891733046
 20
-1700.8105926420294
 42
-0.0056726929681804
 10
331.44549077683178
 20
-1700.4483974199195
 10
331.44726422247675
 20
-1700.4363036196705
 42
-0.0052341884492448
 10
331.50787480873777
 20
-1700.0511103641475
 10
331.50989279751354
 20
-1700.0391054341601
 42
-0.004976845016919
 10
331.58263147893882
 20
-1699.6312608667333
 10
331.60688049366161
 20
-1699.5027128837216
 42
-0.0089029805623964
 10
331.7439613454564
 20
-1698.840937436298
 10
331.77670672077454
 20
-1698.6959060057759
 42
-0.0080318257103956
 10
332.00625533511578
 20
-1697.7501963739221
 10
332.01824026156407
 20
-1697.704065738732
 42
-0.0074265721313824
 10
332.30225180041452
 20
-1696.6740011603524
 10
332.32213134353128
 20
-1696.6058670997627
 42
-0.0069711922702862
 10
332.64943592203815
 20
-1695.5395993594341
 10
332.70938786914331
 20
-1695.3535780010645
 42
-0.0052070422895277
 10
332.93881309440292
 20
-1694.6663059240323
 10
332.95609428657298
 20
-1694.6162786434215
 42
-0.0009167004448242
 10
333.15918617386467
 20
-1694.031822795261
 42
-0.0025162726942359
 10
333.3662838041335
 20
-1693.4487815310806
 10
333.40350841592931
 20
-1693.3456319852019
 42
-0.0028212681456992
 10
333.65168433489487
 20
-1692.6699013530219
 10
333.66151509765069
 20
-1692.6435939083312
 42
-0.0031964916825887
 10
333.89780735530746
 20
-1692.0233891462181
 10
333.90744180930506
 20
-1691.9985791560784
 42
-0.0036281836452768
 10
334.132547770408
 20
-1691.4311384751818
 10
334.14198618056429
 20
-1691.4078410436819
 42
-0.0041269166827318
 10
334.35660387722453
 20
-1690.8904001477008
 10
334.38923683364322
 20
-1690.8135217013444
 42
-0.00474722130594
 10
334.54628163919858
 20
-1690.4531002334563
 10
334.55317572041855
 20
-1690.437679636098
 42
-0.0025651660000292
 10
334.70153375425741
 20
-1690.1103515803759
 42
-0.0057144634988162
 10
334.85528344802151
 20
-1689.7855419070288
 10
334.88331415343623
 20
-1689.7280335246066
 42
-0.0065388068373563
 10
335.0667811811694
 20
-1689.3638010279542
 10
335.07523963694842
 20
-1689.3475414485836
 42
-0.0074510843028681
 10
335.25142188282587
 20
-1689.0208531674618
 10
335.2596015533523
 20
-1689.0062123902012
 42
-0.0084648979863971
 10
335.42923540645768
 20
-1688.7143033792318
 10
335.43709153294628
 20
-1688.70129638758
 42
-0.0095638542797342
 10
335.60092698054029
 20
-1688.4414075156024
 10
335.6084019242129
 20
-1688.4300381541454
 42
-0.0107191626803288
 10
335.76720350459925
 20
-1688.199426919603
 10
335.77422023833179
 20
-1688.1896908272363
 42
-0.0118458573901935
 10
335.92876833684238
 20
-1687.9856186319278
 42
-0.01291845182049
 10
336.09322096043894
 20
-1687.7894581157632
 10
336.12336573281021
 20
-1687.7553320368545
 42
-0.0217742579627297
 10
336.29997805514301
 20
-1687.5721252666076
 10
336.310723599602
 20
-1687.561908433406
 42
-0.0097266568645488
 10
336.47678121845854
 20
-1687.4100608589674
 42
-0.0187720905722224
 10
336.65112879434827
 20
-1687.2679920055778
 10
336.68183478501982
 20
-1687.2448329231836
 42
-0.0179428207521134
 10
336.91425550501788
 20
-1687.0822807460704
 10
336.91790783193613
 20
-1687.079916811181
 42
-0.0170047877694207
 10
337.15367146946426
 20
-1686.9384562970311
 10
337.15745445820886
 20
-1686.9363579919959
 42
-0.0160190788373974
 10
337.39436300584691
 20
-1686.8147066900067
 42
-0.0151102861479137
 10
337.63839478829584
 20
-1686.7080239139511
 10
337.69078129050502
 20
-1686.6869837810575
 42
-0.0271945441892374
 10
338.04944384956298
 20
-1686.5651189703515
 10
338.11850865004982
 20
-1686.5457694290856
 42
-0.0237596594020195
 10
338.53430549707389
 20
-1686.4503187171035
 10
338.60236835080605
 20
-1686.4380640289764
 42
-0.0213715440554557
 10
338.88824328224962
 20
-1686.3991169974668
 10
338.94839044846736
 20
-1686.3935272827659
 42
-0.0101465655824027
 10
339.11588298046206
 20
-1686.3813837395019
 10
339.12522336665035
 20
-1686.380896824505
 42
-0.0100375910879675
 10
339.27437746722296
 20
-1686.3761210065795
 10
339.28463673690476
 20
-1686.3759985675651
 42
-0.0103625633381971
 10
339.41334473155837
 20
-1686.3771300010917
 10
339.43561038283445
 20
-1686.3777873595568
 42
-0.0115689250213032
 10
339.51966112035313
 20
-1686.3822168658016
 42
-0.0072438037439118
 10
339.60349939978812
 20
-1686.3898060655504
 10
339.6202999092651
 20
-1686.3915726082751
 42
-0.0217917313143227
 10
339.73686967257947
 20
-1686.4089925009964
 10
339.80246976314652
 20
-1686.421739109411
 42
-0.0332943556752219
 10
340.00686192817318
 20
-1686.4757794007178
 10
340.03703449672469
 20
-1686.4859474778368
 42
-0.0184824084803543
 10
340.17553955318851
 20
-1686.5383984932228
 42
-0.019800205069181
 10
340.30961389369003
 20
-1686.6012825534233
 10
340.31150053106501
 20
-1686.6022603403021
 42
-0.0212242342980306
 10
340.44363947346443
 20
-1686.6780230790935
 10
340.44545476901055
 20
-1686.6791688813034
 42
-0.0226090605801808
 10
340.57395867023291
 20
-1686.7686485248685
 10
340.57580311196978
 20
-1686.7700607778554
 42
-0.0238457052230715
 10
340.69898519326239
 20
-1686.8740566737172
 10
340.70093792182195
 20
-1686.8758715514839
 42
-0.0248160564170306
 10
340.81713942912148
 20
-1686.9951461526916
 10
340.81924306252438
 20
-1686.9975314863971
 42
-0.0254109591427353
 10
340.9268482803912
 20
-1687.1328198723627
 10
340.9290963023044
 20
-1687.135961420762
 42
-0.0255528488304139
 10
341.0265429811011
 20
-1687.2879884749952
 10
341.02887408101776
 20
-1687.2920700866039
 42
-0.0252146793213686
 10
341.11465510702658
 20
-1687.4615723326008
 10
341.11695734618422
 20
-1687.4667544145138
 42
-0.0244265635950873
 10
341.18961203994604
 20
-1687.6545009865613
 10
341.19885844141385
 20
-1687.6823664048973
 42
-0.0231319612914921
 10
341.2447812204058
 20
-1687.8456674516997
 42
-0.011213042432672
 10
341.27941724294448
 20
-1688.0118710518884
 10
341.28061976805691
 20
-1688.0183676387758
 42
-0.021052788126526
 10
341.30630624342808
 20
-1688.1994232842171
 10
341.30981683824973
 20
-1688.2348288327644
 42
-0.0190029892411385
 10
341.32525831179368
 20
-1688.4883646790358
 10
341.32606828823771
 20
-1688.5238402934056
 42
-0.0137974553656842
 10
341.32451943540275
 20
-1688.8488717001337
 10
341.32367398044721
 20
-1688.8749904447288
 42
-0.0081336634220926
 10
341.30881464522497
 20
-1689.1803379123312
 42
-0.0073526923581843
 10
341.28450611185013
 20
-1689.4850861566122
 10
341.28324468806693
 20
-1689.4984228312824
 42
-0.006688613867366
 10
341.24750910201982
 20
-1689.8290088747838
 10
341.24585201255047
 20
-1689.8426304937709
 42
-0.0061359187368399
 10
341.1980014105003
 20
-1690.1993944738676
 10
341.19596390942695
 20
-1690.2132892767002
 42
-0.0056698610060683
 10
341.13531357865855
 20
-1690.5965678455429
 10
341.13290814533627
 20
-1690.6107269647689
 42
-0.0052721077264031
 10
341.05877594453824
 20
-1691.0208543044409
 10
341.05601279569544
 20
-1691.0352709398328
 42
-0.0049289272191793
 10
340.96771867759645
 20
-1691.4725794509509
 10
340.96460618291292
 20
-1691.4872483037711
 42
-0.0047415956702395
 10
340.8613681913788
 20
-1691.9520450611874
 10
340.82659998102042
 20
-1692.101852156565
 42
-0.0084404470900945
 10
340.63658353745024
 20
-1692.8620761810928
 10
340.63045684946371
 20
-1692.8849403052495
 42
-0.0039635940263192
 10
340.40900316518224
 20
-1693.6859291694891
 10
340.39562637000051
 20
-1693.7328607860886
 42
-0.0072475040835949
 10
340.12817948213592
 20
-1694.6220805024834
 10
340.05796715531153
 20
-1694.843820852446
 42
-0.0051345458831722
 10
339.77120778325059
 20
-1695.7181460402621
 10
339.74968151648653
 20
-1695.7815723073816
 42
-0.0019150016598482
 10
339.49414810961605
 20
-1696.5251214276182
 10
339.4876805052229
 20
-1696.5437088925305
 42
-0.0021524362753687
 10
339.23920245415627
 20
-1697.2480347142475
 10
339.22999203346046
 20
-1697.2737882925471
 42
-0.0024331286823037
 10
338.99373677442361
 20
-1697.9243876006672
 10
338.98468882187234
 20
-1697.9489309070234
 42
-0.002744972178304
 10
338.76007425103796
 20
-1698.5480607859461
 10
338.75118424364274
 20
-1698.5713833758061
 42
-0.0031083229772061
 10
338.53764175703634
 20
-1699.121307413378
 10
338.52890562535993
 20
-1699.1433971292379
 42
-0.0035311343283996
 10
338.32586443976868
 20
-1699.6463802549658
 10
338.31727910062608
 20
-1699.6672229784638
 42
-0.0040245640944549
 10
338.12416729682661
 20
-1700.1255323010685
 10
338.11573118322207
 20
-1700.1451116691439
 42
-0.0046015135855157
 10
337.93197489006013
 20
-1700.5610166987826
 10
337.92368871223886
 20
-1700.5793138382192
 42
-0.005276863828127
 10
337.74871119327543
 20
-1700.955086722505
 10
337.74057898264226
 20
-1700.9720800610612
 42
-0.0060672675620607
 10
337.57379936988252
 20
-1701.3099956841625
 10
337.56582988940704
 20
-1701.325660943148
 42
-0.0069904648880767
 10
337.40666149540027
 20
-1701.6279967498235
 10
337.39887009578894
 20
-1701.6423072990517
 42
-0.00806370227691
 10
337.24671823544338
 20
-1701.9113426022041
 10
337.23912920280753
 20
-1701.9242704678127
 42
-0.0093006455662244
 10
337.09338852628059
 20
-1702.1622848663078
 10
337.08603785953807
 20
-1702.1738028354791
 42
-0.0107060778062955
 10
336.94608931609798
 20
-1702.3830731528599
 10
336.93902754782044
 20
-1702.3931586954227
 42
-0.012272311138961
 10
336.80423382962033
 20
-1702.5759520249148
 10
336.80390760607099
 20
-1702.5763724127185
 42
-0.0141836319648956
 10
336.66032600309279
 20
-1702.750942170554
 10
336.65337824744023
 20
-1702.7589171708194
 42
-0.0175957477199897
 10
336.51347207940614
 20
-1702.9085380592235
 42
-0.0080466359682891
 10
336.36600831437727
 20
-1703.0508605873733
 10
336.31997376985817
 20
-1703.0938810254659
 42
-0.0269600260388259
 10
336.06669352387553
 20
-1703.3062042839745
 10
336.00012638757858
 20
-1703.3561556985983
 42
-0.0178362839753031
 10
335.76018189792228
 20
-1703.5231736248513
 10
335.75293692692168
 20
-1703.5278421370563
 42
-0.0174650732654656
 10
335.5166007294805
 20
-1703.6687031020153
 42
-0.0169240130161337
 10
335.27113448361916
 20
-1703.7929953617943
 10
335.22514832806462
 20
-1703.81435731736
 42
-0.031888303684265
 10
334.87479747244657
 20
-1703.9506956268694
 10
334.80643193727934
 20
-1703.9723962473456
 42
-0.0284435909900325
 10
334.43038181098871
 20
-1704.0686136828203
 10
334.39522365048867
 20
-1704.0755072786492
 42
-0.0243909341012267
 10
334.0817801895713
 20
-1704.1212283096791
 10
334.03149946280223
 20
-1704.1260738565804
 42
-0.0196639292934471
 10
333.81590388527309
 20
-1704.1383221420942
 10
333.76407981410443
 20
-1704.139225402831
 42
-0.0100501510680561
 10
333.65165653244492
 20
-1704.1389250044779
 10
333.61999667113656
 20
-1704.1382039325933
 42
-0.0019752031156676
 10
333.57090433441988
 20
-1704.1368917723828
 10
333.56814403120211
 20
-1704.1368070805565
 42
0.0065378751994153
 10
333.52456745644338
 20
-1704.1360401893414
 42
-0.0167974694620303
 10
333.48103663350935
 20
-1704.1343802908154
 10
333.47695729424902
 20
-1704.1340872799205
 42
-0.0081283276318205
 10
333.42539749651962
 20
-1704.1295402862836
 10
333.41365792263184
 20
-1704.1283123687044
 42
-0.0126703440167443
 10
333.33893962683499
 20
-1704.1185775776325
 10
333.31615175916193
 20
-1704.1150193217177
 42
-0.0117852088428876
 10
333.19661277332841
 20
-1704.0934563265603
 10
333.14123232156669
 20
-1704.082112786326
 42
-0.0251774592296076
 10
332.91438828255815
 20
-1704.0236147768928
 10
332.86966909270632
 20
-1704.0096479575573
 42
-0.0146525199883434
 10
332.6832761051686
 20
-1703.9453814303595
 42
-0.0166929435861842
 10
332.50129844904387
 20
-1703.8695742973059
 10
332.49664181776859
 20
-1703.867449396691
 42
-0.0191684358446991
 10
332.31145818651981
 20
-1703.7742133129009
 10
332.30812560076299
 20
-1703.7723720653476
 42
-0.0221181781791355
 10
332.12481529686107
 20
-1703.6602385669769
 10
332.12246549285226
 20
-1703.6586542689856
 42
-0.0254984685401133
 10
331.94617534246515
 20
-1703.5262431190147
 10
331.9236931947674
 20
-1703.5074908100817
 42
-0.0292492648793403
 10
331.79892425592277
 20
-1703.3903980104369
 42
-0.0159048957509404
 10
331.68508425847307
 20
-1703.2623780188383
 10
331.68376546789329
 20
-1703.2607964058177
 42
-0.0343813379544594
 10
331.58112820626707
 20
-1703.1189250800483
 10
331.54963667490637
 20
-1703.0684216879547
 42
-0.0369117275706077
 10
331.46374417300865
 20
-1702.9049444470058
 42
-0.0191751379902768
 10
331.39655078745159
 20
-1702.7325398410007
 10
331.39478746369184
 20
-1702.727446496325
 42
-0.0378178042226579
 10
331.34499274490707
 20
-1702.5385057202436
 10
331.33899744917647
 20
-1702.5059451020452
 42
-0.0184846046496447
 10
331.3182802498826
 20
-1702.3641922815018
 42
-0.0179866351308325
 10
331.30794724480967
 20
-1702.2213014684214
 10
331.30789080236389
 20
-1702.2197437818081
 42
-0.0085497186260724
 10
331.30645852125997
 20
-1702.144870616798
 42
-0.0085497186260724
  0
ENDBLK
  5
5C
100
AcDbEntity
  8
template
390
0
100
AcDbBlockEnd
  0
BLOCK
  5
5D
100
AcDbEntity
  8
notes
390
0
100
AcDbBlockBegin
  2
*D4
 70
               1
 10
0.0
 20
0.0
 30
0.0
  3
*D4
  1

  0
LINE
  5
5E
100
AcDbEntity
  8
0
370
              -2
390
0
  6
Continuous
 62
               0
100
AcDbLine
 10
-640.82358289111426
 20
872.66659355323236
 30
0.0
 11
-640.82358289111426
 21
950.86659355323241
 31
0.0
  0
LINE
  5
5F
100
AcDbEntity
  8
0
370
              -2
390
0
  6
Continuous
 62
               0
100
AcDbLine
 10
-140.84416870344921
 20
872.6351933375289
 30
0.0
 11
-140.84416870344921
 21
950.86659355323241
 31
0.0
  0
LINE
  5
60
100
AcDbEntity
  8
0
370
              -2
390
0
  6
Continuous
 62
               0
100
AcDbLine
 10
-640.82358289111426
 20
950.86659355323241
 30
0.0
 11
-140.84416870344921
 21
950.86659355323241
 31
0.0
  0
CIRCLE
  5
61
102
{ACAD_REACTORS
330
62
102
}
100
AcDbEntity
  8
0
370
              -2
390
0
  6
Continuous
 62
               0
100
AcDbCircle
 10
-640.82358289111426
 20
950.86659355323241
 30
0.0
 40
1.9998779296875
  0
HATCH
  5
62
100
AcDbEntity
  8
0
370
              -2
390
0
  6
Continuous
 62
               0
100
AcDbHatch
 10
0.0
 20
0.0
 30
0.0
210
0.0
220
0.0
230
1.0
  2
SOLID
 70
               1
 71
               1
 91
        1
 92
        1
 93
        1
 72
               2
 10
-640.82358289111426
 20
950.86659355323241
 40
1.9998779296875
 50
0.0
 51
360.0
 73
               0
 97
        1
330
61
 75
               0
 76
               1
 98
        1
 10
0.0
 20
0.0
  0
CIRCLE
  5
63
102
{ACAD_REACTORS
330
64
102
}
100
AcDbEntity
  8
0
370
              -2
390
0
  6
Continuous
 62
               0
100
AcDbCircle
 10
-140.84416870344921
 20
950.86659355323241
 30
0.0
 40
1.9998779296875
  0
HATCH
  5
64
100
AcDbEntity
  8
0
370
              -2
390
0
  6
Continuous
 62
               0
100
AcDbHatch
 10
0.0
 20
0.0
 30
0.0
210
0.0
220
0.0
230
1.0
  2
SOLID
 70
               1
 71
               1
 91
        1
 92
        1
 93
        1
 72
               2
 10
-140.84416870344921
 20
950.86659355323241
 40
1.9998779296875
 50
0.0
 51
360.0
 73
               0
 97
        1
330
63
 75
               0
 76
               1
 98
        1
 10
0.0
 20
0.0
  0
MTEXT
  5
65
100
AcDbEntity
  8
0
390
0
 62
               0
100
AcDbMText
 10
-414.64637747945721
 20
989.74421074073246
 30
0.0
 40
24.432617187500004
 41
0.0
 71
               1
 72
               1
  1
500
  7
ＭＳ ゴシック
 73
               1
 44
0.7828267384257843
  0
POINT
  5
66
100
AcDbEntity
  8
Defpoints
370
               0
390
0
 62
               0
100
AcDbPoint
 10
-140.84416870344921
 20
847.6351933375289
 30
0.0
  0
POINT
  5
67
100
AcDbEntity
  8
Defpoints
370
               0
390
0
 62
               0
100
AcDbPoint
 10
-640.82358289111426
 20
847.66659355323236
 30
0.0
  0
POINT
  5
68
100
AcDbEntity
  8
Defpoints
370
               0
390
0
 62
               0
100
AcDbPoint
 10
-640.82358289111426
 20
950.86659355323241
 30
0.0
  0
ENDBLK
  5
69
100
AcDbEntity
  8
notes
390
0
100
AcDbBlockEnd
  0
BLOCK
  5
6A
100
AcDbEntity
  8
notes
390
0
100
AcDbBlockBegin
  2
*D5
 70
               1
 10
0.0
 20
0.0
 30
0.0
  3
*D5
  1

  0
LINE
  5
6B
100
AcDbEntity
  8
0
370
              -2
390
0
  6
Continuous
 62
               0
100
AcDbLine
 10
-118.82999782753279
 20
850.84490194144701
 30
0.0
 11
-40.829997827532793
 21
850.84490194144701
 31
0.0
  0
LINE
  5
6C
100
AcDbEntity
  8
0
370
              -2
390
0
  6
Continuous
 62
               0
100
AcDbLine
 10
-155.23844649317311
 20
450.83543386364551
 30
0.0
 11
-40.829997827532793
 21
450.83543386364551
 31
0.0
  0
LINE
  5
6D
100
AcDbEntity
  8
0
370
              -2
390
0
  6
Continuous
 62
               0
100
AcDbLine
 10
-40.829997827532793
 20
850.84490194144701
 30
0.0
 11
-40.829997827532793
 21
450.83543386364551
 31
0.0
  0
CIRCLE
  5
6E
102
{ACAD_REACTORS
330
6F
102
}
100
AcDbEntity
  8
0
370
              -2
390
0
  6
Continuous
 62
               0
100
AcDbCircle
 10
-40.829997827532793
 20
850.84490194144701
 30
0.0
 40
1.9998779296875
  0
HATCH
  5
6F
100
AcDbEntity
  8
0
370
              -2
390
0
  6
Continuous
 62
               0
100
AcDbHatch
 10
0.0
 20
0.0
 30
0.0
210
0.0
220
0.0
230
1.0
  2
SOLID
 70
               1
 71
               1
 91
        1
 92
        1
 93
        1
 72
               2
 10
-40.829997827532793
 20
850.84490194144701
 40
1.9998779296875
 50
0.0
 51
360.0
 73
               0
 97
        1
330
6E
 75
               0
 76
               1
 98
        1
 10
0.0
 20
0.0
  0
CIRCLE
  5
70
102
{ACAD_REACTORS
330
71
102
}
100
AcDbEntity
  8
0
370
              -2
390
0
  6
Continuous
 62
               0
100
AcDbCircle
 10
-40.829997827532793
 20
450.83543386364551
 30
0.0
 40
1.9998779296875
  0
HATCH
  5
71
100
AcDbEntity
  8
0
370
              -2
390
0
  6
Continuous
 62
               0
100
AcDbHatch
 10
0.0
 20
0.0
 30
0.0
210
0.0
220
0.0
230
1.0
  2
SOLID
 70
               1
 71
               1
 91
        1
 92
        1
 93
        1
 72
               2
 10
-40.829997827532793
 20
450.83543386364551
 40
1.9998779296875
 50
0.0
 51
360.0
 73
               0
 97
        1
330
70
 75
               0
 76
               1
 98
        1
 10
0.0
 20
0.0
  0
MTEXT
  5
72
100
AcDbEntity
  8
0
390
0
 62
               0
100
AcDbMText
 10
-79.707615015032843
 20
627.02766622037075
 30
0.0
 40
24.432617187500004
 41
0.0
 71
               1
 72
               1
  1
400
  7
ＭＳ ゴシック
 11
0.0
 21
1.0
 31
0.0
 73
               1
 44
0.7828267384257843
  0
POINT
  5
73
100
AcDbEntity
  8
Defpoints
370
               0
390
0
 62
               0
100
AcDbPoint
 10
-180.23844649317311
 20
450.83543386364551
 30
0.0
  0
POINT
  5
74
100
AcDbEntity
  8
Defpoints
370
               0
390
0
 62
               0
100
AcDbPoint
 10
-143.82999782753279
 20
850.84490194144701
 30
0.0
  0
POINT
  5
75
100
AcDbEntity
  8
Defpoints
370
               0
390
0
 62
               0
100
AcDbPoint
 10
-40.829997827532793
 20
850.84490194144701
 30
0.0
  0
ENDBLK
  5
76
100
AcDbEntity
  8
notes
390
0
100
AcDbBlockEnd
  0
BLOCK
  5
77
100
AcDbEntity
  8
notes
390
0
100
AcDbBlockBegin
  2
*D6
 70
               1
 10
0.0
 20
0.0
 30
0.0
  3
*D6
  1

  0
LINE
  5
78
100
AcDbEntity
  8
0
370
              -2
390
0
  6
Continuous
 62
               0
100
AcDbLine
 10
-662.80395092630306
 20
850.84374594984297
 30
0.0
 11
-740.80395092630306
 21
850.84374594984297
 31
0.0
  0
LINE
  5
79
100
AcDbEntity
  8
0
370
              -2
390
0
  6
Continuous
 62
               0
100
AcDbLine
 10
-662.80395092630306
 20
720.81699808641292
 30
0.0
 11
-740.80395092630306
 21
720.81699808641292
 31
0.0
  0
LINE
  5
7A
100
AcDbEntity
  8
0
370
              -2
390
0
  6
Continuous
 62
               0
100
AcDbLine
 10
-740.80395092630306
 20
850.84374594984297
 30
0.0
 11
-740.80395092630306
 21
720.81699808641292
 31
0.0
  0
CIRCLE
  5
7B
102
{ACAD_REACTORS
330
7C
102
}
100
AcDbEntity
  8
0
370
              -2
390
0
  6
Continuous
 62
               0
100
AcDbCircle
 10
-740.80395092630306
 20
850.84374594984297
 30
0.0
 40
1.9998779296875
  0
HATCH
  5
7C
100
AcDbEntity
  8
0
370
              -2
390
0
  6
Continuous
 62
               0
100
AcDbHatch
 10
0.0
 20
0.0
 30
0.0
210
0.0
220
0.0
230
1.0
  2
SOLID
 70
               1
 71
               1
 91
        1
 92
        1
 93
        1
 72
               2
 10
-740.80395092630306
 20
850.84374594984297
 40
1.9998779296875
 50
0.0
 51
360.0
 73
               0
 97
        1
330
7B
 75
               0
 76
               1
 98
        1
 10
0.0
 20
0.0
  0
CIRCLE
  5
7D
102
{ACAD_REACTORS
330
7E
102
}
100
AcDbEntity
  8
0
370
              -2
390
0
  6
Continuous
 62
               0
100
AcDbCircle
 10
-740.80395092630306
 20
720.81699808641292
 30
0.0
 40
1.9998779296875
  0
HATCH
  5
7E
100
AcDbEntity
  8
0
370
              -2
390
0
  6
Continuous
 62
               0
100
AcDbHatch
 10
0.0
 20
0.0
 30
0.0
210
0.0
220
0.0
230
1.0
  2
SOLID
 70
               1
 71
               1
 91
        1
 92
        1
 93
        1
 72
               2
 10
-740.80395092630306
 20
720.81699808641292
 40
1.9998779296875
 50
0.0
 51
360.0
 73
               0
 97
        1
330
7D
 75
               0
 76
               1
 98
        1
 10
0.0
 20
0.0
  0
MTEXT
  5
7F
100
AcDbEntity
  8
0
390
0
 62
               0
100
AcDbMText
 10
-779.681568113803
 20
762.01787033595247
 30
0.0
 40
24.432617187500004
 41
0.0
 71
               1
 72
               1
  1
130
  7
ＭＳ ゴシック
 11
0.0
 21
1.0
 31
0.0
 73
               1
 44
0.7828267384257843
  0
POINT
  5
80
100
AcDbEntity
  8
Defpoints
370
               0
390
0
 62
               0
100
AcDbPoint
 10
-637.80395092630306
 20
720.81699808641292
 30
0.0
  0
POINT
  5
81
100
AcDbEntity
  8
Defpoints
370
               0
390
0
 62
               0
100
AcDbPoint
 10
-637.80395092630306
 20
850.84374594984297
 30
0.0
  0
POINT
  5
82
100
AcDbEntity
  8
Defpoints
370
               0
390
0
 62
               0
100
AcDbPoint
 10
-740.80395092630306
 20
850.84374594984297
 30
0.0
  0
ENDBLK
  5
83
100
AcDbEntity
  8
notes
390
0
100
AcDbBlockEnd
  0
BLOCK
  5
84
100
AcDbEntity
  8
notes
390
0
100
AcDbBlockBegin
  2
*D7
 70
               1
 10
0.0
 20
0.0
 30
0.0
  3
*D7
  1

  0
LINE
  5
85
100
AcDbEntity
  8
0
370
              -2
390
0
  6
Continuous
 62
               0
100
AcDbLine
 10
-694.55395092630351
 20
720.81699808641292
 30
0.0
 11
-740.80395092630351
 21
720.81699808641292
 31
0.0
  0
LINE
  5
86
100
AcDbEntity
  8
0
370
              -2
390
0
  6
Continuous
 62
               0
100
AcDbLine
 10
-665.82358289111426
 20
500.83935574636308
 30
0.0
 11
-740.80395092630351
 21
500.83935574636308
 31
0.0
  0
LINE
  5
87
100
AcDbEntity
  8
0
370
              -2
390
0
  6
Continuous
 62
               0
100
AcDbLine
 10
-740.80395092630351
 20
720.81699808641292
 30
0.0
 11
-740.80395092630351
 21
500.83935574636308
 31
0.0
  0
CIRCLE
  5
88
102
{ACAD_REACTORS
330
89
102
}
100
AcDbEntity
  8
0
370
              -2
390
0
  6
Continuous
 62
               0
100
AcDbCircle
 10
-740.80395092630351
 20
720.81699808641292
 30
0.0
 40
1.9998779296875
  0
HATCH
  5
89
100
AcDbEntity
  8
0
370
              -2
390
0
  6
Continuous
 62
               0
100
AcDbHatch
 10
0.0
 20
0.0
 30
0.0
210
0.0
220
0.0
230
1.0
  2
SOLID
 70
               1
 71
               1
 91
        1
 92
        1
 93
        1
 72
               2
 10
-740.80395092630351
 20
720.81699808641292
 40
1.9998779296875
 50
0.0
 51
360.0
 73
               0
 97
        1
330
88
 75
               0
 76
               1
 98
        1
 10
0.0
 20
0.0
  0
CIRCLE
  5
8A
102
{ACAD_REACTORS
330
8B
102
}
100
AcDbEntity
  8
0
370
              -2
390
0
  6
Continuous
 62
               0
100
AcDbCircle
 10
-740.80395092630351
 20
500.83935574636308
 30
0.0
 40
1.9998779296875
  0
HATCH
  5
8B
100
AcDbEntity
  8
0
370
              -2
390
0
  6
Continuous
 62
               0
100
AcDbHatch
 10
0.0
 20
0.0
 30
0.0
210
0.0
220
0.0
230
1.0
  2
SOLID
 70
               1
 71
               1
 91
        1
 92
        1
 93
        1
 72
               2
 10
-740.80395092630351
 20
500.83935574636308
 40
1.9998779296875
 50
0.0
 51
360.0
 73
               0
 97
        1
330
8A
 75
               0
 76
               1
 98
        1
 10
0.0
 20
0.0
  0
MTEXT
  5
8C
100
AcDbEntity
  8
0
390
0
 62
               0
100
AcDbMText
 10
-779.68156811380345
 20
587.01567523421249
 30
0.0
 40
24.432617187500004
 41
0.0
 71
               1
 72
               1
  1
220
  7
ＭＳ ゴシック
 11
0.0
 21
1.0
 31
0.0
 73
               1
 44
0.7828267384257843
  0
POINT
  5
8D
100
AcDbEntity
  8
Defpoints
370
               0
390
0
 62
               0
100
AcDbPoint
 10
-640.82358289111426
 20
500.83935574636308
 30
0.0
  0
POINT
  5
8E
100
AcDbEntity
  8
Defpoints
370
               0
390
0
 62
               0
100
AcDbPoint
 10
-669.55395092630351
 20
720.81699808641292
 30
0.0
  0
POINT
  5
8F
100
AcDbEntity
  8
Defpoints
370
               0
390
0
 62
               0
100
AcDbPoint
 10
-740.80395092630351
 20
720.81699808641292
 30
0.0
  0
ENDBLK
  5
90
100
AcDbEntity
  8
notes
390
0
100
AcDbBlockEnd
  0
BLOCK
  5
91
100
AcDbEntity
  8
notes
390
0
100
AcDbBlockBegin
  2
*D8
 70
               1
 10
0.0
 20
0.0
 30
0.0
  3
*D8
  1

  0
LINE
  5
92
100
AcDbEntity
  8
0
370
              -2
390
0
  6
Continuous
 62
               0
100
AcDbLine
 10
-595.8371219013743
 20
428.29043509399912
 30
0.0
 11
-595.8371219013743
 21
350.79043509399912
 31
0.0
  0
LINE
  5
93
100
AcDbEntity
  8
0
370
              -2
390
0
  6
Continuous
 62
               0
100
AcDbLine
 10
-185.83276803025581
 20
428.29043509399912
 30
0.0
 11
-185.83276803025581
 21
350.79043509399912
 31
0.0
  0
LINE
  5
94
100
AcDbEntity
  8
0
370
              -2
390
0
  6
Continuous
 62
               0
100
AcDbLine
 10
-595.8371219013743
 20
350.79043509399912
 30
0.0
 11
-185.83276803025581
 21
350.79043509399912
 31
0.0
  0
CIRCLE
  5
95
102
{ACAD_REACTORS
330
96
102
}
100
AcDbEntity
  8
0
370
              -2
390
0
  6
Continuous
 62
               0
100
AcDbCircle
 10
-595.8371219013743
 20
350.79043509399912
 30
0.0
 40
1.9998779296875
  0
HATCH
  5
96
100
AcDbEntity
  8
0
370
              -2
390
0
  6
Continuous
 62
               0
100
AcDbHatch
 10
0.0
 20
0.0
 30
0.0
210
0.0
220
0.0
230
1.0
  2
SOLID
 70
               1
 71
               1
 91
        1
 92
        1
 93
        1
 72
               2
 10
-595.8371219013743
 20
350.79043509399912
 40
1.9998779296875
 50
0.0
 51
360.0
 73
               0
 97
        1
330
95
 75
               0
 76
               1
 98
        1
 10
0.0
 20
0.0
  0
CIRCLE
  5
97
102
{ACAD_REACTORS
330
98
102
}
100
AcDbEntity
  8
0
370
              -2
390
0
  6
Continuous
 62
               0
100
AcDbCircle
 10
-185.83276803025581
 20
350.79043509399912
 30
0.0
 40
1.9998779296875
  0
HATCH
  5
98
100
AcDbEntity
  8
0
370
              -2
390
0
  6
Continuous
 62
               0
100
AcDbHatch
 10
0.0
 20
0.0
 30
0.0
210
0.0
220
0.0
230
1.0
  2
SOLID
 70
               1
 71
               1
 91
        1
 92
        1
 93
        1
 72
               2
 10
-185.83276803025581
 20
350.79043509399912
 40
1.9998779296875
 50
0.0
 51
360.0
 73
               0
 97
        1
330
97
 75
               0
 76
               1
 98
        1
 10
0.0
 20
0.0
  0
MTEXT
  5
99
100
AcDbEntity
  8
0
390
0
 62
               0
100
AcDbMText
 10
-414.64744664799059
 20
389.66805228149911
 30
0.0
 40
24.432617187500004
 41
0.0
 71
               1
 72
               1
  1
410
  7
ＭＳ ゴシック
 73
               1
 44
0.7828267384257843
  0
POINT
  5
9A
100
AcDbEntity
  8
Defpoints
370
               0
390
0
 62
               0
100
AcDbPoint
 10
-185.83276803025581
 20
453.29043509399912
 30
0.0
  0
POINT
  5
9B
100
AcDbEntity
  8
Defpoints
370
               0
390
0
 62
               0
100
AcDbPoint
 10
-595.8371219013743
 20
453.29043509399912
 30
0.0
  0
POINT
  5
9C
100
AcDbEntity
  8
Defpoints
370
               0
390
0
 62
               0
100
AcDbPoint
 10
-595.8371219013743
 20
350.79043509399912
 30
0.0
  0
ENDBLK
  5
9D
100
AcDbEntity
  8
notes
390
0
100
AcDbBlockEnd
  0
BLOCK
  5
9E
100
AcDbEntity
  8
notes
390
0
100
AcDbBlockBegin
  2
*D9
 70
               1
 10
0.0
 20
0.0
 30
0.0
  3
*D9
  1

  0
LINE
  5
9F
100
AcDbEntity
  8
0
370
              -2
390
0
  6
Continuous
 62
               0
100
AcDbLine
 10
-380.57537385478213
 20
800.02925736196062
 30
0.0
 11
-327.88763034113538
 21
872.94356912983244
 31
0.0
  0
CIRCLE
  5
A0
102
{ACAD_REACTORS
330
A1
102
}
100
AcDbEntity
  8
0
370
              -2
390
0
  6
Continuous
 62
               0
100
AcDbCircle
 10
-380.57537385478213
 20
800.02925736196062
 30
0.0
 40
1.9998779296875
  0
HATCH
  5
A1
100
AcDbEntity
  8
0
370
              -2
390
0
  6
Continuous
 62
               0
100
AcDbHatch
 10
0.0
 20
0.0
 30
0.0
210
0.0
220
0.0
230
1.0
  2
SOLID
 70
               1
 71
               1
 91
        1
 92
        1
 93
        1
 72
               2
 10
-380.57537385478213
 20
800.02925736196062
 40
1.9998779296875
 50
0.0
 51
360.0
 73
               0
 97
        1
330
A0
 75
               0
 76
               1
 98
        1
 10
0.0
 20
0.0
  0
LINE
  5
A2
100
AcDbEntity
  8
0
370
              -2
390
0
  6
Continuous
 62
               0
100
AcDbLine
 10
-327.88763034113538
 20
872.94356912983244
 30
0.0
 11
-200.88763034113538
 21
872.94356912983244
 31
0.0
  0
MTEXT
  5
A3
100
AcDbEntity
  8
0
390
0
 62
               0
100
AcDbMText
 10
-264.38763034113538
 20
906.82118631733249
 30
0.0
 40
24.432617187500004
 41
0.0
 71
               1
 72
               1
  1
φ35
  7
ＭＳ ゴシック
 73
               1
 44
0.7828267384257843
  0
POINT
  5
A4
100
AcDbEntity
  8
Defpoints
370
               0
390
0
 62
               0
100
AcDbPoint
 10
-401.07455055089122
 20
771.66054652093499
 30
0.0
  0
POINT
  5
A5
100
AcDbEntity
  8
Defpoints
370
               0
390
0
 62
               0
100
AcDbPoint
 10
-380.57537385478213
 20
800.02925736196062
 30
0.0
  0
ENDBLK
  5
A6
100
AcDbEntity
  8
notes
390
0
100
AcDbBlockEnd
  0
BLOCK
  5
A7
100
AcDbEntity
  8
notes
390
0
100
AcDbBlockBegin
  2
*D10
 70
               1
 10
0.0
 20
0.0
 30
0.0
  3
*D10
  1

  0
LINE
  5
A8
100
AcDbEntity
  8
0
370
              -2
390
0
  6
Continuous
 62
               0
100
AcDbLine
 10
296.70404496964733
 20
-424.22505404283834
 30
0.0
 11
216.12482600397715
 21
-424.22505404283834
 31
0.0
  0
LINE
  5
A9
100
AcDbEntity
  8
0
370
              -2
390
0
  6
Continuous
 62
               0
100
AcDbLine
 10
296.98763716039451
 20
-469.22505404283834
 30
0.0
 11
216.12482600397715
 21
-469.22505404283834
 31
0.0
  0
LINE
  5
AA
100
AcDbEntity
  8
0
370
              -2
390
0
  6
Continuous
 62
               0
100
AcDbLine
 10
216.12482600397715
 20
-424.22505404283834
 30
0.0
 11
216.12482600397715
 21
-469.22505404283834
 31
0.0
  0
CIRCLE
  5
AB
102
{ACAD_REACTORS
330
AC
102
}
100
AcDbEntity
  8
0
370
              -2
390
0
  6
Continuous
 62
               0
100
AcDbCircle
 10
216.12482600397715
 20
-424.22505404283834
 30
0.0
 40
1.9998779296875
  0
HATCH
  5
AC
100
AcDbEntity
  8
0
370
              -2
390
0
  6
Continuous
 62
               0
100
AcDbHatch
 10
0.0
 20
0.0
 30
0.0
210
0.0
220
0.0
230
1.0
  2
SOLID
 70
               1
 71
               1
 91
        1
 92
        1
 93
        1
 72
               2
 10
216.12482600397715
 20
-424.22505404283834
 40
1.9998779296875
 50
0.0
 51
360.0
 73
               0
 97
        1
330
AB
 75
               0
 76
               1
 98
        1
 10
0.0
 20
0.0
  0
CIRCLE
  5
AD
102
{ACAD_REACTORS
330
AE
102
}
100
AcDbEntity
  8
0
370
              -2
390
0
  6
Continuous
 62
               0
100
AcDbCircle
 10
216.12482600397715
 20
-469.22505404283834
 30
0.0
 40
1.9998779296875
  0
HATCH
  5
AE
100
AcDbEntity
  8
0
370
              -2
390
0
  6
Continuous
 62
               0
100
AcDbHatch
 10
0.0
 20
0.0
 30
0.0
210
0.0
220
0.0
230
1.0
  2
SOLID
 70
               1
 71
               1
 91
        1
 92
        1
 93
        1
 72
               2
 10
216.12482600397715
 20
-469.22505404283834
 40
1.9998779296875
 50
0.0
 51
360.0
 73
               0
 97
        1
330
AD
 75
               0
 76
               1
 98
        1
 10
0.0
 20
0.0
  0
MTEXT
  5
AF
100
AcDbEntity
  8
0
390
0
 62
               0
100
AcDbMText
 10
182.24720881647715
 20
-462.60005404283834
 30
0.0
 40
24.432617187500004
 41
0.0
 71
               1
 72
               1
  1
45
  7
ＭＳ ゴシック
 11
0.0
 21
1.0
 31
0.0
 73
               1
 44
0.7828267384257843
  0
POINT
  5
B0
100
AcDbEntity
  8
Defpoints
370
               0
390
0
 62
               0
100
AcDbPoint
 10
321.98763716039451
 20
-469.22505404283834
 30
0.0
  0
POINT
  5
B1
100
AcDbEntity
  8
Defpoints
370
               0
390
0
 62
               0
100
AcDbPoint
 10
321.70404496964733
 20
-424.22505404283834
 30
0.0
  0
POINT
  5
B2
100
AcDbEntity
  8
Defpoints
370
               0
390
0
 62
               0
100
AcDbPoint
 10
216.12482600397715
 20
-424.22505404283834
 30
0.0
  0
ENDBLK
  5
B3
100
AcDbEntity
  8
notes
390
0
100
AcDbBlockEnd
  0
BLOCK
  5
B4
100
AcDbEntity
  8
notes
390
0
100
AcDbBlockBegin
  2
*D11
 70
               1
 10
0.0
 20
0.0
 30
0.0
  3
*D11
  1

  0
LINE
  5
B5
100
AcDbEntity
  8
0
370
              -2
390
0
  6
Continuous
 62
               0
100
AcDbLine
 10
-490.55724355303028
 20
-419.21546092695064
 30
0.0
 11
-490.55724355303028
 21
-324.22505404283845
 31
0.0
  0
LINE
  5
B6
100
AcDbEntity
  8
0
370
              -2
390
0
  6
Continuous
 62
               0
100
AcDbLine
 10
-290.55724355303028
 20
-419.21546092695064
 30
0.0
 11
-290.55724355303028
 21
-324.22505404283845
 31
0.0
  0
LINE
  5
B7
100
AcDbEntity
  8
0
370
              -2
390
0
  6
Continuous
 62
               0
100
AcDbLine
 10
-490.55724355303028
 20
-324.22505404283845
 30
0.0
 11
-290.55724355303028
 21
-324.22505404283845
 31
0.0
  0
CIRCLE
  5
B8
102
{ACAD_REACTORS
330
B9
102
}
100
AcDbEntity
  8
0
370
              -2
390
0
  6
Continuous
 62
               0
100
AcDbCircle
 10
-490.55724355303028
 20
-324.22505404283845
 30
0.0
 40
1.9998779296875
  0
HATCH
  5
B9
100
AcDbEntity
  8
0
370
              -2
390
0
  6
Continuous
 62
               0
100
AcDbHatch
 10
0.0
 20
0.0
 30
0.0
210
0.0
220
0.0
230
1.0
  2
SOLID
 70
               1
 71
               1
 91
        1
 92
        1
 93
        1
 72
               2
 10
-490.55724355303028
 20
-324.22505404283845
 40
1.9998779296875
 50
0.0
 51
360.0
 73
               0
 97
        1
330
B8
 75
               0
 76
               1
 98
        1
 10
0.0
 20
0.0
  0
CIRCLE
  5
BA
102
{ACAD_REACTORS
330
BB
102
}
100
AcDbEntity
  8
0
370
              -2
390
0
  6
Continuous
 62
               0
100
AcDbCircle
 10
-290.55724355303028
 20
-324.22505404283845
 30
0.0
 40
1.9998779296875
  0
HATCH
  5
BB
100
AcDbEntity
  8
0
370
              -2
390
0
  6
Continuous
 62
               0
100
AcDbHatch
 10
0.0
 20
0.0
 30
0.0
210
0.0
220
0.0
230
1.0
  2
SOLID
 70
               1
 71
               1
 91
        1
 92
        1
 93
        1
 72
               2
 10
-290.55724355303028
 20
-324.22505404283845
 40
1.9998779296875
 50
0.0
 51
360.0
 73
               0
 97
        1
330
BA
 75
               0
 76
               1
 98
        1
 10
0.0
 20
0.0
  0
MTEXT
  5
BC
100
AcDbEntity
  8
0
390
0
 62
               0
100
AcDbMText
 10
-414.36974523520576
 20
-290.3474368553384
 30
0.0
 40
24.432617187500004
 41
0.0
 71
               1
 72
               1
  1
200
  7
ＭＳ ゴシック
 73
               1
 44
0.7828267384257843
  0
POINT
  5
BD
100
AcDbEntity
  8
Defpoints
370
               0
390
0
 62
               0
100
AcDbPoint
 10
-290.55724355303028
 20
-444.21546092695064
 30
0.0
  0
POINT
  5
BE
100
AcDbEntity
  8
Defpoints
370
               0
390
0
 62
               0
100
AcDbPoint
 10
-490.55724355303028
 20
-444.21546092695064
 30
0.0
  0
POINT
  5
BF
100
AcDbEntity
  8
Defpoints
370
               0
390
0
 62
               0
100
AcDbPoint
 10
-490.55724355303028
 20
-324.22505404283845
 30
0.0
  0
ENDBLK
  5
C0
100
AcDbEntity
  8
notes
390
0
100
AcDbBlockEnd
  0
BLOCK
  5
C1
100
AcDbEntity
  8
notes
390
0
100
AcDbBlockBegin
  2
*D12
 70
               1
 10
0.0
 20
0.0
 30
0.0
  3
*D12
  1

  0
LINE
  5
C2
100
AcDbEntity
  8
0
370
              -2
390
0
  6
Continuous
 62
               0
100
AcDbLine
 10
-535.81672034038274
 20
-464.20030218179568
 30
0.0
 11
-741.50523194563289
 21
-464.20030218179568
 31
0.0
  0
LINE
  5
C3
100
AcDbEntity
  8
0
370
              -2
390
0
  6
Continuous
 62
               0
100
AcDbLine
 10
-660.09158012050557
 20
-424.22505404283845
 30
0.0
 11
-741.50523194563289
 21
-424.22505404283845
 31
0.0
  0
LINE
  5
C4
100
AcDbEntity
  8
0
370
              -2
390
0
  6
Continuous
 62
               0
100
AcDbLine
 10
-741.50523194563289
 20
-464.20030218179568
 30
0.0
 11
-741.50523194563289
 21
-424.22505404283845
 31
0.0
  0
CIRCLE
  5
C5
102
{ACAD_REACTORS
330
C6
102
}
100
AcDbEntity
  8
0
370
              -2
390
0
  6
Continuous
 62
               0
100
AcDbCircle
 10
-741.50523194563289
 20
-464.20030218179568
 30
0.0
 40
1.9998779296875
  0
HATCH
  5
C6
100
AcDbEntity
  8
0
370
              -2
390
0
  6
Continuous
 62
               0
100
AcDbHatch
 10
0.0
 20
0.0
 30
0.0
210
0.0
220
0.0
230
1.0
  2
SOLID
 70
               1
 71
               1
 91
        1
 92
        1
 93
        1
 72
               2
 10
-741.50523194563289
 20
-464.20030218179568
 40
1.9998779296875
 50
0.0
 51
360.0
 73
               0
 97
        1
330
C5
 75
               0
 76
               1
 98
        1
 10
0.0
 20
0.0
  0
CIRCLE
  5
C7
102
{ACAD_REACTORS
330
C8
102
}
100
AcDbEntity
  8
0
370
              -2
390
0
  6
Continuous
 62
               0
100
AcDbCircle
 10
-741.50523194563289
 20
-424.22505404283845
 30
0.0
 40
1.9998779296875
  0
HATCH
  5
C8
100
AcDbEntity
  8
0
370
              -2
390
0
  6
Continuous
 62
               0
100
AcDbHatch
 10
0.0
 20
0.0
 30
0.0
210
0.0
220
0.0
230
1.0
  2
SOLID
 70
               1
 71
               1
 91
        1
 92
        1
 93
        1
 72
               2
 10
-741.50523194563289
 20
-424.22505404283845
 40
1.9998779296875
 50
0.0
 51
360.0
 73
               0
 97
        1
330
C7
 75
               0
 76
               1
 98
        1
 10
0.0
 20
0.0
  0
MTEXT
  5
C9
100
AcDbEntity
  8
0
390
0
 62
               0
100
AcDbMText
 10
-775.38284913313282
 20
-460.08767811231712
 30
0.0
 40
24.432617187500004
 41
0.0
 71
               1
 72
               1
  1
40
  7
ＭＳ ゴシック
 11
0.0
 21
1.0
 31
0.0
 73
               1
 44
0.7828267384257843
  0
POINT
  5
CA
100
AcDbEntity
  8
Defpoints
370
               0
390
0
 62
               0
100
AcDbPoint
 10
-635.09158012050557
 20
-424.22505404283845
 30
0.0
  0
POINT
  5
CB
100
AcDbEntity
  8
Defpoints
370
               0
390
0
 62
               0
100
AcDbPoint
 10
-510.81672034038274
 20
-464.20030218179568
 30
0.0
  0
POINT
  5
CC
100
AcDbEntity
  8
Defpoints
370
               0
390
0
 62
               0
100
AcDbPoint
 10
-741.50523194563289
 20
-464.20030218179568
 30
0.0
  0
ENDBLK
  5
CD
100
AcDbEntity
  8
notes
390
0
100
AcDbBlockEnd
  0
BLOCK
  5
CE
100
AcDbEntity
  8
notes
390
0
100
AcDbBlockBegin
  2
*D13
 70
               1
 10
0.0
 20
0.0
 30
0.0
  3
*D13
  1

  0
LINE
  5
CF
100
AcDbEntity
  8
0
370
              -2
390
0
  6
Continuous
 62
               0
100
AcDbLine
 10
-126.09158012050602
 20
-424.22505404283845
 30
0.0
 11
-39.940884629546417
 21
-424.22505404283845
 31
0.0
  0
LINE
  5
D0
100
AcDbEntity
  8
0
370
              -2
390
0
  6
Continuous
 62
               0
100
AcDbLine
 10
-339.09158012050557
 20
-604.22505404283856
 30
0.0
 11
-39.940884629546417
 21
-604.22505404283856
 31
0.0
  0
LINE
  5
D1
100
AcDbEntity
  8
0
370
              -2
390
0
  6
Continuous
 62
               0
100
AcDbLine
 10
-39.940884629546417
 20
-424.22505404283845
 30
0.0
 11
-39.940884629546417
 21
-604.22505404283856
 31
0.0
  0
CIRCLE
  5
D2
102
{ACAD_REACTORS
330
D3
102
}
100
AcDbEntity
  8
0
370
              -2
390
0
  6
Continuous
 62
               0
100
AcDbCircle
 10
-39.940884629546417
 20
-424.22505404283845
 30
0.0
 40
1.9998779296875
  0
HATCH
  5
D3
100
AcDbEntity
  8
0
370
              -2
390
0
  6
Continuous
 62
               0
100
AcDbHatch
 10
0.0
 20
0.0
 30
0.0
210
0.0
220
0.0
230
1.0
  2
SOLID
 70
               1
 71
               1
 91
        1
 92
        1
 93
        1
 72
               2
 10
-39.940884629546417
 20
-424.22505404283845
 40
1.9998779296875
 50
0.0
 51
360.0
 73
               0
 97
        1
330
D2
 75
               0
 76
               1
 98
        1
 10
0.0
 20
0.0
  0
CIRCLE
  5
D4
102
{ACAD_REACTORS
330
D5
102
}
100
AcDbEntity
  8
0
370
              -2
390
0
  6
Continuous
 62
               0
100
AcDbCircle
 10
-39.940884629546417
 20
-604.22505404283856
 30
0.0
 40
1.9998779296875
  0
HATCH
  5
D5
100
AcDbEntity
  8
0
370
              -2
390
0
  6
Continuous
 62
               0
100
AcDbHatch
 10
0.0
 20
0.0
 30
0.0
210
0.0
220
0.0
230
1.0
  2
SOLID
 70
               1
 71
               1
 91
        1
 92
        1
 93
        1
 72
               2
 10
-39.940884629546417
 20
-604.22505404283856
 40
1.9998779296875
 50
0.0
 51
360.0
 73
               0
 97
        1
330
D4
 75
               0
 76
               1
 98
        1
 10
0.0
 20
0.0
  0
MTEXT
  5
D6
100
AcDbEntity
  8
0
390
0
 62
               0
100
AcDbMText
 10
-73.818501817046467
 20
-538.03755572501393
 30
0.0
 40
24.432617187500004
 41
0.0
 71
               1
 72
               1
  1
180
  7
ＭＳ ゴシック
 11
0.0
 21
1.0
 31
0.0
 73
               1
 44
0.7828267384257843
  0
POINT
  5
D7
100
AcDbEntity
  8
Defpoints
370
               0
390
0
 62
               0
100
AcDbPoint
 10
-364.09158012050557
 20
-604.22505404283856
 30
0.0
  0
POINT
  5
D8
100
AcDbEntity
  8
Defpoints
370
               0
390
0
 62
               0
100
AcDbPoint
 10
-151.09158012050602
 20
-424.22505404283845
 30
0.0
  0
POINT
  5
D9
100
AcDbEntity
  8
Defpoints
370
               0
390
0
 62
               0
100
AcDbPoint
 10
-39.940884629546417
 20
-424.22505404283845
 30
0.0
  0
ENDBLK
  5
DA
100
AcDbEntity
  8
notes
390
0
100
AcDbBlockEnd
  0
BLOCK
  5
DB
100
AcDbEntity
  8
notes
390
0
100
AcDbBlockBegin
  2
*D14
 70
               1
 10
0.0
 20
0.0
 30
0.0
  3
*D14
  1

  0
LINE
  5
DC
100
AcDbEntity
  8
0
370
              -2
390
0
  6
Continuous
 62
               0
100
AcDbLine
 10
715.20723105864886
 20
-400.73985135438988
 30
0.0
 11
715.20723105864886
 21
-324.22505404283834
 31
0.0
  0
LINE
  5
DD
100
AcDbEntity
  8
0
370
              -2
390
0
  6
Continuous
 62
               0
100
AcDbLine
 10
650.20723105864874
 20
-399.22505404283834
 30
0.0
 11
650.20723105864874
 21
-324.22505404283834
 31
0.0
  0
LINE
  5
DE
100
AcDbEntity
  8
0
370
              -2
390
0
  6
Continuous
 62
               0
100
AcDbLine
 10
715.20723105864886
 20
-324.22505404283834
 30
0.0
 11
650.20723105864874
 21
-324.22505404283834
 31
0.0
  0
CIRCLE
  5
DF
102
{ACAD_REACTORS
330
E0
102
}
100
AcDbEntity
  8
0
370
              -2
390
0
  6
Continuous
 62
               0
100
AcDbCircle
 10
715.20723105864886
 20
-324.22505404283834
 30
0.0
 40
1.9998779296875
  0
HATCH
  5
E0
100
AcDbEntity
  8
0
370
              -2
390
0
  6
Continuous
 62
               0
100
AcDbHatch
 10
0.0
 20
0.0
 30
0.0
210
0.0
220
0.0
230
1.0
  2
SOLID
 70
               1
 71
               1
 91
        1
 92
        1
 93
        1
 72
               2
 10
715.20723105864886
 20
-324.22505404283834
 40
1.9998779296875
 50
0.0
 51
360.0
 73
               0
 97
        1
330
DF
 75
               0
 76
               1
 98
        1
 10
0.0
 20
0.0
  0
CIRCLE
  5
E1
102
{ACAD_REACTORS
330
E2
102
}
100
AcDbEntity
  8
0
370
              -2
390
0
  6
Continuous
 62
               0
100
AcDbCircle
 10
650.20723105864874
 20
-324.22505404283834
 30
0.0
 40
1.9998779296875
  0
HATCH
  5
E2
100
AcDbEntity
  8
0
370
              -2
390
0
  6
Continuous
 62
               0
100
AcDbHatch
 10
0.0
 20
0.0
 30
0.0
210
0.0
220
0.0
230
1.0
  2
SOLID
 70
               1
 71
               1
 91
        1
 92
        1
 93
        1
 72
               2
 10
650.20723105864874
 20
-324.22505404283834
 40
1.9998779296875
 50
0.0
 51
360.0
 73
               0
 97
        1
330
E1
 75
               0
 76
               1
 98
        1
 10
0.0
 20
0.0
  0
MTEXT
  5
E3
100
AcDbEntity
  8
0
390
0
 62
               0
100
AcDbMText
 10
666.83223105864886
 20
-290.34743685533829
 30
0.0
 40
24.432617187500004
 41
0.0
 71
               1
 72
               1
  1
65
  7
ＭＳ ゴシック
 73
               1
 44
0.7828267384257843
  0
POINT
  5
E4
100
AcDbEntity
  8
Defpoints
370
               0
390
0
 62
               0
100
AcDbPoint
 10
650.20723105864874
 20
-424.22505404283834
 30
0.0
  0
POINT
  5
E5
100
AcDbEntity
  8
Defpoints
370
               0
390
0
 62
               0
100
AcDbPoint
 10
715.20723105864886
 20
-425.73985135438988
 30
0.0
  0
POINT
  5
E6
100
AcDbEntity
  8
Defpoints
370
               0
390
0
 62
               0
100
AcDbPoint
 10
715.20723105864886
 20
-324.22505404283834
 30
0.0
  0
ENDBLK
  5
E7
100
AcDbEntity
  8
notes
390
0
100
AcDbBlockEnd
  0
BLOCK
  5
E8
100
AcDbEntity
  8
notes
390
0
100
AcDbBlockBegin
  2
*D15
 70
               1
 10
0.0
 20
0.0
 30
0.0
  3
*D15
  1

  0
LINE
  5
E9
100
AcDbEntity
  8
0
370
              -2
390
0
  6
Continuous
 62
               0
100
AcDbLine
 10
495.2264630191948
 20
-630.22258212513589
 30
0.0
 11
495.2264630191948
 21
-705.222582125136
 31
0.0
  0
LINE
  5
EA
100
AcDbEntity
  8
0
370
              -2
390
0
  6
Continuous
 62
               0
100
AcDbLine
 10
715.2007968523144
 20
-580.97836221754915
 30
0.0
 11
715.2007968523144
 21
-705.222582125136
 31
0.0
  0
LINE
  5
EB
100
AcDbEntity
  8
0
370
              -2
390
0
  6
Continuous
 62
               0
100
AcDbLine
 10
495.2264630191948
 20
-705.222582125136
 30
0.0
 11
715.2007968523144
 21
-705.222582125136
 31
0.0
  0
CIRCLE
  5
EC
102
{ACAD_REACTORS
330
ED
102
}
100
AcDbEntity
  8
0
370
              -2
390
0
  6
Continuous
 62
               0
100
AcDbCircle
 10
495.2264630191948
 20
-705.222582125136
 30
0.0
 40
1.9998779296875
  0
HATCH
  5
ED
100
AcDbEntity
  8
0
370
              -2
390
0
  6
Continuous
 62
               0
100
AcDbHatch
 10
0.0
 20
0.0
 30
0.0
210
0.0
220
0.0
230
1.0
  2
SOLID
 70
               1
 71
               1
 91
        1
 92
        1
 93
        1
 72
               2
 10
495.2264630191948
 20
-705.222582125136
 40
1.9998779296875
 50
0.0
 51
360.0
 73
               0
 97
        1
330
EC
 75
               0
 76
               1
 98
        1
 10
0.0
 20
0.0
  0
CIRCLE
  5
EE
102
{ACAD_REACTORS
330
EF
102
}
100
AcDbEntity
  8
0
370
              -2
390
0
  6
Continuous
 62
               0
100
AcDbCircle
 10
715.2007968523144
 20
-705.222582125136
 30
0.0
 40
1.9998779296875
  0
HATCH
  5
EF
100
AcDbEntity
  8
0
370
              -2
390
0
  6
Continuous
 62
               0
100
AcDbHatch
 10
0.0
 20
0.0
 30
0.0
210
0.0
220
0.0
230
1.0
  2
SOLID
 70
               1
 71
               1
 91
        1
 92
        1
 93
        1
 72
               2
 10
715.2007968523144
 20
-705.222582125136
 40
1.9998779296875
 50
0.0
 51
360.0
 73
               0
 97
        1
330
EE
 75
               0
 76
               1
 98
        1
 10
0.0
 20
0.0
  0
MTEXT
  5
F0
100
AcDbEntity
  8
0
390
0
 62
               0
100
AcDbMText
 10
581.40112825357903
 20
-671.34496493763606
 30
0.0
 40
24.432617187500004
 41
0.0
 71
               1
 72
               1
  1
220
  7
ＭＳ ゴシック
 73
               1
 44
0.7828267384257843
  0
POINT
  5
F1
100
AcDbEntity
  8
Defpoints
370
               0
390
0
 62
               0
100
AcDbPoint
 10
715.2007968523144
 20
-555.97836221754915
 30
0.0
  0
POINT
  5
F2
100
AcDbEntity
  8
Defpoints
370
               0
390
0
 62
               0
100
AcDbPoint
 10
495.2264630191948
 20
-605.22258212513589
 30
0.0
  0
POINT
  5
F3
100
AcDbEntity
  8
Defpoints
370
               0
390
0
 62
               0
100
AcDbPoint
 10
495.2264630191948
 20
-705.222582125136
 30
0.0
  0
ENDBLK
  5
F4
100
AcDbEntity
  8
notes
390
0
100
AcDbBlockEnd
  0
BLOCK
  5
F5
100
AcDbEntity
  8
notes
390
0
100
AcDbBlockBegin
  2
*D16
 70
               1
 10
0.0
 20
0.0
 30
0.0
  3
*D16
  1

  0
LINE
  5
F6
100
AcDbEntity
  8
0
370
              -2
390
0
  6
Continuous
 62
               0
100
AcDbLine
 10
483.65958079770002
 20
-555.61124095114997
 30
0.0
 11
493.1123696588653
 21
-555.61124095114997
 31
0.0
  0
LINE
  5
F7
100
AcDbEntity
  8
0
370
              -2
390
0
  6
Continuous
 62
               0
100
AcDbLine
 10
483.65958079770002
 20
-424.22505404283834
 30
0.0
 11
493.1123696588653
 21
-424.22505404283834
 31
0.0
  0
LINE
  5
F8
100
AcDbEntity
  8
0
370
              -2
390
0
  6
Continuous
 62
               0
100
AcDbLine
 10
493.1123696588653
 20
-424.22505404283834
 30
0.0
 11
493.1123696588653
 21
-255.0
 31
0.0
  0
LINE
  5
F9
100
AcDbEntity
  8
0
370
              -2
390
0
  6
Continuous
 62
               0
100
AcDbLine
 10
493.1123696588653
 20
-555.61124095114997
 30
0.0
 11
493.1123696588653
 21
-424.22505404283834
 31
0.0
  0
CIRCLE
  5
FA
102
{ACAD_REACTORS
330
FB
102
}
100
AcDbEntity
  8
0
370
              -2
390
0
  6
Continuous
 62
               0
100
AcDbCircle
 10
493.1123696588653
 20
-555.61124095114997
 30
0.0
 40
1.9998779296875
  0
HATCH
  5
FB
100
AcDbEntity
  8
0
370
              -2
390
0
  6
Continuous
 62
               0
100
AcDbHatch
 10
0.0
 20
0.0
 30
0.0
210
0.0
220
0.0
230
1.0
  2
SOLID
 70
               1
 71
               1
 91
        1
 92
        1
 93
        1
 72
               2
 10
493.1123696588653
 20
-555.61124095114997
 40
1.9998779296875
 50
0.0
 51
360.0
 73
               0
 97
        1
330
FA
 75
               0
 76
               1
 98
        1
 10
0.0
 20
0.0
  0
CIRCLE
  5
FC
102
{ACAD_REACTORS
330
FD
102
}
100
AcDbEntity
  8
0
370
              -2
390
0
  6
Continuous
 62
               0
100
AcDbCircle
 10
493.1123696588653
 20
-424.22505404283834
 30
0.0
 40
1.9998779296875
  0
HATCH
  5
FD
100
AcDbEntity
  8
0
370
              -2
390
0
  6
Continuous
 62
               0
100
AcDbHatch
 10
0.0
 20
0.0
 30
0.0
210
0.0
220
0.0
230
1.0
  2
SOLID
 70
               1
 71
               1
 91
        1
 92
        1
 93
        1
 72
               2
 10
493.1123696588653
 20
-424.22505404283834
 40
1.9998779296875
 50
0.0
 51
360.0
 73
               0
 97
        1
330
FC
 75
               0
 76
               1
 98
        1
 10
0.0
 20
0.0
  0
MTEXT
  5
FE
100
AcDbEntity
  8
0
390
0
 62
               0
100
AcDbMText
 10
459.23475247136531
 20
-413.75
 30
0.0
 40
24.432617187500004
 41
0.0
 71
               1
 72
               1
  1
130(深さ) 
  7
ＭＳ ゴシック
 11
0.0
 21
1.0
 31
0.0
 73
               1
 44
0.7828267384257843
  0
POINT
  5
FF
100
AcDbEntity
  8
Defpoints
370
               0
390
0
 62
               0
100
AcDbPoint
 10
458.65958079770002
 20
-424.22505404283834
 30
0.0
  0
POINT
  5
100
100
AcDbEntity
  8
Defpoints
370
               0
390
0
 62
               0
100
AcDbPoint
 10
458.65958079770002
 20
-555.61124095114997
 30
0.0
  0
POINT
  5
101
100
AcDbEntity
  8
Defpoints
370
               0
390
0
 62
               0
100
AcDbPoint
 10
493.1123696588653
 20
-555.61124095114997
 30
0.0
  0
ENDBLK
  5
102
100
AcDbEntity
  8
notes
390
0
100
AcDbBlockEnd
  0
ENDSEC
  0
SECTION
  2
ENTITIES
  0
MTEXT
  5
103
100
AcDbEntity
  8
template
390
0
 62
               7
100
AcDbMText
 10
-967.50180589100501
 20
-1121.9160362041566
 30
0.0
 40
16.288411458333332
 41
0.0
 71
               1
 72
               1
  1
品名
  7
ＭＳ ゴシック
 73
               1
 44
0.7828267384257843
  0
MTEXT
  5
104
100
AcDbEntity
  8
template
390
0
 62
               7
100
AcDbMText
 10
-967.50180589100501
 20
-1206.9160362041566
 30
0.0
 40
16.288411458333332
 41
0.0
 71
               1
 72
               1
  1
仕様
  7
ＭＳ ゴシック
 73
               1
 44
0.7828267384257843
  0
MTEXT
  5
105
100
AcDbEntity
  8
template
390
0
 62
               7
100
AcDbMText
 10
-914.50180589100501
 20
-1150.498497141657
 30
0.0
 40
24.432617187500004
 41
0.0
 71
               1
 72
               1
  1
洗面器 -CATALANO,Polis-
  7
ＭＳ ゴシック
 73
               1
 44
0.7828267384257843
  0
LINE
  5
106
100
AcDbEntity
  8
template
370
               5
390
0
  6
Continuous
 62
               7
100
AcDbLine
 10
975.49819410851285
 20
-1198.5011143291567
 30
0.0
 11
-974.50180589148704
 21
-1198.5011143291567
 31
0.0
  0
LWPOLYLINE
  5
107
100
AcDbEntity
  8
template
370
               5
390
0
  6
Continuous
 62
               7
100
AcDbPolyline
 90
        5
 70
             128
 10
975.49819410899488
 20
1431.4988856708433
 10
-974.50180589100501
 20
1431.4988856708433
 10
-974.50180589100501
 20
-1368.5011143291567
 10
975.49819410899488
 20
-1368.5011143291567
 10
975.49819410899488
 20
1431.4988856708433
  0
LINE
  5
108
100
AcDbEntity
  8
template
370
               5
390
0
  6
Continuous
 62
               7
100
AcDbLine
 10
975.49819410851285
 20
-1113.5011143291567
 30
0.0
 11
-974.50180589148704
 21
-1113.5011143291567
 31
0.0
  0
LINE
  5
109
100
AcDbEntity
  8
template
370
               5
390
0
  6
Continuous
 62
               7
100
AcDbLine
 10
975.49819410899488
 20
-1283.5011143291567
 30
0.0
 11
222.49819410899488
 21
-1283.5011143291567
 31
0.0
  0
MTEXT
  5
10A
100
AcDbEntity
  8
template
390
0
 62
               7
100
AcDbMText
 10
-974.50180589080128
 20
-1380.3549363860138
 30
0.0
 40
21.717881944444446
 41
0.0
 71
               1
 72
               1
  1
110928SH
  7
ＭＳ ゴシック
 73
               1
 44
0.7828267384257843
  0
MTEXT
  5
10B
100
AcDbEntity
  8
template
390
0
 62
               7
100
AcDbMText
 10
252.36960036125436
 20
-1313.4115088024646
 30
0.0
 40
24.432617187500004
 41
0.0
 71
               1
 72
               1
  1
大洋金物株式会社 ティーフォルム事業部
  7
ＭＳ ゴシック
 73
               1
 44
0.7828267384257843
  0
INSERT
  5
10C
100
AcDbEntity
  8
template
390
0
 62
               7
100
AcDbBlockReference
  2
グループ
 10
570.25924102523186
 20
366.5571036174955
 30
0.0
  0
MTEXT
  5
10D
100
AcDbEntity
  8
template
390
0
 62
               7
100
AcDbMText
 10
784.49819410925329
 20
-1235.498497141657
 30
0.0
 40
24.432617187500004
 41
0.0
 71
               1
 72
               1
  1
1:10
  7
ＭＳ ゴシック
 73
               1
 44
0.7828267384257843
  0
MTEXT
  5
10E
100
AcDbEntity
  8
template
390
0
 62
               7
100
AcDbMText
 10
731.49819410925329
 20
-1206.9160362041566
 30
0.0
 40
16.288411458333332
 41
0.0
 71
               1
 72
               1
  1
縮尺
  7
ＭＳ ゴシック
 73
               1
 44
0.7828267384257843
  0
LINE
  5
10F
100
AcDbEntity
  8
template
370
               5
390
0
  6
Continuous
 62
               7
100
AcDbLine
 10
724.49819410925329
 20
-1283.5011143291567
 30
0.0
 11
724.49819410925329
 21
-1198.5011143291567
 31
0.0
  0
MTEXT
  5
110
100
AcDbEntity
  8
template
390
0
 62
               7
100
AcDbMText
 10
480.49819410925323
 20
-1206.9160362041566
 30
0.0
 40
16.288411458333332
 41
0.0
 71
               1
 72
               1
  1
容量
  7
ＭＳ ゴシック
 73
               1
 44
0.7828267384257843
  0
MTEXT
  5
111
100
AcDbEntity
  8
template
390
0
 62
               7
100
AcDbMText
 10
533.49819410925318
 20
-1235.498497141657
 30
0.0
 40
24.432617187500004
 41
0.0
 71
               1
 72
               1
  1
4.8L
  7
ＭＳ ゴシック
 73
               1
 44
0.7828267384257843
  0
LINE
  5
112
100
AcDbEntity
  8
template
370
               5
390
0
  6
Continuous
 62
               7
100
AcDbLine
 10
473.49819410925323
 20
-1283.5011143291567
 30
0.0
 11
473.49819410925323
 21
-1198.5011143291567
 31
0.0
  0
MTEXT
  5
113
100
AcDbEntity
  8
template
390
0
 62
               7
100
AcDbMText
 10
229.49819410925318
 20
-1121.9160362041566
 30
0.0
 40
16.288411458333332
 41
0.0
 71
               1
 72
               1
  1
品番
  7
ＭＳ ゴシック
 73
               1
 44
0.7828267384257843
  0
MTEXT
  5
114
100
AcDbEntity
  8
template
390
0
 62
               7
100
AcDbMText
 10
229.49819410925318
 20
-1206.9160362041566
 30
0.0
 40
16.288411458333332
 41
0.0
 71
               1
 72
               1
  1
重量
  7
ＭＳ ゴシック
 73
               1
 44
0.7828267384257843
  0
MTEXT
  5
115
100
AcDbEntity
  8
template
390
0
 62
               7
100
AcDbMText
 10
282.49819410925318
 20
-1150.498497141657
 30
0.0
 40
24.432617187500004
 41
0.0
 71
               1
 72
               1
  1
ADF70-2005
  7
ＭＳ ゴシック
 73
               1
 44
0.7828267384257843
  0
MTEXT
  5
116
100
AcDbEntity
  8
template
390
0
 62
               7
100
AcDbMText
 10
282.49819410925318
 20
-1235.498497141657
 30
0.0
 40
24.432617187500004
 41
0.0
 71
               1
 72
               1
  1
13kg
  7
ＭＳ ゴシック
 73
               1
 44
0.7828267384257843
  0
LINE
  5
117
100
AcDbEntity
  8
template
370
               5
390
0
  6
Continuous
 62
               7
100
AcDbLine
 10
222.49819410925318
 20
-1368.5011143291567
 30
0.0
 11
222.49819410925318
 21
-1113.5011143291567
 31
0.0
  0
MTEXT
  5
118
100
AcDbEntity
  8
template
390
0
 62
               7
100
AcDbMText
 10
-914.50180589100501
 20
-1235.498497141657
 30
0.0
 40
24.432617187500004
 41
0.0
 71
               1
 72
               1
  1
壁掛け/オーバーフロー付き/壁取付ボルト付属/\P陶器/ホワイト
  7
ＭＳ ゴシック
 73
               1
 44
1.3047112307096407
  0
DIMENSION
  5
119
100
AcDbEntity
  8
notes
370
               5
390
0
  6
Continuous
 62
               7
100
AcDbDimension
  2
*D4
 10
-640.82358289111426
 20
950.86659355323241
 30
0.0
 11
-390.83387579728173
 21
950.86659355323241
 31
0.0
 71
               5
 72
               1
 41
1.0
 42
0.0
  3
tform線あり
100
AcDbAlignedDimension
 13
-140.84416870344921
 23
847.6351933375289
 33
0.0
 14
-640.82358289111426
 24
847.66659355323236
 34
0.0
100
AcDbRotatedDimension
1001
ACAD
1000
DSTYLE
1002
{
1070
             279
1070
               2
1070
             340
1005
31
1070
             147
1040
10.0
1002
}
  0
DIMENSION
  5
11A
100
AcDbEntity
  8
notes
370
               5
390
0
  6
Continuous
 62
               7
100
AcDbDimension
  2
*D5
 10
-40.829997827532793
 20
850.84490194144701
 30
0.0
 11
-40.829997827532793
 21
650.84016790254623
 31
0.0
 71
               5
 72
               1
 41
1.0
 42
0.0
  3
tform線あり
100
AcDbAlignedDimension
 13
-180.23844649317311
 23
450.83543386364551
 33
0.0
 14
-143.82999782753279
 24
850.84490194144701
 34
0.0
 50
90.0
100
AcDbRotatedDimension
1001
ACAD
1000
DSTYLE
1002
{
1070
             279
1070
               2
1070
             340
1005
31
1070
             147
1040
10.0
1002
}
  0
DIMENSION
  5
11B
100
AcDbEntity
  8
notes
370
               5
390
0
  6
Continuous
 62
               7
100
AcDbDimension
  2
*D6
 10
-740.80395092630306
 20
850.84374594984297
 30
0.0
 11
-740.80395092630306
 21
785.83037201812795
 31
0.0
 71
               5
 72
               1
 41
1.0
 42
0.0
  3
tform線あり
100
AcDbAlignedDimension
 13
-637.80395092630306
 23
720.81699808641292
 33
0.0
 14
-637.80395092630306
 24
850.84374594984297
 34
0.0
 50
90.0
100
AcDbRotatedDimension
1001
ACAD
1000
DSTYLE
1002
{
1070
             279
1070
               2
1070
             340
1005
31
1070
             147
1040
10.0
1002
}
  0
DIMENSION
  5
11C
100
AcDbEntity
  8
notes
370
               5
390
0
  6
Continuous
 62
               7
100
AcDbDimension
  2
*D7
 10
-740.80395092630351
 20
720.81699808641292
 30
0.0
 11
-740.80395092630351
 21
610.82817691638797
 31
0.0
 71
               5
 72
               1
 41
1.0
 42
0.0
  3
tform線あり
100
AcDbAlignedDimension
 13
-640.82358289111426
 23
500.83935574636308
 33
0.0
 14
-669.55395092630351
 24
720.81699808641292
 34
0.0
 50
90.0
100
AcDbRotatedDimension
1001
ACAD
1000
DSTYLE
1002
{
1070
             279
1070
               2
1070
             340
1005
31
1070
             147
1040
10.0
1002
}
  0
DIMENSION
  5
11D
100
AcDbEntity
  8
notes
370
               5
390
0
  6
Continuous
 62
               7
100
AcDbDimension
  2
*D8
 10
-595.8371219013743
 20
350.79043509399912
 30
0.0
 11
-390.83494496581511
 21
350.79043509399912
 31
0.0
 71
               5
 72
               1
 41
1.0
 42
0.0
  3
tform線あり
100
AcDbAlignedDimension
 13
-185.83276803025581
 23
453.29043509399912
 33
0.0
 14
-595.8371219013743
 24
453.29043509399912
 34
0.0
100
AcDbRotatedDimension
1001
ACAD
1000
DSTYLE
1002
{
1070
             279
1070
               2
1070
             340
1005
31
1070
             147
1040
10.0
1002
}
  0
DIMENSION
  5
11E
100
AcDbEntity
  8
notes
370
               5
390
0
  6
Continuous
 62
               7
100
AcDbDimension
  2
*D9
 10
-401.07455055089122
 20
771.66054652093499
 30
0.0
 11
-264.38763034113481
 21
872.9435691298321
 31
0.0
 70
               3
 71
               5
 72
               1
 41
1.0
 42
0.0
  3
tform線あり
100
AcDbDiametricDimension
 15
-380.57537385478213
 25
800.02925736196062
 35
0.0
 40
89.958296877732423
1001
ACAD
1000
DSTYLE
1002
{
1070
             172
1070
               0
1070
             289
1070
               0
1070
             342
1005
42
1070
             340
1005
31
1070
              73
1070
               1
1070
              74
1070
               1
1070
              75
1070
               1
1070
              76
1070
               1
1070
               3
1000

1070
             174
1070
               0
1070
             147
1040
5.0
1002
}
  0
DIMENSION
  5
11F
100
AcDbEntity
  8
notes
370
               5
390
0
  6
Continuous
 62
               7
100
AcDbDimension
  2
*D10
 10
216.12482600397715
 20
-424.22505404283834
 30
0.0
 11
216.12482600397715
 21
-446.72505404283834
 31
0.0
 71
               5
 72
               1
 41
1.0
 42
0.0
  3
tform線あり
100
AcDbAlignedDimension
 13
321.98763716039451
 23
-469.22505404283834
 33
0.0
 14
321.70404496964733
 24
-424.22505404283834
 34
0.0
 50
90.0
100
AcDbRotatedDimension
1001
ACAD
1000
DSTYLE
1002
{
1070
             279
1070
               2
1070
             340
1005
31
1070
             147
1040
5.0
1002
}
  0
DIMENSION
  5
120
100
AcDbEntity
  8
notes
370
               5
390
0
  6
Continuous
 62
               7
100
AcDbDimension
  2
*D11
 10
-490.55724355303028
 20
-324.22505404283845
 30
0.0
 11
-390.55724355303028
 21
-324.22505404283845
 31
0.0
 71
               5
 72
               1
 41
1.0
 42
0.0
  3
tform線あり
100
AcDbAlignedDimension
 13
-290.55724355303028
 23
-444.21546092695064
 33
0.0
 14
-490.55724355303028
 24
-444.21546092695064
 34
0.0
100
AcDbRotatedDimension
1001
ACAD
1000
DSTYLE
1002
{
1070
             279
1070
               2
1070
             340
1005
31
1070
             147
1040
5.0
1002
}
  0
DIMENSION
  5
121
100
AcDbEntity
  8
notes
370
               5
390
0
  6
Continuous
 62
               7
100
AcDbDimension
  2
*D12
 10
-741.50523194563289
 20
-464.20030218179568
 30
0.0
 11
-741.50523194563289
 21
-444.21267811231712
 31
0.0
 71
               5
 72
               1
 41
1.0
 42
0.0
  3
tform線あり
100
AcDbAlignedDimension
 13
-635.09158012050557
 23
-424.22505404283845
 33
0.0
 14
-510.81672034038274
 24
-464.20030218179568
 34
0.0
 50
90.0
100
AcDbRotatedDimension
1001
ACAD
1000
DSTYLE
1002
{
1070
             279
1070
               2
1070
             340
1005
31
1070
             147
1040
5.0
1002
}
  0
DIMENSION
  5
122
100
AcDbEntity
  8
notes
370
               5
390
0
  6
Continuous
 62
               7
100
AcDbDimension
  2
*D13
 10
-39.940884629546417
 20
-424.22505404283845
 30
0.0
 11
-39.940884629546417
 21
-514.22505404283845
 31
0.0
 71
               5
 72
               1
 41
1.0
 42
0.0
  3
tform線あり
100
AcDbAlignedDimension
 13
-364.09158012050557
 23
-604.22505404283856
 33
0.0
 14
-151.09158012050602
 24
-424.22505404283845
 34
0.0
 50
90.0
100
AcDbRotatedDimension
1001
ACAD
1000
DSTYLE
1002
{
1070
             279
1070
               2
1070
             340
1005
31
1070
             147
1040
5.0
1002
}
  0
DIMENSION
  5
123
100
AcDbEntity
  8
notes
370
               5
390
0
  6
Continuous
 62
               7
100
AcDbDimension
  2
*D14
 10
715.20723105864886
 20
-324.22505404283834
 30
0.0
 11
682.70723105864886
 21
-324.22505404283834
 31
0.0
 71
               5
 72
               1
 41
1.0
 42
0.0
  3
tform線あり
100
AcDbAlignedDimension
 13
650.20723105864874
 23
-424.22505404283834
 33
0.0
 14
715.20723105864886
 24
-425.73985135438988
 34
0.0
100
AcDbRotatedDimension
1001
ACAD
1000
DSTYLE
1002
{
1070
             279
1070
               2
1070
             340
1005
31
1070
             147
1040
5.0
1002
}
  0
DIMENSION
  5
124
100
AcDbEntity
  8
notes
370
               5
390
0
  6
Continuous
 62
               7
100
AcDbDimension
  2
*D15
 10
495.2264630191948
 20
-705.222582125136
 30
0.0
 11
605.21362993575462
 21
-705.222582125136
 31
0.0
 71
               5
 72
               1
 41
1.0
 42
0.0
  3
tform線あり
100
AcDbAlignedDimension
 13
715.2007968523144
 23
-555.97836221754915
 33
0.0
 14
495.2264630191948
 24
-605.22258212513589
 34
0.0
100
AcDbRotatedDimension
1001
ACAD
1000
DSTYLE
1002
{
1070
             279
1070
               2
1070
             340
1005
31
1070
             147
1040
5.0
1002
}
  0
DIMENSION
  5
125
100
AcDbEntity
  8
notes
370
               5
390
0
  6
Continuous
 62
               7
100
AcDbDimension
  2
*D16
 10
493.1123696588653
 20
-555.61124095114997
 30
0.0
 11
498.1123696588653
 21
-413.75
 31
0.0
 70
             128
 71
               5
 72
               1
 41
1.0
 42
0.0
  1
130(深さ) 
  3
tform線あり
100
AcDbAlignedDimension
 13
458.65958079770002
 23
-424.22505404283834
 33
0.0
 14
458.65958079770002
 24
-555.61124095114997
 34
0.0
 50
90.0
100
AcDbRotatedDimension
1001
ACAD
1000
DSTYLE
1002
{
1070
             279
1070
               2
1070
             340
1005
31
1070
             174
1070
               0
1070
             147
1040
5.0
1002
}
  0
LINE
  5
126
100
AcDbEntity
  8
ADF70-2005
370
              15
390
0
  6
Continuous
 62
              18
100
AcDbLine
 10
-600.82325023037333
 20
450.83120000999111
 30
0.0
 11
-180.82840339597487
 21
450.83120000999111
 31
0.0
  0
LWPOLYLINE
  5
127
100
AcDbEntity
  8
ADF70-2005
370
              15
390
0
  6
Continuous
 62
              18
100
AcDbPolyline
 90
       54
 70
             128
 10
-640.82358289111426
 20
490.83326189140695
 42
0.0035993508761184
 10
-640.81933877905226
 20
490.24370321482752
 10
-640.81302293049112
 20
489.8050519375148
 42
0.014457611520611
 10
-640.74953351080171
 20
488.34005745335162
 10
-640.71745637553636
 20
487.89669446420987
 42
0.0144235066541335
 10
-640.48492241318991
 20
485.60378391972722
 10
-640.48351297605541
 20
485.59299600451078
 42
0.0143650900653975
 10
-640.12286179171997
 20
483.33873430866527
 10
-640.12112479219923
 20
483.32957263536605
 42
0.0142911327329356
 10
-639.63594046652815
 20
481.11786849828252
 10
-639.63402242682241
 20
481.11018171100125
 42
0.0142062315379129
 10
-639.02791365908411
 20
478.94494616771459
 10
-639.02593585220984
 20
478.93858293979025
 42
0.0141152018317018
 10
-638.30253539517844
 20
476.82372432809098
 10
-638.30059616394374
 20
476.81853787940202
 42
0.0140226404519988
 10
-637.46355804410041
 20
474.75795770773823
 10
-637.46173586383998
 20
474.75380951534891
 42
0.013932796246907
 10
-636.514732007161
 20
472.75139926178599
 10
-636.51308918403879
 20
472.74816212270514
 42
0.0138494990864107
 10
-635.45980541034305
 20
470.80780059692518
 10
-635.45839163523738
 20
470.80535987231258
 42
0.0137760177929115
 10
-634.30252439613014
 20
468.9309128383926
 10
-634.3013826005872
 20
468.92917053771322
 42
0.0137152761927621
 10
-633.04663150072793
 20
467.12448563681107
 10
-633.0457938032032
 20
467.12334864120425
 42
0.0136689772545271
 10
-631.69587238943382
 20
465.39227370962408
 42
0.0136355527909144
 10
-630.25396853470556
 20
463.73801214983098
 42
0.0136262037542215
 10
-628.72465873043939
 20
462.16545486448132
 42
0.0136361351714361
 10
-627.11170668943601
 20
460.67838253157811
 42
0.0136633641052749
 10
-625.41883964773001
 20
459.28054356166297
 42
0.0136969349951904
 10
-623.65121903392605
 20
457.97668594687491
 10
-623.64978169150277
 20
457.97568531869149
 42
0.0137528031814384
 10
-621.81036128283949
 20
456.76886144768713
 10
-621.80826624354722
 20
456.76756789921541
 42
0.0138222631224371
 10
-619.90087248696136
 20
455.66149994900093
 10
-619.89802539346579
 20
455.65995249676507
 42
0.0139027658246594
 10
-617.92649964856787
 20
454.65835863430732
 10
-617.92279147243789
 20
454.65660270710202
 42
0.0139912103313218
 10
-615.89098947421007
 20
453.76319277957424
 10
-615.88629741247132
 20
453.76128442502085
 42
0.0140839701120352
 10
-613.7980882067227
 20
452.97975588026185
 10
-613.79227726127715
 20
452.97776578741093
 42
0.0141769507777496
 10
-611.65154121496039
 20
452.31179969994179
 10
-611.64446669466156
 20
452.30981699539916
 42
0.0142656713119612
 10
-609.45509259986352
 20
451.76307441729
 10
-609.44660351730909
 20
451.76121001754279
 42
0.0143453723489547
 10
-607.21248481304315
 20
451.33732886023182
 10
-607.20242813857999
 20
451.33571816175373
 42
0.0144111164012253
 10
-604.92745838721225
 20
451.03831065854445
 10
-604.63458500515412
 20
451.0085783014523
 42
0.0144498986380389
 10
-602.88603403946081
 20
450.88198111692111
 10
-602.59750180317178
 20
450.86945751156998
 42
0.007233827864202
 10
-601.42186402980724
 20
450.8354604722503
 42
0.0036105665347301
 10
-600.83189633374968
 20
450.83120000999111
 42
0.0036105665347301
  0
LINE
  5
128
100
AcDbEntity
  8
ADF70-2005
370
              15
390
0
  6
Continuous
 62
              18
100
AcDbLine
 10
-570.82818839684387
 20
500.84281418771383
 30
0.0
 11
-210.83038211220571
 21
500.84281418771383
 31
0.0
  0
LWPOLYLINE
  5
129
100
AcDbEntity
  8
ADF70-2005
370
              15
390
0
  6
Continuous
 62
              18
100
AcDbPolyline
 90
       62
 70
             128
 10
-595.83617780284544
 20
525.83178216628744
 42
0.0030554930901059
 10
-595.83426577262821
 20
525.51890101911147
 10
-595.83141750028426
 20
525.2858666690654
 42
0.0122691300697367
 10
-595.80279746829137
 20
524.50763089782401
 10
-595.78835128543892
 20
524.27224705976528
 42
0.0122495412658644
 10
-595.68324517146084
 20
523.05015355246519
 10
-595.68266859840014
 20
523.04494705673392
 42
0.0122139204523024
 10
-595.51932823060361
 20
521.83983257853856
 10
-595.51859740000987
 20
521.83527918137759
 42
0.0121674535389969
 10
-595.29839447754148
 20
520.64862155644028
 10
-595.29756187385033
 20
520.64467288182243
 42
0.0121124264312883
 10
-595.02187487828428
 20
519.47795147406919
 10
-595.02098577752827
 20
519.4745582255166
 42
0.0120513519475875
 10
-594.69120021090521
 20
518.32925265019139
 10
-594.69029305738536
 20
518.32636576716618
 42
0.011986697471706
 10
-594.30780095845148
 20
517.20395478820296
 10
-594.3069079283282
 20
517.20152648521128
 42
0.0119208292243095
 10
-593.87310721961262
 20
516.10348706235379
 10
-593.87225493227902
 20
516.10147170960249
 42
0.0118559668258257
 10
-593.3885486414224
 20
515.02927821444359
 10
-593.38775898353674
 20
515.02763305169981
 42
0.0117941482142134
 10
-592.85555437012817
 20
513.98275665262486
 10
-592.85484538396327
 20
513.98144230447667
 42
0.0117371984347622
 10
-592.2755530325303
 20
512.96535056055825
 10
-592.27493989084905
 20
512.96433145837091
 42
0.0116867227835409
 10
-591.64997268871866
 20
511.97848796326446
 10
-591.64946847478609
 20
511.97773225355763
 42
0.011644046789924
 10
-590.98024098849783
 20
511.02359695581322
 10
-590.97985838756017
 20
511.02307762809937
 42
0.0116103655087805
 10
-590.26778456257443
 20
510.1021052354406
 42
0.0115822541326783
 10
-589.51403163042232
 20
509.2154424729996
 42
0.0115716135839423
 10
-588.72040139762657
 20
508.36503094253464
 42
0.0115703972386343
 10
-587.88832012294256
 20
507.55229990906776
 42
0.0115807975678089
 10
-587.01922405251116
 20
506.77868853174311
 42
0.0116014848949956
 10
-586.11453548754139
 20
506.04562365851518
 42
0.011624270483925
 10
-585.17634679246112
 20
505.35500189047741
 10
-585.17567565861145
 20
505.35453150984529
 42
0.0116619948144616
 10
-584.20499145995655
 20
504.70742675422764
 10
-584.20406957507339
 20
504.70684276797482
 42
0.0117080872167124
 10
-583.20234404694656
 20
504.10467314312444
 10
-583.20114176348579
 20
504.10398821095413
 42
0.0117613077541539
 10
-582.16983314178901
 20
503.54817094967882
 10
-582.16831679805455
 20
503.54739918441874
 42
0.0118201746610246
 10
-581.10888725664495
 20
503.03934960915853
 10
-581.10701934629378
 20
503.03850756410236
 42
0.011882969688161
 10
-580.02093483358294
 20
502.57963814686036
 10
-580.01867427024513
 20
502.57874575537318
 42
0.0119477559080197
 10
-578.90740416176072
 20
502.17046517827009
 10
-578.90470672584956
 20
502.16954667119541
 42
0.0120124015537986
 10
-577.76972330110152
 20
501.81325892765233
 10
-577.76654226345408
 20
501.81234369213121
 42
0.0120746120020671
 10
-576.60932000480784
 20
501.50944726066678
 10
-576.60560692521312
 20
501.50857060606302
 42
0.0121319704785099
 10
-575.42762164467285
 20
501.26045773278844
 10
-575.42332733514331
 20
501.25966152674204
 42
0.0121819868001867
 10
-574.22605514362044
 20
501.06771765181219
 10
-574.22113078503889
 20
501.06705079005422
 42
0.0122347863673311
 10
-573.00604429927216
 20
500.93268492770363
 10
-572.84461053003974
 20
500.91882169367892
 42
0.0183684634668504
 10
-571.30058939331957
 20
500.84320819813865
 10
-571.141494510749
 20
500.84126715822498
 42
0.0030496131403569
 10
-570.82818839684387
 20
500.83935574636308
 42
0.0030496131403569
  0
LINE
  5
12A
100
AcDbEntity
  8
ADF70-2005
370
              15
390
0
  6
Continuous
 62
              18
100
AcDbLine
 10
-140.83498761793567
 20
490.83326189140695
 30
0.0
 11
-140.83498761793567
 21
847.84643329049936
 31
0.0
  0
LWPOLYLINE
  5
12B
100
AcDbEntity
  8
ADF70-2005
370
              15
390
0
  6
Continuous
 62
              18
100
AcDbPolyline
 90
       63
 70
             128
 10
-140.83498761793567
 20
847.84989173184977
 10
-140.83518914602541
 20
847.88668208001559
 42
0.0179853299534546
 10
-140.84265835954898
 20
848.06680107772127
 10
-140.84411373034663
 20
848.08556401560031
 42
0.0118888460414388
 10
-140.85852976837873
 20
848.22754554950507
 10
-140.85859621426232
 20
848.22807449734478
 42
0.0118406292566963
 10
-140.87957366078183
 20
848.36815846501406
 10
-140.87965420602666
 20
848.36862123312858
 42
0.0117918077690009
 10
-140.90704375030771
 20
848.50663678826811
 10
-140.90713334989186
 20
848.50703842935195
 42
0.0117377565314771
 10
-140.9407869061472
 20
848.64281452465138
 10
-140.94088121938489
 20
848.64316008586991
 42
0.0116806554206027
 10
-140.98065002344924
 20
848.77652573720331
 10
-140.98074535974706
 20
848.77682015376809
 42
0.0116225956290534
 10
-141.02648003157094
 20
848.9076045389827
 10
-141.02657328087673
 20
848.90785254222374
 42
0.0115655427484605
 10
-141.07812390074741
 20
849.03588508481846
 10
-141.07821245325692
 20
849.03609112906588
 42
0.0115113028988334
 10
-141.1354286458851
 20
849.16120156142733
 10
-141.13551029959342
 20
849.16136975895029
 42
0.0114615105001513
 10
-141.19824133305747
 20
849.28338818211535
 10
-141.19831421478466
 20
849.2835222933187
 42
0.0114175695957996
 10
-141.26640906634634
 20
849.40227916220306
 10
-141.26647146687765
 20
849.40238244924296
 42
0.0113807810882239
 10
-141.33977904793949
 20
849.51770877469164
 10
-141.33982963463245
 20
849.51778449359108
 42
0.0113518775638872
 10
-141.41819832959243
 20
849.62951107705544
 42
0.0113273046757038
 10
-141.50151482788169
 20
849.73752099329317
 42
0.0113185855198493
 10
-141.58957595087759
 20
849.841572829087
 42
0.0113202249423582
 10
-141.68222784482577
 20
849.94149941708201
 42
0.0113314685171068
 10
-141.77931799393127
 20
850.03713503314293
 42
0.0113524775369531
 10
-141.88069430176779
 20
850.12831438206672
 42
0.0113764771941452
 10
-141.98614413812379
 20
850.21482448829624
 10
-141.98620416287872
 20
850.21487148871461
 42
0.0114130583336256
 10
-142.095607958507
 20
850.29657840076197
 10
-142.09569503305227
 20
850.2966403866717
 42
0.0114574343535389
 10
-142.20889696600602
 20
850.373379333407
 10
-142.20901437430553
 20
850.37345505664814
 42
0.0115085277953635
 10
-142.32585820185136
 20
850.445061344745
 10
-142.32600965213396
 20
850.44514943009608
 42
0.0115650369541491
 10
-142.44633870424911
 20
850.51145853959883
 10
-142.44652832656993
 20
850.51155738713112
 42
0.0116254456130351
 10
-142.57018551720762
 20
850.57240507100528
 10
-142.57041784324679
 20
850.57251275638373
 42
0.0116880366182709
 10
-142.69724569893333
 20
850.6277351401834
 10
-142.6975256239881
 20
850.62784931623014
 42
0.0117509112558325
 10
-142.82736633063678
 20
850.67728299514863
 10
-142.82769905720443
 20
850.67740079769214
 42
0.0118120154528486
 10
-142.96039452550917
 20
850.72088292775095
 10
-142.96078548840001
 20
850.72100088918273
 42
0.0118691733448647
 10
-143.09617743755325
 20
850.75836926895249
 10
-143.09663221117557
 20
850.75848324321112
 42
0.0119201286275387
 10
-143.23456226988787
 20
850.78957638224938
 10
-143.23508645918582
 20
850.78968148508193
 42
0.0119625933730712
 10
-143.37539628210152
 20
850.81433865523036
 10
-143.37599539955681
 20
850.81442922348856
 42
0.0119943030713491
 10
-143.51852679615149
 20
850.83249048948448
 10
-143.51920612772346
 20
850.8325600628109
 42
0.0120127588132155
 10
-143.66380119375651
 20
850.84386638126955
 10
-143.66456531952997
 20
850.84390769175241
 42
0.0120101511844207
 10
-143.8110659002275
 20
850.84830266256984
 10
-143.81146472949422
 20
850.8483050442228
 10
-143.82999782753279
 20
850.84836038279764
  0
LINE
  5
12C
100
AcDbEntity
  8
ADF70-2005
370
              15
390
0
  6
Continuous
 62
              18
100
AcDbLine
 10
-185.83276803025581
 20
520.83178216628744
 30
0.0
 11
-185.83276803025581
 21
700.81683175604257
 31
0.0
  0
LWPOLYLINE
  5
12D
100
AcDbEntity
  8
ADF70-2005
370
              15
390
0
  6
Continuous
 62
              18
100
AcDbPolyline
 90
       66
 70
             128
 10
-185.83276803025581
 20
700.81683175604257
 42
0.0028213566211722
 10
-185.83408040823758
 20
701.04940914901181
 10
-185.83862742485462
 20
701.45230359428456
 42
0.022785147562907
 10
-185.8975665899427
 20
702.48797520207847
 10
-185.93890927817461
 20
702.89025981089276
 42
0.0113645195693138
 10
-186.05195620998552
 20
703.78891548381762
 10
-186.05243705339626
 20
703.79214362775815
 42
0.0113110826102101
 10
-186.20500034365546
 20
704.67832147918898
 10
-186.20555458982267
 20
704.6811558382708
 42
0.0112648122230681
 10
-186.3967244364585
 20
705.55390568650341
 10
-186.39732406146641
 20
705.55637557794512
 42
0.0112132627481372
 10
-186.62621252849647
 20
706.41474429328593
 10
-186.6268333722328
 20
706.41687906865309
 42
0.0111582910051732
 10
-186.89254879725854
 20
707.25991381622657
 10
-186.89317029896711
 20
707.26174230200706
 42
0.0111016940286156
 10
-187.19481760361782
 20
708.08849106181447
 10
-187.19542246014771
 20
708.09004107184046
 42
0.0110451780939265
 10
-187.53210352845372
 20
708.89955308171079
 10
-187.53267729246795
 20
708.90085101063619
 42
0.0109903329561176
 10
-187.90349139938962
 20
709.69217712486727
 10
-187.90402203232168
 20
709.69324762287897
 42
0.0109386123906313
 10
-188.30806631025462
 20
710.46544059018356
 10
-188.30854371357611
 20
710.4663063365258
 42
0.0108913158444965
 10
-188.74491362529943
 20
711.21842097314618
 10
-188.74532912771997
 20
711.21910247989604
 42
0.0108495877474837
 10
-189.21311900509841
 20
711.95019584063721
 10
-189.21346498252842
 20
711.95071155750873
 42
0.0108143727830143
 10
-189.71176830679997
 20
712.65984269843204
 10
-189.71203721300628
 20
712.66020830516436
 42
0.0107865369557657
 10
-190.23994797074488
 20
713.34643931319033
 42
0.010762761956867
 10
-190.79674337558333
 20
714.00906217551005
 42
0.0107535564028777
 10
-191.38124554674573
 20
714.64679264301697
 42
0.0107519770805218
 10
-191.99254100261624
 20
715.25870754329912
 42
0.0107597803493959
 10
-192.62970990490794
 20
715.84387729584205
 42
0.010775944875272
 10
-193.29184121662524
 20
716.40138041249907
 42
0.0107945944982791
 10
-193.97764090339126
 20
716.93001312142326
 10
-193.97802456728732
 20
716.93029586992611
 42
0.0108249574248162
 10
-194.68681118209861
 20
717.42933952316446
 10
-194.68734718520204
 20
717.42969981465762
 42
0.0108624652946407
 10
-195.41819147852698
 20
717.89823766746645
 10
-195.41889661442758
 20
717.89866840320872
 42
0.0109062781897606
 10
-196.17086707511294
 20
718.33578396298049
 10
-196.17176039281787
 20
718.33627749641687
 42
0.0109553849534212
 10
-196.94392328358856
 20
718.74105505948341
 10
-196.94502603851618
 20
718.74160268177616
 42
0.0110086038425711
 10
-197.73644542930674
 20
719.11312781811102
 10
-197.73778100177253
 20
719.11371926831634
 42
0.0110645916326332
 10
-198.54751889141835
 20
719.45107931586358
 10
-198.54911261788629
 20
719.45170229155019
 42
0.0111218556953905
 10
-199.37622913896701
 20
719.75398684109518
 10
-199.37810805853087
 20
719.75462652572207
 42
0.011178770596387
 10
-200.22166176852988
 20
720.02092788336154
 10
-200.22385428307007
 20
720.0215665046386
 42
0.0112335996852832
 10
-201.08290254171436
 20
720.25098011651198
 10
-201.08543799144365
 20
720.25159655173729
 42
0.0112845220818518
 10
-201.95903742130338
 20
720.44322137455083
 10
-201.96194558060529
 20
720.44379081976149
 42
0.0113296653025922
 10
-202.8491526046721
 20
720.59672961976094
 10
-202.85246310772072
 20
720.59722333977311
 42
0.01136714734576
 10
-203.75233455618934
 20
720.71058289522989
 10
-203.75607629624005
 20
720.71096807358299
 42
0.0113949542508544
 10
-204.66767011346064
 20
720.78385956171473
 10
-204.67186943311503
 20
720.78409919010278
 42
0.0114064475854609
 10
-205.59424309413203
 20
720.81564734571987
 10
-205.59642786809241
 20
720.81567220513489
 42
0.0028443825710197
 10
-205.82947591927541
 20
720.81699808641292
 42
0.0028443825710197
  0
LINE
  5
12E
100
AcDbEntity
  8
ADF70-2005
370
              15
390
0
  6
Continuous
 62
              18
100
AcDbLine
 10
-143.82999782753279
 20
850.84490194144701
 30
0.0
 11
-637.81992657814044
 21
850.84490194144701
 31
0.0
  0
LINE
  5
12F
100
AcDbEntity
  8
ADF70-2005
370
              15
390
0
  6
Continuous
 62
              18
100
AcDbLine
 10
-640.82358289111426
 20
847.84989173184977
 30
0.0
 11
-640.82358289111426
 21
490.83326189140695
 31
0.0
  0
LWPOLYLINE
  5
130
100
AcDbEntity
  8
ADF70-2005
370
              15
390
0
  6
Continuous
 62
              18
100
AcDbPolyline
 90
       61
 70
             128
 10
-637.83721878489314
 20
850.84490194144701
 10
-637.88344282732896
 20
850.8446459312039
 42
0.0211380488193886
 10
-638.08247736515409
 20
850.83512318974374
 10
-638.11048748261237
 20
850.8325932475974
 42
0.0120003139651519
 10
-638.25270787723366
 20
850.81629835509648
 10
-638.25326868888988
 20
850.81622042403569
 42
0.0119471095130392
 10
-638.39342900313227
 20
850.79331802392562
 10
-638.3939183459072
 20
850.79322601116746
 42
0.0118966149429079
 10
-638.53185422474212
 20
850.76387573260945
 10
-638.53227760082859
 20
850.76377506111999
 42
0.0118388964503923
 10
-638.66782426661666
 20
850.72813382513073
 10
-638.66818722271091
 20
850.72802914080637
 42
0.0117762887266562
 10
-638.80117991816269
 20
850.68625462247394
 10
-638.80148792502587
 20
850.68614984337592
 42
0.0117110638871114
 10
-638.93176202603809
 20
850.63840041284607
 10
-638.93202037349624
 20
850.63829879625712
 42
0.0116453859143284
 10
-639.05941148530815
 20
850.5847334439793
 10
-639.05962519397622
 20
850.58463766765556
 42
0.0115812741507526
 10
-639.18396923017485
 20
850.52541591718273
 10
-639.18414298371067
 20
850.52532816975645
 42
0.0115205706150114
 10
-639.30527622338741
 20
850.46060998446956
 10
-639.3054143105719
 20
850.46053206683223
 42
0.0114649298181558
 10
-639.42317345010315
 20
850.3904777427349
 10
-639.42327976161937
 20
850.39041115204247
 42
0.0114157606584833
 10
-639.53750189411949
 20
850.31518124886429
 10
-639.53757978985755
 20
850.31512735530532
 42
0.0113743618638083
 10
-639.64810258863599
 20
850.23488245635042
 42
0.011335921506303
 10
-639.75481636249333
 20
850.14974348206761
 42
0.0113154233207417
 10
-639.85748484264423
 20
850.05992552002056
 42
0.0113036684532848
 10
-639.95594907739155
 20
849.96559031269965
 42
0.0113027945107047
 10
-640.05004874052338
 20
849.86690096331836
 42
0.011312072981746
 10
-640.13962484186777
 20
849.76401913933944
 42
0.0113315132418401
 10
-640.22451878627271
 20
849.65710605835761
 42
0.0113528720716948
 10
-640.30451787360903
 20
849.54640113484436
 10
-640.30457133882828
 20
849.54632349424219
 42
0.0113887303057863
 10
-640.37955765489801
 20
849.43193839714809
 10
-640.37962326773481
 20
849.43183315880606
 42
0.0114326966468511
 10
-640.44943887887121
 20
849.31393279552412
 10
-640.44951528705792
 20
849.31379676121526
 42
0.0114836528281646
 10
-640.51400236417953
 20
849.19254646947161
 10
-640.51408806048676
 20
849.19237601053339
 42
0.0115402568079172
 10
-640.57308897681173
 20
849.06794155832949
 10
-640.57318219987769
 20
849.0677326248674
 42
0.0116009526476227
 10
-640.62653963141929
 20
848.94028019220787
 10
-640.62663826570997
 20
848.94002834038179
 42
0.0116639842096821
 10
-640.67419529066683
 20
848.80972448363525
 10
-640.67429676895767
 20
848.80942492071063
 42
0.0117274147880199
 10
-640.71589696328078
 20
848.67643651869469
 10
-640.71599817464721
 20
848.67608416646101
 42
0.0117891534932757
 10
-640.75148570045189
 20
848.54057834820151
 10
-640.75158290726677
 20
848.54016792449625
 42
0.0118469891868086
 10
-640.78080259051239
 20
848.40231197901403
 10
-640.78089135812434
 20
848.40183809659879
 42
0.0118986321961201
 10
-640.80368875173008
 20
848.26179936613323
 10
-640.80376389465755
 20
848.26125664704819
 42
0.0119413311177786
 10
-640.81998544650605
 20
848.11920241688335
 10
-640.82080272736016
 20
848.11012766416832
 42
0.0119714011865742
 10
-640.82917848461716
 20
847.98316923379582
 10
-640.82954831149323
 20
847.97435542035407
 42
0.0089887363568585
 10
-640.83217413356374
 20
847.86477683955468
 10
-640.83222899449038
 20
847.84643329049936
  0
LINE
  5
131
100
AcDbEntity
  8
ADF70-2005
370
              15
390
0
  6
Continuous
 62
              18
100
AcDbLine
 10
-595.84482390622179
 20
695.80209179771009
 30
0.0
 11
-595.83617780284544
 21
520.83869904898847
 31
0.0
  0
LINE
  5
132
100
AcDbEntity
  8
ADF70-2005
370
              15
390
0
  6
Continuous
 62
              18
100
AcDbLine
 10
-570.82818839684387
 20
720.81699808641292
 30
0.0
 11
-205.82947591927541
 21
720.81699808641292
 31
0.0
  0
LWPOLYLINE
  5
133
100
AcDbEntity
  8
ADF70-2005
370
              15
390
0
  6
Continuous
 62
              18
100
AcDbPolyline
 90
       62
 70
             128
 10
-570.82818839684387
 20
720.81699808641292
 42
0.0030603600420932
 10
-571.14126850153093
 20
720.81508179278046
 10
-571.37445750532197
 20
720.81222708985854
 42
0.0122861157912606
 10
-572.15319904302964
 20
720.78354679044105
 10
-572.38872363628707
 20
720.76907130647669
 42
0.0122637817121622
 10
-573.61168887970825
 20
720.66374745579731
 10
-573.61687002387498
 20
720.66317293309635
 42
0.0122253297106054
 10
-574.82288686446827
 20
720.4995049431966
 10
-574.82741437655636
 20
720.49877738487703
 42
0.0121759681292226
 10
-576.01500025253154
 20
720.27814789300533
 10
-576.01892347626654
 20
720.27731973772893
 42
0.0121180410920338
 10
-577.18659432962613
 20
720.00111832959783
 10
-577.18996347509778
 20
720.00023465680192
 42
0.0120541130544086
 10
-578.33623506366985
 20
719.66985808058234
 10
-578.33910002898142
 20
719.66895700357827
 42
0.0119866992488287
 10
-579.4624890485793
 20
719.2858086680676
 10
-579.46489836328146
 20
719.2849219165696
 42
0.0119182093393861
 10
-580.56392341549258
 20
718.8504112184205
 10
-580.56592334677362
 20
718.84956487024533
 42
0.0118509017274887
 10
-581.6391057336723
 20
718.36510639465223
 10
-581.6407395635581
 20
718.36432172041214
 42
0.0117868485019816
 10
-582.68660390957348
 20
717.83133434743604
 10
-582.68791141422389
 20
717.83062871919765
 42
0.0117279045515454
 10
-583.70498607587615
 20
717.25053469687577
 10
-583.7060031012702
 20
717.24992258243492
 42
0.0116757009945117
 10
-584.69282052424182
 20
716.62414648603908
 10
-584.69357907757717
 20
716.62364024725275
 42
0.0116315863287608
 10
-585.64867547526205
 20
715.95360833747736
 10
-585.64920260000258
 20
715.95321993818402
 42
0.011596773741406
 10
-586.57111954648576
 20
715.24035784765942
 42
0.0115677093576305
 10
-587.45871937629022
 20
714.48583418480439
 42
0.0115565161475598
 10
-588.3100490101574
 20
713.6914675307471
 42
0.0115551334600608
 10
-589.12367549031524
 20
712.85869508193719
 42
0.0115657150312444
 10
-589.89815595195887
 20
711.98896397602766
 42
0.0115869620823553
 10
-590.63205984635783
 20
711.08370744795263
 42
0.0116112344318711
 10
-591.32351676567032
 20
710.14498567749115
 10
-591.32395724219009
 20
710.14435765407757
 42
0.0116503805596694
 10
-591.97186145762294
 20
709.17322162413018
 10
-591.97241374276814
 20
709.17235051206603
 42
0.0116982923327226
 10
-592.57534266385755
 20
708.17026513898134
 10
-592.575994847532
 20
708.1691214504865
 42
0.0117537291530495
 10
-593.13252671552095
 20
707.13755583482839
 10
-593.13326547907263
 20
707.13610593852945
 42
0.0118152035294947
 10
-593.64198040829592
 20
706.07653325374031
 10
-593.64279001885143
 20
706.07473953258182
 42
0.0118809852844581
 10
-594.1022709565932
 20
704.98863687232779
 10
-594.10313230583847
 20
704.98645797869949
 42
0.0119491182056698
 10
-594.51196599482296
 20
703.87530601789194
 10
-594.51285565675698
 20
703.87269731380889
 42
0.0120174428186604
 10
-594.86963356014348
 20
702.73797979075903
 10
-594.87052290449856
 20
702.7348939686575
 42
0.012083627499273
 10
-595.17384206107681
 20
701.57809698480787
 10
-595.17469645723077
 20
701.57448486828093
 42
0.0121452086349617
 10
-595.42316022993782
 20
700.39709601038817
 10
-595.42393837931013
 20
700.39290752567922
 42
0.0121996392921144
 10
-595.61615706061343
 20
699.19641482401266
 10
-595.61681049527306
 20
699.19160013180829
 42
0.012256420493667
 10
-595.7513723414088
 20
697.97748836175617
 10
-595.76524326717458
 20
697.81635046665485
 42
0.0184107348132381
 10
-595.84096568444465
 20
696.27387476160288
 10
-595.84290934497335
 20
696.11501929444876
 42
0.0030583303740574
 10
-595.84482390622179
 20
695.80209179771009
 42
0.0030583303740574
  0
LWPOLYLINE
  5
134
100
AcDbEntity
  8
ADF70-2005
370
              15
390
0
  6
Continuous
 62
              18
100
AcDbPolyline
 90
      191
 70
             128
 10
-403.41887638095204
 20
718.58284497394197
 42
0.0317223205947095
 10
-403.41809585693352
 20
718.57055491195729
 10
-403.41767640121532
 20
718.56726587519665
 42
0.0595442048436707
 10
-403.41309286205922
 20
718.54899509821985
 10
-403.41175593341165
 20
718.54549370102677
 42
0.0501725781813067
 10
-403.39994708923552
 20
718.52195586897369
 10
-403.39929823498824
 20
718.52093293677331
 42
0.0398506975080124
 10
-403.38198666518758
 20
718.49791914195839
 10
-403.38088284858702
 20
718.49667218708146
 42
0.0328369533154851
 10
-403.35803909307504
 20
718.47404829149002
 10
-403.34841997234582
 20
718.46569787014232
 42
0.0429986846672937
 10
-403.30193692112221
 20
718.4318798145157
 10
-403.28779875582393
 20
718.42334676735015
 42
0.0273587939851742
 10
-403.20779855883427
 20
718.38084813876799
 10
-403.19900269817288
 20
718.37677561644523
 42
0.0187882210302596
 10
-403.09748804242838
 20
718.33432854658611
 10
-403.08812978596052
 20
718.33082239266082
 42
0.0136007425320947
 10
-402.96515227157306
 20
718.28852471146138
 10
-402.9555608606621
 20
718.28551489311951
 42
0.0102740771106827
 10
-402.81138645951887
 20
718.24350619573761
 10
-402.80173982923418
 20
718.2409092084838
 42
0.0080332911442072
 10
-402.63674064385339
 20
718.19932051124852
 10
-402.62714110671232
 20
718.19706428914333
 42
0.0064610349376998
 10
-402.44174408851666
 20
718.15601010501268
 10
-402.43225395946752
 20
718.15403690126891
 42
0.00553405892209
 10
-402.22689974493721
 20
718.1137050771448
 10
-402.15459964188335
 20
718.10033456281485
 42
0.0082511556259924
 10
-401.80322509084363
 20
718.04133355129284
 10
-401.71755784714776
 20
718.0283983966483
 42
0.0061498098475774
 10
-401.19298185591799
 20
717.95577829206354
 10
-401.1583455353624
 20
717.95141684105874
 42
0.0048604882385962
 10
-400.56293190954489
 20
717.88231430227734
 10
-400.53008784449901
 20
717.8788257042886
 42
0.0039935266454384
 10
-399.86779514788452
 20
717.81382395954722
 10
-399.83681932748516
 20
717.81103338661637
 42
0.0033890108884245
 10
-399.11164656301582
 20
717.75065564068314
 10
-399.08258503785089
 20
717.74843421920286
 42
0.0029564396547449
 10
-398.29855317271074
 20
717.69316484986689
 10
-398.27143520093
 20
717.69141427792431
 42
0.0026416690497888
 10
-397.43257799085154
 20
717.64171168820417
 10
-397.40742278278526
 20
717.64035456236309
 42
0.0024566545355363
 10
-396.51777827017543
 20
717.59674084298149
 10
-396.24489044872689
 20
717.58470654482653
 42
0.0043574567682642
 10
-394.80881331600267
 20
717.53391087964997
 10
-394.51144914528084
 20
717.52598676905279
 42
0.003986548317053
 10
-392.47989855569085
 20
717.48805641495881
 10
-392.21225376220218
 20
717.48519373266322
 42
0.005336051698173
 10
-389.64509509911102
 20
717.48513361846403
 10
-389.13766073496072
 20
717.4905372158637
 42
0.0040262189830682
 10
-387.58558849447547
 20
717.51956567279183
 10
-387.52801073495721
 20
717.5211064323787
 42
0.0020712905736964
 10
-386.09151168174014
 20
717.5655023775962
 10
-386.05822596016083
 20
717.56666913342224
 42
0.0046787018884792
 10
-384.6890514456577
 20
717.62749460564999
 10
-384.42437909017599
 20
717.64173527495086
 42
0.0026726713383764
 10
-383.58538381808808
 20
717.69137635708125
 10
-383.55826819984509
 20
717.69312621164534
 42
0.0029545506856963
 10
-382.77409605402659
 20
717.7483861270689
 10
-382.74503533153802
 20
717.75060665931301
 42
0.0033862633454825
 10
-382.01971999769796
 20
717.81097157718614
 10
-381.98874352287271
 20
717.81376098142925
 42
0.0039892755035021
 10
-381.32630845071492
 20
717.87874472072735
 10
-381.22532464189646
 20
717.88946516651845
 42
0.0049431708976387
 10
-380.76590332173498
 20
717.94283547754446
 10
-380.74027128764749
 20
717.94607024231527
 42
0.0027847334999873
 10
-380.3329408325468
 20
717.9997817621055
 10
-380.31961908266692
 20
718.0016139395168
 42
0.0071919415436552
 10
-379.94006235432641
 20
718.05938951761277
 10
-379.86331444772452
 20
718.07220402208145
 42
0.0045532952082716
 10
-379.63844573460005
 20
718.11185820297305
 10
-379.62910317219882
 20
718.11359357251786
 42
0.0053158694960755
 10
-379.42371039978275
 20
718.15400858810153
 10
-379.41421847374716
 20
718.15598135450853
 42
0.0064551776884881
 10
-379.22876920788917
 20
718.19702889703001
 10
-379.21916790833677
 20
718.19928446625204
 42
0.0080241937195784
 10
-379.05411853159762
 20
718.24086413292935
 10
-379.0444704498716
 20
718.24346004462291
 42
0.0102590324229675
 10
-378.9002463396904
 20
718.28545634594298
 10
-378.89065444993366
 20
718.28846418752119
 42
0.0135743347303801
 10
-378.76762397340315
 20
718.33074504612432
 10
-378.74708826566211
 20
718.33843173121909
 42
0.0193471566549094
 10
-378.6675673094245
 20
718.3717581099354
 10
-378.66090174309056
 20
718.37485991209951
 42
0.0116500946304915
 10
-378.59674056924575
 20
718.4065560179024
 10
-378.5935690176475
 20
718.40821580370311
 42
0.0350073211333352
 10
-378.53885247733456
 20
718.44192316797466
 10
-378.52738076740616
 20
718.4501495819793
 42
0.0249441059112582
 10
-378.4990938481269
 20
718.47265184030334
 10
-378.49760539443503
 20
718.47396224573401
 42
0.0310580224844988
 10
-378.47483066843506
 20
718.49667179743437
 10
-378.47372627355833
 20
718.49791902444258
 42
0.0398537524448319
 10
-378.45640960198739
 20
718.52093262842914
 10
-378.45575958952929
 20
718.52195707072565
 42
0.0501838967771254
 10
-378.4439484023286
 20
718.54549271043538
 10
-378.44371497241445
 20
718.54610388715241
 42
0.059516032795209
 10
-378.43763302120931
 20
718.5703321499285
 10
-378.4376285871648
 20
718.57036686102458
 42
0.0636928842720334
 10
-378.43763258393335
 20
718.59525171106725
 42
0.0599804450469224
 10
-378.44372705678984
 20
718.61940231177539
 10
-378.44394995864968
 20
718.61998214146934
 42
0.0503754657199974
 10
-378.4557597414273
 20
718.64336578968539
 10
-378.45641446068737
 20
718.64439098260391
 42
0.0399533549533685
 10
-378.47372484651737
 20
718.66724671540737
 10
-378.47483682393931
 20
718.66849410064856
 42
0.0328680881831414
 10
-378.49767856879566
 20
718.69095602359744
 10
-378.5073159845283
 20
718.69926150012998
 42
0.0429482921341854
 10
-378.55379955819785
 20
718.7328310645853
 10
-378.56795916421675
 20
718.74131132933564
 42
0.0272798376421572
 10
-378.64795286157619
 20
718.78347358403835
 10
-378.65677703392885
 20
718.78752611114419
 42
0.0187153305552754
 10
-378.75829746817215
 20
718.82962443109375
 10
-378.76767822793283
 20
718.83310907100304
 42
0.0135386366635794
 10
-378.89067220458378
 20
718.87504441027204
 10
-378.90028164746161
 20
718.87803295141089
 42
0.0102218234701024
 10
-379.04448143589684
 20
718.91966614327225
 10
-379.0541427896128
 20
718.92224281361564
 42
0.0079890047568984
 10
-379.21917486392238
 20
718.96344401618614
 10
-379.22878665012979
 20
718.96568114218144
 42
0.0064229861713067
 10
-379.4142229419765
 20
719.00633733662778
 10
-379.42372342457054
 20
719.00829272551584
 42
0.0054997894123658
 10
-379.62912214733524
 20
719.0482181222028
 10
-379.70145069883915
 20
719.06145343664286
 42
0.0081954818256929
 10
-380.05290259763456
 20
719.11982907218521
 10
-380.13860004826654
 20
719.1326236967152
 42
0.0061039879963014
 10
-380.66328029058593
 20
719.20442203661196
 10
-380.69793803350103
 20
719.20873435358601
 42
0.0048207648390361
 10
-381.29346860220357
 20
719.27700984587341
 10
-381.32632905333082
 20
719.28045653908543
 42
0.0039578048725775
 10
-381.98874687845034
 20
719.34463993557529
 10
-382.01973500675024
 20
719.34739504953654
 42
0.0033559134446895
 10
-382.74503705535039
 20
719.40697699420298
 10
-382.77410740812877
 20
719.40916873298147
 42
0.0029250174016126
 10
-383.55826895775442
 20
719.46367858698068
 10
-383.58539266033085
 20
719.46540467397494
 42
0.0026112358875803
 10
-384.42437636877548
 20
719.51439769174419
 10
-384.44953445895374
 20
719.51573501917699
 42
0.0024260482513564
 10
-385.33929870428085
 20
719.55870384580601
 10
-385.61221341785608
 20
719.57055655123872
 42
0.0042994787707138
 10
-387.04844559357275
 20
719.62056321353975
 10
-387.34581639567864
 20
719.62835759588086
 42
0.0039172335376952
 10
-389.37751263503947
 20
719.66568519351904
 10
-389.71679180193064
 20
719.66926001635989
 42
0.0057313008195334
 10
-392.41062580252299
 20
719.66676460206941
 10
-392.98800247733413
 20
719.65961122104375
 42
0.003997332792911
 10
-394.52680372347982
 20
719.62824081051269
 10
-394.58591288260516
 20
719.62656295653528
 42
0.0020650879686654
 10
-396.00605426764844
 20
719.58038039722715
 10
-396.04010174162818
 20
719.57913239360698
 42
0.0047109649246341
 10
-397.3913705886763
 20
719.51684853990514
 10
-397.65381160617733
 20
719.50227279540616
 42
0.0027152676811128
 10
-398.47933815632905
 20
719.45192550368256
 10
-398.50695215385178
 20
719.45009081102967
 42
0.0030196734056392
 10
-399.2766402385181
 20
719.39428136476999
 10
-399.3061929885389
 20
719.39195902139875
 42
0.0034865728001425
 10
-400.01601480332886
 20
719.33119605518073
 10
-400.04747394862977
 20
719.32828194261356
 42
0.004142036442893
 10
-400.69341333297837
 20
719.2630463497494
 10
-400.7925978778029
 20
719.25219862682957
 42
0.0051883252602555
 10
-401.23907232910972
 20
719.19867434499611
 10
-401.26504085708939
 20
719.19528749722485
 42
0.0029383812568917
 10
-401.6587072667453
 20
719.14159037289733
 10
-401.67219002606942
 20
719.13967051474287
 42
0.0076945828013905
 10
-402.03768586543811
 20
719.08187459371379
 10
-402.11222681549748
 20
719.06890867497225
 42
0.0049320139872738
 10
-402.32736053531073
 20
719.02929744573805
 10
-402.3367872914497
 20
719.0274654405398
 42
0.0058101457134845
 10
-402.53220798160021
 20
718.98712516301975
 10
-402.54176742564209
 20
718.98503572783193
 42
0.0071372216783918
 10
-402.71701610578589
 20
718.94410169386151
 10
-402.72665895489331
 20
718.94170369851122
 42
0.0089950028006928
 10
-402.88129235727706
 20
718.90028186957306
 10
-402.89093954074258
 20
718.89751074527658
 42
0.0116940778444975
 10
-403.02455587942791
 20
718.85572361691493
 10
-403.03407341418631
 20
718.85250090284262
 42
0.0157956002518393
 10
-403.1463495905474
 20
718.81048591109652
 10
-403.16542321670113
 20
718.80265301746056
 42
0.023176178926488
 10
-403.23668469012489
 20
718.7694510760989
 10
-403.24304052905347
 20
718.7661231047141
 42
0.014162388122175
 10
-403.29915977711937
 20
718.73468230958701
 10
-403.30210021927542
 20
718.73292371079401
 42
0.043986130072413
 10
-403.34848607130459
 20
718.69932165047885
 10
-403.35807680865548
 20
718.69099721199586
 42
0.0320229667453577
 10
-403.38087666928891
 20
718.6684937125807
 10
-403.38198797400401
 20
718.66724669630707
 42
0.0399469970590916
 10
-403.39929351055662
 20
718.64439067383717
 10
-403.39994733133767
 20
718.6433665983036
 42
0.050384989612285
 10
-403.41175370028395
 20
718.61998115308484
 10
-403.41192412419969
 20
718.61953761296866
 42
0.0598824499286666
 10
-403.41809043592934
 20
718.59510532698573
 10
-403.41809577096626
 20
718.59506374314344
 42
0.0319105423488814
 10
-403.41887638095204
 20
718.58284497394197
 42
0.0319105423488814
  0
LINE
  5
135
100
AcDbEntity
  8
ADF70-2005
370
              15
390
0
  6
Continuous
 62
              18
100
AcDbLine
 10
-554.018434212378
 20
705.13469578223453
 30
0.0
 11
-227.64186551734656
 21
705.13469578223453
 31
0.0
  0
LINE
  5
136
100
AcDbEntity
  8
ADF70-2005
370
              15
390
0
  6
Continuous
 62
              18
100
AcDbLine
 10
-574.02378820477429
 20
579.50596889945336
 30
0.0
 11
-574.02246452166128
 21
685.37075179676071
 31
0.0
  0
LWPOLYLINE
  5
137
100
AcDbEntity
  8
ADF70-2005
370
              15
390
0
  6
Continuous
 62
              18
100
AcDbPolyline
 90
       66
 70
             128
 10
-574.02378820477429
 20
579.50596889945336
 42
0.0028202795223776
 10
-574.02247493140658
 20
579.27314394158157
 10
-574.01792545383887
 20
578.86987747473404
 42
0.0227928692013242
 10
-573.95891851296119
 20
577.83321826395991
 10
-573.91752451202728
 20
577.43053953442109
 42
0.011371628000397
 10
-573.80436083464974
 20
576.53125192633433
 10
-573.80387252239848
 20
576.52797487701559
 42
0.0113194178652729
 10
-573.65115363080213
 20
575.64127323186153
 10
-573.65059050567288
 20
575.63839481659761
 42
0.0112745666101156
 10
-573.45922963718158
 20
574.76522339321195
 10
-573.45862015652528
 20
574.76271429946325
 42
0.0112241548060976
 10
-573.2295078336756
 20
573.90402046625945
 10
-573.22887657915589
 20
573.90185127596487
 42
0.0111700355385174
 10
-572.96290706911441
 20
573.05858217494438
 10
-572.9622750003582
 20
573.05672392929114
 42
0.0111140073286092
 10
-572.66034601434012
 20
572.22982594979771
 10
-572.65973080152116
 20
572.22825064335291
 42
0.0110577824452952
 10
-572.3227431245964
 20
571.41866897198952
 10
-572.32215954283538
 20
571.41734996679861
 42
0.0110029603948219
 10
-571.9510166118157
 20
570.62602822087933
 10
-571.95047698253074
 20
570.62494057979632
 42
0.0109510077192534
 10
-571.54608442423842
 20
569.85282052124239
 10
-571.54559907972248
 20
569.8519412425361
 42
0.0109032389251022
 10
-571.10886424141358
 20
569.09996259664456
 10
-571.10844203489864
 20
569.09927081825265
 42
0.0108608153405146
 10
-570.64027344749343
 20
568.36837109488647
 10
-570.63992213156416
 20
568.36784799747102
 42
0.0108246992570445
 10
-570.14122923087052
 20
567.65896272033319
 10
-570.14095642642201
 20
567.65859224177427
 42
0.0107957771754751
 10
-569.61264819525468
 20
566.97265391382246
 42
0.0107706949814797
 10
-569.05544801185306
 20
566.31036238307343
 42
0.0107601353000823
 10
-568.47054067915019
 20
565.67300098784574
 42
0.0107570324426203
 10
-567.85884272489784
 20
565.06148709515242
 42
0.0107632184454169
 10
-567.22127706400056
 20
564.47674445211078
 42
0.0107776830533904
 10
-566.55875776626726
 20
563.9196887426358
 42
0.0107945052421332
 10
-565.87258534698049
 20
563.39152006564859
 10
-565.87219823034638
 20
563.39123518279723
 42
0.0108230397887418
 10
-565.1630542391681
 20
562.89266423555455
 10
-565.16251426732356
 20
562.89230180869936
 42
0.0108586997089478
 10
-564.43133066196174
 20
562.4242392723022
 10
-564.43062136923663
 20
562.42380664410052
 42
0.0109006690202445
 10
-563.67833233139436
 20
561.9871629869665
 10
-563.6774350320884
 20
561.98666800529918
 42
0.0109479614131396
 10
-562.90497693596649
 20
561.58235295185034
 10
-562.9038707687273
 20
561.58180447895211
 42
0.0109994209836489
 10
-562.11218215277972
 20
561.21072653019246
 10
-562.11084415649111
 20
561.21013492734869
 42
0.0110537312058917
 10
-561.30086560782706
 20
560.87320087154683
 10
-561.29927088366367
 20
560.8725784837452
 42
0.01110942677087
 10
-560.47194484030138
 20
560.57069291603239
 10
-560.47006679751917
 20
560.57005454055297
 42
0.0111649097988041
 10
-559.62633726548233
 20
560.30411940415138
 10
-559.62414795239624
 20
560.30348272911976
 42
0.0112184709032423
 10
-558.76496013769884
 20
560.07439689319517
 10
-558.76243065627204
 20
560.07378289045812
 42
0.0112683155188829
 10
-557.88873051458108
 20
559.88244178073978
 10
-557.88583151390958
 20
559.88187503655934
 42
0.0113125957255244
 10
-556.99856522397658
 20
559.7291703357439
 10
-556.99526746343849
 20
559.72867930253244
 42
0.0113494514260248
 10
-556.09538083168763
 20
559.61549874504146
 10
-556.09165577039153
 20
559.61511589539634
 42
0.0113768882342795
 10
-555.18009353527327
 20
559.54234287764393
 10
-555.17591512598437
 20
559.542104820845
 42
0.0113883269202307
 10
-554.25362254182323
 20
559.51060932155247
 10
-554.25144921897345
 20
559.51058463109439
 42
0.0028399365786454
 10
-554.018434212378
 20
559.50926101043353
 42
0.0028399365786454
  0
LWPOLYLINE
  5
138
100
AcDbEntity
  8
ADF70-2005
370
              15
390
0
  6
Continuous
 62
              18
100
AcDbPolyline
 90
       66
 70
             128
 10
-554.018434212378
 20
705.13469578223453
 42
0.0028189363307859
 10
-554.25143928872308
 20
705.1333821188457
 10
-554.6550008638601
 20
705.12883148049525
 42
0.0227844625510063
 10
-555.69243045778808
 20
705.06980377108584
 10
-556.09541380406222
 20
705.02839433157146
 42
0.0113677296047914
 10
-556.99530446353015
 20
704.91519752909608
 10
-556.99860017473088
 20
704.9147066198932
 42
0.0113156063271466
 10
-557.88586792081833
 20
704.76194704775799
 10
-557.88876455638888
 20
704.76138056803245
 42
0.0112708896825557
 10
-558.76246626473994
 20
704.56997414553484
 10
-558.76499317776893
 20
704.5693605626019
 42
0.0112205917576389
 10
-559.62418259677224
 20
704.34020035735512
 10
-559.62636924920821
 20
704.33956425545841
 42
0.0111665679087773
 10
-560.47010035113908
 20
704.07354708755327
 10
-560.47197574754659
 20
704.07290942077418
 42
0.0111106197558547
 10
-561.29930325635769
 20
703.77093556277782
 10
-561.30089544819816
 20
703.77031398716872
 42
0.0110544634177077
 10
-562.11087529122733
 20
703.43328679421688
 10
-562.11221096115105
 20
703.43269606202921
 42
0.0109997029031027
 10
-562.90390063728955
 20
703.06152154972369
 10
-562.90500476413035
 20
703.06097395089205
 42
0.0109478098188466
 10
-563.67746363158881
 20
702.65656033328287
 10
-563.67835925419467
 20
702.65606616037394
 42
0.010900104224155
 10
-564.43064871325237
 20
702.219323379858
 10
-564.43135672464769
 20
702.21889143878616
 42
0.0108577533362468
 10
-565.16254039804744
 20
701.75073062859974
 10
-565.16307964100133
 20
701.75036861791659
 42
0.0108217258960297
 10
-565.87222314579003
 20
701.25170182215277
 10
-565.87260969674685
 20
701.25141730306291
 42
0.0107929140779495
 10
-566.55878168116806
 20
700.72315611847034
 42
0.0107677203399442
 10
-567.22129945999973
 20
700.16601373928211
 42
0.0107573179361572
 10
-567.85886479712667
 20
699.58118924488895
 42
0.0107544324604836
 10
-568.47056149154582
 20
698.96960171322075
 42
0.0107608757061971
 10
-569.05546695081057
 20
698.33217659307968
 42
0.0107756484834967
 10
-569.61266666125516
 20
697.66983050647468
 42
0.0107931501886571
 10
-570.1409761565983
 20
696.98384666519007
 10
-570.14124657703292
 20
696.98347940446968
 42
0.0108221369324846
 10
-570.63994149852442
 20
696.27456031185397
 10
-570.64028982836589
 20
696.27404164334507
 42
0.0108583217352942
 10
-571.10846057512344
 20
695.54312176388385
 10
-571.10887955767953
 20
695.54243525949164
 42
0.0109008927832631
 10
-571.5456167298405
 20
694.79045129341466
 10
-571.54609861404629
 20
694.78957829173999
 42
0.0109488668946745
 10
-571.95049354545654
 20
694.01746914631644
 10
-571.95102957510517
 20
694.01638879434734
 42
0.0110010899605159
 10
-572.32217481475618
 20
693.22509555801594
 10
-572.32275474145945
 20
693.22378488473271
 42
0.0110562456594505
 10
-572.65974454526054
 20
692.41425071397362
 10
-572.66035614101088
 20
692.41268479010193
 42
0.0111128670489641
 10
-572.96228695533932
 20
691.58585471365063
 10
-572.96291554044296
 20
691.58400689574887
 42
0.0111693525390622
 10
-573.2288864645891
 20
690.74082753331254
 10
-573.22951446514367
 20
690.73866979347122
 42
0.0112239867650973
 10
-573.45862767767721
 20
689.8800889886686
 10
-573.45923422823284
 20
689.87759232858161
 42
0.0112749667783591
 10
-573.65059536102012
 20
689.00455869880329
 10
-573.65115596908799
 20
689.00169364357589
 42
0.0113204338203703
 10
-573.80387441180665
 20
688.11515605266595
 10
-573.8043607011607
 20
688.11189321530253
 42
0.0113585145172431
 10
-573.91754981161102
 20
687.21280017635968
 10
-573.91792936336219
 20
687.2091108496295
 42
0.0113872020111466
 10
-573.99070685638162
 20
686.29840982615428
 10
-573.9909430876487
 20
686.29426778224251
 42
0.0113999494685833
 10
-574.02244001207919
 20
685.37290677194301
 10
-574.02246452166128
 20
685.37075179676071
 42
0.0028431337225651
 10
-574.02378820477429
 20
685.13798789321481
 42
0.0028431337225651
  0
LINE
  5
139
100
AcDbEntity
  8
ADF70-2005
370
              15
390
0
  6
Continuous
 62
              18
100
AcDbLine
 10
-207.64515762832684
 20
579.50596889945336
 30
0.0
 11
-207.64515762832684
 21
685.13798789321481
 31
0.0
  0
LWPOLYLINE
  5
13A
100
AcDbEntity
  8
ADF70-2005
370
              15
390
0
  6
Continuous
 62
              18
100
AcDbPolyline
 90
       66
 70
             128
 10
-227.64186551734656
 20
559.50926101043353
 42
0.0028179094136189
 10
-227.40889851573252
 20
559.51057398067314
 10
-227.0054157721645
 20
559.51512207253268
 42
0.0227813433333143
 10
-225.96818054591233
 20
559.57412796012613
 10
-225.56526945904579
 20
559.61552322447551
 42
0.011367373114161
 10
-224.66559743665221
 20
559.72867672243137
 10
-224.66229123484106
 20
559.72916913340737
 42
0.0113158327687199
 10
-223.77526082316786
 20
559.88187181434432
 10
-223.77235449497437
 20
559.8824401380117
 42
0.0112717896194253
 10
-222.89890706073879
 20
560.0737768516243
 10
-222.89637135523435
 20
560.07439253329153
 42
0.0112221108664228
 10
-222.03745143521223
 20
560.30347123429601
 10
-222.03525697345106
 20
560.3041095902737
 42
0.0111686448838364
 10
-221.19180890029725
 20
560.57003449095362
 10
-221.1899267405912
 20
560.57067445922507
 42
0.0111131877180331
 10
-220.36289411565099
 20
560.87254632591032
 10
-220.3612962490588
 20
560.87317013742461
 42
0.0110574512338593
 10
-219.55162149057628
 20
561.21008665708882
 10
-219.55028125686545
 20
561.21067944474339
 42
0.011003036396286
 10
-218.7589052313042
 20
561.58173564405195
 10
-218.75779765458674
 20
561.58228500415578
 42
0.0109514128271723
 10
-217.98565938803813
 20
561.98657370871661
 10
-217.98476141397941
 20
561.98706923863551
 42
0.0109038994939786
 10
-217.23279790822653
 20
562.42368154068038
 10
-217.23208861107241
 20
562.42411433042855
 42
0.0108616633045717
 10
-216.50123466193736
 20
562.89214012422099
 10
-216.50069515035216
 20
562.89250237916372
 42
0.0108256731224626
 10
-215.79188357427233
 20
563.39103063901462
 10
-215.79149770874835
 20
563.39131471157384
 42
0.0107968223897514
 10
-215.10565830500047
 20
563.91943484899411
 42
0.0107715340965789
 10
-214.44347378027385
 20
564.47643345176073
 42
0.0107609641659846
 10
-213.80624007296478
 20
565.06111281310791
 42
0.0107578264029093
 10
-213.19487176537905
 20
565.67255477396566
 42
0.0107639521636558
 10
-212.61028982342168
 20
566.30983479513134
 42
0.0107783398157235
 10
-212.05340714204021
 20
566.97203717521154
 42
0.0107952945155551
 10
-211.52541079005834
 20
567.65787374202705
 10
-211.52513614698717
 20
567.65824688375687
 42
0.0108237519647316
 10
-211.02674483851251
 20
568.36702100685886
 10
-211.0263920852135
 20
568.36754648169517
 42
0.0108593478265756
 10
-210.55851367906246
 20
569.09832465355737
 10
-210.55809019037611
 20
569.09901884980343
 42
0.0109012743155898
 10
-210.1216323454679
 20
569.85086534569939
 10
-210.12114598809444
 20
569.85174686614073
 42
0.010948553001188
 10
-209.71701563318595
 20
570.62372377340876
 10
-209.71647527391895
 20
570.62481339324131
 42
0.0110000353878829
 10
-209.34557812891796
 20
571.41598063718959
 10
-209.34499411880574
 20
571.41730123056459
 42
0.0110544117434736
 10
-209.00823420583595
 20
572.22671668756709
 10
-209.0076188646774
 20
572.22829306811036
 42
0.0111102227728783
 10
-208.70589802766278
 20
573.05501276070038
 10
-208.70526611286687
 20
573.0568714384076
 42
0.0111658756471435
 10
-208.43948355827683
 20
573.89994981550603
 10
-208.43885270417695
 20
573.90211866843538
 42
0.0112196648741473
 10
-208.20990457790856
 20
574.76060897067759
 10
-208.20929568990448
 20
574.76311683298547
 42
0.011269798432942
 10
-208.01807470640313
 20
575.63607154049191
 10
-208.01751229345325
 20
575.63894771138723
 42
0.0113144294162019
 10
-207.86490743408274
 20
576.52541906800491
 10
-207.86441986275645
 20
576.52869275072851
 42
0.0113516970316449
 10
-207.75131616796443
 20
577.427733357443
 10
-207.75093581926762
 20
577.43143307149842
 42
0.011379606081139
 10
-207.67821399909371
 20
578.34209658070483
 10
-207.67797738823776
 20
578.34624836854346
 42
0.0113916055654938
 10
-207.6465048120067
 20
579.26758789852306
 10
-207.64648026779196
 20
579.26974761170868
 42
0.002840905378279
 10
-207.64515762832684
 20
579.50251045810262
 42
0.002840905378279
  0
LWPOLYLINE
  5
13B
100
AcDbEntity
  8
ADF70-2005
370
              15
390
0
  6
Continuous
 62
              18
100
AcDbPolyline
 90
       66
 70
             128
 10
-207.64515762832684
 20
685.13798789321481
 42
0.0028223711844578
 10
-207.64647047254982
 20
685.3705642765733
 10
-207.65101902737729
 20
685.77345012726414
 42
0.0227941900364281
 10
-207.70998003617899
 20
686.80910146708288
 10
-207.7513382361177
 20
687.21137795610014
 42
0.0113690421211364
 10
-207.86442431807427
 20
688.10998744317089
 10
-207.86490595337591
 20
688.11321961039459
 42
0.0113154639368766
 10
-208.01752033228991
 20
688.99933882247683
 10
-208.01807539936647
 20
689.00217623734966
 42
0.0112690234537711
 10
-208.20930690396699
 20
689.87485584038131
 10
-208.20990730089886
 20
689.87732791223789
 42
0.011217244836734
 10
-208.43886667303968
 20
690.73561560646272
 10
-208.4394881773253
 20
690.73775178802521
 42
0.0111619907023846
 10
-208.70528241635964
 20
691.58069556104942
 10
-208.70590442117475
 20
691.58252478622126
 42
0.011105064413783
 10
-209.00763709398291
 20
692.40917343581293
 10
-209.00824226665316
 20
692.41072362944874
 42
0.0110481789053618
 10
-209.34501388604235
 20
693.22012720905445
 10
-209.34558776604274
 20
693.22142487792189
 42
0.0109929307435048
 10
-209.71649621969141
 20
694.01263505770157
 10
-209.71702677103576
 20
694.01370496287791
 42
0.0109407805282265
 10
-210.12116778872621
 20
694.78577530982011
 10
-210.12164493043315
 20
694.78664023821375
 42
0.0108930344272714
 10
-210.55811255791411
 20
695.53862639111389
 10
-210.55852765019426
 20
695.53930695746612
 42
0.0108508434515209
 10
-211.02641478898533
 20
696.27026679956225
 10
-211.02676025205301
 20
696.27078154961976
 42
0.0108151585686224
 10
-211.52515894088071
 20
696.97977497291413
 10
-211.52542728451715
 20
696.98013967494933
 42
0.0107868522348686
 10
-212.05343005660916
 20
697.66622961002565
 42
0.0107626222423944
 10
-212.61031211748355
 20
698.32870813605268
 42
0.0107529629110192
 10
-213.19489475529531
 20
698.96629283626339
 42
0.0107509373537913
 10
-213.806263092667
 20
699.57806147298072
 42
0.0107583181555853
 10
-214.44349589189051
 20
700.16308540977661
 42
0.0107740892643703
 10
-215.10568072344904
 20
700.7204440908904
 42
0.0107923893480427
 10
-215.79152300957446
 20
701.24893539240452
 10
-215.79190582616025
 20
701.2492174249262
 42
0.0108224341632035
 10
-216.5007224584275
 20
701.74812327319671
 10
-216.50125703603078
 20
701.74848249405841
 42
0.0108596672315115
 10
-217.23211747540995
 20
702.21688706962254
 10
-217.23282050600551
 20
702.21731639027621
 42
0.0109032538348652
 10
-217.98479195120728
 20
702.65430411184855
 10
-217.98568238381165
 20
702.65479591003259
 42
0.0109521878240029
 10
-218.75782980500128
 20
703.05945197107621
 10
-218.75892879855951
 20
703.05999757642849
 42
0.0110052922218379
 10
-219.55031496876813
 20
703.43140842989851
 10
-219.55164581263057
 20
703.43199763395137
 42
0.0110612281866858
 10
-220.36133142736458
 20
703.76925148689975
 10
-220.36291937467649
 20
703.76987205324644
 42
0.0111185069514815
 10
-221.18996325461512
 20
704.07205935230286
 10
-221.19183527097266
 20
704.07269654315542
 42
0.0111755062346477
 10
-222.03529465090435
 20
704.33891043796734
 10
-222.037479076723
 20
704.33954657130471
 42
0.0112304916382903
 10
-222.89640998069763
 20
704.56888334068049
 10
-222.89893610887839
 20
704.56949739391996
 42
0.0112816434437183
 10
-223.77239380874676
 20
704.76105681821969
 10
-223.77529138244631
 20
704.76162409523101
 42
0.0113270890299691
 10
-224.66233093359699
 20
704.91450975767725
 10
-224.66562957349186
 20
704.91500163622959
 42
0.0113649447799636
 10
-225.56530642015491
 20
705.0283211282341
 10
-225.56903502494401
 20
705.02870490692135
 42
0.0113931949502419
 10
-226.48040570633611
 20
705.10157021561167
 10
-226.48459064494591
 20
705.10180899997101
 42
0.0114052251045757
 10
-227.40671121434423
 20
705.13334561192778
 10
-227.408888499348
 20
705.13337038464329
 42
0.002844211983221
 10
-227.64186551734656
 20
705.13469578223453
 42
0.002844211983221
  0
LINE
  5
13C
100
AcDbEntity
  8
ADF70-2005
370
              15
390
0
  6
Continuous
 62
              18
100
AcDbLine
 10
-554.018434212378
 20
559.50926101043353
 30
0.0
 11
-227.64186551734656
 21
559.50926101043353
 31
0.0
  0
LWPOLYLINE
  5
13D
100
AcDbEntity
  8
ADF70-2005
370
              15
390
0
  6
Continuous
 62
              18
100
AcDbPolyline
 90
       53
 70
             128
 10
-180.82840339597487
 20
450.83120000999111
 42
0.0035882274805917
 10
-180.23844649317311
 20
450.83543386364551
 10
-179.50860035101698
 20
450.84590995400595
 42
0.0216836932556631
 10
-177.46410677141409
 20
450.96403589335989
 10
-176.73267442775784
 20
451.03821749336339
 42
0.0144138347662164
 10
-174.45768202507793
 20
451.33541183092541
 10
-174.44761792975714
 20
451.33702280990406
 42
0.0143386589482492
 10
-172.21347459527203
 20
451.76067396068203
 10
-172.20497599759051
 20
451.76253942733541
 42
0.0142602070664687
 10
-170.0155699168148
 20
452.30899752726441
 10
-170.00848481530488
 20
452.31098215295094
 42
0.0141728025635212
 10
-167.86770902411331
 20
452.97662024687452
 10
-167.86188742917625
 20
452.9786129900757
 42
0.0140811682480889
 10
-165.77363041901776
 20
453.75978123406458
 10
-165.76892857267603
 20
453.76169266705892
 42
0.0139897524029432
 10
-163.73707053435828
 20
454.65472141512089
 10
-163.7333542374073
 20
454.65648041304917
 42
0.0139026144354165
 10
-161.76176425694098
 20
455.65768378409882
 10
-161.75891152817064
 20
455.65923366771642
 42
0.0138233651622232
 10
-159.85144535482232
 20
456.76491366183313
 10
-159.84934728687324
 20
456.76620859786539
 42
0.0137550350606167
 10
-158.00984732632548
 20
457.97265835085682
 10
-158.00841174577272
 20
457.97365741669307
 42
0.0137002952759953
 10
-156.24070243016308
 20
459.27716875947465
 42
0.0136538064275791
 10
-154.54774805555689
 20
460.67469247622176
 42
0.013636042601379
 10
-152.93470264024472
 20
462.16150173145883
 42
0.0136337391933704
 10
-151.40530315788965
 20
463.73385086969381
 42
0.0136505585995119
 10
-149.96331287664816
 20
465.38796852743047
 42
0.0136753109343245
 10
-148.61331621263128
 20
467.11896351321286
 10
-148.61246370982053
 20
467.12012051476455
 42
0.0137213427370961
 10
-147.35764930720188
 20
468.92480161994149
 10
-147.35648666179577
 20
468.92657568768857
 42
0.0137819156615005
 10
-146.20056088324623
 20
470.80111468609709
 10
-146.19912529659473
 20
470.80359312925452
 42
0.0138548745536752
 10
-145.14579030726497
 20
472.74415006230782
 10
-145.14412433513689
 20
472.74743308095873
 42
0.0139374352041914
 10
-144.1970764833228
 20
474.75015326861882
 10
-144.19523089889276
 20
474.7543553241311
 42
0.0140262804623227
 10
-143.35815641510317
 20
476.81537029162689
 10
-143.35619436749994
 20
476.82061881343373
 42
0.0141175954971842
 10
-142.63276536044532
 20
478.93604775625528
 10
-142.63076627289365
 20
478.94248115916679
 42
0.014207136488586
 10
-142.02463691899447
 20
481.10843333778632
 10
-142.02270006740741
 20
481.11619812363301
 42
0.0142903243104001
 10
-141.53750322304461
 20
483.32877614883051
 10
-141.53575077102755
 20
483.33802314748698
 42
0.0143623737240045
 10
-141.17509525723312
 20
485.5933271189466
 10
-141.17367451405062
 20
485.6042070587215
 42
0.0144181905735116
 10
-140.94114215182799
 20
487.89833957176535
 10
-140.94022725891705
 20
487.91099266950692
 42
0.0144448797113298
 10
-140.83933339736188
 20
490.24005357179863
 10
-140.83923744965034
 20
490.24671395925031
 42
0.0036009288685804
 10
-140.83498761793567
 20
490.83672033275769
 42
0.0036009288685804
  0
LWPOLYLINE
  5
13E
100
AcDbEntity
  8
ADF70-2005
370
              15
390
0
  6
Continuous
 62
              18
100
AcDbPolyline
 90
       62
 70
             128
 10
-210.83038211220571
 20
500.84281418771383
 42
0.003055350865718
 10
-210.51734668805159
 20
500.84472707167936
 10
-210.28420238111755
 20
500.84757655532252
 42
0.0122684841020182
 10
-209.50559268866073
 20
500.87620888780054
 10
-209.27008847592424
 20
500.89066171319985
 42
0.0122485822915728
 10
-208.04746778177287
 20
500.99580692328999
 10
-208.04224065694211
 20
500.99638574386631
 42
0.0122125855405345
 10
-206.83664188391083
 20
501.15977989616198
 10
-206.83206859614052
 20
501.16051386141879
 42
0.0121656940560844
 10
-205.64496808642753
 20
501.38077951085921
 10
-205.64100000795247
 20
501.38161612572821
 42
0.012110205911362
 10
-204.47387564541918
 20
501.65736900326868
 10
-204.47046322954031
 20
501.65826302326036
 42
0.0120486472473056
 10
-203.32479314376656
 20
501.98811179768842
 10
-203.32188708835486
 20
501.98902485108033
 42
0.0119834993852373
 10
-202.19914854514241
 20
502.37157161458174
 10
-202.19670083830601
 20
502.37247163656139
 42
0.0119171428045148
 10
-201.09836928060895
 20
502.80631256045842
 10
-201.09633408730519
 20
502.80717307853934
 42
0.011851811486122
 10
-200.0238823457355
 20
503.29089919559976
 10
-200.02221672677103
 20
503.29169850169023
 42
0.011789557658554
 10
-198.97711439982868
 20
503.82389658350365
 10
-198.97577883155247
 20
503.82461684111479
 42
0.0117322205165
 10
-197.95949187551525
 20
504.40387030980071
 10
-197.95845067550283
 20
504.40449657435136
 42
0.0116814191920255
 10
-196.97244104490176
 20
505.02938652956982
 10
-196.97166228342587
 20
505.02990596319876
 42
0.0116384931904504
 10
-196.0173882489006
 20
505.69901181153386
 10
-196.01684487897137
 20
505.69941198671449
 42
0.0116046497377515
 10
-195.09575942846823
 20
506.41131374494921
 42
0.0115761640950579
 10
-194.20898250113055
 20
507.16485834042317
 42
0.0115655390957272
 10
-193.35847797158999
 20
507.95822059692227
 42
0.011564491364868
 10
-192.54567334777948
 20
508.78996848884719
 42
0.0115751848634931
 10
-191.77200604706991
 20
509.65866004149802
 42
0.0115963108887606
 10
-191.03890115654849
 20
510.56286718455141
 42
0.0116201650777023
 10
-190.34822695646756
 20
511.50053010571173
 10
-190.34778313844117
 20
511.50116292000854
 42
0.0116586948328073
 10
-189.70063850923589
 20
512.47123690874355
 10
-189.70008092155058
 20
512.47211648757673
 42
0.0117057708969826
 10
-189.09788254124464
 20
513.47314173346285
 10
-189.09722353276663
 20
513.47429761291471
 42
0.0117601586028184
 10
-188.54138722705295
 20
514.50481019689892
 10
-188.54064057007577
 20
514.50627597852701
 42
0.0118203786894313
 10
-188.03258028125242
 20
515.56480798875873
 10
-188.03176216606585
 20
515.5666211776952
 42
0.0118847119623604
 10
-187.57288900484605
 20
516.65170086574767
 10
-187.57201898854964
 20
516.65390261276389
 42
0.0119512164577394
 10
-187.16374028458381
 20
517.76405473476188
 10
-187.16284221961337
 20
517.76668939496267
 42
0.0120177506743211
 10
-186.80656061072364
 20
518.9004357298187
 10
-186.80566351662151
 20
518.90355024276164
 42
0.0120820050482729
 10
-186.50277610886508
 20
520.05941029047358
 10
-186.50191495275544
 20
520.06305338299592
 42
0.0121415423091356
 10
-186.25381258776395
 20
521.23954523766724
 10
-186.25302893608227
 20
521.24376645902055
 42
0.0121938461161017
 10
-186.06109560151026
 20
522.43940784257643
 10
-186.06043810595907
 20
522.44425644274452
 42
0.0122486970263062
 10
-185.92608049275896
 20
523.65756843910708
 10
-185.91222642381069
 20
523.81865882212264
 42
0.018394524787932
 10
-185.83662009881857
 20
525.36022591609571
 10
-185.83467943664539
 20
525.51901613276038
 42
0.0030548681381575
 10
-185.83276803025581
 20
525.83178216628744
 42
0.0030548681381575
  0
CIRCLE
  5
13F
100
AcDbEntity
  8
ADF70-2005
370
              15
390
0
  6
Continuous
 62
               7
100
AcDbCircle
 10
-390.55724355303028
 20
630.92522322800733
 30
0.0
 40
37.999999999999773
  0
CIRCLE
  5
140
100
AcDbEntity
  8
ADF70-2005
370
              15
390
0
  6
Continuous
 62
               7
100
AcDbCircle
 10
-390.55724355303028
 20
630.92522322800733
 30
0.0
 40
22.499999999999773
  0
CIRCLE
  5
141
100
AcDbEntity
  8
ADF70-2005
370
              15
390
0
  6
Continuous
 62
               7
100
AcDbCircle
 10
-390.82496220283656
 20
785.8449019414478
 30
0.0
 40
17.5
  0
LINE
  5
142
100
AcDbEntity
  8
ADF70-2005
370
              15
390
0
  6
Continuous
 62
              18
100
AcDbLine
 10
667.06108037033437
 20
-439.22505404283834
 30
0.0
 11
667.06108037033437
 21
-424.22505404283834
 31
0.0
  0
LINE
  5
143
100
AcDbEntity
  8
ADF70-2005
370
              15
390
0
  6
Continuous
 62
              18
100
AcDbLine
 10
633.35338174696324
 20
-424.22505404283834
 30
0.0
 11
633.35338174696324
 21
-439.22505404283834
 31
0.0
  0
LINE
  5
144
100
AcDbEntity
  8
ADF70-2005
370
              15
390
0
  6
Continuous
 62
              18
100
AcDbLine
 10
604.27772473898324
 20
-424.22505404283834
 30
0.0
 11
633.35338174696324
 21
-424.22505404283834
 31
0.0
  0
LINE
  5
145
100
AcDbEntity
  8
ADF70-2005
370
              15
390
0
  6
Continuous
 62
              18
100
AcDbLine
 10
666.61785930375754
 20
-424.22505404283834
 30
0.0
 11
713.70723105864886
 21
-424.22505404283834
 31
0.0
  0
LWPOLYLINE
  5
146
100
AcDbEntity
  8
ADF70-2005
370
              15
390
0
  6
STYLE_12
 62
              18
100
AcDbPolyline
 90
       62
 70
             128
 10
582.20249359826846
 20
-444.44310217829479
 42
-0.002850378846306
 10
582.22295574035775
 20
-444.20113441238175
 10
582.2500917793825
 20
-443.90065754922648
 42
-0.0170291160892446
 10
582.35479665547302
 20
-443.06141980506982
 10
582.40252401285227
 20
-442.76220365954168
 42
-0.0112586321946083
 10
582.57419166750583
 20
-441.82250797965355
 10
582.57470040662724
 20
-441.8200389971845
 42
-0.0111694880882817
 10
582.78720433232911
 20
-440.89389497068703
 10
582.78773633182971
 20
-440.89179294841801
 42
-0.011076855371047
 10
583.04006578457268
 20
-439.98019139857558
 10
583.04059927743936
 20
-439.97841781355771
 42
-0.0109812796555651
 10
583.33174191407409
 20
-439.08234916201184
 10
583.33225984180365
 20
-439.08086669859051
 42
-0.0108849511724719
 10
583.66119887632613
 20
-438.20131980168435
 10
583.66168840083935
 20
-438.20009294896124
 42
-0.0107899250548228
 10
584.02740313045433
 20
-437.33805456467701
 10
584.02785508464297
 20
-437.33705010215431
 42
-0.0106980979115877
 10
584.42932146450414
 20
-436.49350446737867
 10
584.42972976359738
 20
-436.4926918395355
 42
-0.0106111915662756
 10
584.86592100889334
 20
-435.66862035710039
 10
584.86628204019837
 20
-435.66797194440358
 42
-0.0105307441401184
 10
585.3361692418348
 20
-434.86435296892626
 10
585.33648125786272
 20
-434.86384424581104
 42
-0.0104581033555617
 10
585.83903397993959
 20
-434.08165298437382
 10
585.83929646941533
 20
-434.08126263620386
 42
-0.0103944349005233
 10
586.37348339114908
 20
-433.32147105985348
 42
-0.0103447063441747
 10
586.93848588557466
 20
-432.5847579546155
 42
-0.0103052044149838
 10
587.53319315330623
 20
-431.87227543988581
 10
587.68537255959029
 20
-431.69741354677058
 42
-0.0205117877605629
 10
588.64036502545423
 20
-430.68688616169095
 10
588.80651751871687
 20
-430.52492417029396
 42
-0.0102383830657115
 10
589.48341499002186
 20
-429.89160334645715
 42
-0.0102422476840154
 10
590.18572211609751
 20
-429.28649675084546
 42
-0.010257776928454
 10
590.91239669475783
 20
-428.71056780550305
 42
-0.0102852522118659
 10
591.66241113516526
 20
-428.16476619929279
 42
-0.0103241051240785
 10
592.43473542788365
 20
-427.65004428786176
 42
-0.0103737604236083
 10
593.22833991800121
 20
-427.16735446465407
 42
-0.0104395617110835
 10
594.04171226687504
 20
-426.71790318036324
 10
594.04219498157875
 20
-426.71764945050779
 42
-0.0105099137332651
 10
594.87465209551999
 20
-426.30217509712918
 10
594.87527101546129
 20
-426.30188228115924
 42
-0.0105884513639343
 10
595.72575984810896
 20
-425.92133507255687
 10
595.7265383901821
 20
-425.92100632197128
 42
-0.010673882240053
 10
596.59400282482545
 20
-425.57633488750298
 10
596.59496740164843
 20
-425.57597527474525
 42
-0.0107647244767031
 10
597.47834838499421
 20
-425.26812606119995
 10
597.47952821806325
 20
-425.26774317859588
 42
-0.0108593095486562
 10
598.37776398831443
 20
-424.99765985110969
 10
598.37919082303279
 20
-424.99726440286702
 42
-0.010955790096751
 10
599.29121723888079
 20
-424.76588725914303
 10
599.29292495592415
 20
-424.76549363040579
 42
-0.0110521539159364
 10
600.21767593133666
 20
-424.57375904550656
 10
600.21970005121022
 20
-424.57338582957937
 42
-0.0111462453289114
 10
601.15610809773898
 20
-424.42222575164692
 10
601.15848518015241
 20
-424.42189621376599
 42
-0.0112357970656586
 10
602.1054820567299
 20
-424.31223773780528
 10
602.10824903290109
 20
-424.31198018943041
 42
-0.0113184425369848
 10
603.06476655979134
 20
-424.2447451845668
 10
603.06795875446494
 20
-424.24459331285982
 42
-0.0113894769611426
 10
604.0329273346224
 20
-424.22069374268494
 10
604.03459965604532
 20
-424.22069042451221
 42
-0.0028538767939042
 10
604.27772473898324
 20
-424.22159560148782
 42
-0.0028538767939042
  0
LWPOLYLINE
  5
147
100
AcDbEntity
  8
ADF70-2005
370
              15
390
0
  6
STYLE_12
 62
              18
100
AcDbPolyline
 90
       45
 70
             128
 10
532.11236965886519
 20
-554.36520241304777
 10
532.1437219329373
 20
-554.33756377199927
 42
-0.0106102283109707
 10
532.35578735537183
 20
-554.15846853219398
 10
532.36385581904563
 20
-554.1519426870916
 42
-0.0074800470043527
 10
532.56595682109537
 20
-553.99342338842371
 42
-0.0068224521550986
 10
532.77251278100664
 20
-553.84074627641917
 10
532.77589408200674
 20
-553.83831760265423
 42
-0.006260238235374
 10
532.99319913016643
 20
-553.68632257999263
 10
532.9963617006681
 20
-553.68416896488009
 42
-0.0057940015780383
 10
533.22364425386013
 20
-553.53322142073171
 10
533.22656147690714
 20
-553.53133231986499
 42
-0.0054079660751485
 10
533.46304511287974
 20
-553.38179827911222
 10
533.46569473309751
 20
-553.38016270853393
 42
-0.0050897799218193
 10
533.71059911887301
 20
-553.23240847582565
 10
533.71296241099617
 20
-553.231015283087
 42
-0.0048746601528859
 10
533.96551688391503
 20
-553.08543004130115
 10
534.03328621062883
 20
-553.04723971047736
 42
-0.0090688027944552
 10
534.4266508976807
 20
-552.83487138038072
 10
534.49728498744685
 20
-552.79837632885904
 42
-0.0085505189204829
 10
535.04036943058122
 20
-552.52944116276228
 10
535.04401714409755
 20
-552.52771184661378
 42
-0.0083467182086914
 10
535.60323300827497
 20
-552.27394191977328
 10
535.67543298517785
 20
-552.24262049746392
 42
-0.008432977239748
 10
536.10071666190993
 20
-552.06658751972384
 10
536.10406885139685
 20
-552.06526575490886
 42
-0.0042819118912501
 10
536.52700977694849
 20
-551.90267169002948
 10
536.52932416110252
 20
-551.90180463051252
 42
-0.0090708545357891
 10
536.95174251965227
 20
-551.75223076419945
 10
537.02573200672509
 20
-551.7275329433561
 42
-0.0048338214333198
 10
537.30375356911895
 20
-551.63770661627689
 10
537.3063245374268
 20
-551.63690332392878
 42
-0.005063557297614
 10
537.58091064300197
 20
-551.5541522937807
 10
537.58385355956068
 20
-551.55329780951536
 42
-0.0053756091249466
 10
537.85420205947253
 20
-551.4779432438728
 10
537.85751275565372
 20
-551.47705869535537
 42
-0.0057542817967592
 10
538.12282833590211
 20
-551.40943338880368
 10
538.12650019485216
 20
-551.40854235530583
 42
-0.0062115657618943
 10
538.3859903770699
 20
-551.3489764231341
 10
538.39001360347527
 20
-551.34810535925226
 42
-0.0067627682574402
 10
538.64288961950547
 20
-551.29692580011431
 10
538.64724880688732
 20
-551.29610475518859
 42
-0.0074300949988568
 10
538.89272984206718
 20
-551.25363582234525
 10
538.89498085090361
 20
-551.25328075641107
 42
-0.0082782579131823
 10
539.13715562977495
 20
-551.21917989700955
 10
539.1669077770398
 20
-551.21556199457018
  0
LINE
  5
148
100
AcDbEntity
  8
ADF70-2005
370
              15
390
0
  6
STYLE_12
 62
              18
100
AcDbLine
 10
554.58165175190823
 20
-548.64939851244435
 30
0.0
 11
539.15999089433899
 21
-551.21556199457018
 31
0.0
  0
LWPOLYLINE
  5
149
100
AcDbEntity
  8
ADF70-2005
370
              15
390
0
  6
STYLE_12
 62
              18
100
AcDbPolyline
 90
       51
 70
             128
 10
575.05562454730705
 20
-526.10381934805127
 42
-0.0028712854415898
 10
575.04078091362021
 20
-526.3394939747302
 10
575.02054532036982
 20
-526.63382528170189
 42
-0.0167139379687648
 10
574.93641048470442
 20
-527.45526404626048
 10
574.89656869183523
 20
-527.74751388142283
 42
-0.0108741997143517
 10
574.74889026920641
 20
-528.67895119938726
 42
-0.0106706592579229
 10
574.56118803470838
 20
-529.60332350690589
 42
-0.0104620055794434
 10
574.33445917838185
 20
-530.51943782100284
 42
-0.0102668962390483
 10
574.06985661455144
 20
-531.42571313605629
 10
574.06970677567347
 20
-531.42618974091874
 42
-0.0100776742251035
 10
573.76813800495745
 20
-532.32190555776356
 10
573.76793338344714
 20
-532.32247509829347
 42
-0.009900152620916
 10
573.43039306423759
 20
-533.20656709870252
 10
573.43014105792258
 20
-533.20718986734801
 42
-0.00977187277125
 10
573.05755823688935
 20
-534.07856098933541
 10
572.95941167031322
 20
-534.29623098928755
 42
-0.0190194257598052
 10
572.32497623333893
 20
-535.57151782349035
 10
572.3245363150437
 20
-535.57232372539272
 42
-0.0093434690460552
 10
571.6175277412018
 20
-536.81186745600064
 10
571.61653203507763
 20
-536.81353974952492
 42
-0.0183663656061432
 10
570.83983829004762
 20
-538.01520844533229
 42
-0.009088919982981
 10
569.99755804574136
 20
-539.17355839784113
 10
569.99686008098217
 20
-539.17448248536743
 42
-0.0180497973100286
 10
569.09184073851759
 20
-540.2868207717587
 42
-0.0089994977899638
 10
568.12734085523459
 20
-541.3493241215325
 42
-0.0180692053475544
 10
567.10748376554727
 20
-542.3574139769546
 10
567.10679019058011
 20
-542.35805168905165
 42
-0.0090805087451764
 10
566.03490007273592
 20
-543.30827160133049
 10
566.03424683700405
 20
-543.30882983582455
 42
-0.0184110368304295
 10
564.91368246801073
 20
-544.19718956393547
 10
564.7206990856896
 20
-544.33893504605885
 42
-0.0093571687381343
 10
563.94310332630187
 20
-544.88797485147177
 10
563.94255206209618
 20
-544.88834882509627
 42
-0.0094642205171895
 10
563.14596473159042
 20
-545.40700771254023
 10
563.14537831144742
 20
-545.40737391670245
 42
-0.0095995376875844
 10
562.33079076695014
 20
-545.89458011983436
 10
562.33019333829418
 20
-545.89492204511043
 42
-0.0097504247020745
 10
561.4985787256561
 20
-546.34958489545909
 10
561.49799939934451
 20
-546.34988710571884
 42
-0.009915782742158
 10
560.65032583205209
 20
-546.77091445540202
 10
560.64979878661518
 20
-546.771163326541
 42
-0.0100942621290576
 10
559.7870292876795
 20
-547.15746076911591
 10
559.78659378572081
 20
-547.15764530005526
 42
-0.0102842287446953
 10
558.90968633044656
 20
-547.50811532124692
 42
-0.0104872883266888
 10
558.01929430833809
 20
-547.82176907888538
 42
-0.010691851162439
 10
557.11685077394452
 20
-548.09731246631793
 42
-0.0108858384521727
 10
556.20348514867158
 20
-548.33363534749901
 10
556.08828149100407
 20
-548.36078156130168
 42
-0.0167610041647689
 10
554.93158545600613
 20
-548.59272334183129
 10
554.81499778018849
 20
-548.61206223138356
 42
-0.0028598060888564
 10
554.58165175190823
 20
-548.64939851244435
 42
-0.0028598060888564
  0
LWPOLYLINE
  5
14A
100
AcDbEntity
  8
ADF70-2005
370
              15
390
0
  6
Continuous
 62
              18
100
AcDbPolyline
 90
       36
 70
             128
 10
600.16430613036766
 20
-558.14627846111796
 42
-0.0003595208863105
 10
600.12281549033798
 20
-558.22054714424223
 10
600.12067315939191
 20
-558.22437547138713
 42
-0.0092043209299058
 10
599.00185402753493
 20
-560.14007372621006
 10
599.0001518716914
 20
-560.14286879715928
 42
-0.0091115869259063
 10
597.80841636616299
 20
-562.02184050171275
 10
597.80725340320112
 20
-562.02360229028159
 42
-0.0090558411034206
 10
596.5450974634449
 20
-563.8622829496519
 42
-0.009051093696557
 10
595.21680824744715
 20
-565.6546064127707
 10
595.21591468084978
 20
-565.65576760191846
 42
-0.0090808762145012
 10
593.82551728788883
 20
-567.39625297062742
 10
593.82383787415563
 20
-567.39827868236853
 42
-0.0091530828431895
 10
592.37434450109129
 20
-569.08292160277017
 10
592.3718338964203
 20
-569.08573370129989
 42
-0.0092669533158015
 10
590.86640743337614
 20
-570.71031170577533
 10
590.86304130148449
 20
-570.71381185553957
 42
-0.0094230143663123
 10
589.30482657308869
 20
-572.27411696341187
 10
589.30059805615781
 20
-572.27819449987146
 42
-0.0096219650254571
 10
587.69272073959621
 20
-573.77003102399226
 10
587.68764337948744
 20
-573.77456330099096
 42
-0.0098645675540512
 10
586.03320734020792
 20
-575.19374675886854
 10
586.02731770031448
 20
-575.19860055992353
 42
-0.0101515680705333
 10
584.32940211790662
 20
-576.54095608280454
 10
584.32276283700651
 20
-576.54598942074699
 42
-0.0104835688666367
 10
582.58441896089005
 20
-577.80734960180359
 10
582.57712213208936
 20
-577.81241418445688
 42
-0.010860862203215
 10
580.80136974503
 20
-578.98861614401403
 10
580.79354055304668
 20
-578.99356071856675
 42
-0.0112832148251739
 10
578.98336424457545
 20
-580.08044215704638
 10
578.97516503302029
 20
-580.08511679955791
 42
-0.0117495910053794
 10
577.13350981294514
 20
-581.07851116886843
 10
577.12514918203703
 20
-581.08277042742088
 42
-0.0122589779786082
 10
575.25490325175099
 20
-581.97850141348351
 10
575.25051733923453
 20
-581.98047130677855
 42
-0.012826414813413
 10
573.34662767960651
 20
-582.77755281330064
 42
-0.0033282706999772
 10
572.86643117239362
 20
-582.96059515149022
 42
-0.0033282706999772
  0
LINE
  5
14B
100
AcDbEntity
  8
ADF70-2005
370
              15
390
0
  6
Continuous
 62
              18
100
AcDbLine
 10
531.8852459279683
 20
-599.46773571778067
 30
0.0
 11
572.88199415847123
 21
-582.96059515149022
 31
0.0
  0
LWPOLYLINE
  5
14C
100
AcDbEntity
  8
ADF70-2005
370
              15
390
0
  6
Continuous
 62
              18
100
AcDbPolyline
 90
       45
 70
             128
 10
530.1678778059204
 20
-601.4755931691318
 10
530.16900491035233
 20
-601.45933953262943
 42
-0.0165928376304058
 10
530.17752179705712
 20
-601.3764712127653
 10
530.17859796161451
 20
-601.36858355015795
 42
-0.0104845990553392
 10
530.1891098065405
 20
-601.30199372117511
 42
-0.0102046004875506
 10
530.20236730400484
 20
-601.23589494449459
 10
530.20616761747078
 20
-601.21876798498965
 42
-0.0192086393810097
 10
530.23218278260288
 20
-601.11968569315809
 10
530.23747196744102
 20
-601.10229053870069
 42
-0.0179121818707249
 10
530.28257706616603
 20
-600.97103411877504
 10
530.28305870970894
 20
-600.96978051888652
 42
-0.0168182269323697
 10
530.33821456530643
 20
-600.83948905155739
 10
530.33875903252874
 20
-600.83831455624829
 42
-0.0159058886319011
 10
530.40348361788017
 20
-600.70958939575007
 10
530.40405921884599
 20
-600.70852999108922
 42
-0.0151694938578847
 10
530.47787113576658
 20
-600.58198544068694
 10
530.47844635261936
 20
-600.5810646388835
 42
-0.0146012442105699
 10
530.56086307694329
 20
-600.45732566580762
 10
530.56140792468136
 20
-600.45655725314657
 42
-0.0141884544245243
 10
530.65194299892119
 20
-600.33625836425642
 10
530.65243258879855
 20
-600.33564485301929
 42
-0.0139302955352078
 10
530.75059984828385
 20
-600.21942409321014
 10
530.76352235874992
 20
-600.20496226639614
 42
-0.013828847004235
 10
530.84304659165355
 20
-600.12077145849025
 42
-0.0068909664556354
 10
530.92599332074428
 20
-600.03994317749266
 42
-0.0139148043643375
 10
531.012184290096
 20
-599.96267667127972
 10
531.01260995490543
 20
-599.96231593093069
 42
-0.0069975072550018
 10
531.10215904461438
 20
-599.88855350144274
 42
-0.0142966859613503
 10
531.19473847332233
 20
-599.8186920733441
 10
531.19526095301649
 20
-599.81832076048852
 42
-0.007250946768486
 10
531.2905757005467
 20
-599.75264226859065
 42
-0.014965446112191
 10
531.38867990678568
 20
-599.6912830979021
 10
531.4057277557913
 20
-599.68131751066335
 42
-0.0077142133041109
 10
531.47278644641142
 20
-599.64349312974639
 10
531.47286557909263
 20
-599.64345009057558
 42
-0.0078494427303633
 10
531.54090907964246
 20
-599.60781473259919
 10
531.5409965664503
 20
-599.60777065048569
 42
-0.0080281369484816
 10
531.60996042049305
 20
-599.57439910357891
 10
531.61005421282891
 20
-599.5743555619282
 42
-0.0082208443091072
 10
531.67987654331932
 20
-599.54332654682992
 42
-0.0083784417039139
 10
531.75068993757509
 20
-599.5146323014327
 10
531.76380354296066
 20
-599.50957266283842
 42
-0.0152925462478493
 10
531.86238383718444
 20
-599.47496162804543
 10
531.87620083459251
 20
-599.4705803030937
 10
531.8852459279683
 20
-599.46773571778067
  0
LINE
  5
14D
100
AcDbEntity
  8
ADF70-2005
370
              15
390
0
  6
STYLE_12
 62
              18
100
AcDbLine
 10
575.05562454730705
 20
-526.10381934805127
 30
0.0
 11
579.35792558742139
 21
-476.83832230912276
 31
0.0
  0
LINE
  5
14E
100
AcDbEntity
  8
ADF70-2005
370
              15
390
0
  6
STYLE_12
 62
              18
100
AcDbLine
 10
581.58170337584045
 20
-451.53636538832234
 30
0.0
 11
582.20249359826846
 21
-444.45347750234646
 31
0.0
  0
LINE
  5
14F
100
AcDbEntity
  8
ADF70-2005
370
              15
390
0
  6
Continuous
 62
              18
100
AcDbLine
 10
607.03410249539081
 20
-424.22505404283834
 30
0.0
 11
321.70404496964733
 21
-424.22505404283834
 31
0.0
  0
LINE
  5
150
100
AcDbEntity
  8
ADF70-2005
370
              15
390
0
  6
Continuous
 62
              18
100
AcDbLine
 10
713.19095975126402
 20
-558.1462784611208
 30
0.0
 11
689.02855925547783
 21
-558.1462784611208
 31
0.0
  0
LINE
  5
151
100
AcDbEntity
  8
ADF70-2005
370
              15
390
0
  6
Continuous
 62
              18
100
AcDbLine
 10
715.20723105864886
 20
-425.72505404283834
 30
0.0
 11
715.20723105864886
 21
-556.12309027103493
 31
0.0
  0
LWPOLYLINE
  5
152
100
AcDbEntity
  8
ADF70-2005
370
              15
390
0
  6
Continuous
 62
              18
100
AcDbPolyline
 90
       59
 70
             128
 10
715.20723105864886
 20
-556.13000715373596
 10
715.2070682258817
 20
-556.16271646767359
 42
-0.021511235326016
 10
715.20090024702699
 20
-556.29113347404541
 10
715.1989024590705
 20
-556.31302418202381
 42
-0.0106805783026159
 10
715.18940456774953
 20
-556.39719137881173
 10
715.18936479556248
 20
-556.39748700928692
 42
-0.010623087432086
 10
715.17638263846698
 20
-556.48058418372455
 10
715.1763361889557
 20
-556.48084503591895
 42
-0.0105697947463997
 10
715.1599485849656
 20
-556.56279818772941
 10
715.15989781219901
 20
-556.56302684883531
 42
-0.0105101016400751
 10
715.14018185301757
 20
-556.64376173325377
 10
715.14012877635491
 20
-556.64396082246003
 42
-0.0104456649708944
 10
715.11716188155879
 20
-556.72340318787712
 42
-0.0103891924413195
 10
715.09090559694698
 20
-556.80182006987593
 10
715.08397833008553
 20
-556.82116447775593
 42
-0.0205417840544873
 10
715.03787268604538
 20
-556.93495891877069
 10
715.03773177908749
 20
-556.9352694066398
 42
-0.0101827268023786
 10
714.98498630280073
 20
-557.04547359099286
 10
714.98491953951452
 20
-557.04560608528254
 42
-0.0201457285504056
 10
714.92577099237337
 20
-557.15208683535707
 10
714.92566674774866
 20
-557.15225788542705
 42
-0.0099978862774305
 10
714.86038593107241
 20
-557.25470691575129
 10
714.86033730912186
 20
-557.25477995642598
 42
-0.0198293069599029
 10
714.78920994604641
 20
-557.35295551233207
 10
714.78915040805009
 20
-557.35303118525383
 42
-0.0098649380415402
 10
714.71239845370519
 20
-557.44671901917377
 42
-0.0196459640140984
 10
714.63033187470387
 20
-557.5356374261986
 42
-0.0098040000358605
 10
714.54316252017975
 20
-557.61958279513885
 42
-0.0196010668838307
 10
714.45127522418261
 20
-557.69820481883971
 42
-0.009820267416295
 10
714.35487045114564
 20
-557.77132793849728
 10
714.3548166016401
 20
-557.7713671415886
 42
-0.019712442024909
 10
714.25417800787841
 20
-557.83872618048588
 10
714.23700751712613
 20
-557.84926330136216
 42
-0.0099196195057893
 10
714.16720758182009
 20
-557.89021432160996
 42
-0.0099620418438965
 10
714.09583507113416
 20
-557.928358254969
 10
714.09578109265431
 20
-557.92838573471681
 42
-0.0100152275313612
 10
714.02283311232554
 20
-557.96370112673515
 10
714.02276611654588
 20
-557.96373191983866
 42
-0.0100739537517113
 10
713.94832351681043
 20
-557.99614755540176
 10
713.94824182893626
 20
-557.99618118487547
 42
-0.0101372288163814
 10
713.87238564166751
 20
-558.02562596342921
 10
713.8722874106661
 20
-558.02566181935094
 42
-0.0102039333903709
 10
713.79509883869923
 20
-558.05206479050594
 10
713.79498205081336
 20
-558.05210209466543
 42
-0.0102728256672762
 10
713.71654245173477
 20
-558.07539249326851
 10
713.71640494965231
 20
-558.07543026476935
 42
-0.0103425496447971
 10
713.63679581392103
 20
-558.09553754458693
 10
713.63663532166834
 20
-558.09557456732159
 42
-0.0104116470156107
 10
713.55593824482003
 20
-558.11242843242985
 10
713.55575239855011
 20
-558.11246322538693
 42
-0.0104785731658203
 10
713.47404904772486
 20
-558.12599365816664
 10
713.47383543204637
 20
-558.12602444971537
 42
-0.0105417176555446
 10
713.39120750692973
 20
-558.13616173435537
 10
713.3909636965077
 20
-558.13618644161761
 42
-0.0106011042436112
 10
713.30749286880564
 20
-558.14286090184657
 10
713.30191024068222
 20
-558.14318836509597
 42
-0.0133161510839878
 10
713.20705184605151
 20
-558.14622104154637
 10
713.20159478997857
 20
-558.14625012220449
 10
713.19095975126402
 20
-558.1462784611208
  0
LINE
  5
153
100
AcDbEntity
  8
ADF70-2005
370
              15
390
0
  6
STYLE_12
 62
              18
100
AcDbLine
 10
579.36657169079774
 20
-476.82794698507109
 30
0.0
 11
581.5730572724641
 21
-451.53636538832234
 31
0.0
  0
LINE
  5
154
100
AcDbEntity
  8
ADF70-2005
370
              15
390
0
  6
Continuous
 62
              18
100
AcDbLine
 10
689.02855925547783
 20
-558.1462784611208
 30
0.0
 11
600.16430613036766
 21
-558.14627846111796
 31
0.0
  0
LINE
  5
155
100
AcDbEntity
  8
ADF70-2005
370
              15
390
0
  6
Continuous
 62
              18
100
AcDbLine
 10
667.06108037033437
 20
-424.22505404283834
 30
0.0
 11
633.35338174696324
 21
-424.22505404283834
 31
0.0
  0
LINE
  5
156
100
AcDbEntity
  8
ADF70-2005
370
              15
390
0
  6
STYLE_12
 62
              18
100
AcDbLine
 10
472.6178500886171
 20
-566.30474160712515
 30
0.0
 11
517.81778374301985
 21
-566.30474160712515
 31
0.0
  0
LWPOLYLINE
  5
157
100
AcDbEntity
  8
ADF70-2005
370
              15
390
0
  6
Continuous
 62
              18
100
AcDbPolyline
 90
       10
 70
             128
 10
322.54790465918762
 20
-469.17677466958366
 10
321.52766446076788
 20
-469.08339675311822
 10
320.50742426234859
 20
-468.81017988642282
 10
319.55289444959038
 20
-468.37441627625049
 10
318.70557631869946
 20
-467.77610592260112
 10
317.95855298697546
 20
-467.02562414952649
 10
317.36715951602713
 20
-466.16793069458413
 10
316.92102058180302
 20
-465.22723464722799
 10
316.65126215645836
 20
-464.20699444880859
 10
316.55442579864251
 20
-463.172920484987
  0
LINE
  5
158
100
AcDbEntity
  8
ADF70-2005
370
              15
390
0
  6
Continuous
 62
              18
100
AcDbLine
 10
367.38313832803073
 20
-469.57795386625025
 30
0.0
 11
401.5144960168472
 21
-543.57586505115205
 31
0.0
  0
LWPOLYLINE
  5
159
100
AcDbEntity
  8
ADF70-2005
370
              15
390
0
  6
Continuous
 62
              18
100
AcDbPolyline
 90
        7
 70
             128
 10
401.5144960168472
 20
-543.57586505115205
 10
405.16315164170322
 20
-549.78030883408201
 10
409.92542538144374
 20
-555.19968643043171
 10
415.63185360989104
 20
-559.6126575937642
 10
422.0368869911544
 20
-562.8774262287061
 10
428.95031125095232
 20
-564.86948844663698
 10
436.13695237744508
 20
-565.52313386189553
  0
LINE
  5
15A
100
AcDbEntity
  8
ADF70-2005
370
              15
390
0
  6
Continuous
 62
              18
100
AcDbLine
 10
436.13695237744508
 20
-565.52313386189553
 30
0.0
 11
448.0133912907117
 21
-565.45853784605015
 31
0.0
  0
LWPOLYLINE
  5
15B
100
AcDbEntity
  8
ADF70-2005
370
              15
390
0
  6
Continuous
 62
              18
100
AcDbPolyline
 90
        9
 70
             128
 10
447.85541001850601
 20
-565.44358971083238
 10
449.71950990646559
 20
-565.6199702197116
 10
451.50406564336203
 20
-566.12144421554467
 10
453.19524346379279
 20
-566.94109481563078
 10
454.66162259643619
 20
-568.0650882545674
 10
455.90320304129222
 20
-569.44154791209598
 10
456.89231726755628
 20
-571.01859716795775
 10
457.55979644821713
 20
-572.75819316729667
 10
457.87797305247017
 20
-574.58079175904913
  0
LINE
  5
15C
100
AcDbEntity
  8
ADF70-2005
370
              15
390
0
  6
Continuous
 62
              18
100
AcDbLine
 10
457.87797305247017
 20
-574.58079175904913
 30
0.0
 11
460.28504823246971
 21
-601.4755931691318
 31
0.0
  0
LWPOLYLINE
  5
15D
100
AcDbEntity
  8
ADF70-2005
370
              15
390
0
  6
Continuous
 62
              18
100
AcDbPolyline
 90
        9
 70
             128
 10
460.28504823246971
 20
-601.4755931691318
 10
460.39571835568808
 20
-602.02548534387302
 10
460.58939107132022
 20
-602.54425154645924
 10
460.87298326206741
 20
-603.03189177689023
 10
461.25687025198107
 20
-603.44344629760849
 10
461.68571697945202
 20
-603.77199822591297
 10
462.21140006473928
 20
-604.03483976855659
 10
462.73708315002654
 20
-604.16971898122915
 10
463.28005844206695
 20
-604.22505404283834
  0
LWPOLYLINE
  5
15E
100
AcDbEntity
  8
ADF70-2005
370
              15
390
0
  6
STYLE_12
 62
              18
100
AcDbPolyline
 90
        4
 70
             128
 10
463.28005844206695
 20
-604.22505404283834
 10
473.28532926927795
 20
-604.22505404283834
 10
472.6351422953698
 20
-566.30474160712515
 10
462.70595717787177
 20
-558.01139924844847
  0
LWPOLYLINE
  5
15F
100
AcDbEntity
  8
ADF70-2005
370
              15
390
0
  6
STYLE_12
 62
              18
100
AcDbPolyline
 90
        5
 70
             128
 10
462.72324938462447
 20
-558.00102392439658
 10
460.79343911100426
 20
-556.63148114956925
 10
458.65958079770002
 20
-555.61124095114997
 10
456.39776015442425
 20
-554.98180462534538
 10
454.03910315333263
 20
-554.73625528945468
  0
LINE
  5
160
100
AcDbEntity
  8
ADF70-2005
370
              15
390
0
  6
STYLE_12
 62
              18
100
AcDbLine
 10
454.03910315333263
 20
-554.73625528945468
 30
0.0
 11
436.21649652850823
 21
-554.29011635523057
 31
0.0
  0
LWPOLYLINE
  5
161
100
AcDbEntity
  8
ADF70-2005
370
              15
390
0
  6
STYLE_12
 62
              18
100
AcDbPolyline
 90
        7
 70
             128
 10
436.23378873526138
 20
-554.29703323793183
 10
431.62714485629652
 20
-553.75751638724228
 10
427.19688148621111
 20
-552.38451517106432
 10
423.10208692713144
 20
-550.23336465100715
 10
419.5018494811838
 20
-547.35939988867995
 10
416.45842109267818
 20
-543.86291568324964
 10
414.11705629833972
 20
-539.85458215793415
  0
LINE
  5
162
100
AcDbEntity
  8
ADF70-2005
370
              15
390
0
  6
STYLE_12
 62
              18
100
AcDbLine
 10
414.11705629833972
 20
-539.86149904063541
 30
0.0
 11
366.47702669418044
 21
-436.92445068214658
 31
0.0
  0
LWPOLYLINE
  5
163
100
AcDbEntity
  8
ADF70-2005
370
              15
390
0
  6
STYLE_12
 62
              18
100
AcDbPolyline
 90
        7
 70
             128
 10
366.47702669418044
 20
-436.92445068214658
 10
364.38812811843349
 20
-433.33804700160124
 10
361.64904256877884
 20
-430.22199134473385
 10
358.34968952033108
 20
-427.67312006936072
 10
354.6526157165676
 20
-425.77789420924614
 10
350.68578348745899
 20
-424.61239947410263
 10
346.54257074947094
 20
-424.22851248418897
  0
LINE
  5
164
100
AcDbEntity
  8
ADF70-2005
370
              15
390
0
  6
Continuous
 62
              18
100
AcDbLine
 10
346.54257074947094
 20
-424.22505404283834
 30
0.0
 11
321.98763716039451
 21
-424.22505404283834
 31
0.0
  0
LWPOLYLINE
  5
165
100
AcDbEntity
  8
ADF70-2005
370
              15
390
0
  6
Continuous
 62
              18
100
AcDbPolyline
 90
        9
 70
             128
 10
321.98763716039451
 20
-424.22505404283834
 10
320.81176710119911
 20
-424.33572416605671
 10
319.67739833821082
 20
-424.68502674246474
 10
318.66061658114216
 20
-425.23491891720596
 10
317.75104650594079
 20
-425.98540069028058
 10
317.00056473286617
 20
-426.89497076548162
 10
316.44375567542414
 20
-427.92904472930331
 10
316.1082868644184
 20
-429.05303816823994
 10
315.99761674120003
 20
-430.22199134473385
  0
POLYLINE
  5
166
100
AcDbEntity
  8
ADF70-2005
370
              15
390
0
  6
Continuous
 62
              18
100
AcDb2dPolyline
 66
               1
 10
0.0
 20
0.0
 30
0.0
 75
               5
  0
VERTEX
  5
167
100
AcDbEntity
  8
ADF70-2005
370
              15
390
0
  6
Continuous
 62
              18
100
AcDbVertex
100
AcDb2dVertex
 10
315.99761674120003
 20
-430.22199134473385
 30
0.0
  0
VERTEX
  5
168
100
AcDbEntity
  8
ADF70-2005
370
              15
390
0
  6
Continuous
 62
              18
100
AcDbVertex
100
AcDb2dVertex
 10
316.55442579864251
 20
-463.172920484987
 30
0.0
  0
VERTEX
  5
169
100
AcDbEntity
  8
ADF70-2005
370
              15
390
0
  6
Continuous
 62
              18
100
AcDbVertex
100
AcDb2dVertex
 10
315.99761674120003
 20
-430.22199134473385
 30
0.0
  0
SEQEND
  5
16A
100
AcDbEntity
  8
ADF70-2005
370
              15
390
0
  6
Continuous
 62
              18
  0
LWPOLYLINE
  5
16B
100
AcDbEntity
  8
ADF70-2005
370
              15
390
0
  6
Continuous
 62
              18
100
AcDbPolyline
 90
        9
 70
             128
 10
315.99761674120003
 20
-430.22199134473385
 10
316.1082868644184
 20
-429.05303816823994
 10
316.44375567542414
 20
-427.92212784660205
 10
317.00056473286617
 20
-426.88459544142984
 10
317.75104650594079
 20
-425.98540069028058
 10
318.66061658114216
 20
-425.23146047585544
 10
319.67739833821082
 20
-424.68502674246474
 10
320.81176710119911
 20
-424.33572416605671
 10
321.98763716039451
 20
-424.22159560148782
  0
LWPOLYLINE
  5
16C
100
AcDbEntity
  8
ADF70-2005
370
              15
390
0
  6
Continuous
 62
              18
100
AcDbPolyline
 90
       51
 70
             128
 10
-634.77649818963528
 20
-424.22505404283845
 10
-634.84877295930733
 20
-424.2255506911996
 42
0.0192090842436579
 10
-635.26819158127023
 20
-424.24455706011383
 10
-635.29398304429719
 20
-424.2467208206516
 42
0.0152165514887899
 10
-635.65981180429344
 20
-424.28865479436342
 10
-635.66169509599399
 20
-424.28892895536796
 42
0.0151612891054677
 10
-636.02055773045458
 20
-424.352334632017
 10
-636.02214592260771
 20
-424.35266518238916
 42
0.0150910877891397
 10
-636.37336623127021
 20
-424.43689690823578
 10
-636.37468721212417
 20
-424.43725619408451
 42
0.0150072245073986
 10
-636.71758815474914
 20
-424.54166665730452
 10
-636.71866988989336
 20
-424.54203184988933
 42
0.0149154486700915
 10
-637.05257485077573
 20
-424.66596913031117
 10
-637.05344447613106
 20
-424.66632176668975
 42
0.0148212500370627
 10
-637.3776780836497
 20
-424.80912988187913
 10
-637.37836112826017
 20
-424.80945522790694
 42
0.0147297165469304
 10
-637.69224995067066
 20
-424.97047485097039
 10
-637.692769900548
 20
-424.97076122584997
 42
0.0146453186562903
 10
-637.99564272192811
 20
-425.14933033376508
 10
-637.99602014976654
 20
-425.14956802242421
 42
0.0145721200154013
 10
-638.28720898577581
 20
-425.34502327395319
 10
-638.28746340348198
 20
-425.34520501979944
 42
0.0145127149444115
 10
-638.56630054400057
 20
-425.55688013227143
 10
-638.56644229073481
 20
-425.55699437001647
 42
0.0144712891314687
 10
-638.83227247625723
 20
-425.78423150235596
 42
0.0144435243706263
 10
-639.0844774215177
 20
-426.02640583970538
 42
0.0144439038301836
 10
-639.32226222663053
 20
-426.28272601428796
 42
0.0144634089593697
 10
-639.54497915174488
 20
-426.55252108716843
 42
0.0144899114218238
 10
-639.75181680416381
 20
-426.83488238091491
 10
-639.75198194560789
 20
-426.8351220933796
 42
0.014540691263254
 10
-639.94240274081221
 20
-427.12949706043673
 10
-639.94262147974177
 20
-427.12985779670601
 42
0.0146066684325131
 10
-640.11598466196801
 20
-427.4355587051931
 10
-640.11624843313939
 20
-427.43605722054963
 42
0.0146849209465018
 10
-640.27191395445561
 20
-427.75239361544061
 10
-640.27221304521504
 20
-427.75304934528549
 42
0.0147718255398878
 10
-640.40954242304974
 20
-428.07932815447634
 10
-640.40986513748567
 20
-428.08016303833108
 42
0.0148630989699562
 10
-640.52822226409489
 20
-428.41568879673775
 10
-640.52855412759664
 20
-428.41672695463046
 42
0.0149538803020843
 10
-640.62730604983608
 20
-428.7608022230396
 10
-640.62762906794956
 20
-428.76206943890747
 42
0.0150388451732338
 10
-640.70614668902112
 20
-429.11399541143226
 10
-640.70643870828326
 20
-429.11551843216387
 42
0.0151123572907553
 10
-640.76409736504775
 20
-429.47459572363027
 10
-640.76433158353097
 20
-429.47640138786528
 42
0.0151682701980152
 10
-640.80051173502329
 20
-429.84193095555349
 10
-640.80065631153457
 20
-429.84404368824437
 42
0.0153821602662877
 10
-640.81460921319831
 20
-430.21532590765594
 10
-640.81493678773768
 20
-430.26349264094085
 10
-640.81493678773768
 20
-430.37416276415922
  0
LINE
  5
16D
100
AcDbEntity
  8
ADF70-2005
370
              15
390
0
  6
Continuous
 62
               7
100
AcDbLine
 10
322.54790465918671
 20
-469.17677466958366
 30
0.0
 11
715.20723105864863
 21
-469.17677466958366
 31
0.0
  0
LWPOLYLINE
  5
16E
100
AcDbEntity
  8
ADF70-2005
370
              15
390
0
  6
Continuous
 62
              18
100
AcDbPolyline
 90
       52
 70
             128
 10
-640.24948162691908
 20
-463.30160017123887
 10
-640.24945952260737
 20
-463.30255433170453
 42
0.007892119037878
 10
-640.23882551229667
 20
-463.57546119844494
 42
0.0151291614815882
 10
-640.21565032051353
 20
-463.8474988019949
 10
-640.21038287997658
 20
-463.89300394563884
 42
0.0150610590207496
 10
-640.15861806947805
 20
-464.24660235995009
 10
-640.15835088802396
 20
-464.24810926010991
 42
0.014968165832209
 10
-640.08608081749571
 20
-464.5949702689536
 10
-640.08578215777379
 20
-464.59621575552592
 42
0.0148597111874569
 10
-639.99363234793577
 20
-464.93568256161575
 10
-639.99332472427864
 20
-464.93669571261535
 42
0.0147418688171104
 10
-639.88192566724092
 20
-465.26811179821641
 10
-639.88162685779571
 20
-465.26892096334996
 42
0.0146205633384237
 10
-639.75161348827828
 20
-465.59163099392538
 10
-639.75133713254968
 20
-465.59226298228361
 42
0.0145012943015749
 10
-639.60334816381601
 20
-465.90561351996587
 10
-639.60310449826557
 20
-465.90609293956959
 42
0.0143890273306307
 10
-639.43778162733111
 20
-466.20943301623618
 10
-639.43757822209932
 20
-466.20978194787631
 42
0.01428802242522
 10
-639.25556543510743
 20
-466.50246323779913
 10
-639.25540829772331
 20
-466.50270052184248
 42
0.0142020588723025
 10
-639.05735050744738
 20
-466.78407818437097
 10
-639.05724363692775
 20
-466.78422120498533
 42
0.0141334775834279
 10
-638.84378820685629
 20
-467.05365109398565
 42
0.0140829808241895
 10
-638.61552599155993
 20
-467.31055815209209
 42
0.0140587748726004
 10
-638.37321333775071
 20
-467.55417328834017
 42
0.0140578289804166
 10
-638.1175050306681
 20
-467.78386513058592
 42
0.0140705399006558
 10
-637.84921008720039
 20
-467.99888610589471
 10
-637.84904998069328
 20
-467.99900718317474
 42
0.0141088533532768
 10
-637.56874367342721
 20
-468.19880753259565
 10
-637.56849521023059
 20
-468.19897426865043
 42
0.0141668515574214
 10
-637.27683970841031
 20
-468.38293157496594
 10
-637.27648992697095
 20
-468.38313858156812
 42
0.0142423730049877
 10
-636.97414968501448
 20
-468.55063072956204
 10
-636.97368308912792
 20
-468.55087211356806
 42
0.0143324910972782
 10
-636.66132545882328
 20
-468.70127763172798
 10
-636.66072369231301
 20
-468.70154642850241
 42
0.014433595185053
 10
-636.3390188291944
 20
-468.83424532402103
 10
-636.33826083307645
 20
-468.83453267902553
 42
0.0145414160629132
 10
-636.00788149572736
 20
-468.94890723498031
 10
-636.00694380229288
 20
-468.94920161551659
 42
0.0146510880337808
 10
-635.66856496876767
 20
-469.04463716862972
 10
-635.66742217888759
 20
-469.04492361711289
 42
0.0147572420322726
 10
-635.32172048198345
 20
-469.12080927250679
 10
-635.32034592209675
 20
-469.12106874513938
 42
0.0148541366294309
 10
-634.96799890673083
 20
-469.1767979845182
 10
-634.96636545740989
 20
-469.1770068211257
 42
0.014935550886691
 10
-634.60805069312755
 20
-469.21197815725668
 10
-634.60613317328875
 20
-469.21210763742215
 42
0.0149879051333713
 10
-634.24253005455807
 20
-469.22573054193913
 10
-634.24151599954575
 20
-469.22573812247674
 10
-634.19548004273929
 20
-469.22591020477239
  0
LINE
  5
16F
100
AcDbEntity
  8
ADF70-2005
370
              15
390
0
  6
Continuous
 62
              18
100
AcDbLine
 10
-146.88725998143354
 20
-424.22505404283845
 30
0.0
 11
-634.77649818963528
 21
-424.22505404283845
 31
0.0
  0
LINE
  5
170
100
AcDbEntity
  8
ADF70-2005
370
              15
390
0
  6
Continuous
 62
              18
100
AcDbLine
 10
-147.36525613479171
 20
-469.22505404283834
 30
0.0
 11
-634.29850203412707
 21
-469.22505404283834
 31
0.0
  0
LINE
  5
171
100
AcDbEntity
  8
ADF70-2005
370
              15
390
0
  6
Continuous
 62
              18
100
AcDbLine
 10
-591.6948867754154
 20
-530.87536633288937
 30
0.0
 11
-601.94561811030053
 21
-469.22505404283834
 31
0.0
  0
SPLINE
  5
172
100
AcDbEntity
  8
ADF70-2005
370
              15
390
0
  6
Continuous
 62
              18
100
AcDbSpline
210
0.0
220
0.0
230
1.0
 70
              12
 71
               2
 72
             128
 73
             125
 74
               0
 42
0.000001
 43
0.000001
 40
0.0
 40
0.0
 40
0.0
 40
1.0
 40
1.0
 40
2.0
 40
2.0
 40
3.0
 40
3.0
 40
4.0
 40
4.0
 40
5.0
 40
5.0
 40
6.0
 40
6.0
 40
7.0
 40
7.0
 40
8.0
 40
8.0
 40
9.0
 40
9.0
 40
10.0
 40
10.0
 40
11.0
 40
11.0
 40
12.0
 40
12.0
 40
13.0
 40
13.0
 40
14.0
 40
14.0
 40
15.0
 40
15.0
 40
16.0
 40
16.0
 40
17.0
 40
17.0
 40
18.0
 40
18.0
 40
19.0
 40
19.0
 40
20.0
 40
20.0
 40
21.0
 40
21.0
 40
22.0
 40
22.0
 40
23.0
 40
23.0
 40
24.0
 40
24.0
 40
25.0
 40
25.0
 40
26.0
 40
26.0
 40
27.0
 40
27.0
 40
28.0
 40
28.0
 40
29.0
 40
29.0
 40
30.0
 40
30.0
 40
31.0
 40
31.0
 40
32.0
 40
32.0
 40
33.0
 40
33.0
 40
34.0
 40
34.0
 40
35.0
 40
35.0
 40
36.0
 40
36.0
 40
37.0
 40
37.0
 40
38.0
 40
38.0
 40
39.0
 40
39.0
 40
40.0
 40
40.0
 40
41.0
 40
41.0
 40
42.0
 40
42.0
 40
43.0
 40
43.0
 40
44.0
 40
44.0
 40
45.0
 40
45.0
 40
46.0
 40
46.0
 40
47.0
 40
47.0
 40
48.0
 40
48.0
 40
49.0
 40
49.0
 40
50.0
 40
50.0
 40
51.0
 40
51.0
 40
52.0
 40
52.0
 40
53.0
 40
53.0
 40
54.0
 40
54.0
 40
55.0
 40
55.0
 40
56.0
 40
56.0
 40
57.0
 40
57.0
 40
58.0
 40
58.0
 40
59.0
 40
59.0
 40
60.0
 40
60.0
 40
61.0
 40
61.0
 40
62.0
 40
62.0
 40
62.0
 10
-554.51644976686066
 20
-561.922764671609
 30
0.0
 41
1.0
 10
-555.10324351709323
 20
-561.9223940082444
 30
0.0
 41
0.9998725369028255
 10
-555.6897262737582
 20
-561.90328854204813
 30
0.0
 41
1.0
 10
-555.71517204157044
 20
-561.90245961186849
 30
0.0
 41
1.0
 10
-555.74061780938268
 20
-561.90163068168897
 30
0.0
 41
1.0
 10
-556.33951839952033
 20
-561.88212068783184
 30
0.0
 41
0.9998140996024141
 10
-556.93722147371
 20
-561.83953440101254
 30
0.0
 41
1.0
 10
-556.96885937355455
 20
-561.83728020367721
 30
0.0
 41
1.0
 10
-557.00049727339911
 20
-561.83502600634188
 30
0.0
 41
1.0
 10
-557.5349245478983
 20
-561.79694811419324
 30
0.0
 41
0.9999197727539504
 10
-558.06821575337085
 20
-561.74534455061087
 30
0.0
 41
1.0
 10
-558.60150695883249
 20
-561.69374098702963
 30
0.0
 41
0.9998810735921321
 10
-559.13295301676362
 20
-561.62571507201301
 30
0.0
 41
1.0
 10
-559.17119602422235
 20
-561.62081990807951
 30
0.0
 41
1.0
 10
-559.20943903168086
 20
-561.61592474414601
 30
0.0
 41
1.0
 10
-559.68231761617903
 20
-561.55539555605208
 30
0.0
 41
0.9998487034934359
 10
-560.15280460629037
 20
-561.47845447194368
 30
0.0
 41
1.0
 10
-560.1695331852934
 20
-561.47571876398331
 30
0.0
 41
1.0
 10
-560.18626176429621
 20
-561.47298305602305
 30
0.0
 41
1.0
 10
-560.62329159640967
 20
-561.40151338783392
 30
0.0
 41
0.9998971282448022
 10
-561.05809158147167
 20
-561.3175374352586
 30
0.0
 41
1.0
 10
-561.11046143595377
 20
-561.30897596585407
 30
0.0
 41
1.0
 10
-561.16283129043563
 20
-561.30041449644966
 30
0.0
 41
1.0
 10
-562.01099180705
 20
-561.1617564767763
 30
0.0
 41
0.9995730723658106
 10
-562.84960514725685
 20
-560.97379378369476
 30
0.0
 41
1.0
 10
-563.68821848746006
 20
-560.78583109061412
 30
0.0
 41
0.9997213547969884
 10
-564.51702587618865
 20
-560.55849736951961
 30
0.0
 41
1.0
 10
-564.67108039116783
 20
-560.51624173012988
 30
0.0
 41
1.0
 10
-564.82513490614724
 20
-560.47398609074014
 30
0.0
 41
1.0
 10
-565.92490325861399
 20
-560.17233044033378
 30
0.0
 41
0.9994145378626397
 10
-567.00146740968626
 20
-559.7961706483112
 30
0.0
 41
1.0
 10
-567.15442933925442
 20
-559.74272457400491
 30
0.0
 41
1.0
 10
-567.30739126882258
 20
-559.6892784996985
 30
0.0
 41
1.0
 10
-568.07803156075897
 20
-559.4200108562884
 30
0.0
 41
0.999683090141525
 10
-568.83414244005553
 20
-559.11229692817801
 30
0.0
 41
1.0
 10
-569.59025331935027
 20
-558.80458300006865
 30
0.0
 41
0.9998229504304728
 10
-570.33425050522624
 20
-558.46863700625647
 30
0.0
 41
1.0
 10
-570.36636147168747
 20
-558.45413755552613
 30
0.0
 41
1.0
 10
-570.39847243814893
 20
-558.43963810479579
 30
0.0
 41
1.0
 10
-571.20669155694554
 20
-558.07469320952418
 30
0.0
 41
0.9995683329037921
 10
-571.99208099897965
 20
-557.66290886679769
 30
0.0
 41
1.0
 10
-572.0836356278362
 20
-557.6149062318633
 30
0.0
 41
1.0
 10
-572.17519025669276
 20
-557.56690359692902
 30
0.0
 41
1.0
 10
-573.1438583465565
 20
-557.05901231097221
 30
0.0
 41
0.9995842009716603
 10
-574.08163833910589
 20
-556.49612678775657
 30
0.0
 41
1.0
 10
-574.1480374612056
 20
-556.45627191253959
 30
0.0
 41
1.0
 10
-574.21443658330509
 20
-556.4164170373225
 30
0.0
 41
1.0
 10
-575.01958772177136
 20
-555.9331395911795
 30
0.0
 41
0.9995865614658364
 10
-575.79562823574679
 20
-555.40438013131234
 30
0.0
 41
1.0
 10
-575.80573411098067
 20
-555.39749443780295
 30
0.0
 41
1.0
 10
-575.81583998621454
 20
-555.39060874429344
 30
0.0
 41
1.0
 10
-576.57166874972199
 20
-554.87562067144529
 30
0.0
 41
0.9997739791814617
 10
-577.30492184321315
 20
-554.32896745797393
 30
0.0
 41
1.0
 10
-578.0381749367059
 20
-553.78231424450121
 30
0.0
 41
0.9996271181679233
 10
-578.74049173389767
 20
-553.19644655355694
 30
0.0
 41
1.0
 10
-578.8157307933252
 20
-553.13368266382543
 30
0.0
 41
1.0
 10
-578.89096985275251
 20
-553.07091877409391
 30
0.0
 41
1.0
 10
-579.64151449260407
 20
-552.44481975886481
 30
0.0
 41
0.9996519651217597
 10
-580.35799191469459
 20
-551.78000599778886
 30
0.0
 41
1.0
 10
-580.51322163462532
 20
-551.63596956236734
 30
0.0
 41
1.0
 10
-580.66845135455605
 20
-551.49193312694581
 30
0.0
 41
1.0
 10
-581.07446933678534
 20
-551.1151922367128
 30
0.0
 41
0.9997424917224508
 10
-581.46297516714367
 20
-550.72041695880841
 30
0.0
 41
1.0
 10
-581.85148099749449
 20
-550.3256416809121
 30
0.0
 41
0.9999775750807288
 10
-582.23466450582555
 20
-549.92569831090668
 30
0.0
 41
1.0
 10
-582.25525036596287
 20
-549.90421205667406
 30
0.0
 41
1.0
 10
-582.27583622610018
 20
-549.88272580244143
 30
0.0
 41
1.0
 10
-582.70019145469928
 20
-549.4398099239778
 30
0.0
 41
0.9994995812479179
 10
-583.09569081525024
 20
-548.97094737349937
 30
0.0
 41
1.0
 10
-583.27195996596106
 20
-548.76198116061391
 30
0.0
 41
1.0
 10
-583.44822911667188
 20
-548.55301494772846
 30
0.0
 41
1.0
 10
-584.15375409175454
 20
-547.7166185530981
 30
0.0
 41
0.9995593730308342
 10
-584.80840480088159
 20
-546.83983074042237
 30
0.0
 41
1.0
 10
-584.88015880366947
 20
-546.74372905706969
 30
0.0
 41
1.0
 10
-584.95191280645736
 20
-546.647627373717
 30
0.0
 41
1.0
 10
-585.46305551000728
 20
-545.9630429277488
 30
0.0
 41
0.9995569353880591
 10
-585.93255779438232
 20
-545.24925701304915
 30
0.0
 41
1.0
 10
-586.07017179369268
 20
-545.04004198334189
 30
0.0
 41
1.0
 10
-586.20778579300281
 20
-544.83082695363464
 30
0.0
 41
1.0
 10
-586.40206007875554
 20
-544.53547109835233
 30
0.0
 41
0.999858286551543
 10
-586.58628120746585
 20
-544.23374248669779
 30
0.0
 41
1.0
 10
-586.77050233617592
 20
-543.93201387504359
 30
0.0
 41
1.0
 10
-587.05737425274037
 20
-543.45810208979719
 30
0.0
 41
1.0
 10
-587.3442461693046
 20
-542.98419030455125
 30
0.0
 41
0.9996439535126424
 10
-587.60542811711321
 20
-542.49564975675082
 30
0.0
 41
1.0
 10
-587.78488625736918
 20
-542.15997350162081
 30
0.0
 41
1.0
 10
-587.96434439762538
 20
-541.8242972464908
 30
0.0
 41
1.0
 10
-588.3741935597518
 20
-541.05767483686168
 30
0.0
 41
0.9995179643604023
 10
-588.73567486654315
 20
-540.26709434160239
 30
0.0
 41
1.0
 10
-588.82226388506979
 20
-540.07771915714693
 30
0.0
 41
1.0
 10
-588.90885290359643
 20
-539.88834397269147
 30
0.0
 41
1.0
 10
-589.09715617333268
 20
-539.4765138463473
 30
0.0
 41
0.9999373179635296
 10
-589.276190751689
 20
-539.06057058806573
 30
0.0
 41
1.0
 10
-589.45522533004373
 20
-538.64462732978802
 30
0.0
 41
0.9999089733469723
 10
-589.62297159475133
 20
-538.22400473763446
 30
0.0
 41
1.0
 10
-589.69520812519022
 20
-538.04287213993132
 30
0.0
 41
1.0
 10
-589.76744465562933
 20
-537.86173954222829
 30
0.0
 41
1.0
 10
-589.93442600650337
 20
-537.44303496619295
 30
0.0
 41
0.9996472084018074
 10
-590.07893762395202
 20
-537.01605406971589
 30
0.0
 41
1.0
 10
-590.22344924139998
 20
-536.5890731732411
 30
0.0
 41
1.0
 10
-590.30685111600314
 20
-536.34560679539823
 30
0.0
 41
1.0
 10
-590.39025299060677
 20
-536.10214041755387
 30
0.0
 41
0.9999308044948777
 10
-590.46790401458861
 20
-535.85677931977887
 30
0.0
 41
1.0
 10
-590.52485850662151
 20
-535.67681496165721
 30
0.0
 41
1.0
 10
-590.58181299865441
 20
-535.49685060353568
 30
0.0
 41
1.0
 10
-590.7733730067016
 20
-534.89156078951885
 30
0.0
 41
0.9997960217129818
 10
-590.94033176001335
 20
-534.2790285288761
 30
0.0
 41
1.0
 10
-590.9640238871325
 20
-534.19210770624272
 30
0.0
 41
1.0
 10
-590.98771601425142
 20
-534.10518688360935
 30
0.0
 41
1.0
 10
-591.11543539551508
 20
-533.63661461781578
 30
0.0
 41
0.9999597040314325
 10
-591.2347215859063
 20
-533.16582484158516
 30
0.0
 41
1.0
 10
-591.24867841324567
 20
-533.10280354467693
 30
0.0
 41
1.0
 10
-591.26263524058481
 20
-533.03978224776881
 30
0.0
 41
1.0
 10
-591.35538834573708
 20
-532.62096063187857
 30
0.0
 41
0.9999798539625264
 10
-591.44281708306357
 20
-532.20099527575769
 30
0.0
 41
1.0
 10
-591.45493200302235
 20
-532.142801061471
 30
0.0
 41
1.0
 10
-591.4670469229809
 20
-532.08460684718432
 30
0.0
 41
1.0
 10
-591.53024582039075
 20
-531.78102991963419
 30
0.0
 41
0.9999599734627082
 10
-591.58800252100536
 20
-531.47637074102636
 30
0.0
 41
1.0
 10
-591.58890549242574
 20
-531.47160768274409
 30
0.0
 41
1.0
 10
-591.58980846384611
 20
-531.46684462446171
 30
0.0
 41
1.0
 10
-591.64575922161976
 20
-531.17171156241932
 30
0.0
 41
0.9999334687398098
 10
-591.6948867754154
 20
-530.87536633288937
 30
0.0
 41
1.0
 10
-591.69651975114948
 20
-530.86547617614542
 30
0.0
 41
1.0
 10
-591.69815272688356
 20
-530.85558601940147
 30
0.0
 41
1.0
  0
SPLINE
  5
173
100
AcDbEntity
  8
ADF70-2005
370
              15
390
0
  6
Continuous
 62
              18
100
AcDbSpline
210
0.0
220
0.0
230
1.0
 70
              12
 71
               2
 72
              76
 73
              73
 74
               0
 42
0.000001
 43
0.000001
 40
0.0
 40
0.0
 40
0.0
 40
1.0
 40
1.0
 40
2.0
 40
2.0
 40
3.0
 40
3.0
 40
4.0
 40
4.0
 40
5.0
 40
5.0
 40
6.0
 40
6.0
 40
7.0
 40
7.0
 40
8.0
 40
8.0
 40
9.0
 40
9.0
 40
10.0
 40
10.0
 40
11.0
 40
11.0
 40
12.0
 40
12.0
 40
13.0
 40
13.0
 40
14.0
 40
14.0
 40
15.0
 40
15.0
 40
16.0
 40
16.0
 40
17.0
 40
17.0
 40
18.0
 40
18.0
 40
19.0
 40
19.0
 40
20.0
 40
20.0
 40
21.0
 40
21.0
 40
22.0
 40
22.0
 40
23.0
 40
23.0
 40
24.0
 40
24.0
 40
25.0
 40
25.0
 40
26.0
 40
26.0
 40
27.0
 40
27.0
 40
28.0
 40
28.0
 40
29.0
 40
29.0
 40
30.0
 40
30.0
 40
31.0
 40
31.0
 40
32.0
 40
32.0
 40
33.0
 40
33.0
 40
34.0
 40
34.0
 40
35.0
 40
35.0
 40
36.0
 40
36.0
 40
36.0
 10
-554.51644976686066
 20
-561.922764671609
 30
0.0
 41
1.0
 10
-554.3994003465491
 20
-561.92717029564142
 30
0.0
 41
0.9999962089202119
 10
-554.28237696355131
 20
-561.93222045804657
 30
0.0
 41
1.0
 10
-554.17773779827598
 20
-561.93673617759794
 30
0.0
 41
1.0
 10
-554.07309863300065
 20
-561.94125189714919
 30
0.0
 41
1.0
 10
-553.74679691941878
 20
-561.95533349865832
 30
0.0
 41
0.999982911437747
 10
-553.42068215174345
 20
-561.97322925457763
 30
0.0
 41
1.0
 10
-553.28399640899079
 20
-561.98072997190911
 30
0.0
 41
1.0
 10
-553.14731066623835
 20
-561.98823068924059
 30
0.0
 41
1.0
 10
-552.54782441302723
 20
-562.02112787982458
 30
0.0
 41
0.9999939197135963
 10
-551.94858217654928
 20
-562.05820529774451
 30
0.0
 41
1.0
 10
-551.88707165759843
 20
-562.0620111897174
 30
0.0
 41
1.0
 10
-551.8255611386478
 20
-562.06581708169028
 30
0.0
 41
1.0
 10
-551.10329786425154
 20
-562.1105062835569
 30
0.0
 41
0.9999969290952711
 10
-550.38126496438736
 20
-562.15877484300745
 30
0.0
 41
1.0
 10
-550.07900479232262
 20
-562.17898121184135
 30
0.0
 41
1.0
 10
-549.77674462025789
 20
-562.19918758067524
 30
0.0
 41
1.0
 10
-548.45019137629106
 20
-562.28786887779154
 30
0.0
 41
0.9999959334088002
 10
-547.12416552365107
 20
-562.38411501940948
 30
0.0
 41
1.0
 10
-546.76571815850593
 20
-562.4101319901946
 30
0.0
 41
1.0
 10
-546.40727079336102
 20
-562.43614896097961
 30
0.0
 41
1.0
 10
-544.36435021044326
 20
-562.58442904416677
 30
0.0
 41
0.9999986729537139
 10
-542.32192361051307
 20
-562.73936475689311
 30
0.0
 41
1.0
 10
-542.17182537059398
 20
-562.75075100586855
 30
0.0
 41
1.0
 10
-542.02172713067466
 20
-562.76213725484399
 30
0.0
 41
1.0
 10
-539.67910405070529
 20
-562.93984546553668
 30
0.0
 41
0.9999994832746654
 10
-537.33684712794934
 20
-563.12231630905967
 30
0.0
 41
1.0
 10
-537.22935413325808
 20
-563.13069042772429
 30
0.0
 41
1.0
 10
-537.12186113856683
 20
-563.13906454638879
 30
0.0
 41
1.0
 10
-534.56461822656524
 20
-563.33828362722988
 30
0.0
 41
0.9999997982021421
 10
-532.0076304965894
 20
-563.54075166107373
 30
0.0
 41
1.0
 10
-531.94273356497797
 20
-563.54589034593789
 30
0.0
 41
1.0
 10
-531.87783663336677
 20
-563.55102903080206
 30
0.0
 41
1.0
 10
-529.19105504037111
 20
-563.76377443435854
 30
0.0
 41
0.9999999142005036
 10
-526.50445070768365
 20
-563.97874674601655
 30
0.0
 41
1.0
 10
-525.81987416221
 20
-564.03352407243449
 30
0.0
 41
1.0
 10
-525.13529761673658
 20
-564.08830139885242
 30
0.0
 41
1.0
 10
-521.07954019297767
 20
-564.41282836335631
 30
0.0
 41
1.0
 10
-517.14852920968087
 20
-564.727634578476
 30
0.0
 41
1.0
 10
-516.3600186073877
 20
-564.7907806849978
 30
0.0
 41
1.0
 10
-515.57150800509476
 20
-564.8539267915196
 30
0.0
 41
1.0
 10
-513.21751822720535
 20
-565.04244079353009
 30
0.0
 41
0.9999999314901582
 10
-510.8633893548988
 20
-565.22920980479876
 30
0.0
 41
1.0
 10
-510.71533860362933
 20
-565.24095567511085
 30
0.0
 41
1.0
 10
-510.5672878523601
 20
-565.25270154542295
 30
0.0
 41
1.0
 10
-508.50926048320275
 20
-565.41597881601831
 30
0.0
 41
0.9999997403320277
 10
-506.45099990430458
 20
-565.57628947343824
 30
0.0
 41
1.0
 10
-506.09179621501517
 20
-565.60426658195797
 30
0.0
 41
1.0
 10
-505.73259252572575
 20
-565.63224369047771
 30
0.0
 41
1.0
 10
-504.39273932520882
 20
-565.73660013087363
 30
0.0
 41
0.9999988946679064
 10
-503.05258172773324
 20
-565.83697183829599
 30
0.0
 41
1.0
 10
-502.74883701492536
 20
-565.85972093549356
 30
0.0
 41
1.0
 10
-502.44509230211725
 20
-565.88247003269123
 30
0.0
 41
1.0
 10
-501.71242413027949
 20
-565.93734354571654
 30
0.0
 41
0.9999992059683143
 10
-500.97961998329538
 20
-565.99037028065504
 30
0.0
 41
1.0
 10
-500.91862810554017
 20
-565.99478373839599
 30
0.0
 41
1.0
 10
-500.85763622778495
 20
-565.99919719613695
 30
0.0
 41
1.0
 10
-500.24681583630286
 20
-566.043397015594
 30
0.0
 41
0.9999982868032307
 10
-499.63583599800108
 20
-566.08533520605886
 30
0.0
 41
1.0
 10
-499.56951171820265
 20
-566.08988776263152
 30
0.0
 41
1.0
 10
-499.50318743840444
 20
-566.09444031920418
 30
0.0
 41
1.0
 10
-499.02485615969431
 20
-566.12727339652429
 30
0.0
 41
0.9999954651574323
 10
-498.54633579904089
 20
-566.15722481785974
 30
0.0
 41
1.0
 10
-498.446876592742
 20
-566.16345014250317
 30
0.0
 41
1.0
 10
-498.34741738644311
 20
-566.16967546714659
 30
0.0
 41
1.0
 10
-498.0678154384093
 20
-566.18717623919395
 30
0.0
 41
0.9999804984322886
 10
-497.78801671282054
 20
-566.20118336364828
 30
0.0
 41
1.0
 10
-497.72301374508311
 20
-566.20443750519973
 30
0.0
 41
1.0
 10
-497.65801077734568
 20
-566.2076916467513
 30
0.0
 41
1.0
 10
-497.50821798724451
 20
-566.21519048810194
 30
0.0
 41
0.9999812180327373
 10
-497.35834453287634
 20
-566.2208526664599
 30
0.0
 41
1.0
 10
-497.29286847355024
 20
-566.22332633417921
 30
0.0
 41
0.9999842850312798
 10
-497.2273687945999
 20
-566.22506571172335
 30
0.0
 41
1.0
  0
LWPOLYLINE
  5
174
100
AcDbEntity
  8
ADF70-2005
370
              15
390
0
  6
Continuous
 62
              18
100
AcDbPolyline
 90
       47
 70
             128
 10
-429.9134415122262
 20
-570.89298679914305
 10
-429.91417838416987
 20
-570.87759277495684
 42
0.0069283622251015
 10
-429.92262291876818
 20
-570.74087407614195
 42
0.0062413147536699
 10
-429.93466535567495
 20
-570.60442272369551
 10
-429.93488621186361
 20
-570.60223274713132
 42
0.0057506028422504
 10
-429.95068966296981
 20
-570.46173353346592
 10
-429.95094427139179
 20
-570.4596826032564
 42
0.005333605700815
 10
-429.97041128299952
 20
-570.31547095855979
 10
-429.970689288823
 20
-570.31356506953512
 42
0.0049803054010294
 10
-429.99372077854719
 20
-570.16597872479633
 10
-429.99401285818476
 20
-570.16422210479243
 42
0.0047420253089143
 10
-430.02052710131989
 20
-570.01360340149279
 10
-430.02816041162305
 20
-569.97252656622754
 42
0.0086426274817563
 10
-430.07537515734327
 20
-569.74082184032886
 10
-430.0847778303505
 20
-569.6984367484489
 42
0.0079139417121725
 10
-430.1597810267466
 20
-569.38396523486756
 10
-430.16085700078838
 20
-569.37975065789351
 42
0.0074470991629257
 10
-430.24776252417246
 20
-569.0593316664748
 10
-430.24861109928202
 20
-569.05637784302735
 42
0.0071754581469633
 10
-430.34663098218232
 20
-568.73275241217095
 10
-430.34717264458436
 20
-568.73105237133882
 42
0.0070845258223565
 10
-430.45551260083539
 20
-568.40696875786182
 10
-430.4559411446179
 20
-568.40574478271344
 42
0.007157929914065
 10
-430.57324352789556
 20
-568.08548899520895
 10
-430.57399347787737
 20
-568.08352885440672
 42
0.0074034193235708
 10
-430.69901283851641
 20
-567.77072396199856
 10
-430.71589073070925
 20
-567.73024427884059
 42
0.0078761320138736
 10
-430.8153846769651
 20
-567.50181734785167
 10
-430.81672124870317
 20
-567.49887616043338
 42
0.0041082856754453
 10
-430.91894931978891
 20
-567.2787389348307
 10
-430.91979332841197
 20
-567.27695986593869
 42
0.0089685572116734
 10
-431.02597806499421
 20
-567.06312555752879
 10
-431.04533663193445
 20
-567.02583571385242
 42
0.0048894701629551
 10
-431.11797633474043
 20
-566.88919625007964
 10
-431.11877925143233
 20
-566.88772090859641
 42
0.0051731653495884
 10
-431.19251732371049
 20
-566.75550542298674
 10
-431.19342037792933
 20
-566.75392487427553
 42
0.0055452437859014
 10
-431.26813399173307
 20
-566.6264620608755
 10
-431.26914156077248
 20
-566.62478601684484
 42
0.0059802858920869
 10
-431.34471746942882
 20
-566.50240789079749
 10
-431.34583395190532
 20
-566.50064745013094
 42
0.0064917620808404
 10
-431.42215930674365
 20
-566.38368518268237
 10
-431.42796015904446
 20
-566.37504312803048
 42
0.0071076743995549
 10
-431.49559173065245
 20
-566.27731743869072
 10
-431.50101536706734
 20
-566.26971373558513
 42
0.0058074730465441
 10
-431.56012827562336
 20
-566.18884352380996
 10
-431.57003491915111
 20
-566.17567279695982
  0
LWPOLYLINE
  5
175
100
AcDbEntity
  8
ADF70-2005
370
              15
390
0
  6
Continuous
 62
              18
100
AcDbPolyline
 90
       47
 70
             128
 10
-349.55309829028556
 20
-566.17567279695982
 10
-349.56230482833007
 20
-566.18795892301671
 42
0.0075943182004402
 10
-349.64244453214201
 20
-566.29836053531392
 42
0.0068134551171671
 10
-349.71937191183326
 20
-566.41102776180446
 10
-349.72058338483544
 20
-566.41285505546887
 42
0.0062491462810017
 10
-349.79691942419288
 20
-566.531179307863
 10
-349.79801765856155
 20
-566.53292924929588
 42
0.0057665746280436
 10
-349.87364513074431
 20
-566.6565797438966
 10
-349.87463396906605
 20
-566.65823918636966
 42
0.0053548026867808
 10
-349.9494352383017
 20
-566.78688193288872
 10
-349.95031904711141
 20
-566.78844006617328
 42
0.005003270384405
 10
-350.0241762841207
 20
-566.92173926826251
 10
-350.02495955777749
 20
-566.92318692154265
 42
0.0047632272796345
 10
-350.09773831844302
 20
-567.06081384343088
 10
-350.11709266353455
 20
-567.09827273085784
 42
0.0086783858386419
 10
-350.2235355138024
 20
-567.31335841028476
 10
-350.24218951933335
 20
-567.35275768968222
 42
0.0079304830063587
 10
-350.3774819782667
 20
-567.65063557536848
 10
-350.37899688351308
 20
-567.65411659214215
 42
0.0074392730736394
 10
-350.50799790747601
 20
-567.96302196936028
 10
-350.50892982686764
 20
-567.96535036749958
 42
0.0071410907080318
 10
-350.63066754203669
 20
-568.28257076372427
 10
-350.63108271963483
 20
-568.28370060093641
 42
0.0070207267521638
 10
-350.74454955747956
 20
-568.60640686043757
 10
-350.74500517635931
 20
-568.60776327545943
 42
0.0070701251684765
 10
-350.84842364704195
 20
-568.93070656113298
 10
-350.84922322076432
 20
-568.93333055420976
 42
0.0072916693317689
 10
-350.94180149293288
 20
-569.2538384619794
 10
-350.95334773829336
 20
-569.29611474687897
 42
0.0077463551210803
 10
-351.01446779767252
 20
-569.53436722912409
 10
-351.01534368609543
 20
-569.53801544289979
 42
0.0040366992802419
 10
-351.06914478751605
 20
-569.77035283457747
 10
-351.06963221197373
 20
-569.77253786974825
 42
0.0088300812684974
 10
-351.11653412600458
 20
-570.00176791589058
 10
-351.12413320614473
 20
-570.04256360441661
 42
0.0048261459397438
 10
-351.15035288096215
 20
-570.19128371937313
 10
-351.15065995175178
 20
-570.19312946819934
 42
0.0051169009433224
 10
-351.17334076299585
 20
-570.33864328834659
 10
-351.17363096023053
 20
-570.3406391283346
 42
0.0055028877407882
 10
-351.1926797081735
 20
-570.48260303809388
 10
-351.19294310288478
 20
-570.48474458960243
 42
0.0059614992611853
 10
-351.20825628795478
 20
-570.62281763451142
 10
-351.20928199204775
 20
-570.63319376621553
 42
0.0065197923549113
 10
-351.21936349116049
 20
-570.75082859743952
 10
-351.22003804667747
 20
-570.76012250513213
 42
0.00532667372344
 10
-351.22617915040109
 20
-570.85936641029298
 10
-351.22698390396363
 20
-570.87569459239012
  0
LINE
  5
176
100
AcDbEntity
  8
ADF70-2005
370
              15
390
0
  6
Continuous
 62
              18
100
AcDbLine
 10
-353.64789284936569
 20
-602.37824636163191
 30
0.0
 11
-351.21936349116095
 21
-570.75082859743952
 31
0.0
  0
LINE
  5
177
100
AcDbEntity
  8
ADF70-2005
370
              15
390
0
  6
Continuous
 62
              18
100
AcDbLine
 10
-429.91417838417055
 20
-570.87759277494024
 30
0.0
 11
-427.46659425669532
 21
-602.39553856838484
 31
0.0
  0
LINE
  5
178
100
AcDbEntity
  8
ADF70-2005
370
              15
390
0
  6
Continuous
 62
              18
100
AcDbLine
 10
-425.47453203876466
 20
-604.22505404283856
 30
0.0
 11
-355.63995506729634
 21
-604.22505404283856
 31
0.0
  0
LWPOLYLINE
  5
179
100
AcDbEntity
  8
ADF70-2005
370
              15
390
0
  6
Continuous
 62
              18
100
AcDbPolyline
 90
       45
 70
             128
 10
-427.47524036007144
 20
-602.37824636163191
 10
-427.47424525423264
 20
-602.39317380262844
 42
0.013087883743721
 10
-427.46606680066407
 20
-602.48110903402903
 42
0.0103202260810242
 10
-427.45378061956592
 20
-602.56857653210579
 10
-427.4514692291317
 20
-602.58288174174004
 42
0.0203831777354242
 10
-427.42831100691797
 20
-602.69656825643779
 10
-427.42819976802582
 20
-602.69701946782709
 42
0.0100849130468024
 10
-427.39838362950286
 20
-602.80825764352471
 10
-427.39832803764784
 20
-602.80844948684501
 42
0.0198714780767862
 10
-427.36205302896997
 20
-602.91726028280982
 10
-427.36194968380732
 20
-602.91753357586174
 42
0.009822528458467
 10
-427.31947286457353
 20
-603.02352100008466
 10
-427.31942341840204
 20
-603.02363768560588
 42
0.0193599481028878
 10
-427.27097186027731
 20
-603.12668045601777
 10
-427.27089224517954
 20
-603.12683403923711
 42
0.009577267122867
 10
-427.21669642206552
 20
-603.22665470951085
 10
-427.21665800714209
 20
-603.22672234193817
 42
0.018920182105856
 10
-427.15697815316571
 20
-603.32311044026017
 10
-427.1569236187612
 20
-603.32319149801924
 42
0.0093791250061346
 10
-427.09196421908882
 20
-603.41593973284353
 42
0.0186123489994935
 10
-427.02195360865608
 20
-603.50486230885258
 10
-426.99752832928732
 20
-603.53361609400918
 42
0.0184804098257112
 10
-426.92125101615898
 20
-603.61696286932488
 42
0.0092181208565108
 10
-426.8404496737819
 20
-603.69598481542005
 42
0.0184371826349618
 10
-426.755473510917
 20
-603.77035732703598
 42
0.0092401386131557
 10
-426.66646776535504
 20
-603.83994893334648
 42
0.0185744721801195
 10
-426.57376432615115
 20
-603.90446179026492
 42
0.0093456526129676
 10
-426.47755240518393
 20
-603.96373347917802
 10
-426.477501501809
 20
-603.96376354066217
 42
0.0188776718396997
 10
-426.37802147574644
 20
-604.01755538531086
 42
0.0095306034440229
 10
-426.2755662381777
 20
-604.06565264830442
 10
-426.27544875618946
 20
-604.0657050909615
 42
0.0193066665309073
 10
-426.17021220721313
 20
-604.10788909223027
 10
-426.17014291140413
 20
-604.10791380994306
 42
0.0097754290851302
 10
-426.06243318089457
 20
-604.14397617857435
 10
-426.06220748848091
 20
-604.14404686714386
 42
0.0198279974986435
 10
-425.95216173827828
 20
-604.17377890391322
 10
-425.93361266504928
 20
-604.17800925761799
 42
0.0100579241310367
 10
-425.85863323975445
 20
-604.19352963877145
 42
0.0101338190645292
 10
-425.7830885972553
 20
-604.20601032385764
 10
-425.76376610316925
 20
-604.20880157278953
 42
0.0205433858695778
 10
-425.64883813911786
 20
-604.2206094743068
 10
-425.62942023967594
 20
-604.22180131458742
 42
0.0182241677746537
 10
-425.49298523258994
 20
-604.22519340965073
 10
-425.48317814214079
 20
-604.22505404283856
  0
LWPOLYLINE
  5
17A
100
AcDbEntity
  8
ADF70-2005
370
              15
390
0
  6
Continuous
 62
              18
100
AcDbPolyline
 90
       46
 70
             128
 10
-355.63995506729634
 20
-604.22505404283856
 10
-355.61586102993476
 20
-604.22534580342347
 42
0.0186310424895119
 10
-355.51094194841312
 20
-604.22270662421397
 42
0.0104759267509505
 10
-355.40630443678731
 20
-604.21396399331127
 10
-355.4017813621175
 20
-604.21349047700301
 42
0.0205447252299019
 10
-355.28966510493433
 20
-604.19707374562745
 10
-355.28943850556811
 20
-604.19703099349158
 42
0.0101165281611424
 10
-355.17891926259153
 20
-604.1738546547615
 10
-355.17883229638937
 20
-604.17383457260348
 42
0.019817218895659
 10
-355.07013287252835
 20
-604.14415209408287
 10
-355.07004688105349
 20
-604.14412490854261
 42
0.009751700735389
 10
-354.96339889563251
 20
-604.10810667164981
 42
0.0191559558573817
 10
-354.85906686604062
 20
-604.06600961165736
 10
-354.84197477640282
 20
-604.05833941884703
 42
0.0187573442034875
 10
-354.70757151380258
 20
-603.99186161291618
 42
0.0184431120696575
 10
-354.57845112827454
 20
-603.91556029337028
 10
-354.56267309958344
 20
-603.90543395644033
 42
0.0181878530398416
 10
-354.47022799861952
 20
-603.84123966206914
 42
0.0090423230882859
 10
-354.38132926767639
 20
-603.7720429139921
 42
0.0180035865373596
 10
-354.29630273814814
 20
-603.69814502316228
 10
-354.26881355528383
 20
-603.67245954203133
 42
0.0179907468035461
 10
-354.18922948243039
 20
-603.59254526075279
 42
0.0090167381486439
 10
-354.11403914233279
 20
-603.50841044506421
 10
-354.11400139168859
 20
-603.50836663883206
 42
0.0181511874809957
 10
-354.0434420013853
 20
-603.42021167714552
 42
0.0091410138145695
 10
-353.9777525481561
 20
-603.32827919863473
 10
-353.97771105033257
 20
-603.32821881865243
 42
0.0185030766314811
 10
-353.91713758988567
 20
-603.23269598384502
 42
0.0093571275194537
 10
-353.86193185637239
 20
-603.13387136481697
 10
-353.86187671292555
 20
-603.13376816197206
 42
0.0190086166600404
 10
-353.81228754808615
 20
-603.03181798832588
 10
-353.81226238487875
 20
-603.03176082926564
 42
0.0096454192466801
 10
-353.76852191584112
 20
-602.92696654437702
 10
-353.76844708997578
 20
-602.92677707384883
 42
0.0196289593477035
 10
-353.73080040684283
 20
-602.81928147898111
 10
-353.72522730712512
 20
-602.80111174257308
 42
0.0099875253640521
 10
-353.70427850798637
 20
-602.72760742433729
 42
0.010086392641526
 10
-353.6862968075568
 20
-602.65332183313592
 10
-353.68626840741399
 20
-602.65319321430115
 42
0.0101945363600964
 10
-353.67126226062123
 20
-602.57798161431651
 10
-353.67123502868685
 20
-602.57782897068944
 42
0.0102982024126533
 10
-353.65927499124177
 20
-602.50175973032458
 10
-353.65859366989071
 20
-602.49675685766601
 42
0.0130091090712194
 10
-353.64909065177096
 20
-602.41018821863383
 10
-353.6486777858554
 20
-602.4052444973579
 10
-353.64789284936569
 20
-602.39553856838484
  0
LINE
  5
17B
100
AcDbEntity
  8
ADF70-2005
370
              15
390
0
  6
Continuous
 62
              18
100
AcDbLine
 10
-497.2273687945999
 20
-566.22505404283856
 30
0.0
 11
-283.88711831146065
 21
-566.22506571172335
 31
0.0
  0
LINE
  5
17C
100
AcDbEntity
  8
ADF70-2005
370
              15
390
0
  6
STYLE_12
 62
               7
100
AcDbLine
 10
-290.55724355303028
 20
-444.21546092695064
 30
0.0
 11
-290.55724355303028
 21
-484.18514343664071
 31
0.0
  0
LINE
  5
17D
100
AcDbEntity
  8
ADF70-2005
370
              15
390
0
  6
STYLE_12
 62
               7
100
AcDbLine
 10
-310.54208480787565
 20
-464.20030218179568
 30
0.0
 11
-270.5724022981849
 21
-464.20030218179568
 31
0.0
  0
CIRCLE
  5
17E
100
AcDbEntity
  8
ADF70-2005
370
              15
390
0
  6
STYLE_12
 62
               7
100
AcDbCircle
 10
-290.55724355303028
 20
-464.22505404283845
 30
0.0
 40
10.0
  0
LINE
  5
17F
100
AcDbEntity
  8
ADF70-2005
370
              15
390
0
  6
STYLE_12
 62
               7
100
AcDbLine
 10
-290.55724355303028
 20
-444.21546092695064
 30
0.0
 11
-290.55724355303028
 21
-484.18514343664071
 31
0.0
  0
LINE
  5
180
100
AcDbEntity
  8
ADF70-2005
370
              15
390
0
  6
STYLE_12
 62
               7
100
AcDbLine
 10
-490.55724355303028
 20
-444.21546092695064
 30
0.0
 11
-490.55724355303028
 21
-484.18514343664071
 31
0.0
  0
LINE
  5
181
100
AcDbEntity
  8
ADF70-2005
370
              15
390
0
  6
STYLE_12
 62
               7
100
AcDbLine
 10
-510.54208480787565
 20
-464.20030218179568
 30
0.0
 11
-470.5724022981849
 21
-464.20030218179568
 31
0.0
  0
CIRCLE
  5
182
100
AcDbEntity
  8
ADF70-2005
370
              15
390
0
  6
STYLE_12
 62
               7
100
AcDbCircle
 10
-490.55724355303028
 20
-464.22505404283845
 30
0.0
 40
10.0
  0
LINE
  5
183
100
AcDbEntity
  8
ADF70-2005
370
              15
390
0
  6
STYLE_12
 62
               7
100
AcDbLine
 10
-490.55724355303028
 20
-444.21546092695064
 30
0.0
 11
-490.55724355303028
 21
-484.18514343664071
 31
0.0
  0
ARC
  5
184
100
AcDbEntity
  8
ADF70-2005
370
              15
390
0
  6
Continuous
 62
              18
100
AcDbCircle
 10
713.70723105864886
 20
-425.72505404283834
 30
0.0
 40
1.5
100
AcDbArc
 50
0.0
 51
90.0
  0
LWPOLYLINE
  5
185
100
AcDbEntity
  8
ADF70-2005
370
              15
390
0
  6
STYLE_12
 62
              18
100
AcDbPolyline
 90
        4
 70
             128
 10
527.17286759632316
 20
-604.22505404283834
 10
517.16759676911215
 20
-604.22505404283834
 10
517.81778374301985
 20
-566.30474160712515
 10
532.11236965886519
 20
-554.36520241304777
  0
LWPOLYLINE
  5
186
100
AcDbEntity
  8
ADF70-2005
370
              15
390
0
  6
Continuous
 62
              18
100
AcDbPolyline
 90
        9
 70
             128
 10
530.1678778059204
 20
-601.4755931691318
 10
530.05720768270203
 20
-602.02548534387302
 10
529.86353496706988
 20
-602.54425154645924
 10
529.5799427763227
 20
-603.03189177689023
 10
529.19605578640903
 20
-603.44344629760849
 10
528.76720905893762
 20
-603.77199822591297
 10
528.24152597365037
 20
-604.03483976855659
 10
527.71584288836311
 20
-604.16971898122915
 10
527.17286759632316
 20
-604.22505404283834
  0
LINE
  5
187
100
AcDbEntity
  8
ADF70-2005
370
              15
390
0
  6
Continuous
 62
               7
100
AcDbLine
 10
473.28532926927795
 20
-604.22505404283834
 30
0.0
 11
517.16759676911215
 21
-604.22505404283834
 31
0.0
  0
LINE
  5
188
100
AcDbEntity
  8
ADF70-2005
370
              15
390
0
  6
STYLE_12
 62
              18
100
AcDbLine
 10
-413.15721038023185
 20
-566.30474160712515
 30
0.0
 11
-367.95727672582871
 21
-566.30474160712515
 31
0.0
  0
LWPOLYLINE
  5
189
100
AcDbEntity
  8
ADF70-2005
370
              15
390
0
  6
STYLE_12
 62
              18
100
AcDbPolyline
 90
        4
 70
             128
 10
-358.60219287252585
 20
-604.22505404283834
 10
-368.60746369973685
 20
-604.22505404283834
 10
-367.95727672582871
 20
-566.30474160712515
 10
-353.66269080998336
 20
-554.36520241304777
  0
LINE
  5
18A
100
AcDbEntity
  8
ADF70-2005
370
              15
390
0
  6
Continuous
 62
              18
100
AcDbLine
 10
-189.41960033064515
 20
-530.87536633288937
 30
0.0
 11
-179.16886899576002
 21
-469.22505404283834
 31
0.0
  0
SPLINE
  5
18B
100
AcDbEntity
  8
ADF70-2005
370
              15
390
0
  6
Continuous
 62
              18
100
AcDbSpline
210
0.0
220
0.0
230
1.0
 70
              12
 71
               2
 72
             128
 73
             125
 74
               0
 42
0.000001
 43
0.000001
 40
0.0
 40
0.0
 40
0.0
 40
1.0
 40
1.0
 40
2.0
 40
2.0
 40
3.0
 40
3.0
 40
4.0
 40
4.0
 40
5.0
 40
5.0
 40
6.0
 40
6.0
 40
7.0
 40
7.0
 40
8.0
 40
8.0
 40
9.0
 40
9.0
 40
10.0
 40
10.0
 40
11.0
 40
11.0
 40
12.0
 40
12.0
 40
13.0
 40
13.0
 40
14.0
 40
14.0
 40
15.0
 40
15.0
 40
16.0
 40
16.0
 40
17.0
 40
17.0
 40
18.0
 40
18.0
 40
19.0
 40
19.0
 40
20.0
 40
20.0
 40
21.0
 40
21.0
 40
22.0
 40
22.0
 40
23.0
 40
23.0
 40
24.0
 40
24.0
 40
25.0
 40
25.0
 40
26.0
 40
26.0
 40
27.0
 40
27.0
 40
28.0
 40
28.0
 40
29.0
 40
29.0
 40
30.0
 40
30.0
 40
31.0
 40
31.0
 40
32.0
 40
32.0
 40
33.0
 40
33.0
 40
34.0
 40
34.0
 40
35.0
 40
35.0
 40
36.0
 40
36.0
 40
37.0
 40
37.0
 40
38.0
 40
38.0
 40
39.0
 40
39.0
 40
40.0
 40
40.0
 40
41.0
 40
41.0
 40
42.0
 40
42.0
 40
43.0
 40
43.0
 40
44.0
 40
44.0
 40
45.0
 40
45.0
 40
46.0
 40
46.0
 40
47.0
 40
47.0
 40
48.0
 40
48.0
 40
49.0
 40
49.0
 40
50.0
 40
50.0
 40
51.0
 40
51.0
 40
52.0
 40
52.0
 40
53.0
 40
53.0
 40
54.0
 40
54.0
 40
55.0
 40
55.0
 40
56.0
 40
56.0
 40
57.0
 40
57.0
 40
58.0
 40
58.0
 40
59.0
 40
59.0
 40
60.0
 40
60.0
 40
61.0
 40
61.0
 40
62.0
 40
62.0
 40
62.0
 10
-226.59803733919989
 20
-561.922764671609
 30
0.0
 41
1.0
 10
-226.01124358897277
 20
-561.92239400824451
 30
0.0
 41
0.9998725369024921
 10
-225.42476083231372
 20
-561.90328854204847
 30
0.0
 41
1.0
 10
-225.39931506449443
 20
-561.90245961186872
 30
0.0
 41
1.0
 10
-225.37386929667502
 20
-561.90163068168897
 30
0.0
 41
1.0
 10
-224.77496870654159
 20
-561.88212068783196
 30
0.0
 41
0.9998140996023885
 10
-224.17726563235055
 20
-561.83953440101254
 30
0.0
 41
1.0
 10
-224.14562773250486
 20
-561.8372802036771
 30
0.0
 41
1.0
 10
-224.11398983265929
 20
-561.83502600634176
 30
0.0
 41
1.0
 10
-223.57956255815634
 20
-561.7969481141929
 30
0.0
 41
0.9999197727536195
 10
-223.0462713526897
 20
-561.74534455061087
 30
0.0
 41
1.0
 10
-222.5129801472217
 20
-561.69374098702872
 30
0.0
 41
0.9998810735920455
 10
-221.98153408929102
 20
-561.62571507201221
 30
0.0
 41
1.0
 10
-221.94329108183945
 20
-561.62081990807962
 30
0.0
 41
1.0
 10
-221.90504807438788
 20
-561.61592474414715
 30
0.0
 41
1.0
 10
-221.43216948988606
 20
-561.55539555605276
 30
0.0
 41
0.9998487034934787
 10
-220.96168249977018
 20
-561.47845447194368
 30
0.0
 41
1.0
 10
-220.94495392076556
 20
-561.47571876398308
 30
0.0
 41
1.0
 10
-220.92822534176094
 20
-561.47298305602249
 30
0.0
 41
1.0
 10
-220.49119550965315
 20
-561.40151338783437
 30
0.0
 41
0.9998971282447794
 10
-220.05639552458888
 20
-561.3175374352586
 30
0.0
 41
1.0
 10
-220.00402567010406
 20
-561.30897596585362
 30
0.0
 41
1.0
 10
-219.95165581561923
 20
-561.30041449644875
 30
0.0
 41
1.0
 10
-219.10349529900759
 20
-561.16175647677562
 30
0.0
 41
0.9995730723657641
 10
-218.2648819588037
 20
-560.97379378369476
 30
0.0
 41
1.0
 10
-217.4262686185989
 20
-560.78583109061378
 30
0.0
 41
0.9997213547971153
 10
-216.59746122986928
 20
-560.55849736951882
 30
0.0
 41
1.0
 10
-216.44340671489158
 20
-560.51624173012954
 30
0.0
 41
1.0
 10
-216.28935219991376
 20
-560.47398609074025
 30
0.0
 41
1.0
 10
-215.18958384744701
 20
-560.17233044033401
 30
0.0
 41
0.9994145378626941
 10
-214.11301969637429
 20
-559.7961706483112
 30
0.0
 41
1.0
 10
-213.96005776680659
 20
-559.74272457400502
 30
0.0
 41
1.0
 10
-213.80709583723876
 20
-559.68927849969884
 30
0.0
 41
1.0
 10
-213.03645554530203
 20
-559.42001085628851
 30
0.0
 41
0.9996830901416091
 10
-212.28034466600502
 20
-559.11229692817801
 30
0.0
 41
1.0
 10
-211.52423378670869
 20
-558.80458300006774
 30
0.0
 41
0.9998229504304709
 10
-210.78023660083625
 20
-558.46863700625738
 30
0.0
 41
1.0
 10
-210.74812563437399
 20
-558.45413755552659
 30
0.0
 41
1.0
 10
-210.71601466791162
 20
-558.43963810479579
 30
0.0
 41
1.0
 10
-209.90779554911512
 20
-558.07469320952407
 30
0.0
 41
0.999568332903816
 10
-209.12240610708147
 20
-557.66290886679803
 30
0.0
 41
1.0
 10
-209.03085147822458
 20
-557.61490623186353
 30
0.0
 41
1.0
 10
-208.93929684936779
 20
-557.56690359692902
 30
0.0
 41
1.0
 10
-207.97062317921473
 20
-557.05902224631234
 30
0.0
 41
0.9995839006294087
 10
-207.03284876695466
 20
-556.49612678775657
 30
0.0
 41
1.0
 10
-206.96644964485563
 20
-556.45627191253982
 30
0.0
 41
1.0
 10
-206.9000505227566
 20
-556.41641703732319
 30
0.0
 41
1.0
 10
-206.0948993842884
 20
-555.93313959117893
 30
0.0
 41
0.9995865614658425
 10
-205.31885887031376
 20
-555.40438013131234
 30
0.0
 41
1.0
 10
-205.30875299507818
 20
-555.3974944378017
 30
0.0
 41
1.0
 10
-205.2986471198426
 20
-555.39060874429106
 30
0.0
 41
1.0
 10
-204.54281835633867
 20
-554.8756206714454
 30
0.0
 41
0.9997739791815249
 10
-203.8095652628474
 20
-554.32896745797393
 30
0.0
 41
1.0
 10
-203.07631216935602
 20
-553.78231424450246
 30
0.0
 41
0.9996271181679123
 10
-202.37399537216288
 20
-553.19644655355705
 30
0.0
 41
1.0
 10
-202.29875631273671
 20
-553.13368266382645
 30
0.0
 41
1.0
 10
-202.22351725331043
 20
-553.07091877409584
 30
0.0
 41
1.0
 10
-201.4729726134575
 20
-552.44481975886595
 30
0.0
 41
0.9996519651217707
 10
-200.75649519136596
 20
-551.78000599778886
 30
0.0
 41
1.0
 10
-200.60126547143432
 20
-551.63596956236631
 30
0.0
 41
1.0
 10
-200.44603575150256
 20
-551.49193312694388
 30
0.0
 41
1.0
 10
-200.04001776927441
 20
-551.11519223671178
 30
0.0
 41
0.9997424917224541
 10
-199.65151193891688
 20
-550.72041695880841
 30
0.0
 41
1.0
 10
-199.2630061085606
 20
-550.32564168090641
 30
0.0
 41
0.9999775750801184
 10
-198.8798226002308
 20
-549.92569831090236
 30
0.0
 41
1.0
 10
-198.85923674009564
 20
-549.90421205667189
 30
0.0
 41
1.0
 10
-198.83865087996037
 20
-549.88272580244143
 30
0.0
 41
1.0
 10
-198.41429565136184
 20
-549.43980992397837
 30
0.0
 41
0.9994995812478937
 10
-198.0187962908127
 20
-548.9709473735021
 30
0.0
 41
1.0
 10
-197.84252714010029
 20
-548.76198116061482
 30
0.0
 41
1.0
 10
-197.66625798938787
 20
-548.55301494772755
 30
0.0
 41
1.0
 10
-196.96073301430533
 20
-547.71661855309742
 30
0.0
 41
0.9995593730308078
 10
-196.30608230517896
 20
-546.83983074042237
 30
0.0
 41
1.0
 10
-196.23432830238937
 20
-546.74372905706753
 30
0.0
 41
1.0
 10
-196.16257429959978
 20
-546.64762737371257
 30
0.0
 41
1.0
 10
-195.65143159605134
 20
-545.96304292774585
 30
0.0
 41
0.9995569353880355
 10
-195.18192931167823
 20
-545.24925701304915
 30
0.0
 41
1.0
 10
-195.04431531236855
 20
-545.04004198334292
 30
0.0
 41
1.0
 10
-194.90670131305899
 20
-544.83082695363669
 30
0.0
 41
1.0
 10
-194.71242702730558
 20
-544.53547109835324
 30
0.0
 41
0.999858286551609
 10
-194.52820589859471
 20
-544.23374248669779
 30
0.0
 41
1.0
 10
-194.34398476988463
 20
-543.93201387504359
 30
0.0
 41
1.0
 10
-194.05711285332018
 20
-543.45810208979719
 30
0.0
 41
1.0
 10
-193.77024093675584
 20
-542.98419030455102
 30
0.0
 41
0.9996439535126047
 10
-193.50905898894621
 20
-542.49564975674878
 30
0.0
 41
1.0
 10
-193.32960084869001
 20
-542.15997350161842
 30
0.0
 41
1.0
 10
-193.15014270843369
 20
-541.82429724648807
 30
0.0
 41
1.0
 10
-192.74029354630784
 20
-541.05767483685963
 30
0.0
 41
0.9995179643603814
 10
-192.3788122395174
 20
-540.26709434160239
 30
0.0
 41
1.0
 10
-192.29222322098849
 20
-540.07771915714181
 30
0.0
 41
1.0
 10
-192.20563420245946
 20
-539.88834397268135
 30
0.0
 41
1.0
 10
-192.01733093272594
 20
-539.47651384634275
 30
0.0
 41
0.9999373179637033
 10
-191.83829635437155
 20
-539.06057058806573
 30
0.0
 41
1.0
 10
-191.65926177601671
 20
-538.64462732978757
 30
0.0
 41
0.9999089733469482
 10
-191.49151551130888
 20
-538.22400473763332
 30
0.0
 41
1.0
 10
-191.41927898086851
 20
-538.04287213992689
 30
0.0
 41
1.0
 10
-191.34704245042815
 20
-537.86173954222045
 30
0.0
 41
1.0
 10
-191.18006109955547
 20
-537.44303496618818
 30
0.0
 41
0.9996472084018536
 10
-191.03554948210854
 20
-537.01605406971589
 30
0.0
 41
1.0
 10
-190.89103786466057
 20
-536.5890731732411
 30
0.0
 41
1.0
 10
-190.80763599005741
 20
-536.34560679539823
 30
0.0
 41
1.0
 10
-190.7242341154539
 20
-536.10214041755432
 30
0.0
 41
0.9999308044948719
 10
-190.64658309147148
 20
-535.85677931977796
 30
0.0
 41
1.0
 10
-190.58962859943881
 20
-535.67681496165676
 30
0.0
 41
1.0
 10
-190.53267410740614
 20
-535.49685060353568
 30
0.0
 41
1.0
 10
-190.34111409935758
 20
-534.89156078951476
 30
0.0
 41
0.9997960217127953
 10
-190.17415534604493
 20
-534.2790285288678
 30
0.0
 41
1.0
 10
-190.15046321892657
 20
-534.19210770623704
 30
0.0
 41
1.0
 10
-190.12677109180822
 20
-534.10518688360628
 30
0.0
 41
1.0
 10
-189.99905171054502
 20
-533.63661461781419
 30
0.0
 41
0.9999597040312211
 10
-189.87976552015425
 20
-533.16582484158516
 30
0.0
 41
1.0
 10
-189.86580869281693
 20
-533.10280354468603
 30
0.0
 41
1.0
 10
-189.85185186547972
 20
-533.039782247787
 30
0.0
 41
1.0
 10
-189.75909876032551
 20
-532.62096063188812
 30
0.0
 41
0.9999798539625318
 10
-189.67167002299698
 20
-532.20099527575769
 30
0.0
 41
1.0
 10
-189.65955510303695
 20
-532.14280106146418
 30
0.0
 41
1.0
 10
-189.64744018307692
 20
-532.08460684717068
 30
0.0
 41
1.0
 10
-189.58424128566821
 20
-531.78102991962635
 30
0.0
 41
0.9999599734634113
 10
-189.52648458505519
 20
-531.47637074102636
 30
0.0
 41
1.0
 10
-189.52558161363481
 20
-531.47160768274409
 30
0.0
 41
1.0
 10
-189.52467864221455
 20
-531.46684462446171
 30
0.0
 41
1.0
 10
-189.46872788444057
 20
-531.17171156241864
 30
0.0
 41
0.9999334687394504
 10
-189.41960033064515
 20
-530.87536633288937
 30
0.0
 41
1.0
 10
-189.41796735491107
 20
-530.86547617614542
 30
0.0
 41
1.0
 10
-189.41633437917699
 20
-530.85558601940147
 30
0.0
 41
1.0
  0
SPLINE
  5
18C
100
AcDbEntity
  8
ADF70-2005
370
              15
390
0
  6
Continuous
 62
              18
100
AcDbSpline
210
0.0
220
0.0
230
1.0
 70
              12
 71
               2
 72
              76
 73
              73
 74
               0
 42
0.000001
 43
0.000001
 40
0.0
 40
0.0
 40
0.0
 40
1.0
 40
1.0
 40
2.0
 40
2.0
 40
3.0
 40
3.0
 40
4.0
 40
4.0
 40
5.0
 40
5.0
 40
6.0
 40
6.0
 40
7.0
 40
7.0
 40
8.0
 40
8.0
 40
9.0
 40
9.0
 40
10.0
 40
10.0
 40
11.0
 40
11.0
 40
12.0
 40
12.0
 40
13.0
 40
13.0
 40
14.0
 40
14.0
 40
15.0
 40
15.0
 40
16.0
 40
16.0
 40
17.0
 40
17.0
 40
18.0
 40
18.0
 40
19.0
 40
19.0
 40
20.0
 40
20.0
 40
21.0
 40
21.0
 40
22.0
 40
22.0
 40
23.0
 40
23.0
 40
24.0
 40
24.0
 40
25.0
 40
25.0
 40
26.0
 40
26.0
 40
27.0
 40
27.0
 40
28.0
 40
28.0
 40
29.0
 40
29.0
 40
30.0
 40
30.0
 40
31.0
 40
31.0
 40
32.0
 40
32.0
 40
33.0
 40
33.0
 40
34.0
 40
34.0
 40
35.0
 40
35.0
 40
36.0
 40
36.0
 40
36.0
 10
-226.59803733919989
 20
-561.922764671609
 30
0.0
 41
1.0
 10
-226.71508675947848
 20
-561.92717029564017
 30
0.0
 41
0.9999962089165627
 10
-226.83211014248525
 20
-561.93222045804555
 30
0.0
 41
1.0
 10
-226.93674930777252
 20
-561.93673617759737
 30
0.0
 41
1.0
 10
-227.0413884730599
 20
-561.94125189714919
 30
0.0
 41
1.0
 10
-227.3676901866329
 20
-561.95533349865786
 30
0.0
 41
0.9999829114352421
 10
-227.69380495431722
 20
-561.97322925457775
 30
0.0
 41
1.0
 10
-227.83049069706976
 20
-561.98072997190923
 30
0.0
 41
1.0
 10
-227.9671764398222
 20
-561.98823068924059
 30
0.0
 41
1.0
 10
-228.56666269301331
 20
-562.02112787982344
 30
0.0
 41
0.999993919715478
 10
-229.16590492950343
 20
-562.05820529774405
 30
0.0
 41
1.0
 10
-229.22741544845803
 20
-562.06201118971717
 30
0.0
 41
1.0
 10
-229.28892596741275
 20
-562.06581708169028
 30
0.0
 41
1.0
 10
-230.01118924181947
 20
-562.11050628355758
 30
0.0
 41
0.9999969291064361
 10
-230.73322214167626
 20
-562.15877484300768
 30
0.0
 41
1.0
 10
-231.03548231373952
 20
-562.17898121184146
 30
0.0
 41
1.0
 10
-231.33774248580266
 20
-562.19918758067524
 30
0.0
 41
1.0
 10
-232.66429572981156
 20
-562.28786887779461
 30
0.0
 41
0.9999959334133317
 10
-233.99032158242551
 20
-562.38411501941073
 30
0.0
 41
1.0
 10
-234.34876894756258
 20
-562.41013199019517
 30
0.0
 41
1.0
 10
-234.70721631269953
 20
-562.43614896097961
 30
0.0
 41
1.0
 10
-236.75013689561149
 20
-562.58442904416631
 30
0.0
 41
0.9999986729308625
 10
-238.79256349553555
 20
-562.7393647568922
 30
0.0
 41
1.0
 10
-238.94266173546066
 20
-562.7507510058681
 30
0.0
 41
1.0
 10
-239.09275997538589
 20
-562.76213725484399
 30
0.0
 41
1.0
 10
-241.43538305505012
 20
-562.93984546551326
 30
0.0
 41
0.9999994833113091
 10
-243.7776399781435
 20
-563.12231630906217
 30
0.0
 41
1.0
 10
-243.88513297281861
 20
-563.13069042772543
 30
0.0
 41
1.0
 10
-243.99262596749372
 20
-563.13906454638879
 30
0.0
 41
1.0
 10
-246.54986887977827
 20
-563.33828362725205
 30
0.0
 41
0.9999997981752679
 10
-249.10685660948866
 20
-563.54075166107509
 30
0.0
 41
1.0
 10
-249.17175354109122
 20
-563.54589034593857
 30
0.0
 41
1.0
 10
-249.23665047269378
 20
-563.55102903080206
 30
0.0
 41
1.0
 10
-251.9234320663262
 20
-563.7637744344089
 30
0.0
 41
0.9999999139578351
 10
-254.61003639836167
 20
-563.97874674601542
 30
0.0
 41
1.0
 10
-255.29461294384282
 20
-564.03352407243392
 30
0.0
 41
1.0
 10
-255.97918948932397
 20
-564.08830139885242
 30
0.0
 41
1.0
 10
-260.03494691308288
 20
-564.41282836335631
 30
0.0
 41
1.0
 10
-263.96595789637968
 20
-564.727634578476
 30
0.0
 41
1.0
 10
-264.7544684986417
 20
-564.7907806849953
 30
0.0
 41
1.0
 10
-265.54297910090384
 20
-564.8539267915146
 30
0.0
 41
1.0
 10
-267.8969688780187
 20
-565.0424407934637
 30
0.0
 41
0.9999999311610832
 10
-270.25109775116175
 20
-565.22920980479876
 30
0.0
 41
1.0
 10
-270.39914850244918
 20
-565.24095567511233
 30
0.0
 41
1.0
 10
-270.54719925373649
 20
-565.25270154542579
 30
0.0
 41
1.0
 10
-272.60522662244966
 20
-565.41597881598625
 30
0.0
 41
0.9999997403232724
 10
-274.66348720175597
 20
-565.57628947343824
 30
0.0
 41
1.0
 10
-275.02269089105243
 20
-565.60426658195854
 30
0.0
 41
1.0
 10
-275.3818945803489
 20
-565.63224369047873
 30
0.0
 41
1.0
 10
-276.72174778088379
 20
-565.73660013087601
 30
0.0
 41
0.9999988946813324
 10
-278.06190537832731
 20
-565.83697183829599
 30
0.0
 41
1.0
 10
-278.36565009114884
 20
-565.85972093549458
 30
0.0
 41
1.0
 10
-278.66939480397025
 20
-565.88247003269316
 30
0.0
 41
1.0
 10
-279.40206297582927
 20
-565.93734354572018
 30
0.0
 41
0.9999992059761624
 10
-280.13486712276517
 20
-565.99037028065504
 30
0.0
 41
1.0
 10
-280.19585900051857
 20
-565.99478373839588
 30
0.0
 41
1.0
 10
-280.25685087827185
 20
-565.99919719613672
 30
0.0
 41
1.0
 10
-280.86767126974769
 20
-566.0433970155932
 30
0.0
 41
0.9999982868016827
 10
-281.47865110805947
 20
-566.08533520605886
 30
0.0
 41
1.0
 10
-281.5449753878454
 20
-566.08988776263061
 30
0.0
 41
1.0
 10
-281.61129966763133
 20
-566.09444031920248
 30
0.0
 41
1.0
 10
-282.08963094637215
 20
-566.12727339652463
 30
0.0
 41
0.9999954651558829
 10
-282.56815130701966
 20
-566.15722481785974
 30
0.0
 41
1.0
 10
-282.66761051331605
 20
-566.16345014250294
 30
0.0
 41
1.0
 10
-282.76706971961255
 20
-566.16967546714625
 30
0.0
 41
1.0
 10
-283.04667166765705
 20
-566.18717623919429
 30
0.0
 41
0.9999804984316956
 10
-283.32647039324002
 20
-566.20118336364828
 30
0.0
 41
1.0
 10
-283.39147336098608
 20
-566.20443750520019
 30
0.0
 41
1.0
 10
-283.45647632873204
 20
-566.2076916467521
 30
0.0
 41
1.0
 10
-283.60626911882491
 20
-566.21519048810228
 30
0.0
 41
0.9999812180328387
 10
-283.75614257318421
 20
-566.2208526664599
 30
0.0
 41
1.0
 10
-283.82161863357146
 20
-566.22332630119035
 30
0.0
 41
0.9999842878552483
 10
-283.88711831146065
 20
-566.22506571172335
 30
0.0
 41
1.0
  0
LINE
  5
18D
100
AcDbEntity
  8
ADF70-2005
370
              15
390
0
  6
Continuous
 62
              18
100
AcDbLine
 10
-141.41427654415656
 20
-463.30160017123887
 30
0.0
 11
-140.84017527996139
 21
-430.39145497091215
 31
0.0
  0
LWPOLYLINE
  5
18E
100
AcDbEntity
  8
ADF70-2005
370
              15
390
0
  6
Continuous
 62
              18
100
AcDbPolyline
 90
       51
 70
             128
 10
-146.88725998144037
 20
-424.22505404283845
 10
-146.81498521177184
 20
-424.2255506911996
 42
-0.0192090842434477
 10
-146.39556658980541
 20
-424.24455706011383
 10
-146.36977512677583
 20
-424.24672082065183
 42
-0.0152165514889401
 10
-146.0039463667822
 20
-424.28865479436342
 10
-146.0020630750804
 20
-424.28892895536819
 42
-0.0151612891056944
 10
-145.64320044062106
 20
-424.352334632017
 10
-145.64161224847032
 20
-424.35266518238871
 42
-0.0150910877897164
 10
-145.29039193980543
 20
-424.43689690823578
 10
-145.28907095894749
 20
-424.43725619408565
 42
-0.015007224507425
 10
-144.9461700163265
 20
-424.54166665730452
 10
-144.94508828118262
 20
-424.54203184988921
 42
-0.0149154486698326
 10
-144.61118332029992
 20
-424.66596913031117
 10
-144.61031369494594
 20
-424.66632176668929
 42
-0.0148212500372632
 10
-144.28608008742594
 20
-424.80912988187913
 10
-144.28539704281775
 20
-424.80945522790591
 42
-0.014729716546796
 10
-143.97150822040498
 20
-424.97047485097039
 10
-143.97098827052866
 20
-424.9707612258494
 42
-0.0146453186562562
 10
-143.66811544914754
 20
-425.14933033376508
 10
-143.66773802130422
 20
-425.14956802242727
 42
-0.0145721200151945
 10
-143.37654918529984
 20
-425.34502327395319
 10
-143.37629476759435
 20
-425.34520501979887
 42
-0.0145127149447555
 10
-143.09745762707507
 20
-425.55688013227143
 10
-143.09731588034163
 20
-425.5569943700159
 42
-0.014471289131594
 10
-142.83148569481841
 20
-425.78423150235596
 42
-0.0144490812212355
 10
-142.57928074955794
 20
-426.02640583970538
 42
-0.0144400218739148
 10
-142.34149594444511
 20
-426.28272601428796
 42
-0.0144494712746329
 10
-142.11877901933076
 20
-426.55252108716843
 42
-0.0144899114218004
 10
-141.91194136691536
 20
-426.8348823809099
 10
-141.91177622546775
 20
-426.8351220933796
 42
-0.0145406912634928
 10
-141.72135543026309
 20
-427.12949706043742
 10
-141.72113669133387
 20
-427.12985779670601
 42
-0.0146066684326557
 10
-141.5477735091082
 20
-427.43555870519219
 10
-141.54750973793625
 20
-427.43605722054963
 42
-0.0146849209460232
 10
-141.39184421662446
 20
-427.75239361543083
 10
-141.3915451258606
 20
-427.75304934528549
 42
-0.0147718255395418
 10
-141.25421574802886
 20
-428.0793281544685
 10
-141.25389303358997
 20
-428.08016303833108
 42
-0.014863098970202
 10
-141.13553590697927
 20
-428.41568879674242
 10
-141.13520404347901
 20
-428.41672695463046
 42
-0.0149538803021019
 10
-141.03645212123888
 20
-428.76080222304233
 10
-141.03612910312609
 20
-428.76206943890747
 42
-0.0150388451731797
 10
-140.95761148205486
 20
-429.11399541143044
 10
-140.95731946279238
 20
-429.11551843216387
 42
-0.0151123572907057
 10
-140.89966080602767
 20
-429.47459572363118
 10
-140.89942658754467
 20
-429.47640138786528
 42
-0.0151682701979923
 10
-140.86324643605212
 20
-429.84193095555713
 10
-140.86310185954108
 20
-429.84404368824437
 42
-0.0153821602658723
 10
-140.84914895787722
 20
-430.21532590765958
 10
-140.84882138333796
 20
-430.26349264094085
 10
-140.84882138333796
 20
-430.37416276415922
  0
LWPOLYLINE
  5
18F
100
AcDbEntity
  8
ADF70-2005
370
              15
390
0
  6
Continuous
 62
              18
100
AcDbPolyline
 90
       52
 70
             128
 10
-141.41427654415656
 20
-463.30160017123887
 10
-141.41429864846816
 20
-463.30255433170453
 42
-0.0078921190376722
 10
-141.42493265877897
 20
-463.57546119844494
 42
-0.0151291614815267
 10
-141.44810785056222
 20
-463.84749880199672
 10
-141.45337529109941
 20
-463.89300394564066
 42
-0.0150610590210341
 10
-141.50514010159759
 20
-464.24660235995009
 10
-141.50540728305259
 20
-464.24810926011548
 42
-0.0149681658321872
 10
-141.57767735357993
 20
-464.5949702689536
 10
-141.57797601330117
 20
-464.59621575552319
 42
-0.0148597111873573
 10
-141.67012582313987
 20
-464.93568256161575
 10
-141.67043344679837
 20
-464.93669571262001
 42
-0.0147418688172781
 10
-141.78183250383472
 20
-465.26811179821641
 10
-141.78213131327914
 20
-465.26892096334768
 42
-0.0146205633382137
 10
-141.91214468279736
 20
-465.59163099392538
 10
-141.91242103852562
 20
-465.59226298228293
 42
-0.0145012943016663
 10
-142.06041000725963
 20
-465.90561351996587
 10
-142.06065367281292
 20
-465.90609293957493
 42
-0.0143890273310858
 10
-142.22597654374454
 20
-466.20943301623618
 10
-142.22617994897359
 20
-466.20978194787199
 42
-0.0142880224246543
 10
-142.40819273596821
 20
-466.50246323779913
 10
-142.40834987335609
 20
-466.50270052184806
 42
-0.0142020588727303
 10
-142.60640766362826
 20
-466.78407818437097
 10
-142.60651453414698
 20
-466.78422120498419
 42
-0.014133477583396
 10
-142.81996996421935
 20
-467.05365109398565
 42
-0.0140891180397548
 10
-143.04823217951571
 20
-467.31055815209209
 42
-0.0140575904791067
 10
-143.29054483332493
 20
-467.55417328834017
 42
-0.0140493407236368
 10
-143.54625314040754
 20
-467.78386513058592
 42
-0.0140705399002112
 10
-143.81454808387684
 20
-467.99888610589596
 10
-143.81470819038236
 20
-467.99900718317474
 42
-0.0141088533533753
 10
-144.09501449765355
 20
-468.19880753259918
 10
-144.09526296084505
 20
-468.19897426865043
 42
-0.0141668515569048
 10
-144.38691846266204
 20
-468.382931574964
 10
-144.38726824410469
 20
-468.38313858156812
 42
-0.0142423730050325
 10
-144.68960848606469
 20
-468.55063072956398
 10
-144.69007508194773
 20
-468.55087211356806
 42
-0.0143324910975243
 10
-145.00243271225952
 20
-468.70127763173116
 10
-145.00303447876263
 20
-468.70154642850241
 42
-0.0144335951853701
 10
-145.32473934188704
 20
-468.8342453240233
 10
-145.3254973379992
 20
-468.83453267902553
 42
-0.0145414160631061
 10
-145.65587667534999
 20
-468.94890723498077
 10
-145.65681436878276
 20
-468.94920161551659
 42
-0.0146510880331707
 10
-145.99519320230434
 20
-469.04463716862881
 10
-145.99633599218805
 20
-469.04492361711289
 42
-0.0147572420318932
 10
-146.34203768909265
 20
-469.1208092725069
 10
-146.34341224897889
 20
-469.12106874513938
 42
-0.0148541366293664
 10
-146.69575926434607
 20
-469.17679798451832
 10
-146.69739271366575
 20
-469.1770068211257
 42
-0.0149355508869379
 10
-147.05570747795014
 20
-469.21197815725679
 10
-147.05762499778689
 20
-469.21210763742215
 42
-0.0149879051331781
 10
-147.42122811651791
 20
-469.22573054193913
 10
-147.42224217152989
 20
-469.22573812247674
 10
-147.46827812833635
 20
-469.22591020477239
  0
LWPOLYLINE
  5
190
100
AcDbEntity
  8
ADF70-2005
370
              15
390
0
  6
STYLE_12
 62
              18
100
AcDbPolyline
 90
       50
 70
             128
 10
-609.58123615008208
 20
-424.24131352085965
 42
-0.0037805054910785
 10
-609.47473888354375
 20
-424.23536276044592
 10
-609.39464921254785
 20
-424.23149478211792
 42
-0.0148385033977267
 10
-609.12778038321721
 20
-424.22653491581048
 10
-608.93933715210937
 20
-424.22862513084976
 42
-0.0281096092204684
 10
-608.29786711750739
 20
-424.27185876854435
 10
-608.29503984370058
 20
-424.27220972409498
 42
-0.0134135959659033
 10
-607.65295730314961
 20
-424.36946510592145
 10
-607.64833164237621
 20
-424.37029323005027
 42
-0.0253206067096522
 10
-607.007139052193
 20
-424.51892483373672
 10
-606.89295782075328
 20
-424.55156196103871
 42
-0.0233874479091175
 10
-606.04432475362091
 20
-424.83767586869044
 10
-606.0333829659337
 20
-424.84194428810827
 42
-0.0216004275068373
 10
-605.19227951615949
 20
-425.21266483158843
 10
-605.18071347614432
 20
-425.2183712235975
 42
-0.0199948273960601
 10
-604.35057130042424
 20
-425.67006827728562
 10
-604.33896646159565
 20
-425.67699780368173
 42
-0.0185958798552359
 10
-603.52337039715485
 20
-426.20610823247046
 10
-603.51216427504232
 20
-426.21398513872123
 42
-0.0174080279343882
 10
-602.71484094035554
 20
-426.81696139458882
 10
-602.70432043633446
 20
-426.82550905076016
 42
-0.0164230641108128
 10
-601.92907731343553
 20
-427.49881929242792
 10
-601.82989262905676
 20
-427.59084741233733
 42
-0.0156354522688102
 10
-601.25444251563886
 20
-428.15927243571412
 42
-0.007561284125532
 10
-600.70576615374603
 20
-428.75399457502442
 10
-600.70303289827643
 20
-428.75704860937799
 42
-0.0147519144471644
 10
-600.17631848005863
 20
-429.38172016216618
 10
-600.00310043750437
 20
-429.5999005929508
 42
-0.0143817651420206
 10
-599.49298388709326
 20
-430.28181509302033
 42
-0.0070539887739353
 10
-599.01240929269284
 20
-430.98518565436689
 10
-599.01112454066356
 20
-430.98712417737931
 42
-0.0140380526610981
 10
-598.55831222350048
 20
-431.71386776986333
 10
-598.55403262063601
 20
-431.72118636762218
 42
-0.0069478050845026
 10
-598.12363149930889
 20
-432.4812638426971
 10
-598.12297504737307
 20
-432.48246163686747
 42
-0.0139570528276125
 10
-597.72358948037095
 20
-433.26206633825609
 10
-597.65657622595722
 20
-433.40239571798656
 42
-0.0070103769707184
 10
-597.40693137942981
 20
-433.9445855040475
 42
-0.0070171806279108
 10
-597.17259376661218
 20
-434.49356461177899
 10
-597.17193302313945
 20
-434.49517473939488
 42
-0.0070570131979341
 10
-596.95186328446175
 20
-435.05376926783379
 10
-596.95127620672724
 20
-435.0553233903953
 42
-0.0071070838495478
 10
-596.74598689987238
 20
-435.62305055280058
 10
-596.7454672765241
 20
-435.6245540612839
 42
-0.0071671299401847
 10
-596.55547124656505
 20
-436.20092999706685
 10
-596.55501329294293
 20
-436.20238927925379
 42
-0.007242868819266
 10
-596.38083165981993
 20
-436.78693065359187
 10
-596.3802651377041
 20
-436.78893764009615
 42
-0.0018329845284185
 10
-596.33918267939634
 20
-436.93654582315003
 10
-596.33913931519783
 20
-436.93670387029863
  0
LWPOLYLINE
  5
191
100
AcDbEntity
  8
ADF70-2005
370
              15
390
0
  6
STYLE_12
 62
              18
100
AcDbPolyline
 90
       51
 70
             128
 10
-555.29382190842716
 20
-545.40279737183073
 42
-0.0025123375534493
 10
-555.46380788593433
 20
-545.39760548573372
 10
-555.59185912490034
 20
-545.39305029441982
 42
-0.0097123661279191
 10
-556.01746643533534
 20
-545.36962580801321
 10
-556.14647978421567
 20
-545.36000862939966
 42
-0.0093849813574413
 10
-556.82846244164307
 20
-545.29627978116662
 10
-556.83089603868757
 20
-545.29600620776239
 42
-0.0091548527349112
 10
-557.51490885404041
 20
-545.20640317317032
 10
-557.6911409788845
 20
-545.18002714910938
 42
-0.0172697574274004
 10
-558.71939879705837
 20
-544.98962082180617
 10
-558.72291784565505
 20
-544.98884262530498
 42
-0.0082872822917171
 10
-559.74758293861919
 20
-544.74436923909843
 10
-559.75444878858798
 20
-544.74261036348173
 42
-0.0158699778848113
 10
-560.77934779915995
 20
-544.44509623752526
 10
-560.95473292320139
 20
-544.38809086177878
 42
-0.0150884877930406
 10
-562.30632179342615
 20
-543.90323138796714
 10
-562.31344746110699
 20
-543.90042976019515
 42
-0.0144803948519402
 10
-563.64814392283029
 20
-543.33050890848938
 10
-563.65384616774327
 20
-543.32787628761696
 42
-0.0140248943375565
 10
-564.96518444913204
 20
-542.67723822572407
 10
-564.96932616163531
 20
-542.67503641327949
 42
-0.0137171396365048
 10
-566.25074573155916
 20
-541.94804328999567
 10
-566.25329574194029
 20
-541.94650262706614
 42
-0.0135544313240869
 10
-567.49820335329855
 20
-541.14751250874235
 10
-567.49914856365649
 20
-541.14686904052405
 42
-0.0135405519238128
 10
-568.70024930215936
 20
-540.28074239674106
 10
-568.84839394838355
 20
-540.16769295685276
 42
-0.0136729961395986
 10
-569.71014382345743
 20
-539.47200002285729
 10
-569.71231769907627
 20
-539.47014462104687
 42
-0.0069036387300199
 10
-570.54065362713982
 20
-538.74315506974472
 10
-570.54212973725726
 20
-538.74182303642942
 42
-0.0141348997671842
 10
-571.3360364592736
 20
-537.98361187375156
 10
-571.33934316575505
 20
-537.98027010286785
 42
-0.0072071568258247
 10
-572.09388401693332
 20
-537.19541765957035
 10
-572.09582315295756
 20
-537.19334154173441
 42
-0.0149334177882127
 10
-572.81088672149872
 20
-536.3804031308498
 10
-572.81483311756415
 20
-536.37563680002779
 42
-0.0076818220859445
 10
-573.4848882232468
 20
-535.54057450526875
 10
-573.48702424185512
 20
-535.53782704464652
 42
-0.0160830838704599
 10
-574.11230751459607
 20
-534.6778464048781
 10
-574.21394258994201
 20
-534.52816963404121
 42
-0.0084091431330407
 10
-574.59840967872105
 20
-533.94095783061016
 10
-574.59973153139731
 20
-533.93886286207135
 42
-0.0086378718194895
 10
-574.96138575751138
 20
-533.34312614899238
 10
-574.96264838105594
 20
-533.34096290654134
 42
-0.0089172353564124
 10
-575.30071747984539
 20
-532.73727460355656
 42
-0.0091811026621072
 10
-575.61671598560224
 20
-532.12175361908533
 10
-575.65311753030301
 20
-532.04752485675647
 42
-0.0144434978120855
 10
-576.00807821379271
 20
-531.26748754180687
 10
-576.04056814747582
 20
-531.19024688735317
 42
-0.0025223090384229
 10
-576.10565746427346
 20
-531.03329462337251
 42
-0.0025223090384229
  0
LINE
  5
192
100
AcDbEntity
  8
ADF70-2005
370
              15
390
0
  6
STYLE_12
 62
              18
100
AcDbLine
 10
-596.33913931519783
 20
-436.93670387029863
 30
0.0
 11
-576.00807821379158
 21
-531.26748754180971
 31
0.0
  0
LINE
  5
193
100
AcDbEntity
  8
ADF70-2005
370
              15
390
0
  6
STYLE_12
 62
               7
100
AcDbLine
 10
-555.29382190842716
 20
-545.40279737183073
 30
0.0
 11
-493.88763034113526
 21
-549.75
 31
0.0
  0
LINE
  5
194
100
AcDbEntity
  8
ADF70-2005
370
              15
390
0
  6
Continuous
 62
              18
100
AcDbLine
 10
-640.24945952260714
 20
-463.30255433171908
 30
0.0
 11
-640.81493678773768
 21
-430.37416276415922
 31
0.0
  0
LWPOLYLINE
  5
195
100
AcDbEntity
  8
ADF70-2005
370
              15
390
0
  6
STYLE_12
 62
              18
100
AcDbPolyline
 90
        4
 70
             128
 10
-422.51229839043981
 20
-604.22505054720307
 10
-412.5070275632288
 20
-604.22505164170218
 10
-413.15721038894844
 20
-566.30473913486378
 10
-427.45179499870028
 20
-554.36519837706942
  0
LINE
  5
196
100
AcDbEntity
  8
ADF70-2005
370
              15
390
0
  6
STYLE_12
 62
               7
100
AcDbLine
 10
-493.88763034113526
 20
-549.75
 30
0.0
 11
-427.45179499870028
 21
-554.36519837706942
 31
0.0
  0
LWPOLYLINE
  5
197
100
AcDbEntity
  8
ADF70-2005
370
              15
390
0
  6
STYLE_12
 62
              18
100
AcDbPolyline
 90
       50
 70
             128
 10
-172.0825220209872
 20
-424.24131352085965
 42
0.0037805054903883
 10
-172.18901928753678
 20
-424.23536276044524
 10
-172.26910895852075
 20
-424.23149478211792
 42
0.0148385033977342
 10
-172.5359777878499
 20
-424.22653491581048
 10
-172.72442101895922
 20
-424.22862513084976
 42
0.0281096092207524
 10
-173.36589105356177
 20
-424.27185876854435
 10
-173.36871832736824
 20
-424.27220972409498
 42
0.0134135959658592
 10
-174.0108008679199
 20
-424.36946510592168
 10
-174.01542652869239
 20
-424.37029323005027
 42
0.025320606709375
 10
-174.6566191188773
 20
-424.51892483373717
 10
-174.77080035031531
 20
-424.55156196103871
 42
0.0233874479092261
 10
-175.61943341744507
 20
-424.8376758686893
 10
-175.63037520513512
 20
-424.84194428810827
 42
0.0216004275069043
 10
-176.47147865490922
 20
-425.21266483158843
 10
-176.48304469492427
 20
-425.2183712235975
 42
0.0199948273958634
 10
-177.3131868706464
 20
-425.67006827728676
 10
-177.32479170947317
 20
-425.67699780368173
 42
0.0185958798556047
 10
-178.14038777390942
 20
-426.20610823246727
 10
-178.1515938960265
 20
-426.21398513872123
 42
0.0174080279341077
 10
-178.94891723071589
 20
-426.81696139459132
 10
-178.95943773473391
 20
-426.82550905076016
 42
0.0164230641107375
 10
-179.73468085763136
 20
-427.49881929242645
 10
-179.83386554201013
 20
-427.59084741233596
 42
0.0156354522684152
 10
-180.40931565542996
 20
-428.15927243571412
 42
0.007561284125856
 10
-180.95799201732632
 20
-428.75399457502795
 10
-180.96072527279284
 20
-428.75704860937799
 42
0.0147519144472265
 10
-181.48743969100894
 20
-429.38172016216413
 10
-181.66065773356104
 20
-429.59990059294637
 42
0.0143817651421389
 10
-182.17077428397556
 20
-430.28181509302033
 42
0.0070539887739786
 10
-182.65134887838417
 20
-430.98518565437973
 10
-182.65263363040503
 20
-430.98712417737931
 42
0.0140380526607924
 10
-183.10544594756755
 20
-431.71386776986208
 10
-183.10972555043281
 20
-431.72118636762218
 42
0.0069478050847643
 10
-183.54012667175891
 20
-432.48126384269415
 10
-183.5407831236962
 20
-432.48246163686747
 42
0.0139570528276607
 10
-183.94016869069776
 20
-433.26206633825518
 10
-184.00718194510841
 20
-433.40239571797952
 42
0.0070103769706946
 10
-184.25682679163901
 20
-433.9445855040475
 42
0.0070171806280859
 10
-184.49116440445187
 20
-434.49356461176774
 10
-184.49182514792938
 20
-434.49517473939488
 42
0.0070570131979499
 10
-184.71189488660491
 20
-435.05376926782787
 10
-184.71248196434158
 20
-435.0553233903953
 42
0.0071070838495918
 10
-184.91777127119246
 20
-435.6230505527891
 10
-184.91829089454473
 20
-435.6245540612839
 42
0.0071671299399658
 10
-185.10828692450241
 20
-436.20092999706264
 10
-185.10874487812589
 20
-436.20238927925379
 42
0.0072428688192938
 10
-185.28292651124627
 20
-436.78693065358277
 10
-185.28349303336472
 20
-436.78893764009615
 42
0.0018329845295088
 10
-185.32457549168043
 20
-436.93654582318061
 10
-185.32461885587054
 20
-436.93670387029863
  0
LWPOLYLINE
  5
198
100
AcDbEntity
  8
ADF70-2005
370
              15
390
0
  6
STYLE_12
 62
              18
100
AcDbPolyline
 90
       51
 70
             128
 10
-226.36993626264211
 20
-545.40279737183073
 42
0.0025123375538029
 10
-226.19995028513677
 20
-545.39760548573372
 10
-226.07189904616826
 20
-545.39305029441982
 42
0.0097123661282014
 10
-225.64629173573633
 20
-545.36962580801344
 10
-225.51727838685292
 20
-545.36000862939966
 42
0.0093849813577031
 10
-224.83529572942382
 20
-545.2962797811665
 10
-224.8328621323808
 20
-545.29600620776239
 42
0.0091548527345419
 10
-224.1488493170225
 20
-545.20640317316952
 10
-223.97261719218386
 20
-545.18002714910938
 42
0.0172697574275348
 10
-222.9443593740109
 20
-544.9896208218064
 10
-222.94084032541332
 20
-544.98884262530498
 42
0.0082872822918435
 10
-221.91617523245361
 20
-544.74436923909957
 10
-221.90930938248039
 20
-544.74261036348173
 42
0.01586997788488
 10
-220.88441037190762
 20
-544.44509623752504
 10
-220.70902524786698
 20
-544.38809086177878
 42
0.0150884877929085
 10
-219.35743637763665
 20
-543.90323138796498
 10
-219.35031070996138
 20
-543.90042976019515
 42
0.0144803948520117
 10
-218.01561424824035
 20
-543.33050890849051
 10
-218.0099120033251
 20
-543.32787628761696
 42
0.0140248943376095
 10
-216.69857372193769
 20
-542.67723822572475
 10
-216.69443200943306
 20
-542.67503641327949
 42
0.013717139636563
 10
-215.41301243950863
 20
-541.9480432899951
 10
-215.41046242912853
 20
-541.94650262706614
 42
0.0135544313239255
 10
-214.16555481777027
 20
-541.14751250874201
 10
-214.16460960741279
 20
-541.14686904052405
 42
0.0135273718667067
 10
-212.96350886890968
 20
-540.28074239674106
 10
-212.81536422268687
 20
-540.1676929568539
 42
0.0136729961396077
 10
-211.95361434761162
 20
-539.47200002285729
 10
-211.95144047198153
 20
-539.47014462103721
 42
0.0069036387298832
 10
-211.12310454392946
 20
-538.74315506974472
 10
-211.12162843381907
 20
-538.74182303643579
 42
0.0141348997672706
 10
-210.32772171179568
 20
-537.98361187375156
 10
-210.32441500533037
 20
-537.98027010288422
 42
0.0072071568257342
 10
-209.5698741541355
 20
-537.19541765957035
 10
-209.56793501810751
 20
-537.19334154173043
 42
0.014933417788528
 10
-208.8528714495701
 20
-536.3804031308498
 10
-208.8489250535099
 20
-536.37563680003404
 42
0.0076818220858397
 10
-208.17886994782248
 20
-535.54057450526875
 10
-208.17673392921267
 20
-535.53782704464459
 42
0.0160830838703372
 10
-207.55145065647298
 20
-534.6778464048781
 10
-207.44981558112124
 20
-534.52816963403291
 42
0.0084091431330935
 10
-207.06534849234799
 20
-533.94095783061016
 10
-207.0640266396756
 20
-533.93886286207737
 42
0.0086378718194935
 10
-206.7023724135579
 20
-533.34312614899238
 10
-206.70110979001026
 20
-533.34096290653599
 42
0.0089172353564069
 10
-206.36304069122389
 20
-532.73727460355656
 42
0.0091811026620891
 10
-206.04704218546203
 20
-532.12175361907521
 10
-206.01064064076627
 20
-532.04752485675647
 42
0.0144434978116643
 10
-205.65567995727577
 20
-531.26748754180676
 10
-205.62319002359254
 20
-531.19024688735317
 42
0.0025223892011401
 10
-205.5581007067949
 20
-531.03329462337251
 42
0.0025223892011401
  0
LINE
  5
199
100
AcDbEntity
  8
ADF70-2005
370
              15
390
0
  6
STYLE_12
 62
              18
100
AcDbLine
 10
-185.32461885587054
 20
-436.93670387029863
 30
0.0
 11
-205.65567995727724
 21
-531.26748754180971
 31
0.0
  0
LINE
  5
19A
100
AcDbEntity
  8
ADF70-2005
370
              15
390
0
  6
STYLE_12
 62
               7
100
AcDbLine
 10
-226.36993626264211
 20
-545.40279737183073
 30
0.0
 11
-287.77612782993356
 21
-549.75
 31
0.0
  0
LINE
  5
19B
100
AcDbEntity
  8
ADF70-2005
370
              15
390
0
  6
STYLE_12
 62
               7
100
AcDbLine
 10
-287.77612782993356
 20
-549.75
 30
0.0
 11
-354.21196317236854
 21
-554.36519837706942
 31
0.0
  0
LINE
  5
19C
100
AcDbEntity
  8
ADF70-2005
370
              15
390
0
  6
STYLE_12
 62
              18
100
AcDbLine
 10
458.65958079770007
 20
-555.61124095114997
 30
0.0
 11
530.62055287700878
 21
-555.61124095114997
 31
0.0
  0
LINE
  5
19D
100
AcDbEntity
  8
ADF70-2005
370
              15
390
0
  6
STYLE_12
 62
              18
100
AcDbLine
 10
-427.34041920229993
 20
-555.61124095114997
 30
0.0
 11
-355.37944712299122
 21
-555.61124095114997
 31
0.0
  0
LINE
  5
19E
100
AcDbEntity
  8
ADF70-2005
370
               5
390
0
  6
Continuous
 62
               7
100
AcDbLine
 10
448.0133912907117
 20
-565.45853784605015
 30
0.0
 11
600.16430613036766
 21
-558.14627846111796
 31
0.0
  0
ENDSEC
  0
SECTION
  2
OBJECTS
  0
DICTIONARY
  5
19
100
AcDbDictionary
280
               0
281
               1
  3
ACAD_GROUP
350
1A
  3
ACAD_MLINESTYLE
350
1B
  3
ACAD_LAYOUT
350
1E
  3
ACAD_PLOTSETTINGS
350
22
  3
ACAD_PLOTSTYLENAME
350
1F
  0
DICTIONARY
  5
1A
102
{ACAD_REACTORS
330
19
102
}
100
AcDbDictionary
280
               0
281
               1
  0
DICTIONARY
  5
1B
102
{ACAD_REACTORS
330
19
102
}
100
AcDbDictionary
280
               0
281
               1
  3
Standard
350
1C
  0
MLINESTYLE
  5
1C
102
{ACAD_REACTORS
330
1B
102
}
100
AcDbMlineStyle
  2
Standard
 70
               0
  3

 62
               0
 51
90.0
 52
90.0
 71
               2
 49
0.5
 62
             256
  6
ByLayer
 49
-0.5
 62
             256
  6
ByLayer
  0
ACDBDICTIONARYWDFLT
  5
1F
102
{ACAD_REACTORS
330
19
102
}
100
AcDbDictionary
281
               1
  3
Normal
350
1D
100
AcDbDictionaryWithDefault
340
1D
  0
ACDBPLACEHOLDER
  5
1D
102
{ACAD_REACTORS
330
1F
102
}
  0
LAYOUT
  5
20
102
{ACAD_REACTORS
330
1E
102
}
100
AcDbPlotSettings
  1

  2

  4

  6

 40
0.0
 41
0.0
 42
0.0
 43
0.0
 44
0.0
 45
0.0
 46
0.0
 47
0.0
 48
0.0
 49
0.0
140
0.0
141
0.0
142
1.0
143
1.0
 70
            1024
 72
               0
 73
               0
 74
               0
  7

 75
               0
147
1.0
148
0.0
149
0.0
100
AcDbLayout
  1
Model
 70
               0
 71
               0
 10
0.0
 20
0.0
 11
0.0
 21
0.0
 12
0.0
 22
0.0
 32
0.0
 14
0.0
 24
0.0
 34
0.0
 15
0.0
 25
0.0
 35
0.0
146
0.0
 13
0.0
 23
0.0
 33
0.0
 16
0.0
 26
0.0
 36
0.0
 17
0.0
 27
0.0
 37
0.0
 76
               0
330
A
331
0
345
0
346
0
  0
LAYOUT
  5
21
102
{ACAD_REACTORS
330
1E
102
}
100
AcDbPlotSettings
  1

  2

  4

  6

 40
0.0
 41
0.0
 42
0.0
 43
0.0
 44
0.0
 45
0.0
 46
0.0
 47
0.0
 48
0.0
 49
0.0
140
0.0
141
0.0
142
1.0
143
1.0
 70
               0
 72
               0
 73
               0
 74
               0
  7

 75
               0
147
1.0
148
0.0
149
0.0
100
AcDbLayout
  1
Layout1
 70
               0
 71
               0
 10
0.0
 20
0.0
 11
0.0
 21
0.0
 12
0.0
 22
0.0
 32
0.0
 14
0.0
 24
0.0
 34
0.0
 15
0.0
 25
0.0
 35
0.0
146
0.0
 13
0.0
 23
0.0
 33
0.0
 16
0.0
 26
0.0
 36
0.0
 17
0.0
 27
0.0
 37
0.0
 76
               0
330
B
331
0
345
0
346
0
  0
DICTIONARY
  5
1E
102
{ACAD_REACTORS
330
19
102
}
100
AcDbDictionary
280
               0
281
               1
  3
Layout1
350
21
  3
Model
350
20
  0
DICTIONARY
  5
22
102
{ACAD_REACTORS
330
19
102
}
100
AcDbDictionary
280
               0
281
               1
  0
ENDSEC
  0
EOF
