  0
SECTION
  2
HEADER
  9
$ACADVER
  1
AC1015
  9
$ACADMAINTVER
 70
               6
  9
$DWGCODEPAGE
  3
ANSI_932
  9
$INSBASE
 10
0.0
 20
0.0
 30
0.0
  9
$EXTMIN
 10
-992.94444444492638
 20
-1437.522815112412
 30
-14.834305555555554
  9
$EXTMAX
 10
957.05555555555588
 20
1400.0
 30
14.834305555555554
  9
$LIMMIN
 10
0.0
 20
0.0
  9
$LIMMAX
 10
0.0
 20
0.0
  9
$ORTHOMODE
 70
               0
  9
$REGENMODE
 70
               1
  9
$FILLMODE
 70
               1
  9
$QTEXTMODE
 70
               0
  9
$MIRRTEXT
 70
               1
  9
$LTSCALE
 40
50.799999999999997
  9
$ATTMODE
 70
               1
  9
$TEXTSIZE
 40
0.2
  9
$TRACEWID
 40
1.0
  9
$TEXTSTYLE
  7
Standard
  9
$CLAYER
  8
notes
  9
$CELTYPE
  6
Continuous
  9
$CECOLOR
 62
             256
  9
$CELTSCALE
 40
1.0
  9
$DISPSILH
 70
               0
  9
$DIMSCALE
 40
1.0
  9
$DIMASZ
 40
9.9993896484374982
  9
$DIMEXO
 40
24.999999999999996
  9
$DIMDLI
 40
0.9999999999999999
  9
$DIMRND
 40
0.0
  9
$DIMDLE
 40
0.0
  9
$DIMEXE
 40
0.0
  9
$DIMTP
 40
0.0
  9
$DIMTM
 40
0.0
  9
$DIMTXT
 40
24.432617187500004
  9
$DIMCEN
 40
0.0
  9
$DIMTSZ
 40
0.0
  9
$DIMTOL
 70
               0
  9
$DIMLIM
 70
               0
  9
$DIMTIH
 70
               0
  9
$DIMTOH
 70
               0
  9
$DIMSE1
 70
               0
  9
$DIMSE2
 70
               0
  9
$DIMTAD
 70
               1
  9
$DIMZIN
 70
              11
  9
$DIMBLK
  1
_DOT
  9
$DIMASO
 70
               1
  9
$DIMSHO
 70
               1
  9
$DIMPOST
  1
<>
  9
$DIMAPOST
  1
[]
  9
$DIMALT
 70
               0
  9
$DIMALTD
 70
               3
  9
$DIMALTF
 40
0.0393700787401575
  9
$DIMLFAC
 40
1.0
  9
$DIMTOFL
 70
               1
  9
$DIMTVP
 40
0.0
  9
$DIMTIX
 70
               1
  9
$DIMSOXD
 70
               0
  9
$DIMSAH
 70
               0
  9
$DIMBLK1
  1

  9
$DIMBLK2
  1

  9
$DIMSTYLE
  2
tform線あり
  9
$DIMCLRD
 70
               0
  9
$DIMCLRE
 70
               0
  9
$DIMCLRT
 70
               0
  9
$DIMTFAC
 40
0.8
  9
$DIMGAP
 40
0.4999999999999999
  9
$DIMJUST
 70
               0
  9
$DIMSD1
 70
               0
  9
$DIMSD2
 70
               0
  9
$DIMTOLJ
 70
               1
  9
$DIMTZIN
 70
              11
  9
$DIMALTZ
 70
              15
  9
$DIMALTTZ
 70
              15
  9
$DIMUPT
 70
               0
  9
$DIMDEC
 70
               1
  9
$DIMTDEC
 70
               1
  9
$DIMALTU
 70
               4
  9
$DIMALTTD
 70
               2
  9
$DIMTXSTY
  7
ＭＳ ゴシック
  9
$DIMAUNIT
 70
               0
  9
$DIMADEC
 70
               2
  9
$DIMALTRND
 40
0.0
  9
$DIMAZIN
 70
               0
  9
$DIMDSEP
 70
              46
  9
$DIMATFIT
 70
               0
  9
$DIMFRAC
 70
               2
  9
$DIMLDRBLK
  1

  9
$DIMLUNIT
 70
               2
  9
$DIMLWD
 70
              -2
  9
$DIMLWE
 70
              -2
  9
$DIMTMOVE
 70
               0
  9
$LUNITS
 70
               2
  9
$LUPREC
 70
               4
  9
$SKETCHINC
 40
0.1
  9
$FILLETRAD
 40
0.0
  9
$AUNITS
 70
               0
  9
$AUPREC
 70
               0
  9
$MENU
  1
acad
  9
$ELEVATION
 40
0.0
  9
$PELEVATION
 40
0.0
  9
$THICKNESS
 40
0.0
  9
$LIMCHECK
 70
               0
  9
$CHAMFERA
 40
0.0
  9
$CHAMFERB
 40
0.0
  9
$CHAMFERC
 40
0.0
  9
$CHAMFERD
 40
0.0
  9
$SKPOLY
 70
               0
  9
$TDCREATE
 40
2456253.403668982
  9
$TDUCREATE
 40
0.000000000
  9
$TDUPDATE
 40
2456253.403668982
  9
$TDUUPDATE
 40
0.000000000
  9
$TDINDWG
 40
0.0000000000
  9
$TDUSRTIMER
 40
0.0000000000
  9
$USRTIMER
 70
               1
  9
$ANGBASE
 50
0.0
  9
$ANGDIR
 70
               0
  9
$PDMODE
 70
               1
  9
$PDSIZE
 40
-2.0
  9
$PLINEWID
 40
0.0
  9
$SPLFRAME
 70
               0
  9
$SPLINETYPE
 70
               6
  9
$SPLINESEGS
 70
               8
  9
$HANDSEED
  5
436
  9
$SURFTAB1
 70
               6
  9
$SURFTAB2
 70
               6
  9
$SURFTYPE
 70
               6
  9
$SURFU
 70
               6
  9
$SURFV
 70
               6
  9
$UCSBASE
  2

  9
$UCSNAME
  2

  9
$UCSORG
 10
0.0
 20
0.0
 30
0.0
  9
$UCSXDIR
 10
1.0
 20
0.0
 30
0.0
  9
$UCSYDIR
 10
0.0
 20
1.0
 30
0.0
  9
$UCSORTHOREF
  2

  9
$UCSORTHOVIEW
 70
               0
  9
$UCSORGTOP
 10
0.0
 20
0.0
 30
0.0
  9
$UCSORGBOTTOM
 10
0.0
 20
0.0
 30
0.0
  9
$UCSORGLEFT
 10
0.0
 20
0.0
 30
0.0
  9
$UCSORGRIGHT
 10
0.0
 20
0.0
 30
0.0
  9
$UCSORGFRONT
 10
0.0
 20
0.0
 30
0.0
  9
$UCSORGBACK
 10
0.0
 20
0.0
 30
0.0
  9
$PUCSBASE
  2

  9
$PUCSNAME
  2

  9
$PUCSORG
 10
0.0
 20
0.0
 30
0.0
  9
$PUCSXDIR
 10
1.0
 20
0.0
 30
0.0
  9
$PUCSYDIR
 10
0.0
 20
1.0
 30
0.0
  9
$PUCSORTHOREF
  2

  9
$PUCSORTHOVIEW
 70
               0
  9
$PUCSORGTOP
 10
0.0
 20
0.0
 30
0.0
  9
$PUCSORGBOTTOM
 10
0.0
 20
0.0
 30
0.0
  9
$PUCSORGLEFT
 10
0.0
 20
0.0
 30
0.0
  9
$PUCSORGRIGHT
 10
0.0
 20
0.0
 30
0.0
  9
$PUCSORGFRONT
 10
0.0
 20
0.0
 30
0.0
  9
$PUCSORGBACK
 10
0.0
 20
0.0
 30
0.0
  9
$USERI1
 70
               0
  9
$USERI2
 70
               0
  9
$USERI3
 70
               0
  9
$USERI4
 70
               0
  9
$USERI5
 70
               0
  9
$USERR1
 40
0.0
  9
$USERR2
 40
0.0
  9
$USERR3
 40
0.0
  9
$USERR4
 40
0.0
  9
$USERR5
 40
0.0
  9
$WORLDVIEW
 70
               1
  9
$SHADEDGE
 70
               3
  9
$SHADEDIF
 70
              70
  9
$TILEMODE
 70
               1
  9
$MAXACTVP
 70
              64
  9
$PINSBASE
 10
0.0
 20
0.0
 30
0.0
  9
$PLIMCHECK
 70
               0
  9
$PEXTMIN
 10
1.0000000000000000E+20
 20
1.0000000000000000E+20
 30
1.0000000000000000E+20
  9
$PEXTMAX
 10
-1.0000000000000000E+20
 20
-1.0000000000000000E+20
 30
-1.0000000000000000E+20
  9
$PLIMMIN
 10
0.0
 20
0.0
  9
$PLIMMAX
 10
12.0
 20
9.0
  9
$UNITMODE
 70
               0
  9
$VISRETAIN
 70
               0
  9
$PLINEGEN
 70
               1
  9
$PSLTSCALE
 70
               0
  9
$TREEDEPTH
 70
            3020
  9
$CMLSTYLE
  2
Standard
  9
$CMLJUST
 70
               0
  9
$CMLSCALE
 40
1.0
  9
$PROXYGRAPHICS
 70
               0
  9
$MEASUREMENT
 70
               1
  9
$CELWEIGHT
370
               0
  9
$ENDCAPS
280
               0
  9
$JOINSTYLE
280
               0
  9
$LWDISPLAY
290
               1
  9
$INSUNITS
 70
               4
  9
$HYPERLINKBASE
  1

  9
$STYLESHEET
  1

  9
$XEDIT
290
               1
  9
$CEPSNTYPE
380
               0
  9
$PSTYLEMODE
290
               1
  9
$FINGERPRINTGUID
  2

  9
$VERSIONGUID
  2

  9
$EXTNAMES
290
               1
  9
$PSVPSCALE
 40
0.0
  0
ENDSEC
  0
SECTION
  2
CLASSES
  0
CLASS
  1
LWPOLYLINE
  2
AcDbPolyline
  3
AutoCAD 2000
 90
        0
280
               0
281
               1
  0
CLASS
  1
IMAGE
  2
AcDbRasterImage
  3
ISM
 90
      127
280
               0
281
               1
  0
CLASS
  1
OLE2FRAME
  2
AcDbOle2Frame
  3
AutoCAD 2000
 90
        0
280
               0
281
               1
  0
CLASS
  1
HATCH
  2
AcDbHatch
  3
AutoCAD 2000
 90
        0
280
               0
281
               1
  0
CLASS
  1
DICTIONARYVAR
  2
AcDbDictionaryVar
  3
AutoCAD 2000
 90
        0
280
               0
281
               0
  0
CLASS
  1
RASTERVARIABLES
  2
AcDbRasterVariables
  3
ISM
 90
        0
280
               0
281
               0
  0
CLASS
  1
IMAGEDEF
  2
AcDbRasterImageDef
  3
ISM
 90
        0
280
               0
281
               0
  0
CLASS
  1
IMAGEDEF_REACTOR
  2
AcDbRasterImageDefReactor
  3
ISM
 90
        1
280
               0
281
               0
  0
CLASS
  1
IDBUFFER
  2
AcDbIdBuffer
  3
AutoCAD 2000
 90
        0
280
               0
281
               0
  0
CLASS
  1
SPATIAL_FILTER
  2
AcDbSpatialFilter
  3
AutoCAD 2000
 90
        0
280
               0
281
               0
  0
CLASS
  1
XRECORD
  2
AcDbXrecord
  3
AutoCAD 2000
 90
        0
280
               0
281
               0
  0
CLASS
  1
SORTENTSTABLE
  2
AcDbSortentsTable
  3
AutoCAD 2000
 90
        0
280
               0
281
               0
  0
CLASS
  1
LAYER_INDEX
  2
AcDbLayerIndex
  3
AutoCAD 2000
 90
        0
280
               0
281
               0
  0
CLASS
  1
SPATIAL_INDEX
  2
AcDbSpatialIndex
  3
AutoCAD 2000
 90
        0
280
               0
281
               0
  0
CLASS
  1
OBJECT_PTR
  2
CAseDLPNTableRecord
  3
"ASE-LPNTableRecord"
 90
        1
280
               0
281
               0
  0
CLASS
  1
LAYOUT
  2
AcDbLayout
  3
AutoCAD 2000
 90
        0
280
               0
281
               0
  0
CLASS
  1
PLOTSETTINGS
  2
AcDbPlotSettings
  3
AutoCAD 2000
 90
        0
280
               0
281
               0
  0
CLASS
  1
ACDBDICTIONARYWDFLT
  2
AcDbDictionaryWithDefault
  3
AutoCAD 2000
 90
        0
280
               0
281
               0
  0
CLASS
  1
ACDBPLACEHOLDER
  2
AcDbPlaceHolder
  3
AutoCAD 2000
 90
        0
280
               0
281
               0
  0
ENDSEC
  0
SECTION
  2
TABLES
  0
TABLE
  2
VPORT
  5
7
100
AcDbSymbolTable
 70
               1
  0
VPORT
  5
15
100
AcDbSymbolTableRecord
100
AcDbViewportTableRecord
  2
*ACTIVE
 70
               0
 10
0.0
 20
0.0
 11
1.0
 21
1.0
 12
-17.944444444685246
 22
-18.761407556205995
 13
0.0
 23
0.0
 14
1.0
 24
1.0
 15
0.0
 25
0.0
 16
0.0
 26
0.0
 36
1.0
 17
0.0
 27
0.0
 37
0.0
 40
2837.522815112412
 41
0.688564
 42
50.0
 43
0.0
 44
0.0
 50
0.0
 51
0.0
 71
               0
 72
            2000
 73
               1
 74
               1
 75
               0
 76
               0
 77
               0
 78
               0
281
               0
 65
               0
110
0.0
120
0.0
130
0.0
111
1.0
121
0.0
131
0.0
112
0.0
122
1.0
132
0.0
345
0
346
0
 79
               0
146
0.0
  0
ENDTAB
  0
TABLE
  2
LTYPE
  5
4
100
AcDbSymbolTable
 70
              15
  0
LTYPE
  5
11
100
AcDbSymbolTableRecord
100
AcDbLinetypeTableRecord
  2
ByBlock
 70
              64
  3

 72
              65
 73
               0
 40
0.0
  0
LTYPE
  5
12
100
AcDbSymbolTableRecord
100
AcDbLinetypeTableRecord
  2
ByLayer
 70
              64
  3

 72
              65
 73
               0
 40
0.0
  0
LTYPE
  5
13
100
AcDbSymbolTableRecord
100
AcDbLinetypeTableRecord
  2
Continuous
 70
              64
  3
Solid line
 72
              65
 73
               0
 40
0.0
  0
LTYPE
  5
35
100
AcDbSymbolTableRecord
100
AcDbLinetypeTableRecord
  2
STYLE_01
 70
               0
  3

 72
              65
 73
               2
 40
0.41664
 49
0.20828
 74
               0
 49
-0.20836
 74
               0
  0
LTYPE
  5
36
100
AcDbSymbolTableRecord
100
AcDbLinetypeTableRecord
  2
STYLE_02
 70
               0
  3

 72
              65
 73
               2
 40
0.6944250000000001
 49
0.48607
 74
               0
 49
-0.2083550000000001
 74
               0
  0
LTYPE
  5
37
100
AcDbSymbolTableRecord
100
AcDbLinetypeTableRecord
  2
STYLE_03
 70
               0
  3

 72
              65
 73
               2
 40
1.25
 49
1.0416400000000001
 74
               0
 49
-0.2083599999999999
 74
               0
  0
LTYPE
  5
38
100
AcDbSymbolTableRecord
100
AcDbLinetypeTableRecord
  2
STYLE_04
 70
               0
  3

 72
              65
 73
               2
 40
1.5277099999999999
 49
1.3194249999999998
 74
               0
 49
-0.208285
 74
               0
  0
LTYPE
  5
39
100
AcDbSymbolTableRecord
100
AcDbLinetypeTableRecord
  2
STYLE_05
 70
               0
  3

 72
              65
 73
               2
 40
0.20828
 49
0.069425
 74
               0
 49
-0.138855
 74
               0
  0
LTYPE
  5
3A
100
AcDbSymbolTableRecord
100
AcDbLinetypeTableRecord
  2
STYLE_06
 70
               0
  3

 72
              65
 73
               4
 40
1.0416400000000001
 49
0.625
 74
               0
 49
-0.20828
 74
               0
 49
0.06943
 74
               0
 49
-0.13893
 74
               0
  0
LTYPE
  5
3B
100
AcDbSymbolTableRecord
100
AcDbLinetypeTableRecord
  2
STYLE_07
 70
               0
  3

 72
              65
 73
               6
 40
1.875
 49
0.625
 74
               0
 49
-0.20828
 74
               0
 49
0.6250000000000001
 74
               0
 49
-0.2083599999999999
 74
               0
 49
0.06943
 74
               0
 49
-0.1389299999999999
 74
               0
  0
LTYPE
  5
3C
100
AcDbSymbolTableRecord
100
AcDbLinetypeTableRecord
  2
STYLE_08
 70
               0
  3

 72
              65
 73
               6
 40
1.25
 49
0.625
 74
               0
 49
-0.20828
 74
               0
 49
0.06943
 74
               0
 49
-0.13893
 74
               0
 49
0.0694299999999999
 74
               0
 49
-0.13893
 74
               0
  0
LTYPE
  5
3D
100
AcDbSymbolTableRecord
100
AcDbLinetypeTableRecord
  2
STYLE_09
 70
               0
  3

 72
              65
 73
               4
 40
5.0
 49
3.75
 74
               0
 49
-0.2777849999999998
 74
               0
 49
0.6944300000000003
 74
               0
 49
-0.2777849999999998
 74
               0
  0
LTYPE
  5
3E
100
AcDbSymbolTableRecord
100
AcDbLinetypeTableRecord
  2
STYLE_10
 70
               0
  3

 72
              65
 73
               6
 40
5.9375
 49
3.75
 74
               0
 49
-0.2777849999999998
 74
               0
 49
0.6944300000000003
 74
               0
 49
-0.2777849999999998
 74
               0
 49
0.625
 74
               0
 49
-0.3125
 74
               0
  0
LTYPE
  5
3F
100
AcDbSymbolTableRecord
100
AcDbLinetypeTableRecord
  2
STYLE_11
 70
               0
  3

 72
              65
 73
               2
 40
0.1875
 49
0.125
 74
               0
 49
-0.0625
 74
               0
  0
LTYPE
  5
40
100
AcDbSymbolTableRecord
100
AcDbLinetypeTableRecord
  2
STYLE_12
 70
               0
  3

 72
              65
 73
               2
 40
0.3937007874015748
 49
0.1968503937007874
 74
               0
 49
-0.1968503937007874
 74
               0
  0
ENDTAB
  0
TABLE
  2
LAYER
  5
2
100
AcDbSymbolTable
 70
               5
  0
LAYER
  5
14
100
AcDbSymbolTableRecord
100
AcDbLayerTableRecord
  2
0
 70
               0
 62
               7
  6
Continuous
290
               1
370
              -3
390
1D
  0
LAYER
  5
41
100
AcDbSymbolTableRecord
100
AcDbLayerTableRecord
  2
Defpoints
 70
               0
 62
               7
  6
Continuous
290
               0
370
              -3
390
1D
  0
LAYER
  5
42
100
AcDbSymbolTableRecord
100
AcDbLayerTableRecord
  2
template
 70
               0
 62
               7
  6
Continuous
290
               1
370
              -3
390
1D
  0
LAYER
  5
43
100
AcDbSymbolTableRecord
100
AcDbLayerTableRecord
  2
notes
 70
               0
 62
               7
  6
Continuous
290
               1
370
              -3
390
1D
  0
LAYER
  5
44
100
AcDbSymbolTableRecord
100
AcDbLayerTableRecord
  2
ADF70-2303
 70
               0
 62
               7
  6
Continuous
290
               1
370
              -3
390
1D
  0
ENDTAB
  0
TABLE
  2
STYLE
  5
3
100
AcDbSymbolTable
 70
               2
  0
STYLE
  5
17
100
AcDbSymbolTableRecord
100
AcDbTextStyleTableRecord
  2
Standard
 70
               0
 40
0.0
 41
1.0
 50
0.0
 71
               0
 42
0.0
  3
txt
  4
BIGFONT.SHX
  0
STYLE
  5
34
100
AcDbSymbolTableRecord
100
AcDbTextStyleTableRecord
  2
ＭＳ ゴシック
 70
               0
 40
0.0
 41
1.0
 50
0.0
 71
               0
 42
0.0
  3

  4
ＭＳ ゴシック
1001
ACAD
1000
ＭＳ ゴシック
1071
        0
  0
ENDTAB
  0
TABLE
  2
VIEW
  5
5
100
AcDbSymbolTable
 70
               0
  0
ENDTAB
  0
TABLE
  2
UCS
  5
6
100
AcDbSymbolTable
 70
               0
  0
ENDTAB
  0
TABLE
  2
APPID
  5
8
100
AcDbSymbolTable
 70
               1
  0
APPID
  5
16
100
AcDbSymbolTableRecord
100
AcDbRegAppTableRecord
  2
ACAD
 70
               0
  0
ENDTAB
  0
TABLE
  2
DIMSTYLE
  5
9
100
AcDbSymbolTable
 70
               2
100
AcDbDimStyleTable
 71
               0
  0
DIMSTYLE
105
18
100
AcDbSymbolTableRecord
100
AcDbDimStyleTableRecord
  2
Standard
 70
               0
  3

  4

 40
1.0
 41
0.18
 42
0.0625
 43
0.38
 44
0.18
 45
0.0
 46
0.0
 47
0.0
 48
0.0
 71
               0
 72
               0
 73
               1
 74
               1
 75
               0
 76
               0
 77
               0
 78
               0
 79
               0
140
0.18
141
0.09
142
0.0
143
25.399999999999999
144
1.0
145
0.0
146
1.0
147
0.09
148
0.0
170
               0
171
               2
172
               0
173
               0
174
               0
175
               0
176
               0
177
               0
178
               0
179
               0
271
               4
272
               4
273
               2
274
               2
275
               0
276
               0
277
               2
278
              46
279
               0
280
               0
281
               0
282
               0
283
               1
284
               0
285
               0
286
               0
288
               0
289
               3
340
17
341
0
342
0
343
0
344
0
371
              -2
372
              -2
  0
DIMSTYLE
105
4D
100
AcDbSymbolTableRecord
100
AcDbDimStyleTableRecord
  2
tform線あり
 70
               0
  3
<>
  4
[]
 40
1.0
 41
9.9993896484374982
 42
24.999999999999996
 43
0.9999999999999999
 44
0.0
 45
0.0
 46
0.0
 47
0.0
 48
0.0
 71
               0
 72
               0
 73
               0
 74
               0
 75
               0
 76
               0
 77
               1
 78
              11
 79
               0
140
24.432617187500004
141
0.0
142
0.0
143
0.0393700787401575
144
1.0
145
0.0
146
0.8
147
0.4999999999999999
148
0.0
170
               0
171
               3
172
               1
173
               0
174
               1
175
               0
176
               0
177
               0
178
               0
179
               2
271
               1
272
               1
273
               4
274
               2
275
               0
276
               2
277
               2
278
              46
279
               0
280
               0
281
               0
282
               0
283
               1
284
              11
285
              15
286
              15
288
               0
289
               0
340
34
341
45
342
45
343
0
344
0
371
              -2
372
              -2
  0
ENDTAB
  0
TABLE
  2
BLOCK_RECORD
  5
1
100
AcDbSymbolTable
 70
              18
  0
BLOCK_RECORD
  5
A
100
AcDbSymbolTableRecord
100
AcDbBlockTableRecord
  2
*MODEL_SPACE
340
20
  0
BLOCK_RECORD
  5
B
100
AcDbSymbolTableRecord
100
AcDbBlockTableRecord
  2
*PAPER_SPACE
340
21
  0
BLOCK_RECORD
  5
45
100
AcDbSymbolTableRecord
100
AcDbBlockTableRecord
  2
_DOT
340
0
  0
BLOCK_RECORD
  5
23
100
AcDbSymbolTableRecord
100
AcDbBlockTableRecord
  2
グループ
340
0
102
{BLKREFS
331
12C
102
}
  0
BLOCK_RECORD
  5
24
100
AcDbSymbolTableRecord
100
AcDbBlockTableRecord
  2
*D2
340
0
  0
BLOCK_RECORD
  5
25
100
AcDbSymbolTableRecord
100
AcDbBlockTableRecord
  2
*D3
340
0
  0
BLOCK_RECORD
  5
26
100
AcDbSymbolTableRecord
100
AcDbBlockTableRecord
  2
*D4
340
0
  0
BLOCK_RECORD
  5
27
100
AcDbSymbolTableRecord
100
AcDbBlockTableRecord
  2
*D5
340
0
  0
BLOCK_RECORD
  5
28
100
AcDbSymbolTableRecord
100
AcDbBlockTableRecord
  2
*D6
340
0
  0
BLOCK_RECORD
  5
29
100
AcDbSymbolTableRecord
100
AcDbBlockTableRecord
  2
*D7
340
0
  0
BLOCK_RECORD
  5
2A
100
AcDbSymbolTableRecord
100
AcDbBlockTableRecord
  2
*D8
340
0
  0
BLOCK_RECORD
  5
2B
100
AcDbSymbolTableRecord
100
AcDbBlockTableRecord
  2
*D9
340
0
  0
BLOCK_RECORD
  5
2C
100
AcDbSymbolTableRecord
100
AcDbBlockTableRecord
  2
*D10
340
0
  0
BLOCK_RECORD
  5
2D
100
AcDbSymbolTableRecord
100
AcDbBlockTableRecord
  2
*D11
340
0
  0
BLOCK_RECORD
  5
2E
100
AcDbSymbolTableRecord
100
AcDbBlockTableRecord
  2
*D12
340
0
  0
BLOCK_RECORD
  5
2F
100
AcDbSymbolTableRecord
100
AcDbBlockTableRecord
  2
*D13
340
0
  0
BLOCK_RECORD
  5
30
100
AcDbSymbolTableRecord
100
AcDbBlockTableRecord
  2
*D14
340
0
  0
BLOCK_RECORD
  5
31
100
AcDbSymbolTableRecord
100
AcDbBlockTableRecord
  2
*D15
340
0
  0
BLOCK_RECORD
  5
32
100
AcDbSymbolTableRecord
100
AcDbBlockTableRecord
  2
*D16
340
0
  0
BLOCK_RECORD
  5
33
100
AcDbSymbolTableRecord
100
AcDbBlockTableRecord
  2
*D17
340
0
  0
ENDTAB
  0
ENDSEC
  0
SECTION
  2
BLOCKS
  0
BLOCK
  5
D
100
AcDbEntity
  8
0
390
0
100
AcDbBlockBegin
  2
*MODEL_SPACE
 70
               0
 10
0.0
 20
0.0
 30
0.0
  3
*MODEL_SPACE
  1

  0
ENDBLK
  5
E
100
AcDbEntity
  8
0
390
0
100
AcDbBlockEnd
  0
BLOCK
  5
F
100
AcDbEntity
 67
               1
  8
0
390
0
100
AcDbBlockBegin
  2
*PAPER_SPACE
 70
               0
 10
0.0
 20
0.0
 30
0.0
  3
*PAPER_SPACE
  1

  0
ENDBLK
  5
10
100
AcDbEntity
 67
               1
  8
0
390
0
100
AcDbBlockEnd
  0
BLOCK
  5
46
100
AcDbEntity
  8
0
390
0
100
AcDbBlockBegin
  2
_DOT
 70
               0
 10
0.0
 20
0.0
 30
0.0
  3
_DOT
  1

  0
POLYLINE
  5
47
100
AcDbEntity
  8
0
370
              -2
390
0
  6
ByBlock
 62
               0
100
AcDb2dPolyline
 66
               1
 10
0.0
 20
0.0
 30
0.0
 70
               1
 40
0.5
 41
0.5
  0
VERTEX
  5
48
100
AcDbEntity
  8
0
370
              -2
390
0
  6
ByBlock
 62
               0
100
AcDbVertex
100
AcDb2dVertex
 10
-0.25
 20
0.0
 30
0.0
 42
1.0
  0
VERTEX
  5
49
100
AcDbEntity
  8
0
370
              -2
390
0
  6
ByBlock
 62
               0
100
AcDbVertex
100
AcDb2dVertex
 10
0.25
 20
0.0
 30
0.0
 42
1.0
  0
SEQEND
  5
4A
100
AcDbEntity
  8
0
390
0
  0
LINE
  5
4B
100
AcDbEntity
  8
0
370
              -2
390
0
  6
ByBlock
 62
               0
100
AcDbLine
 10
-0.5
 20
0.0
 30
0.0
 11
-1.0
 21
0.0
 31
0.0
  0
ENDBLK
  5
4C
100
AcDbEntity
  8
0
390
0
100
AcDbBlockEnd
  0
BLOCK
  5
4E
100
AcDbEntity
  8
template
390
0
100
AcDbBlockBegin
  2
グループ
 70
               0
 10
0.0
 20
0.0
 30
0.0
  3
グループ
  1

  0
LWPOLYLINE
  5
4F
100
AcDbEntity
  8
0
370
              15
390
0
  6
Continuous
 62
               7
100
AcDbPolyline
 90
        8
 70
             129
 10
869.48406335838945
 20
-1340.4870136649852
 10
869.48406335838945
 20
-1346.4844023585611
 10
859.98286644038626
 20
-1346.4844023585611
 10
859.98286644038626
 20
-1370.9353656220696
 10
851.62748917860335
 20
-1370.9353656220696
 10
851.62748917860335
 20
-1346.4844023585611
 10
842.29453223229393
 20
-1346.4844023585611
 10
842.29453223229393
 20
-1340.4870136649852
  0
LWPOLYLINE
  5
50
100
AcDbEntity
  8
0
370
              15
390
0
  6
Continuous
 62
               7
100
AcDbPolyline
 90
      101
 70
             128
 10
882.21235518894628
 20
-1341.2152621579216
 10
882.22770521772918
 20
-1341.2109014012372
 42
-0.0222221607814586
 10
882.51770979440244
 20
-1341.142276935992
 10
882.53350355839768
 20
-1341.1392735128948
 42
-0.0146883565587483
 10
882.79620626362021
 20
-1341.0972703259456
 42
-0.012745884418185
 10
883.06084523077561
 20
-1341.0697333578728
 10
883.12330030908606
 20
-1341.0648399352849
 42
-0.0198099018566816
 10
883.51414941855751
 20
-1341.0497547778882
 10
883.56596088800666
 20
-1341.0498085535532
 42
-0.0147617382765255
 10
884.06058434897761
 20
-1341.0649285787979
 10
884.13327580385578
 20
-1341.0693011856856
 42
-0.0162624549002273
 10
884.52342943332042
 20
-1341.105534060958
 10
884.64496182458765
 20
-1341.1208206199556
 42
-0.0080020874661618
 10
884.79054085567111
 20
-1341.1415034672229
 10
884.82886032626584
 20
-1341.147574745034
 42
-0.0053821929674823
 10
884.89734443158113
 20
-1341.1591822688556
 10
884.17093873238241
 20
-1343.3401107245695
 42
0.0108667757386811
 10
884.10362166225593
 20
-1343.3269236093504
 10
884.06615363906201
 20
-1343.3204258667552
 42
0.0170663203309071
 10
883.92293685214827
 20
-1343.3005962694635
 10
883.85506151946356
 20
-1343.2935490988759
 42
0.0220162375277295
 10
883.57468211160619
 20
-1343.2768667381058
 10
883.49682654455728
 20
-1343.2756673708393
 42
0.0282606915785984
 10
883.16119022097826
 20
-1343.2894706478085
 10
883.1172769472031
 20
-1343.2937706378125
 42
0.0169677213686591
 10
882.87135245224704
 20
-1343.3263076873641
 42
0.0190576269866942
 10
882.62844448966655
 20
-1343.3764545594704
 10
882.6221853015561
 20
-1343.3779975335797
 42
0.0213685642849968
 10
882.371800817078
 20
-1343.4511978186847
 10
882.36631092216203
 20
-1343.4530608147436
 42
0.023759529759325
 10
882.1128160372615
 20
-1343.5527453366401
 10
882.10771396323366
 20
-1343.5550371121174
 42
0.0261857468818703
 10
881.85554318700486
 20
-1343.6845734494912
 10
881.8451169979179
 20
-1343.6906389239596
 42
0.0272553062017985
 10
881.60868722267844
 20
-1343.8460111299046
 10
881.57392420916688
 20
-1343.8716722779984
 42
0.0325996893185438
 10
881.42376886551745
 20
-1343.9984201509681
 10
881.40005943639994
 20
-1344.0212381794754
 42
0.013805096063099
 10
881.30817628018417
 20
-1344.1146878410327
 42
0.0125280103807736
 10
881.22133374734915
 20
-1344.2128511676347
 10
881.19765330244229
 20
-1344.2410096658202
 42
0.02052180247431
 10
881.07255322692845
 20
-1344.4028029800495
 10
881.05008688644148
 20
-1344.4344627098762
 42
0.0163110129582237
 10
880.89437650719253
 20
-1344.6697931449423
 10
880.89165261113919
 20
-1344.6742169069316
 42
0.013189734189513
 10
880.74485209022987
 20
-1344.9273489993022
 10
880.74315199486682
 20
-1344.9304672384317
 42
0.0107895576060315
 10
880.60537529265935
 20
-1345.1966824480598
 10
880.60464240313092
 20
-1345.1981766807132
 42
0.009137150721535
 10
880.47616245448251
 20
-1345.4727018784704
 10
880.44641682307224
 20
-1345.5394083856318
 42
0.0135418326351345
 10
880.27470288399809
 20
-1345.954346170907
 10
880.2410980755684
 20
-1346.0422123131764
 42
0.0092834542408621
 10
880.06986901564551
 20
-1346.5161108114871
 10
880.04425188792527
 20
-1346.5913518812881
 42
0.0054261043584433
 10
879.93661373963494
 20
-1346.9191158543456
 10
879.91908775342063
 20
-1346.974504016692
 42
0.0008225090824017
 10
879.85041770162752
 20
-1347.1927727747247
 10
878.86572856969406
 20
-1350.2176640679813
 10
882.09835240976781
 20
-1350.2176640679813
 10
881.59415997991437
 20
-1352.1221423663337
 10
878.33810369793105
 20
-1352.1221423663337
 10
872.50895466557722
 20
-1370.9353654323386
 10
870.6838570552668
 20
-1370.9353654323386
 10
876.51853509076773
 20
-1352.1221423663337
 10
874.11341872172761
 20
-1352.1221423663337
 10
874.61761115158106
 20
-1350.2176640679813
 10
877.04615996253096
 20
-1350.2176640679813
 10
877.90631488071949
 20
-1347.5812510672827
 42
-0.0005863560630144
 10
877.94304955891482
 20
-1347.464424647017
 10
878.0191373925835
 20
-1347.2234323476055
 42
-0.0087522378929516
 10
878.21860553603858
 20
-1346.6281562604638
 10
878.31086981145484
 20
-1346.368016091943
 42
-0.0077400953828939
 10
878.56880347058495
 20
-1345.6750114143977
 10
878.58456844216232
 20
-1345.6345805310154
 42
-0.0082369946330787
 10
878.83165291277578
 20
-1345.0305014648159
 42
-0.0085725238363112
 10
879.09889900878056
 20
-1344.4350754255247
 10
879.20052860978626
 20
-1344.2186543235434
 42
-0.016810941059309
 10
879.48747303851599
 20
-1343.6574467974394
 10
879.61331642896198
 20
-1343.4304827644655
 42
-0.0007817726876666
 10
879.66760077903166
 20
-1343.3329385194108
 10
879.6677290850381
 20
-1343.3327088106937
 42
-0.0036626142164967
 10
879.72261694907024
 20
-1343.2361109307058
 42
-0.0080221150664651
 10
879.7797412044838
 20
-1343.1408316959419
 10
879.81044115583813
 20
-1343.0914407468308
 42
-0.0202139325559529
 10
879.9380968956458
 20
-1342.903459146148
 10
879.99216436083248
 20
-1342.8303802819087
 42
-0.024932379180016
 10
880.25132715454708
 20
-1342.5143350397593
 10
880.27546696867864
 20
-1342.4877207668417
 42
-0.0242132121538574
 10
880.61514771022325
 20
-1342.1478372806353
 10
880.66305928297061
 20
-1342.1043281444522
 42
-0.0251017527856977
 10
880.94704098361194
 20
-1341.8713353986868
 10
880.9484864604259
 20
-1341.8702661411078
 42
-0.0130868069041452
 10
881.24674711038301
 20
-1341.6614856725653
 10
881.24830892952446
 20
-1341.6604522322912
 42
-0.0290329526392482
 10
881.55942007091903
 20
-1341.479626730661
 10
881.58926563290834
 20
-1341.4645243478199
 42
-0.0160250190047506
 10
881.85517004666974
 20
-1341.3405082376082
 42
-0.0267600374781903
 10
882.13044612413944
 20
-1341.2397599170592
 10
882.1571820436593
 20
-1341.2315673582339
 42
-0.0049981587689005
 10
882.21235518894628
 20
-1341.2152621579216
 42
-0.0049981587689005
  0
LWPOLYLINE
  5
51
100
AcDbEntity
  8
0
370
              15
390
0
  6
Continuous
 62
               7
100
AcDbPolyline
 90
      118
 70
             128
 10
902.02672275339319
 20
-1350.2916473958089
 10
903.90184467789277
 20
-1350.2916473958089
 10
903.06380577229288
 20
-1352.9732139222087
 42
-0.001058722925114
 10
903.09526158780807
 20
-1352.9363093889201
 10
903.15345567849681
 20
-1352.8683271326779
 42
-0.007187474041069
 10
903.30383089659938
 20
-1352.697686440644
 10
903.44555366985708
 20
-1352.5414502993356
 42
-0.0148118053513132
 10
903.89568296256743
 20
-1352.0738364533247
 10
903.98290529747521
 20
-1351.9884391324656
 42
-0.0086273358691382
 10
904.31845409848006
 20
-1351.6710634984527
 10
904.36228781470788
 20
-1351.6310138541178
 42
-0.0103138323108921
 10
904.62031151693941
 20
-1351.4048507167813
 10
904.66608592326293
 20
-1351.366368669524
 42
-0.0060206748566175
 10
904.8389339873786
 20
-1351.2245740187666
 10
904.84096511826726
 20
-1351.2229483131332
 42
-0.0067069027301675
 10
905.0132579329271
 20
-1351.0887976793404
 10
905.01580669885925
 20
-1351.0868675094605
 42
-0.0076184352042255
 10
905.18671196472451
 20
-1350.9614926342213
 42
-0.0089652861680862
 10
905.36167292745472
 20
-1350.8418593738916
 10
905.39802464760373
 20
-1350.8179481604059
 42
-0.0156916245934203
 10
905.59398414476414
 20
-1350.6976856739313
 42
-0.0023299011071689
 10
905.79424618870974
 20
-1350.5845077344095
 10
905.8096303211239
 20
-1350.5759077393257
 42
-0.0107669341480636
 10
906.04386714623274
 20
-1350.4515076059722
 10
906.06613194730005
 20
-1350.4402908560262
 42
-0.0078058045894601
 10
906.34972206525561
 20
-1350.3029294003863
 10
906.35962915296193
 20
-1350.2983202725193
 42
-0.0181829330472488
 10
906.66993855757494
 20
-1350.1674565314247
 10
906.72399400014535
 20
-1350.1469414114797
 42
-0.0208411536030652
 10
907.07307896759448
 20
-1350.0308509489871
 10
907.08743506771805
 20
-1350.0267325040347
 42
-0.0222799817138322
 10
907.41615486163914
 20
-1349.9480909378933
 10
907.42504382487948
 20
-1349.9463789273077
 42
-0.0215509523886542
 10
907.74151479315606
 20
-1349.8994632387739
 10
907.7839967542053
 20
-1349.8950257119832
 42
-0.0182545924872251
 10
908.01810553351027
 20
-1349.8791818865923
 10
908.05750654985411
 20
-1349.8779573415131
 42
-0.0072962856533126
 10
908.21342942954709
 20
-1349.8753880129909
 10
908.24252910010864
 20
-1349.8753331775872
 42
-0.0059227516314246
 10
908.34027859926414
 20
-1349.8763068893775
 10
908.36952081678453
 20
-1349.8769446559818
 42
-0.0011833111903731
 10
908.40877210046847
 20
-1349.8778936602907
 10
907.6133855048613
 20
-1352.4166276053897
 42
0.0143932051521741
 10
907.58698412251363
 20
-1352.4064286353457
 10
907.57971215009343
 20
-1352.4038574164872
 42
0.0234388603509231
 10
907.53788128415897
 20
-1352.3912381807711
 10
907.52919962124861
 20
-1352.3890572187668
 42
0.0199162742983812
 10
907.46891078716885
 20
-1352.3764404834317
 10
907.4480968493624
 20
-1352.3729432840032
 42
0.0293643550674025
 10
907.3450219906008
 20
-1352.3617932383499
 10
907.32033680988286
 20
-1352.3605816213314
 42
0.021460668686946
 10
907.16719589393404
 20
-1352.3596430609141
 10
907.15782398311251
 20
-1352.3599879724584
 42
0.0167564054178458
 10
906.98630379200051
 20
-1352.3720650148268
 10
906.97784399924512
 20
-1352.3729463552536
 42
0.0137677553246526
 10
906.7904906859842
 20
-1352.3976956637964
 10
906.7831389464726
 20
-1352.398873583765
 42
0.0118497261493884
 10
906.58264118236116
 20
-1352.4358909339562
 10
906.57649117512403
 20
-1352.4371777966742
 42
0.010642114388643
 10
906.36561028784377
 20
-1352.4860101722477
 10
906.36070147944997
 20
-1352.4872575149341
 42
0.009974637970708
 10
906.1422430102823
 20
-1352.5474320432504
 10
906.08069497011718
 20
-1352.5657139218795
 42
0.0191613675862525
 10
905.74471050760121
 20
-1352.6796913021667
 10
905.65665073485286
 20
-1352.7133782124918
 42
0.0205274080143976
 10
905.27134396295537
 20
-1352.8792066203173
 10
905.21369468097942
 20
-1352.9068745848867
 42
0.0181256912187841
 10
904.95541774030642
 20
-1353.0425584038674
 10
904.90246235699215
 20
-1353.0728760170823
 42
0.0140709242414387
 10
904.75750742236403
 20
-1353.1613706905164
 10
904.73125855374713
 20
-1353.1784275092309
 42
0.0086667884399119
 10
904.642332392203
 20
-1353.2384301771147
 42
0.0036408192026964
 10
904.5548991541657
 20
-1353.3006110349099
 10
904.51967227970101
 20
-1353.3260519808198
 42
0.0052260781284804
 10
904.36344358230951
 20
-1353.4413843674545
 10
904.34723672605037
 20
-1353.4536124780723
 42
0.0050024435895583
 10
904.16123338298121
 20
-1353.5968950463428
 10
904.1459152264764
 20
-1353.6089410687803
 42
0.0136138710284539
 10
903.93547395815051
 20
-1353.783907573694
 10
903.90180608235744
 20
-1353.8134865464078
 42
0.0172815186910609
 10
903.6374025407024
 20
-1354.0624832190238
 10
903.63484019485236
 20
-1354.0650690361783
 42
0.0189403857993623
 10
903.38425839627143
 20
-1354.3378743009846
 10
903.35162690273444
 20
-1354.3762182324831
 42
0.0185044199505625
 10
903.15967046375727
 20
-1354.6194668136027
 42
0.0088565243895127
 10
902.98121035713223
 20
-1354.8729832337478
 10
902.97203237748033
 20
-1354.8865246135128
 42
0.0157195347231422
 10
902.78881177114533
 20
-1355.1760468228299
 10
902.74272882921969
 20
-1355.254199019842
 42
0.0095451879780477
 10
902.57764327907773
 20
-1355.5467936622058
 10
902.56649536014015
 20
-1355.5674643343525
 42
0.0100351706261566
 10
902.43445161098884
 20
-1355.8245198948287
 42
0.0086935915418594
 10
902.31212045919847
 20
-1356.086353040225
 10
902.3087997177804
 20
-1356.0937953632049
 42
0.007258017486272
 10
902.18845326583607
 20
-1356.3743873547862
 10
902.18519163252904
 20
-1356.3823073808057
 42
0.0060005122616334
 10
902.06599096418461
 20
-1356.6819170514157
 10
902.06277998584471
 20
-1356.6902785793156
 42
0.0049017786982947
 10
901.94387982698697
 20
-1357.0092075599209
 10
901.94071402059683
 20
-1357.0179604971504
 42
0.0039415167603797
 10
901.82127774253991
 20
-1357.3565025595644
 10
901.81814663988803
 20
-1357.3656057604396
 42
0.0031035838765255
 10
901.69734185419441
 20
-1357.724045622215
 10
901.69423180966464
 20
-1357.7334662435881
 42
0.0025070747151158
 10
901.57133045834814
 20
-1358.1121134605355
 10
901.53403656192381
 20
-1358.2290051257851
 42
0.0029081910283022
 10
901.34201826412141
 20
-1358.8431687840489
 10
901.30121509559592
 20
-1358.9763920263526
 42
0.0009266453732265
 10
901.03279772128019
 20
-1359.8586164862793
 10
901.01191024859224
 20
-1359.9277283656718
 42
-0.0005809993663083
 10
900.73457356804943
 20
-1360.8415364721509
 10
900.66829176979127
 20
-1361.0590214042625
 42
-0.0012018708171438
 10
900.52130746034732
 20
-1361.5371840688313
 10
900.46898760879253
 20
-1361.7059432096619
 42
-0.0002691059603814
 10
900.42541812761328
 20
-1361.8462108300391
 10
897.59246222932393
 20
-1370.9353654323386
 10
895.7744733373454
 20
-1370.9353654323386
 10
902.02672275339319
 20
-1350.2916473958089
  0
SPLINE
  5
52
100
AcDbEntity
  8
0
370
              15
390
0
  6
Continuous
 62
               7
100
AcDbSpline
210
0.0
220
0.0
230
1.0
 70
              13
 71
               2
 72
             782
 73
             779
 74
               0
 42
0.000001
 43
0.000001
 40
0.0
 40
0.0
 40
0.0
 40
1.0
 40
1.0
 40
2.0
 40
2.0
 40
3.0
 40
3.0
 40
4.0
 40
4.0
 40
5.0
 40
5.0
 40
6.0
 40
6.0
 40
7.0
 40
7.0
 40
8.0
 40
8.0
 40
9.0
 40
9.0
 40
10.0
 40
10.0
 40
11.0
 40
11.0
 40
12.0
 40
12.0
 40
13.0
 40
13.0
 40
14.0
 40
14.0
 40
15.0
 40
15.0
 40
16.0
 40
16.0
 40
17.0
 40
17.0
 40
18.0
 40
18.0
 40
19.0
 40
19.0
 40
20.0
 40
20.0
 40
21.0
 40
21.0
 40
22.0
 40
22.0
 40
23.0
 40
23.0
 40
24.0
 40
24.0
 40
25.0
 40
25.0
 40
26.0
 40
26.0
 40
27.0
 40
27.0
 40
28.0
 40
28.0
 40
29.0
 40
29.0
 40
30.0
 40
30.0
 40
31.0
 40
31.0
 40
32.0
 40
32.0
 40
33.0
 40
33.0
 40
34.0
 40
34.0
 40
35.0
 40
35.0
 40
36.0
 40
36.0
 40
37.0
 40
37.0
 40
38.0
 40
38.0
 40
39.0
 40
39.0
 40
40.0
 40
40.0
 40
41.0
 40
41.0
 40
42.0
 40
42.0
 40
43.0
 40
43.0
 40
44.0
 40
44.0
 40
45.0
 40
45.0
 40
46.0
 40
46.0
 40
47.0
 40
47.0
 40
48.0
 40
48.0
 40
49.0
 40
49.0
 40
50.0
 40
50.0
 40
51.0
 40
51.0
 40
52.0
 40
52.0
 40
53.0
 40
53.0
 40
54.0
 40
54.0
 40
55.0
 40
55.0
 40
56.0
 40
56.0
 40
57.0
 40
57.0
 40
58.0
 40
58.0
 40
59.0
 40
59.0
 40
60.0
 40
60.0
 40
61.0
 40
61.0
 40
62.0
 40
62.0
 40
63.0
 40
63.0
 40
64.0
 40
64.0
 40
65.0
 40
65.0
 40
66.0
 40
66.0
 40
67.0
 40
67.0
 40
68.0
 40
68.0
 40
69.0
 40
69.0
 40
70.0
 40
70.0
 40
71.0
 40
71.0
 40
72.0
 40
72.0
 40
73.0
 40
73.0
 40
74.0
 40
74.0
 40
75.0
 40
75.0
 40
76.0
 40
76.0
 40
77.0
 40
77.0
 40
78.0
 40
78.0
 40
79.0
 40
79.0
 40
80.0
 40
80.0
 40
81.0
 40
81.0
 40
82.0
 40
82.0
 40
83.0
 40
83.0
 40
84.0
 40
84.0
 40
85.0
 40
85.0
 40
86.0
 40
86.0
 40
87.0
 40
87.0
 40
88.0
 40
88.0
 40
89.0
 40
89.0
 40
90.0
 40
90.0
 40
91.0
 40
91.0
 40
92.0
 40
92.0
 40
93.0
 40
93.0
 40
94.0
 40
94.0
 40
95.0
 40
95.0
 40
96.0
 40
96.0
 40
97.0
 40
97.0
 40
98.0
 40
98.0
 40
99.0
 40
99.0
 40
100.0
 40
100.0
 40
101.0
 40
101.0
 40
102.0
 40
102.0
 40
103.0
 40
103.0
 40
104.0
 40
104.0
 40
105.0
 40
105.0
 40
106.0
 40
106.0
 40
107.0
 40
107.0
 40
108.0
 40
108.0
 40
109.0
 40
109.0
 40
110.0
 40
110.0
 40
111.0
 40
111.0
 40
112.0
 40
112.0
 40
113.0
 40
113.0
 40
114.0
 40
114.0
 40
115.0
 40
115.0
 40
116.0
 40
116.0
 40
117.0
 40
117.0
 40
118.0
 40
118.0
 40
119.0
 40
119.0
 40
120.0
 40
120.0
 40
121.0
 40
121.0
 40
122.0
 40
122.0
 40
123.0
 40
123.0
 40
124.0
 40
124.0
 40
125.0
 40
125.0
 40
126.0
 40
126.0
 40
127.0
 40
127.0
 40
128.0
 40
128.0
 40
129.0
 40
129.0
 40
130.0
 40
130.0
 40
131.0
 40
131.0
 40
132.0
 40
132.0
 40
133.0
 40
133.0
 40
134.0
 40
134.0
 40
135.0
 40
135.0
 40
136.0
 40
136.0
 40
137.0
 40
137.0
 40
138.0
 40
138.0
 40
139.0
 40
139.0
 40
140.0
 40
140.0
 40
141.0
 40
141.0
 40
142.0
 40
142.0
 40
143.0
 40
143.0
 40
144.0
 40
144.0
 40
145.0
 40
145.0
 40
146.0
 40
146.0
 40
147.0
 40
147.0
 40
148.0
 40
148.0
 40
149.0
 40
149.0
 40
150.0
 40
150.0
 40
151.0
 40
151.0
 40
152.0
 40
152.0
 40
153.0
 40
153.0
 40
154.0
 40
154.0
 40
155.0
 40
155.0
 40
156.0
 40
156.0
 40
157.0
 40
157.0
 40
158.0
 40
158.0
 40
159.0
 40
159.0
 40
160.0
 40
160.0
 40
161.0
 40
161.0
 40
162.0
 40
162.0
 40
163.0
 40
163.0
 40
164.0
 40
164.0
 40
165.0
 40
165.0
 40
166.0
 40
166.0
 40
167.0
 40
167.0
 40
168.0
 40
168.0
 40
169.0
 40
169.0
 40
170.0
 40
170.0
 40
171.0
 40
171.0
 40
172.0
 40
172.0
 40
173.0
 40
173.0
 40
174.0
 40
174.0
 40
175.0
 40
175.0
 40
176.0
 40
176.0
 40
177.0
 40
177.0
 40
178.0
 40
178.0
 40
179.0
 40
179.0
 40
180.0
 40
180.0
 40
181.0
 40
181.0
 40
182.0
 40
182.0
 40
183.0
 40
183.0
 40
184.0
 40
184.0
 40
185.0
 40
185.0
 40
186.0
 40
186.0
 40
187.0
 40
187.0
 40
188.0
 40
188.0
 40
189.0
 40
189.0
 40
190.0
 40
190.0
 40
191.0
 40
191.0
 40
192.0
 40
192.0
 40
193.0
 40
193.0
 40
194.0
 40
194.0
 40
195.0
 40
195.0
 40
196.0
 40
196.0
 40
197.0
 40
197.0
 40
198.0
 40
198.0
 40
199.0
 40
199.0
 40
200.0
 40
200.0
 40
201.0
 40
201.0
 40
202.0
 40
202.0
 40
203.0
 40
203.0
 40
204.0
 40
204.0
 40
205.0
 40
205.0
 40
206.0
 40
206.0
 40
207.0
 40
207.0
 40
208.0
 40
208.0
 40
209.0
 40
209.0
 40
210.0
 40
210.0
 40
211.0
 40
211.0
 40
212.0
 40
212.0
 40
213.0
 40
213.0
 40
214.0
 40
214.0
 40
215.0
 40
215.0
 40
216.0
 40
216.0
 40
217.0
 40
217.0
 40
218.0
 40
218.0
 40
219.0
 40
219.0
 40
220.0
 40
220.0
 40
221.0
 40
221.0
 40
222.0
 40
222.0
 40
223.0
 40
223.0
 40
224.0
 40
224.0
 40
225.0
 40
225.0
 40
226.0
 40
226.0
 40
227.0
 40
227.0
 40
228.0
 40
228.0
 40
229.0
 40
229.0
 40
230.0
 40
230.0
 40
231.0
 40
231.0
 40
232.0
 40
232.0
 40
233.0
 40
233.0
 40
234.0
 40
234.0
 40
235.0
 40
235.0
 40
236.0
 40
236.0
 40
237.0
 40
237.0
 40
238.0
 40
238.0
 40
239.0
 40
239.0
 40
240.0
 40
240.0
 40
241.0
 40
241.0
 40
242.0
 40
242.0
 40
243.0
 40
243.0
 40
244.0
 40
244.0
 40
245.0
 40
245.0
 40
246.0
 40
246.0
 40
247.0
 40
247.0
 40
248.0
 40
248.0
 40
249.0
 40
249.0
 40
250.0
 40
250.0
 40
251.0
 40
251.0
 40
252.0
 40
252.0
 40
253.0
 40
253.0
 40
254.0
 40
254.0
 40
255.0
 40
255.0
 40
256.0
 40
256.0
 40
257.0
 40
257.0
 40
258.0
 40
258.0
 40
259.0
 40
259.0
 40
260.0
 40
260.0
 40
261.0
 40
261.0
 40
262.0
 40
262.0
 40
263.0
 40
263.0
 40
264.0
 40
264.0
 40
265.0
 40
265.0
 40
266.0
 40
266.0
 40
267.0
 40
267.0
 40
268.0
 40
268.0
 40
269.0
 40
269.0
 40
270.0
 40
270.0
 40
271.0
 40
271.0
 40
272.0
 40
272.0
 40
273.0
 40
273.0
 40
274.0
 40
274.0
 40
275.0
 40
275.0
 40
276.0
 40
276.0
 40
277.0
 40
277.0
 40
278.0
 40
278.0
 40
279.0
 40
279.0
 40
280.0
 40
280.0
 40
281.0
 40
281.0
 40
282.0
 40
282.0
 40
283.0
 40
283.0
 40
284.0
 40
284.0
 40
285.0
 40
285.0
 40
286.0
 40
286.0
 40
287.0
 40
287.0
 40
288.0
 40
288.0
 40
289.0
 40
289.0
 40
290.0
 40
290.0
 40
291.0
 40
291.0
 40
292.0
 40
292.0
 40
293.0
 40
293.0
 40
294.0
 40
294.0
 40
295.0
 40
295.0
 40
296.0
 40
296.0
 40
297.0
 40
297.0
 40
298.0
 40
298.0
 40
299.0
 40
299.0
 40
300.0
 40
300.0
 40
301.0
 40
301.0
 40
302.0
 40
302.0
 40
303.0
 40
303.0
 40
304.0
 40
304.0
 40
305.0
 40
305.0
 40
306.0
 40
306.0
 40
307.0
 40
307.0
 40
308.0
 40
308.0
 40
309.0
 40
309.0
 40
310.0
 40
310.0
 40
311.0
 40
311.0
 40
312.0
 40
312.0
 40
313.0
 40
313.0
 40
314.0
 40
314.0
 40
315.0
 40
315.0
 40
316.0
 40
316.0
 40
317.0
 40
317.0
 40
318.0
 40
318.0
 40
319.0
 40
319.0
 40
320.0
 40
320.0
 40
321.0
 40
321.0
 40
322.0
 40
322.0
 40
323.0
 40
323.0
 40
324.0
 40
324.0
 40
325.0
 40
325.0
 40
326.0
 40
326.0
 40
327.0
 40
327.0
 40
328.0
 40
328.0
 40
329.0
 40
329.0
 40
330.0
 40
330.0
 40
331.0
 40
331.0
 40
332.0
 40
332.0
 40
333.0
 40
333.0
 40
334.0
 40
334.0
 40
335.0
 40
335.0
 40
336.0
 40
336.0
 40
337.0
 40
337.0
 40
338.0
 40
338.0
 40
339.0
 40
339.0
 40
340.0
 40
340.0
 40
341.0
 40
341.0
 40
342.0
 40
342.0
 40
343.0
 40
343.0
 40
344.0
 40
344.0
 40
345.0
 40
345.0
 40
346.0
 40
346.0
 40
347.0
 40
347.0
 40
348.0
 40
348.0
 40
349.0
 40
349.0
 40
350.0
 40
350.0
 40
351.0
 40
351.0
 40
352.0
 40
352.0
 40
353.0
 40
353.0
 40
354.0
 40
354.0
 40
355.0
 40
355.0
 40
356.0
 40
356.0
 40
357.0
 40
357.0
 40
358.0
 40
358.0
 40
359.0
 40
359.0
 40
360.0
 40
360.0
 40
361.0
 40
361.0
 40
362.0
 40
362.0
 40
363.0
 40
363.0
 40
364.0
 40
364.0
 40
365.0
 40
365.0
 40
366.0
 40
366.0
 40
367.0
 40
367.0
 40
368.0
 40
368.0
 40
369.0
 40
369.0
 40
370.0
 40
370.0
 40
371.0
 40
371.0
 40
372.0
 40
372.0
 40
373.0
 40
373.0
 40
374.0
 40
374.0
 40
375.0
 40
375.0
 40
376.0
 40
376.0
 40
377.0
 40
377.0
 40
378.0
 40
378.0
 40
379.0
 40
379.0
 40
380.0
 40
380.0
 40
381.0
 40
381.0
 40
382.0
 40
382.0
 40
383.0
 40
383.0
 40
384.0
 40
384.0
 40
385.0
 40
385.0
 40
386.0
 40
386.0
 40
387.0
 40
387.0
 40
388.0
 40
388.0
 40
389.0
 40
389.0
 40
389.0
 10
912.35542720412604
 20
-1350.2807210324463
 30
0.0
 41
1.0
 10
913.17385131284641
 20
-1350.2807210324463
 30
0.0
 41
1.0
 10
913.99227542156677
 20
-1350.2807210324463
 30
0.0
 41
1.0
 10
913.57852168605007
 20
-1351.623347296696
 30
0.0
 41
1.0
 10
913.16476795053336
 20
-1352.9659735609457
 30
0.0
 41
1.0
 10
913.18310744570363
 20
-1352.9372727880309
 30
0.0
 41
0.9999957264408771
 10
913.20161444253745
 20
-1352.9086797378754
 30
0.0
 41
1.0
 10
913.23204376667206
 20
-1352.8616668595037
 30
0.0
 41
1.0
 10
913.26247309080668
 20
-1352.8146539811321
 30
0.0
 41
1.0
 10
913.34183873591076
 20
-1352.6920351742313
 30
0.0
 41
0.9995394069080824
 10
913.42849712746317
 20
-1352.5744571124892
 30
0.0
 41
1.0
 10
913.46425398972542
 20
-1352.5259422198924
 30
0.0
 41
1.0
 10
913.50001085198778
 20
-1352.4774273272953
 30
0.0
 41
1.0
 10
913.6337375198043
 20
-1352.2959870521711
 30
0.0
 41
0.9994460617143226
 10
913.77923800109033
 20
-1352.1238446545235
 30
0.0
 41
1.0
 10
913.78362618206415
 20
-1352.1186529741422
 30
0.0
 41
1.0
 10
913.78801436303809
 20
-1352.113461293761
 30
0.0
 41
1.0
 10
913.92473848237717
 20
-1351.951702256875
 30
0.0
 41
0.9994359394934205
 10
914.07201271272959
 20
-1351.7994860557092
 30
0.0
 41
1.0
 10
914.07439606668288
 20
-1351.7970227253359
 30
0.0
 41
1.0
 10
914.07677942063617
 20
-1351.7945593949628
 30
0.0
 41
1.0
 10
914.21928694307951
 20
-1351.6472698545458
 30
0.0
 41
0.9995293688567617
 10
914.37055862406328
 20
-1351.5089966423805
 30
0.0
 41
1.0
 10
914.38985238332486
 20
-1351.491360756731
 30
0.0
 41
1.0
 10
914.40914614258645
 20
-1351.4737248710812
 30
0.0
 41
1.0
 10
914.52183030504443
 20
-1351.3707234302174
 30
0.0
 41
0.9997087614804048
 10
914.63935319400048
 20
-1351.2732791494186
 30
0.0
 41
1.0
 10
914.65851926718278
 20
-1351.2573875709049
 30
0.0
 41
1.0
 10
914.6776853403652
 20
-1351.2414959923913
 30
0.0
 41
1.0
 10
914.75687608295948
 20
-1351.1758348686174
 30
0.0
 41
0.9999595338694192
 10
914.83723535381068
 20
-1351.1116091379656
 30
0.0
 41
1.0
 10
914.91759462467417
 20
-1351.0473834073041
 30
0.0
 41
0.999974941751543
 10
914.99885515901985
 20
-1350.9843018533561
 30
0.0
 41
1.0
 10
915.01984130516917
 20
-1350.9680105660645
 30
0.0
 41
1.0
 10
915.04082745131848
 20
-1350.9517192787732
 30
0.0
 41
1.0
 10
915.12539533663289
 20
-1350.8860702689221
 30
0.0
 41
0.9999792037125567
 10
915.21080293641171
 20
-1350.8215174872716
 30
0.0
 41
1.0
 10
915.23162776231368
 20
-1350.8057776650212
 30
0.0
 41
1.0
 10
915.25245258821565
 20
-1350.7900378427705
 30
0.0
 41
1.0
 10
915.29621053617075
 20
-1350.7569647056359
 30
0.0
 41
0.9999993373856818
 10
915.33989222232435
 20
-1350.7237909102041
 30
0.0
 41
1.0
 10
915.38357390846534
 20
-1350.6906171147818
 30
0.0
 41
0.9999160953817072
 10
915.42810031938723
 20
-1350.6585860495818
 30
0.0
 41
1.0
 10
915.46092220680669
 20
-1350.634974893997
 30
0.0
 41
1.0
 10
915.49374409422614
 20
-1350.6113637384119
 30
0.0
 41
1.0
 10
915.60391427998456
 20
-1350.532110362044
 30
0.0
 41
0.9980964527231393
 10
915.72300327348603
 20
-1350.4670228891875
 30
0.0
 41
1.0
 10
915.76003588041272
 20
-1350.4467829095952
 30
0.0
 41
1.0
 10
915.79706848733952
 20
-1350.4265429300028
 30
0.0
 41
1.0
 10
915.97639550061353
 20
-1350.3285326793011
 30
0.0
 41
0.9984572810573006
 10
916.16548406697336
 20
-1350.2510104179541
 30
0.0
 41
1.0
 10
916.16913033636934
 20
-1350.2495155256161
 30
0.0
 41
1.0
 10
916.17277660576531
 20
-1350.2480206332782
 30
0.0
 41
1.0
 10
916.35457263333251
 20
-1350.1734881566076
 30
0.0
 41
0.9987838528033908
 10
916.54282529189152
 20
-1350.1172225164419
 30
0.0
 41
1.0
 10
916.54706324109168
 20
-1350.1159558627512
 30
0.0
 41
1.0
 10
916.55130119029184
 20
-1350.1146892090605
 30
0.0
 41
1.0
 10
916.73107795045223
 20
-1350.0609568762759
 30
0.0
 41
0.9990652816207277
 10
916.91482388216662
 20
-1350.0229531967341
 30
0.0
 41
1.0
 10
916.92001228319623
 20
-1350.0218800936279
 30
0.0
 41
1.0
 10
916.92520068422573
 20
-1350.0208069905218
 30
0.0
 41
1.0
 10
917.09856981388032
 20
-1349.9849495171923
 30
0.0
 41
0.9992909934270279
 10
917.27414558034081
 20
-1349.9622390847255
 30
0.0
 41
1.0
 10
917.44972134679824
 20
-1349.939528652259
 30
0.0
 41
0.9994553539448207
 10
917.62641277989076
 20
-1349.9284493480529
 30
0.0
 41
1.0
 10
917.66184718768955
 20
-1349.9262274600051
 30
0.0
 41
1.0
 10
917.69728159548822
 20
-1349.924005571957
 30
0.0
 41
1.0
 10
917.86350736205509
 20
-1349.9135825095454
 30
0.0
 41
0.9990928098292808
 10
918.03001715395567
 20
-1349.9173421507801
 30
0.0
 41
1.0
 10
918.0685789892251
 20
-1349.9182128423131
 30
0.0
 41
1.0
 10
918.10714082449454
 20
-1349.9190835338459
 30
0.0
 41
1.0
 10
918.19652694585591
 20
-1349.9211017920145
 30
0.0
 41
0.9998382089204702
 10
918.28578262864448
 20
-1349.9263339185427
 30
0.0
 41
1.0
 10
918.28621253486619
 20
-1349.9263591194449
 30
0.0
 41
1.0
 10
918.28664244108791
 20
-1349.9263843203473
 30
0.0
 41
1.0
 10
918.37503831143249
 20
-1349.9315660450709
 30
0.0
 41
0.9997558016758517
 10
918.46311888863147
 20
-1349.9406485604372
 30
0.0
 41
1.0
 10
918.46359502706105
 20
-1349.9406976579198
 30
0.0
 41
1.0
 10
918.46407116549062
 20
-1349.9407467554024
 30
0.0
 41
1.0
 10
918.55119946583227
 20
-1349.9497310758038
 30
0.0
 41
0.9996565144181171
 10
918.63773731917445
 20
-1349.9632683824927
 30
0.0
 41
1.0
 10
918.63820324454946
 20
-1349.9633412682238
 30
0.0
 41
1.0
 10
918.63866916992458
 20
-1349.9634141539545
 30
0.0
 41
1.0
 10
918.72427517251401
 20
-1349.9768056891812
 30
0.0
 41
0.9995321806866616
 10
918.8089022528444
 20
-1349.9954061776109
 30
0.0
 41
1.0
 10
918.80929144741867
 20
-1349.9954917200773
 30
0.0
 41
1.0
 10
918.80968064199305
 20
-1349.9955772625437
 30
0.0
 41
1.0
 10
918.8935293331748
 20
-1350.0140066660408
 30
0.0
 41
0.9993819199219489
 10
918.97587586736859
 20
-1350.038282049301
 30
0.0
 41
1.0
 10
918.97611430086567
 20
-1350.03835233841
 30
0.0
 41
1.0
 10
918.97635273436288
 20
-1350.0384226275191
 30
0.0
 41
1.0
 10
919.05822240156385
 20
-1350.0625574325613
 30
0.0
 41
0.9992088568505585
 10
919.13791492055304
 20
-1350.093122668356
 30
0.0
 41
1.0
 10
919.21759591143211
 20
-1350.1236822690892
 30
0.0
 41
0.9990226101772418
 10
919.29426658133923
 20
-1350.1611597007038
 30
0.0
 41
1.0
 10
919.37092572313645
 20
-1350.1986314972569
 30
0.0
 41
0.998842427397283
 10
919.4436293503486
 20
-1350.2432962725095
 30
0.0
 41
1.0
 10
919.44389705872845
 20
-1350.2434607365822
 30
0.0
 41
1.0
 10
919.4441647671083
 20
-1350.2436252006546
 30
0.0
 41
1.0
 10
919.51740381107834
 20
-1350.2886189040512
 30
0.0
 41
0.998692884449106
 10
919.58566667778894
 20
-1350.3408546383314
 30
0.0
 41
1.0
 10
919.58624797001175
 20
-1350.3412994515593
 30
0.0
 41
1.0
 10
919.58682926223457
 20
-1350.3417442647874
 30
0.0
 41
1.0
 10
919.65625471338956
 20
-1350.3948696255227
 30
0.0
 41
0.9986007262278064
 10
919.7196808831568
 20
-1350.4550303952167
 30
0.0
 41
1.0
 10
919.72057529861388
 20
-1350.4558787630517
 30
0.0
 41
1.0
 10
919.72146971407096
 20
-1350.4567271308865
 30
0.0
 41
1.0
 10
919.78668471475203
 20
-1350.5185846362501
 30
0.0
 41
0.9985581491381206
 10
919.84489232645387
 20
-1350.587077126522
 30
0.0
 41
1.0
 10
919.85415078004962
 20
-1350.5979714842238
 30
0.0
 41
1.0
 10
919.86340923364537
 20
-1350.6088658419253
 30
0.0
 41
1.0
 10
919.9401337525386
 20
-1350.6991470476003
 30
0.0
 41
0.997046023352044
 10
920.00212565369793
 20
-1350.8001141317818
 30
0.0
 41
1.0
 10
920.01659501877771
 20
-1350.8236805908637
 30
0.0
 41
1.0
 10
920.0310643838576
 20
-1350.8472470499453
 30
0.0
 41
1.0
 10
920.07080108386913
 20
-1350.9119667739756
 30
0.0
 41
0.998846881663589
 10
920.10414745462094
 20
-1350.9801992264038
 30
0.0
 41
1.0
 10
920.11118347711226
 20
-1350.994596147541
 30
0.0
 41
1.0
 10
920.11821949960358
 20
-1351.0089930686781
 30
0.0
 41
1.0
 10
920.13749382537355
 20
-1351.0484316788336
 30
0.0
 41
0.9998431189998148
 10
920.15535915286739
 20
-1351.0885282332722
 30
0.0
 41
1.0
 10
920.17322448038976
 20
-1351.1286247877752
 30
0.0
 41
0.9999989989707198
 10
920.19120320381262
 20
-1351.1686706253599
 30
0.0
 41
1.0
 10
920.19737551539276
 20
-1351.182418842141
 30
0.0
 41
1.0
 10
920.20354782697291
 20
-1351.1961670589221
 30
0.0
 41
1.0
 10
920.23387117358357
 20
-1351.2637093301314
 30
0.0
 41
0.9998790356319811
 10
920.26207905372166
 20
-1351.3321620820693
 30
0.0
 41
1.0
 10
920.26891423500479
 20
-1351.348749183494
 30
0.0
 41
1.0
 10
920.27574941628802
 20
-1351.3653362849188
 30
0.0
 41
1.0
 10
920.29930707866822
 20
-1351.4225042398036
 30
0.0
 41
0.9998227574561032
 10
920.32069582705958
 20
-1351.4805185480861
 30
0.0
 41
1.0
 10
920.34208457544798
 20
-1351.53853285636
 30
0.0
 41
0.999679797104028
 10
920.36051086040709
 20
-1351.597554975478
 30
0.0
 41
1.0
 10
920.36441466313318
 20
-1351.6100594336488
 30
0.0
 41
1.0
 10
920.36831846585926
 20
-1351.6225638918195
 30
0.0
 41
1.0
 10
920.39455235626929
 20
-1351.7065949272742
 30
0.0
 41
0.9979274938733839
 10
920.40977687974851
 20
-1351.7932992859351
 30
0.0
 41
1.0
 10
920.41200056701007
 20
-1351.8059632867585
 30
0.0
 41
1.0
 10
920.41422425427163
 20
-1351.8186272875816
 30
0.0
 41
1.0
 10
920.42515419396943
 20
-1351.88087379487
 30
0.0
 41
0.9994985982137972
 10
920.43212235914621
 20
-1351.9436872960105
 30
0.0
 41
1.0
 10
920.43909052432309
 20
-1352.0065007971518
 30
0.0
 41
0.9996372611201598
 10
920.44266639009084
 20
-1352.0695983758337
 30
0.0
 41
1.0
 10
920.44283496758021
 20
-1352.0725729929163
 30
0.0
 41
1.0
 10
920.44300354506959
 20
-1352.0755476099989
 30
0.0
 41
1.0
 10
920.44691656581608
 20
-1352.1445944228408
 30
0.0
 41
0.9997730630735291
 10
920.44788487930407
 20
-1352.2137452468758
 30
0.0
 41
1.0
 10
920.4479419857222
 20
-1352.2178234260193
 30
0.0
 41
1.0
 10
920.44799909214032
 20
-1352.2219016051629
 30
0.0
 41
1.0
 10
920.44908161846445
 20
-1352.2992087874843
 30
0.0
 41
0.9998772614071387
 10
920.44774153173285
 20
-1352.3765119340453
 30
0.0
 41
1.0
 10
920.44765226853406
 20
-1352.3816610978802
 30
0.0
 41
1.0
 10
920.44756300533538
 20
-1352.386810261715
 30
0.0
 41
1.0
 10
920.4460443922062
 20
-1352.4744117359501
 30
0.0
 41
0.9999415567324733
 10
920.4426320819598
 20
-1352.5619598976357
 30
0.0
 41
1.0
 10
920.44239076128474
 20
-1352.5681513573672
 30
0.0
 41
1.0
 10
920.44214944060957
 20
-1352.574342817099
 30
0.0
 41
1.0
 10
920.43825448901305
 20
-1352.6742738982471
 30
0.0
 41
0.999971681042178
 10
920.43285590589539
 20
-1352.774135036457
 30
0.0
 41
1.0
 10
920.42964310710579
 20
-1352.8335642861298
 30
0.0
 41
1.0
 10
920.42643030831618
 20
-1352.8929935358026
 30
0.0
 41
1.0
 10
920.41835639916383
 20
-1353.0423419370782
 30
0.0
 41
0.9999819129888402
 10
920.4084866075475
 20
-1353.1915824147845
 30
0.0
 41
1.0
 10
920.39861681593084
 20
-1353.3408228924959
 30
0.0
 41
1.0
 10
920.39617749536706
 20
-1353.3780159383455
 30
0.0
 41
1.0
 10
920.41887572920371
 20
-1353.3392749410064
 30
0.0
 41
0.9999982128141852
 10
920.44172028797379
 20
-1353.3006200470236
 30
0.0
 41
1.0
 10
920.46862984784855
 20
-1353.2550868329854
 30
0.0
 41
1.0
 10
920.4955394077233
 20
-1353.2095536189472
 30
0.0
 41
1.0
 10
920.57220308624983
 20
-1353.0798322968767
 30
0.0
 41
0.9998609190056974
 10
920.6531503991099
 20
-1352.9527399149499
 30
0.0
 41
1.0
 10
920.6827987205902
 20
-1352.9061901819948
 30
0.0
 41
1.0
 10
920.71244704207049
 20
-1352.8596404490397
 30
0.0
 41
1.0
 10
920.7947192623119
 20
-1352.7304678790379
 30
0.0
 41
0.9999067609735608
 10
920.88048827177545
 20
-1352.6035901895975
 30
0.0
 41
1.0
 10
920.88289297497874
 20
-1352.6000329235392
 30
0.0
 41
1.0
 10
920.88529767818204
 20
-1352.5964756574808
 30
0.0
 41
1.0
 10
920.96625728124138
 20
-1352.4767125001536
 30
0.0
 41
0.9998784952147927
 10
921.05091089092093
 20
-1352.3595312834475
 30
0.0
 41
1.0
 10
921.13556450060332
 20
-1352.2423500667376
 30
0.0
 41
0.9998532968282405
 10
921.22418212142657
 20
-1352.1281371582663
 30
0.0
 41
1.0
 10
921.24414391041751
 20
-1352.1024098372463
 30
0.0
 41
1.0
 10
921.26410569940856
 20
-1352.0766825162264
 30
0.0
 41
1.0
 10
921.38258974916675
 20
-1351.9239769052588
 30
0.0
 41
0.9991551975795658
 10
921.51321419878934
 20
-1351.7815173431761
 30
0.0
 41
1.0
 10
921.51672381476567
 20
-1351.7776897415556
 30
0.0
 41
1.0
 10
921.520233430742
 20
-1351.7738621399349
 30
0.0
 41
1.0
 10
921.64383864841034
 20
-1351.6390577810951
 30
0.0
 41
0.9997418144181396
 10
921.77344078811348
 20
-1351.5100083704801
 30
0.0
 41
1.0
 10
921.90304292781525
 20
-1351.3809589598668
 30
0.0
 41
0.9989238204633596
 10
922.04404547606714
 20
-1351.2644739978271
 30
0.0
 41
1.0
 10
922.08929315420437
 20
-1351.2270940062201
 30
0.0
 41
1.0
 10
922.13454083234171
 20
-1351.1897140146132
 30
0.0
 41
1.0
 10
922.27478088956491
 20
-1351.0738589613206
 30
0.0
 41
0.9990825084096418
 10
922.42442082216962
 20
-1350.9704299634873
 30
0.0
 41
1.0
 10
922.4344661862259
 20
-1350.9634867504083
 30
0.0
 41
1.0
 10
922.44451155028219
 20
-1350.956543537329
 30
0.0
 41
1.0
 10
922.57406075477422
 20
-1350.8670009656539
 30
0.0
 41
0.999816489982614
 10
922.70694495814985
 20
-1350.7824867241379
 30
0.0
 41
1.0
 10
922.718790518677
 20
-1350.7749529576115
 30
0.0
 41
1.0
 10
922.73063607920426
 20
-1350.7674191910851
 30
0.0
 41
1.0
 10
922.83982916152638
 20
-1350.6979724826213
 30
0.0
 41
0.9997473449131797
 10
922.9520331187756
 20
-1350.6335035248057
 30
0.0
 41
1.0
 10
923.06423707602994
 20
-1350.5690345669873
 30
0.0
 41
0.9999327861147987
 10
923.17790568679982
 20
-1350.5071845753023
 30
0.0
 41
1.0
 10
923.1784576893549
 20
-1350.5068842166263
 30
0.0
 41
1.0
 10
923.17900969190987
 20
-1350.5065838579503
 30
0.0
 41
1.0
 10
923.29378230779116
 20
-1350.4441331489122
 30
0.0
 41
0.9996956420483206
 10
923.41149563362944
 20
-1350.3874196819386
 30
0.0
 41
1.0
 10
923.44193603852659
 20
-1350.3727537052064
 30
0.0
 41
1.0
 10
923.47237644342363
 20
-1350.3580877284744
 30
0.0
 41
1.0
 10
923.57535355016603
 20
-1350.3084740700319
 30
0.0
 41
0.9998070570176123
 10
923.68019993910525
 20
-1350.2629434831315
 30
0.0
 41
1.0
 10
923.78504632804515
 20
-1350.2174128962306
 30
0.0
 41
0.9997827436147351
 10
923.8916992646524
 20
-1350.17629172492
 30
0.0
 41
1.0
 10
923.91092211428554
 20
-1350.1688801512869
 30
0.0
 41
1.0
 10
923.93014496391879
 20
-1350.1614685776537
 30
0.0
 41
1.0
 10
924.07524359979323
 20
-1350.1055242590764
 30
0.0
 41
0.9988031841977212
 10
924.22511396239952
 20
-1350.0640241949084
 30
0.0
 41
1.0
 10
924.25003121075986
 20
-1350.0571244491025
 30
0.0
 41
1.0
 10
924.2749484591202
 20
-1350.0502247032964
 30
0.0
 41
1.0
 10
924.44221848476855
 20
-1350.0039065608892
 30
0.0
 41
0.9984748040549728
 10
924.61357539341873
 20
-1349.9763123286241
 30
0.0
 41
1.0
 10
924.61831452966885
 20
-1349.9755491681103
 30
0.0
 41
1.0
 10
924.62305366591886
 20
-1349.9747860075968
 30
0.0
 41
1.0
 10
924.78493230206891
 20
-1349.9487180963592
 30
0.0
 41
0.9984436495480337
 10
924.9487070457925
 20
-1349.9408401425405
 30
0.0
 41
1.0
 10
924.97040425392197
 20
-1349.9397964553409
 30
0.0
 41
1.0
 10
924.99210146205155
 20
-1349.9387527681413
 30
0.0
 41
1.0
 10
925.1124817895153
 20
-1349.9329621887218
 30
0.0
 41
0.9987954789335238
 10
925.23285003442697
 20
-1349.9389987164641
 30
0.0
 41
1.0
 10
925.25281482692492
 20
-1349.9399999608029
 30
0.0
 41
1.0
 10
925.27277961942286
 20
-1349.9410012051417
 30
0.0
 41
1.0
 10
925.35321827934035
 20
-1349.9450352442068
 30
0.0
 41
0.9997941595877324
 10
925.43342705743112
 20
-1349.9523293101274
 30
0.0
 41
1.0
 10
925.51363583552336
 20
-1349.9596233760483
 30
0.0
 41
0.9998589466237868
 10
925.59355438237571
 20
-1349.969607230498
 30
0.0
 41
1.0
 10
925.62596058418637
 20
-1349.9736555874174
 30
0.0
 41
1.0
 10
925.65836678599703
 20
-1349.977703944337
 30
0.0
 41
1.0
 10
925.80309773646843
 20
-1349.9957845126255
 30
0.0
 41
0.9993495063249182
 10
925.94614898023406
 20
-1350.0242502223671
 30
0.0
 41
1.0
 10
925.97908267738512
 20
-1350.0308036855818
 30
0.0
 41
1.0
 10
926.01201637453607
 20
-1350.0373571487962
 30
0.0
 41
1.0
 10
926.12131019774142
 20
-1350.0591054829315
 30
0.0
 41
0.9996788715560641
 10
926.22936176969915
 20
-1350.086363282295
 30
0.0
 41
1.0
 10
926.2314247722386
 20
-1350.0868837088681
 30
0.0
 41
1.0
 10
926.23348777477815
 20
-1350.0874041354411
 30
0.0
 41
1.0
 10
926.33741334165586
 20
-1350.113621081658
 30
0.0
 41
0.9995480654492424
 10
926.43957557688509
 20
-1350.1460360382825
 30
0.0
 41
1.0
 10
926.44126521901546
 20
-1350.1465721431969
 30
0.0
 41
1.0
 10
926.44295486114584
 20
-1350.1471082481112
 30
0.0
 41
1.0
 10
926.5417378121158
 20
-1350.1784509949075
 30
0.0
 41
0.9993867959456879
 10
926.6380849705572
 20
-1350.2166303641968
 30
0.0
 41
1.0
 10
926.63932791964203
 20
-1350.2171229060932
 30
0.0
 41
1.0
 10
926.64057086872685
 20
-1350.2176154479894
 30
0.0
 41
1.0
 10
926.73443212899929
 20
-1350.2548097334864
 30
0.0
 41
0.9992050256521639
 10
926.82503180403296
 20
-1350.2993636327253
 30
0.0
 41
1.0
 10
926.82576648674558
 20
-1350.2997249251862
 30
0.0
 41
1.0
 10
926.8265011694582
 20
-1350.300086217647
 30
0.0
 41
1.0
 10
926.91563147906572
 20
-1350.3439175319636
 30
0.0
 41
0.9990222350741799
 10
927.00054154045995
 20
-1350.3954507996623
 30
0.0
 41
1.0
 10
927.00072542574219
 20
-1350.3955624025668
 30
0.0
 41
1.0
 10
927.00090931102443
 20
-1350.3956740054714
 30
0.0
 41
1.0
 10
927.08545160185349
 20
-1350.4469840673605
 30
0.0
 41
0.998864274380517
 10
927.16472613647272
 20
-1350.5061082548857
 30
0.0
 41
1.0
 10
927.2440006710915
 20
-1350.5652324424109
 30
0.0
 41
0.9987681233310543
 10
927.31702445536746
 20
-1350.6319231338116
 30
0.0
 41
1.0
 10
927.31735338333351
 20
-1350.6322235350258
 30
0.0
 41
1.0
 10
927.31768231129945
 20
-1350.6325239362402
 30
0.0
 41
1.0
 10
927.39136395150786
 20
-1350.6998154300702
 30
0.0
 41
0.9987496570899009
 10
927.45795775683609
 20
-1350.7741282441582
 30
0.0
 41
1.0
 10
927.45872992659565
 20
-1350.7749899175151
 30
0.0
 41
1.0
 10
927.45950209635521
 20
-1350.775851590872
 30
0.0
 41
1.0
 10
927.52764024120268
 20
-1350.851887751674
 30
0.0
 41
0.9988147669827378
 10
927.58806249542829
 20
-1350.9341887585169
 30
0.0
 41
1.0
 10
927.58918182150592
 20
-1350.9357133898693
 30
0.0
 41
1.0
 10
927.59030114758366
 20
-1350.9372380212219
 30
0.0
 41
1.0
 10
927.65296205396385
 20
-1351.0225882907694
 30
0.0
 41
0.9989452636216906
 10
927.70752896692431
 20
-1351.113326979925
 30
0.0
 41
1.0
 10
927.70887769301066
 20
-1351.1155697609522
 30
0.0
 41
1.0
 10
927.7102264190969
 20
-1351.1178125419794
 30
0.0
 41
1.0
 10
927.76749078422995
 20
-1351.21303679319
 30
0.0
 41
0.9991046436070314
 10
927.81649999755155
 20
-1351.3127612262156
 30
0.0
 41
1.0
 10
927.8179638591414
 20
-1351.3157399062879
 30
0.0
 41
1.0
 10
927.81942772073126
 20
-1351.3187185863601
 30
0.0
 41
1.0
 10
927.87136465723268
 20
-1351.4244003795304
 30
0.0
 41
0.9992763831101232
 10
927.91511778578774
 20
-1351.5337244414861
 30
0.0
 41
1.0
 10
927.91659705545112
 20
-1351.5374206290198
 30
0.0
 41
1.0
 10
927.91807632511461
 20
-1351.5411168165538
 30
0.0
 41
1.0
 10
927.96478799299632
 20
-1351.6578332535764
 30
0.0
 41
0.9994163472883454
 10
928.00342102418676
 20
-1351.7774668420427
 30
0.0
 41
1.0
 10
928.00465917643328
 20
-1351.7813009858246
 30
0.0
 41
1.0
 10
928.00589732867979
 20
-1351.7851351296067
 30
0.0
 41
1.0
 10
928.04578088969697
 20
-1351.9086411910848
 30
0.0
 41
0.9997268055890187
 10
928.079848945609
 20
-1352.0338762230356
 30
0.0
 41
1.0
 10
928.08077912587942
 20
-1352.0372955891473
 30
0.0
 41
1.0
 10
928.08170930614972
 20
-1352.0407149552591
 30
0.0
 41
1.0
 10
928.11391700152149
 20
-1352.1591112549888
 30
0.0
 41
0.999670131900115
 10
928.14000261829153
 20
-1352.2790052082496
 30
0.0
 41
1.0
 10
928.16608823506135
 20
-1352.3988991615092
 30
0.0
 41
0.9995785451109415
 10
928.18517181240065
 20
-1352.5201049225375
 30
0.0
 41
1.0
 10
928.18939159457489
 20
-1352.5469060773057
 30
0.0
 41
1.0
 10
928.19361137674912
 20
-1352.5737072320737
 30
0.0
 41
1.0
 10
928.22018635268785
 20
-1352.7424932057775
 30
0.0
 41
0.9979925101216206
 10
928.22521193861405
 20
-1352.9132845338693
 30
0.0
 41
1.0
 10
928.22603675103869
 20
-1352.9413152573497
 30
0.0
 41
1.0
 10
928.22686156346333
 20
-1352.96934598083
 30
0.0
 41
1.0
 10
928.23023752454048
 20
-1353.0840758619597
 30
0.0
 41
0.9995314902263083
 10
928.22658733240189
 20
-1353.198797345713
 30
0.0
 41
1.0
 10
928.22293714026341
 20
-1353.3135188294634
 30
0.0
 41
0.9996245486944361
 10
928.2130080451326
 20
-1353.4278681005871
 30
0.0
 41
1.0
 10
928.21284499713829
 20
-1353.4297458567235
 30
0.0
 41
1.0
 10
928.21268194914398
 20
-1353.4316236128595
 30
0.0
 41
1.0
 10
928.20242675802558
 20
-1353.5497283962463
 30
0.0
 41
0.9997286095000937
 10
928.18668143445484
 20
-1353.667227305137
 30
0.0
 41
1.0
 10
928.1862879418037
 20
-1353.6701637298447
 30
0.0
 41
1.0
 10
928.18589444915256
 20
-1353.6731001545525
 30
0.0
 41
1.0
 10
928.16936214028146
 20
-1353.7964719128465
 30
0.0
 41
0.9998265533968218
 10
928.14824668154836
 20
-1353.9191423876364
 30
0.0
 41
1.0
 10
928.14757013941096
 20
-1353.9230727661452
 30
0.0
 41
1.0
 10
928.14689359727356
 20
-1353.9270031446542
 30
0.0
 41
1.0
 10
928.12442505426543
 20
-1354.0575343764633
 30
0.0
 41
0.9999022530851771
 10
928.09831558965629
 20
-1354.1873863450978
 30
0.0
 41
1.0
 10
928.09733694849115
 20
-1354.1922534874843
 30
0.0
 41
1.0
 10
928.09635830732589
 20
-1354.1971206298706
 30
0.0
 41
1.0
 10
928.06829156038248
 20
-1354.3367068832958
 30
0.0
 41
0.9999524761932952
 10
928.03750859154775
 20
-1354.4757193764603
 30
0.0
 41
1.0
 10
928.03623248437361
 20
-1354.4814821357568
 30
0.0
 41
1.0
 10
928.03495637719948
 20
-1354.4872448950532
 30
0.0
 41
1.0
 10
928.00162119401898
 20
-1354.637782906801
 30
0.0
 41
0.9999813588727503
 10
927.96645019322352
 20
-1354.7879026194546
 30
0.0
 41
1.0
 10
927.96489626776429
 20
-1354.7945352098889
 30
0.0
 41
1.0
 10
927.96334234230494
 20
-1354.8011678003231
 30
0.0
 41
1.0
 10
927.92506349059124
 20
-1354.9645526938436
 30
0.0
 41
0.9999955237700667
 10
927.88580761260596
 20
-1355.1277055974701
 30
0.0
 41
1.0
 10
927.87352597697634
 20
-1355.1787497879732
 30
0.0
 41
1.0
 10
927.86124434134672
 20
-1355.2297939784764
 30
0.0
 41
1.0
 10
927.79742519209356
 20
-1355.4950352631454
 30
0.0
 41
0.9999993604507451
 10
927.73300624494107
 20
-1355.7601315137654
 30
0.0
 41
1.0
 10
927.72828740938826
 20
-1355.7795504218295
 30
0.0
 41
1.0
 10
927.72356857383545
 20
-1355.7989693298937
 30
0.0
 41
1.0
 10
927.64971195557416
 20
-1356.1029033966552
 30
0.0
 41
0.9999659914730671
 10
927.57085235968827
 20
-1356.4055779432169
 30
0.0
 41
1.0
 10
927.56589967075831
 20
-1356.4245870803968
 30
0.0
 41
1.0
 10
927.56094698182835
 20
-1356.4435962175767
 30
0.0
 41
1.0
 10
927.47218200808334
 20
-1356.7842890384948
 30
0.0
 41
0.9999441976025114
 10
927.37623897511639
 20
-1357.1230304638059
 30
0.0
 41
1.0
 10
927.35953845669246
 20
-1357.1819941763281
 30
0.0
 41
1.0
 10
927.34283793826842
 20
-1357.2409578888503
 30
0.0
 41
1.0
 10
927.21349386845282
 20
-1357.6976267392083
 30
0.0
 41
0.9999625120731808
 10
927.07626110113188
 20
-1358.151987273196
 30
0.0
 41
1.0
 10
927.04047115804701
 20
-1358.2704832998293
 30
0.0
 41
1.0
 10
927.00468121496215
 20
-1358.3889793264627
 30
0.0
 41
1.0
 10
926.93016101092007
 20
-1358.6357064045674
 30
0.0
 41
0.9999793386307924
 10
926.85247498778597
 20
-1358.881455043793
 30
0.0
 41
1.0
 10
926.77478896464845
 20
-1359.1272036830292
 30
0.0
 41
1.0
 10
926.76400940577764
 20
-1359.1612215874038
 30
0.0
 41
1.0
 10
924.91363635250843
 20
-1365.0482935098712
 30
0.0
 41
1.0
 10
923.06326329923922
 20
-1370.9353654323386
 30
0.0
 41
1.0
 10
922.10200660921578
 20
-1370.9353654323386
 30
0.0
 41
1.0
 10
921.14074991919233
 20
-1370.9353654323386
 30
0.0
 41
1.0
 10
922.75969469787071
 20
-1365.7873369305491
 30
0.0
 41
1.0
 10
924.3786394765491
 20
-1360.6393084287597
 30
0.0
 41
1.0
 10
924.42380529971319
 20
-1360.4952772065226
 30
0.0
 41
1.0
 10
924.46897112287718
 20
-1360.3512459842857
 30
0.0
 41
1.0
 10
924.63927554024588
 20
-1359.8081549551034
 30
0.0
 41
0.9999911657905769
 10
924.80500835194061
 20
-1359.263651423694
 30
0.0
 41
1.0
 10
924.83470429543445
 20
-1359.1660874836653
 30
0.0
 41
1.0
 10
924.8644002389284
 20
-1359.0685235436363
 30
0.0
 41
1.0
 10
924.97074116361932
 20
-1358.719147892336
 30
0.0
 41
0.9999952428132507
 10
925.07492475294589
 20
-1358.3691228679806
 30
0.0
 41
1.0
 10
925.07998422328092
 20
-1358.3521245936968
 30
0.0
 41
1.0
 10
925.08504369361606
 20
-1358.3351263194127
 30
0.0
 41
1.0
 10
925.17910834227951
 20
-1358.0190978436015
 30
0.0
 41
0.999993168750806
 10
925.27083418014445
 20
-1357.7023826303605
 30
0.0
 41
1.0
 10
925.27576944460407
 20
-1357.6853419210893
 30
0.0
 41
1.0
 10
925.28070470906357
 20
-1357.6683012118181
 30
0.0
 41
1.0
 10
925.36256001801485
 20
-1357.3856674171016
 30
0.0
 41
0.9999893840785346
 10
925.44180724447483
 20
-1357.1022912878434
 30
0.0
 41
1.0
 10
925.52105447093027
 20
-1356.8189151586021
 30
0.0
 41
0.9999833980058704
 10
925.59703071166837
 20
-1356.5346445755874
 30
0.0
 41
1.0
 10
925.60603464839312
 20
-1356.5009556970999
 30
0.0
 41
1.0
 10
925.61503858511787
 20
-1356.4672668186122
 30
0.0
 41
1.0
 10
925.68400313398581
 20
-1356.2092309863099
 30
0.0
 41
0.9999233658064124
 10
925.74655810520528
 20
-1355.9495668275904
 30
0.0
 41
1.0
 10
925.80911307642555
 20
-1355.6899026688679
 30
0.0
 41
1.0
 10
925.84859649528312
 20
-1355.5260960044418
 30
0.0
 41
1.0
 10
925.85357509926484
 20
-1355.5054410425528
 30
0.0
 41
1.0
 10
925.85855370324657
 20
-1355.4847860806638
 30
0.0
 41
1.0
 10
925.88807991414842
 20
-1355.3622893399834
 30
0.0
 41
0.9999868670849518
 10
925.91634899813687
 20
-1355.2394963943702
 30
0.0
 41
1.0
 10
925.92024648529559
 20
-1355.2225668069491
 30
0.0
 41
1.0
 10
925.92414397245432
 20
-1355.2056372195279
 30
0.0
 41
1.0
 10
925.94461808213327
 20
-1355.1167034487235
 30
0.0
 41
0.9999778173354782
 10
925.96390568024856
 20
-1355.0275048314943
 30
0.0
 41
1.0
 10
925.98319327836657
 20
-1354.9383062142524
 30
0.0
 41
0.9999602692866358
 10
926.00088763700035
 20
-1354.8487779258091
 30
0.0
 41
1.0
 10
926.00409146907509
 20
-1354.8325674709376
 30
0.0
 41
1.0
 10
926.00729530114995
 20
-1354.8163570160661
 30
0.0
 41
1.0
 10
926.03139732393629
 20
-1354.6944078178665
 30
0.0
 41
0.9995617985320425
 10
926.04824067115453
 20
-1354.5712460701629
 30
0.0
 41
1.0
 10
926.05070516106082
 20
-1354.5532252527973
 30
0.0
 41
1.0
 10
926.05316965096711
 20
-1354.5352044354315
 30
0.0
 41
1.0
 10
926.07345291201511
 20
-1354.3868893857318
 30
0.0
 41
0.9991121410640141
 10
926.08117826560374
 20
-1354.2373932869239
 30
0.0
 41
1.0
 10
926.08209705562831
 20
-1354.2196134503474
 30
0.0
 41
1.0
 10
926.08301584565288
 20
-1354.2018336137712
 30
0.0
 41
1.0
 10
926.08890361919202
 20
-1354.0878971881175
 30
0.0
 41
0.9989792494905496
 10
926.08448452707466
 20
-1353.9738943522193
 30
0.0
 41
1.0
 10
926.08383655520606
 20
-1353.9571781062932
 30
0.0
 41
1.0
 10
926.08318858333746
 20
-1353.9404618603671
 30
0.0
 41
1.0
 10
926.08006543495731
 20
-1353.859891516322
 30
0.0
 41
0.9997820295393576
 10
926.07358143758165
 20
-1353.779521794577
 30
0.0
 41
1.0
 10
926.067097440206
 20
-1353.6991520728334
 30
0.0
 41
0.9998335105974702
 10
926.05768524469431
 20
-1353.6190724563835
 30
0.0
 41
1.0
 10
926.05609032001792
 20
-1353.6055027259001
 30
0.0
 41
1.0
 10
926.05449539534152
 20
-1353.5919329954168
 30
0.0
 41
1.0
 10
926.0418933504767
 20
-1353.4847139179979
 30
0.0
 41
0.9996876457878879
 10
926.02394943767865
 20
-1353.3782584902835
 30
0.0
 41
1.0
 10
926.0217177745335
 20
-1353.3650187550429
 30
0.0
 41
1.0
 10
926.01948611138846
 20
-1353.3517790198021
 30
0.0
 41
1.0
 10
926.00569028996733
 20
-1353.2699328758429
 30
0.0
 41
0.9995547496494741
 10
925.98703696807456
 20
-1353.1890553786513
 30
0.0
 41
1.0
 10
925.98666301120284
 20
-1353.1874339679443
 30
0.0
 41
1.0
 10
925.98628905433122
 20
-1353.1858125572371
 30
0.0
 41
1.0
 10
925.96838364618179
 20
-1353.1081778814603
 30
0.0
 41
0.9994899427176212
 10
925.94555873750255
 20
-1353.0318445986259
 30
0.0
 41
1.0
 10
925.94510021076201
 20
-1353.0303111488381
 30
0.0
 41
1.0
 10
925.94464168402146
 20
-1353.0287776990504
 30
0.0
 41
1.0
 10
925.92273382882365
 20
-1352.9555113157928
 30
0.0
 41
0.9993784877590276
 10
925.89571819371668
 20
-1352.8839706106326
 30
0.0
 41
1.0
 10
925.89518650274022
 20
-1352.8825626279131
 30
0.0
 41
1.0
 10
925.89465481176364
 20
-1352.8811546451936
 30
0.0
 41
1.0
 10
925.86870255860993
 20
-1352.8124299054728
 30
0.0
 41
0.9992430832253705
 10
925.83748602345077
 20
-1352.7459307534052
 30
0.0
 41
1.0
 10
925.83690390739412
 20
-1352.7446906982877
 30
0.0
 41
1.0
 10
925.83632179133735
 20
-1352.7434506431703
 30
0.0
 41
1.0
 10
925.80626948829104
 20
-1352.6794316013356
 30
0.0
 41
0.9990789632796856
 10
925.77083886151468
 20
-1352.6182249895874
 30
0.0
 41
1.0
 10
925.77024315533311
 20
-1352.6171959037288
 30
0.0
 41
1.0
 10
925.76964744915153
 20
-1352.6161668178704
 30
0.0
 41
1.0
 10
925.73540823473763
 20
-1352.5570183778373
 30
0.0
 41
0.9988874801121344
 10
925.69574895870585
 20
-1352.5013586654197
 30
0.0
 41
1.0
 10
925.69519343264176
 20
-1352.5005790137452
 30
0.0
 41
1.0
 10
925.69463790657767
 20
-1352.4997993620707
 30
0.0
 41
1.0
 10
925.65608968267406
 20
-1352.445698953002
 30
0.0
 41
0.9986762060692158
 10
925.61218721139778
 20
-1352.3958452385627
 30
0.0
 41
1.0
 10
925.61174325106549
 20
-1352.3953410967461
 30
0.0
 41
1.0
 10
925.6112992907332
 20
-1352.3948369549294
 30
0.0
 41
1.0
 10
925.5682847401215
 20
-1352.3459915241237
 30
0.0
 41
0.9984621642488536
 10
925.52012718334379
 20
-1352.3022082236525
 30
0.0
 41
1.0
 10
925.5198805488269
 20
-1352.3019839914887
 30
0.0
 41
1.0
 10
925.51963391430991
 20
-1352.3017597593248
 30
0.0
 41
1.0
 10
925.47196962656517
 20
-1352.2584249231807
 30
0.0
 41
0.9982724693851918
 10
925.41955099472455
 20
-1352.2209805726636
 30
0.0
 41
1.0
 10
925.36713236288392
 20
-1352.1835362221464
 30
0.0
 41
0.9981399180159312
 10
925.3105462994904
 20
-1352.1527497027027
 30
0.0
 41
1.0
 10
925.31050063741168
 20
-1352.1527248595453
 30
0.0
 41
1.0
 10
925.31045497533285
 20
-1352.1527000163881
 30
0.0
 41
1.0
 10
925.25377758778211
 20
-1352.12186381063
 30
0.0
 41
0.998092708683763
 10
925.19373223671516
 20
-1352.0982470017773
 30
0.0
 41
1.0
 10
925.19329206700399
 20
-1352.0980738759026
 30
0.0
 41
1.0
 10
925.19285189729283
 20
-1352.0979007500277
 30
0.0
 41
1.0
 10
925.13192620680331
 20
-1352.0739376894253
 30
0.0
 41
0.9981411356561152
 10
925.06853768540361
 20
-1352.0575650479198
 30
0.0
 41
1.0
 10
925.06765556870221
 20
-1352.0573372057142
 30
0.0
 41
1.0
 10
925.0667734520008
 20
-1352.0571093635087
 30
0.0
 41
1.0
 10
925.00162069719784
 20
-1352.040281037592
 30
0.0
 41
0.9983031812934221
 10
924.93495326820232
 20
-1352.0311416764159
 30
0.0
 41
1.0
 10
924.92608224280002
 20
-1352.0299255577447
 30
0.0
 41
1.0
 10
924.91721121739783
 20
-1352.0287094390735
 30
0.0
 41
1.0
 10
924.8628615748928
 20
-1352.0212587090823
 30
0.0
 41
0.998388770826396
 10
924.80801772559892
 20
-1352.0200140354491
 30
0.0
 41
1.0
 10
924.79995432037992
 20
-1352.0198310375742
 30
0.0
 41
1.0
 10
924.79189091516093
 20
-1352.0196480396994
 30
0.0
 41
1.0
 10
924.75317387630457
 20
-1352.0187693618159
 30
0.0
 41
0.9998869563077298
 10
924.71444792310342
 20
-1352.0190552311756
 30
0.0
 41
1.0
 10
924.67572196991046
 20
-1352.0193411005353
 30
0.0
 41
0.9999972320108522
 10
924.63699779070851
 20
-1352.0198092000639
 30
0.0
 41
1.0
 10
924.6176447741193
 20
-1352.0200431401536
 30
0.0
 41
1.0
 10
924.59829175752998
 20
-1352.020277080243
 30
0.0
 41
1.0
 10
924.52086154515905
 20
-1352.0212130599507
 30
0.0
 41
0.9997304945086664
 10
924.44355823892124
 20
-1352.0257421537369
 30
0.0
 41
1.0
 10
924.43450859721725
 20
-1352.0262723597268
 30
0.0
 41
1.0
 10
924.42545895551314
 20
-1352.0268025657167
 30
0.0
 41
1.0
 10
924.33005636586734
 20
-1352.0323920714827
 30
0.0
 41
0.9997888306416769
 10
924.23496403002503
 20
-1352.0418970359717
 30
0.0
 41
1.0
 10
924.22624296845197
 20
-1352.042768750604
 30
0.0
 41
1.0
 10
924.21752190687891
 20
-1352.043640465236
 30
0.0
 41
1.0
 10
924.10498744789186
 20
-1352.054888858989
 30
0.0
 41
0.9984170238190535
 10
923.99442830054136
 20
-1352.0787049409246
 30
0.0
 41
1.0
 10
923.95804716955354
 20
-1352.086541976731
 30
0.0
 41
1.0
 10
923.9216660385656
 20
-1352.0943790125373
 30
0.0
 41
1.0
 10
923.80647497014479
 20
-1352.1191928790468
 30
0.0
 41
0.9976592854198632
 10
923.69574680374012
 20
-1352.1594915561941
 30
0.0
 41
1.0
 10
923.58501863733488
 20
-1352.1997902333414
 30
0.0
 41
0.9993255074352924
 10
923.47754683854521
 20
-1352.2481071318332
 30
0.0
 41
1.0
 10
923.47292165962153
 20
-1352.250186508033
 30
0.0
 41
1.0
 10
923.46829648069775
 20
-1352.2522658842331
 30
0.0
 41
1.0
 10
923.35157432406072
 20
-1352.3047415351248
 30
0.0
 41
0.9976475078274536
 10
923.24312697975074
 20
-1352.3726895247828
 30
0.0
 41
1.0
 10
923.22478458561545
 20
-1352.3841820035977
 30
0.0
 41
1.0
 10
923.20644219148016
 20
-1352.3956744824127
 30
0.0
 41
1.0
 10
923.12223999992784
 20
-1352.4484316031812
 30
0.0
 41
0.9995131336406564
 10
923.04149228497079
 20
-1352.5063378151342
 30
0.0
 41
1.0
 10
922.96074457001225
 20
-1352.5642440270883
 30
0.0
 41
0.9995810107606037
 10
922.88348292228204
 20
-1352.6267257095553
 30
0.0
 41
1.0
 10
922.88051289107329
 20
-1352.6291275810188
 30
0.0
 41
1.0
 10
922.87754285986443
 20
-1352.6315294524823
 30
0.0
 41
1.0
 10
922.79434114971298
 20
-1352.6988148778792
 30
0.0
 41
0.9996617837953771
 10
922.71475046257501
 20
-1352.7703353334418
 30
0.0
 41
1.0
 10
922.70261971170157
 20
-1352.7812360664293
 30
0.0
 41
1.0
 10
922.69048896082813
 20
-1352.7921367994168
 30
0.0
 41
1.0
 10
922.62221343342935
 20
-1352.8534894148911
 30
0.0
 41
0.9997267750052457
 10
922.55687992514504
 20
-1352.917965951417
 30
0.0
 41
1.0
 10
922.49154641685914
 20
-1352.9824424879446
 30
0.0
 41
0.9999667288961386
 10
922.42727347370965
 20
-1353.0479762948419
 30
0.0
 41
1.0
 10
922.35844602593704
 20
-1353.1181539535976
 30
0.0
 41
1.0
 10
922.28961857816444
 20
-1353.1883316123533
 30
0.0
 41
1.0
 10
922.08769073946939
 20
-1353.3942207367622
 30
0.0
 41
0.9988205335175459
 10
921.90668512249113
 20
-1353.618724968821
 30
0.0
 41
1.0
 10
921.87604515758494
 20
-1353.6567282192527
 30
0.0
 41
1.0
 10
921.84540519267875
 20
-1353.6947314696845
 30
0.0
 41
1.0
 10
921.60311964588936
 20
-1353.9952422026056
 30
0.0
 41
0.9997077826754568
 10
921.37564169478401
 20
-1354.307111996822
 30
0.0
 41
1.0
 10
921.37391827965382
 20
-1354.3094747802011
 30
0.0
 41
1.0
 10
921.37219486452364
 20
-1354.3118375635804
 30
0.0
 41
1.0
 10
921.14127008315722
 20
-1354.6284329245561
 30
0.0
 41
0.9989147567078753
 10
920.94080658027337
 20
-1354.9651423857417
 30
0.0
 41
1.0
 10
920.91606543496812
 20
-1355.0066989662914
 30
0.0
 41
1.0
 10
920.89132428966286
 20
-1355.0482555468409
 30
0.0
 41
1.0
 10
920.7361129910239
 20
-1355.3089569312965
 30
0.0
 41
0.9997476598181637
 10
920.59276800351313
 20
-1355.5763666798807
 30
0.0
 41
1.0
 10
920.44942301600292
 20
-1355.8437764284643
 30
0.0
 41
0.9996258967110105
 10
920.32091476406924
 20
-1356.1186243650927
 30
0.0
 41
1.0
 10
920.30771485461992
 20
-1356.1468557651876
 30
0.0
 41
1.0
 10
920.29451494517048
 20
-1356.1750871652825
 30
0.0
 41
1.0
 10
920.15430622417182
 20
-1356.4749595632331
 30
0.0
 41
0.9998735413945429
 10
920.02370487745202
 20
-1356.7791391626997
 30
0.0
 41
1.0
 10
920.02026204939125
 20
-1356.7871577481651
 30
0.0
 41
1.0
 10
920.01681922133048
 20
-1356.7951763336303
 30
0.0
 41
1.0
 10
919.89310353073188
 20
-1357.083318762167
 30
0.0
 41
0.9999377418864223
 10
919.77584872855687
 20
-1357.3741502298424
 30
0.0
 41
1.0
 10
919.65859392638208
 20
-1357.6649816975171
 30
0.0
 41
0.9999508299511924
 10
919.5471299830067
 20
-1357.9580813743335
 30
0.0
 41
1.0
 10
919.54404921434298
 20
-1357.9661824003006
 30
0.0
 41
1.0
 10
919.54096844567937
 20
-1357.9742834262674
 30
0.0
 41
1.0
 10
919.42334296498075
 20
-1358.2835851550076
 30
0.0
 41
0.9999609228436536
 10
919.31120436210472
 20
-1358.5949181710275
 30
0.0
 41
1.0
 10
919.30824835175429
 20
-1358.6031250114393
 30
0.0
 41
1.0
 10
919.30529234140386
 20
-1358.611331851851
 30
0.0
 41
1.0
 10
919.18724171783219
 20
-1358.939078548681
 30
0.0
 41
0.9999674607397981
 10
919.07449419175975
 20
-1359.2686871686881
 30
0.0
 41
1.0
 10
919.02309580119845
 20
-1359.4189463643766
 30
0.0
 41
1.0
 10
918.97169741063715
 20
-1359.569205560065
 30
0.0
 41
1.0
 10
918.85568680387803
 20
-1359.9083535425721
 30
0.0
 41
0.9999287532310558
 10
918.74780539990888
 20
-1360.2501742815432
 30
0.0
 41
1.0
 10
918.70132814381896
 20
-1360.3974368257582
 30
0.0
 41
1.0
 10
918.65485088772903
 20
-1360.5446993699734
 30
0.0
 41
1.0
 10
918.63992399598055
 20
-1360.591995020385
 30
0.0
 41
0.999999822336312
 10
918.62505348720765
 20
-1360.6393084287597
 30
0.0
 41
1.0
 10
917.00439735041221
 20
-1365.7873369305491
 30
0.0
 41
1.0
 10
915.38374121361676
 20
-1370.9353654323386
 30
0.0
 41
1.0
 10
914.47843276972583
 20
-1370.9353654323386
 30
0.0
 41
1.0
 10
913.5731243258349
 20
-1370.9353654323386
 30
0.0
 41
1.0
 10
915.42520873722094
 20
-1365.0482935098712
 30
0.0
 41
1.0
 10
917.27729314860699
 20
-1359.1612215874038
 30
0.0
 41
1.0
 10
917.28741490690982
 20
-1359.1291783739539
 30
0.0
 41
1.0
 10
917.36002257575956
 20
-1358.898878832128
 30
0.0
 41
1.0
 10
917.43263024460452
 20
-1358.668579290317
 30
0.0
 41
0.9999825681965578
 10
917.50251328380648
 20
-1358.4374383952843
 30
0.0
 41
1.0
 10
917.55080434597335
 20
-1358.2777138117685
 30
0.0
 41
1.0
 10
917.59909540814022
 20
-1358.1179892282528
 30
0.0
 41
1.0
 10
917.6962477614594
 20
-1357.7966540064704
 30
0.0
 41
0.9999672528963061
 10
917.78818656708154
 20
-1357.4737884608874
 30
0.0
 41
1.0
 10
917.79097545074842
 20
-1357.4639946155071
 30
0.0
 41
1.0
 10
917.79376433441541
 20
-1357.454200770127
 30
0.0
 41
1.0
 10
917.88012537269901
 20
-1357.1509229153216
 30
0.0
 41
0.9999899749173026
 10
917.96376698223958
 20
-1356.8468838268486
 30
0.0
 41
1.0
 10
917.97387290125835
 20
-1356.8101485891657
 30
0.0
 41
1.0
 10
917.98397882027712
 20
-1356.7734133514828
 30
0.0
 41
1.0
 10
918.04740859177514
 20
-1356.5428447383938
 30
0.0
 41
0.9999214200504947
 10
918.10503802015205
 20
-1356.3107583961869
 30
0.0
 41
1.0
 10
918.11780387233307
 20
-1356.2593475107888
 30
0.0
 41
1.0
 10
918.13056972451409
 20
-1356.2079366253906
 30
0.0
 41
1.0
 10
918.1626674485276
 20
-1356.0786720539859
 30
0.0
 41
0.9999828681658074
 10
918.19324970052514
 20
-1355.94904057951
 30
0.0
 41
1.0
 10
918.22383195251859
 20
-1355.8194091050505
 30
0.0
 41
0.9999389844479716
 10
918.25154294130857
 20
-1355.6891336491481
 30
0.0
 41
1.0
 10
918.25868068502939
 20
-1355.655577545308
 30
0.0
 41
1.0
 10
918.26581842875021
 20
-1355.6220214414677
 30
0.0
 41
1.0
 10
918.30780490498057
 20
-1355.4246337778893
 30
0.0
 41
0.9998933699440061
 10
918.3440091693833
 20
-1355.2261041701274
 30
0.0
 41
1.0
 10
918.34538199459905
 20
-1355.2185761494343
 30
0.0
 41
1.0
 10
918.34675481981481
 20
-1355.2110481287411
 30
0.0
 41
1.0
 10
918.38570473465063
 20
-1354.9974624795846
 30
0.0
 41
0.9996850305193265
 10
918.41388841090918
 20
-1354.7821914741476
 30
0.0
 41
1.0
 10
918.41588344427794
 20
-1354.7669531200297
 30
0.0
 41
1.0
 10
918.4178784776467
 20
-1354.7517147659119
 30
0.0
 41
1.0
 10
918.44528634010601
 20
-1354.5423695387535
 30
0.0
 41
0.9994697936706588
 10
918.45901089932568
 20
-1354.3316843434234
 30
0.0
 41
1.0
 10
918.45948796857533
 20
-1354.3243608712114
 30
0.0
 41
1.0
 10
918.4599650378251
 20
-1354.3170373989994
 30
0.0
 41
1.0
 10
918.47273545854523
 20
-1354.1209991480905
 30
0.0
 41
0.9991804893137161
 10
918.46960714227248
 20
-1353.9245702981193
 30
0.0
 41
1.0
 10
918.46952326345036
 20
-1353.9193034967066
 30
0.0
 41
1.0
 10
918.46943938462823
 20
-1353.9140366952936
 30
0.0
 41
1.0
 10
918.46647882599973
 20
-1353.7281414481458
 30
0.0
 41
0.9988448329321499
 10
918.44568728037598
 20
-1353.5433888583125
 30
0.0
 41
1.0
 10
918.44409320667307
 20
-1353.5292240025422
 30
0.0
 41
1.0
 10
918.44249913297017
 20
-1353.5150591467718
 30
0.0
 41
1.0
 10
918.42489573475234
 20
-1353.35863626848
 30
0.0
 41
0.9985503209458784
 10
918.39057946245271
 20
-1353.2050120843899
 30
0.0
 41
1.0
 10
918.38299347038139
 20
-1353.1710517569891
 30
0.0
 41
1.0
 10
918.37540747831008
 20
-1353.1370914295885
 30
0.0
 41
1.0
 10
918.35626319015284
 20
-1353.051387900299
 30
0.0
 41
0.999103678136972
 10
918.32993832850195
 20
-1352.9676108129756
 30
0.0
 41
1.0
 10
918.32595610304577
 20
-1352.9549376504644
 30
0.0
 41
1.0
 10
918.32197387758958
 20
-1352.9422644879533
 30
0.0
 41
1.0
 10
918.30361346685049
 20
-1352.8838337256498
 30
0.0
 41
0.9998874504368316
 10
918.28350825917221
 20
-1352.8259801234274
 30
0.0
 41
1.0
 10
918.26340305149381
 20
-1352.7681265212041
 30
0.0
 41
0.9994041637543586
 10
918.23935443855942
 20
-1352.7117978173139
 30
0.0
 41
1.0
 10
918.23515765433535
 20
-1352.7019677528319
 30
0.0
 41
1.0
 10
918.23096087011129
 20
-1352.6921376883502
 30
0.0
 41
1.0
 10
918.20308203911748
 20
-1352.6268375223842
 30
0.0
 41
0.9991846840701387
 10
918.17002568242378
 20
-1352.5639994911028
 30
0.0
 41
1.0
 10
918.16888907602902
 20
-1352.5618388746484
 30
0.0
 41
1.0
 10
918.16775246963425
 20
-1352.5596782581943
 30
0.0
 41
1.0
 10
918.13696932573089
 20
-1352.5011614598229
 30
0.0
 41
0.9989253167923485
 10
918.1008999016758
 20
-1352.4457465314324
 30
0.0
 41
1.0
 10
918.09984577700152
 20
-1352.4441270366699
 30
0.0
 41
1.0
 10
918.09879165232712
 20
-1352.4425075419074
 30
0.0
 41
1.0
 10
918.06483047762038
 20
-1352.3903316030412
 30
0.0
 41
0.9986467172835745
 10
918.02563332498357
 20
-1352.3419655694127
 30
0.0
 41
1.0
 10
918.02475919628318
 20
-1352.3408869671348
 30
0.0
 41
1.0
 10
918.02388506758291
 20
-1352.3398083648572
 30
0.0
 41
1.0
 10
917.98643617234609
 20
-1352.2935995357827
 30
0.0
 41
0.9984001104265458
 10
917.94400944182894
 20
-1352.2519144284142
 30
0.0
 41
1.0
 10
917.94342230371956
 20
-1352.2513375535329
 30
0.0
 41
1.0
 10
917.94283516561018
 20
-1352.2507606786517
 30
0.0
 41
1.0
 10
917.90158271131202
 20
-1352.210229321046
 30
0.0
 41
0.998244215908387
 10
917.85582660997613
 20
-1352.1748607597854
 30
0.0
 41
1.0
 10
917.8556118145143
 20
-1352.1746947271422
 30
0.0
 41
1.0
 10
917.85539701905248
 20
-1352.1745286944988
 30
0.0
 41
1.0
 10
917.81007050864002
 20
-1352.1394921985247
 30
0.0
 41
0.9982450060837003
 10
917.76091952956881
 20
-1352.1100604154915
 30
0.0
 41
1.0
 10
917.7117685504968
 20
-1352.0806286324575
 30
0.0
 41
0.9983922639634462
 10
917.65960224433161
 20
-1352.0569489978034
 30
0.0
 41
1.0
 10
917.65937536700744
 20
-1352.0568460123222
 30
0.0
 41
1.0
 10
917.65914848968328
 20
-1352.0567430268409
 30
0.0
 41
1.0
 10
917.60652842886941
 20
-1352.032857421224
 30
0.0
 41
0.9986517147150219
 10
917.55171545600138
 20
-1352.0145563021022
 30
0.0
 41
1.0
 10
917.55103753457365
 20
-1352.0143299556707
 30
0.0
 41
1.0
 10
917.55035961314582
 20
-1352.0141036092393
 30
0.0
 41
1.0
 10
917.49419079742279
 20
-1351.9953497972549
 30
0.0
 41
0.9989435598956695
 10
917.43653741027288
 20
-1351.9818320950208
 30
0.0
 41
1.0
 10
917.43545729069012
 20
-1351.9815788447675
 30
0.0
 41
1.0
 10
917.43437717110737
 20
-1351.9813255945141
 30
0.0
 41
1.0
 10
917.3745635447915
 20
-1351.9673013917734
 30
0.0
 41
0.9992249241239188
 10
917.31383203589382
 20
-1351.9580260490584
 30
0.0
 41
1.0
 10
917.31241834760351
 20
-1351.9578101406505
 30
0.0
 41
1.0
 10
917.3110046593132
 20
-1351.9575942322429
 30
0.0
 41
1.0
 10
917.24744577383353
 20
-1351.9478870727121
 30
0.0
 41
0.9994396597834451
 10
917.18337983729725
 20
-1351.9424541503663
 30
0.0
 41
1.0
 10
917.16423916981921
 20
-1351.9408309826476
 30
0.0
 41
1.0
 10
917.14509850234117
 20
-1351.939207814929
 30
0.0
 41
1.0
 10
917.04275123084858
 20
-1351.9305285571459
 30
0.0
 41
0.9987693403121016
 10
916.94004760726114
 20
-1351.9320316205985
 30
0.0
 41
1.0
 10
916.92979327303317
 20
-1351.9321816923728
 30
0.0
 41
1.0
 10
916.9195389388052
 20
-1351.932331764147
 30
0.0
 41
1.0
 10
916.80998317262743
 20
-1351.9339351084345
 30
0.0
 41
0.9989753644966617
 10
916.70102117261172
 20
-1351.9454381153596
 30
0.0
 41
1.0
 10
916.59205917259533
 20
-1351.9569411222847
 30
0.0
 41
0.9983190067305636
 10
916.48516036163051
 20
-1351.9809761140714
 30
0.0
 41
1.0
 10
916.47625941002366
 20
-1351.982977392634
 30
0.0
 41
1.0
 10
916.46735845841681
 20
-1351.9849786711968
 30
0.0
 41
1.0
 10
916.34265774423886
 20
-1352.0130162201087
 30
0.0
 41
0.9985539388302842
 10
916.2216879905618
 20
-1352.0542798961542
 30
0.0
 41
1.0
 10
916.21934255960082
 20
-1352.0550799399703
 30
0.0
 41
1.0
 10
916.21699712863983
 20
-1352.0558799837863
 30
0.0
 41
1.0
 10
916.09133651304194
 20
-1352.0987437474635
 30
0.0
 41
0.998846874649414
 10
915.97036617074298
 20
-1352.1534618325252
 30
0.0
 41
1.0
 10
915.96718334875322
 20
-1352.1549015070855
 30
0.0
 41
1.0
 10
915.96400052676358
 20
-1352.156341181646
 30
0.0
 41
1.0
 10
915.83666454048569
 20
-1352.2139386158283
 30
0.0
 41
0.9991322885919332
 10
915.71456395642804
 20
-1352.2819339480106
 30
0.0
 41
1.0
 10
915.69696194538437
 20
-1352.2917361500004
 30
0.0
 41
1.0
 10
915.6793599343406
 20
-1352.3015383519901
 30
0.0
 41
1.0
 10
915.57718325328392
 20
-1352.3584384677704
 30
0.0
 41
0.9993860037849133
 10
915.47924224921064
 20
-1352.4223544833587
 30
0.0
 41
1.0
 10
915.47362393635456
 20
-1352.4260209780562
 30
0.0
 41
1.0
 10
915.46800562349847
 20
-1352.4296874727536
 30
0.0
 41
1.0
 10
915.3813012451335
 20
-1352.4862704989498
 30
0.0
 41
0.9998821494952587
 10
915.2963748693245
 20
-1352.5454887290241
 30
0.0
 41
1.0
 10
915.21144849351435
 20
-1352.6047069590993
 30
0.0
 41
0.9997976482744335
 10
915.12897286311522
 20
-1352.6672933671373
 30
0.0
 41
1.0
 10
915.11433659830675
 20
-1352.6784000569198
 30
0.0
 41
1.0
 10
915.09970033349828
 20
-1352.6895067467024
 30
0.0
 41
1.0
 10
914.98795217348345
 20
-1352.7743065343047
 30
0.0
 41
0.9998091630800637
 10
914.87960189545515
 20
-1352.8634068850067
 30
0.0
 41
1.0
 10
914.86659614297878
 20
-1352.8741019854519
 30
0.0
 41
1.0
 10
914.8535903905024
 20
-1352.8847970858972
 30
0.0
 41
1.0
 10
914.71922860751692
 20
-1352.9952876374932
 30
0.0
 41
0.999503511231705
 10
914.59209272975261
 20
-1353.1140214545092
 30
0.0
 41
1.0
 10
914.58244541936824
 20
-1353.1230312006644
 30
0.0
 41
1.0
 10
914.57279810898387
 20
-1353.1320409468196
 30
0.0
 41
1.0
 10
914.44937504621805
 20
-1353.2473073185761
 30
0.0
 41
0.9994630424299398
 10
914.33376664043283
 20
-1353.3704100618124
 30
0.0
 41
1.0
 10
914.33008380165995
 20
-1353.374331641327
 30
0.0
 41
1.0
 10
914.32640096288708
 20
-1353.3782532208415
 30
0.0
 41
1.0
 10
914.2181582346476
 20
-1353.4935128050488
 30
0.0
 41
0.9995160693749824
 10
914.117292205117
 20
-1353.6152802229201
 30
0.0
 41
1.0
 10
914.11535848503684
 20
-1353.6176146471275
 30
0.0
 41
1.0
 10
914.11342476495668
 20
-1353.619949071335
 30
0.0
 41
1.0
 10
914.01642617558491
 20
-1353.7370476407925
 30
0.0
 41
0.9996561470514916
 10
913.92569995691917
 20
-1353.8590704032417
 30
0.0
 41
1.0
 10
913.91954229102146
 20
-1353.8673521922783
 30
0.0
 41
1.0
 10
913.91338462512374
 20
-1353.8756339813149
 30
0.0
 41
1.0
 10
913.83497373825708
 20
-1353.9810931656859
 30
0.0
 41
0.9998349055171945
 10
913.76044645632112
 20
-1354.0893317493544
 30
0.0
 41
1.0
 10
913.68591917438334
 20
-1354.1975703330259
 30
0.0
 41
0.9999728109561825
 10
913.61299627846233
 20
-1354.3068962585976
 30
0.0
 41
1.0
 10
913.61168106305877
 20
-1354.308868028088
 30
0.0
 41
1.0
 10
913.6103658476552
 20
-1354.3108397975782
 30
0.0
 41
1.0
 10
913.53481252091683
 20
-1354.4241092621455
 30
0.0
 41
0.9999972147441171
 10
913.45979471056228
 20
-1354.5377341049516
 30
0.0
 41
1.0
 10
913.45482316793255
 20
-1354.5452641934353
 30
0.0
 41
1.0
 10
913.4498516253027
 20
-1354.5527942819188
 30
0.0
 41
1.0
 10
913.36489072968857
 20
-1354.681479301692
 30
0.0
 41
0.9999371979009855
 10
913.28283538028529
 20
-1354.8120362154675
 30
0.0
 41
1.0
 10
913.27932649592049
 20
-1354.8176191435373
 30
0.0
 41
1.0
 10
913.27581761155568
 20
-1354.8232020716073
 30
0.0
 41
1.0
 10
913.18674449342677
 20
-1354.9649248415169
 30
0.0
 41
0.9998272025610059
 10
913.10300110254377
 20
-1355.1098607182607
 30
0.0
 41
1.0
 10
913.08778593052045
 20
-1355.1361938327163
 30
0.0
 41
1.0
 10
913.07257075849714
 20
-1355.1625269471717
 30
0.0
 41
1.0
 10
912.958397023565
 20
-1355.3601290528309
 30
0.0
 41
0.9995217214837968
 10
912.85665733400947
 20
-1355.5644113806934
 30
0.0
 41
1.0
 10
912.84901377137726
 20
-1355.5797588303908
 30
0.0
 41
1.0
 10
912.84137020874493
 20
-1355.595106280088
 30
0.0
 41
1.0
 10
912.75446491615241
 20
-1355.7696027381753
 30
0.0
 41
0.9998269762606518
 10
912.67411044987944
 20
-1355.9472110249005
 30
0.0
 41
1.0
 10
912.59375598360759
 20
-1356.1248193116237
 30
0.0
 41
0.9998944747387247
 10
912.51859518904303
 20
-1356.3046870372527
 30
0.0
 41
1.0
 10
912.51364151945074
 20
-1356.3165416921729
 30
0.0
 41
1.0
 10
912.50868784985846
 20
-1356.3283963470928
 30
0.0
 41
1.0
 10
912.42804078930658
 20
-1356.5213932871088
 30
0.0
 41
0.9999506734408759
 10
912.35124326040363
 20
-1356.7159540919633
 30
0.0
 41
1.0
 10
912.33664329513761
 20
-1356.7529420137571
 30
0.0
 41
1.0
 10
912.32204332987158
 20
-1356.7899299355506
 30
0.0
 41
1.0
 10
912.27444573150706
 20
-1356.9105148968015
 30
0.0
 41
0.9999912393901111
 10
912.2278592874776
 20
-1357.0314940995152
 30
0.0
 41
1.0
 10
912.18127284345633
 20
-1357.1524733022081
 30
0.0
 41
0.9999927113942342
 10
912.1356115490737
 20
-1357.2738047096791
 30
0.0
 41
1.0
 10
912.12164311766958
 20
-1357.3109216916951
 30
0.0
 41
1.0
 10
912.10767468626545
 20
-1357.3480386737108
 30
0.0
 41
1.0
 10
912.03407652907629
 20
-1357.5436040452091
 30
0.0
 41
0.9999487550945426
 10
911.96445290410566
 20
-1357.7406194103887
 30
0.0
 41
1.0
 10
911.94085929416713
 20
-1357.8073827206863
 30
0.0
 41
1.0
 10
911.9172656842286
 20
-1357.8741460309836
 30
0.0
 41
1.0
 10
911.8225800498592
 20
-1358.1420798658048
 30
0.0
 41
0.9999808436928435
 10
911.7312184612183
 20
-1358.411165297068
 30
0.0
 41
1.0
 10
911.63985687257616
 20
-1358.6802507283346
 30
0.0
 41
0.9999873932895466
 10
911.55120216385762
 20
-1358.9502400833492
 30
0.0
 41
1.0
 10
911.53110980698875
 20
-1359.0114294161003
 30
0.0
 41
1.0
 10
911.51101745011999
 20
-1359.0726187488517
 30
0.0
 41
1.0
 10
911.3821780276653
 20
-1359.464986769364
 30
0.0
 41
0.9999794883030317
 10
911.2583752427131
 20
-1359.8589729756236
 30
0.0
 41
1.0
 10
911.24722298326719
 20
-1359.8944635858875
 30
0.0
 41
1.0
 10
911.23607072382117
 20
-1359.9299541961511
 30
0.0
 41
1.0
 10
911.09351255992533
 20
-1360.3836269482333
 30
0.0
 41
0.999998276175321
 10
910.95264011991753
 20
-1360.8378259703322
 30
0.0
 41
1.0
 10
909.36449978734493
 20
-1365.8865957013354
 30
0.0
 41
1.0
 10
907.77635945477232
 20
-1370.9353654323386
 30
0.0
 41
1.0
 10
906.82760884329593
 20
-1370.9353654323386
 30
0.0
 41
1.0
 10
905.87885823181955
 20
-1370.9353654323386
 30
0.0
 41
1.0
 10
909.1171427179728
 20
-1360.6080432323924
 30
0.0
 41
1.0
 10
912.35542720412604
 20
-1350.2807210324463
 30
0.0
 41
1.0
  0
LWPOLYLINE
  5
53
100
AcDbEntity
  8
0
370
              15
390
0
  6
Continuous
 62
               7
100
AcDbPolyline
 90
      232
 70
             128
 10
886.651881430299
 20
-1351.3650638639615
 42
0.000437080068672
 10
886.5990042564016
 20
-1351.4337305029906
 10
886.55972002509952
 20
-1351.4848376161144
 42
0.0030481992176331
 10
886.42938130795835
 20
-1351.6565593084879
 10
886.39086963622981
 20
-1351.7079460922469
 42
0.0042058245757186
 10
886.18688458557006
 20
-1351.9849518373067
 10
886.13447946305928
 20
-1352.0573846841012
 42
0.0120948898743514
 10
885.83843554629436
 20
-1352.4881342886556
 10
885.74224304717586
 20
-1352.6356150238753
 42
0.0141601263948774
 10
885.43859900025382
 20
-1353.1312843606106
 10
885.39906173283168
 20
-1353.2001283280358
 42
0.0071131081298705
 10
885.1937894095895
 20
-1353.5696311268805
 42
0.0068458791005435
 10
884.99890988273739
 20
-1353.9447226903746
 10
884.99209802028872
 20
-1353.9582844040801
 42
0.0064120880288833
 10
884.7939557702515
 20
-1354.3657088789837
 10
884.78642108472741
 20
-1354.3817207357201
 42
0.0058857236449226
 10
884.58366569285477
 20
-1354.8260968467573
 10
884.57549076656176
 20
-1354.8445870003891
 42
0.0053189741897957
 10
884.36678645389418
 20
-1355.3305504743073
 10
884.35803864821287
 20
-1355.3515323525032
 42
0.0047503650419529
 10
884.1420649220546
 20
-1355.8837317857322
 10
884.1327966737141
 20
-1355.9072081618208
 42
0.0042071762175299
 10
883.90824928998154
 20
-1356.4903017559031
 10
883.89849988763763
 20
-1356.5162679307603
 42
0.0036680086485204
 10
883.66404524432335
 20
-1357.1549033152974
 10
883.65383746447765
 20
-1357.183351849636
 42
0.0032573142628489
 10
883.40820517850875
 20
-1357.8822045093957
 10
883.33955465767554
 20
-1358.081667593427
 42
0.0026133366647014
 10
882.99110945891232
 20
-1359.1115308771143
 10
882.92785267142142
 20
-1359.3017617124779
 42
0.0020592950741789
 10
882.7139896024446
 20
-1359.9538653651205
 10
882.7109378112832
 20
-1359.9633018535249
 42
0.0025609928533575
 10
882.50911730979578
 20
-1360.598447075896
 10
882.50652594265875
 20
-1360.6067494168697
 42
0.0031362356243858
 10
882.31703515699212
 20
-1361.2275122730161
 10
882.31490411407481
 20
-1361.2346535791933
 42
0.0037229918026824
 10
882.13810372713829
 20
-1361.8436388812013
 10
882.1364251379382
 20
-1361.8495857713533
 42
0.0043077623707637
 10
881.9726843358668
 20
-1362.4494045031447
 42
0.0047654161822452
 10
881.81985561335375
 20
-1363.0520905920353
 10
881.78539100451167
 20
-1363.1936523691968
 42
0.0112969368446437
 10
881.58952664636831
 20
-1364.0853445298196
 10
881.56152025727147
 20
-1364.2281725759187
 42
0.0130056762570148
 10
881.36068301362491
 20
-1365.4151136475637
 10
881.34014326347756
 20
-1365.5591917610423
 42
0.0138721532145211
 10
881.23644025893987
 20
-1366.4660212468664
 10
881.21714477103205
 20
-1366.6895189687914
 42
0.0071254697007219
 10
881.18379812510932
 20
-1367.1527059776388
 10
881.17883715094501
 20
-1367.2387099722173
 42
0.0028881799208171
 10
881.16369885765619
 20
-1367.5304516820415
 42
0.0060297297142904
 10
881.15376665788017
 20
-1367.8224006181797
 10
881.15270437621359
 20
-1367.8707929900922
 42
0.0229523164159214
 10
881.16043540399937
 20
-1368.193547836373
 10
881.16466117751975
 20
-1368.2539513703884
 42
0.0123673300666821
 10
881.18373982403807
 20
-1368.455072095564
 42
0.0128577674471294
 10
881.21293521444409
 20
-1368.6549699454893
 10
881.22006108783137
 20
-1368.6962987600878
 42
0.0285717853759772
 10
881.28455508952698
 20
-1368.9744149114008
 10
881.29822361319339
 20
-1369.0210696808779
 42
0.031628309915812
 10
881.41403419310768
 20
-1369.3400841827042
 10
881.41708288486325
 20
-1369.3470705550299
 42
0.0338984824238185
 10
881.56651459583031
 20
-1369.6346365192189
 10
881.56882332519979
 20
-1369.6384275484943
 42
0.0350228718354504
 10
881.75118361587374
 20
-1369.8954795331717
 10
881.75206886765
 20
-1369.8965586109373
 42
0.0347476747533932
 10
881.96649355488898
 20
-1370.1237436581557
 42
0.0331337701906306
 10
882.20973688063555
 20
-1370.3198723202333
 10
882.21083697915151
 20
-1370.3206450234056
 42
0.0305233319084998
 10
882.479381674725
 20
-1370.4857731934972
 10
882.48261171922604
 20
-1370.4874972053597
 42
0.0273744481151518
 10
882.77516543080071
 20
-1370.6236353492502
 10
882.78026996593792
 20
-1370.6256789337197
 42
0.0240964406193332
 10
883.09574704158342
 20
-1370.734662660001
 10
883.10233037079354
 20
-1370.7365873996762
 42
0.0209636179812815
 10
883.43973052344427
 20
-1370.820055547608
 10
883.44736298389489
 20
-1370.8216074606098
 42
0.0181388704691786
 10
883.80568537589465
 20
-1370.881023553824
 10
883.81396622427155
 20
-1370.8820897376409
 42
0.0156086547584804
 10
884.19215358845952
 20
-1370.9188259242176
 10
884.23534884079447
 20
-1370.9216644266969
 42
0.0137148329027425
 10
884.56302198608626
 20
-1370.9341846819477
 10
884.60895817602034
 20
-1370.9346791150629
 42
0.0051057823878864
 10
884.84510376260448
 20
-1370.9348093694721
 42
0.005225669331292
 10
885.08120104638635
 20
-1370.930060545008
 10
885.15142783013255
 20
-1370.9279135789939
 42
0.0161507179049566
 10
885.52716490823593
 20
-1370.9042632086671
 10
885.54717786860692
 20
-1370.9023530133798
 42
0.0101216737831979
 10
885.96120509009495
 20
-1370.8543600830146
 10
885.99525837952433
 20
-1370.8497123862046
 42
0.0245291776398725
 10
886.47204803507645
 20
-1370.760637308128
 10
886.55687135060032
 20
-1370.7404413877821
 42
0.0143509212556167
 10
886.91350245453907
 20
-1370.6446367540036
 42
0.015655785704372
 10
887.26371851927036
 20
-1370.5276255381834
 10
887.27121973376097
 20
-1370.5248553764307
 42
0.017013733362879
 10
887.62781572944095
 20
-1370.3791977615599
 10
887.63491965184983
 20
-1370.3760099259957
 42
0.0183105364407043
 10
887.99426932001393
 20
-1370.1986748841728
 10
888.00121608465486
 20
-1370.1949244492994
 42
0.019489995815344
 10
888.35969682563666
 20
-1369.98294546741
 10
888.36671070497562
 20
-1369.9784201251136
 42
0.020486985295283
 10
888.72072500707441
 20
-1369.7289001100241
 10
888.72799061565661
 20
-1369.7233200446794
 42
0.021251693855417
 10
889.07398054675934
 20
-1369.4334160477897
 10
889.12049724084443
 20
-1369.3909487376875
 42
0.0215248918257989
 10
889.38052340972786
 20
-1369.1321844586967
 10
889.42555314410947
 20
-1369.0833403373456
 42
0.0114578554956763
 10
889.5803452977857
 20
-1368.9075174038885
 10
889.59153983377053
 20
-1368.8941986403452
 42
0.0061531305134618
 10
889.71801447976668
 20
-1368.7399091070374
 42
0.0006325587125346
 10
889.8423929640004
 20
-1368.5839057312585
 10
889.86543309897002
 20
-1368.5549322107022
 42
0.0041897761554985
 10
890.03388850294084
 20
-1368.3394128346431
 10
890.09235062283494
 20
-1368.2633114876553
 42
0.0092993880039604
 10
890.36896255006286
 20
-1367.8890327237659
 10
890.45135704325389
 20
-1367.7730957202082
 42
0.0159321727084796
 10
890.79796352590006
 20
-1367.2509214994468
 10
890.84231966129448
 20
-1367.1792419351882
 42
0.0085547317025675
 10
891.07683142661483
 20
-1366.7853669859721
 42
0.0084601156889977
 10
891.29780760405242
 20
-1366.3837401369485
 10
891.3059230778872
 20
-1366.368380454667
 42
0.0081429654284813
 10
891.52917234832262
 20
-1365.9286589421304
 10
891.53803251250872
 20
-1365.9104801001067
 42
0.0076574581327707
 10
891.76444002308074
 20
-1365.4272972248421
 10
891.77391966379912
 20
-1365.4062327465506
 42
0.0070682724206619
 10
892.00436457161072
 20
-1364.8741954417578
 10
892.01435485558761
 20
-1364.8502062527577
 42
0.0064559514446877
 10
892.2496880637658
 20
-1364.2638939862477
 10
892.26009742193423
 20
-1364.2369590607966
 42
0.0058311413906791
 10
892.50114415869473
 20
-1363.5909269664189
 10
892.51189923608445
 20
-1363.5610426252524
 42
0.0052312425817929
 10
892.75948051412729
 20
-1362.8498402114124
 10
892.77052435050518
 20
-1362.8170134993481
 42
0.004668054479641
 10
893.02545277823879
 20
-1362.0351871835965
 10
893.06744492828113
 20
-1361.902203946308
 42
0.0041666856446073
 10
893.27073094067828
 20
-1361.2392351712956
 10
893.30839338133546
 20
-1361.1126540636642
 42
0.0015170975157046
 10
893.42957995975507
 20
-1360.7007857121482
 42
-0.0004887993119299
 10
893.54991973283416
 20
-1360.2886673002565
 10
893.62639699037322
 20
-1360.0277099141651
 42
0.0002583378927582
 10
893.89961156040386
 20
-1359.0936532111016
 10
893.98138441000378
 20
-1358.8135539514385
 42
0.0006636169672675
 10
894.17525217002549
 20
-1358.1462010278162
 10
894.1803488243836
 20
-1358.1285694448979
 42
0.001058913132359
 10
894.36179752528915
 20
-1357.4958381018873
 10
894.3667795957673
 20
-1357.4783251948757
 42
0.0015655524459843
 10
894.53504980295236
 20
-1356.8797085156664
 10
894.53988000337404
 20
-1356.8623163567063
 42
0.0021640440478376
 10
894.69416997535336
 20
-1356.2972893387123
 10
894.69880419477852
 20
-1356.2800246087363
 42
0.0028763871853836
 10
894.83831991283637
 20
-1355.7480566578713
 10
894.8427057770092
 20
-1355.7309326796951
 42
0.0037310511944896
 10
894.96666246884047
 20
-1355.2314850856931
 10
894.97073768912878
 20
-1355.2145248144507
 42
0.0047652197770823
 10
895.07836158963789
 20
-1354.7470470461426
 10
895.08205218896069
 20
-1354.7302874909949
 42
0.0060276699299778
 10
895.172582288115
 20
-1354.2942116958484
 10
895.17580097840528
 20
-1354.2777104815336
 42
0.00758243377598
 10
895.24849028781955
 20
-1353.872443317113
 10
895.25113566519872
 20
-1353.8562883696691
 42
0.0095130624604218
 10
895.30525090083097
 20
-1353.4811990165906
 10
895.31223712471365
 20
-1353.4252654584736
 42
0.0121054653229581
 10
895.33882845529149
 20
-1353.1603696300001
 10
895.33969494505095
 20
-1353.1489661870726
 42
0.0069050827388389
 10
895.35478376308868
 20
-1352.9060249602269
 10
895.35591906275727
 20
-1352.8824987031799
 42
0.0169063976699325
 10
895.35874634173751
 20
-1352.6863059758814
 10
895.35757569020598
 20
-1352.6259702145171
 42
0.0052007732912688
 10
895.35532224161329
 20
-1352.5503768243802
 42
0.0054038123306421
 10
895.33535872977257
 20
-1352.4303585283596
 10
895.33027287390394
 20
-1352.4017000417891
 42
0.0112050460466158
 10
895.29488851184612
 20
-1352.2253736034534
 10
895.27706354980478
 20
-1352.1458320167292
 42
0.0240764468009747
 10
895.186166183659
 20
-1351.815594981229
 10
895.16760742084568
 20
-1351.7589748162354
 42
0.0256812331835939
 10
895.02424450065575
 20
-1351.3872506099767
 10
895.01883507483421
 20
-1351.3751192749867
 42
0.0268360501217043
 10
894.84940783398451
 20
-1351.044126140966
 10
894.84387142634932
 20
-1351.0346064706534
 42
0.0274670231730954
 10
894.65167044993609
 20
-1350.7423190957365
 10
894.64628914997331
 20
-1350.735039948195
 42
0.0275035967095445
 10
894.43471627041163
 20
-1350.4795240578912
 10
894.42964676944462
 20
-1350.4740449702604
 42
0.0269557673527476
 10
894.20224322600552
 20
-1350.2534026842984
 10
894.19750016822275
 20
-1350.2492727298375
 42
0.0259124802208948
 10
893.95794533679214
 20
-1350.0615822026853
 10
893.95341449161151
 20
-1350.0583967003558
 42
0.024516215300025
 10
893.7054981385154
 20
-1349.9016636912445
 10
893.70097159218915
 20
-1349.8991034940425
 42
0.0229282588841714
 10
893.44855203536372
 20
-1349.7712353015447
 10
893.44377154152892
 20
-1349.7690830017837
 42
0.021298413569347
 10
893.1907335890653
 20
-1349.6678840845404
 10
893.18542930409819
 20
-1349.6660205217813
 42
0.0197555462344347
 10
892.9356509663728
 20
-1349.5892051038156
 42
0.0183511896785049
 10
892.6807222409077
 20
-1349.5316221968499
 10
892.59435704418604
 20
-1349.5154194064651
 42
0.0338057877146519
 10
892.30884969492638
 20
-1349.4816110013248
 10
892.21784428988269
 20
-1349.4770313460633
 42
0.0091990524501854
 10
892.11199718125044
 20
-1349.4736554901413
 42
0.0028333980782233
 10
892.0060832652739
 20
-1349.4728273826247
 10
892.00516781220813
 20
-1349.4728254128006
 42
-0.0023619827824899
 10
891.89742179713664
 20
-1349.4720845717225
 10
891.86101662692636
 20
-1349.4716622652591
 42
0.0008824598478378
 10
891.68046063721965
 20
-1349.469886487022
 10
891.63659920467057
 20
-1349.4695325254952
 42
0.0038132665768147
 10
891.36831630879476
 20
-1349.4694135894288
 10
891.35178265399827
 20
-1349.4695323555723
 42
0.0060665569336472
 10
891.05050216239113
 20
-1349.4753526549935
 10
891.03625183038162
 20
-1349.4758009629606
 42
0.0080356953334934
 10
890.70679311404535
 20
-1349.4914686850273
 10
890.69472309895514
 20
-1349.492237267968
 42
0.0098996399105623
 10
890.34196001430462
 20
-1349.5217224971661
 10
890.33191430492957
 20
-1349.5227627933643
 42
0.0117740981370086
 10
889.96075744657696
 20
-1349.5700550408949
 10
889.95253475009827
 20
-1349.571300157465
 42
0.0137435215133645
 10
889.56794593061591
 20
-1349.640397131026
 10
889.56128889148977
 20
-1349.6417830272601
 42
0.015835986938862
 10
889.16829179768376
 20
-1349.7366751157417
 10
889.16287861082014
 20
-1349.7381650566113
 42
0.0180554124026426
 10
888.76656356621095
 20
-1349.8628030728489
 10
888.76200677812437
 20
-1349.8644191091164
 42
0.0203657431283593
 10
888.36752926030897
 20
-1350.0226794506339
 10
888.36338572130569
 20
-1350.024541072074
 42
0.0226819684657457
 10
887.97594966510394
 20
-1350.220183650744
 10
887.97174987408391
 20
-1350.2225492426649
 42
0.0248634984601269
 10
887.59656793290344
 20
-1350.4591758886115
 10
887.54837300412009
 20
-1350.4930329304368
 42
0.0267044190886983
 10
887.27408030720221
 20
-1350.7084733063059
 42
0.0139303002199415
 10
887.0179131412599
 20
-1350.9457121472215
 10
887.01305975554249
 20
-1350.9504648100781
 42
0.028346096344271
 10
886.76898716131666
 20
-1351.2181954705213
 10
886.72931865615874
 20
-1351.266997047996
 42
0.0070695364826265
 10
886.651881430299
 20
-1351.3650638639615
 42
0.0070695364826265
  0
LWPOLYLINE
  5
54
100
AcDbEntity
  8
0
370
              15
390
0
  6
Continuous
 62
               7
100
AcDbPolyline
 90
      226
 70
             128
 10
883.1230609930526
 20
-1367.0866526701457
 42
-0.0026277636632777
 10
883.12298310925257
 20
-1367.0198807444151
 10
883.12320046748459
 20
-1366.9667255269594
 42
-0.0088680296714984
 10
883.12697708377766
 20
-1366.7937097445538
 10
883.12932344289004
 20
-1366.7344297191028
 42
-0.0077381705622123
 10
883.14536955365304
 20
-1366.4431692233061
 10
883.14623746482619
 20
-1366.4308809896195
 42
-0.0068872530526634
 10
883.17286954457506
 20
-1366.1156592375432
 10
883.17407376876042
 20
-1366.1034182585317
 42
-0.0062130021491017
 10
883.21166748558892
 20
-1365.7645485672883
 10
883.21317138912343
 20
-1365.7523746953766
 42
-0.0056726929668005
 10
883.26209324862714
 20
-1365.3901794732531
 10
883.26386669427006
 20
-1365.3780856730179
 42
-0.0052341884499846
 10
883.32447728053182
 20
-1364.9928924174897
 10
883.32649526930663
 20
-1364.9808874875077
 42
-0.0049768450170975
 10
883.39923395073458
 20
-1364.5730429200669
 10
883.42348296545481
 20
-1364.4444949370691
 42
-0.0089029805627051
 10
883.56056381724875
 20
-1363.7827194896504
 10
883.59330919256809
 20
-1363.6376880591231
 42
-0.008031825710113
 10
883.82285780690938
 20
-1362.6919784272673
 10
883.83484273335705
 20
-1362.6458477920794
 42
-0.0074265721318356
 10
884.11885427220591
 20
-1361.6157832137028
 10
884.13873381532517
 20
-1361.5476491531047
 42
-0.0069711922701817
 10
884.46603839383033
 20
-1360.4813814127815
 10
884.52599034093453
 20
-1360.2953600544149
 42
-0.0052070422896343
 10
884.7554155661951
 20
-1359.6080879773795
 10
884.77269675837999
 20
-1359.5580606967258
 42
-0.0009167004447636
 10
884.97578864565685
 20
-1358.9736048486084
 42
-0.0025162726943765
 10
885.18288627591403
 20
-1358.3905635844612
 10
885.22011088772365
 20
-1358.2874140385438
 42
-0.0028212681458394
 10
885.46828680668796
 20
-1357.6116834063694
 10
885.47811756943702
 20
-1357.5853759616969
 42
-0.0031964916822826
 10
885.71440982710089
 20
-1356.9651711995657
 10
885.72404428109542
 20
-1356.9403612094338
 42
-0.00362818364512
 10
885.94915024220109
 20
-1356.3729205285292
 10
885.95858865235732
 20
-1356.3496230970293
 42
-0.0041269166835641
 10
886.17320634901773
 20
-1355.832182201048
 10
886.20583930543921
 20
-1355.7553037546852
 42
-0.0047472213056243
 10
886.36288411099213
 20
-1355.3948822868035
 10
886.36977819218669
 20
-1355.379461689502
 42
-0.002565165999829
 10
886.5181362260505
 20
-1355.0521336337231
 42
-0.0057144634991951
 10
886.67188591982563
 20
-1354.7273239603526
 10
886.69991662521738
 20
-1354.6698155779779
 42
-0.0065388068376906
 10
886.88338365296272
 20
-1354.3055830813014
 10
886.89184210874919
 20
-1354.2893235019167
 42
-0.0074510843023697
 10
887.06802435461918
 20
-1353.9626352208093
 10
887.07620402514578
 20
-1353.9479944435484
 42
-0.0084648979857829
 10
887.24583787825031
 20
-1353.6560854325794
 10
887.25369400473494
 20
-1353.6430784409342
 42
-0.00956385428046
 10
887.41752945233259
 20
-1353.38318956895
 10
887.42500439600735
 20
-1353.3718202074901
 42
-0.0107191626804065
 10
887.58380597639189
 20
-1353.1412089729504
 10
887.59082271012164
 20
-1353.1314728805876
 42
-0.0118458573904121
 10
887.74537080863547
 20
-1352.927400685275
 42
-0.0129184518187152
 10
887.90982343224221
 20
-1352.7312401690986
 10
887.93996820459927
 20
-1352.697114090206
 42
-0.0217742579637731
 10
888.11658052693542
 20
-1352.513907319955
 10
888.12732607139912
 20
-1352.5036904867488
 42
-0.0097266568649456
 10
888.29338369025163
 20
-1352.3518429123146
 42
-0.0187720905720662
 10
888.46773126613857
 20
-1352.2097740589275
 10
888.49843725681319
 20
-1352.186614976531
 42
-0.0179428207522269
 10
888.73085797681142
 20
-1352.0240627994176
 10
888.73451030373076
 20
-1352.0216988645275
 42
-0.017004787769614
 10
888.97027394125757
 20
-1351.8802383503785
 10
888.97405692999985
 20
-1351.8781400453445
 42
-0.0160190788364313
 10
889.21096547763943
 20
-1351.7564887433541
 42
-0.0151102861489948
 10
889.45499726009143
 20
-1351.6498059672972
 10
889.50738376229788
 20
-1351.6287658344047
 42
-0.0271945441887156
 10
889.86604632135629
 20
-1351.5069010236987
 10
889.93511112184217
 20
-1351.487551482433
 42
-0.0237596594025361
 10
890.35090796886675
 20
-1351.392100770451
 10
890.41897082259834
 20
-1351.3798460823241
 42
-0.0213715440552745
 10
890.70484575404248
 20
-1351.3408990508144
 10
890.76499292026131
 20
-1351.3353093361134
 42
-0.0101465655812814
 10
890.93248545225458
 20
-1351.3231657928493
 10
890.94182583844724
 20
-1351.3226788778522
 42
-0.0100375910884862
 10
891.09097993901537
 20
-1351.3179030599267
 10
891.10123920869876
 20
-1351.3177806209123
 42
-0.0103625633381622
 10
891.22994720335066
 20
-1351.3189120544389
 10
891.25221285461612
 20
-1351.3195694129038
 42
-0.0115689250244154
 10
891.33626359214554
 20
-1351.3239989191491
 42
-0.0072438037413622
 10
891.42010187159769
 20
-1351.3315881188998
 10
891.43690238105751
 20
-1351.3333546616227
 42
-0.021791731313142
 10
891.55347214437063
 20
-1351.3507745543436
 10
891.61907223493768
 20
-1351.3635211627582
 42
-0.0332943556765081
 10
891.82346439996604
 20
-1351.4175614540652
 10
891.85363696852028
 20
-1351.4277295311852
 42
-0.0184824084793825
 10
891.99214202498149
 20
-1351.4801805465702
 42
-0.0198002050703393
 10
892.12621636547908
 20
-1351.5430646067684
 10
892.12810300285776
 20
-1351.5440423936493
 42
-0.0212242342977532
 10
892.2602419452586
 20
-1351.6198051324418
 10
892.26205724080319
 20
-1351.6209509346509
 42
-0.0226090605787778
 10
892.39056114202617
 20
-1351.7104305782163
 10
892.39240558376241
 20
-1351.7118428312028
 42
-0.0238457052251294
 10
892.51558766505411
 20
-1351.8158387270639
 10
892.51754039361435
 20
-1351.8176536048313
 42
-0.0248160564145752
 10
892.63374190091577
 20
-1351.9369282060411
 10
892.63584553431701
 20
-1351.9393135397445
 42
-0.025410959144989
 10
892.74345075218264
 20
-1352.0746019257083
 10
892.74569877409704
 20
-1352.0777434741094
 42
-0.0255528488281724
 10
892.84314545289351
 20
-1352.2297705283427
 10
892.84547655281028
 20
-1352.2338521399513
 42
-0.0252146793217342
 10
892.93125757882046
 20
-1352.4033543859505
 10
892.93355981797708
 20
-1352.408536467861
 42
-0.0244265635947248
 10
893.00621451173868
 20
-1352.596283039908
 10
893.01546091320699
 20
-1352.6241484582458
 42
-0.0231319612895664
 10
893.061383692199
 20
-1352.7874495050473
 42
-0.0112130424360685
 10
893.09601971473717
 20
-1352.9536531052349
 10
893.09722223984977
 20
-1352.9601496921232
 42
-0.0210527881231789
 10
893.12290871522089
 20
-1353.1412053375666
 10
893.12641931004248
 20
-1353.1766108861116
 42
-0.0190029892420688
 10
893.14186078358694
 20
-1353.4301467323824
 10
893.14267076003102
 20
-1353.465622346753
 42
-0.0137974553657955
 10
893.14112190719516
 20
-1353.7906537534952
 10
893.14027645223962
 20
-1353.8167724980869
 42
-0.0081336634212145
 10
893.12541711701738
 20
-1354.1221199656784
 42
-0.0073526923578945
 10
893.10110858364339
 20
-1354.4268682099569
 10
893.09984715986002
 20
-1354.4402048846296
 42
-0.0066886138698397
 10
893.06411157381478
 20
-1354.7707909281171
 10
893.06245448434368
 20
-1354.7844125471183
 42
-0.0061359187352531
 10
893.01460388229282
 20
-1355.1411765272185
 10
893.01256638121993
 20
-1355.1550713300476
 42
-0.0056698610066007
 10
892.95191605045113
 20
-1355.5383498988951
 10
892.9495106171297
 20
-1355.5525090181163
 42
-0.0052721077272008
 10
892.87537841633127
 20
-1355.9626363577877
 10
892.8726152674883
 20
-1355.9770529931802
 42
-0.0049289272178094
 10
892.78432114939028
 20
-1356.4143615042933
 10
892.78120865470578
 20
-1356.4290303571183
 42
-0.0047415956711791
 10
892.67797066317371
 20
-1356.893827114528
 10
892.64320245281374
 20
-1357.0436342099122
 42
-0.0084404470903083
 10
892.45318600924156
 20
-1357.8038582344443
 10
892.44705932125623
 20
-1357.8267223585967
 42
-0.003963594025829
 10
892.22560563697516
 20
-1358.6277112228338
 10
892.21222884179269
 20
-1358.674642839436
 42
-0.0072475040836265
 10
891.94478195392639
 20
-1359.5638625558365
 10
891.87456962710701
 20
-1359.7856029057834
 42
-0.0051345458829478
 10
891.58781025504334
 20
-1360.6599280936093
 10
891.56628398827013
 20
-1360.723354360756
 42
-0.001915001660091
 10
891.31075058140914
 20
-1361.4669034809654
 10
891.30428297701451
 20
-1361.485490945882
 42
-0.0021524362752172
 10
891.05580492594902
 20
-1362.1898167675949
 10
891.04659450526276
 20
-1362.2155703458679
 42
-0.0024331286823351
 10
890.81033924621659
 20
-1362.8661696540146
 10
890.80129129365741
 20
-1362.8907129603924
 42
-0.0027449721788045
 10
890.57667672283071
 20
-1363.4898428392933
 10
890.56778671543225
 20
-1363.5131654291617
 42
-0.0031083229767864
 10
890.35424422882852
 20
-1364.0630894667252
 10
890.34550809715688
 20
-1364.085179182573
 42
-0.0035311343282797
 10
890.14246691156109
 20
-1364.588162308313
 10
890.13388157242468
 20
-1364.609005031796
 42
-0.0040245640949515
 10
889.94076976861902
 20
-1365.0673143544159
 10
889.93233365501055
 20
-1365.0868937225005
 42
-0.0046015135852277
 10
889.74857736185231
 20
-1365.5027987521303
 10
889.74029118402825
 20
-1365.5210958915729
 42
-0.0052768638274971
 10
889.5653136650684
 20
-1365.8968687758527
 10
889.55718145443871
 20
-1365.9138621144018
 42
-0.0060672675642957
 10
889.3904018416755
 20
-1366.2517777375101
 10
889.38243236119763
 20
-1366.2674429965002
 42
-0.0069904648874999
 10
889.22326396719245
 20
-1366.5697788031709
 10
889.21547256757731
 20
-1366.5840893524064
 42
-0.0080637022760648
 10
889.06332070723579
 20
-1366.8531246555513
 10
889.05573167460648
 20
-1366.8660525211487
 42
-0.0093006455670349
 10
888.909990998073
 20
-1367.1040669196552
 10
888.90264033133155
 20
-1367.115584888825
 42
-0.0107060778049688
 10
888.76269178789084
 20
-1367.3248552062075
 10
888.75563001961302
 20
-1367.3349407487708
 42
-0.0122723111414786
 10
888.62083630141319
 20
-1367.5177340782623
 10
888.62051007786295
 20
-1367.518154466067
 42
-0.0141836319626316
 10
888.47692847488509
 20
-1367.6927242239015
 10
888.46998071922997
 20
-1367.7006992241697
 42
-0.0175957477206743
 10
888.33007455119844
 20
-1367.8503201125711
 42
-0.0080466359679561
 10
888.18261078618161
 20
-1367.9926426407098
 10
888.1365762416508
 20
-1368.0356630788135
 42
-0.0269600260393889
 10
887.88329599566725
 20
-1368.2479863373233
 10
887.81672885937098
 20
-1368.2979377519464
 42
-0.0178362839755543
 10
887.57678436971491
 20
-1368.464955678199
 10
887.56953939871437
 20
-1368.4696241904039
 42
-0.0174650732650646
 10
887.33320320127325
 20
-1368.610485155363
 42
-0.0169240130162938
 10
887.08773695541493
 20
-1368.7347774151408
 10
887.04175079985771
 20
-1368.7561393707076
 42
-0.0318883036841992
 10
886.69139994423847
 20
-1368.8924776802176
 10
886.62303440907112
 20
-1368.9141783006937
 42
-0.0284435909901468
 10
886.24698428278191
 20
-1369.0103957361678
 10
886.21182612228245
 20
-1369.0172893319964
 42
-0.0243909341011414
 10
885.89838266136439
 20
-1369.0630103630263
 10
885.84810193459759
 20
-1369.0678559099274
 42
-0.0196639292936648
 10
885.63250635706606
 20
-1369.0801041954414
 10
885.58068228590253
 20
-1369.0810074561782
 42
-0.0100501510681266
 10
885.46825900423835
 20
-1369.0807070578251
 10
885.43659914288514
 20
-1369.0799859859394
 42
-0.0019752031122458
 10
885.38750680621285
 20
-1369.0786738257302
 10
885.38474650299122
 20
-1369.078589133904
 42
0.0065378751983304
 10
885.34116992823601
 20
-1369.0778222426891
 42
-0.016797469465352
 10
885.2976391053013
 20
-1369.0761623441626
 10
885.29355976604211
 20
-1369.075869333268
 42
-0.0081283276285791
 10
885.2419999683118
 20
-1369.0713223396308
 10
885.23026039442493
 20
-1369.0700944220516
 42
-0.0126703440172364
 10
885.15554209863001
 20
-1369.06035963098
 10
885.13275423095467
 20
-1369.0568013750649
 42
-0.0117852088435651
 10
885.01321524512343
 20
-1369.0352383799079
 10
884.95783479335932
 20
-1369.0238948396732
 42
-0.025177459229097
 10
884.73099075435175
 20
-1368.9653968302405
 10
884.68627156450339
 20
-1368.9514300109061
 42
-0.0146525199893363
 10
884.49987857696192
 20
-1368.8871634837069
 42
-0.0166929435854114
 10
884.31790092083395
 20
-1368.8113563506517
 10
884.31324428956202
 20
-1368.8092314500382
 42
-0.0191684358430329
 10
884.12806065831126
 20
-1368.7159953662474
 10
884.12472807255585
 20
-1368.714154118695
 42
-0.022118178181174
 10
883.94141776865479
 20
-1368.602020620325
 10
883.93906796464523
 20
-1368.6004363223333
 42
-0.0254984685387123
 10
883.76277781425949
 20
-1368.4680251723632
 10
883.74029566655793
 20
-1368.4492728634273
 42
-0.02924926488051
 10
883.61552672771495
 20
-1368.3321800637841
 42
-0.0159048957497783
 10
883.50168673026576
 20
-1368.2041600721861
 10
883.50036793968559
 20
-1368.2025784591651
 42
-0.0343813379564902
 10
883.39773067805913
 20
-1368.0607071333955
 10
883.36623914669906
 20
-1368.0102037413023
 42
-0.036911727570582
 10
883.28034664480128
 20
-1367.846726500353
 42
-0.0191751379910785
 10
883.21315325924445
 20
-1367.6743218943477
 10
883.2113899354847
 20
-1367.6692285496722
 42
-0.0378178042223385
 10
883.16159521670068
 20
-1367.4802877735922
 10
883.15559992096985
 20
-1367.4477271553926
 42
-0.018484604647943
 10
883.13488272167569
 20
-1367.305974334849
 42
-0.0179866351308491
 10
883.12454971660225
 20
-1367.1630835217713
 10
883.12449327415629
 20
-1367.1615258351553
 42
-0.0085497186124142
 10
883.1230609930526
 20
-1367.0866526701457
 42
-0.0085497186124142
  0
ENDBLK
  5
55
100
AcDbEntity
  8
template
390
0
100
AcDbBlockEnd
  0
BLOCK
  5
56
100
AcDbEntity
  8
notes
390
0
100
AcDbBlockBegin
  2
*D2
 70
               1
 10
0.0
 20
0.0
 30
0.0
  3
*D2
  1

  0
LINE
  5
57
100
AcDbEntity
  8
0
370
              -2
390
0
  6
Continuous
 62
               0
100
AcDbLine
 10
-704.94496930646824
 20
871.47559684314638
 30
0.0
 11
-704.94496930646824
 21
962.95313590564638
 31
0.0
  0
LINE
  5
58
100
AcDbEntity
  8
0
370
              -2
390
0
  6
Continuous
 62
               0
100
AcDbLine
 10
-144.94496930646807
 20
871.47559684314638
 30
0.0
 11
-144.94496930646807
 21
962.95313590564638
 31
0.0
  0
LINE
  5
59
100
AcDbEntity
  8
0
370
              -2
390
0
  6
Continuous
 62
               0
100
AcDbLine
 10
-704.94496930646824
 20
962.95313590564638
 30
0.0
 11
-144.94496930646807
 21
962.95313590564638
 31
0.0
  0
CIRCLE
  5
5A
102
{ACAD_REACTORS
330
5B
102
}
100
AcDbEntity
  8
0
370
              -2
390
0
  6
Continuous
 62
               0
100
AcDbCircle
 10
-704.94496930646824
 20
962.95313590564638
 30
0.0
 40
4.99969482421875
  0
HATCH
  5
5B
100
AcDbEntity
  8
0
370
              -2
390
0
  6
Continuous
 62
               0
100
AcDbHatch
 10
0.0
 20
0.0
 30
0.0
210
0.0
220
0.0
230
1.0
  2
SOLID
 70
               1
 71
               1
 91
        1
 92
        1
 93
        1
 72
               2
 10
-704.94496930646824
 20
962.95313590564638
 40
4.99969482421875
 50
0.0
 51
360.0
 73
               0
 97
        1
330
5A
 75
               0
 76
               1
 98
        1
 10
0.0
 20
0.0
  0
CIRCLE
  5
5C
102
{ACAD_REACTORS
330
5D
102
}
100
AcDbEntity
  8
0
370
              -2
390
0
  6
Continuous
 62
               0
100
AcDbCircle
 10
-144.94496930646807
 20
962.95313590564638
 30
0.0
 40
4.99969482421875
  0
HATCH
  5
5D
100
AcDbEntity
  8
0
370
              -2
390
0
  6
Continuous
 62
               0
100
AcDbHatch
 10
0.0
 20
0.0
 30
0.0
210
0.0
220
0.0
230
1.0
  2
SOLID
 70
               1
 71
               1
 91
        1
 92
        1
 93
        1
 72
               2
 10
-144.94496930646807
 20
962.95313590564638
 40
4.99969482421875
 50
0.0
 51
360.0
 73
               0
 97
        1
330
5C
 75
               0
 76
               1
 98
        1
 10
0.0
 20
0.0
  0
MTEXT
  5
5E
100
AcDbEntity
  8
0
390
0
 62
               0
100
AcDbMText
 10
-448.75747098864366
 20
996.83075309314643
 30
0.0
 40
24.432617187500004
 41
0.0
 71
               1
 72
               1
  1
560
  7
ＭＳ ゴシック
 73
               1
 44
0.7828267384257843
  0
POINT
  5
5F
100
AcDbEntity
  8
Defpoints
370
               0
390
0
 62
               0
100
AcDbPoint
 10
-144.94496930646807
 20
846.47559684314638
 30
0.0
  0
POINT
  5
60
100
AcDbEntity
  8
Defpoints
370
               0
390
0
 62
               0
100
AcDbPoint
 10
-704.94496930646824
 20
846.47559684314638
 30
0.0
  0
POINT
  5
61
100
AcDbEntity
  8
Defpoints
370
               0
390
0
 62
               0
100
AcDbPoint
 10
-704.94496930646824
 20
962.95313590564638
 30
0.0
  0
ENDBLK
  5
62
100
AcDbEntity
  8
notes
390
0
100
AcDbBlockEnd
  0
BLOCK
  5
63
100
AcDbEntity
  8
notes
390
0
100
AcDbBlockBegin
  2
*D3
 70
               1
 10
0.0
 20
0.0
 30
0.0
  3
*D3
  1

  0
LINE
  5
64
100
AcDbEntity
  8
0
370
              -2
390
0
  6
Continuous
 62
               0
100
AcDbLine
 10
-524.94496930646824
 20
827.91504996814638
 30
0.0
 11
-524.94496930646824
 21
901.91504996814638
 31
0.0
  0
LINE
  5
65
100
AcDbEntity
  8
0
370
              -2
390
0
  6
Continuous
 62
               0
100
AcDbLine
 10
-424.94496930646807
 20
829.41504996814638
 30
0.0
 11
-424.94496930646807
 21
901.91504996814638
 31
0.0
  0
LINE
  5
66
100
AcDbEntity
  8
0
370
              -2
390
0
  6
Continuous
 62
               0
100
AcDbLine
 10
-524.94496930646824
 20
901.91504996814638
 30
0.0
 11
-424.94496930646807
 21
901.91504996814638
 31
0.0
  0
CIRCLE
  5
67
102
{ACAD_REACTORS
330
68
102
}
100
AcDbEntity
  8
0
370
              -2
390
0
  6
Continuous
 62
               0
100
AcDbCircle
 10
-524.94496930646824
 20
901.91504996814638
 30
0.0
 40
4.99969482421875
  0
HATCH
  5
68
100
AcDbEntity
  8
0
370
              -2
390
0
  6
Continuous
 62
               0
100
AcDbHatch
 10
0.0
 20
0.0
 30
0.0
210
0.0
220
0.0
230
1.0
  2
SOLID
 70
               1
 71
               1
 91
        1
 92
        1
 93
        1
 72
               2
 10
-524.94496930646824
 20
901.91504996814638
 40
4.99969482421875
 50
0.0
 51
360.0
 73
               0
 97
        1
330
67
 75
               0
 76
               1
 98
        1
 10
0.0
 20
0.0
  0
CIRCLE
  5
69
102
{ACAD_REACTORS
330
6A
102
}
100
AcDbEntity
  8
0
370
              -2
390
0
  6
Continuous
 62
               0
100
AcDbCircle
 10
-424.94496930646807
 20
901.91504996814638
 30
0.0
 40
4.99969482421875
  0
HATCH
  5
6A
100
AcDbEntity
  8
0
370
              -2
390
0
  6
Continuous
 62
               0
100
AcDbHatch
 10
0.0
 20
0.0
 30
0.0
210
0.0
220
0.0
230
1.0
  2
SOLID
 70
               1
 71
               1
 91
        1
 92
        1
 93
        1
 72
               2
 10
-424.94496930646807
 20
901.91504996814638
 40
4.99969482421875
 50
0.0
 51
360.0
 73
               0
 97
        1
330
69
 75
               0
 76
               1
 98
        1
 10
0.0
 20
0.0
  0
MTEXT
  5
6B
100
AcDbEntity
  8
0
390
0
 62
               0
100
AcDbMText
 10
-498.75747098864366
 20
935.79266715564643
 30
0.0
 40
24.432617187500004
 41
0.0
 71
               1
 72
               1
  1
100
  7
ＭＳ ゴシック
 73
               1
 44
0.7828267384257843
  0
POINT
  5
6C
100
AcDbEntity
  8
Defpoints
370
               0
390
0
 62
               0
100
AcDbPoint
 10
-424.94496930646807
 20
804.41504996814638
 30
0.0
  0
POINT
  5
6D
100
AcDbEntity
  8
Defpoints
370
               0
390
0
 62
               0
100
AcDbPoint
 10
-524.94496930646824
 20
802.91504996814638
 30
0.0
  0
POINT
  5
6E
100
AcDbEntity
  8
Defpoints
370
               0
390
0
 62
               0
100
AcDbPoint
 10
-524.94496930646824
 20
901.91504996814638
 30
0.0
  0
ENDBLK
  5
6F
100
AcDbEntity
  8
notes
390
0
100
AcDbBlockEnd
  0
BLOCK
  5
70
100
AcDbEntity
  8
notes
390
0
100
AcDbBlockBegin
  2
*D4
 70
               1
 10
0.0
 20
0.0
 30
0.0
  3
*D4
  1

  0
LINE
  5
71
100
AcDbEntity
  8
0
370
              -2
390
0
  6
Continuous
 62
               0
100
AcDbLine
 10
-424.94496930646807
 20
829.41504996814638
 30
0.0
 11
-424.94496930646807
 21
901.91504996814638
 31
0.0
  0
LINE
  5
72
100
AcDbEntity
  8
0
370
              -2
390
0
  6
Continuous
 62
               0
100
AcDbLine
 10
-324.94496930646807
 20
827.91504996814638
 30
0.0
 11
-324.94496930646807
 21
901.91504996814638
 31
0.0
  0
LINE
  5
73
100
AcDbEntity
  8
0
370
              -2
390
0
  6
Continuous
 62
               0
100
AcDbLine
 10
-424.94496930646807
 20
901.91504996814638
 30
0.0
 11
-324.94496930646807
 21
901.91504996814638
 31
0.0
  0
CIRCLE
  5
74
102
{ACAD_REACTORS
330
75
102
}
100
AcDbEntity
  8
0
370
              -2
390
0
  6
Continuous
 62
               0
100
AcDbCircle
 10
-424.94496930646807
 20
901.91504996814638
 30
0.0
 40
4.99969482421875
  0
HATCH
  5
75
100
AcDbEntity
  8
0
370
              -2
390
0
  6
Continuous
 62
               0
100
AcDbHatch
 10
0.0
 20
0.0
 30
0.0
210
0.0
220
0.0
230
1.0
  2
SOLID
 70
               1
 71
               1
 91
        1
 92
        1
 93
        1
 72
               2
 10
-424.94496930646807
 20
901.91504996814638
 40
4.99969482421875
 50
0.0
 51
360.0
 73
               0
 97
        1
330
74
 75
               0
 76
               1
 98
        1
 10
0.0
 20
0.0
  0
CIRCLE
  5
76
102
{ACAD_REACTORS
330
77
102
}
100
AcDbEntity
  8
0
370
              -2
390
0
  6
Continuous
 62
               0
100
AcDbCircle
 10
-324.94496930646807
 20
901.91504996814638
 30
0.0
 40
4.99969482421875
  0
HATCH
  5
77
100
AcDbEntity
  8
0
370
              -2
390
0
  6
Continuous
 62
               0
100
AcDbHatch
 10
0.0
 20
0.0
 30
0.0
210
0.0
220
0.0
230
1.0
  2
SOLID
 70
               1
 71
               1
 91
        1
 92
        1
 93
        1
 72
               2
 10
-324.94496930646807
 20
901.91504996814638
 40
4.99969482421875
 50
0.0
 51
360.0
 73
               0
 97
        1
330
76
 75
               0
 76
               1
 98
        1
 10
0.0
 20
0.0
  0
MTEXT
  5
78
100
AcDbEntity
  8
0
390
0
 62
               0
100
AcDbMText
 10
-398.7574709886436
 20
935.79266715564643
 30
0.0
 40
24.432617187500004
 41
0.0
 71
               1
 72
               1
  1
100
  7
ＭＳ ゴシック
 73
               1
 44
0.7828267384257843
  0
POINT
  5
79
100
AcDbEntity
  8
Defpoints
370
               0
390
0
 62
               0
100
AcDbPoint
 10
-324.94496930646807
 20
802.91504996814638
 30
0.0
  0
POINT
  5
7A
100
AcDbEntity
  8
Defpoints
370
               0
390
0
 62
               0
100
AcDbPoint
 10
-424.94496930646807
 20
804.41504996814638
 30
0.0
  0
POINT
  5
7B
100
AcDbEntity
  8
Defpoints
370
               0
390
0
 62
               0
100
AcDbPoint
 10
-424.94496930646807
 20
901.91504996814638
 30
0.0
  0
ENDBLK
  5
7C
100
AcDbEntity
  8
notes
390
0
100
AcDbBlockEnd
  0
BLOCK
  5
7D
100
AcDbEntity
  8
notes
390
0
100
AcDbBlockBegin
  2
*D5
 70
               1
 10
0.0
 20
0.0
 30
0.0
  3
*D5
  1

  0
LINE
  5
7E
100
AcDbEntity
  8
0
370
              -2
390
0
  6
Continuous
 62
               0
100
AcDbLine
 10
-126.38539899396807
 20
851.91504996814638
 30
0.0
 11
-44.944969306468067
 21
851.91504996814638
 31
0.0
  0
LINE
  5
7F
100
AcDbEntity
  8
0
370
              -2
390
0
  6
Continuous
 62
               0
100
AcDbLine
 10
-126.38539899396807
 20
411.91504996814638
 30
0.0
 11
-44.944969306468067
 21
411.91504996814638
 31
0.0
  0
LINE
  5
80
100
AcDbEntity
  8
0
370
              -2
390
0
  6
Continuous
 62
               0
100
AcDbLine
 10
-44.944969306468067
 20
851.91504996814638
 30
0.0
 11
-44.944969306468067
 21
411.91504996814638
 31
0.0
  0
CIRCLE
  5
81
102
{ACAD_REACTORS
330
82
102
}
100
AcDbEntity
  8
0
370
              -2
390
0
  6
Continuous
 62
               0
100
AcDbCircle
 10
-44.944969306468067
 20
851.91504996814638
 30
0.0
 40
4.99969482421875
  0
HATCH
  5
82
100
AcDbEntity
  8
0
370
              -2
390
0
  6
Continuous
 62
               0
100
AcDbHatch
 10
0.0
 20
0.0
 30
0.0
210
0.0
220
0.0
230
1.0
  2
SOLID
 70
               1
 71
               1
 91
        1
 92
        1
 93
        1
 72
               2
 10
-44.944969306468067
 20
851.91504996814638
 40
4.99969482421875
 50
0.0
 51
360.0
 73
               0
 97
        1
330
81
 75
               0
 76
               1
 98
        1
 10
0.0
 20
0.0
  0
CIRCLE
  5
83
102
{ACAD_REACTORS
330
84
102
}
100
AcDbEntity
  8
0
370
              -2
390
0
  6
Continuous
 62
               0
100
AcDbCircle
 10
-44.944969306468067
 20
411.91504996814638
 30
0.0
 40
4.99969482421875
  0
HATCH
  5
84
100
AcDbEntity
  8
0
370
              -2
390
0
  6
Continuous
 62
               0
100
AcDbHatch
 10
0.0
 20
0.0
 30
0.0
210
0.0
220
0.0
230
1.0
  2
SOLID
 70
               1
 71
               1
 91
        1
 92
        1
 93
        1
 72
               2
 10
-44.944969306468067
 20
411.91504996814638
 40
4.99969482421875
 50
0.0
 51
360.0
 73
               0
 97
        1
330
83
 75
               0
 76
               1
 98
        1
 10
0.0
 20
0.0
  0
MTEXT
  5
85
100
AcDbEntity
  8
0
390
0
 62
               0
100
AcDbMText
 10
-78.822586493968075
 20
608.1025482859709
 30
0.0
 40
24.432617187500004
 41
0.0
 71
               1
 72
               1
  1
440
  7
ＭＳ ゴシック
 11
0.0
 21
1.0
 31
0.0
 73
               1
 44
0.7828267384257843
  0
POINT
  5
86
100
AcDbEntity
  8
Defpoints
370
               0
390
0
 62
               0
100
AcDbPoint
 10
-151.38539899396807
 20
411.91504996814638
 30
0.0
  0
POINT
  5
87
100
AcDbEntity
  8
Defpoints
370
               0
390
0
 62
               0
100
AcDbPoint
 10
-151.38539899396807
 20
851.91504996814638
 30
0.0
  0
POINT
  5
88
100
AcDbEntity
  8
Defpoints
370
               0
390
0
 62
               0
100
AcDbPoint
 10
-44.944969306468067
 20
851.91504996814638
 30
0.0
  0
ENDBLK
  5
89
100
AcDbEntity
  8
notes
390
0
100
AcDbBlockEnd
  0
BLOCK
  5
8A
100
AcDbEntity
  8
notes
390
0
100
AcDbBlockBegin
  2
*D6
 70
               1
 10
0.0
 20
0.0
 30
0.0
  3
*D6
  1

  0
LINE
  5
8B
100
AcDbEntity
  8
0
370
              -2
390
0
  6
Continuous
 62
               0
100
AcDbLine
 10
-489.94496930646807
 20
-347.02635628185362
 30
0.0
 11
-489.94496930646807
 21
-252.02635628185362
 31
0.0
  0
LINE
  5
8C
100
AcDbEntity
  8
0
370
              -2
390
0
  6
Continuous
 62
               0
100
AcDbLine
 10
-359.94496930646807
 20
-347.02635628185362
 30
0.0
 11
-359.94496930646807
 21
-252.02635628185362
 31
0.0
  0
LINE
  5
8D
100
AcDbEntity
  8
0
370
              -2
390
0
  6
Continuous
 62
               0
100
AcDbLine
 10
-489.94496930646807
 20
-252.02635628185362
 30
0.0
 11
-359.94496930646807
 21
-252.02635628185362
 31
0.0
  0
CIRCLE
  5
8E
102
{ACAD_REACTORS
330
8F
102
}
100
AcDbEntity
  8
0
370
              -2
390
0
  6
Continuous
 62
               0
100
AcDbCircle
 10
-489.94496930646807
 20
-252.02635628185362
 30
0.0
 40
4.99969482421875
  0
HATCH
  5
8F
100
AcDbEntity
  8
0
370
              -2
390
0
  6
Continuous
 62
               0
100
AcDbHatch
 10
0.0
 20
0.0
 30
0.0
210
0.0
220
0.0
230
1.0
  2
SOLID
 70
               1
 71
               1
 91
        1
 92
        1
 93
        1
 72
               2
 10
-489.94496930646807
 20
-252.02635628185362
 40
4.99969482421875
 50
0.0
 51
360.0
 73
               0
 97
        1
330
8E
 75
               0
 76
               1
 98
        1
 10
0.0
 20
0.0
  0
CIRCLE
  5
90
102
{ACAD_REACTORS
330
91
102
}
100
AcDbEntity
  8
0
370
              -2
390
0
  6
Continuous
 62
               0
100
AcDbCircle
 10
-359.94496930646807
 20
-252.02635628185362
 30
0.0
 40
4.99969482421875
  0
HATCH
  5
91
100
AcDbEntity
  8
0
370
              -2
390
0
  6
Continuous
 62
               0
100
AcDbHatch
 10
0.0
 20
0.0
 30
0.0
210
0.0
220
0.0
230
1.0
  2
SOLID
 70
               1
 71
               1
 91
        1
 92
        1
 93
        1
 72
               2
 10
-359.94496930646807
 20
-252.02635628185362
 40
4.99969482421875
 50
0.0
 51
360.0
 73
               0
 97
        1
330
90
 75
               0
 76
               1
 98
        1
 10
0.0
 20
0.0
  0
MTEXT
  5
92
100
AcDbEntity
  8
0
390
0
 62
               0
100
AcDbMText
 10
-448.7574709886436
 20
-218.14873909435363
 30
0.0
 40
24.432617187500004
 41
0.0
 71
               1
 72
               1
  1
130
  7
ＭＳ ゴシック
 73
               1
 44
0.7828267384257843
  0
POINT
  5
93
100
AcDbEntity
  8
Defpoints
370
               0
390
0
 62
               0
100
AcDbPoint
 10
-359.94496930646807
 20
-372.02635628185362
 30
0.0
  0
POINT
  5
94
100
AcDbEntity
  8
Defpoints
370
               0
390
0
 62
               0
100
AcDbPoint
 10
-489.94496930646807
 20
-372.02635628185362
 30
0.0
  0
POINT
  5
95
100
AcDbEntity
  8
Defpoints
370
               0
390
0
 62
               0
100
AcDbPoint
 10
-489.94496930646807
 20
-252.02635628185362
 30
0.0
  0
ENDBLK
  5
96
100
AcDbEntity
  8
notes
390
0
100
AcDbBlockEnd
  0
BLOCK
  5
97
100
AcDbEntity
  8
notes
390
0
100
AcDbBlockBegin
  2
*D7
 70
               1
 10
0.0
 20
0.0
 30
0.0
  3
*D7
  1

  0
LINE
  5
98
100
AcDbEntity
  8
0
370
              -2
390
0
  6
Continuous
 62
               0
100
AcDbLine
 10
-731.21813073877229
 20
851.91504996814638
 30
0.0
 11
-809.21813073877229
 21
851.91504996814638
 31
0.0
  0
LINE
  5
99
100
AcDbEntity
  8
0
370
              -2
390
0
  6
Continuous
 62
               0
100
AcDbLine
 10
-731.21813073877229
 20
721.91504996814638
 30
0.0
 11
-809.21813073877229
 21
721.91504996814638
 31
0.0
  0
LINE
  5
9A
100
AcDbEntity
  8
0
370
              -2
390
0
  6
Continuous
 62
               0
100
AcDbLine
 10
-809.21813073877229
 20
851.91504996814638
 30
0.0
 11
-809.21813073877229
 21
721.91504996814638
 31
0.0
  0
CIRCLE
  5
9B
102
{ACAD_REACTORS
330
9C
102
}
100
AcDbEntity
  8
0
370
              -2
390
0
  6
Continuous
 62
               0
100
AcDbCircle
 10
-809.21813073877229
 20
851.91504996814638
 30
0.0
 40
4.99969482421875
  0
HATCH
  5
9C
100
AcDbEntity
  8
0
370
              -2
390
0
  6
Continuous
 62
               0
100
AcDbHatch
 10
0.0
 20
0.0
 30
0.0
210
0.0
220
0.0
230
1.0
  2
SOLID
 70
               1
 71
               1
 91
        1
 92
        1
 93
        1
 72
               2
 10
-809.21813073877229
 20
851.91504996814638
 40
4.99969482421875
 50
0.0
 51
360.0
 73
               0
 97
        1
330
9B
 75
               0
 76
               1
 98
        1
 10
0.0
 20
0.0
  0
CIRCLE
  5
9D
102
{ACAD_REACTORS
330
9E
102
}
100
AcDbEntity
  8
0
370
              -2
390
0
  6
Continuous
 62
               0
100
AcDbCircle
 10
-809.21813073877229
 20
721.91504996814638
 30
0.0
 40
4.99969482421875
  0
HATCH
  5
9E
100
AcDbEntity
  8
0
370
              -2
390
0
  6
Continuous
 62
               0
100
AcDbHatch
 10
0.0
 20
0.0
 30
0.0
210
0.0
220
0.0
230
1.0
  2
SOLID
 70
               1
 71
               1
 91
        1
 92
        1
 93
        1
 72
               2
 10
-809.21813073877229
 20
721.91504996814638
 40
4.99969482421875
 50
0.0
 51
360.0
 73
               0
 97
        1
330
9D
 75
               0
 76
               1
 98
        1
 10
0.0
 20
0.0
  0
MTEXT
  5
9F
100
AcDbEntity
  8
0
390
0
 62
               0
100
AcDbMText
 10
-843.09574792627234
 20
763.1025482859709
 30
0.0
 40
24.432617187500004
 41
0.0
 71
               1
 72
               1
  1
130
  7
ＭＳ ゴシック
 11
0.0
 21
1.0
 31
0.0
 73
               1
 44
0.7828267384257843
  0
POINT
  5
A0
100
AcDbEntity
  8
Defpoints
370
               0
390
0
 62
               0
100
AcDbPoint
 10
-706.21813073877229
 20
721.91504996814638
 30
0.0
  0
POINT
  5
A1
100
AcDbEntity
  8
Defpoints
370
               0
390
0
 62
               0
100
AcDbPoint
 10
-706.21813073877229
 20
851.91504996814638
 30
0.0
  0
POINT
  5
A2
100
AcDbEntity
  8
Defpoints
370
               0
390
0
 62
               0
100
AcDbPoint
 10
-809.21813073877229
 20
851.91504996814638
 30
0.0
  0
ENDBLK
  5
A3
100
AcDbEntity
  8
notes
390
0
100
AcDbBlockEnd
  0
BLOCK
  5
A4
100
AcDbEntity
  8
notes
390
0
100
AcDbBlockBegin
  2
*D8
 70
               1
 10
0.0
 20
0.0
 30
0.0
  3
*D8
  1

  0
LINE
  5
A5
100
AcDbEntity
  8
0
370
              -2
390
0
  6
Continuous
 62
               0
100
AcDbLine
 10
-746.51598230127229
 20
721.91504996814638
 30
0.0
 11
-809.21813073877229
 21
721.91504996814638
 31
0.0
  0
LINE
  5
A6
100
AcDbEntity
  8
0
370
              -2
390
0
  6
Continuous
 62
               0
100
AcDbLine
 10
-692.0926457292162
 20
461.91504996814638
 30
0.0
 11
-809.21813073877229
 21
461.91504996814638
 31
0.0
  0
LINE
  5
A7
100
AcDbEntity
  8
0
370
              -2
390
0
  6
Continuous
 62
               0
100
AcDbLine
 10
-809.21813073877229
 20
721.91504996814638
 30
0.0
 11
-809.21813073877229
 21
461.91504996814638
 31
0.0
  0
CIRCLE
  5
A8
102
{ACAD_REACTORS
330
A9
102
}
100
AcDbEntity
  8
0
370
              -2
390
0
  6
Continuous
 62
               0
100
AcDbCircle
 10
-809.21813073877229
 20
721.91504996814638
 30
0.0
 40
4.99969482421875
  0
HATCH
  5
A9
100
AcDbEntity
  8
0
370
              -2
390
0
  6
Continuous
 62
               0
100
AcDbHatch
 10
0.0
 20
0.0
 30
0.0
210
0.0
220
0.0
230
1.0
  2
SOLID
 70
               1
 71
               1
 91
        1
 92
        1
 93
        1
 72
               2
 10
-809.21813073877229
 20
721.91504996814638
 40
4.99969482421875
 50
0.0
 51
360.0
 73
               0
 97
        1
330
A8
 75
               0
 76
               1
 98
        1
 10
0.0
 20
0.0
  0
CIRCLE
  5
AA
102
{ACAD_REACTORS
330
AB
102
}
100
AcDbEntity
  8
0
370
              -2
390
0
  6
Continuous
 62
               0
100
AcDbCircle
 10
-809.21813073877229
 20
461.91504996814638
 30
0.0
 40
4.99969482421875
  0
HATCH
  5
AB
100
AcDbEntity
  8
0
370
              -2
390
0
  6
Continuous
 62
               0
100
AcDbHatch
 10
0.0
 20
0.0
 30
0.0
210
0.0
220
0.0
230
1.0
  2
SOLID
 70
               1
 71
               1
 91
        1
 92
        1
 93
        1
 72
               2
 10
-809.21813073877229
 20
461.91504996814638
 40
4.99969482421875
 50
0.0
 51
360.0
 73
               0
 97
        1
330
AA
 75
               0
 76
               1
 98
        1
 10
0.0
 20
0.0
  0
MTEXT
  5
AC
100
AcDbEntity
  8
0
390
0
 62
               0
100
AcDbMText
 10
-843.09574792627234
 20
568.1025482859709
 30
0.0
 40
24.432617187500004
 41
0.0
 71
               1
 72
               1
  1
260
  7
ＭＳ ゴシック
 11
0.0
 21
1.0
 31
0.0
 73
               1
 44
0.7828267384257843
  0
POINT
  5
AD
100
AcDbEntity
  8
Defpoints
370
               0
390
0
 62
               0
100
AcDbPoint
 10
-667.0926457292162
 20
461.91504996814638
 30
0.0
  0
POINT
  5
AE
100
AcDbEntity
  8
Defpoints
370
               0
390
0
 62
               0
100
AcDbPoint
 10
-721.51598230127229
 20
721.91504996814638
 30
0.0
  0
POINT
  5
AF
100
AcDbEntity
  8
Defpoints
370
               0
390
0
 62
               0
100
AcDbPoint
 10
-809.21813073877229
 20
721.91504996814638
 30
0.0
  0
ENDBLK
  5
B0
100
AcDbEntity
  8
notes
390
0
100
AcDbBlockEnd
  0
BLOCK
  5
B1
100
AcDbEntity
  8
notes
390
0
100
AcDbBlockBegin
  2
*D9
 70
               1
 10
0.0
 20
0.0
 30
0.0
  3
*D9
  1

  0
LINE
  5
B2
100
AcDbEntity
  8
0
370
              -2
390
0
  6
Continuous
 62
               0
100
AcDbLine
 10
-649.94496930646824
 20
448.45606559314638
 30
0.0
 11
-649.94496930646824
 21
312.95313590564638
 31
0.0
  0
LINE
  5
B3
100
AcDbEntity
  8
0
370
              -2
390
0
  6
Continuous
 62
               0
100
AcDbLine
 10
-199.94496930646807
 20
448.45606559314638
 30
0.0
 11
-199.94496930646807
 21
312.95313590564638
 31
0.0
  0
LINE
  5
B4
100
AcDbEntity
  8
0
370
              -2
390
0
  6
Continuous
 62
               0
100
AcDbLine
 10
-649.94496930646824
 20
312.95313590564638
 30
0.0
 11
-199.94496930646807
 21
312.95313590564638
 31
0.0
  0
CIRCLE
  5
B5
102
{ACAD_REACTORS
330
B6
102
}
100
AcDbEntity
  8
0
370
              -2
390
0
  6
Continuous
 62
               0
100
AcDbCircle
 10
-649.94496930646824
 20
312.95313590564638
 30
0.0
 40
4.99969482421875
  0
HATCH
  5
B6
100
AcDbEntity
  8
0
370
              -2
390
0
  6
Continuous
 62
               0
100
AcDbHatch
 10
0.0
 20
0.0
 30
0.0
210
0.0
220
0.0
230
1.0
  2
SOLID
 70
               1
 71
               1
 91
        1
 92
        1
 93
        1
 72
               2
 10
-649.94496930646824
 20
312.95313590564638
 40
4.99969482421875
 50
0.0
 51
360.0
 73
               0
 97
        1
330
B5
 75
               0
 76
               1
 98
        1
 10
0.0
 20
0.0
  0
CIRCLE
  5
B7
102
{ACAD_REACTORS
330
B8
102
}
100
AcDbEntity
  8
0
370
              -2
390
0
  6
Continuous
 62
               0
100
AcDbCircle
 10
-199.94496930646807
 20
312.95313590564638
 30
0.0
 40
4.99969482421875
  0
HATCH
  5
B8
100
AcDbEntity
  8
0
370
              -2
390
0
  6
Continuous
 62
               0
100
AcDbHatch
 10
0.0
 20
0.0
 30
0.0
210
0.0
220
0.0
230
1.0
  2
SOLID
 70
               1
 71
               1
 91
        1
 92
        1
 93
        1
 72
               2
 10
-199.94496930646807
 20
312.95313590564638
 40
4.99969482421875
 50
0.0
 51
360.0
 73
               0
 97
        1
330
B7
 75
               0
 76
               1
 98
        1
 10
0.0
 20
0.0
  0
MTEXT
  5
B9
100
AcDbEntity
  8
0
390
0
 62
               0
100
AcDbMText
 10
-448.75747098864366
 20
346.83075309314637
 30
0.0
 40
24.432617187500004
 41
0.0
 71
               1
 72
               1
  1
460
  7
ＭＳ ゴシック
 73
               1
 44
0.7828267384257843
  0
POINT
  5
BA
100
AcDbEntity
  8
Defpoints
370
               0
390
0
 62
               0
100
AcDbPoint
 10
-199.94496930646807
 20
473.45606559314638
 30
0.0
  0
POINT
  5
BB
100
AcDbEntity
  8
Defpoints
370
               0
390
0
 62
               0
100
AcDbPoint
 10
-649.94496930646824
 20
473.45606559314638
 30
0.0
  0
POINT
  5
BC
100
AcDbEntity
  8
Defpoints
370
               0
390
0
 62
               0
100
AcDbPoint
 10
-649.94496930646824
 20
312.95313590564638
 30
0.0
  0
ENDBLK
  5
BD
100
AcDbEntity
  8
notes
390
0
100
AcDbBlockEnd
  0
BLOCK
  5
BE
100
AcDbEntity
  8
notes
390
0
100
AcDbBlockBegin
  2
*D10
 70
               1
 10
0.0
 20
0.0
 30
0.0
  3
*D10
  1

  0
LINE
  5
BF
100
AcDbEntity
  8
0
370
              -2
390
0
  6
Continuous
 62
               0
100
AcDbLine
 10
-534.94496930646801
 20
-392.02635628185362
 30
0.0
 11
-805.11782086896801
 21
-392.02635628185362
 31
0.0
  0
LINE
  5
C0
100
AcDbEntity
  8
0
370
              -2
390
0
  6
Continuous
 62
               0
100
AcDbLine
 10
-719.96010602521824
 20
-352.02635628185362
 30
0.0
 11
-805.11782086896801
 21
-352.02635628185362
 31
0.0
  0
LINE
  5
C1
100
AcDbEntity
  8
0
370
              -2
390
0
  6
Continuous
 62
               0
100
AcDbLine
 10
-805.11782086896801
 20
-392.02635628185362
 30
0.0
 11
-805.11782086896801
 21
-352.02635628185362
 31
0.0
  0
CIRCLE
  5
C2
102
{ACAD_REACTORS
330
C3
102
}
100
AcDbEntity
  8
0
370
              -2
390
0
  6
Continuous
 62
               0
100
AcDbCircle
 10
-805.11782086896801
 20
-392.02635628185362
 30
0.0
 40
4.99969482421875
  0
HATCH
  5
C3
100
AcDbEntity
  8
0
370
              -2
390
0
  6
Continuous
 62
               0
100
AcDbHatch
 10
0.0
 20
0.0
 30
0.0
210
0.0
220
0.0
230
1.0
  2
SOLID
 70
               1
 71
               1
 91
        1
 92
        1
 93
        1
 72
               2
 10
-805.11782086896801
 20
-392.02635628185362
 40
4.99969482421875
 50
0.0
 51
360.0
 73
               0
 97
        1
330
C2
 75
               0
 76
               1
 98
        1
 10
0.0
 20
0.0
  0
CIRCLE
  5
C4
102
{ACAD_REACTORS
330
C5
102
}
100
AcDbEntity
  8
0
370
              -2
390
0
  6
Continuous
 62
               0
100
AcDbCircle
 10
-805.11782086896801
 20
-352.02635628185362
 30
0.0
 40
4.99969482421875
  0
HATCH
  5
C5
100
AcDbEntity
  8
0
370
              -2
390
0
  6
Continuous
 62
               0
100
AcDbHatch
 10
0.0
 20
0.0
 30
0.0
210
0.0
220
0.0
230
1.0
  2
SOLID
 70
               1
 71
               1
 91
        1
 92
        1
 93
        1
 72
               2
 10
-805.11782086896801
 20
-352.02635628185362
 40
4.99969482421875
 50
0.0
 51
360.0
 73
               0
 97
        1
330
C4
 75
               0
 76
               1
 98
        1
 10
0.0
 20
0.0
  0
MTEXT
  5
C6
100
AcDbEntity
  8
0
390
0
 62
               0
100
AcDbMText
 10
-838.99543805646806
 20
-387.90135628185362
 30
0.0
 40
24.432617187500004
 41
0.0
 71
               1
 72
               1
  1
40
  7
ＭＳ ゴシック
 11
0.0
 21
1.0
 31
0.0
 73
               1
 44
0.7828267384257843
  0
POINT
  5
C7
100
AcDbEntity
  8
Defpoints
370
               0
390
0
 62
               0
100
AcDbPoint
 10
-694.96010602521824
 20
-352.02635628185362
 30
0.0
  0
POINT
  5
C8
100
AcDbEntity
  8
Defpoints
370
               0
390
0
 62
               0
100
AcDbPoint
 10
-509.94496930646807
 20
-392.02635628185362
 30
0.0
  0
POINT
  5
C9
100
AcDbEntity
  8
Defpoints
370
               0
390
0
 62
               0
100
AcDbPoint
 10
-805.11782086896801
 20
-392.02635628185362
 30
0.0
  0
ENDBLK
  5
CA
100
AcDbEntity
  8
notes
390
0
100
AcDbBlockEnd
  0
BLOCK
  5
CB
100
AcDbEntity
  8
notes
390
0
100
AcDbBlockBegin
  2
*D11
 70
               1
 10
0.0
 20
0.0
 30
0.0
  3
*D11
  1

  0
LINE
  5
CC
100
AcDbEntity
  8
0
370
              -2
390
0
  6
Continuous
 62
               0
100
AcDbLine
 10
-129.92983258771807
 20
-352.02635628185362
 30
0.0
 11
-43.910789618968067
 21
-352.02635628185362
 31
0.0
  0
LINE
  5
CD
100
AcDbEntity
  8
0
370
              -2
390
0
  6
Continuous
 62
               0
100
AcDbLine
 10
-368.69399274396807
 20
-552.03026253185362
 30
0.0
 11
-43.910789618968067
 21
-552.03026253185362
 31
0.0
  0
LINE
  5
CE
100
AcDbEntity
  8
0
370
              -2
390
0
  6
Continuous
 62
               0
100
AcDbLine
 10
-43.910789618968067
 20
-352.02635628185362
 30
0.0
 11
-43.910789618968067
 21
-552.03026253185362
 31
0.0
  0
CIRCLE
  5
CF
102
{ACAD_REACTORS
330
D0
102
}
100
AcDbEntity
  8
0
370
              -2
390
0
  6
Continuous
 62
               0
100
AcDbCircle
 10
-43.910789618968067
 20
-352.02635628185362
 30
0.0
 40
4.99969482421875
  0
HATCH
  5
D0
100
AcDbEntity
  8
0
370
              -2
390
0
  6
Continuous
 62
               0
100
AcDbHatch
 10
0.0
 20
0.0
 30
0.0
210
0.0
220
0.0
230
1.0
  2
SOLID
 70
               1
 71
               1
 91
        1
 92
        1
 93
        1
 72
               2
 10
-43.910789618968067
 20
-352.02635628185362
 40
4.99969482421875
 50
0.0
 51
360.0
 73
               0
 97
        1
330
CF
 75
               0
 76
               1
 98
        1
 10
0.0
 20
0.0
  0
CIRCLE
  5
D1
102
{ACAD_REACTORS
330
D2
102
}
100
AcDbEntity
  8
0
370
              -2
390
0
  6
Continuous
 62
               0
100
AcDbCircle
 10
-43.910789618968067
 20
-552.03026253185362
 30
0.0
 40
4.99969482421875
  0
HATCH
  5
D2
100
AcDbEntity
  8
0
370
              -2
390
0
  6
Continuous
 62
               0
100
AcDbHatch
 10
0.0
 20
0.0
 30
0.0
210
0.0
220
0.0
230
1.0
  2
SOLID
 70
               1
 71
               1
 91
        1
 92
        1
 93
        1
 72
               2
 10
-43.910789618968067
 20
-552.03026253185362
 40
4.99969482421875
 50
0.0
 51
360.0
 73
               0
 97
        1
330
D1
 75
               0
 76
               1
 98
        1
 10
0.0
 20
0.0
  0
MTEXT
  5
D3
100
AcDbEntity
  8
0
390
0
 62
               0
100
AcDbMText
 10
-77.788406806468075
 20
-475.84081108902916
 30
0.0
 40
24.432617187500004
 41
0.0
 71
               1
 72
               1
  1
200
  7
ＭＳ ゴシック
 11
0.0
 21
1.0
 31
0.0
 73
               1
 44
0.7828267384257843
  0
POINT
  5
D4
100
AcDbEntity
  8
Defpoints
370
               0
390
0
 62
               0
100
AcDbPoint
 10
-393.69399274396807
 20
-552.03026253185362
 30
0.0
  0
POINT
  5
D5
100
AcDbEntity
  8
Defpoints
370
               0
390
0
 62
               0
100
AcDbPoint
 10
-154.92983258771807
 20
-352.02635628185362
 30
0.0
  0
POINT
  5
D6
100
AcDbEntity
  8
Defpoints
370
               0
390
0
 62
               0
100
AcDbPoint
 10
-43.910789618968067
 20
-352.02635628185362
 30
0.0
  0
ENDBLK
  5
D7
100
AcDbEntity
  8
notes
390
0
100
AcDbBlockEnd
  0
BLOCK
  5
D8
100
AcDbEntity
  8
notes
390
0
100
AcDbBlockBegin
  2
*D12
 70
               1
 10
0.0
 20
0.0
 30
0.0
  3
*D12
  1

  0
LINE
  5
D9
100
AcDbEntity
  8
0
370
              -2
390
0
  6
Continuous
 62
               0
100
AcDbLine
 10
637.64030900098442
 20
-327.03026253185362
 30
0.0
 11
637.64030900098442
 21
-252.03026253185362
 31
0.0
  0
LINE
  5
DA
100
AcDbEntity
  8
0
370
              -2
390
0
  6
Continuous
 62
               0
100
AcDbLine
 10
702.64030900098442
 20
-327.03026253185362
 30
0.0
 11
702.64030900098442
 21
-252.03026253185362
 31
0.0
  0
LINE
  5
DB
100
AcDbEntity
  8
0
370
              -2
390
0
  6
Continuous
 62
               0
100
AcDbLine
 10
637.64030900098442
 20
-252.03026253185362
 30
0.0
 11
702.64030900098442
 21
-252.03026253185362
 31
0.0
  0
CIRCLE
  5
DC
102
{ACAD_REACTORS
330
DD
102
}
100
AcDbEntity
  8
0
370
              -2
390
0
  6
Continuous
 62
               0
100
AcDbCircle
 10
637.64030900098442
 20
-252.03026253185362
 30
0.0
 40
4.99969482421875
  0
HATCH
  5
DD
100
AcDbEntity
  8
0
370
              -2
390
0
  6
Continuous
 62
               0
100
AcDbHatch
 10
0.0
 20
0.0
 30
0.0
210
0.0
220
0.0
230
1.0
  2
SOLID
 70
               1
 71
               1
 91
        1
 92
        1
 93
        1
 72
               2
 10
637.64030900098442
 20
-252.03026253185362
 40
4.99969482421875
 50
0.0
 51
360.0
 73
               0
 97
        1
330
DC
 75
               0
 76
               1
 98
        1
 10
0.0
 20
0.0
  0
CIRCLE
  5
DE
102
{ACAD_REACTORS
330
DF
102
}
100
AcDbEntity
  8
0
370
              -2
390
0
  6
Continuous
 62
               0
100
AcDbCircle
 10
702.64030900098442
 20
-252.03026253185362
 30
0.0
 40
4.99969482421875
  0
HATCH
  5
DF
100
AcDbEntity
  8
0
370
              -2
390
0
  6
Continuous
 62
               0
100
AcDbHatch
 10
0.0
 20
0.0
 30
0.0
210
0.0
220
0.0
230
1.0
  2
SOLID
 70
               1
 71
               1
 91
        1
 92
        1
 93
        1
 72
               2
 10
702.64030900098442
 20
-252.03026253185362
 40
4.99969482421875
 50
0.0
 51
360.0
 73
               0
 97
        1
330
DE
 75
               0
 76
               1
 98
        1
 10
0.0
 20
0.0
  0
MTEXT
  5
E0
100
AcDbEntity
  8
0
390
0
 62
               0
100
AcDbMText
 10
654.26530900098442
 20
-218.15264534435363
 30
0.0
 40
24.432617187500004
 41
0.0
 71
               1
 72
               1
  1
65
  7
ＭＳ ゴシック
 73
               1
 44
0.7828267384257843
  0
POINT
  5
E1
100
AcDbEntity
  8
Defpoints
370
               0
390
0
 62
               0
100
AcDbPoint
 10
702.64030900098442
 20
-352.03026253185362
 30
0.0
  0
POINT
  5
E2
100
AcDbEntity
  8
Defpoints
370
               0
390
0
 62
               0
100
AcDbPoint
 10
637.64030900098442
 20
-352.03026253185362
 30
0.0
  0
POINT
  5
E3
100
AcDbEntity
  8
Defpoints
370
               0
390
0
 62
               0
100
AcDbPoint
 10
637.64030900098442
 20
-252.03026253185362
 30
0.0
  0
ENDBLK
  5
E4
100
AcDbEntity
  8
notes
390
0
100
AcDbBlockEnd
  0
BLOCK
  5
E5
100
AcDbEntity
  8
notes
390
0
100
AcDbBlockBegin
  2
*D13
 70
               1
 10
0.0
 20
0.0
 30
0.0
  3
*D13
  1

  0
LINE
  5
E6
100
AcDbEntity
  8
0
370
              -2
390
0
  6
Continuous
 62
               0
100
AcDbLine
 10
462.63347306348385
 20
-352.03026253185362
 30
0.0
 11
467.60612931348385
 21
-352.03026253185362
 31
0.0
  0
LINE
  5
E7
100
AcDbEntity
  8
0
370
              -2
390
0
  6
Continuous
 62
               0
100
AcDbLine
 10
462.63347306348385
 20
-497.03026253185362
 30
0.0
 11
467.60612931348385
 21
-497.03026253185362
 31
0.0
  0
LINE
  5
E8
100
AcDbEntity
  8
0
370
              -2
390
0
  6
Continuous
 62
               0
100
AcDbLine
 10
467.60612931348385
 20
-352.03026253185362
 30
0.0
 11
467.60612931348385
 21
-193.20995003185362
 31
0.0
  0
LINE
  5
E9
100
AcDbEntity
  8
0
370
              -2
390
0
  6
Continuous
 62
               0
100
AcDbLine
 10
467.60612931348385
 20
-352.03026253185362
 30
0.0
 11
467.60612931348385
 21
-497.03026253185362
 31
0.0
  0
CIRCLE
  5
EA
102
{ACAD_REACTORS
330
EB
102
}
100
AcDbEntity
  8
0
370
              -2
390
0
  6
Continuous
 62
               0
100
AcDbCircle
 10
467.60612931348385
 20
-352.03026253185362
 30
0.0
 40
4.99969482421875
  0
HATCH
  5
EB
100
AcDbEntity
  8
0
370
              -2
390
0
  6
Continuous
 62
               0
100
AcDbHatch
 10
0.0
 20
0.0
 30
0.0
210
0.0
220
0.0
230
1.0
  2
SOLID
 70
               1
 71
               1
 91
        1
 92
        1
 93
        1
 72
               2
 10
467.60612931348385
 20
-352.03026253185362
 40
4.99969482421875
 50
0.0
 51
360.0
 73
               0
 97
        1
330
EA
 75
               0
 76
               1
 98
        1
 10
0.0
 20
0.0
  0
CIRCLE
  5
EC
102
{ACAD_REACTORS
330
ED
102
}
100
AcDbEntity
  8
0
370
              -2
390
0
  6
Continuous
 62
               0
100
AcDbCircle
 10
467.60612931348385
 20
-497.03026253185362
 30
0.0
 40
4.99969482421875
  0
HATCH
  5
ED
100
AcDbEntity
  8
0
370
              -2
390
0
  6
Continuous
 62
               0
100
AcDbHatch
 10
0.0
 20
0.0
 30
0.0
210
0.0
220
0.0
230
1.0
  2
SOLID
 70
               1
 71
               1
 91
        1
 92
        1
 93
        1
 72
               2
 10
467.60612931348385
 20
-497.03026253185362
 40
4.99969482421875
 50
0.0
 51
360.0
 73
               0
 97
        1
330
EC
 75
               0
 76
               1
 98
        1
 10
0.0
 20
0.0
  0
MTEXT
  5
EE
100
AcDbEntity
  8
0
390
0
 62
               0
100
AcDbMText
 10
433.72851212598385
 20
-336.08495003185362
 30
0.0
 40
24.432617187500004
 41
0.0
 71
               1
 72
               1
  1
145(深さ)
  7
ＭＳ ゴシック
 11
0.0
 21
1.0
 31
0.0
 73
               1
 44
0.7828267384257843
  0
POINT
  5
EF
100
AcDbEntity
  8
Defpoints
370
               0
390
0
 62
               0
100
AcDbPoint
 10
487.63347306348385
 20
-497.03026253185362
 30
0.0
  0
POINT
  5
F0
100
AcDbEntity
  8
Defpoints
370
               0
390
0
 62
               0
100
AcDbPoint
 10
487.63347306348385
 20
-352.03026253185362
 30
0.0
  0
POINT
  5
F1
100
AcDbEntity
  8
Defpoints
370
               0
390
0
 62
               0
100
AcDbPoint
 10
467.60612931348385
 20
-352.03026253185362
 30
0.0
  0
ENDBLK
  5
F2
100
AcDbEntity
  8
notes
390
0
100
AcDbBlockEnd
  0
BLOCK
  5
F3
100
AcDbEntity
  8
notes
390
0
100
AcDbBlockBegin
  2
*D14
 70
               1
 10
0.0
 20
0.0
 30
0.0
  3
*D14
  1

  0
LINE
  5
F4
100
AcDbEntity
  8
0
370
              -2
390
0
  6
Continuous
 62
               0
100
AcDbLine
 10
702.64030900098442
 20
-511.99315315685362
 30
0.0
 11
702.64030900098442
 21
-617.28026253185362
 31
0.0
  0
LINE
  5
F5
100
AcDbEntity
  8
0
370
              -2
390
0
  6
Continuous
 62
               0
100
AcDbLine
 10
481.99821915723385
 20
-577.94334846935362
 30
0.0
 11
481.99821915723385
 21
-617.28026253185362
 31
0.0
  0
LINE
  5
F6
100
AcDbEntity
  8
0
370
              -2
390
0
  6
Continuous
 62
               0
100
AcDbLine
 10
702.64030900098442
 20
-617.28026253185362
 30
0.0
 11
481.99821915723385
 21
-617.28026253185362
 31
0.0
  0
CIRCLE
  5
F7
102
{ACAD_REACTORS
330
F8
102
}
100
AcDbEntity
  8
0
370
              -2
390
0
  6
Continuous
 62
               0
100
AcDbCircle
 10
702.64030900098442
 20
-617.28026253185362
 30
0.0
 40
4.99969482421875
  0
HATCH
  5
F8
100
AcDbEntity
  8
0
370
              -2
390
0
  6
Continuous
 62
               0
100
AcDbHatch
 10
0.0
 20
0.0
 30
0.0
210
0.0
220
0.0
230
1.0
  2
SOLID
 70
               1
 71
               1
 91
        1
 92
        1
 93
        1
 72
               2
 10
702.64030900098442
 20
-617.28026253185362
 40
4.99969482421875
 50
0.0
 51
360.0
 73
               0
 97
        1
330
F7
 75
               0
 76
               1
 98
        1
 10
0.0
 20
0.0
  0
CIRCLE
  5
F9
102
{ACAD_REACTORS
330
FA
102
}
100
AcDbEntity
  8
0
370
              -2
390
0
  6
Continuous
 62
               0
100
AcDbCircle
 10
481.99821915723385
 20
-617.28026253185362
 30
0.0
 40
4.99969482421875
  0
HATCH
  5
FA
100
AcDbEntity
  8
0
370
              -2
390
0
  6
Continuous
 62
               0
100
AcDbHatch
 10
0.0
 20
0.0
 30
0.0
210
0.0
220
0.0
230
1.0
  2
SOLID
 70
               1
 71
               1
 91
        1
 92
        1
 93
        1
 72
               2
 10
481.99821915723385
 20
-617.28026253185362
 40
4.99969482421875
 50
0.0
 51
360.0
 73
               0
 97
        1
330
F9
 75
               0
 76
               1
 98
        1
 10
0.0
 20
0.0
  0
MTEXT
  5
FB
100
AcDbEntity
  8
0
390
0
 62
               0
100
AcDbMText
 10
568.50651825630871
 20
-583.40264534435357
 30
0.0
 40
24.432617187500004
 41
0.0
 71
               1
 72
               1
  1
220
  7
ＭＳ ゴシック
 73
               1
 44
0.7828267384257843
  0
POINT
  5
FC
100
AcDbEntity
  8
Defpoints
370
               0
390
0
 62
               0
100
AcDbPoint
 10
481.99821915723385
 20
-552.94334846935362
 30
0.0
  0
POINT
  5
FD
100
AcDbEntity
  8
Defpoints
370
               0
390
0
 62
               0
100
AcDbPoint
 10
702.64030900098442
 20
-486.99315315685362
 30
0.0
  0
POINT
  5
FE
100
AcDbEntity
  8
Defpoints
370
               0
390
0
 62
               0
100
AcDbPoint
 10
702.64030900098442
 20
-617.28026253185362
 30
0.0
  0
ENDBLK
  5
FF
100
AcDbEntity
  8
notes
390
0
100
AcDbBlockEnd
  0
BLOCK
  5
100
100
AcDbEntity
  8
notes
390
0
100
AcDbBlockBegin
  2
*D15
 70
               1
 10
0.0
 20
0.0
 30
0.0
  3
*D15
  1

  0
LINE
  5
101
100
AcDbEntity
  8
0
370
              -2
390
0
  6
Continuous
 62
               0
100
AcDbLine
 10
355.76579728223385
 20
-520.48338753185362
 30
0.0
 11
187.85124650098385
 21
-520.48338753185362
 31
0.0
  0
LINE
  5
102
100
AcDbEntity
  8
0
370
              -2
390
0
  6
Continuous
 62
               0
100
AcDbLine
 10
247.62663712598385
 20
-352.03807503185362
 30
0.0
 11
187.85124650098385
 21
-352.03807503185362
 31
0.0
  0
LINE
  5
103
100
AcDbEntity
  8
0
370
              -2
390
0
  6
Continuous
 62
               0
100
AcDbLine
 10
187.85124650098385
 20
-520.48338753185362
 30
0.0
 11
187.85124650098385
 21
-352.03807503185362
 31
0.0
  0
CIRCLE
  5
104
102
{ACAD_REACTORS
330
105
102
}
100
AcDbEntity
  8
0
370
              -2
390
0
  6
Continuous
 62
               0
100
AcDbCircle
 10
187.85124650098385
 20
-520.48338753185362
 30
0.0
 40
4.99969482421875
  0
HATCH
  5
105
100
AcDbEntity
  8
0
370
              -2
390
0
  6
Continuous
 62
               0
100
AcDbHatch
 10
0.0
 20
0.0
 30
0.0
210
0.0
220
0.0
230
1.0
  2
SOLID
 70
               1
 71
               1
 91
        1
 92
        1
 93
        1
 72
               2
 10
187.85124650098385
 20
-520.48338753185362
 40
4.99969482421875
 50
0.0
 51
360.0
 73
               0
 97
        1
330
104
 75
               0
 76
               1
 98
        1
 10
0.0
 20
0.0
  0
CIRCLE
  5
106
102
{ACAD_REACTORS
330
107
102
}
100
AcDbEntity
  8
0
370
              -2
390
0
  6
Continuous
 62
               0
100
AcDbCircle
 10
187.85124650098385
 20
-352.03807503185362
 30
0.0
 40
4.99969482421875
  0
HATCH
  5
107
100
AcDbEntity
  8
0
370
              -2
390
0
  6
Continuous
 62
               0
100
AcDbHatch
 10
0.0
 20
0.0
 30
0.0
210
0.0
220
0.0
230
1.0
  2
SOLID
 70
               1
 71
               1
 91
        1
 92
        1
 93
        1
 72
               2
 10
187.85124650098385
 20
-352.03807503185362
 40
4.99969482421875
 50
0.0
 51
360.0
 73
               0
 97
        1
330
106
 75
               0
 76
               1
 98
        1
 10
0.0
 20
0.0
  0
MTEXT
  5
108
100
AcDbEntity
  8
0
390
0
 62
               0
100
AcDbMText
 10
153.97362931348385
 20
-460.07323296402916
 30
0.0
 40
24.432617187500004
 41
0.0
 71
               1
 72
               1
  1
170
  7
ＭＳ ゴシック
 11
0.0
 21
1.0
 31
0.0
 73
               1
 44
0.7828267384257843
  0
POINT
  5
109
100
AcDbEntity
  8
Defpoints
370
               0
390
0
 62
               0
100
AcDbPoint
 10
272.62663712598385
 20
-352.03807503185362
 30
0.0
  0
POINT
  5
10A
100
AcDbEntity
  8
Defpoints
370
               0
390
0
 62
               0
100
AcDbPoint
 10
380.76579728223385
 20
-520.48338753185362
 30
0.0
  0
POINT
  5
10B
100
AcDbEntity
  8
Defpoints
370
               0
390
0
 62
               0
100
AcDbPoint
 10
187.85124650098385
 20
-520.48338753185362
 30
0.0
  0
ENDBLK
  5
10C
100
AcDbEntity
  8
notes
390
0
100
AcDbBlockEnd
  0
BLOCK
  5
10D
100
AcDbEntity
  8
notes
390
0
100
AcDbBlockBegin
  2
*D16
 70
               1
 10
0.0
 20
0.0
 30
0.0
  3
*D16
  1

  0
LINE
  5
10E
100
AcDbEntity
  8
0
370
              -2
390
0
  6
Continuous
 62
               0
100
AcDbLine
 10
612.7316143230405
 20
-352.03026253185362
 30
0.0
 11
599.7316143230405
 21
-352.03026253185362
 31
0.0
  0
LINE
  5
10F
100
AcDbEntity
  8
0
370
              -2
390
0
  6
Continuous
 62
               0
100
AcDbLine
 10
612.7316143230405
 20
-357.03026253185362
 30
0.0
 11
599.7316143230405
 21
-357.03026253185362
 31
0.0
  0
LINE
  5
110
100
AcDbEntity
  8
0
370
              -2
390
0
  6
Continuous
 62
               0
100
AcDbLine
 10
599.7316143230405
 20
-352.03026253185362
 30
0.0
 11
599.7316143230405
 21
-317.125
 31
0.0
  0
LINE
  5
111
100
AcDbEntity
  8
0
370
              -2
390
0
  6
Continuous
 62
               0
100
AcDbLine
 10
599.7316143230405
 20
-352.03026253185362
 30
0.0
 11
599.7316143230405
 21
-357.03026253185362
 31
0.0
  0
CIRCLE
  5
112
102
{ACAD_REACTORS
330
113
102
}
100
AcDbEntity
  8
0
370
              -2
390
0
  6
Continuous
 62
               0
100
AcDbCircle
 10
599.7316143230405
 20
-352.03026253185362
 30
0.0
 40
4.99969482421875
  0
HATCH
  5
113
100
AcDbEntity
  8
0
370
              -2
390
0
  6
Continuous
 62
               0
100
AcDbHatch
 10
0.0
 20
0.0
 30
0.0
210
0.0
220
0.0
230
1.0
  2
SOLID
 70
               1
 71
               1
 91
        1
 92
        1
 93
        1
 72
               2
 10
599.7316143230405
 20
-352.03026253185362
 40
4.99969482421875
 50
0.0
 51
360.0
 73
               0
 97
        1
330
112
 75
               0
 76
               1
 98
        1
 10
0.0
 20
0.0
  0
CIRCLE
  5
114
102
{ACAD_REACTORS
330
115
102
}
100
AcDbEntity
  8
0
370
              -2
390
0
  6
Continuous
 62
               0
100
AcDbCircle
 10
599.7316143230405
 20
-357.03026253185362
 30
0.0
 40
4.99969482421875
  0
HATCH
  5
115
100
AcDbEntity
  8
0
370
              -2
390
0
  6
Continuous
 62
               0
100
AcDbHatch
 10
0.0
 20
0.0
 30
0.0
210
0.0
220
0.0
230
1.0
  2
SOLID
 70
               1
 71
               1
 91
        1
 92
        1
 93
        1
 72
               2
 10
599.7316143230405
 20
-357.03026253185362
 40
4.99969482421875
 50
0.0
 51
360.0
 73
               0
 97
        1
330
114
 75
               0
 76
               1
 98
        1
 10
0.0
 20
0.0
  0
MTEXT
  5
116
100
AcDbEntity
  8
0
390
0
 62
               0
100
AcDbMText
 10
565.85399713554045
 20
-333.0
 30
0.0
 40
24.432617187500004
 41
0.0
 71
               1
 72
               1
  1
5
  7
ＭＳ ゴシック
 11
0.0
 21
1.0
 31
0.0
 73
               1
 44
0.7828267384257843
  0
POINT
  5
117
100
AcDbEntity
  8
Defpoints
370
               0
390
0
 62
               0
100
AcDbPoint
 10
587.7316143230405
 20
-357.03026253185362
 30
0.0
  0
POINT
  5
118
100
AcDbEntity
  8
Defpoints
370
               0
390
0
 62
               0
100
AcDbPoint
 10
587.7316143230405
 20
-352.03026253185362
 30
0.0
  0
POINT
  5
119
100
AcDbEntity
  8
Defpoints
370
               0
390
0
 62
               0
100
AcDbPoint
 10
599.7316143230405
 20
-352.03026253185362
 30
0.0
  0
ENDBLK
  5
11A
100
AcDbEntity
  8
notes
390
0
100
AcDbBlockEnd
  0
BLOCK
  5
11B
100
AcDbEntity
  8
notes
390
0
100
AcDbBlockBegin
  2
*D17
 70
               1
 10
0.0
 20
0.0
 30
0.0
  3
*D17
  1

  0
LINE
  5
11C
100
AcDbEntity
  8
0
370
              -2
390
0
  6
Continuous
 62
               0
100
AcDbLine
 10
-411.81713971273081
 20
798.48700270559721
 30
0.0
 11
-308.0
 21
889.99999999999989
 31
0.0
  0
CIRCLE
  5
11D
102
{ACAD_REACTORS
330
11E
102
}
100
AcDbEntity
  8
0
370
              -2
390
0
  6
Continuous
 62
               0
100
AcDbCircle
 10
-411.81713971273081
 20
798.48700270559721
 30
0.0
 40
4.99969482421875
  0
HATCH
  5
11E
100
AcDbEntity
  8
0
370
              -2
390
0
  6
Continuous
 62
               0
100
AcDbHatch
 10
0.0
 20
0.0
 30
0.0
210
0.0
220
0.0
230
1.0
  2
SOLID
 70
               1
 71
               1
 91
        1
 92
        1
 93
        1
 72
               2
 10
-411.81713971273081
 20
798.48700270559721
 40
4.99969482421875
 50
0.0
 51
360.0
 73
               0
 97
        1
330
11D
 75
               0
 76
               1
 98
        1
 10
0.0
 20
0.0
  0
LINE
  5
11F
100
AcDbEntity
  8
0
370
              -2
390
0
  6
Continuous
 62
               0
100
AcDbLine
 10
-308.0
 20
889.99999999999989
 30
0.0
 11
-181.0
 21
889.99999999999989
 31
0.0
  0
MTEXT
  5
120
100
AcDbEntity
  8
0
390
0
 62
               0
100
AcDbMText
 10
-244.5
 20
923.87761718749994
 30
0.0
 40
24.432617187500004
 41
0.0
 71
               1
 72
               1
  1
φ35
  7
ＭＳ ゴシック
 73
               1
 44
0.7828267384257843
  0
POINT
  5
121
100
AcDbEntity
  8
Defpoints
370
               0
390
0
 62
               0
100
AcDbPoint
 10
-438.07279890020527
 20
775.34309723069543
 30
0.0
  0
POINT
  5
122
100
AcDbEntity
  8
Defpoints
370
               0
390
0
 62
               0
100
AcDbPoint
 10
-411.81713971273081
 20
798.48700270559721
 30
0.0
  0
ENDBLK
  5
123
100
AcDbEntity
  8
notes
390
0
100
AcDbBlockEnd
  0
ENDSEC
  0
SECTION
  2
ENTITIES
  0
MTEXT
  5
124
100
AcDbEntity
  8
template
390
0
 62
               7
100
AcDbMText
 10
-985.94444444444434
 20
-1153.4149218749994
 30
0.0
 40
16.288411458333332
 41
0.0
 71
               1
 72
               1
  1
品名
  7
ＭＳ ゴシック
 73
               1
 44
0.7828267384257843
  0
MTEXT
  5
125
100
AcDbEntity
  8
template
390
0
 62
               7
100
AcDbMText
 10
-985.94444444444434
 20
-1238.4149218749994
 30
0.0
 40
16.288411458333332
 41
0.0
 71
               1
 72
               1
  1
仕様
  7
ＭＳ ゴシック
 73
               1
 44
0.7828267384257843
  0
MTEXT
  5
126
100
AcDbEntity
  8
template
390
0
 62
               7
100
AcDbMText
 10
-932.94444444444434
 20
-1181.9973828124996
 30
0.0
 40
24.432617187500004
 41
0.0
 71
               1
 72
               1
  1
洗面器 -CATALANO,Canova Royal-
  7
ＭＳ ゴシック
 73
               1
 44
0.7828267384257843
  0
LINE
  5
127
100
AcDbEntity
  8
template
370
               5
390
0
  6
Continuous
 62
               7
100
AcDbLine
 10
957.0555555550734
 20
-1229.9999999999995
 30
0.0
 11
-992.94444444492638
 21
-1229.9999999999995
 31
0.0
  0
LINE
  5
128
100
AcDbEntity
  8
template
370
               5
390
0
  6
Continuous
 62
               7
100
AcDbLine
 10
957.0555555550734
 20
-1144.9999999999995
 30
0.0
 11
-992.94444444492638
 21
-1144.9999999999995
 31
0.0
  0
LINE
  5
129
100
AcDbEntity
  8
template
370
               5
390
0
  6
Continuous
 62
               7
100
AcDbLine
 10
957.05555555555588
 20
-1314.9999999999995
 30
0.0
 11
204.05555555555577
 21
-1314.9999999999995
 31
0.0
  0
MTEXT
  5
12A
100
AcDbEntity
  8
template
390
0
 62
               7
100
AcDbMText
 10
-992.94444444424153
 20
-1411.8538220568564
 30
0.0
 40
21.717881944444446
 41
0.0
 71
               1
 72
               1
  1
121120SO
  7
ＭＳ ゴシック
 73
               1
 44
0.7828267384257843
  0
MTEXT
  5
12B
100
AcDbEntity
  8
template
390
0
 62
               7
100
AcDbMText
 10
233.92696180781547
 20
-1344.9103944733072
 30
0.0
 40
24.432617187500004
 41
0.0
 71
               1
 72
               1
  1
大洋金物株式会社 ティーフォルム事業部
  7
ＭＳ ゴシック
 73
               1
 44
0.7828267384257843
  0
INSERT
  5
12C
100
AcDbEntity
  8
template
390
0
 62
               7
100
AcDbBlockReference
  2
グループ
 10
0.0
 20
0.0
 30
0.0
  0
MTEXT
  5
12D
100
AcDbEntity
  8
template
390
0
 62
               7
100
AcDbMText
 10
766.05555555581464
 20
-1266.9973828124996
 30
0.0
 40
24.432617187500004
 41
0.0
 71
               1
 72
               1
  1
1:10
  7
ＭＳ ゴシック
 73
               1
 44
0.7828267384257843
  0
MTEXT
  5
12E
100
AcDbEntity
  8
template
390
0
 62
               7
100
AcDbMText
 10
713.05555555581464
 20
-1238.4149218749994
 30
0.0
 40
16.288411458333332
 41
0.0
 71
               1
 72
               1
  1
縮尺
  7
ＭＳ ゴシック
 73
               1
 44
0.7828267384257843
  0
LINE
  5
12F
100
AcDbEntity
  8
template
370
               5
390
0
  6
Continuous
 62
               7
100
AcDbLine
 10
706.05555555581464
 20
-1314.9999999999995
 30
0.0
 11
706.05555555581464
 21
-1229.9999999999995
 31
0.0
  0
MTEXT
  5
130
100
AcDbEntity
  8
template
390
0
 62
               7
100
AcDbMText
 10
462.05555555581452
 20
-1238.4149218749994
 30
0.0
 40
16.288411458333332
 41
0.0
 71
               1
 72
               1
  1
容量
  7
ＭＳ ゴシック
 73
               1
 44
0.7828267384257843
  0
MTEXT
  5
131
100
AcDbEntity
  8
template
390
0
 62
               7
100
AcDbMText
 10
515.05555555581452
 20
-1266.9973828124996
 30
0.0
 40
24.432617187500004
 41
0.0
 71
               1
 72
               1
  1
6.8L
  7
ＭＳ ゴシック
 73
               1
 44
0.7828267384257843
  0
LINE
  5
132
100
AcDbEntity
  8
template
370
               5
390
0
  6
Continuous
 62
               7
100
AcDbLine
 10
455.05555555581452
 20
-1314.9999999999995
 30
0.0
 11
455.05555555581452
 21
-1229.9999999999995
 31
0.0
  0
MTEXT
  5
133
100
AcDbEntity
  8
template
390
0
 62
               7
100
AcDbMText
 10
211.05555555581452
 20
-1153.4149218749994
 30
0.0
 40
16.288411458333332
 41
0.0
 71
               1
 72
               1
  1
品番
  7
ＭＳ ゴシック
 73
               1
 44
0.7828267384257843
  0
MTEXT
  5
134
100
AcDbEntity
  8
template
390
0
 62
               7
100
AcDbMText
 10
211.05555555581452
 20
-1238.4149218749994
 30
0.0
 40
16.288411458333332
 41
0.0
 71
               1
 72
               1
  1
重量
  7
ＭＳ ゴシック
 73
               1
 44
0.7828267384257843
  0
MTEXT
  5
135
100
AcDbEntity
  8
template
390
0
 62
               7
100
AcDbMText
 10
264.05555555581452
 20
-1181.9973828124996
 30
0.0
 40
24.432617187500004
 41
0.0
 71
               1
 72
               1
  1
ADF70-2303
  7
ＭＳ ゴシック
 73
               1
 44
0.7828267384257843
  0
MTEXT
  5
136
100
AcDbEntity
  8
template
390
0
 62
               7
100
AcDbMText
 10
264.05555555581452
 20
-1266.9973828124996
 30
0.0
 40
24.432617187500004
 41
0.0
 71
               1
 72
               1
  1
16kg
  7
ＭＳ ゴシック
 73
               1
 44
0.7828267384257843
  0
LINE
  5
137
100
AcDbEntity
  8
template
370
               5
390
0
  6
Continuous
 62
               7
100
AcDbLine
 10
204.05555555581452
 20
-1399.9999999999995
 30
0.0
 11
204.05555555581452
 21
-1144.9999999999995
 31
0.0
  0
MTEXT
  5
138
100
AcDbEntity
  8
template
390
0
 62
               7
100
AcDbMText
 10
-932.94444444444525
 20
-1266.9973828124996
 30
0.0
 40
24.432617187500004
 41
0.0
 71
               1
 72
               1
  1
壁掛け/オーバーフロー付き/壁取付ボルト付属/\P陶器/ホワイト
  7
ＭＳ ゴシック
 73
               1
 44
1.3047112307096407
  0
LWPOLYLINE
  5
139
100
AcDbEntity
  8
template
370
               5
390
0
  6
Continuous
 62
               7
100
AcDbPolyline
 90
        5
 70
             128
 10
957.05555555555588
 20
1400.0
 10
-992.94444444444434
 20
1400.0
 10
-992.94444444444434
 20
-1399.9999999999995
 10
957.05555555555588
 20
-1399.9999999999995
 10
957.05555555555588
 20
1400.0
  0
DIMENSION
  5
13A
100
AcDbEntity
  8
notes
370
               5
390
0
  6
Continuous
 62
               7
100
AcDbDimension
  2
*D2
 10
-704.94496930646824
 20
962.95313590564638
 30
0.0
 11
-424.94496930646812
 21
962.95313590564638
 31
0.0
 71
               5
 72
               1
 41
1.0
 42
0.0
  3
tform線あり
100
AcDbAlignedDimension
 13
-144.94496930646807
 23
846.47559684314638
 33
0.0
 14
-704.94496930646824
 24
846.47559684314638
 34
0.0
100
AcDbRotatedDimension
1001
ACAD
1000
DSTYLE
1002
{
1070
             271
1070
               0
1070
             279
1070
               2
1070
             340
1005
34
1070
             147
1040
5.0
1002
}
  0
DIMENSION
  5
13B
100
AcDbEntity
  8
notes
370
               5
390
0
  6
Continuous
 62
               7
100
AcDbDimension
  2
*D3
 10
-524.94496930646824
 20
901.91504996814638
 30
0.0
 11
-474.94496930646812
 21
901.91504996814638
 31
0.0
 71
               5
 72
               1
 41
1.0
 42
0.0
  3
tform線あり
100
AcDbAlignedDimension
 13
-424.94496930646807
 23
804.41504996814638
 33
0.0
 14
-524.94496930646824
 24
802.91504996814638
 34
0.0
100
AcDbRotatedDimension
1001
ACAD
1000
DSTYLE
1002
{
1070
             279
1070
               2
1070
             340
1005
34
1070
             147
1040
5.0
1002
}
  0
DIMENSION
  5
13C
100
AcDbEntity
  8
notes
370
               5
390
0
  6
Continuous
 62
               7
100
AcDbDimension
  2
*D4
 10
-424.94496930646807
 20
901.91504996814638
 30
0.0
 11
-374.94496930646807
 21
901.91504996814638
 31
0.0
 71
               5
 72
               1
 41
1.0
 42
0.0
  3
tform線あり
100
AcDbAlignedDimension
 13
-324.94496930646807
 23
802.91504996814638
 33
0.0
 14
-424.94496930646807
 24
804.41504996814638
 34
0.0
100
AcDbRotatedDimension
1001
ACAD
1000
DSTYLE
1002
{
1070
             279
1070
               2
1070
             340
1005
34
1070
             147
1040
5.0
1002
}
  0
DIMENSION
  5
13D
100
AcDbEntity
  8
notes
370
               5
390
0
  6
Continuous
 62
               7
100
AcDbDimension
  2
*D5
 10
-44.944969306468067
 20
851.91504996814638
 30
0.0
 11
-44.944969306468067
 21
631.91504996814638
 31
0.0
 71
               5
 72
               1
 41
1.0
 42
0.0
  3
tform線あり
100
AcDbAlignedDimension
 13
-151.38539899396807
 23
411.91504996814638
 33
0.0
 14
-151.38539899396807
 24
851.91504996814638
 34
0.0
 50
90.0
100
AcDbRotatedDimension
1001
ACAD
1000
DSTYLE
1002
{
1070
             271
1070
               0
1070
             279
1070
               2
1070
             340
1005
34
1070
             147
1040
5.0
1002
}
  0
DIMENSION
  5
13E
100
AcDbEntity
  8
notes
370
               5
390
0
  6
Continuous
 62
               7
100
AcDbDimension
  2
*D6
 10
-489.94496930646807
 20
-252.02635628185362
 30
0.0
 11
-424.94496930646807
 21
-252.02635628185362
 31
0.0
 71
               5
 72
               1
 41
1.0
 42
0.0
  3
tform線あり
100
AcDbAlignedDimension
 13
-359.94496930646807
 23
-372.02635628185362
 33
0.0
 14
-489.94496930646807
 24
-372.02635628185362
 34
0.0
100
AcDbRotatedDimension
1001
ACAD
1000
DSTYLE
1002
{
1070
             279
1070
               2
1070
             340
1005
34
1070
             147
1040
5.0
1002
}
  0
DIMENSION
  5
13F
100
AcDbEntity
  8
notes
370
               5
390
0
  6
Continuous
 62
               7
100
AcDbDimension
  2
*D7
 10
-809.21813073877229
 20
851.91504996814638
 30
0.0
 11
-809.21813073877229
 21
786.91504996814638
 31
0.0
 71
               5
 72
               1
 41
1.0
 42
0.0
  3
tform線あり
100
AcDbAlignedDimension
 13
-706.21813073877229
 23
721.91504996814638
 33
0.0
 14
-706.21813073877229
 24
851.91504996814638
 34
0.0
 50
90.0
100
AcDbRotatedDimension
1001
ACAD
1000
DSTYLE
1002
{
1070
             279
1070
               2
1070
             340
1005
34
1070
             147
1040
5.0
1002
}
  0
DIMENSION
  5
140
100
AcDbEntity
  8
notes
370
               5
390
0
  6
Continuous
 62
               7
100
AcDbDimension
  2
*D8
 10
-809.21813073877229
 20
721.91504996814638
 30
0.0
 11
-809.21813073877229
 21
591.91504996814638
 31
0.0
 71
               5
 72
               1
 41
1.0
 42
0.0
  3
tform線あり
100
AcDbAlignedDimension
 13
-667.0926457292162
 23
461.91504996814638
 33
0.0
 14
-721.51598230127229
 24
721.91504996814638
 34
0.0
 50
90.0
100
AcDbRotatedDimension
1001
ACAD
1000
DSTYLE
1002
{
1070
             279
1070
               2
1070
             340
1005
34
1070
             147
1040
5.0
1002
}
  0
DIMENSION
  5
141
100
AcDbEntity
  8
notes
370
               5
390
0
  6
Continuous
 62
               7
100
AcDbDimension
  2
*D9
 10
-649.94496930646824
 20
312.95313590564638
 30
0.0
 11
-424.94496930646812
 21
312.95313590564638
 31
0.0
 71
               5
 72
               1
 41
1.0
 42
0.0
  1
460
  3
tform線あり
100
AcDbAlignedDimension
 13
-199.94496930646807
 23
473.45606559314638
 33
0.0
 14
-649.94496930646824
 24
473.45606559314638
 34
0.0
100
AcDbRotatedDimension
1001
ACAD
1000
DSTYLE
1002
{
1070
             279
1070
               2
1070
             340
1005
34
1070
             147
1040
5.0
1002
}
  0
DIMENSION
  5
142
100
AcDbEntity
  8
notes
370
               5
390
0
  6
Continuous
 62
               7
100
AcDbDimension
  2
*D10
 10
-805.11782086896801
 20
-392.02635628185362
 30
0.0
 11
-805.11782086896801
 21
-372.02635628185362
 31
0.0
 71
               5
 72
               1
 41
1.0
 42
0.0
  3
tform線あり
100
AcDbAlignedDimension
 13
-694.96010602521824
 23
-352.02635628185362
 33
0.0
 14
-509.94496930646807
 24
-392.02635628185362
 34
0.0
 50
90.0
100
AcDbRotatedDimension
1001
ACAD
1000
DSTYLE
1002
{
1070
             279
1070
               2
1070
             340
1005
34
1070
             147
1040
5.0
1002
}
  0
DIMENSION
  5
143
100
AcDbEntity
  8
notes
370
               5
390
0
  6
Continuous
 62
               7
100
AcDbDimension
  2
*D11
 10
-43.910789618968067
 20
-352.02635628185362
 30
0.0
 11
-43.910789618968067
 21
-452.02830940685362
 31
0.0
 71
               5
 72
               1
 41
1.0
 42
0.0
  3
tform線あり
100
AcDbAlignedDimension
 13
-393.69399274396807
 23
-552.03026253185362
 33
0.0
 14
-154.92983258771807
 24
-352.02635628185362
 34
0.0
 50
90.0
100
AcDbRotatedDimension
1001
ACAD
1000
DSTYLE
1002
{
1070
             279
1070
               2
1070
             340
1005
34
1070
             147
1040
5.0
1002
}
  0
DIMENSION
  5
144
100
AcDbEntity
  8
notes
370
               5
390
0
  6
Continuous
 62
               7
100
AcDbDimension
  2
*D12
 10
637.64030900098442
 20
-252.03026253185362
 30
0.0
 11
670.14030900098442
 21
-247.03026253185362
 31
0.0
 70
             128
 71
               5
 72
               1
 41
1.0
 42
0.0
  3
tform線あり
100
AcDbAlignedDimension
 13
702.64030900098442
 23
-352.03026253185362
 33
0.0
 14
637.64030900098442
 24
-352.03026253185362
 34
0.0
100
AcDbRotatedDimension
1001
ACAD
1000
DSTYLE
1002
{
1070
             279
1070
               2
1070
             340
1005
34
1070
             147
1040
5.0
1002
}
  0
MTEXT
  5
145
100
AcDbEntity
  8
notes
390
0
 62
               7
100
AcDbMText
 10
-271.22866071271807
 20
-266.51885628185363
 30
0.0
 40
24.432617187500004
 41
0.0
 71
               1
 72
               1
  1
壁取付ボルト穴(2ヶ所)
  7
ＭＳ ゴシック
 73
               1
 44
0.7828267384257843
  0
LINE
  5
146
100
AcDbEntity
  8
notes
370
               5
390
0
  6
Continuous
 62
               7
100
AcDbLine
 10
-359.77309430646807
 20
-391.86815315685362
 30
0.0
 11
-264.43422711896807
 21
-296.52928596935362
 31
0.0
  0
DIMENSION
  5
147
100
AcDbEntity
  8
notes
370
               5
390
0
  6
Continuous
 62
               7
100
AcDbDimension
  2
*D13
 10
467.60612931348385
 20
-352.03026253185362
 30
0.0
 11
462.60612931348385
 21
-336.08495003185362
 31
0.0
 70
             128
 71
               5
 72
               1
 41
1.0
 42
0.0
  3
tform線あり
100
AcDbAlignedDimension
 13
487.63347306348385
 23
-497.03026253185362
 33
0.0
 14
487.63347306348385
 24
-352.03026253185362
 34
0.0
 50
90.0
100
AcDbRotatedDimension
1001
ACAD
1000
DSTYLE
1002
{
1070
             279
1070
               2
1070
             340
1005
34
1070
               3
1000
<>(深さ)
1070
             174
1070
               0
1070
             147
1040
5.0
1002
}
  0
DIMENSION
  5
148
100
AcDbEntity
  8
notes
370
               5
390
0
  6
Continuous
 62
               7
100
AcDbDimension
  2
*D14
 10
702.64030900098442
 20
-617.28026253185362
 30
0.0
 11
592.31901993848419
 21
-612.28026253185362
 31
0.0
 70
             128
 71
               5
 72
               1
 41
1.0
 42
0.0
  1
220
  3
tform線あり
100
AcDbAlignedDimension
 13
481.99821915723385
 23
-552.94334846935362
 33
0.0
 14
702.64030900098442
 24
-486.99315315685362
 34
0.0
100
AcDbRotatedDimension
1001
ACAD
1000
DSTYLE
1002
{
1070
             271
1070
               0
1070
             279
1070
               2
1070
             340
1005
34
1070
             147
1040
5.0
1002
}
  0
DIMENSION
  5
149
100
AcDbEntity
  8
notes
370
               5
390
0
  6
Continuous
 62
               7
100
AcDbDimension
  2
*D15
 10
187.85124650098385
 20
-520.48338753185362
 30
0.0
 11
187.85124650098385
 21
-436.26073128185362
 31
0.0
 71
               5
 72
               1
 41
1.0
 42
0.0
  1
170
  3
tform線あり
100
AcDbAlignedDimension
 13
272.62663712598385
 23
-352.03807503185362
 33
0.0
 14
380.76579728223385
 24
-520.48338753185362
 34
0.0
 50
90.0
100
AcDbRotatedDimension
1001
ACAD
1000
DSTYLE
1002
{
1070
             271
1070
               0
1070
             279
1070
               2
1070
             340
1005
34
1070
             147
1040
5.0
1002
}
  0
MTEXT
  5
14A
100
AcDbEntity
  8
notes
390
0
 62
               7
100
AcDbMText
 10
-812.75942243146824
 20
209.32001090564637
 30
0.0
 40
24.432617187500004
 41
833.92979864183906
 71
               1
 72
               1
  1
＝φ30もしくはφ35の水栓取付用穴あけ加工を承ります。\P  必要な場合、ご注文の際にご指示ください。
  7
ＭＳ ゴシック
 73
               1
 44
1.0437689845677123
  0
SPLINE
  5
14B
100
AcDbEntity
  8
notes
370
              15
390
0
  6
STYLE_12
 62
               7
100
AcDbSpline
210
0.0
220
0.0
230
1.0
 70
               9
 71
               2
 72
              17
 73
              14
 74
               0
 42
0.000001
 43
0.000001
 40
0.0
 40
0.0
 40
0.0
 40
1.0
 40
2.0
 40
3.0
 40
4.0
 40
5.0
 40
6.0
 40
7.0
 40
8.0
 40
9.0
 40
10.0
 40
11.0
 40
12.0
 40
12.0
 40
12.0
 10
-822.18395105127229
 20
197.12549918689638
 30
0.0
 10
-822.18395105127229
 20
201.81446403064638
 30
0.0
 10
-826.87291589502229
 20
209.93653434314638
 30
0.0
 10
-834.99498620752229
 20
214.62501090564638
 30
0.0
 10
-844.37291589502229
 20
214.62501090564638
 30
0.0
 10
-852.49498620752229
 20
209.93653434314638
 30
0.0
 10
-857.18395105127229
 20
201.81446403064638
 30
0.0
 10
-857.18395105127229
 20
192.43653434314638
 30
0.0
 10
-852.49498620752229
 20
184.31446403064638
 30
0.0
 10
-844.37291589502229
 20
179.62501090564638
 30
0.0
 10
-834.99498620752229
 20
179.62501090564638
 30
0.0
 10
-826.87291589502229
 20
184.31446403064638
 30
0.0
 10
-822.18395105127229
 20
192.43653434314638
 30
0.0
 10
-822.18395105127229
 20
197.12549918689638
 30
0.0
  0
LINE
  5
14C
100
AcDbEntity
  8
notes
370
              15
390
0
  6
STYLE_12
 62
               7
100
AcDbLine
 10
-658.85894936567638
 20
-357.00235007566329
 30
0.0
 11
-664.88385170942638
 21
-357.00235007566329
 31
0.0
  0
ARC
  5
14D
100
AcDbEntity
  8
notes
370
              15
390
0
  6
STYLE_12
 62
               7
100
AcDbCircle
 10
-658.85894936567638
 20
-367.00332663816329
 30
0.0
 40
9.9999976754185838
100
AcDbArc
 50
8.2705571480909779
 51
90.0
  0
POLYLINE
  5
14E
100
AcDbEntity
  8
notes
370
              15
390
0
  6
STYLE_12
 62
               7
100
AcDb2dPolyline
 66
               1
 10
0.0
 20
0.0
 30
0.0
 75
               5
  0
VERTEX
  5
14F
100
AcDbEntity
  8
notes
370
              15
390
0
  6
STYLE_12
 62
               7
100
AcDbVertex
100
AcDb2dVertex
 10
-664.88385170942638
 20
-357.00332663816329
 30
0.0
  0
VERTEX
  5
150
100
AcDbEntity
  8
notes
370
              15
390
0
  6
STYLE_12
 62
               7
100
AcDbVertex
100
AcDb2dVertex
 10
-665.65582436567638
 20
-357.00137351316329
 30
0.0
  0
VERTEX
  5
151
100
AcDbEntity
  8
notes
370
              15
390
0
  6
STYLE_12
 62
               7
100
AcDbVertex
100
AcDb2dVertex
 10
-666.42779702192638
 20
-356.99453757566329
 30
0.0
  0
VERTEX
  5
152
100
AcDbEntity
  8
notes
370
              15
390
0
  6
STYLE_12
 62
               7
100
AcDbVertex
100
AcDb2dVertex
 10
-667.19976967817638
 20
-356.98477195066329
 30
0.0
  0
VERTEX
  5
153
100
AcDbEntity
  8
notes
370
              15
390
0
  6
STYLE_12
 62
               7
100
AcDbVertex
100
AcDb2dVertex
 10
-667.97174233442638
 20
-356.97012351316329
 30
0.0
  0
VERTEX
  5
154
100
AcDbEntity
  8
notes
370
              15
390
0
  6
STYLE_12
 62
               7
100
AcDbVertex
100
AcDb2dVertex
 10
-668.74322670942638
 20
-356.95059226316329
 30
0.0
  0
VERTEX
  5
155
100
AcDbEntity
  8
notes
370
              15
390
0
  6
STYLE_12
 62
               7
100
AcDbVertex
100
AcDb2dVertex
 10
-669.51519936567638
 20
-356.92520163816329
 30
0.0
  0
VERTEX
  5
156
100
AcDbEntity
  8
notes
370
              15
390
0
  6
STYLE_12
 62
               7
100
AcDbVertex
100
AcDb2dVertex
 10
-670.28668374067638
 20
-356.89492820066329
 30
0.0
  0
VERTEX
  5
157
100
AcDbEntity
  8
notes
370
              15
390
0
  6
STYLE_12
 62
               7
100
AcDbVertex
100
AcDb2dVertex
 10
-671.05767983442638
 20
-356.85684226316329
 30
0.0
  0
VERTEX
  5
158
100
AcDbEntity
  8
notes
370
              15
390
0
  6
STYLE_12
 62
               7
100
AcDbVertex
100
AcDb2dVertex
 10
-671.82818764692638
 20
-356.81192038816329
 30
0.0
  0
VERTEX
  5
159
100
AcDbEntity
  8
notes
370
              15
390
0
  6
STYLE_12
 62
               7
100
AcDbVertex
100
AcDb2dVertex
 10
-672.59869545942638
 20
-356.75820945066329
 30
0.0
  0
VERTEX
  5
15A
100
AcDbEntity
  8
notes
370
              15
390
0
  6
STYLE_12
 62
               7
100
AcDbVertex
100
AcDb2dVertex
 10
-673.36773842817638
 20
-356.69473288816329
 30
0.0
  0
VERTEX
  5
15B
100
AcDbEntity
  8
notes
370
              15
390
0
  6
STYLE_12
 62
               7
100
AcDbVertex
100
AcDb2dVertex
 10
-674.13629311567638
 20
-356.61953757566329
 30
0.0
  0
VERTEX
  5
15C
100
AcDbEntity
  8
notes
370
              15
390
0
  6
STYLE_12
 62
               7
100
AcDbVertex
100
AcDb2dVertex
 10
-674.90338295942638
 20
-356.53067038816329
 30
0.0
  0
VERTEX
  5
15D
100
AcDbEntity
  8
notes
370
              15
390
0
  6
STYLE_12
 62
               7
100
AcDbVertex
100
AcDb2dVertex
 10
-675.66754311567638
 20
-356.42324851316329
 30
0.0
  0
VERTEX
  5
15E
100
AcDbEntity
  8
notes
370
              15
390
0
  6
STYLE_12
 62
               7
100
AcDbVertex
100
AcDb2dVertex
 10
-676.42828530317638
 20
-356.29043601316329
 30
0.0
  0
VERTEX
  5
15F
100
AcDbEntity
  8
notes
370
              15
390
0
  6
STYLE_12
 62
               7
100
AcDbVertex
100
AcDb2dVertex
 10
-677.18170327192638
 20
-356.12344382566329
 30
0.0
  0
VERTEX
  5
160
100
AcDbEntity
  8
notes
370
              15
390
0
  6
STYLE_12
 62
               7
100
AcDbVertex
100
AcDb2dVertex
 10
-677.92291420942638
 20
-355.90762351316329
 30
0.0
  0
VERTEX
  5
161
100
AcDbEntity
  8
notes
370
              15
390
0
  6
STYLE_12
 62
               7
100
AcDbVertex
100
AcDb2dVertex
 10
-678.64264077192638
 20
-355.62930320066329
 30
0.0
  0
VERTEX
  5
162
100
AcDbEntity
  8
notes
370
              15
390
0
  6
STYLE_12
 62
               7
100
AcDbVertex
100
AcDb2dVertex
 10
-679.33062905317638
 20
-355.27969382566329
 30
0.0
  0
VERTEX
  5
163
100
AcDbEntity
  8
notes
370
              15
390
0
  6
STYLE_12
 62
               7
100
AcDbVertex
100
AcDb2dVertex
 10
-679.98248452192638
 20
-354.86660788816329
 30
0.0
  0
VERTEX
  5
164
100
AcDbEntity
  8
notes
370
              15
390
0
  6
STYLE_12
 62
               7
100
AcDbVertex
100
AcDb2dVertex
 10
-680.61383217817638
 20
-354.42227195066329
 30
0.0
  0
VERTEX
  5
165
100
AcDbEntity
  8
notes
370
              15
390
0
  6
STYLE_12
 62
               7
100
AcDbVertex
100
AcDb2dVertex
 10
-681.25494545942638
 20
-353.99160788816329
 30
0.0
  0
VERTEX
  5
166
100
AcDbEntity
  8
notes
370
              15
390
0
  6
STYLE_12
 62
               7
100
AcDbVertex
100
AcDb2dVertex
 10
-681.92633217817638
 20
-353.61172507566329
 30
0.0
  0
VERTEX
  5
167
100
AcDbEntity
  8
notes
370
              15
390
0
  6
STYLE_12
 62
               7
100
AcDbVertex
100
AcDb2dVertex
 10
-682.62799233442638
 20
-353.28945945066329
 30
0.0
  0
VERTEX
  5
168
100
AcDbEntity
  8
notes
370
              15
390
0
  6
STYLE_12
 62
               7
100
AcDbVertex
100
AcDb2dVertex
 10
-683.35016030317638
 20
-353.01797507566329
 30
0.0
  0
VERTEX
  5
169
100
AcDbEntity
  8
notes
370
              15
390
0
  6
STYLE_12
 62
               7
100
AcDbVertex
100
AcDb2dVertex
 10
-684.08697670942638
 20
-352.78652976316329
 30
0.0
  0
VERTEX
  5
16A
100
AcDbEntity
  8
notes
370
              15
390
0
  6
STYLE_12
 62
               7
100
AcDbVertex
100
AcDb2dVertex
 10
-684.83404702192638
 20
-352.59121726316329
 30
0.0
  0
VERTEX
  5
16B
100
AcDbEntity
  8
notes
370
              15
390
0
  6
STYLE_12
 62
               7
100
AcDbVertex
100
AcDb2dVertex
 10
-685.58844155317638
 20
-352.42813132566329
 30
0.0
  0
VERTEX
  5
16C
100
AcDbEntity
  8
notes
370
              15
390
0
  6
STYLE_12
 62
               7
100
AcDbVertex
100
AcDb2dVertex
 10
-686.34869545942638
 20
-352.29336570066329
 30
0.0
  0
VERTEX
  5
16D
100
AcDbEntity
  8
notes
370
              15
390
0
  6
STYLE_12
 62
               7
100
AcDbVertex
100
AcDb2dVertex
 10
-687.11285561567638
 20
-352.18594382566329
 30
0.0
  0
VERTEX
  5
16E
100
AcDbEntity
  8
notes
370
              15
390
0
  6
STYLE_12
 62
               7
100
AcDbVertex
100
AcDb2dVertex
 10
-687.88092202192638
 20
-352.10488913816329
 30
0.0
  0
VERTEX
  5
16F
100
AcDbEntity
  8
notes
370
              15
390
0
  6
STYLE_12
 62
               7
100
AcDbVertex
100
AcDb2dVertex
 10
-688.65094155317638
 20
-352.04824851316329
 30
0.0
  0
VERTEX
  5
170
100
AcDbEntity
  8
notes
370
              15
390
0
  6
STYLE_12
 62
               7
100
AcDbVertex
100
AcDb2dVertex
 10
-689.42193764692638
 20
-352.01406882566329
 30
0.0
  0
VERTEX
  5
171
100
AcDbEntity
  8
notes
370
              15
390
0
  6
STYLE_12
 62
               7
100
AcDbVertex
100
AcDb2dVertex
 10
-690.19391030317638
 20
-352.00332663816329
 30
0.0
  0
SEQEND
  5
172
100
AcDbEntity
  8
notes
370
              15
390
0
  6
STYLE_12
 62
               7
  0
LINE
  5
173
100
AcDbEntity
  8
notes
370
              15
390
0
  6
STYLE_12
 62
               7
100
AcDbLine
 10
-191.03098924725992
 20
-357.00235007566329
 30
0.0
 11
-185.00608690350992
 21
-357.00235007566329
 31
0.0
  0
ARC
  5
174
100
AcDbEntity
  8
notes
370
              15
390
0
  6
STYLE_12
 62
               7
100
AcDbCircle
 10
-191.03098924725992
 20
-367.00332663816329
 30
0.0
 40
10.0
100
AcDbArc
 50
90.0
 51
171.72944285190903
  0
POLYLINE
  5
175
100
AcDbEntity
  8
notes
370
              15
390
0
  6
STYLE_12
 62
               7
100
AcDb2dPolyline
 66
               1
 10
0.0
 20
0.0
 30
0.0
 75
               5
  0
VERTEX
  5
176
100
AcDbEntity
  8
notes
370
              15
390
0
  6
STYLE_12
 62
               7
100
AcDbVertex
100
AcDb2dVertex
 10
-185.00608690350992
 20
-357.00332663816329
 30
0.0
  0
VERTEX
  5
177
100
AcDbEntity
  8
notes
370
              15
390
0
  6
STYLE_12
 62
               7
100
AcDbVertex
100
AcDb2dVertex
 10
-184.23411424725992
 20
-357.00137351316329
 30
0.0
  0
VERTEX
  5
178
100
AcDbEntity
  8
notes
370
              15
390
0
  6
STYLE_12
 62
               7
100
AcDbVertex
100
AcDb2dVertex
 10
-183.46214159100992
 20
-356.99453757566329
 30
0.0
  0
VERTEX
  5
179
100
AcDbEntity
  8
notes
370
              15
390
0
  6
STYLE_12
 62
               7
100
AcDbVertex
100
AcDb2dVertex
 10
-182.69016893475992
 20
-356.98477195066329
 30
0.0
  0
VERTEX
  5
17A
100
AcDbEntity
  8
notes
370
              15
390
0
  6
STYLE_12
 62
               7
100
AcDbVertex
100
AcDb2dVertex
 10
-181.91819627850992
 20
-356.97012351316329
 30
0.0
  0
VERTEX
  5
17B
100
AcDbEntity
  8
notes
370
              15
390
0
  6
STYLE_12
 62
               7
100
AcDbVertex
100
AcDb2dVertex
 10
-181.14671190350992
 20
-356.95059226316329
 30
0.0
  0
VERTEX
  5
17C
100
AcDbEntity
  8
notes
370
              15
390
0
  6
STYLE_12
 62
               7
100
AcDbVertex
100
AcDb2dVertex
 10
-180.37473924725992
 20
-356.92520163816329
 30
0.0
  0
VERTEX
  5
17D
100
AcDbEntity
  8
notes
370
              15
390
0
  6
STYLE_12
 62
               7
100
AcDbVertex
100
AcDb2dVertex
 10
-179.60325487225992
 20
-356.89492820066329
 30
0.0
  0
VERTEX
  5
17E
100
AcDbEntity
  8
notes
370
              15
390
0
  6
STYLE_12
 62
               7
100
AcDbVertex
100
AcDb2dVertex
 10
-178.83225877850992
 20
-356.85684226316329
 30
0.0
  0
VERTEX
  5
17F
100
AcDbEntity
  8
notes
370
              15
390
0
  6
STYLE_12
 62
               7
100
AcDbVertex
100
AcDb2dVertex
 10
-178.06175096600992
 20
-356.81192038816329
 30
0.0
  0
VERTEX
  5
180
100
AcDbEntity
  8
notes
370
              15
390
0
  6
STYLE_12
 62
               7
100
AcDbVertex
100
AcDb2dVertex
 10
-177.29124315350992
 20
-356.75820945066329
 30
0.0
  0
VERTEX
  5
181
100
AcDbEntity
  8
notes
370
              15
390
0
  6
STYLE_12
 62
               7
100
AcDbVertex
100
AcDb2dVertex
 10
-176.52220018475992
 20
-356.69473288816329
 30
0.0
  0
VERTEX
  5
182
100
AcDbEntity
  8
notes
370
              15
390
0
  6
STYLE_12
 62
               7
100
AcDbVertex
100
AcDb2dVertex
 10
-175.75364549725992
 20
-356.61953757566329
 30
0.0
  0
VERTEX
  5
183
100
AcDbEntity
  8
notes
370
              15
390
0
  6
STYLE_12
 62
               7
100
AcDbVertex
100
AcDb2dVertex
 10
-174.98655565350992
 20
-356.53067038816329
 30
0.0
  0
VERTEX
  5
184
100
AcDbEntity
  8
notes
370
              15
390
0
  6
STYLE_12
 62
               7
100
AcDbVertex
100
AcDb2dVertex
 10
-174.22239549725992
 20
-356.42324851316329
 30
0.0
  0
VERTEX
  5
185
100
AcDbEntity
  8
notes
370
              15
390
0
  6
STYLE_12
 62
               7
100
AcDbVertex
100
AcDb2dVertex
 10
-173.46165330975992
 20
-356.29043601316329
 30
0.0
  0
VERTEX
  5
186
100
AcDbEntity
  8
notes
370
              15
390
0
  6
STYLE_12
 62
               7
100
AcDbVertex
100
AcDb2dVertex
 10
-172.70823534100992
 20
-356.12344382566329
 30
0.0
  0
VERTEX
  5
187
100
AcDbEntity
  8
notes
370
              15
390
0
  6
STYLE_12
 62
               7
100
AcDbVertex
100
AcDb2dVertex
 10
-171.96702440350992
 20
-355.90762351316329
 30
0.0
  0
VERTEX
  5
188
100
AcDbEntity
  8
notes
370
              15
390
0
  6
STYLE_12
 62
               7
100
AcDbVertex
100
AcDb2dVertex
 10
-171.24729784100992
 20
-355.62930320066329
 30
0.0
  0
VERTEX
  5
189
100
AcDbEntity
  8
notes
370
              15
390
0
  6
STYLE_12
 62
               7
100
AcDbVertex
100
AcDb2dVertex
 10
-170.55930955975992
 20
-355.27969382566329
 30
0.0
  0
VERTEX
  5
18A
100
AcDbEntity
  8
notes
370
              15
390
0
  6
STYLE_12
 62
               7
100
AcDbVertex
100
AcDb2dVertex
 10
-169.90745409100992
 20
-354.86660788816329
 30
0.0
  0
VERTEX
  5
18B
100
AcDbEntity
  8
notes
370
              15
390
0
  6
STYLE_12
 62
               7
100
AcDbVertex
100
AcDb2dVertex
 10
-169.27610643475992
 20
-354.42227195066329
 30
0.0
  0
VERTEX
  5
18C
100
AcDbEntity
  8
notes
370
              15
390
0
  6
STYLE_12
 62
               7
100
AcDbVertex
100
AcDb2dVertex
 10
-168.63499315350992
 20
-353.99160788816329
 30
0.0
  0
VERTEX
  5
18D
100
AcDbEntity
  8
notes
370
              15
390
0
  6
STYLE_12
 62
               7
100
AcDbVertex
100
AcDb2dVertex
 10
-167.96360643475992
 20
-353.61172507566329
 30
0.0
  0
VERTEX
  5
18E
100
AcDbEntity
  8
notes
370
              15
390
0
  6
STYLE_12
 62
               7
100
AcDbVertex
100
AcDb2dVertex
 10
-167.26194627850992
 20
-353.28945945066329
 30
0.0
  0
VERTEX
  5
18F
100
AcDbEntity
  8
notes
370
              15
390
0
  6
STYLE_12
 62
               7
100
AcDbVertex
100
AcDb2dVertex
 10
-166.53977830975992
 20
-353.01797507566329
 30
0.0
  0
VERTEX
  5
190
100
AcDbEntity
  8
notes
370
              15
390
0
  6
STYLE_12
 62
               7
100
AcDbVertex
100
AcDb2dVertex
 10
-165.80296190350992
 20
-352.78652976316329
 30
0.0
  0
VERTEX
  5
191
100
AcDbEntity
  8
notes
370
              15
390
0
  6
STYLE_12
 62
               7
100
AcDbVertex
100
AcDb2dVertex
 10
-165.05589159100992
 20
-352.59121726316329
 30
0.0
  0
VERTEX
  5
192
100
AcDbEntity
  8
notes
370
              15
390
0
  6
STYLE_12
 62
               7
100
AcDbVertex
100
AcDb2dVertex
 10
-164.30149705975992
 20
-352.42813132566329
 30
0.0
  0
VERTEX
  5
193
100
AcDbEntity
  8
notes
370
              15
390
0
  6
STYLE_12
 62
               7
100
AcDbVertex
100
AcDb2dVertex
 10
-163.54124315350992
 20
-352.29336570066329
 30
0.0
  0
VERTEX
  5
194
100
AcDbEntity
  8
notes
370
              15
390
0
  6
STYLE_12
 62
               7
100
AcDbVertex
100
AcDb2dVertex
 10
-162.77708299725992
 20
-352.18594382566329
 30
0.0
  0
VERTEX
  5
195
100
AcDbEntity
  8
notes
370
              15
390
0
  6
STYLE_12
 62
               7
100
AcDbVertex
100
AcDb2dVertex
 10
-162.00901659100992
 20
-352.10488913816329
 30
0.0
  0
VERTEX
  5
196
100
AcDbEntity
  8
notes
370
              15
390
0
  6
STYLE_12
 62
               7
100
AcDbVertex
100
AcDb2dVertex
 10
-161.23899705975992
 20
-352.04824851316329
 30
0.0
  0
VERTEX
  5
197
100
AcDbEntity
  8
notes
370
              15
390
0
  6
STYLE_12
 62
               7
100
AcDbVertex
100
AcDb2dVertex
 10
-160.46800096600992
 20
-352.01406882566329
 30
0.0
  0
VERTEX
  5
198
100
AcDbEntity
  8
notes
370
              15
390
0
  6
STYLE_12
 62
               7
100
AcDbVertex
100
AcDb2dVertex
 10
-159.69602830975992
 20
-352.00332663816329
 30
0.0
  0
SEQEND
  5
199
100
AcDbEntity
  8
notes
370
              15
390
0
  6
STYLE_12
 62
               7
  0
POLYLINE
  5
19A
100
AcDbEntity
  8
notes
370
              15
390
0
  6
STYLE_12
 62
               7
100
AcDb2dPolyline
 66
               1
 10
0.0
 20
0.0
 30
0.0
 75
               5
  0
VERTEX
  5
19B
100
AcDbEntity
  8
notes
370
              15
390
0
  6
STYLE_12
 62
               7
100
AcDbVertex
100
AcDb2dVertex
 10
-385.63686383771807
 20
-496.68690315685365
 30
0.0
  0
VERTEX
  5
19C
100
AcDbEntity
  8
notes
370
              15
390
0
  6
STYLE_12
 62
               7
100
AcDbVertex
100
AcDb2dVertex
 10
-378.86826199323838
 20
-496.39830586375069
 30
0.0
  0
VERTEX
  5
19D
100
AcDbEntity
  8
notes
370
              15
390
0
  6
STYLE_12
 62
               7
100
AcDbVertex
100
AcDb2dVertex
 10
-372.1025907023066
 20
-495.97405056161426
 30
0.0
  0
VERTEX
  5
19E
100
AcDbEntity
  8
notes
370
              15
390
0
  6
STYLE_12
 62
               7
100
AcDbVertex
100
AcDb2dVertex
 10
-365.34131524169658
 20
-495.402904421671
 30
0.0
  0
VERTEX
  5
19F
100
AcDbEntity
  8
notes
370
              15
390
0
  6
STYLE_12
 62
               7
100
AcDbVertex
100
AcDb2dVertex
 10
-358.58638931377374
 20
-494.67536274265098
 30
0.0
  0
VERTEX
  5
1A0
100
AcDbEntity
  8
notes
370
              15
390
0
  6
STYLE_12
 62
               7
100
AcDbVertex
100
AcDb2dVertex
 10
-351.84025504649475
 20
-493.78192082328428
 30
0.0
  0
VERTEX
  5
1A1
100
AcDbEntity
  8
notes
370
              15
390
0
  6
STYLE_12
 62
               7
100
AcDbVertex
100
AcDb2dVertex
 10
-345.10486614222469
 20
-492.7087536435422
 30
0.0
  0
VERTEX
  5
1A2
100
AcDbEntity
  8
notes
370
              15
390
0
  6
STYLE_12
 62
               7
100
AcDbVertex
100
AcDb2dVertex
 10
-338.38413000569409
 20
-491.44549243840277
 30
0.0
  0
VERTEX
  5
1A3
100
AcDbEntity
  8
notes
370
              15
390
0
  6
STYLE_12
 62
               7
100
AcDbVertex
100
AcDb2dVertex
 10
-331.68000033926825
 20
-489.97831218783745
 30
0.0
  0
VERTEX
  5
1A4
100
AcDbEntity
  8
notes
370
              15
390
0
  6
STYLE_12
 62
               7
100
AcDbVertex
100
AcDb2dVertex
 10
-324.9983382500431
 20
-488.29425193556892
 30
0.0
  0
VERTEX
  5
1A5
100
AcDbEntity
  8
notes
370
              15
390
0
  6
STYLE_12
 62
               7
100
AcDbVertex
100
AcDb2dVertex
 10
-318.3435395683403
 20
-486.37862259781662
 30
0.0
  0
VERTEX
  5
1A6
100
AcDbEntity
  8
notes
370
              15
390
0
  6
STYLE_12
 62
               7
100
AcDbVertex
100
AcDb2dVertex
 10
-311.72097697566466
 20
-484.21068664453725
 30
0.0
  0
VERTEX
  5
1A7
100
AcDbEntity
  8
notes
370
              15
390
0
  6
STYLE_12
 62
               7
100
AcDbVertex
100
AcDb2dVertex
 10
-305.137000004703
 20
-481.78093937446073
 30
0.0
  0
VERTEX
  5
1A8
100
AcDbEntity
  8
notes
370
              15
390
0
  6
STYLE_12
 62
               7
100
AcDbVertex
100
AcDb2dVertex
 10
-298.60088874169054
 20
-479.06864325754401
 30
0.0
  0
VERTEX
  5
1A9
100
AcDbEntity
  8
notes
370
              15
390
0
  6
STYLE_12
 62
               7
100
AcDbVertex
100
AcDb2dVertex
 10
-292.11996957049683
 20
-476.0547888912472
 30
0.0
  0
VERTEX
  5
1AA
100
AcDbEntity
  8
notes
370
              15
390
0
  6
STYLE_12
 62
               7
100
AcDbVertex
100
AcDb2dVertex
 10
-285.70596470531365
 20
-472.72641531929327
 30
0.0
  0
VERTEX
  5
1AB
100
AcDbEntity
  8
notes
370
              15
390
0
  6
STYLE_12
 62
               7
100
AcDbVertex
100
AcDb2dVertex
 10
-279.36961950915003
 20
-469.06364907539069
 30
0.0
  0
VERTEX
  5
1AC
100
AcDbEntity
  8
notes
370
              15
390
0
  6
STYLE_12
 62
               7
100
AcDbVertex
100
AcDb2dVertex
 10
-273.12314462178898
 20
-465.05180107575876
 30
0.0
  0
VERTEX
  5
1AD
100
AcDbEntity
  8
notes
370
              15
390
0
  6
STYLE_12
 62
               7
100
AcDbVertex
100
AcDb2dVertex
 10
-266.98119281096984
 20
-460.67963849162413
 30
0.0
  0
VERTEX
  5
1AE
100
AcDbEntity
  8
notes
370
              15
390
0
  6
STYLE_12
 62
               7
100
AcDbVertex
100
AcDb2dVertex
 10
-260.95841684443207
 20
-455.9290159841986
 30
0.0
  0
VERTEX
  5
1AF
100
AcDbEntity
  8
notes
370
              15
390
0
  6
STYLE_12
 62
               7
100
AcDbVertex
100
AcDb2dVertex
 10
-255.07142319228075
 20
-450.79820542597889
 30
0.0
  0
VERTEX
  5
1B0
100
AcDbEntity
  8
notes
370
              15
390
0
  6
STYLE_12
 62
               7
100
AcDbVertex
100
AcDb2dVertex
 10
-249.33535304784647
 20
-445.27770211569498
 30
0.0
  0
VERTEX
  5
1B1
100
AcDbEntity
  8
notes
370
              15
390
0
  6
STYLE_12
 62
               7
100
AcDbVertex
100
AcDb2dVertex
 10
-243.7658360300515
 20
-439.36837011709866
 30
0.0
  0
VERTEX
  5
1B2
100
AcDbEntity
  8
notes
370
              15
390
0
  6
STYLE_12
 62
               7
100
AcDbVertex
100
AcDb2dVertex
 10
-238.37899018340937
 20
-433.07452974894903
 30
0.0
  0
VERTEX
  5
1B3
100
AcDbEntity
  8
notes
370
              15
390
0
  6
STYLE_12
 62
               7
100
AcDbVertex
100
AcDb2dVertex
 10
-233.18653772211172
 20
-426.40482164876403
 30
0.0
  0
VERTEX
  5
1B4
100
AcDbEntity
  8
notes
370
              15
390
0
  6
STYLE_12
 62
               7
100
AcDbVertex
100
AcDb2dVertex
 10
-228.20313141389789
 20
-419.3713427090691
 30
0.0
  0
VERTEX
  5
1B5
100
AcDbEntity
  8
notes
370
              15
390
0
  6
STYLE_12
 62
               7
100
AcDbVertex
100
AcDb2dVertex
 10
-223.43512079145518
 20
-411.9948304599074
 30
0.0
  0
VERTEX
  5
1B6
100
AcDbEntity
  8
notes
370
              15
390
0
  6
STYLE_12
 62
               7
100
AcDbVertex
100
AcDb2dVertex
 10
-218.89080908983595
 20
-404.29343024006698
 30
0.0
  0
VERTEX
  5
1B7
100
AcDbEntity
  8
notes
370
              15
390
0
  6
STYLE_12
 62
               7
100
AcDbVertex
100
AcDb2dVertex
 10
-214.57263843699678
 20
-396.28874364334285
 30
0.0
  0
VERTEX
  5
1B8
100
AcDbEntity
  8
notes
370
              15
390
0
  6
STYLE_12
 62
               7
100
AcDbVertex
100
AcDb2dVertex
 10
-210.48060883293778
 20
-388.01014883729647
 30
0.0
  0
VERTEX
  5
1B9
100
AcDbEntity
  8
notes
370
              15
390
0
  6
STYLE_12
 62
               7
100
AcDbVertex
100
AcDb2dVertex
 10
-206.61423185206735
 20
-379.48183960697838
 30
0.0
  0
VERTEX
  5
1BA
100
AcDbEntity
  8
notes
370
              15
390
0
  6
STYLE_12
 62
               7
100
AcDbVertex
100
AcDb2dVertex
 10
-202.9676463872899
 20
-370.7288738011909
 30
0.0
  0
VERTEX
  5
1BB
100
AcDbEntity
  8
notes
370
              15
390
0
  6
STYLE_12
 62
               7
100
AcDbVertex
100
AcDb2dVertex
 10
-199.50959320076112
 20
-361.70113572232935
 30
0.0
  0
SEQEND
  5
1BC
100
AcDbEntity
  8
notes
370
              15
390
0
  6
STYLE_12
 62
               7
  0
DIMENSION
  5
1BD
100
AcDbEntity
  8
notes
370
               5
390
0
  6
Continuous
 62
               7
100
AcDbDimension
  2
*D16
 10
599.7316143230405
 20
-352.03026253185362
 30
0.0
 11
604.7316143230405
 21
-333.0
 31
0.0
 70
             128
 71
               5
 72
               1
 41
1.0
 42
0.0
  3
tform線あり
100
AcDbAlignedDimension
 13
587.7316143230405
 23
-357.03026253185362
 33
0.0
 14
587.7316143230405
 24
-352.03026253185362
 34
0.0
 50
90.0
100
AcDbRotatedDimension
1001
ACAD
1000
DSTYLE
1002
{
1070
             279
1070
               2
1070
             340
1005
34
1070
             174
1070
               0
1070
             147
1040
5.0
1002
}
  0
DIMENSION
  5
1BE
100
AcDbEntity
  8
notes
370
               5
390
0
  6
Continuous
 62
               7
100
AcDbDimension
  2
*D17
 10
-438.07279890020527
 20
775.34309723069543
 30
0.0
 11
-244.49999999999994
 21
889.99999999999977
 31
0.0
 70
               3
 71
               5
 72
               1
 41
1.0
 42
0.0
  3
tform線あり
100
AcDbDiametricDimension
 15
-411.81713971273081
 25
798.48700270559721
 35
0.0
 40
138.39301706349934
1001
ACAD
1000
DSTYLE
1002
{
1070
             172
1070
               0
1070
             289
1070
               0
1070
             342
1005
45
1070
             340
1005
34
1070
              73
1070
               1
1070
              74
1070
               1
1070
              75
1070
               1
1070
              76
1070
               1
1070
               3
1000

1070
             174
1070
               0
1070
             147
1040
5.0
1002
}
  0
SPLINE
  5
1BF
100
AcDbEntity
  8
ADF70-2303
370
              15
390
0
  6
Continuous
 62
               7
100
AcDbSpline
210
0.0
220
0.0
230
1.0
 70
               9
 71
               2
 72
              24
 73
              21
 74
               0
 42
0.000001
 43
0.000001
 40
0.0
 40
0.0
 40
0.0
 40
1.0
 40
2.0
 40
3.0
 40
4.0
 40
4.0
 40
5.0
 40
6.0
 40
7.0
 40
8.0
 40
8.0
 40
9.0
 40
10.0
 40
11.0
 40
12.0
 40
12.0
 40
13.0
 40
14.0
 40
15.0
 40
16.0
 40
16.0
 40
16.0
 10
-454.94496930646807
 20
714.50879996814638
 30
0.0
 10
-454.86635602521807
 20
714.41407340564638
 30
0.0
 10
-454.30727399396807
 20
714.30176871814638
 30
0.0
 10
-452.63393415021807
 20
714.14356559314638
 30
0.0
 10
-450.16957868146807
 20
714.06837028064638
 30
0.0
 10
-448.94496930646807
 20
714.06934684314638
 30
0.0
 10
-447.72084821271807
 20
714.06837028064638
 30
0.0
 10
-445.25209821271807
 20
714.13672965564638
 30
0.0
 10
-443.58657086896807
 20
714.30176871814638
 30
0.0
 10
-443.02358258771807
 20
714.41407340564638
 30
0.0
 10
-442.94496930646807
 20
714.50879996814638
 30
0.0
 10
-443.02358258771807
 20
714.60450309314638
 30
0.0
 10
-443.58266461896807
 20
714.71680778064638
 30
0.0
 10
-445.25600446271807
 20
714.87501090564638
 30
0.0
 10
-447.72084821271807
 20
714.95020621814638
 30
0.0
 10
-448.94496930646807
 20
714.94922965564638
 30
0.0
 10
-450.16957868146807
 20
714.95020621814638
 30
0.0
 10
-452.63832868146807
 20
714.88184684314638
 30
0.0
 10
-454.30385602521807
 20
714.71583121814638
 30
0.0
 10
-454.86635602521807
 20
714.60450309314638
 30
0.0
 10
-454.94496930646807
 20
714.50879996814638
 30
0.0
  0
SPLINE
  5
1C0
100
AcDbEntity
  8
ADF70-2303
370
              15
390
0
  6
Continuous
 62
               7
100
AcDbSpline
210
0.0
220
0.0
230
1.0
 70
               9
 71
               2
 72
              24
 73
              21
 74
               0
 42
0.000001
 43
0.000001
 40
0.0
 40
0.0
 40
0.0
 40
1.0
 40
2.0
 40
3.0
 40
4.0
 40
4.0
 40
5.0
 40
6.0
 40
7.0
 40
8.0
 40
8.0
 40
9.0
 40
10.0
 40
11.0
 40
12.0
 40
12.0
 40
13.0
 40
14.0
 40
15.0
 40
16.0
 40
16.0
 40
16.0
 10
-430.94496930646807
 20
714.50879996814638
 30
0.0
 10
-430.86635602521807
 20
714.41407340564638
 30
0.0
 10
-430.30727399396807
 20
714.30176871814638
 30
0.0
 10
-428.63393415021807
 20
714.14356559314638
 30
0.0
 10
-426.16957868146807
 20
714.06837028064638
 30
0.0
 10
-424.94496930646807
 20
714.06934684314638
 30
0.0
 10
-423.72084821271807
 20
714.06837028064638
 30
0.0
 10
-421.25209821271807
 20
714.13672965564638
 30
0.0
 10
-419.58657086896807
 20
714.30176871814638
 30
0.0
 10
-419.02358258771807
 20
714.41407340564638
 30
0.0
 10
-418.94496930646807
 20
714.50879996814638
 30
0.0
 10
-419.02358258771807
 20
714.60450309314638
 30
0.0
 10
-419.58266461896807
 20
714.71680778064638
 30
0.0
 10
-421.25600446271807
 20
714.87501090564638
 30
0.0
 10
-423.72084821271807
 20
714.95020621814638
 30
0.0
 10
-424.94496930646807
 20
714.94922965564638
 30
0.0
 10
-426.16957868146807
 20
714.95020621814638
 30
0.0
 10
-428.63832868146807
 20
714.88184684314638
 30
0.0
 10
-430.30385602521807
 20
714.71583121814638
 30
0.0
 10
-430.86635602521807
 20
714.60450309314638
 30
0.0
 10
-430.94496930646807
 20
714.50879996814638
 30
0.0
  0
SPLINE
  5
1C1
100
AcDbEntity
  8
ADF70-2303
370
              15
390
0
  6
Continuous
 62
               7
100
AcDbSpline
210
0.0
220
0.0
230
1.0
 70
               9
 71
               2
 72
              24
 73
              21
 74
               0
 42
0.000001
 43
0.000001
 40
0.0
 40
0.0
 40
0.0
 40
1.0
 40
2.0
 40
3.0
 40
4.0
 40
4.0
 40
5.0
 40
6.0
 40
7.0
 40
8.0
 40
8.0
 40
9.0
 40
10.0
 40
11.0
 40
12.0
 40
12.0
 40
13.0
 40
14.0
 40
15.0
 40
16.0
 40
16.0
 40
16.0
 10
-406.94496930646807
 20
714.50879996814638
 30
0.0
 10
-406.86635602521807
 20
714.41407340564638
 30
0.0
 10
-406.30727399396807
 20
714.30176871814638
 30
0.0
 10
-404.63393415021807
 20
714.14356559314638
 30
0.0
 10
-402.16957868146807
 20
714.06837028064638
 30
0.0
 10
-400.94496930646807
 20
714.06934684314638
 30
0.0
 10
-399.72084821271807
 20
714.06837028064638
 30
0.0
 10
-397.25209821271807
 20
714.13672965564638
 30
0.0
 10
-395.58657086896807
 20
714.30176871814638
 30
0.0
 10
-395.02358258771807
 20
714.41407340564638
 30
0.0
 10
-394.94496930646807
 20
714.50879996814638
 30
0.0
 10
-395.02358258771807
 20
714.60450309314638
 30
0.0
 10
-395.58266461896807
 20
714.71680778064638
 30
0.0
 10
-397.25600446271807
 20
714.87501090564638
 30
0.0
 10
-399.72084821271807
 20
714.95020621814638
 30
0.0
 10
-400.94496930646807
 20
714.94922965564638
 30
0.0
 10
-402.16957868146807
 20
714.95020621814638
 30
0.0
 10
-404.63832868146807
 20
714.88184684314638
 30
0.0
 10
-406.30385602521807
 20
714.71583121814638
 30
0.0
 10
-406.86635602521807
 20
714.60450309314638
 30
0.0
 10
-406.94496930646807
 20
714.50879996814638
 30
0.0
  0
ARC
  5
1C2
100
AcDbEntity
  8
ADF70-2303
370
              15
390
0
  6
Continuous
 62
               7
100
AcDbCircle
 10
-424.94496930646807
 20
3570.1357530931464
 30
0.0
 40
3158.220507167865
100
AcDbArc
 50
268.45034435936338
 51
271.54965564063662
  0
ARC
  5
1C3
100
AcDbEntity
  8
ADF70-2303
370
              15
390
0
  6
Continuous
 62
               7
100
AcDbCircle
 10
-424.94496930646807
 20
3570.1357530931464
 30
0.0
 40
3133.2211372891288
100
AcDbArc
 50
268.45033916217051
 51
271.5496519121196
  0
ARC
  5
1C4
100
AcDbEntity
  8
ADF70-2303
370
              15
390
0
  6
Continuous
 62
               7
100
AcDbCircle
 10
-424.94496930646807
 20
3570.1357530931464
 30
0.0
 40
3103.2209013836014
100
AcDbArc
 50
268.45034314179497
 51
271.54965685820503
  0
LINE
  5
1C5
100
AcDbEntity
  8
ADF70-2303
370
              15
390
0
  6
Continuous
 62
               7
100
AcDbLine
 10
-199.94496930646807
 20
612.99708121814638
 30
0.0
 11
-199.94496930646807
 21
681.91504996814638
 31
0.0
  0
LINE
  5
1C6
100
AcDbEntity
  8
ADF70-2303
370
              15
390
0
  6
Continuous
 62
               7
100
AcDbLine
 10
-649.94496930646824
 20
681.91504996814638
 30
0.0
 11
-649.94496930646824
 21
612.99708121814638
 31
0.0
  0
LINE
  5
1C7
100
AcDbEntity
  8
ADF70-2303
370
              15
390
0
  6
Continuous
 62
               7
100
AcDbLine
 10
-169.94496930646807
 20
612.99708121814638
 30
0.0
 11
-169.94496930646807
 21
791.91504996814638
 31
0.0
  0
LINE
  5
1C8
100
AcDbEntity
  8
ADF70-2303
370
              15
390
0
  6
Continuous
 62
               7
100
AcDbLine
 10
-204.94496930646807
 20
826.91504996814638
 30
0.0
 11
-644.94496930646824
 21
826.91504996814638
 31
0.0
  0
LINE
  5
1C9
100
AcDbEntity
  8
ADF70-2303
370
              15
390
0
  6
Continuous
 62
               7
100
AcDbLine
 10
-679.94496930646824
 20
791.91504996814638
 30
0.0
 11
-679.94496930646824
 21
612.99708121814638
 31
0.0
  0
LINE
  5
1CA
100
AcDbEntity
  8
ADF70-2303
370
              15
390
0
  6
Continuous
 62
               7
100
AcDbLine
 10
-144.94496930646807
 20
612.99708121814638
 30
0.0
 11
-144.94496930646807
 21
848.91504996814638
 31
0.0
  0
LINE
  5
1CB
100
AcDbEntity
  8
ADF70-2303
370
              15
390
0
  6
Continuous
 62
               7
100
AcDbLine
 10
-147.94496930646807
 20
851.91504996814638
 30
0.0
 11
-701.94496930646824
 21
851.91504996814638
 31
0.0
  0
LINE
  5
1CC
100
AcDbEntity
  8
ADF70-2303
370
              15
390
0
  6
Continuous
 62
               7
100
AcDbLine
 10
-704.94496930646824
 20
848.91504996814638
 30
0.0
 11
-704.94496930646824
 21
612.99708121814638
 31
0.0
  0
LINE
  5
1CD
100
AcDbEntity
  8
ADF70-2303
370
              15
390
0
  6
Continuous
 62
               7
100
AcDbLine
 10
-234.94496930646807
 20
716.91504996814638
 30
0.0
 11
-614.94496930646824
 21
716.91504996814638
 31
0.0
  0
ARC
  5
1CE
100
AcDbEntity
  8
ADF70-2303
370
              15
390
0
  6
Continuous
 62
               7
100
AcDbCircle
 10
-614.94496930646824
 20
681.91504996814638
 30
0.0
 40
35.0
100
AcDbArc
 50
90.0
 51
180.0
  0
ARC
  5
1CF
100
AcDbEntity
  8
ADF70-2303
370
              15
390
0
  6
Continuous
 62
               7
100
AcDbCircle
 10
-234.94496930646807
 20
681.91504996814638
 30
0.0
 40
35.0
100
AcDbArc
 50
0.0
 51
90.0
  0
SPLINE
  5
1D0
100
AcDbEntity
  8
ADF70-2303
370
              15
390
0
  6
Continuous
 62
               7
100
AcDbSpline
210
0.0
220
0.0
230
1.0
 70
              13
 71
               2
 72
              12
 73
               9
 74
               0
 42
0.000001
 43
0.000001
 40
0.0
 40
0.0
 40
0.0
 40
0.25
 40
0.25
 40
0.5
 40
0.5
 40
0.75
 40
0.75
 40
1.0
 40
1.0
 40
1.0
 10
-454.94496930646807
 20
714.50879996814638
 30
0.0
 41
1.0
 10
-454.94496930646807
 20
714.94825309314638
 30
0.0
 41
0.7071067811865476
 10
-448.94496930646807
 20
714.94922965564638
 30
0.0
 41
1.0
 10
-442.9449693064679
 20
714.94825309314638
 30
0.0
 41
0.7071067811865476
 10
-442.94496930646807
 20
714.50879996814638
 30
0.0
 41
1.0
 10
-442.9449693064679
 20
714.06934684314638
 30
0.0
 41
0.7071067811865476
 10
-448.94496930646807
 20
714.06934684314638
 30
0.0
 41
1.0
 10
-454.94496930646807
 20
714.06934684314638
 30
0.0
 41
0.7071067811865476
 10
-454.94496930646807
 20
714.50879996814638
 30
0.0
 41
1.0
  0
SPLINE
  5
1D1
100
AcDbEntity
  8
ADF70-2303
370
              15
390
0
  6
Continuous
 62
               7
100
AcDbSpline
210
0.0
220
0.0
230
1.0
 70
              13
 71
               2
 72
              12
 73
               9
 74
               0
 42
0.000001
 43
0.000001
 40
0.0
 40
0.0
 40
0.0
 40
0.25
 40
0.25
 40
0.5
 40
0.5
 40
0.75
 40
0.75
 40
1.0
 40
1.0
 40
1.0
 10
-430.94496930646807
 20
714.50879996814638
 30
0.0
 41
1.0
 10
-430.94496930646812
 20
714.94825309314638
 30
0.0
 41
0.7071067811865476
 10
-424.94496930646807
 20
714.94922965564638
 30
0.0
 41
1.0
 10
-418.94496930646818
 20
714.94825309314638
 30
0.0
 41
0.7071067811865476
 10
-418.94496930646807
 20
714.50879996814638
 30
0.0
 41
1.0
 10
-418.94496930646818
 20
714.06934684314638
 30
0.0
 41
0.7071067811865476
 10
-424.94496930646807
 20
714.06934684314638
 30
0.0
 41
1.0
 10
-430.94496930646812
 20
714.06934684314638
 30
0.0
 41
0.7071067811865476
 10
-430.94496930646807
 20
714.50879996814638
 30
0.0
 41
1.0
  0
SPLINE
  5
1D2
100
AcDbEntity
  8
ADF70-2303
370
              15
390
0
  6
Continuous
 62
               7
100
AcDbSpline
210
0.0
220
0.0
230
1.0
 70
              13
 71
               2
 72
              12
 73
               9
 74
               0
 42
0.000001
 43
0.000001
 40
0.0
 40
0.0
 40
0.0
 40
0.25
 40
0.25
 40
0.5
 40
0.5
 40
0.75
 40
0.75
 40
1.0
 40
1.0
 40
1.0
 10
-406.94496930646807
 20
714.50879996814638
 30
0.0
 41
1.0
 10
-406.94496930646801
 20
714.94825309314638
 30
0.0
 41
0.7071067811865476
 10
-400.94496930646807
 20
714.94922965564638
 30
0.0
 41
1.0
 10
-394.94496930646824
 20
714.94825309314638
 30
0.0
 41
0.7071067811865476
 10
-394.94496930646807
 20
714.50879996814638
 30
0.0
 41
1.0
 10
-394.94496930646824
 20
714.06934684314638
 30
0.0
 41
0.7071067811865476
 10
-400.94496930646807
 20
714.06934684314638
 30
0.0
 41
1.0
 10
-406.94496930646801
 20
714.06934684314638
 30
0.0
 41
0.7071067811865476
 10
-406.94496930646807
 20
714.50879996814638
 30
0.0
 41
1.0
  0
CIRCLE
  5
1D3
100
AcDbEntity
  8
ADF70-2303
370
              15
390
0
  6
Continuous
 62
               7
100
AcDbCircle
 10
-424.94496930646807
 20
786.91504996814638
 30
0.0
 40
17.5
  0
CIRCLE
  5
1D4
100
AcDbEntity
  8
ADF70-2303
370
              15
390
0
  6
STYLE_12
 62
               7
100
AcDbCircle
 10
-524.94496930646824
 20
786.91504996814638
 30
0.0
 40
16.000000000000171
  0
CIRCLE
  5
1D5
100
AcDbEntity
  8
ADF70-2303
370
              15
390
0
  6
STYLE_12
 62
               7
100
AcDbCircle
 10
-324.94496930646807
 20
786.91504996814638
 30
0.0
 40
16.0
  0
ARC
  5
1D6
100
AcDbEntity
  8
ADF70-2303
370
              15
390
0
  6
Continuous
 62
               7
100
AcDbCircle
 10
-644.94496930646824
 20
791.91504996814638
 30
0.0
 40
35.0
100
AcDbArc
 50
90.0
 51
180.0
  0
ARC
  5
1D7
100
AcDbEntity
  8
ADF70-2303
370
              15
390
0
  6
Continuous
 62
               7
100
AcDbCircle
 10
-204.94496930646807
 20
791.91504996814638
 30
0.0
 40
35.0
100
AcDbArc
 50
0.0
 51
90.0
  0
CIRCLE
  5
1D8
100
AcDbEntity
  8
ADF70-2303
370
              15
390
0
  6
Continuous
 62
               7
100
AcDbCircle
 10
-424.94496930646807
 20
631.91504996814638
 30
0.0
 40
23.6708984375
  0
CIRCLE
  5
1D9
100
AcDbEntity
  8
ADF70-2303
370
              15
390
0
  6
Continuous
 62
               7
100
AcDbCircle
 10
-424.94496930646807
 20
631.91504996814638
 30
0.0
 40
37.162109375
  0
CIRCLE
  5
1DA
100
AcDbEntity
  8
ADF70-2303
370
              15
390
0
  6
Continuous
 62
               7
100
AcDbCircle
 10
-424.94496930646807
 20
631.91504996814638
 30
0.0
 40
23.6708984375
  0
ARC
  5
1DB
100
AcDbEntity
  8
ADF70-2303
370
              15
390
0
  6
Continuous
 62
               7
100
AcDbCircle
 10
-701.94496930646824
 20
848.91504996814638
 30
0.0
 40
3.0
100
AcDbArc
 50
90.0
 51
180.0
  0
ARC
  5
1DC
100
AcDbEntity
  8
ADF70-2303
370
              15
390
0
  6
Continuous
 62
               7
100
AcDbCircle
 10
-147.94496930646807
 20
848.91504996814638
 30
0.0
 40
3.0
100
AcDbArc
 50
0.0
 51
90.0
  0
ARC
  5
1DD
100
AcDbEntity
  8
ADF70-2303
370
              15
390
0
  6
Continuous
 62
               7
100
AcDbCircle
 10
-504.94496930646812
 20
612.99708121814638
 30
0.0
 40
200.00000000000011
100
AcDbArc
 50
180.0
 51
268.450334390747
  0
ARC
  5
1DE
100
AcDbEntity
  8
ADF70-2303
370
              15
390
0
  6
Continuous
 62
               7
100
AcDbCircle
 10
-344.94496930646807
 20
612.99708121814638
 30
0.0
 40
199.99990608034312
100
AcDbArc
 50
271.549665609253
 51
0.0
  0
ARC
  5
1DF
100
AcDbEntity
  8
ADF70-2303
370
              15
390
0
  6
Continuous
 62
               7
100
AcDbCircle
 10
-504.94496930646812
 20
612.99708121814638
 30
0.0
 40
175.00000000000011
100
AcDbArc
 50
180.0
 51
268.45023991581553
  0
ARC
  5
1E0
100
AcDbEntity
  8
ADF70-2303
370
              15
390
0
  6
Continuous
 62
               7
100
AcDbCircle
 10
-344.94496930646807
 20
612.99708121814638
 30
0.0
 40
175.0005229969384
100
AcDbArc
 50
271.54960027768243
 51
0.0
  0
ARC
  5
1E1
100
AcDbEntity
  8
ADF70-2303
370
              15
390
0
  6
Continuous
 62
               7
100
AcDbCircle
 10
-504.94496930646812
 20
612.99708121814638
 30
0.0
 40
145.00000000000011
100
AcDbArc
 50
180.0
 51
268.45030455181802
  0
ARC
  5
1E2
100
AcDbEntity
  8
ADF70-2303
370
              15
390
0
  6
Continuous
 62
               7
100
AcDbCircle
 10
-344.94496930646807
 20
612.99708121814638
 30
0.0
 40
145.00030029611074
100
AcDbArc
 50
271.54969544818198
 51
0.0
  0
LINE
  5
1E3
100
AcDbEntity
  8
ADF70-2303
370
              15
390
0
  6
Continuous
 62
               7
100
AcDbLine
 10
-704.94496930646824
 20
-362.56151253185362
 30
0.0
 11
-702.44741071271824
 21
-409.05370003185362
 31
0.0
  0
LINE
  5
1E4
100
AcDbEntity
  8
ADF70-2303
370
              15
390
0
  6
Continuous
 62
               7
100
AcDbLine
 10
-154.92983258771807
 20
-352.02635628185362
 30
0.0
 11
-694.96010602521824
 21
-352.02635628185362
 31
0.0
  0
ARC
  5
1E5
100
AcDbEntity
  8
ADF70-2303
370
              15
390
0
  6
Continuous
 62
               7
100
AcDbCircle
 10
-694.95961774396824
 20
-362.02537971935362
 30
0.0
 40
9.9990234494220935
100
AcDbArc
 50
90.002797918716055
 51
183.07337001034819
  0
ARC
  5
1E6
100
AcDbEntity
  8
ADF70-2303
370
              15
390
0
  6
Continuous
 62
               7
100
AcDbCircle
 10
-692.45180524396824
 20
-424.13084846935362
 30
0.0
 40
3.9999970495689956
100
AcDbArc
 50
182.00072456990097
 51
270.0
  0
POLYLINE
  5
1E7
100
AcDbEntity
  8
ADF70-2303
370
              15
390
0
  6
Continuous
 62
               7
100
AcDb2dPolyline
 66
               1
 10
0.0
 20
0.0
 30
0.0
 75
               5
  0
VERTEX
  5
1E8
100
AcDbEntity
  8
ADF70-2303
370
              15
390
0
  6
Continuous
 62
               7
100
AcDbVertex
100
AcDb2dVertex
 10
-692.45180524396824
 20
-428.13084846935362
 30
0.0
  0
VERTEX
  5
1E9
100
AcDbEntity
  8
ADF70-2303
370
              15
390
0
  6
Continuous
 62
               7
100
AcDbVertex
100
AcDb2dVertex
 10
-690.63002790021824
 20
-428.19237190685362
 30
0.0
  0
VERTEX
  5
1EA
100
AcDbEntity
  8
ADF70-2303
370
              15
390
0
  6
Continuous
 62
               7
100
AcDbVertex
100
AcDb2dVertex
 10
-688.81703961896824
 20
-428.38670784435362
 30
0.0
  0
VERTEX
  5
1EB
100
AcDbEntity
  8
ADF70-2303
370
              15
390
0
  6
Continuous
 62
               7
100
AcDbVertex
100
AcDb2dVertex
 10
-687.02553571271824
 20
-428.72069221935362
 30
0.0
  0
VERTEX
  5
1EC
100
AcDbEntity
  8
ADF70-2303
370
              15
390
0
  6
Continuous
 62
               7
100
AcDbVertex
100
AcDb2dVertex
 10
-685.26772321271824
 20
-429.20311409435362
 30
0.0
  0
VERTEX
  5
1ED
100
AcDbEntity
  8
ADF70-2303
370
              15
390
0
  6
Continuous
 62
               7
100
AcDbVertex
100
AcDb2dVertex
 10
-683.55727399396824
 20
-429.83397346935362
 30
0.0
  0
VERTEX
  5
1EE
100
AcDbEntity
  8
ADF70-2303
370
              15
390
0
  6
Continuous
 62
               7
100
AcDbVertex
100
AcDb2dVertex
 10
-681.90785993146824
 20
-430.60936409435362
 30
0.0
  0
VERTEX
  5
1EF
100
AcDbEntity
  8
ADF70-2303
370
              15
390
0
  6
Continuous
 62
               7
100
AcDbVertex
100
AcDb2dVertex
 10
-680.32924665021824
 20
-431.52049690685362
 30
0.0
  0
VERTEX
  5
1F0
100
AcDbEntity
  8
ADF70-2303
370
              15
390
0
  6
Continuous
 62
               7
100
AcDbVertex
100
AcDb2dVertex
 10
-678.82729352521824
 20
-432.55370003185362
 30
0.0
  0
VERTEX
  5
1F1
100
AcDbEntity
  8
ADF70-2303
370
              15
390
0
  6
Continuous
 62
               7
100
AcDbVertex
100
AcDb2dVertex
 10
-677.40444196271824
 20
-433.69334846935362
 30
0.0
  0
VERTEX
  5
1F2
100
AcDbEntity
  8
ADF70-2303
370
              15
390
0
  6
Continuous
 62
               7
100
AcDbVertex
100
AcDb2dVertex
 10
-676.05873883771824
 20
-434.92381721935362
 30
0.0
  0
VERTEX
  5
1F3
100
AcDbEntity
  8
ADF70-2303
370
              15
390
0
  6
Continuous
 62
               7
100
AcDbVertex
100
AcDb2dVertex
 10
-674.78578961896824
 20
-436.22850471935362
 30
0.0
  0
VERTEX
  5
1F4
100
AcDbEntity
  8
ADF70-2303
370
              15
390
0
  6
Continuous
 62
               7
100
AcDbVertex
100
AcDb2dVertex
 10
-673.57778180646824
 20
-437.59471565685362
 30
0.0
  0
VERTEX
  5
1F5
100
AcDbEntity
  8
ADF70-2303
370
              15
390
0
  6
Continuous
 62
               7
100
AcDbVertex
100
AcDb2dVertex
 10
-672.42739118146824
 20
-439.00877815685362
 30
0.0
  0
VERTEX
  5
1F6
100
AcDbEntity
  8
ADF70-2303
370
              15
390
0
  6
Continuous
 62
               7
100
AcDbVertex
100
AcDb2dVertex
 10
-671.32582868146824
 20
-440.46092659435362
 30
0.0
  0
VERTEX
  5
1F7
100
AcDbEntity
  8
ADF70-2303
370
              15
390
0
  6
Continuous
 62
               7
100
AcDbVertex
100
AcDb2dVertex
 10
-670.26479352521824
 20
-441.94432503185362
 30
0.0
  0
VERTEX
  5
1F8
100
AcDbEntity
  8
ADF70-2303
370
              15
390
0
  6
Continuous
 62
               7
100
AcDbVertex
100
AcDb2dVertex
 10
-669.23549665021824
 20
-443.44920784435362
 30
0.0
  0
VERTEX
  5
1F9
100
AcDbEntity
  8
ADF70-2303
370
              15
390
0
  6
Continuous
 62
               7
100
AcDbVertex
100
AcDb2dVertex
 10
-668.22963727521824
 20
-444.96971565685362
 30
0.0
  0
VERTEX
  5
1FA
100
AcDbEntity
  8
ADF70-2303
370
              15
390
0
  6
Continuous
 62
               7
100
AcDbVertex
100
AcDb2dVertex
 10
-667.23891461896824
 20
-446.50096565685362
 30
0.0
  0
VERTEX
  5
1FB
100
AcDbEntity
  8
ADF70-2303
370
              15
390
0
  6
Continuous
 62
               7
100
AcDbVertex
100
AcDb2dVertex
 10
-666.25502790021824
 20
-448.03612190685362
 30
0.0
  0
VERTEX
  5
1FC
100
AcDbEntity
  8
ADF70-2303
370
              15
390
0
  6
Continuous
 62
               7
100
AcDbVertex
100
AcDb2dVertex
 10
-665.27065290021824
 20
-449.57030159435362
 30
0.0
  0
VERTEX
  5
1FD
100
AcDbEntity
  8
ADF70-2303
370
              15
390
0
  6
Continuous
 62
               7
100
AcDbVertex
100
AcDb2dVertex
 10
-664.27846540021824
 20
-451.10057503185362
 30
0.0
  0
VERTEX
  5
1FE
100
AcDbEntity
  8
ADF70-2303
370
              15
390
0
  6
Continuous
 62
               7
100
AcDbVertex
100
AcDb2dVertex
 10
-663.27065290021824
 20
-452.61912971935362
 30
0.0
  0
VERTEX
  5
1FF
100
AcDbEntity
  8
ADF70-2303
370
              15
390
0
  6
Continuous
 62
               7
100
AcDbVertex
100
AcDb2dVertex
 10
-662.24135602521824
 20
-454.12498909435362
 30
0.0
  0
VERTEX
  5
200
100
AcDbEntity
  8
ADF70-2303
370
              15
390
0
  6
Continuous
 62
               7
100
AcDbVertex
100
AcDb2dVertex
 10
-661.18715680646824
 20
-455.61229378185362
 30
0.0
  0
VERTEX
  5
201
100
AcDbEntity
  8
ADF70-2303
370
              15
390
0
  6
Continuous
 62
               7
100
AcDbVertex
100
AcDb2dVertex
 10
-660.10268415021824
 20
-457.07811409435362
 30
0.0
  0
VERTEX
  5
202
100
AcDbEntity
  8
ADF70-2303
370
              15
390
0
  6
Continuous
 62
               7
100
AcDbVertex
100
AcDb2dVertex
 10
-658.98354352521824
 20
-458.51756721935362
 30
0.0
  0
VERTEX
  5
203
100
AcDbEntity
  8
ADF70-2303
370
              15
390
0
  6
Continuous
 62
               7
100
AcDbVertex
100
AcDb2dVertex
 10
-657.82436383771824
 20
-459.92479378185362
 30
0.0
  0
VERTEX
  5
204
100
AcDbEntity
  8
ADF70-2303
370
              15
390
0
  6
Continuous
 62
               7
100
AcDbVertex
100
AcDb2dVertex
 10
-656.62075055646824
 20
-461.29491096935362
 30
0.0
  0
VERTEX
  5
205
100
AcDbEntity
  8
ADF70-2303
370
              15
390
0
  6
Continuous
 62
               7
100
AcDbVertex
100
AcDb2dVertex
 10
-655.36879743146824
 20
-462.61912971935362
 30
0.0
  0
VERTEX
  5
206
100
AcDbEntity
  8
ADF70-2303
370
              15
390
0
  6
Continuous
 62
               7
100
AcDbVertex
100
AcDb2dVertex
 10
-654.06313336896824
 20
-463.89159065685362
 30
0.0
  0
VERTEX
  5
207
100
AcDbEntity
  8
ADF70-2303
370
              15
390
0
  6
Continuous
 62
               7
100
AcDbVertex
100
AcDb2dVertex
 10
-652.70082868146824
 20
-465.10350471935362
 30
0.0
  0
VERTEX
  5
208
100
AcDbEntity
  8
ADF70-2303
370
              15
390
0
  6
Continuous
 62
               7
100
AcDbVertex
100
AcDb2dVertex
 10
-651.27895368146824
 20
-466.24510628185362
 30
0.0
  0
VERTEX
  5
209
100
AcDbEntity
  8
ADF70-2303
370
              15
390
0
  6
Continuous
 62
               7
100
AcDbVertex
100
AcDb2dVertex
 10
-649.79702008771824
 20
-467.30662971935362
 30
0.0
  0
VERTEX
  5
20A
100
AcDbEntity
  8
ADF70-2303
370
              15
390
0
  6
Continuous
 62
               7
100
AcDbVertex
100
AcDb2dVertex
 10
-648.25405133771824
 20
-468.27733284435362
 30
0.0
  0
VERTEX
  5
20B
100
AcDbEntity
  8
ADF70-2303
370
              15
390
0
  6
Continuous
 62
               7
100
AcDbVertex
100
AcDb2dVertex
 10
-646.65297711896824
 20
-469.14940315685362
 30
0.0
  0
VERTEX
  5
20C
100
AcDbEntity
  8
ADF70-2303
370
              15
390
0
  6
Continuous
 62
               7
100
AcDbVertex
100
AcDb2dVertex
 10
-644.99770368146824
 20
-469.91307503185362
 30
0.0
  0
VERTEX
  5
20D
100
AcDbEntity
  8
ADF70-2303
370
              15
390
0
  6
Continuous
 62
               7
100
AcDbVertex
100
AcDb2dVertex
 10
-643.29360211896824
 20
-470.56151253185362
 30
0.0
  0
VERTEX
  5
20E
100
AcDbEntity
  8
ADF70-2303
370
              15
390
0
  6
Continuous
 62
               7
100
AcDbVertex
100
AcDb2dVertex
 10
-641.54946149396824
 20
-471.09080940685362
 30
0.0
  0
VERTEX
  5
20F
100
AcDbEntity
  8
ADF70-2303
370
              15
390
0
  6
Continuous
 62
               7
100
AcDbVertex
100
AcDb2dVertex
 10
-639.77309430646824
 20
-471.49998909435362
 30
0.0
  0
VERTEX
  5
210
100
AcDbEntity
  8
ADF70-2303
370
              15
390
0
  6
Continuous
 62
               7
100
AcDbVertex
100
AcDb2dVertex
 10
-637.97328961896824
 20
-471.78905159435362
 30
0.0
  0
VERTEX
  5
211
100
AcDbEntity
  8
ADF70-2303
370
              15
390
0
  6
Continuous
 62
               7
100
AcDbVertex
100
AcDb2dVertex
 10
-636.15834821271824
 20
-471.96287971935362
 30
0.0
  0
VERTEX
  5
212
100
AcDbEntity
  8
ADF70-2303
370
              15
390
0
  6
Continuous
 62
               7
100
AcDbVertex
100
AcDb2dVertex
 10
-634.31899274396824
 20
-472.02635628185362
 30
0.0
  0
SEQEND
  5
213
100
AcDbEntity
  8
ADF70-2303
370
              15
390
0
  6
Continuous
 62
               7
  0
POLYLINE
  5
214
100
AcDbEntity
  8
ADF70-2303
370
              15
390
0
  6
Continuous
 62
               7
100
AcDb2dPolyline
 66
               1
 10
0.0
 20
0.0
 30
0.0
 75
               5
  0
VERTEX
  5
215
100
AcDbEntity
  8
ADF70-2303
370
              15
390
0
  6
Continuous
 62
               7
100
AcDbVertex
100
AcDb2dVertex
 10
-697.09926618146824
 20
-414.96287971935362
 30
0.0
  0
VERTEX
  5
216
100
AcDbEntity
  8
ADF70-2303
370
              15
390
0
  6
Continuous
 62
               7
100
AcDbVertex
100
AcDb2dVertex
 10
-697.20912946271824
 20
-414.42381721935362
 30
0.0
  0
VERTEX
  5
217
100
AcDbEntity
  8
ADF70-2303
370
              15
390
0
  6
Continuous
 62
               7
100
AcDbVertex
100
AcDb2dVertex
 10
-697.45180524396824
 20
-413.93065315685362
 30
0.0
  0
VERTEX
  5
218
100
AcDbEntity
  8
ADF70-2303
370
              15
390
0
  6
Continuous
 62
               7
100
AcDbVertex
100
AcDb2dVertex
 10
-697.79116071271824
 20
-413.49705940685362
 30
0.0
  0
VERTEX
  5
219
100
AcDbEntity
  8
ADF70-2303
370
              15
390
0
  6
Continuous
 62
               7
100
AcDbVertex
100
AcDb2dVertex
 10
-698.19057477521824
 20
-413.11717659435362
 30
0.0
  0
VERTEX
  5
21A
100
AcDbEntity
  8
ADF70-2303
370
              15
390
0
  6
Continuous
 62
               7
100
AcDbVertex
100
AcDb2dVertex
 10
-698.62465680646824
 20
-412.77733284435362
 30
0.0
  0
VERTEX
  5
21B
100
AcDbEntity
  8
ADF70-2303
370
              15
390
0
  6
Continuous
 62
               7
100
AcDbVertex
100
AcDb2dVertex
 10
-699.07827008771824
 20
-412.46385628185362
 30
0.0
  0
VERTEX
  5
21C
100
AcDbEntity
  8
ADF70-2303
370
              15
390
0
  6
Continuous
 62
               7
100
AcDbVertex
100
AcDb2dVertex
 10
-699.54164899396824
 20
-412.16502815685362
 30
0.0
  0
VERTEX
  5
21D
100
AcDbEntity
  8
ADF70-2303
370
              15
390
0
  6
Continuous
 62
               7
100
AcDbVertex
100
AcDb2dVertex
 10
-700.00844586896824
 20
-411.87205940685362
 30
0.0
  0
VERTEX
  5
21E
100
AcDbEntity
  8
ADF70-2303
370
              15
390
0
  6
Continuous
 62
               7
100
AcDbVertex
100
AcDb2dVertex
 10
-700.47231305646824
 20
-411.57323128185362
 30
0.0
  0
VERTEX
  5
21F
100
AcDbEntity
  8
ADF70-2303
370
              15
390
0
  6
Continuous
 62
               7
100
AcDbVertex
100
AcDb2dVertex
 10
-700.92592633771824
 20
-411.26073128185362
 30
0.0
  0
VERTEX
  5
220
100
AcDbEntity
  8
ADF70-2303
370
              15
390
0
  6
Continuous
 62
               7
100
AcDbVertex
100
AcDb2dVertex
 10
-701.36000836896824
 20
-410.92088753185362
 30
0.0
  0
VERTEX
  5
221
100
AcDbEntity
  8
ADF70-2303
370
              15
390
0
  6
Continuous
 62
               7
100
AcDbVertex
100
AcDb2dVertex
 10
-701.75942243146824
 20
-410.54100471935362
 30
0.0
  0
VERTEX
  5
222
100
AcDbEntity
  8
ADF70-2303
370
              15
390
0
  6
Continuous
 62
               7
100
AcDbVertex
100
AcDb2dVertex
 10
-702.09828961896824
 20
-410.10741096935362
 30
0.0
  0
VERTEX
  5
223
100
AcDbEntity
  8
ADF70-2303
370
              15
390
0
  6
Continuous
 62
               7
100
AcDbVertex
100
AcDb2dVertex
 10
-702.33950055646824
 20
-409.61327034435362
 30
0.0
  0
VERTEX
  5
224
100
AcDbEntity
  8
ADF70-2303
370
              15
390
0
  6
Continuous
 62
               7
100
AcDbVertex
100
AcDb2dVertex
 10
-702.44741071271824
 20
-409.05370003185362
 30
0.0
  0
SEQEND
  5
225
100
AcDbEntity
  8
ADF70-2303
370
              15
390
0
  6
Continuous
 62
               7
  0
LINE
  5
226
100
AcDbEntity
  8
ADF70-2303
370
              15
390
0
  6
Continuous
 62
               7
100
AcDbLine
 10
-696.44887555646824
 20
-424.27049690685362
 30
0.0
 11
-697.09926618146824
 21
-414.96287971935362
 31
0.0
  0
LINE
  5
227
100
AcDbEntity
  8
ADF70-2303
370
              15
390
0
  6
Continuous
 62
               7
100
AcDbLine
 10
-144.94496930646807
 20
-362.56151253185362
 30
0.0
 11
-147.44252790021807
 21
-409.05370003185362
 31
0.0
  0
ARC
  5
228
100
AcDbEntity
  8
ADF70-2303
370
              15
390
0
  6
Continuous
 62
               7
100
AcDbCircle
 10
-154.93032086896807
 20
-362.02537971935362
 30
0.0
 40
9.9997342074357327
100
AcDbArc
 50
356.92662998965181
 51
89.997202081283959
  0
ARC
  5
229
100
AcDbEntity
  8
ADF70-2303
370
              15
390
0
  6
Continuous
 62
               7
100
AcDbCircle
 10
-157.43813336896807
 20
-424.13084846935362
 30
0.0
 40
4.0
100
AcDbArc
 50
270.0
 51
357.99927543009903
  0
POLYLINE
  5
22A
100
AcDbEntity
  8
ADF70-2303
370
              15
390
0
  6
Continuous
 62
               7
100
AcDb2dPolyline
 66
               1
 10
0.0
 20
0.0
 30
0.0
 75
               5
  0
VERTEX
  5
22B
100
AcDbEntity
  8
ADF70-2303
370
              15
390
0
  6
Continuous
 62
               7
100
AcDbVertex
100
AcDb2dVertex
 10
-157.43813336896807
 20
-428.13084846935362
 30
0.0
  0
VERTEX
  5
22C
100
AcDbEntity
  8
ADF70-2303
370
              15
390
0
  6
Continuous
 62
               7
100
AcDbVertex
100
AcDb2dVertex
 10
-159.25991071271807
 20
-428.19237190685362
 30
0.0
  0
VERTEX
  5
22D
100
AcDbEntity
  8
ADF70-2303
370
              15
390
0
  6
Continuous
 62
               7
100
AcDbVertex
100
AcDb2dVertex
 10
-161.07241071271807
 20
-428.38670784435362
 30
0.0
  0
VERTEX
  5
22E
100
AcDbEntity
  8
ADF70-2303
370
              15
390
0
  6
Continuous
 62
               7
100
AcDbVertex
100
AcDb2dVertex
 10
-162.86440290021807
 20
-428.72069221935362
 30
0.0
  0
VERTEX
  5
22F
100
AcDbEntity
  8
ADF70-2303
370
              15
390
0
  6
Continuous
 62
               7
100
AcDbVertex
100
AcDb2dVertex
 10
-164.62221540021807
 20
-429.20311409435362
 30
0.0
  0
VERTEX
  5
230
100
AcDbEntity
  8
ADF70-2303
370
              15
390
0
  6
Continuous
 62
               7
100
AcDbVertex
100
AcDb2dVertex
 10
-166.33217633771807
 20
-429.83397346935362
 30
0.0
  0
VERTEX
  5
231
100
AcDbEntity
  8
ADF70-2303
370
              15
390
0
  6
Continuous
 62
               7
100
AcDbVertex
100
AcDb2dVertex
 10
-167.98159040021807
 20
-430.60936409435362
 30
0.0
  0
VERTEX
  5
232
100
AcDbEntity
  8
ADF70-2303
370
              15
390
0
  6
Continuous
 62
               7
100
AcDbVertex
100
AcDb2dVertex
 10
-169.56069196271807
 20
-431.52049690685362
 30
0.0
  0
VERTEX
  5
233
100
AcDbEntity
  8
ADF70-2303
370
              15
390
0
  6
Continuous
 62
               7
100
AcDbVertex
100
AcDb2dVertex
 10
-171.06215680646807
 20
-432.55370003185362
 30
0.0
  0
VERTEX
  5
234
100
AcDbEntity
  8
ADF70-2303
370
              15
390
0
  6
Continuous
 62
               7
100
AcDbVertex
100
AcDb2dVertex
 10
-172.48500836896807
 20
-433.69334846935362
 30
0.0
  0
VERTEX
  5
235
100
AcDbEntity
  8
ADF70-2303
370
              15
390
0
  6
Continuous
 62
               7
100
AcDbVertex
100
AcDb2dVertex
 10
-173.83071149396807
 20
-434.92381721935362
 30
0.0
  0
VERTEX
  5
236
100
AcDbEntity
  8
ADF70-2303
370
              15
390
0
  6
Continuous
 62
               7
100
AcDbVertex
100
AcDb2dVertex
 10
-175.10414899396807
 20
-436.22850471935362
 30
0.0
  0
VERTEX
  5
237
100
AcDbEntity
  8
ADF70-2303
370
              15
390
0
  6
Continuous
 62
               7
100
AcDbVertex
100
AcDb2dVertex
 10
-176.31166852521807
 20
-437.59471565685362
 30
0.0
  0
VERTEX
  5
238
100
AcDbEntity
  8
ADF70-2303
370
              15
390
0
  6
Continuous
 62
               7
100
AcDbVertex
100
AcDb2dVertex
 10
-177.46205915021807
 20
-439.00877815685362
 30
0.0
  0
VERTEX
  5
239
100
AcDbEntity
  8
ADF70-2303
370
              15
390
0
  6
Continuous
 62
               7
100
AcDbVertex
100
AcDb2dVertex
 10
-178.56362165021807
 20
-440.46092659435362
 30
0.0
  0
VERTEX
  5
23A
100
AcDbEntity
  8
ADF70-2303
370
              15
390
0
  6
Continuous
 62
               7
100
AcDbVertex
100
AcDb2dVertex
 10
-179.62465680646807
 20
-441.94432503185362
 30
0.0
  0
VERTEX
  5
23B
100
AcDbEntity
  8
ADF70-2303
370
              15
390
0
  6
Continuous
 62
               7
100
AcDbVertex
100
AcDb2dVertex
 10
-180.65444196271807
 20
-443.44920784435362
 30
0.0
  0
VERTEX
  5
23C
100
AcDbEntity
  8
ADF70-2303
370
              15
390
0
  6
Continuous
 62
               7
100
AcDbVertex
100
AcDb2dVertex
 10
-181.66030133771807
 20
-444.96971565685362
 30
0.0
  0
VERTEX
  5
23D
100
AcDbEntity
  8
ADF70-2303
370
              15
390
0
  6
Continuous
 62
               7
100
AcDbVertex
100
AcDb2dVertex
 10
-182.65053571271807
 20
-446.50096565685362
 30
0.0
  0
VERTEX
  5
23E
100
AcDbEntity
  8
ADF70-2303
370
              15
390
0
  6
Continuous
 62
               7
100
AcDbVertex
100
AcDb2dVertex
 10
-183.63442243146807
 20
-448.03612190685362
 30
0.0
  0
VERTEX
  5
23F
100
AcDbEntity
  8
ADF70-2303
370
              15
390
0
  6
Continuous
 62
               7
100
AcDbVertex
100
AcDb2dVertex
 10
-184.61879743146807
 20
-449.57030159435362
 30
0.0
  0
VERTEX
  5
240
100
AcDbEntity
  8
ADF70-2303
370
              15
390
0
  6
Continuous
 62
               7
100
AcDbVertex
100
AcDb2dVertex
 10
-185.61147321271807
 20
-451.10057503185362
 30
0.0
  0
VERTEX
  5
241
100
AcDbEntity
  8
ADF70-2303
370
              15
390
0
  6
Continuous
 62
               7
100
AcDbVertex
100
AcDb2dVertex
 10
-186.61928571271807
 20
-452.61912971935362
 30
0.0
  0
VERTEX
  5
242
100
AcDbEntity
  8
ADF70-2303
370
              15
390
0
  6
Continuous
 62
               7
100
AcDbVertex
100
AcDb2dVertex
 10
-187.64809430646807
 20
-454.12498909435362
 30
0.0
  0
VERTEX
  5
243
100
AcDbEntity
  8
ADF70-2303
370
              15
390
0
  6
Continuous
 62
               7
100
AcDbVertex
100
AcDb2dVertex
 10
-188.70278180646807
 20
-455.61229378185362
 30
0.0
  0
VERTEX
  5
244
100
AcDbEntity
  8
ADF70-2303
370
              15
390
0
  6
Continuous
 62
               7
100
AcDbVertex
100
AcDb2dVertex
 10
-189.78725446271807
 20
-457.07811409435362
 30
0.0
  0
VERTEX
  5
245
100
AcDbEntity
  8
ADF70-2303
370
              15
390
0
  6
Continuous
 62
               7
100
AcDbVertex
100
AcDb2dVertex
 10
-190.90639508771807
 20
-458.51756721935362
 30
0.0
  0
VERTEX
  5
246
100
AcDbEntity
  8
ADF70-2303
370
              15
390
0
  6
Continuous
 62
               7
100
AcDbVertex
100
AcDb2dVertex
 10
-192.06557477521807
 20
-459.92479378185362
 30
0.0
  0
VERTEX
  5
247
100
AcDbEntity
  8
ADF70-2303
370
              15
390
0
  6
Continuous
 62
               7
100
AcDbVertex
100
AcDb2dVertex
 10
-193.26869977521807
 20
-461.29491096935362
 30
0.0
  0
VERTEX
  5
248
100
AcDbEntity
  8
ADF70-2303
370
              15
390
0
  6
Continuous
 62
               7
100
AcDbVertex
100
AcDb2dVertex
 10
-194.52114118146807
 20
-462.61912971935362
 30
0.0
  0
VERTEX
  5
249
100
AcDbEntity
  8
ADF70-2303
370
              15
390
0
  6
Continuous
 62
               7
100
AcDbVertex
100
AcDb2dVertex
 10
-195.82680524396807
 20
-463.89159065685362
 30
0.0
  0
VERTEX
  5
24A
100
AcDbEntity
  8
ADF70-2303
370
              15
390
0
  6
Continuous
 62
               7
100
AcDbVertex
100
AcDb2dVertex
 10
-197.18910993146807
 20
-465.10350471935362
 30
0.0
  0
VERTEX
  5
24B
100
AcDbEntity
  8
ADF70-2303
370
              15
390
0
  6
Continuous
 62
               7
100
AcDbVertex
100
AcDb2dVertex
 10
-198.61049665021807
 20
-466.24510628185362
 30
0.0
  0
VERTEX
  5
24C
100
AcDbEntity
  8
ADF70-2303
370
              15
390
0
  6
Continuous
 62
               7
100
AcDbVertex
100
AcDb2dVertex
 10
-200.09291852521807
 20
-467.30662971935362
 30
0.0
  0
VERTEX
  5
24D
100
AcDbEntity
  8
ADF70-2303
370
              15
390
0
  6
Continuous
 62
               7
100
AcDbVertex
100
AcDb2dVertex
 10
-201.63588727521807
 20
-468.27733284435362
 30
0.0
  0
VERTEX
  5
24E
100
AcDbEntity
  8
ADF70-2303
370
              15
390
0
  6
Continuous
 62
               7
100
AcDbVertex
100
AcDb2dVertex
 10
-203.23696149396807
 20
-469.14940315685362
 30
0.0
  0
VERTEX
  5
24F
100
AcDbEntity
  8
ADF70-2303
370
              15
390
0
  6
Continuous
 62
               7
100
AcDbVertex
100
AcDb2dVertex
 10
-204.89223493146807
 20
-469.91307503185362
 30
0.0
  0
VERTEX
  5
250
100
AcDbEntity
  8
ADF70-2303
370
              15
390
0
  6
Continuous
 62
               7
100
AcDbVertex
100
AcDb2dVertex
 10
-206.59584821271807
 20
-470.56151253185362
 30
0.0
  0
VERTEX
  5
251
100
AcDbEntity
  8
ADF70-2303
370
              15
390
0
  6
Continuous
 62
               7
100
AcDbVertex
100
AcDb2dVertex
 10
-208.34047711896807
 20
-471.09080940685362
 30
0.0
  0
VERTEX
  5
252
100
AcDbEntity
  8
ADF70-2303
370
              15
390
0
  6
Continuous
 62
               7
100
AcDbVertex
100
AcDb2dVertex
 10
-210.11684430646807
 20
-471.49998909435362
 30
0.0
  0
VERTEX
  5
253
100
AcDbEntity
  8
ADF70-2303
370
              15
390
0
  6
Continuous
 62
               7
100
AcDbVertex
100
AcDb2dVertex
 10
-211.91664899396807
 20
-471.78905159435362
 30
0.0
  0
VERTEX
  5
254
100
AcDbEntity
  8
ADF70-2303
370
              15
390
0
  6
Continuous
 62
               7
100
AcDbVertex
100
AcDb2dVertex
 10
-213.73159040021807
 20
-471.96287971935362
 30
0.0
  0
VERTEX
  5
255
100
AcDbEntity
  8
ADF70-2303
370
              15
390
0
  6
Continuous
 62
               7
100
AcDbVertex
100
AcDb2dVertex
 10
-215.57094586896807
 20
-472.02635628185362
 30
0.0
  0
SEQEND
  5
256
100
AcDbEntity
  8
ADF70-2303
370
              15
390
0
  6
Continuous
 62
               7
  0
POLYLINE
  5
257
100
AcDbEntity
  8
ADF70-2303
370
              15
390
0
  6
Continuous
 62
               7
100
AcDb2dPolyline
 66
               1
 10
0.0
 20
0.0
 30
0.0
 75
               5
  0
VERTEX
  5
258
100
AcDbEntity
  8
ADF70-2303
370
              15
390
0
  6
Continuous
 62
               7
100
AcDbVertex
100
AcDb2dVertex
 10
-152.79067243146807
 20
-414.96287971935362
 30
0.0
  0
VERTEX
  5
259
100
AcDbEntity
  8
ADF70-2303
370
              15
390
0
  6
Continuous
 62
               7
100
AcDbVertex
100
AcDb2dVertex
 10
-152.68032086896807
 20
-414.42381721935362
 30
0.0
  0
VERTEX
  5
25A
100
AcDbEntity
  8
ADF70-2303
370
              15
390
0
  6
Continuous
 62
               7
100
AcDbVertex
100
AcDb2dVertex
 10
-152.43813336896807
 20
-413.93065315685362
 30
0.0
  0
VERTEX
  5
25B
100
AcDbEntity
  8
ADF70-2303
370
              15
390
0
  6
Continuous
 62
               7
100
AcDbVertex
100
AcDb2dVertex
 10
-152.09877790021807
 20
-413.49705940685362
 30
0.0
  0
VERTEX
  5
25C
100
AcDbEntity
  8
ADF70-2303
370
              15
390
0
  6
Continuous
 62
               7
100
AcDbVertex
100
AcDb2dVertex
 10
-151.69936383771807
 20
-413.11717659435362
 30
0.0
  0
VERTEX
  5
25D
100
AcDbEntity
  8
ADF70-2303
370
              15
390
0
  6
Continuous
 62
               7
100
AcDbVertex
100
AcDb2dVertex
 10
-151.26528180646807
 20
-412.77733284435362
 30
0.0
  0
VERTEX
  5
25E
100
AcDbEntity
  8
ADF70-2303
370
              15
390
0
  6
Continuous
 62
               7
100
AcDbVertex
100
AcDb2dVertex
 10
-150.81166852521807
 20
-412.46385628185362
 30
0.0
  0
VERTEX
  5
25F
100
AcDbEntity
  8
ADF70-2303
370
              15
390
0
  6
Continuous
 62
               7
100
AcDbVertex
100
AcDb2dVertex
 10
-150.34780133771807
 20
-412.16502815685362
 30
0.0
  0
VERTEX
  5
260
100
AcDbEntity
  8
ADF70-2303
370
              15
390
0
  6
Continuous
 62
               7
100
AcDbVertex
100
AcDb2dVertex
 10
-149.88149274396807
 20
-411.87205940685362
 30
0.0
  0
VERTEX
  5
261
100
AcDbEntity
  8
ADF70-2303
370
              15
390
0
  6
Continuous
 62
               7
100
AcDbVertex
100
AcDb2dVertex
 10
-149.41762555646807
 20
-411.57323128185362
 30
0.0
  0
VERTEX
  5
262
100
AcDbEntity
  8
ADF70-2303
370
              15
390
0
  6
Continuous
 62
               7
100
AcDbVertex
100
AcDb2dVertex
 10
-148.96401227521807
 20
-411.26073128185362
 30
0.0
  0
VERTEX
  5
263
100
AcDbEntity
  8
ADF70-2303
370
              15
390
0
  6
Continuous
 62
               7
100
AcDbVertex
100
AcDb2dVertex
 10
-148.52944196271807
 20
-410.92088753185362
 30
0.0
  0
VERTEX
  5
264
100
AcDbEntity
  8
ADF70-2303
370
              15
390
0
  6
Continuous
 62
               7
100
AcDbVertex
100
AcDb2dVertex
 10
-148.13051618146807
 20
-410.54100471935362
 30
0.0
  0
VERTEX
  5
265
100
AcDbEntity
  8
ADF70-2303
370
              15
390
0
  6
Continuous
 62
               7
100
AcDbVertex
100
AcDb2dVertex
 10
-147.79116071271807
 20
-410.10741096935362
 30
0.0
  0
VERTEX
  5
266
100
AcDbEntity
  8
ADF70-2303
370
              15
390
0
  6
Continuous
 62
               7
100
AcDbVertex
100
AcDb2dVertex
 10
-147.55043805646807
 20
-409.61327034435362
 30
0.0
  0
VERTEX
  5
267
100
AcDbEntity
  8
ADF70-2303
370
              15
390
0
  6
Continuous
 62
               7
100
AcDbVertex
100
AcDb2dVertex
 10
-147.44252790021807
 20
-409.05370003185362
 30
0.0
  0
SEQEND
  5
268
100
AcDbEntity
  8
ADF70-2303
370
              15
390
0
  6
Continuous
 62
               7
  0
LINE
  5
269
100
AcDbEntity
  8
ADF70-2303
370
              15
390
0
  6
Continuous
 62
               7
100
AcDbLine
 10
-153.44106305646807
 20
-424.27049690685362
 30
0.0
 11
-152.79067243146807
 21
-414.96287971935362
 31
0.0
  0
LINE
  5
26A
100
AcDbEntity
  8
ADF70-2303
370
              15
390
0
  6
Continuous
 62
               7
100
AcDbLine
 10
-702.44741071271824
 20
-409.05370003185362
 30
0.0
 11
-147.44252790021807
 21
-409.05370003185362
 31
0.0
  0
LINE
  5
26B
100
AcDbEntity
  8
ADF70-2303
370
              15
390
0
  6
Continuous
 62
               7
100
AcDbLine
 10
-526.39711774396824
 20
-520.47850471935362
 30
0.0
 11
-323.37758649396807
 21
-520.47850471935362
 31
0.0
  0
ARC
  5
26C
100
AcDbEntity
  8
ADF70-2303
370
              15
390
0
  6
Continuous
 62
               7
100
AcDbCircle
 10
-601.09926618146824
 20
-482.02635628185362
 30
0.0
 40
10.000198839118122
100
AcDbArc
 50
51.16804889484456
 51
90.0
  0
ARC
  5
26D
100
AcDbEntity
  8
ADF70-2303
370
              15
390
0
  6
Continuous
 62
               7
100
AcDbCircle
 10
-248.67543805646807
 20
-482.02635628185362
 30
0.0
 40
10.0
100
AcDbArc
 50
90.0
 51
128.83195110515547
  0
LINE
  5
26E
100
AcDbEntity
  8
ADF70-2303
370
              15
390
0
  6
Continuous
 62
               7
100
AcDbLine
 10
-634.31899274396824
 20
-472.02635628185362
 30
0.0
 11
-215.57094586896807
 21
-472.02635628185362
 31
0.0
  0
POLYLINE
  5
26F
100
AcDbEntity
  8
ADF70-2303
370
              15
390
0
  6
Continuous
 62
               7
100
AcDb2dPolyline
 66
               1
 10
0.0
 20
0.0
 30
0.0
 75
               5
  0
VERTEX
  5
270
100
AcDbEntity
  8
ADF70-2303
370
              15
390
0
  6
Continuous
 62
               7
100
AcDbVertex
100
AcDb2dVertex
 10
-307.77748883771807
 20
-500.83299690685362
 30
0.0
  0
VERTEX
  5
271
100
AcDbEntity
  8
ADF70-2303
370
              15
390
0
  6
Continuous
 62
               7
100
AcDbVertex
100
AcDb2dVertex
 10
-309.03090680646807
 20
-501.27245003185362
 30
0.0
  0
VERTEX
  5
272
100
AcDbEntity
  8
ADF70-2303
370
              15
390
0
  6
Continuous
 62
               7
100
AcDbVertex
100
AcDb2dVertex
 10
-310.22914899396807
 20
-501.84080940685362
 30
0.0
  0
VERTEX
  5
273
100
AcDbEntity
  8
ADF70-2303
370
              15
390
0
  6
Continuous
 62
               7
100
AcDbVertex
100
AcDb2dVertex
 10
-311.36977399396807
 20
-502.52830940685362
 30
0.0
  0
VERTEX
  5
274
100
AcDbEntity
  8
ADF70-2303
370
              15
390
0
  6
Continuous
 62
               7
100
AcDbVertex
100
AcDb2dVertex
 10
-312.45229352521807
 20
-503.32420784435362
 30
0.0
  0
VERTEX
  5
275
100
AcDbEntity
  8
ADF70-2303
370
              15
390
0
  6
Continuous
 62
               7
100
AcDbVertex
100
AcDb2dVertex
 10
-313.47475446271807
 20
-504.22069221935362
 30
0.0
  0
VERTEX
  5
276
100
AcDbEntity
  8
ADF70-2303
370
              15
390
0
  6
Continuous
 62
               7
100
AcDbVertex
100
AcDb2dVertex
 10
-314.43666852521807
 20
-505.20604378185362
 30
0.0
  0
VERTEX
  5
277
100
AcDbEntity
  8
ADF70-2303
370
              15
390
0
  6
Continuous
 62
               7
100
AcDbVertex
100
AcDb2dVertex
 10
-315.33608258771807
 20
-506.27342659435362
 30
0.0
  0
VERTEX
  5
278
100
AcDbEntity
  8
ADF70-2303
370
              15
390
0
  6
Continuous
 62
               7
100
AcDbVertex
100
AcDb2dVertex
 10
-316.17153180646807
 20
-507.41112190685362
 30
0.0
  0
VERTEX
  5
279
100
AcDbEntity
  8
ADF70-2303
370
              15
390
0
  6
Continuous
 62
               7
100
AcDbVertex
100
AcDb2dVertex
 10
-316.94252790021807
 20
-508.61034065685362
 30
0.0
  0
VERTEX
  5
27A
100
AcDbEntity
  8
ADF70-2303
370
              15
390
0
  6
Continuous
 62
               7
100
AcDbVertex
100
AcDb2dVertex
 10
-317.64711774396807
 20
-509.86131721935362
 30
0.0
  0
VERTEX
  5
27B
100
AcDbEntity
  8
ADF70-2303
370
              15
390
0
  6
Continuous
 62
               7
100
AcDbVertex
100
AcDb2dVertex
 10
-318.28383649396807
 20
-511.15526253185362
 30
0.0
  0
VERTEX
  5
27C
100
AcDbEntity
  8
ADF70-2303
370
              15
390
0
  6
Continuous
 62
               7
100
AcDbVertex
100
AcDb2dVertex
 10
-318.85219586896807
 20
-512.48143440685362
 30
0.0
  0
VERTEX
  5
27D
100
AcDbEntity
  8
ADF70-2303
370
              15
390
0
  6
Continuous
 62
               7
100
AcDbVertex
100
AcDb2dVertex
 10
-319.35024274396807
 20
-513.83104378185362
 30
0.0
  0
VERTEX
  5
27E
100
AcDbEntity
  8
ADF70-2303
370
              15
390
0
  6
Continuous
 62
               7
100
AcDbVertex
100
AcDb2dVertex
 10
-319.77651227521807
 20
-515.19530159435362
 30
0.0
  0
VERTEX
  5
27F
100
AcDbEntity
  8
ADF70-2303
370
              15
390
0
  6
Continuous
 62
               7
100
AcDbVertex
100
AcDb2dVertex
 10
-320.13002790021807
 20
-516.56248909435362
 30
0.0
  0
VERTEX
  5
280
100
AcDbEntity
  8
ADF70-2303
370
              15
390
0
  6
Continuous
 62
               7
100
AcDbVertex
100
AcDb2dVertex
 10
-320.42250836896807
 20
-517.99803596935362
 30
0.0
  0
SEQEND
  5
281
100
AcDbEntity
  8
ADF70-2303
370
              15
390
0
  6
Continuous
 62
               7
  0
POLYLINE
  5
282
100
AcDbEntity
  8
ADF70-2303
370
              15
390
0
  6
Continuous
 62
               7
100
AcDb2dPolyline
 66
               1
 10
0.0
 20
0.0
 30
0.0
 75
               5
  0
VERTEX
  5
283
100
AcDbEntity
  8
ADF70-2303
370
              15
390
0
  6
Continuous
 62
               7
100
AcDbVertex
100
AcDb2dVertex
 10
-254.94594586896807
 20
-474.23631721935362
 30
0.0
  0
VERTEX
  5
284
100
AcDbEntity
  8
ADF70-2303
370
              15
390
0
  6
Continuous
 62
               7
100
AcDbVertex
100
AcDb2dVertex
 10
-258.39516461896807
 20
-476.91795784435362
 30
0.0
  0
VERTEX
  5
285
100
AcDbEntity
  8
ADF70-2303
370
              15
390
0
  6
Continuous
 62
               7
100
AcDbVertex
100
AcDb2dVertex
 10
-261.90737165021807
 20
-479.46580940685362
 30
0.0
  0
VERTEX
  5
286
100
AcDbEntity
  8
ADF70-2303
370
              15
390
0
  6
Continuous
 62
               7
100
AcDbVertex
100
AcDb2dVertex
 10
-265.47817243146807
 20
-481.88084846935362
 30
0.0
  0
VERTEX
  5
287
100
AcDbEntity
  8
ADF70-2303
370
              15
390
0
  6
Continuous
 62
               7
100
AcDbVertex
100
AcDb2dVertex
 10
-269.10463727521807
 20
-484.16893440685362
 30
0.0
  0
VERTEX
  5
288
100
AcDbEntity
  8
ADF70-2303
370
              15
390
0
  6
Continuous
 62
               7
100
AcDbVertex
100
AcDb2dVertex
 10
-272.78285993146807
 20
-486.33104378185362
 30
0.0
  0
VERTEX
  5
289
100
AcDbEntity
  8
ADF70-2303
370
              15
390
0
  6
Continuous
 62
               7
100
AcDbVertex
100
AcDb2dVertex
 10
-276.50893415021807
 20
-488.37205940685362
 30
0.0
  0
VERTEX
  5
28A
100
AcDbEntity
  8
ADF70-2303
370
              15
390
0
  6
Continuous
 62
               7
100
AcDbVertex
100
AcDb2dVertex
 10
-280.27993024396807
 20
-490.29588753185362
 30
0.0
  0
VERTEX
  5
28B
100
AcDbEntity
  8
ADF70-2303
370
              15
390
0
  6
Continuous
 62
               7
100
AcDbVertex
100
AcDb2dVertex
 10
-284.09194196271807
 20
-492.10545784435362
 30
0.0
  0
VERTEX
  5
28C
100
AcDbEntity
  8
ADF70-2303
370
              15
390
0
  6
Continuous
 62
               7
100
AcDbVertex
100
AcDb2dVertex
 10
-287.94203961896807
 20
-493.80565315685362
 30
0.0
  0
VERTEX
  5
28D
100
AcDbEntity
  8
ADF70-2303
370
              15
390
0
  6
Continuous
 62
               7
100
AcDbVertex
100
AcDb2dVertex
 10
-291.82729352521807
 20
-495.39940315685362
 30
0.0
  0
VERTEX
  5
28E
100
AcDbEntity
  8
ADF70-2303
370
              15
390
0
  6
Continuous
 62
               7
100
AcDbVertex
100
AcDb2dVertex
 10
-295.74477399396807
 20
-496.89256721935362
 30
0.0
  0
VERTEX
  5
28F
100
AcDbEntity
  8
ADF70-2303
370
              15
390
0
  6
Continuous
 62
               7
100
AcDbVertex
100
AcDb2dVertex
 10
-299.69106305646807
 20
-498.28709846935362
 30
0.0
  0
VERTEX
  5
290
100
AcDbEntity
  8
ADF70-2303
370
              15
390
0
  6
Continuous
 62
               7
100
AcDbVertex
100
AcDb2dVertex
 10
-303.66420758771807
 20
-499.58787971935362
 30
0.0
  0
VERTEX
  5
291
100
AcDbEntity
  8
ADF70-2303
370
              15
390
0
  6
Continuous
 62
               7
100
AcDbVertex
100
AcDb2dVertex
 10
-307.77748883771807
 20
-500.83299690685362
 30
0.0
  0
SEQEND
  5
292
100
AcDbEntity
  8
ADF70-2303
370
              15
390
0
  6
Continuous
 62
               7
  0
ARC
  5
293
100
AcDbEntity
  8
ADF70-2303
370
              15
390
0
  6
Continuous
 62
               7
100
AcDbCircle
 10
-323.37758649396807
 20
-517.47850471935362
 30
0.0
 40
3.0
100
AcDbArc
 50
270.0
 51
350.02874964228948
  0
ARC
  5
294
100
AcDbEntity
  8
ADF70-2303
370
              15
390
0
  6
Continuous
 62
               7
100
AcDbCircle
 10
-526.39711774396824
 20
-517.47850471935362
 30
0.0
 40
3.00039988077924
100
AcDbArc
 50
189.97125035771046
 51
270.0
  0
POLYLINE
  5
295
100
AcDbEntity
  8
ADF70-2303
370
              15
390
0
  6
Continuous
 62
               7
100
AcDb2dPolyline
 66
               1
 10
0.0
 20
0.0
 30
0.0
 75
               5
  0
VERTEX
  5
296
100
AcDbEntity
  8
ADF70-2303
370
              15
390
0
  6
Continuous
 62
               7
100
AcDbVertex
100
AcDb2dVertex
 10
-541.99721540021824
 20
-500.83299690685362
 30
0.0
  0
VERTEX
  5
297
100
AcDbEntity
  8
ADF70-2303
370
              15
390
0
  6
Continuous
 62
               7
100
AcDbVertex
100
AcDb2dVertex
 10
-540.74330915021824
 20
-501.27245003185362
 30
0.0
  0
VERTEX
  5
298
100
AcDbEntity
  8
ADF70-2303
370
              15
390
0
  6
Continuous
 62
               7
100
AcDbVertex
100
AcDb2dVertex
 10
-539.54555524396824
 20
-501.84080940685362
 30
0.0
  0
VERTEX
  5
299
100
AcDbEntity
  8
ADF70-2303
370
              15
390
0
  6
Continuous
 62
               7
100
AcDbVertex
100
AcDb2dVertex
 10
-538.40493024396824
 20
-502.52830940685362
 30
0.0
  0
VERTEX
  5
29A
100
AcDbEntity
  8
ADF70-2303
370
              15
390
0
  6
Continuous
 62
               7
100
AcDbVertex
100
AcDb2dVertex
 10
-537.32241071271824
 20
-503.32420784435362
 30
0.0
  0
VERTEX
  5
29B
100
AcDbEntity
  8
ADF70-2303
370
              15
390
0
  6
Continuous
 62
               7
100
AcDbVertex
100
AcDb2dVertex
 10
-536.29946149396824
 20
-504.22069221935362
 30
0.0
  0
VERTEX
  5
29C
100
AcDbEntity
  8
ADF70-2303
370
              15
390
0
  6
Continuous
 62
               7
100
AcDbVertex
100
AcDb2dVertex
 10
-535.33803571271824
 20
-505.20604378185362
 30
0.0
  0
VERTEX
  5
29D
100
AcDbEntity
  8
ADF70-2303
370
              15
390
0
  6
Continuous
 62
               7
100
AcDbVertex
100
AcDb2dVertex
 10
-534.43862165021824
 20
-506.27342659435362
 30
0.0
  0
VERTEX
  5
29E
100
AcDbEntity
  8
ADF70-2303
370
              15
390
0
  6
Continuous
 62
               7
100
AcDbVertex
100
AcDb2dVertex
 10
-533.60268415021824
 20
-507.41112190685362
 30
0.0
  0
VERTEX
  5
29F
100
AcDbEntity
  8
ADF70-2303
370
              15
390
0
  6
Continuous
 62
               7
100
AcDbVertex
100
AcDb2dVertex
 10
-532.83217633771824
 20
-508.61034065685362
 30
0.0
  0
VERTEX
  5
2A0
100
AcDbEntity
  8
ADF70-2303
370
              15
390
0
  6
Continuous
 62
               7
100
AcDbVertex
100
AcDb2dVertex
 10
-532.12758649396824
 20
-509.86131721935362
 30
0.0
  0
VERTEX
  5
2A1
100
AcDbEntity
  8
ADF70-2303
370
              15
390
0
  6
Continuous
 62
               7
100
AcDbVertex
100
AcDb2dVertex
 10
-531.49037946271824
 20
-511.15526253185362
 30
0.0
  0
VERTEX
  5
2A2
100
AcDbEntity
  8
ADF70-2303
370
              15
390
0
  6
Continuous
 62
               7
100
AcDbVertex
100
AcDb2dVertex
 10
-530.92250836896824
 20
-512.48143440685362
 30
0.0
  0
VERTEX
  5
2A3
100
AcDbEntity
  8
ADF70-2303
370
              15
390
0
  6
Continuous
 62
               7
100
AcDbVertex
100
AcDb2dVertex
 10
-530.42446149396824
 20
-513.83104378185362
 30
0.0
  0
VERTEX
  5
2A4
100
AcDbEntity
  8
ADF70-2303
370
              15
390
0
  6
Continuous
 62
               7
100
AcDbVertex
100
AcDb2dVertex
 10
-529.99819196271824
 20
-515.19530159435362
 30
0.0
  0
VERTEX
  5
2A5
100
AcDbEntity
  8
ADF70-2303
370
              15
390
0
  6
Continuous
 62
               7
100
AcDbVertex
100
AcDb2dVertex
 10
-529.64467633771824
 20
-516.56248909435362
 30
0.0
  0
VERTEX
  5
2A6
100
AcDbEntity
  8
ADF70-2303
370
              15
390
0
  6
Continuous
 62
               7
100
AcDbVertex
100
AcDb2dVertex
 10
-529.35219586896824
 20
-517.99803596935362
 30
0.0
  0
SEQEND
  5
2A7
100
AcDbEntity
  8
ADF70-2303
370
              15
390
0
  6
Continuous
 62
               7
  0
POLYLINE
  5
2A8
100
AcDbEntity
  8
ADF70-2303
370
              15
390
0
  6
Continuous
 62
               7
100
AcDb2dPolyline
 66
               1
 10
0.0
 20
0.0
 30
0.0
 75
               5
  0
VERTEX
  5
2A9
100
AcDbEntity
  8
ADF70-2303
370
              15
390
0
  6
Continuous
 62
               7
100
AcDbVertex
100
AcDb2dVertex
 10
-594.82875836896824
 20
-474.23631721935362
 30
0.0
  0
VERTEX
  5
2AA
100
AcDbEntity
  8
ADF70-2303
370
              15
390
0
  6
Continuous
 62
               7
100
AcDbVertex
100
AcDb2dVertex
 10
-591.37953961896824
 20
-476.91795784435362
 30
0.0
  0
VERTEX
  5
2AB
100
AcDbEntity
  8
ADF70-2303
370
              15
390
0
  6
Continuous
 62
               7
100
AcDbVertex
100
AcDb2dVertex
 10
-587.86733258771824
 20
-479.46580940685362
 30
0.0
  0
VERTEX
  5
2AC
100
AcDbEntity
  8
ADF70-2303
370
              15
390
0
  6
Continuous
 62
               7
100
AcDbVertex
100
AcDb2dVertex
 10
-584.29604352521824
 20
-481.88084846935362
 30
0.0
  0
VERTEX
  5
2AD
100
AcDbEntity
  8
ADF70-2303
370
              15
390
0
  6
Continuous
 62
               7
100
AcDbVertex
100
AcDb2dVertex
 10
-580.66957868146824
 20
-484.16893440685362
 30
0.0
  0
VERTEX
  5
2AE
100
AcDbEntity
  8
ADF70-2303
370
              15
390
0
  6
Continuous
 62
               7
100
AcDbVertex
100
AcDb2dVertex
 10
-576.99184430646824
 20
-486.33104378185362
 30
0.0
  0
VERTEX
  5
2AF
100
AcDbEntity
  8
ADF70-2303
370
              15
390
0
  6
Continuous
 62
               7
100
AcDbVertex
100
AcDb2dVertex
 10
-573.26577008771824
 20
-488.37205940685362
 30
0.0
  0
VERTEX
  5
2B0
100
AcDbEntity
  8
ADF70-2303
370
              15
390
0
  6
Continuous
 62
               7
100
AcDbVertex
100
AcDb2dVertex
 10
-569.49477399396824
 20
-490.29588753185362
 30
0.0
  0
VERTEX
  5
2B1
100
AcDbEntity
  8
ADF70-2303
370
              15
390
0
  6
Continuous
 62
               7
100
AcDbVertex
100
AcDb2dVertex
 10
-565.68276227521824
 20
-492.10545784435362
 30
0.0
  0
VERTEX
  5
2B2
100
AcDbEntity
  8
ADF70-2303
370
              15
390
0
  6
Continuous
 62
               7
100
AcDbVertex
100
AcDb2dVertex
 10
-561.83217633771824
 20
-493.80565315685362
 30
0.0
  0
VERTEX
  5
2B3
100
AcDbEntity
  8
ADF70-2303
370
              15
390
0
  6
Continuous
 62
               7
100
AcDbVertex
100
AcDb2dVertex
 10
-557.94741071271824
 20
-495.39940315685362
 30
0.0
  0
VERTEX
  5
2B4
100
AcDbEntity
  8
ADF70-2303
370
              15
390
0
  6
Continuous
 62
               7
100
AcDbVertex
100
AcDb2dVertex
 10
-554.02993024396824
 20
-496.89256721935362
 30
0.0
  0
VERTEX
  5
2B5
100
AcDbEntity
  8
ADF70-2303
370
              15
390
0
  6
Continuous
 62
               7
100
AcDbVertex
100
AcDb2dVertex
 10
-550.08315290021824
 20
-498.28709846935362
 30
0.0
  0
VERTEX
  5
2B6
100
AcDbEntity
  8
ADF70-2303
370
              15
390
0
  6
Continuous
 62
               7
100
AcDbVertex
100
AcDb2dVertex
 10
-546.11049665021824
 20
-499.58787971935362
 30
0.0
  0
VERTEX
  5
2B7
100
AcDbEntity
  8
ADF70-2303
370
              15
390
0
  6
Continuous
 62
               7
100
AcDbVertex
100
AcDb2dVertex
 10
-541.99721540021824
 20
-500.83299690685362
 30
0.0
  0
SEQEND
  5
2B8
100
AcDbEntity
  8
ADF70-2303
370
              15
390
0
  6
Continuous
 62
               7
  0
ARC
  5
2B9
100
AcDbEntity
  8
ADF70-2303
370
              15
390
0
  6
Continuous
 62
               7
100
AcDbCircle
 10
450.74724259473385
 20
-549.03026253185362
 30
0.0
 40
2.99972024248981
100
AcDbArc
 50
185.0052900255196
 51
270.0
  0
LINE
  5
2BA
100
AcDbEntity
  8
ADF70-2303
370
              15
390
0
  6
Continuous
 62
               7
100
AcDbLine
 10
507.03386368848385
 20
-552.03026253185362
 30
0.0
 11
456.96306290723385
 21
-552.03026253185362
 31
0.0
  0
LINE
  5
2BB
100
AcDbEntity
  8
ADF70-2303
370
              15
390
0
  6
Continuous
 62
               7
100
AcDbLine
 10
545.2579847822343
 20
-532.85838753185362
 30
0.0
 11
517.26921525098396
 21
-547.56541878185362
 31
0.0
  0
LINE
  5
2BC
100
AcDbEntity
  8
ADF70-2303
370
              15
390
0
  6
Continuous
 62
               7
100
AcDbLine
 10
456.96306290723385
 20
-552.03026253185362
 30
0.0
 11
450.74724259473385
 21
-552.03026253185362
 31
0.0
  0
LINE
  5
2BD
100
AcDbEntity
  8
ADF70-2303
370
              15
390
0
  6
Continuous
 62
               7
100
AcDbLine
 10
513.24919571973385
 20
-552.03026253185362
 30
0.0
 11
507.03386368848385
 21
-552.03026253185362
 31
0.0
  0
ARC
  5
2BE
100
AcDbEntity
  8
ADF70-2303
370
              15
390
0
  6
STYLE_12
 62
               7
100
AcDbCircle
 10
507.65300431348385
 20
-507.55897346935365
 30
0.0
 40
2.0001500192644546
100
AcDbArc
 50
129.99898592308571
 51
178.99270546915184
  0
LINE
  5
2BF
100
AcDbEntity
  8
ADF70-2303
370
              15
390
0
  6
STYLE_12
 62
               7
100
AcDbLine
 10
505.67937150098385
 20
-506.60291878185365
 30
0.0
 11
515.65886368848385
 21
-498.23084846935365
 31
0.0
  0
LINE
  5
2C0
100
AcDbEntity
  8
ADF70-2303
370
              15
390
0
  6
Continuous
 62
               7
100
AcDbLine
 10
265.07683243848385
 20
-409.05760628185362
 30
0.0
 11
262.64030900098385
 21
-362.56151253185362
 31
0.0
  0
LINE
  5
2C1
100
AcDbEntity
  8
ADF70-2303
370
              15
390
0
  6
Continuous
 62
               7
100
AcDbLine
 10
702.64030900098442
 20
-352.03026253185362
 30
0.0
 11
272.62663712598385
 21
-352.03026253185362
 31
0.0
  0
ARC
  5
2C2
100
AcDbEntity
  8
ADF70-2303
370
              15
390
0
  6
Continuous
 62
               7
100
AcDbCircle
 10
275.07292618848385
 20
-424.13475471935362
 30
0.0
 40
3.9999970495689956
100
AcDbArc
 50
182.00072456990097
 51
269.99300588632462
  0
POLYLINE
  5
2C3
100
AcDbEntity
  8
ADF70-2303
370
              15
390
0
  6
Continuous
 62
               7
100
AcDb2dPolyline
 66
               1
 10
0.0
 20
0.0
 30
0.0
 75
               5
  0
VERTEX
  5
2C4
100
AcDbEntity
  8
ADF70-2303
370
              15
390
0
  6
Continuous
 62
               7
100
AcDbVertex
100
AcDb2dVertex
 10
275.07243790723385
 20
-428.13475471935362
 30
0.0
  0
VERTEX
  5
2C5
100
AcDbEntity
  8
ADF70-2303
370
              15
390
0
  6
Continuous
 62
               7
100
AcDbVertex
100
AcDb2dVertex
 10
276.89812150098385
 20
-428.19725471935362
 30
0.0
  0
VERTEX
  5
2C6
100
AcDbEntity
  8
ADF70-2303
370
              15
390
0
  6
Continuous
 62
               7
100
AcDbVertex
100
AcDb2dVertex
 10
278.71501603223385
 20
-428.39159065685362
 30
0.0
  0
VERTEX
  5
2C7
100
AcDbEntity
  8
ADF70-2303
370
              15
390
0
  6
Continuous
 62
               7
100
AcDbVertex
100
AcDb2dVertex
 10
280.50993790723385
 20
-428.72752815685362
 30
0.0
  0
VERTEX
  5
2C8
100
AcDbEntity
  8
ADF70-2303
370
              15
390
0
  6
Continuous
 62
               7
100
AcDbVertex
100
AcDb2dVertex
 10
282.27165665723385
 20
-429.21190315685362
 30
0.0
  0
VERTEX
  5
2C9
100
AcDbEntity
  8
ADF70-2303
370
              15
390
0
  6
Continuous
 62
               7
100
AcDbVertex
100
AcDb2dVertex
 10
283.98454728223385
 20
-429.84569221935362
 30
0.0
  0
VERTEX
  5
2CA
100
AcDbEntity
  8
ADF70-2303
370
              15
390
0
  6
Continuous
 62
               7
100
AcDbVertex
100
AcDb2dVertex
 10
285.63689103223385
 20
-430.62401253185362
 30
0.0
  0
VERTEX
  5
2CB
100
AcDbEntity
  8
ADF70-2303
370
              15
390
0
  6
Continuous
 62
               7
100
AcDbVertex
100
AcDb2dVertex
 10
287.21794571973385
 20
-431.53905159435362
 30
0.0
  0
VERTEX
  5
2CC
100
AcDbEntity
  8
ADF70-2303
370
              15
390
0
  6
Continuous
 62
               7
100
AcDbVertex
100
AcDb2dVertex
 10
288.72185196973385
 20
-432.57616096935362
 30
0.0
  0
VERTEX
  5
2CD
100
AcDbEntity
  8
ADF70-2303
370
              15
390
0
  6
Continuous
 62
               7
100
AcDbVertex
100
AcDb2dVertex
 10
290.14616837598385
 20
-433.71971565685362
 30
0.0
  0
VERTEX
  5
2CE
100
AcDbEntity
  8
ADF70-2303
370
              15
390
0
  6
Continuous
 62
               7
100
AcDbVertex
100
AcDb2dVertex
 10
291.49284806348385
 20
-434.95409065685362
 30
0.0
  0
VERTEX
  5
2CF
100
AcDbEntity
  8
ADF70-2303
370
              15
390
0
  6
Continuous
 62
               7
100
AcDbVertex
100
AcDb2dVertex
 10
292.76726212598385
 20
-436.26366096935362
 30
0.0
  0
VERTEX
  5
2D0
100
AcDbEntity
  8
ADF70-2303
370
              15
390
0
  6
Continuous
 62
               7
100
AcDbVertex
100
AcDb2dVertex
 10
293.97624650098385
 20
-437.63377815685362
 30
0.0
  0
VERTEX
  5
2D1
100
AcDbEntity
  8
ADF70-2303
370
              15
390
0
  6
Continuous
 62
               7
100
AcDbVertex
100
AcDb2dVertex
 10
295.12761368848385
 20
-439.05174690685362
 30
0.0
  0
VERTEX
  5
2D2
100
AcDbEntity
  8
ADF70-2303
370
              15
390
0
  6
Continuous
 62
               7
100
AcDbVertex
100
AcDb2dVertex
 10
296.23015275098385
 20
-440.50877815685362
 30
0.0
  0
VERTEX
  5
2D3
100
AcDbEntity
  8
ADF70-2303
370
              15
390
0
  6
Continuous
 62
               7
100
AcDbVertex
100
AcDb2dVertex
 10
297.29265275098385
 20
-441.99510628185362
 30
0.0
  0
VERTEX
  5
2D4
100
AcDbEntity
  8
ADF70-2303
370
              15
390
0
  6
Continuous
 62
               7
100
AcDbVertex
100
AcDb2dVertex
 10
298.32341446973385
 20
-443.50389534435362
 30
0.0
  0
VERTEX
  5
2D5
100
AcDbEntity
  8
ADF70-2303
370
              15
390
0
  6
Continuous
 62
               7
100
AcDbVertex
100
AcDb2dVertex
 10
299.33073868848385
 20
-445.02830940685362
 30
0.0
  0
VERTEX
  5
2D6
100
AcDbEntity
  8
ADF70-2303
370
              15
390
0
  6
Continuous
 62
               7
100
AcDbVertex
100
AcDb2dVertex
 10
300.32292618848385
 20
-446.56248909435362
 30
0.0
  0
VERTEX
  5
2D7
100
AcDbEntity
  8
ADF70-2303
370
              15
390
0
  6
Continuous
 62
               7
100
AcDbVertex
100
AcDb2dVertex
 10
301.30876603223385
 20
-448.10155159435362
 30
0.0
  0
VERTEX
  5
2D8
100
AcDbEntity
  8
ADF70-2303
370
              15
390
0
  6
Continuous
 62
               7
100
AcDbVertex
100
AcDb2dVertex
 10
302.29509415723385
 20
-449.63963753185362
 30
0.0
  0
VERTEX
  5
2D9
100
AcDbEntity
  8
ADF70-2303
370
              15
390
0
  6
Continuous
 62
               7
100
AcDbVertex
100
AcDb2dVertex
 10
303.29021134473385
 20
-451.17186409435362
 30
0.0
  0
VERTEX
  5
2DA
100
AcDbEntity
  8
ADF70-2303
370
              15
390
0
  6
Continuous
 62
               7
100
AcDbVertex
100
AcDb2dVertex
 10
304.30144181348385
 20
-452.69334846935362
 30
0.0
  0
VERTEX
  5
2DB
100
AcDbEntity
  8
ADF70-2303
370
              15
390
0
  6
Continuous
 62
               7
100
AcDbVertex
100
AcDb2dVertex
 10
305.33366837598385
 20
-454.20116096935362
 30
0.0
  0
VERTEX
  5
2DC
100
AcDbEntity
  8
ADF70-2303
370
              15
390
0
  6
Continuous
 62
               7
100
AcDbVertex
100
AcDb2dVertex
 10
306.39177384473385
 20
-455.69139534435362
 30
0.0
  0
VERTEX
  5
2DD
100
AcDbEntity
  8
ADF70-2303
370
              15
390
0
  6
Continuous
 62
               7
100
AcDbVertex
100
AcDb2dVertex
 10
307.48015275098385
 20
-457.15916878185362
 30
0.0
  0
VERTEX
  5
2DE
100
AcDbEntity
  8
ADF70-2303
370
              15
390
0
  6
Continuous
 62
               7
100
AcDbVertex
100
AcDb2dVertex
 10
308.60368790723385
 20
-458.59959846935362
 30
0.0
  0
VERTEX
  5
2DF
100
AcDbEntity
  8
ADF70-2303
370
              15
390
0
  6
Continuous
 62
               7
100
AcDbVertex
100
AcDb2dVertex
 10
309.76775040723385
 20
-460.00780159435362
 30
0.0
  0
VERTEX
  5
2E0
100
AcDbEntity
  8
ADF70-2303
370
              15
390
0
  6
Continuous
 62
               7
100
AcDbVertex
100
AcDb2dVertex
 10
310.97624650098385
 20
-461.37791878185362
 30
0.0
  0
VERTEX
  5
2E1
100
AcDbEntity
  8
ADF70-2303
370
              15
390
0
  6
Continuous
 62
               7
100
AcDbVertex
100
AcDb2dVertex
 10
312.23454728223385
 20
-462.70311409435362
 30
0.0
  0
VERTEX
  5
2E2
100
AcDbEntity
  8
ADF70-2303
370
              15
390
0
  6
Continuous
 62
               7
100
AcDbVertex
100
AcDb2dVertex
 10
313.54607071973385
 20
-463.97459846935362
 30
0.0
  0
VERTEX
  5
2E3
100
AcDbEntity
  8
ADF70-2303
370
              15
390
0
  6
Continuous
 62
               7
100
AcDbVertex
100
AcDb2dVertex
 10
314.91521134473385
 20
-465.18455940685362
 30
0.0
  0
VERTEX
  5
2E4
100
AcDbEntity
  8
ADF70-2303
370
              15
390
0
  6
Continuous
 62
               7
100
AcDbVertex
100
AcDb2dVertex
 10
316.34343400098385
 20
-466.32323128185362
 30
0.0
  0
VERTEX
  5
2E5
100
AcDbEntity
  8
ADF70-2303
370
              15
390
0
  6
Continuous
 62
               7
100
AcDbVertex
100
AcDb2dVertex
 10
317.83318009473385
 20
-467.38084846935362
 30
0.0
  0
VERTEX
  5
2E6
100
AcDbEntity
  8
ADF70-2303
370
              15
390
0
  6
Continuous
 62
               7
100
AcDbVertex
100
AcDb2dVertex
 10
319.38347306348385
 20
-468.34764534435362
 30
0.0
  0
VERTEX
  5
2E7
100
AcDbEntity
  8
ADF70-2303
370
              15
390
0
  6
Continuous
 62
               7
100
AcDbVertex
100
AcDb2dVertex
 10
320.99235978223385
 20
-469.21287971935362
 30
0.0
  0
VERTEX
  5
2E8
100
AcDbEntity
  8
ADF70-2303
370
              15
390
0
  6
Continuous
 62
               7
100
AcDbVertex
100
AcDb2dVertex
 10
322.65495743848385
 20
-469.96971565685362
 30
0.0
  0
VERTEX
  5
2E9
100
AcDbEntity
  8
ADF70-2303
370
              15
390
0
  6
Continuous
 62
               7
100
AcDbVertex
100
AcDb2dVertex
 10
324.36589493848385
 20
-470.61034065685362
 30
0.0
  0
VERTEX
  5
2EA
100
AcDbEntity
  8
ADF70-2303
370
              15
390
0
  6
Continuous
 62
               7
100
AcDbVertex
100
AcDb2dVertex
 10
326.11638321973385
 20
-471.13182503185362
 30
0.0
  0
VERTEX
  5
2EB
100
AcDbEntity
  8
ADF70-2303
370
              15
390
0
  6
Continuous
 62
               7
100
AcDbVertex
100
AcDb2dVertex
 10
327.89909806348385
 20
-471.53221565685362
 30
0.0
  0
VERTEX
  5
2EC
100
AcDbEntity
  8
ADF70-2303
370
              15
390
0
  6
Continuous
 62
               7
100
AcDbVertex
100
AcDb2dVertex
 10
329.70427384473385
 20
-471.81248909435362
 30
0.0
  0
VERTEX
  5
2ED
100
AcDbEntity
  8
ADF70-2303
370
              15
390
0
  6
Continuous
 62
               7
100
AcDbVertex
100
AcDb2dVertex
 10
331.52360978223385
 20
-471.97655159435362
 30
0.0
  0
VERTEX
  5
2EE
100
AcDbEntity
  8
ADF70-2303
370
              15
390
0
  6
Continuous
 62
               7
100
AcDbVertex
100
AcDb2dVertex
 10
333.36247696973385
 20
-472.03026253185362
 30
0.0
  0
SEQEND
  5
2EF
100
AcDbEntity
  8
ADF70-2303
370
              15
390
0
  6
Continuous
 62
               7
  0
POLYLINE
  5
2F0
100
AcDbEntity
  8
ADF70-2303
370
              15
390
0
  6
STYLE_12
 62
               7
100
AcDb2dPolyline
 66
               1
 10
0.0
 20
0.0
 30
0.0
 75
               5
  0
VERTEX
  5
2F1
100
AcDbEntity
  8
ADF70-2303
370
              15
390
0
  6
STYLE_12
 62
               7
100
AcDbVertex
100
AcDb2dVertex
 10
682.76335587598442
 20
-352.03026253185362
 30
0.0
  0
VERTEX
  5
2F2
100
AcDbEntity
  8
ADF70-2303
370
              15
390
0
  6
STYLE_12
 62
               7
100
AcDbVertex
100
AcDb2dVertex
 10
681.93718400098442
 20
-352.07030159435362
 30
0.0
  0
VERTEX
  5
2F3
100
AcDbEntity
  8
ADF70-2303
370
              15
390
0
  6
STYLE_12
 62
               7
100
AcDbVertex
100
AcDb2dVertex
 10
681.12028946973442
 20
-352.20409065685362
 30
0.0
  0
VERTEX
  5
2F4
100
AcDbEntity
  8
ADF70-2303
370
              15
390
0
  6
STYLE_12
 62
               7
100
AcDbVertex
100
AcDb2dVertex
 10
680.33220353223442
 20
-352.45506721935362
 30
0.0
  0
VERTEX
  5
2F5
100
AcDbEntity
  8
ADF70-2303
370
              15
390
0
  6
STYLE_12
 62
               7
100
AcDbVertex
100
AcDb2dVertex
 10
679.59636368848442
 20
-352.83299690685362
 30
0.0
  0
VERTEX
  5
2F6
100
AcDbEntity
  8
ADF70-2303
370
              15
390
0
  6
STYLE_12
 62
               7
100
AcDbVertex
100
AcDb2dVertex
 10
678.93132462598442
 20
-353.32420784435362
 30
0.0
  0
VERTEX
  5
2F7
100
AcDbEntity
  8
ADF70-2303
370
              15
390
0
  6
STYLE_12
 62
               7
100
AcDbVertex
100
AcDb2dVertex
 10
678.33464493848442
 20
-353.89745003185362
 30
0.0
  0
VERTEX
  5
2F8
100
AcDbEntity
  8
ADF70-2303
370
              15
390
0
  6
STYLE_12
 62
               7
100
AcDbVertex
100
AcDb2dVertex
 10
677.77946915723442
 20
-354.51170784435362
 30
0.0
  0
VERTEX
  5
2F9
100
AcDbEntity
  8
ADF70-2303
370
              15
390
0
  6
STYLE_12
 62
               7
100
AcDbVertex
100
AcDb2dVertex
 10
677.22575821973442
 20
-355.12791878185362
 30
0.0
  0
VERTEX
  5
2FA
100
AcDbEntity
  8
ADF70-2303
370
              15
390
0
  6
STYLE_12
 62
               7
100
AcDbVertex
100
AcDb2dVertex
 10
676.63200821973442
 20
-355.70409065685362
 30
0.0
  0
VERTEX
  5
2FB
100
AcDbEntity
  8
ADF70-2303
370
              15
390
0
  6
STYLE_12
 62
               7
100
AcDbVertex
100
AcDb2dVertex
 10
675.97185196973442
 20
-356.20213753185362
 30
0.0
  0
VERTEX
  5
2FC
100
AcDbEntity
  8
ADF70-2303
370
              15
390
0
  6
STYLE_12
 62
               7
100
AcDbVertex
100
AcDb2dVertex
 10
675.23991837598442
 20
-356.58690315685362
 30
0.0
  0
VERTEX
  5
2FD
100
AcDbEntity
  8
ADF70-2303
370
              15
390
0
  6
STYLE_12
 62
               7
100
AcDbVertex
100
AcDb2dVertex
 10
674.45378556348442
 20
-356.84471565685362
 30
0.0
  0
VERTEX
  5
2FE
100
AcDbEntity
  8
ADF70-2303
370
              15
390
0
  6
STYLE_12
 62
               7
100
AcDbVertex
100
AcDb2dVertex
 10
673.63835587598442
 20
-356.98534065685362
 30
0.0
  0
VERTEX
  5
2FF
100
AcDbEntity
  8
ADF70-2303
370
              15
390
0
  6
STYLE_12
 62
               7
100
AcDbVertex
100
AcDb2dVertex
 10
672.76335587598442
 20
-357.03026253185362
 30
0.0
  0
SEQEND
  5
300
100
AcDbEntity
  8
ADF70-2303
370
              15
390
0
  6
STYLE_12
 62
               7
  0
LINE
  5
301
100
AcDbEntity
  8
ADF70-2303
370
              15
390
0
  6
Continuous
 62
               7
100
AcDbLine
 10
271.07536759473385
 20
-424.27440315685362
 30
0.0
 11
270.42497696973385
 21
-414.96483284435362
 31
0.0
  0
POLYLINE
  5
302
100
AcDbEntity
  8
ADF70-2303
370
              15
390
0
  6
Continuous
 62
               7
100
AcDb2dPolyline
 66
               1
 10
0.0
 20
0.0
 30
0.0
 75
               5
  0
VERTEX
  5
303
100
AcDbEntity
  8
ADF70-2303
370
              15
390
0
  6
Continuous
 62
               7
100
AcDbVertex
100
AcDb2dVertex
 10
270.42497696973385
 20
-414.96483284435362
 30
0.0
  0
VERTEX
  5
304
100
AcDbEntity
  8
ADF70-2303
370
              15
390
0
  6
Continuous
 62
               7
100
AcDbVertex
100
AcDb2dVertex
 10
270.31462540723385
 20
-414.42674690685362
 30
0.0
  0
VERTEX
  5
305
100
AcDbEntity
  8
ADF70-2303
370
              15
390
0
  6
Continuous
 62
               7
100
AcDbVertex
100
AcDb2dVertex
 10
270.07146134473385
 20
-413.93260628185362
 30
0.0
  0
VERTEX
  5
306
100
AcDbEntity
  8
ADF70-2303
370
              15
390
0
  6
Continuous
 62
               7
100
AcDbVertex
100
AcDb2dVertex
 10
269.73210587598385
 20
-413.49998909435362
 30
0.0
  0
VERTEX
  5
307
100
AcDbEntity
  8
ADF70-2303
370
              15
390
0
  6
Continuous
 62
               7
100
AcDbVertex
100
AcDb2dVertex
 10
269.33269181348385
 20
-413.12010628185362
 30
0.0
  0
VERTEX
  5
308
100
AcDbEntity
  8
ADF70-2303
370
              15
390
0
  6
Continuous
 62
               7
100
AcDbVertex
100
AcDb2dVertex
 10
268.89860978223385
 20
-412.78026253185362
 30
0.0
  0
VERTEX
  5
309
100
AcDbEntity
  8
ADF70-2303
370
              15
390
0
  6
Continuous
 62
               7
100
AcDbVertex
100
AcDb2dVertex
 10
268.44499650098385
 20
-412.46776253185362
 30
0.0
  0
VERTEX
  5
30A
100
AcDbEntity
  8
ADF70-2303
370
              15
390
0
  6
Continuous
 62
               7
100
AcDbVertex
100
AcDb2dVertex
 10
267.98161759473385
 20
-412.16893440685362
 30
0.0
  0
VERTEX
  5
30B
100
AcDbEntity
  8
ADF70-2303
370
              15
390
0
  6
Continuous
 62
               7
100
AcDbVertex
100
AcDb2dVertex
 10
267.51530900098385
 20
-411.87596565685362
 30
0.0
  0
VERTEX
  5
30C
100
AcDbEntity
  8
ADF70-2303
370
              15
390
0
  6
Continuous
 62
               7
100
AcDbVertex
100
AcDb2dVertex
 10
267.05193009473385
 20
-411.57713753185362
 30
0.0
  0
VERTEX
  5
30D
100
AcDbEntity
  8
ADF70-2303
370
              15
390
0
  6
Continuous
 62
               7
100
AcDbVertex
100
AcDb2dVertex
 10
266.59782853223385
 20
-411.26463753185362
 30
0.0
  0
VERTEX
  5
30E
100
AcDbEntity
  8
ADF70-2303
370
              15
390
0
  6
Continuous
 62
               7
100
AcDbVertex
100
AcDb2dVertex
 10
266.16374650098385
 20
-410.92479378185362
 30
0.0
  0
VERTEX
  5
30F
100
AcDbEntity
  8
ADF70-2303
370
              15
390
0
  6
Continuous
 62
               7
100
AcDbVertex
100
AcDb2dVertex
 10
265.76482071973385
 20
-410.54491096935362
 30
0.0
  0
VERTEX
  5
310
100
AcDbEntity
  8
ADF70-2303
370
              15
390
0
  6
Continuous
 62
               7
100
AcDbVertex
100
AcDb2dVertex
 10
265.42595353223385
 20
-410.11131721935362
 30
0.0
  0
VERTEX
  5
311
100
AcDbEntity
  8
ADF70-2303
370
              15
390
0
  6
Continuous
 62
               7
100
AcDbVertex
100
AcDb2dVertex
 10
265.18474259473385
 20
-409.61717659435362
 30
0.0
  0
VERTEX
  5
312
100
AcDbEntity
  8
ADF70-2303
370
              15
390
0
  6
Continuous
 62
               7
100
AcDbVertex
100
AcDb2dVertex
 10
265.07683243848385
 20
-409.05760628185362
 30
0.0
  0
SEQEND
  5
313
100
AcDbEntity
  8
ADF70-2303
370
              15
390
0
  6
Continuous
 62
               7
  0
POLYLINE
  5
314
100
AcDbEntity
  8
ADF70-2303
370
              15
390
0
  6
STYLE_12
 62
               7
100
AcDb2dPolyline
 66
               1
 10
0.0
 20
0.0
 30
0.0
 75
               5
  0
VERTEX
  5
315
100
AcDbEntity
  8
ADF70-2303
370
              15
390
0
  6
STYLE_12
 62
               7
100
AcDbVertex
100
AcDb2dVertex
 10
564.56999650098442
 20
-398.01073128185362
 30
0.0
  0
VERTEX
  5
316
100
AcDbEntity
  8
ADF70-2303
370
              15
390
0
  6
STYLE_12
 62
               7
100
AcDbVertex
100
AcDb2dVertex
 10
564.24382462598442
 20
-401.52615987774089
 30
0.0
  0
VERTEX
  5
317
100
AcDbEntity
  8
ADF70-2303
370
              15
390
0
  6
STYLE_12
 62
               7
100
AcDbVertex
100
AcDb2dVertex
 10
563.90349259473442
 20
-405.0171820524173
 30
0.0
  0
VERTEX
  5
318
100
AcDbEntity
  8
ADF70-2303
370
              15
390
0
  6
STYLE_12
 62
               7
100
AcDbVertex
100
AcDb2dVertex
 10
563.54655900098442
 20
-408.48198992283022
 30
0.0
  0
VERTEX
  5
319
100
AcDbEntity
  8
ADF70-2303
370
              15
390
0
  6
STYLE_12
 62
               7
100
AcDbVertex
100
AcDb2dVertex
 10
563.17155900098442
 20
-411.91787166440071
 30
0.0
  0
VERTEX
  5
31A
100
AcDbEntity
  8
ADF70-2303
370
              15
390
0
  6
STYLE_12
 62
               7
100
AcDbVertex
100
AcDb2dVertex
 10
562.77653946973442
 20
-415.32301939407603
 30
0.0
  0
VERTEX
  5
31B
100
AcDbEntity
  8
ADF70-2303
370
              15
390
0
  6
STYLE_12
 62
               7
100
AcDbVertex
100
AcDb2dVertex
 10
562.35954728223442
 20
-418.69472128727722
 30
0.0
  0
VERTEX
  5
31C
100
AcDbEntity
  8
ADF70-2303
370
              15
390
0
  6
STYLE_12
 62
               7
100
AcDbVertex
100
AcDb2dVertex
 10
561.91862931348442
 20
-422.02936157789895
 30
0.0
  0
VERTEX
  5
31D
100
AcDbEntity
  8
ADF70-2303
370
              15
390
0
  6
STYLE_12
 62
               7
100
AcDbVertex
100
AcDb2dVertex
 10
561.45183243848442
 20
-425.3260363244151
 30
0.0
  0
VERTEX
  5
31E
100
AcDbEntity
  8
ADF70-2303
370
              15
390
0
  6
STYLE_12
 62
               7
100
AcDbVertex
100
AcDb2dVertex
 10
560.95769181348442
 20
-428.58112976072005
 30
0.0
  0
VERTEX
  5
31F
100
AcDbEntity
  8
ADF70-2303
370
              15
390
0
  6
STYLE_12
 62
               7
100
AcDbVertex
100
AcDb2dVertex
 10
560.43376603223442
 20
-431.7928340037613
 30
0.0
  0
VERTEX
  5
320
100
AcDbEntity
  8
ADF70-2303
370
              15
390
0
  6
STYLE_12
 62
               7
100
AcDbVertex
100
AcDb2dVertex
 10
559.87810196973442
 20
-434.95753328743353
 30
0.0
  0
VERTEX
  5
321
100
AcDbEntity
  8
ADF70-2303
370
              15
390
0
  6
STYLE_12
 62
               7
100
AcDbVertex
100
AcDb2dVertex
 10
559.28923478223442
 20
-438.07522761173675
 30
0.0
  0
VERTEX
  5
322
100
AcDbEntity
  8
ADF70-2303
370
              15
390
0
  6
STYLE_12
 62
               7
100
AcDbVertex
100
AcDb2dVertex
 10
558.66521134473442
 20
-441.1413972690392
 30
0.0
  0
VERTEX
  5
323
100
AcDbEntity
  8
ADF70-2303
370
              15
390
0
  6
STYLE_12
 62
               7
100
AcDbVertex
100
AcDb2dVertex
 10
558.00407853223442
 20
-444.15423437628851
 30
0.0
  0
VERTEX
  5
324
100
AcDbEntity
  8
ADF70-2303
370
              15
390
0
  6
STYLE_12
 62
               7
100
AcDbVertex
100
AcDb2dVertex
 10
557.30339493848442
 20
-447.11102710890543
 30
0.0
  0
VERTEX
  5
325
100
AcDbEntity
  8
ADF70-2303
370
              15
390
0
  6
STYLE_12
 62
               7
100
AcDbVertex
100
AcDb2dVertex
 10
556.56218400098442
 20
-450.00906364231105
 30
0.0
  0
VERTEX
  5
326
100
AcDbEntity
  8
ADF70-2303
370
              15
390
0
  6
STYLE_12
 62
               7
100
AcDbVertex
100
AcDb2dVertex
 10
555.77751603223442
 20
-452.84744003497906
 30
0.0
  0
VERTEX
  5
327
100
AcDbEntity
  8
ADF70-2303
370
              15
390
0
  6
STYLE_12
 62
               7
100
AcDbVertex
100
AcDb2dVertex
 10
554.94841446973442
 20
-455.62163657927795
 30
0.0
  0
VERTEX
  5
328
100
AcDbEntity
  8
ADF70-2303
370
              15
390
0
  6
STYLE_12
 62
               7
100
AcDbVertex
100
AcDb2dVertex
 10
554.07243790723442
 20
-458.33074933368107
 30
0.0
  0
VERTEX
  5
329
100
AcDbEntity
  8
ADF70-2303
370
              15
390
0
  6
STYLE_12
 62
               7
100
AcDbVertex
100
AcDb2dVertex
 10
553.14812150098442
 20
-460.97206647360974
 30
0.0
  0
VERTEX
  5
32A
100
AcDbEntity
  8
ADF70-2303
370
              15
390
0
  6
STYLE_12
 62
               7
100
AcDbVertex
100
AcDb2dVertex
 10
552.17351212598442
 20
-463.54197223295853
 30
0.0
  0
VERTEX
  5
32B
100
AcDbEntity
  8
ADF70-2303
370
              15
390
0
  6
STYLE_12
 62
               7
100
AcDbVertex
100
AcDb2dVertex
 10
551.14616837598442
 20
-466.03865872867482
 30
0.0
  0
VERTEX
  5
32C
100
AcDbEntity
  8
ADF70-2303
370
              15
390
0
  6
STYLE_12
 62
               7
100
AcDbVertex
100
AcDb2dVertex
 10
550.0641371259843
 20
-468.46031807770601
 30
0.0
  0
VERTEX
  5
32D
100
AcDbEntity
  8
ADF70-2303
370
              15
390
0
  6
STYLE_12
 62
               7
100
AcDbVertex
100
AcDb2dVertex
 10
548.9264418134843
 20
-470.80423845547296
 30
0.0
  0
VERTEX
  5
32E
100
AcDbEntity
  8
ADF70-2303
370
              15
390
0
  6
STYLE_12
 62
               7
100
AcDbVertex
100
AcDb2dVertex
 10
547.7306410322343
 20
-473.06770803739676
 30
0.0
  0
VERTEX
  5
32F
100
AcDbEntity
  8
ADF70-2303
370
              15
390
0
  6
STYLE_12
 62
               7
100
AcDbVertex
100
AcDb2dVertex
 10
546.4742933759843
 20
-475.24801499889838
 30
0.0
  0
VERTEX
  5
330
100
AcDbEntity
  8
ADF70-2303
370
              15
390
0
  6
STYLE_12
 62
               7
100
AcDbVertex
100
AcDb2dVertex
 10
545.1564222822343
 20
-477.34244751539904
 30
0.0
  0
VERTEX
  5
331
100
AcDbEntity
  8
ADF70-2303
370
              15
390
0
  6
STYLE_12
 62
               7
100
AcDbVertex
100
AcDb2dVertex
 10
543.7745863447343
 20
-479.35010164537221
 30
0.0
  0
VERTEX
  5
332
100
AcDbEntity
  8
ADF70-2303
370
              15
390
0
  6
STYLE_12
 62
               7
100
AcDbVertex
100
AcDb2dVertex
 10
542.3273207197343
 20
-481.26736162271254
 30
0.0
  0
VERTEX
  5
333
100
AcDbEntity
  8
ADF70-2303
370
              15
390
0
  6
STYLE_12
 62
               7
100
AcDbVertex
100
AcDb2dVertex
 10
540.81218400098419
 20
-483.09151562284126
 30
0.0
  0
VERTEX
  5
334
100
AcDbEntity
  8
ADF70-2303
370
              15
390
0
  6
STYLE_12
 62
               7
100
AcDbVertex
100
AcDb2dVertex
 10
539.22771134473419
 20
-484.82075576270563
 30
0.0
  0
VERTEX
  5
335
100
AcDbEntity
  8
ADF70-2303
370
              15
390
0
  6
STYLE_12
 62
               7
100
AcDbVertex
100
AcDb2dVertex
 10
537.57194962598419
 20
-486.45237021772652
 30
0.0
  0
VERTEX
  5
336
100
AcDbEntity
  8
ADF70-2303
370
              15
390
0
  6
STYLE_12
 62
               7
100
AcDbVertex
100
AcDb2dVertex
 10
535.84245743848419
 20
-487.98364716332514
 30
0.0
  0
VERTEX
  5
337
100
AcDbEntity
  8
ADF70-2303
370
              15
390
0
  6
STYLE_12
 62
               7
100
AcDbVertex
100
AcDb2dVertex
 10
534.03776993848419
 20
-489.41187477492247
 30
0.0
  0
VERTEX
  5
338
100
AcDbEntity
  8
ADF70-2303
370
              15
390
0
  6
STYLE_12
 62
               7
100
AcDbVertex
100
AcDb2dVertex
 10
532.15642228223408
 20
-490.73614911099207
 30
0.0
  0
VERTEX
  5
339
100
AcDbEntity
  8
ADF70-2303
370
              15
390
0
  6
STYLE_12
 62
               7
100
AcDbVertex
100
AcDb2dVertex
 10
530.19548478223408
 20
-491.95285440542875
 30
0.0
  0
VERTEX
  5
33A
100
AcDbEntity
  8
ADF70-2303
370
              15
390
0
  6
STYLE_12
 62
               7
100
AcDbVertex
100
AcDb2dVertex
 10
528.15398087598408
 20
-493.05927883365359
 30
0.0
  0
VERTEX
  5
33B
100
AcDbEntity
  8
ADF70-2303
370
              15
390
0
  6
STYLE_12
 62
               7
100
AcDbVertex
100
AcDb2dVertex
 10
526.02946915723408
 20
-494.05361451261365
 30
0.0
  0
VERTEX
  5
33C
100
AcDbEntity
  8
ADF70-2303
370
              15
390
0
  6
STYLE_12
 62
               7
100
AcDbVertex
100
AcDb2dVertex
 10
523.82048478223396
 20
-494.93314961773024
 30
0.0
  0
VERTEX
  5
33D
100
AcDbEntity
  8
ADF70-2303
370
              15
390
0
  6
STYLE_12
 62
               7
100
AcDbVertex
100
AcDb2dVertex
 10
521.52458634473396
 20
-495.69517232442422
 30
0.0
  0
VERTEX
  5
33E
100
AcDbEntity
  8
ADF70-2303
370
              15
390
0
  6
STYLE_12
 62
               7
100
AcDbVertex
100
AcDb2dVertex
 10
519.10808243848396
 20
-496.34510628185365
 30
0.0
  0
SEQEND
  5
33F
100
AcDbEntity
  8
ADF70-2303
370
              15
390
0
  6
STYLE_12
 62
               7
  0
POLYLINE
  5
340
100
AcDbEntity
  8
ADF70-2303
370
              15
390
0
  6
Continuous
 62
               7
100
AcDb2dPolyline
 66
               1
 10
0.0
 20
0.0
 30
0.0
 75
               5
  0
VERTEX
  5
341
100
AcDbEntity
  8
ADF70-2303
370
              15
390
0
  6
Continuous
 62
               7
100
AcDbVertex
100
AcDb2dVertex
 10
579.7316143230405
 20
-487.0
 30
0.0
  0
VERTEX
  5
342
100
AcDbEntity
  8
ADF70-2303
370
              15
390
0
  6
Continuous
 62
               7
100
AcDbVertex
100
AcDb2dVertex
 10
577.72805262421366
 20
-492.66681583029907
 30
0.0
  0
VERTEX
  5
343
100
AcDbEntity
  8
ADF70-2303
370
              15
390
0
  6
Continuous
 62
               7
100
AcDbVertex
100
AcDb2dVertex
 10
575.91032853223442
 20
-497.87205940685362
 30
0.0
  0
SEQEND
  5
344
100
AcDbEntity
  8
ADF70-2303
370
              15
390
0
  6
Continuous
 62
               7
  0
ARC
  5
345
100
AcDbEntity
  8
ADF70-2303
370
              15
390
0
  6
STYLE_12
 62
               7
100
AcDbCircle
 10
577.01530900098442
 20
-367.03026253185362
 30
0.0
 40
10.0
100
AcDbArc
 50
90.0
 51
175.47426843800193
  0
ARC
  5
346
100
AcDbEntity
  8
ADF70-2303
370
              15
390
0
  6
Continuous
 62
               7
100
AcDbCircle
 10
275.83952775098385
 20
-404.23729378185362
 30
0.0
 40
3.0002163173252407
100
AcDbArc
 50
183.0039656813249
 51
232.21989307403018
  0
ARC
  5
347
100
AcDbEntity
  8
ADF70-2303
370
              15
390
0
  6
STYLE_12
 62
               7
100
AcDbCircle
 10
522.08659806348396
 20
-505.89100471935365
 30
0.0
 40
10.000061225703684
100
AcDbArc
 50
105.45043219910127
 51
130.00043932365136
  0
LINE
  5
348
100
AcDbEntity
  8
ADF70-2303
370
              15
390
0
  6
STYLE_12
 62
               7
100
AcDbLine
 10
505.67985978223385
 20
-506.60291878185365
 30
0.0
 11
458.14909806348385
 21
-506.60291878185365
 31
0.0
  0
LINE
  5
349
100
AcDbEntity
  8
ADF70-2303
370
              15
390
0
  6
STYLE_12
 62
               7
100
AcDbLine
 10
517.43425431348396
 20
-497.03944221935365
 30
0.0
 11
446.44743790723385
 21
-497.03944221935365
 31
0.0
  0
LINE
  5
34A
100
AcDbEntity
  8
ADF70-2303
370
              15
390
0
  6
STYLE_12
 62
               7
100
AcDbLine
 10
505.65349259473385
 20
-507.52381721935365
 30
0.0
 11
505.01166836231647
 21
-552.03026253185362
 31
0.0
  0
LINE
  5
34B
100
AcDbEntity
  8
ADF70-2303
370
              15
390
0
  6
Continuous
 62
               7
100
AcDbLine
 10
673.17546525098442
 20
-486.99315315685362
 30
0.0
 11
698.64030900098442
 21
-486.99315315685362
 31
0.0
  0
LINE
  5
34C
100
AcDbEntity
  8
ADF70-2303
370
              15
390
0
  6
Continuous
 62
               7
100
AcDbLine
 10
702.64030900098442
 20
-418.58592659435362
 30
0.0
 11
702.64030900098442
 21
-483.32258765059981
 31
0.0
  0
LINE
  5
34D
100
AcDbEntity
  8
ADF70-2303
370
              15
390
0
  6
Continuous
 62
               7
100
AcDbLine
 10
702.64030900098442
 20
-426.03026253185362
 30
0.0
 11
702.64030900098442
 21
-352.03026253185362
 31
0.0
  0
LINE
  5
34E
100
AcDbEntity
  8
ADF70-2303
370
              15
390
0
  6
Continuous
 62
               7
100
AcDbLine
 10
655.14030900098442
 20
-357.03026253185362
 30
0.0
 11
655.14030900098442
 21
-370.03026253185362
 31
0.0
  0
LINE
  5
34F
100
AcDbEntity
  8
ADF70-2303
370
              15
390
0
  6
Continuous
 62
               7
100
AcDbLine
 10
620.14030900098442
 20
-357.03026253185362
 30
0.0
 11
620.14030900098442
 21
-370.03026253185362
 31
0.0
  0
LINE
  5
350
100
AcDbEntity
  8
ADF70-2303
370
              15
390
0
  6
STYLE_12
 62
               7
100
AcDbLine
 10
672.76579728223442
 20
-357.03026253185362
 30
0.0
 11
577.01530900098442
 21
-357.03026253185362
 31
0.0
  0
POLYLINE
  5
351
100
AcDbEntity
  8
ADF70-2303
370
              15
390
0
  6
STYLE_12
 62
               7
100
AcDb2dPolyline
 66
               1
 10
0.0
 20
0.0
 30
0.0
 75
               5
  0
VERTEX
  5
352
100
AcDbEntity
  8
ADF70-2303
370
              15
390
0
  6
STYLE_12
 62
               7
100
AcDbVertex
100
AcDb2dVertex
 10
567.04655900098442
 20
-366.24120003185362
 30
0.0
  0
VERTEX
  5
353
100
AcDbEntity
  8
ADF70-2303
370
              15
390
0
  6
STYLE_12
 62
               7
100
AcDbVertex
100
AcDb2dVertex
 10
566.25603165723442
 20
-376.24217659435362
 30
0.0
  0
VERTEX
  5
354
100
AcDbEntity
  8
ADF70-2303
370
              15
390
0
  6
STYLE_12
 62
               7
100
AcDbVertex
100
AcDb2dVertex
 10
565.46941056348442
 20
-386.41405159435362
 30
0.0
  0
VERTEX
  5
355
100
AcDbEntity
  8
ADF70-2303
370
              15
390
0
  6
STYLE_12
 62
               7
100
AcDbVertex
100
AcDb2dVertex
 10
564.56999650098442
 20
-398.01073128185362
 30
0.0
  0
SEQEND
  5
356
100
AcDbEntity
  8
ADF70-2303
370
              15
390
0
  6
STYLE_12
 62
               7
  0
ARC
  5
357
100
AcDbEntity
  8
ADF70-2303
370
              15
390
0
  6
Continuous
 62
               7
100
AcDbCircle
 10
513.24919571973385
 20
-549.03026253185362
 30
0.0
 40
3.0
100
AcDbArc
 50
270.0
 51
354.99552354572961
  0
ARC
  5
358
100
AcDbEntity
  8
ADF70-2303
370
              15
390
0
  6
Continuous
 62
               7
100
AcDbCircle
 10
518.24382462598396
 20
-549.31248909435362
 30
0.0
 40
2.0005294575828514
100
AcDbArc
 50
119.1551181414281
 51
174.98541931653691
  0
LINE
  5
359
100
AcDbEntity
  8
ADF70-2303
370
              15
390
0
  6
Continuous
 62
               7
100
AcDbLine
 10
447.75896134473385
 20
-549.29198128185362
 30
0.0
 11
445.28728165723385
 21
-521.95506721935362
 31
0.0
  0
POLYLINE
  5
35A
100
AcDbEntity
  8
ADF70-2303
370
              15
390
0
  6
Continuous
 62
               7
100
AcDb2dPolyline
 66
               1
 10
0.0
 20
0.0
 30
0.0
 75
               5
  0
VERTEX
  5
35B
100
AcDbEntity
  8
ADF70-2303
370
              15
390
0
  6
Continuous
 62
               7
100
AcDbVertex
100
AcDb2dVertex
 10
347.22087540723385
 20
-476.11620003185362
 30
0.0
  0
VERTEX
  5
35C
100
AcDbEntity
  8
ADF70-2303
370
              15
390
0
  6
Continuous
 62
               7
100
AcDbVertex
100
AcDb2dVertex
 10
349.29655900098385
 20
-478.83885628185362
 30
0.0
  0
VERTEX
  5
35D
100
AcDbEntity
  8
ADF70-2303
370
              15
390
0
  6
Continuous
 62
               7
100
AcDbVertex
100
AcDb2dVertex
 10
351.46501603223385
 20
-481.46971565685362
 30
0.0
  0
VERTEX
  5
35E
100
AcDbEntity
  8
ADF70-2303
370
              15
390
0
  6
Continuous
 62
               7
100
AcDbVertex
100
AcDb2dVertex
 10
353.72722306348385
 20
-484.00584846935362
 30
0.0
  0
VERTEX
  5
35F
100
AcDbEntity
  8
ADF70-2303
370
              15
390
0
  6
Continuous
 62
               7
100
AcDbVertex
100
AcDb2dVertex
 10
356.08415665723385
 20
-486.44627815685362
 30
0.0
  0
VERTEX
  5
360
100
AcDbEntity
  8
ADF70-2303
370
              15
390
0
  6
Continuous
 62
               7
100
AcDbVertex
100
AcDb2dVertex
 10
358.53532853223385
 20
-488.78807503185362
 30
0.0
  0
VERTEX
  5
361
100
AcDbEntity
  8
ADF70-2303
370
              15
390
0
  6
Continuous
 62
               7
100
AcDbVertex
100
AcDb2dVertex
 10
361.08073868848385
 20
-491.03123909435362
 30
0.0
  0
VERTEX
  5
362
100
AcDbEntity
  8
ADF70-2303
370
              15
390
0
  6
Continuous
 62
               7
100
AcDbVertex
100
AcDb2dVertex
 10
363.72038712598385
 20
-493.17284065685362
 30
0.0
  0
VERTEX
  5
363
100
AcDbEntity
  8
ADF70-2303
370
              15
390
0
  6
Continuous
 62
               7
100
AcDbVertex
100
AcDb2dVertex
 10
366.45378556348385
 20
-495.21287971935362
 30
0.0
  0
VERTEX
  5
364
100
AcDbEntity
  8
ADF70-2303
370
              15
390
0
  6
Continuous
 62
               7
100
AcDbVertex
100
AcDb2dVertex
 10
369.27946915723385
 20
-497.14940315685362
 30
0.0
  0
VERTEX
  5
365
100
AcDbEntity
  8
ADF70-2303
370
              15
390
0
  6
Continuous
 62
               7
100
AcDbVertex
100
AcDb2dVertex
 10
372.19743790723385
 20
-498.98241096935362
 30
0.0
  0
VERTEX
  5
366
100
AcDbEntity
  8
ADF70-2303
370
              15
390
0
  6
Continuous
 62
               7
100
AcDbVertex
100
AcDb2dVertex
 10
375.43376603223385
 20
-500.83690315685362
 30
0.0
  0
SEQEND
  5
367
100
AcDbEntity
  8
ADF70-2303
370
              15
390
0
  6
Continuous
 62
               7
  0
ARC
  5
368
100
AcDbEntity
  8
ADF70-2303
370
              15
390
0
  6
Continuous
 62
               7
100
AcDbCircle
 10
339.15691056348385
 20
-482.03026253185362
 30
0.0
 40
10.000183211078795
100
AcDbArc
 50
36.256093731408022
 51
90.0
  0
POLYLINE
  5
369
100
AcDbEntity
  8
ADF70-2303
370
              15
390
0
  6
Continuous
 62
               7
100
AcDb2dPolyline
 66
               1
 10
0.0
 20
0.0
 30
0.0
 75
               5
  0
VERTEX
  5
36A
100
AcDbEntity
  8
ADF70-2303
370
              15
390
0
  6
Continuous
 62
               7
100
AcDbVertex
100
AcDb2dVertex
 10
382.10954728223385
 20
-517.78319221935362
 30
0.0
  0
VERTEX
  5
36B
100
AcDbEntity
  8
ADF70-2303
370
              15
390
0
  6
Continuous
 62
               7
100
AcDbVertex
100
AcDb2dVertex
 10
381.98112931348385
 20
-516.59862190685362
 30
0.0
  0
VERTEX
  5
36C
100
AcDbEntity
  8
ADF70-2303
370
              15
390
0
  6
Continuous
 62
               7
100
AcDbVertex
100
AcDb2dVertex
 10
381.82829728223385
 20
-515.37791878185362
 30
0.0
  0
VERTEX
  5
36D
100
AcDbEntity
  8
ADF70-2303
370
              15
390
0
  6
Continuous
 62
               7
100
AcDbVertex
100
AcDb2dVertex
 10
381.64812150098385
 20
-514.13182503185362
 30
0.0
  0
VERTEX
  5
36E
100
AcDbEntity
  8
ADF70-2303
370
              15
390
0
  6
Continuous
 62
               7
100
AcDbVertex
100
AcDb2dVertex
 10
381.43767228223385
 20
-512.87205940685362
 30
0.0
  0
VERTEX
  5
36F
100
AcDbEntity
  8
ADF70-2303
370
              15
390
0
  6
Continuous
 62
               7
100
AcDbVertex
100
AcDb2dVertex
 10
381.19353165723385
 20
-511.61034065685362
 30
0.0
  0
VERTEX
  5
370
100
AcDbEntity
  8
ADF70-2303
370
              15
390
0
  6
Continuous
 62
               7
100
AcDbVertex
100
AcDb2dVertex
 10
380.91325821973385
 20
-510.35838753185362
 30
0.0
  0
VERTEX
  5
371
100
AcDbEntity
  8
ADF70-2303
370
              15
390
0
  6
Continuous
 62
               7
100
AcDbVertex
100
AcDb2dVertex
 10
380.59392228223385
 20
-509.12596565685362
 30
0.0
  0
VERTEX
  5
372
100
AcDbEntity
  8
ADF70-2303
370
              15
390
0
  6
Continuous
 62
               7
100
AcDbVertex
100
AcDb2dVertex
 10
380.23259415723385
 20
-507.92674690685362
 30
0.0
  0
VERTEX
  5
373
100
AcDbEntity
  8
ADF70-2303
370
              15
390
0
  6
Continuous
 62
               7
100
AcDbVertex
100
AcDb2dVertex
 10
379.82585587598385
 20
-506.77049690685362
 30
0.0
  0
VERTEX
  5
374
100
AcDbEntity
  8
ADF70-2303
370
              15
390
0
  6
Continuous
 62
               7
100
AcDbVertex
100
AcDb2dVertex
 10
379.37175431348385
 20
-505.66991096935362
 30
0.0
  0
VERTEX
  5
375
100
AcDbEntity
  8
ADF70-2303
370
              15
390
0
  6
Continuous
 62
               7
100
AcDbVertex
100
AcDb2dVertex
 10
378.86638321973385
 20
-504.63475471935362
 30
0.0
  0
VERTEX
  5
376
100
AcDbEntity
  8
ADF70-2303
370
              15
390
0
  6
Continuous
 62
               7
100
AcDbVertex
100
AcDb2dVertex
 10
378.30681290723385
 20
-503.67870003185362
 30
0.0
  0
VERTEX
  5
377
100
AcDbEntity
  8
ADF70-2303
370
              15
390
0
  6
Continuous
 62
               7
100
AcDbVertex
100
AcDb2dVertex
 10
377.69060196973385
 20
-502.81053596935362
 30
0.0
  0
VERTEX
  5
378
100
AcDbEntity
  8
ADF70-2303
370
              15
390
0
  6
Continuous
 62
               7
100
AcDbVertex
100
AcDb2dVertex
 10
377.01482071973385
 20
-502.04393440685362
 30
0.0
  0
VERTEX
  5
379
100
AcDbEntity
  8
ADF70-2303
370
              15
390
0
  6
Continuous
 62
               7
100
AcDbVertex
100
AcDb2dVertex
 10
376.27653946973385
 20
-501.38963753185362
 30
0.0
  0
VERTEX
  5
37A
100
AcDbEntity
  8
ADF70-2303
370
              15
390
0
  6
Continuous
 62
               7
100
AcDbVertex
100
AcDb2dVertex
 10
375.43376603223385
 20
-500.83690315685362
 30
0.0
  0
SEQEND
  5
37B
100
AcDbEntity
  8
ADF70-2303
370
              15
390
0
  6
Continuous
 62
               7
  0
POLYLINE
  5
37C
100
AcDbEntity
  8
ADF70-2303
370
              15
390
0
  6
Continuous
 62
               7
100
AcDb2dPolyline
 66
               1
 10
0.0
 20
0.0
 30
0.0
 75
               5
  0
VERTEX
  5
37D
100
AcDbEntity
  8
ADF70-2303
370
              15
390
0
  6
Continuous
 62
               7
100
AcDbVertex
100
AcDb2dVertex
 10
575.91032853223442
 20
-497.87205940685362
 30
0.0
  0
VERTEX
  5
37E
100
AcDbEntity
  8
ADF70-2303
370
              15
390
0
  6
Continuous
 62
               7
100
AcDbVertex
100
AcDb2dVertex
 10
574.48161759473442
 20
-500.85838753185362
 30
0.0
  0
VERTEX
  5
37F
100
AcDbEntity
  8
ADF70-2303
370
              15
390
0
  6
Continuous
 62
               7
100
AcDbVertex
100
AcDb2dVertex
 10
572.93425431348442
 20
-503.77342659435362
 30
0.0
  0
VERTEX
  5
380
100
AcDbEntity
  8
ADF70-2303
370
              15
390
0
  6
Continuous
 62
               7
100
AcDbVertex
100
AcDb2dVertex
 10
571.26823868848442
 20
-506.61620003185362
 30
0.0
  0
VERTEX
  5
381
100
AcDbEntity
  8
ADF70-2303
370
              15
390
0
  6
Continuous
 62
               7
100
AcDbVertex
100
AcDb2dVertex
 10
569.48552384473442
 20
-509.38377815685362
 30
0.0
  0
VERTEX
  5
382
100
AcDbEntity
  8
ADF70-2303
370
              15
390
0
  6
Continuous
 62
               7
100
AcDbVertex
100
AcDb2dVertex
 10
567.58610978223442
 20
-512.07616096935362
 30
0.0
  0
VERTEX
  5
383
100
AcDbEntity
  8
ADF70-2303
370
              15
390
0
  6
Continuous
 62
               7
100
AcDbVertex
100
AcDb2dVertex
 10
565.57097306348442
 20
-514.69041878185362
 30
0.0
  0
VERTEX
  5
384
100
AcDbEntity
  8
ADF70-2303
370
              15
390
0
  6
Continuous
 62
               7
100
AcDbVertex
100
AcDb2dVertex
 10
563.44255509473442
 20
-517.22557503185362
 30
0.0
  0
VERTEX
  5
385
100
AcDbEntity
  8
ADF70-2303
370
              15
390
0
  6
Continuous
 62
               7
100
AcDbVertex
100
AcDb2dVertex
 10
561.20134415723442
 20
-519.68260628185362
 30
0.0
  0
VERTEX
  5
386
100
AcDbEntity
  8
ADF70-2303
370
              15
390
0
  6
Continuous
 62
               7
100
AcDbVertex
100
AcDb2dVertex
 10
558.84880509473442
 20
-522.05760628185362
 30
0.0
  0
VERTEX
  5
387
100
AcDbEntity
  8
ADF70-2303
370
              15
390
0
  6
Continuous
 62
               7
100
AcDbVertex
100
AcDb2dVertex
 10
556.38689103223442
 20
-524.35252815685362
 30
0.0
  0
VERTEX
  5
388
100
AcDbEntity
  8
ADF70-2303
370
              15
390
0
  6
Continuous
 62
               7
100
AcDbVertex
100
AcDb2dVertex
 10
553.81657853223442
 20
-526.56639534435362
 30
0.0
  0
VERTEX
  5
389
100
AcDbEntity
  8
ADF70-2303
370
              15
390
0
  6
Continuous
 62
               7
100
AcDbVertex
100
AcDb2dVertex
 10
551.13982071973442
 20
-528.69823128185362
 30
0.0
  0
VERTEX
  5
38A
100
AcDbEntity
  8
ADF70-2303
370
              15
390
0
  6
Continuous
 62
               7
100
AcDbVertex
100
AcDb2dVertex
 10
548.3575941572343
 20
-530.74901253185362
 30
0.0
  0
VERTEX
  5
38B
100
AcDbEntity
  8
ADF70-2303
370
              15
390
0
  6
Continuous
 62
               7
100
AcDbVertex
100
AcDb2dVertex
 10
545.2579847822343
 20
-532.85838753185362
 30
0.0
  0
SEQEND
  5
38C
100
AcDbEntity
  8
ADF70-2303
370
              15
390
0
  6
Continuous
 62
               7
  0
LINE
  5
38D
100
AcDbEntity
  8
ADF70-2303
370
              15
390
0
  6
Continuous
 62
               7
100
AcDbLine
 10
579.60612931348442
 20
-486.99315315685362
 30
0.0
 11
673.10661759473442
 21
-486.99315315685362
 31
0.0
  0
ARC
  5
38E
100
AcDbEntity
  8
ADF70-2303
370
              15
390
0
  6
Continuous
 62
               7
100
AcDbCircle
 10
385.09441056348385
 20
-517.48338753185362
 30
0.0
 40
2.9998819407439168
100
AcDbArc
 50
185.73564797599806
 51
270.0
  0
POLYLINE
  5
38F
100
AcDbEntity
  8
ADF70-2303
370
              15
390
0
  6
STYLE_12
 62
               7
100
AcDb2dPolyline
 66
               1
 10
0.0
 20
0.0
 30
0.0
 75
               5
  0
VERTEX
  5
390
100
AcDbEntity
  8
ADF70-2303
370
              15
390
0
  6
STYLE_12
 62
               7
100
AcDbVertex
100
AcDb2dVertex
 10
350.31804337598385
 20
-460.74998909435362
 30
0.0
  0
VERTEX
  5
391
100
AcDbEntity
  8
ADF70-2303
370
              15
390
0
  6
STYLE_12
 62
               7
100
AcDbVertex
100
AcDb2dVertex
 10
347.30974259473385
 20
-455.26463753185362
 30
0.0
  0
VERTEX
  5
392
100
AcDbEntity
  8
ADF70-2303
370
              15
390
0
  6
STYLE_12
 62
               7
100
AcDbVertex
100
AcDb2dVertex
 10
344.43669571973385
 20
-449.72069221935362
 30
0.0
  0
VERTEX
  5
393
100
AcDbEntity
  8
ADF70-2303
370
              15
390
0
  6
STYLE_12
 62
               7
100
AcDbVertex
100
AcDb2dVertex
 10
341.69987931348385
 20
-444.11717659435362
 30
0.0
  0
VERTEX
  5
394
100
AcDbEntity
  8
ADF70-2303
370
              15
390
0
  6
STYLE_12
 62
               7
100
AcDbVertex
100
AcDb2dVertex
 10
339.09929337598385
 20
-438.45506721935362
 30
0.0
  0
VERTEX
  5
395
100
AcDbEntity
  8
ADF70-2303
370
              15
390
0
  6
STYLE_12
 62
               7
100
AcDbVertex
100
AcDb2dVertex
 10
336.63396134473385
 20
-432.73338753185362
 30
0.0
  0
VERTEX
  5
396
100
AcDbEntity
  8
ADF70-2303
370
              15
390
0
  6
STYLE_12
 62
               7
100
AcDbVertex
100
AcDb2dVertex
 10
334.30485978223385
 20
-426.95213753185362
 30
0.0
  0
VERTEX
  5
397
100
AcDbEntity
  8
ADF70-2303
370
              15
390
0
  6
STYLE_12
 62
               7
100
AcDbVertex
100
AcDb2dVertex
 10
332.11150040723385
 20
-421.11229378185362
 30
0.0
  0
VERTEX
  5
398
100
AcDbEntity
  8
ADF70-2303
370
              15
390
0
  6
STYLE_12
 62
               7
100
AcDbVertex
100
AcDb2dVertex
 10
330.05388321973385
 20
-415.21385628185362
 30
0.0
  0
VERTEX
  5
399
100
AcDbEntity
  8
ADF70-2303
370
              15
390
0
  6
STYLE_12
 62
               7
100
AcDbVertex
100
AcDb2dVertex
 10
328.13200821973385
 20
-409.25584846935362
 30
0.0
  0
VERTEX
  5
39A
100
AcDbEntity
  8
ADF70-2303
370
              15
390
0
  6
STYLE_12
 62
               7
100
AcDbVertex
100
AcDb2dVertex
 10
326.34636368848385
 20
-403.23827034435362
 30
0.0
  0
VERTEX
  5
39B
100
AcDbEntity
  8
ADF70-2303
370
              15
390
0
  6
STYLE_12
 62
               7
100
AcDbVertex
100
AcDb2dVertex
 10
324.69646134473385
 20
-397.16209846935362
 30
0.0
  0
VERTEX
  5
39C
100
AcDbEntity
  8
ADF70-2303
370
              15
390
0
  6
STYLE_12
 62
               7
100
AcDbVertex
100
AcDb2dVertex
 10
323.18230118848385
 20
-391.02635628185362
 30
0.0
  0
VERTEX
  5
39D
100
AcDbEntity
  8
ADF70-2303
370
              15
390
0
  6
STYLE_12
 62
               7
100
AcDbVertex
100
AcDb2dVertex
 10
321.80388321973385
 20
-384.83202034435362
 30
0.0
  0
VERTEX
  5
39E
100
AcDbEntity
  8
ADF70-2303
370
              15
390
0
  6
STYLE_12
 62
               7
100
AcDbVertex
100
AcDb2dVertex
 10
320.56169571973385
 20
-378.57811409435362
 30
0.0
  0
VERTEX
  5
39F
100
AcDbEntity
  8
ADF70-2303
370
              15
390
0
  6
STYLE_12
 62
               7
100
AcDbVertex
100
AcDb2dVertex
 10
319.45476212598385
 20
-372.26463753185362
 30
0.0
  0
VERTEX
  5
3A0
100
AcDbEntity
  8
ADF70-2303
370
              15
390
0
  6
STYLE_12
 62
               7
100
AcDbVertex
100
AcDb2dVertex
 10
318.44890275098385
 20
-365.64256721935362
 30
0.0
  0
SEQEND
  5
3A1
100
AcDbEntity
  8
ADF70-2303
370
              15
390
0
  6
STYLE_12
 62
               7
  0
POLYLINE
  5
3A2
100
AcDbEntity
  8
ADF70-2303
370
              15
390
0
  6
STYLE_12
 62
               7
100
AcDb2dPolyline
 66
               1
 10
0.0
 20
0.0
 30
0.0
 75
               5
  0
VERTEX
  5
3A3
100
AcDbEntity
  8
ADF70-2303
370
              15
390
0
  6
STYLE_12
 62
               7
100
AcDbVertex
100
AcDb2dVertex
 10
443.07048478223385
 20
-496.68690315685365
 30
0.0
  0
VERTEX
  5
3A4
100
AcDbEntity
  8
ADF70-2303
370
              15
390
0
  6
STYLE_12
 62
               7
100
AcDbVertex
100
AcDb2dVertex
 10
439.69743790723385
 20
-496.61004816453931
 30
0.0
  0
VERTEX
  5
3A5
100
AcDbEntity
  8
ADF70-2303
370
              15
390
0
  6
STYLE_12
 62
               7
100
AcDbVertex
100
AcDb2dVertex
 10
436.32585587598385
 20
-496.49716739457756
 30
0.0
  0
VERTEX
  5
3A6
100
AcDbEntity
  8
ADF70-2303
370
              15
390
0
  6
STYLE_12
 62
               7
100
AcDbVertex
100
AcDb2dVertex
 10
432.95671525098385
 20
-496.34505855562202
 30
0.0
  0
VERTEX
  5
3A7
100
AcDbEntity
  8
ADF70-2303
370
              15
390
0
  6
STYLE_12
 62
               7
100
AcDbVertex
100
AcDb2dVertex
 10
429.59050431348385
 20
-496.15131992916281
 30
0.0
  0
VERTEX
  5
3A8
100
AcDbEntity
  8
ADF70-2303
370
              15
390
0
  6
STYLE_12
 62
               7
100
AcDbVertex
100
AcDb2dVertex
 10
426.22868790723385
 20
-495.91354979669029
 30
0.0
  0
VERTEX
  5
3A9
100
AcDbEntity
  8
ADF70-2303
370
              15
390
0
  6
STYLE_12
 62
               7
100
AcDbVertex
100
AcDb2dVertex
 10
422.87224259473385
 20
-495.62774529402111
 30
0.0
  0
VERTEX
  5
3AA
100
AcDbEntity
  8
ADF70-2303
370
              15
390
0
  6
STYLE_12
 62
               7
100
AcDbVertex
100
AcDb2dVertex
 10
419.52312150098385
 20
-495.29150470264574
 30
0.0
  0
VERTEX
  5
3AB
100
AcDbEntity
  8
ADF70-2303
370
              15
390
0
  6
STYLE_12
 62
               7
100
AcDbVertex
100
AcDb2dVertex
 10
416.18230118848385
 20
-494.90082515838105
 30
0.0
  0
VERTEX
  5
3AC
100
AcDbEntity
  8
ADF70-2303
370
              15
390
0
  6
STYLE_12
 62
               7
100
AcDbVertex
100
AcDb2dVertex
 10
412.85271134473385
 20
-494.45250436988044
 30
0.0
  0
VERTEX
  5
3AD
100
AcDbEntity
  8
ADF70-2303
370
              15
390
0
  6
STYLE_12
 62
               7
100
AcDbVertex
100
AcDb2dVertex
 10
409.53630509473385
 20
-493.94253947296113
 30
0.0
  0
VERTEX
  5
3AE
100
AcDbEntity
  8
ADF70-2303
370
              15
390
0
  6
STYLE_12
 62
               7
100
AcDbVertex
100
AcDb2dVertex
 10
406.23601212598385
 20
-493.36532645776674
 30
0.0
  0
VERTEX
  5
3AF
100
AcDbEntity
  8
ADF70-2303
370
              15
390
0
  6
STYLE_12
 62
               7
100
AcDbVertex
100
AcDb2dVertex
 10
402.95525040723385
 20
-492.71846360578741
 30
0.0
  0
VERTEX
  5
3B0
100
AcDbEntity
  8
ADF70-2303
370
              15
390
0
  6
STYLE_12
 62
               7
100
AcDbVertex
100
AcDb2dVertex
 10
399.69792618848385
 20
-491.99634690716687
 30
0.0
  0
VERTEX
  5
3B1
100
AcDbEntity
  8
ADF70-2303
370
              15
390
0
  6
STYLE_12
 62
               7
100
AcDbVertex
100
AcDb2dVertex
 10
396.46843400098385
 20
-491.19417292488561
 30
0.0
  0
VERTEX
  5
3B2
100
AcDbEntity
  8
ADF70-2303
370
              15
390
0
  6
STYLE_12
 62
               7
100
AcDbVertex
100
AcDb2dVertex
 10
393.27214493848385
 20
-490.3079387947605
 30
0.0
  0
VERTEX
  5
3B3
100
AcDbEntity
  8
ADF70-2303
370
              15
390
0
  6
STYLE_12
 62
               7
100
AcDbVertex
100
AcDb2dVertex
 10
390.11443009473385
 20
-489.33284107977181
 30
0.0
  0
VERTEX
  5
3B4
100
AcDbEntity
  8
ADF70-2303
370
              15
390
0
  6
STYLE_12
 62
               7
100
AcDbVertex
100
AcDb2dVertex
 10
387.00163712598385
 20
-488.26487691573664
 30
0.0
  0
VERTEX
  5
3B5
100
AcDbEntity
  8
ADF70-2303
370
              15
390
0
  6
STYLE_12
 62
               7
100
AcDbVertex
100
AcDb2dVertex
 10
383.94109025098385
 20
-487.10084401130848
 30
0.0
  0
VERTEX
  5
3B6
100
AcDbEntity
  8
ADF70-2303
370
              15
390
0
  6
STYLE_12
 62
               7
100
AcDbVertex
100
AcDb2dVertex
 10
380.93962540723385
 20
-485.83593892946772
 30
0.0
  0
VERTEX
  5
3B7
100
AcDbEntity
  8
ADF70-2303
370
              15
390
0
  6
STYLE_12
 62
               7
100
AcDbVertex
100
AcDb2dVertex
 10
378.00603165723385
 20
-484.47016167021434
 30
0.0
  0
VERTEX
  5
3B8
100
AcDbEntity
  8
ADF70-2303
370
              15
390
0
  6
STYLE_12
 62
               7
100
AcDbVertex
100
AcDb2dVertex
 10
375.14763321973385
 20
-483.00030994220197
 30
0.0
  0
VERTEX
  5
3B9
100
AcDbEntity
  8
ADF70-2303
370
              15
390
0
  6
STYLE_12
 62
               7
100
AcDbVertex
100
AcDb2dVertex
 10
372.37224259473385
 20
-481.42718431826711
 30
0.0
  0
VERTEX
  5
3BA
100
AcDbEntity
  8
ADF70-2303
370
              15
390
0
  6
STYLE_12
 62
               7
100
AcDbVertex
100
AcDb2dVertex
 10
369.68767228223385
 20
-479.75158537124639
 30
0.0
  0
VERTEX
  5
3BB
100
AcDbEntity
  8
ADF70-2303
370
              15
390
0
  6
STYLE_12
 62
               7
100
AcDbVertex
100
AcDb2dVertex
 10
367.10026993848385
 20
-477.97591481964969
 30
0.0
  0
VERTEX
  5
3BC
100
AcDbEntity
  8
ADF70-2303
370
              15
390
0
  6
STYLE_12
 62
               7
100
AcDbVertex
100
AcDb2dVertex
 10
364.61687150098385
 20
-476.10337495482338
 30
0.0
  0
VERTEX
  5
3BD
100
AcDbEntity
  8
ADF70-2303
370
              15
390
0
  6
STYLE_12
 62
               7
100
AcDbVertex
100
AcDb2dVertex
 10
362.24089493848385
 20
-474.13956978662372
 30
0.0
  0
VERTEX
  5
3BE
100
AcDbEntity
  8
ADF70-2303
370
              15
390
0
  6
STYLE_12
 62
               7
100
AcDbVertex
100
AcDb2dVertex
 10
359.97624650098385
 20
-472.08930275207047
 30
0.0
  0
VERTEX
  5
3BF
100
AcDbEntity
  8
ADF70-2303
370
              15
390
0
  6
STYLE_12
 62
               7
100
AcDbVertex
100
AcDb2dVertex
 10
357.82439103223385
 20
-469.95817786101975
 30
0.0
  0
VERTEX
  5
3C0
100
AcDbEntity
  8
ADF70-2303
370
              15
390
0
  6
STYLE_12
 62
               7
100
AcDbVertex
100
AcDb2dVertex
 10
355.78532853223385
 20
-467.7542008418377
 30
0.0
  0
VERTEX
  5
3C1
100
AcDbEntity
  8
ADF70-2303
370
              15
390
0
  6
STYLE_12
 62
               7
100
AcDbVertex
100
AcDb2dVertex
 10
353.85857071973385
 20
-465.4837762772172
 30
0.0
  0
VERTEX
  5
3C2
100
AcDbEntity
  8
ADF70-2303
370
              15
390
0
  6
STYLE_12
 62
               7
100
AcDbVertex
100
AcDb2dVertex
 10
352.04118790723385
 20
-463.15330874985102
 30
0.0
  0
VERTEX
  5
3C3
100
AcDbEntity
  8
ADF70-2303
370
              15
390
0
  6
STYLE_12
 62
               7
100
AcDbVertex
100
AcDb2dVertex
 10
350.31804337598385
 20
-460.74998909435362
 30
0.0
  0
SEQEND
  5
3C4
100
AcDbEntity
  8
ADF70-2303
370
              15
390
0
  6
STYLE_12
 62
               7
  0
LINE
  5
3C5
100
AcDbEntity
  8
ADF70-2303
370
              15
390
0
  6
STYLE_12
 62
               7
100
AcDbLine
 10
308.72624650098385
 20
-357.03709846935362
 30
0.0
 11
302.70134415723385
 21
-357.03709846935362
 31
0.0
  0
ARC
  5
3C6
100
AcDbEntity
  8
ADF70-2303
370
              15
390
0
  6
STYLE_12
 62
               7
100
AcDbCircle
 10
308.72624650098385
 20
-367.03807503185362
 30
0.0
 40
9.9999976754185838
100
AcDbArc
 50
8.2705571480909779
 51
90.0
  0
POLYLINE
  5
3C7
100
AcDbEntity
  8
ADF70-2303
370
              15
390
0
  6
STYLE_12
 62
               7
100
AcDb2dPolyline
 66
               1
 10
0.0
 20
0.0
 30
0.0
 75
               5
  0
VERTEX
  5
3C8
100
AcDbEntity
  8
ADF70-2303
370
              15
390
0
  6
STYLE_12
 62
               7
100
AcDbVertex
100
AcDb2dVertex
 10
302.70134415723385
 20
-357.03807503185362
 30
0.0
  0
VERTEX
  5
3C9
100
AcDbEntity
  8
ADF70-2303
370
              15
390
0
  6
STYLE_12
 62
               7
100
AcDbVertex
100
AcDb2dVertex
 10
301.92937150098385
 20
-357.03612190685362
 30
0.0
  0
VERTEX
  5
3CA
100
AcDbEntity
  8
ADF70-2303
370
              15
390
0
  6
STYLE_12
 62
               7
100
AcDbVertex
100
AcDb2dVertex
 10
301.15739884473385
 20
-357.02928596935362
 30
0.0
  0
VERTEX
  5
3CB
100
AcDbEntity
  8
ADF70-2303
370
              15
390
0
  6
STYLE_12
 62
               7
100
AcDbVertex
100
AcDb2dVertex
 10
300.38542618848385
 20
-357.01952034435362
 30
0.0
  0
VERTEX
  5
3CC
100
AcDbEntity
  8
ADF70-2303
370
              15
390
0
  6
STYLE_12
 62
               7
100
AcDbVertex
100
AcDb2dVertex
 10
299.61345353223385
 20
-357.00487190685362
 30
0.0
  0
VERTEX
  5
3CD
100
AcDbEntity
  8
ADF70-2303
370
              15
390
0
  6
STYLE_12
 62
               7
100
AcDbVertex
100
AcDb2dVertex
 10
298.84196915723385
 20
-356.98534065685362
 30
0.0
  0
VERTEX
  5
3CE
100
AcDbEntity
  8
ADF70-2303
370
              15
390
0
  6
STYLE_12
 62
               7
100
AcDbVertex
100
AcDb2dVertex
 10
298.06999650098385
 20
-356.95995003185362
 30
0.0
  0
VERTEX
  5
3CF
100
AcDbEntity
  8
ADF70-2303
370
              15
390
0
  6
STYLE_12
 62
               7
100
AcDbVertex
100
AcDb2dVertex
 10
297.29851212598385
 20
-356.92967659435362
 30
0.0
  0
VERTEX
  5
3D0
100
AcDbEntity
  8
ADF70-2303
370
              15
390
0
  6
STYLE_12
 62
               7
100
AcDbVertex
100
AcDb2dVertex
 10
296.52751603223385
 20
-356.89159065685362
 30
0.0
  0
VERTEX
  5
3D1
100
AcDbEntity
  8
ADF70-2303
370
              15
390
0
  6
STYLE_12
 62
               7
100
AcDbVertex
100
AcDb2dVertex
 10
295.75700821973385
 20
-356.84666878185362
 30
0.0
  0
VERTEX
  5
3D2
100
AcDbEntity
  8
ADF70-2303
370
              15
390
0
  6
STYLE_12
 62
               7
100
AcDbVertex
100
AcDb2dVertex
 10
294.98650040723385
 20
-356.79295784435362
 30
0.0
  0
VERTEX
  5
3D3
100
AcDbEntity
  8
ADF70-2303
370
              15
390
0
  6
STYLE_12
 62
               7
100
AcDbVertex
100
AcDb2dVertex
 10
294.21745743848385
 20
-356.72948128185362
 30
0.0
  0
VERTEX
  5
3D4
100
AcDbEntity
  8
ADF70-2303
370
              15
390
0
  6
STYLE_12
 62
               7
100
AcDbVertex
100
AcDb2dVertex
 10
293.44890275098385
 20
-356.65428596935362
 30
0.0
  0
VERTEX
  5
3D5
100
AcDbEntity
  8
ADF70-2303
370
              15
390
0
  6
STYLE_12
 62
               7
100
AcDbVertex
100
AcDb2dVertex
 10
292.68181290723385
 20
-356.56541878185362
 30
0.0
  0
VERTEX
  5
3D6
100
AcDbEntity
  8
ADF70-2303
370
              15
390
0
  6
STYLE_12
 62
               7
100
AcDbVertex
100
AcDb2dVertex
 10
291.91765275098385
 20
-356.45799690685362
 30
0.0
  0
VERTEX
  5
3D7
100
AcDbEntity
  8
ADF70-2303
370
              15
390
0
  6
STYLE_12
 62
               7
100
AcDbVertex
100
AcDb2dVertex
 10
291.15691056348385
 20
-356.32518440685362
 30
0.0
  0
VERTEX
  5
3D8
100
AcDbEntity
  8
ADF70-2303
370
              15
390
0
  6
STYLE_12
 62
               7
100
AcDbVertex
100
AcDb2dVertex
 10
290.40349259473385
 20
-356.15819221935362
 30
0.0
  0
VERTEX
  5
3D9
100
AcDbEntity
  8
ADF70-2303
370
              15
390
0
  6
STYLE_12
 62
               7
100
AcDbVertex
100
AcDb2dVertex
 10
289.66228165723385
 20
-355.94237190685362
 30
0.0
  0
VERTEX
  5
3DA
100
AcDbEntity
  8
ADF70-2303
370
              15
390
0
  6
STYLE_12
 62
               7
100
AcDbVertex
100
AcDb2dVertex
 10
288.94255509473385
 20
-355.66405159435362
 30
0.0
  0
VERTEX
  5
3DB
100
AcDbEntity
  8
ADF70-2303
370
              15
390
0
  6
STYLE_12
 62
               7
100
AcDbVertex
100
AcDb2dVertex
 10
288.25456681348385
 20
-355.31444221935362
 30
0.0
  0
VERTEX
  5
3DC
100
AcDbEntity
  8
ADF70-2303
370
              15
390
0
  6
STYLE_12
 62
               7
100
AcDbVertex
100
AcDb2dVertex
 10
287.60271134473385
 20
-354.90135628185362
 30
0.0
  0
VERTEX
  5
3DD
100
AcDbEntity
  8
ADF70-2303
370
              15
390
0
  6
STYLE_12
 62
               7
100
AcDbVertex
100
AcDb2dVertex
 10
286.97136368848385
 20
-354.45702034435362
 30
0.0
  0
VERTEX
  5
3DE
100
AcDbEntity
  8
ADF70-2303
370
              15
390
0
  6
STYLE_12
 62
               7
100
AcDbVertex
100
AcDb2dVertex
 10
286.33025040723385
 20
-354.02635628185362
 30
0.0
  0
VERTEX
  5
3DF
100
AcDbEntity
  8
ADF70-2303
370
              15
390
0
  6
STYLE_12
 62
               7
100
AcDbVertex
100
AcDb2dVertex
 10
285.65886368848385
 20
-353.64647346935362
 30
0.0
  0
VERTEX
  5
3E0
100
AcDbEntity
  8
ADF70-2303
370
              15
390
0
  6
STYLE_12
 62
               7
100
AcDbVertex
100
AcDb2dVertex
 10
284.95720353223385
 20
-353.32420784435362
 30
0.0
  0
VERTEX
  5
3E1
100
AcDbEntity
  8
ADF70-2303
370
              15
390
0
  6
STYLE_12
 62
               7
100
AcDbVertex
100
AcDb2dVertex
 10
284.23503556348385
 20
-353.05272346935362
 30
0.0
  0
VERTEX
  5
3E2
100
AcDbEntity
  8
ADF70-2303
370
              15
390
0
  6
STYLE_12
 62
               7
100
AcDbVertex
100
AcDb2dVertex
 10
283.49821915723385
 20
-352.82127815685362
 30
0.0
  0
VERTEX
  5
3E3
100
AcDbEntity
  8
ADF70-2303
370
              15
390
0
  6
STYLE_12
 62
               7
100
AcDbVertex
100
AcDb2dVertex
 10
282.75114884473385
 20
-352.62596565685362
 30
0.0
  0
VERTEX
  5
3E4
100
AcDbEntity
  8
ADF70-2303
370
              15
390
0
  6
STYLE_12
 62
               7
100
AcDbVertex
100
AcDb2dVertex
 10
281.99675431348385
 20
-352.46287971935362
 30
0.0
  0
VERTEX
  5
3E5
100
AcDbEntity
  8
ADF70-2303
370
              15
390
0
  6
STYLE_12
 62
               7
100
AcDbVertex
100
AcDb2dVertex
 10
281.23650040723385
 20
-352.32811409435362
 30
0.0
  0
VERTEX
  5
3E6
100
AcDbEntity
  8
ADF70-2303
370
              15
390
0
  6
STYLE_12
 62
               7
100
AcDbVertex
100
AcDb2dVertex
 10
280.47234025098385
 20
-352.22069221935362
 30
0.0
  0
VERTEX
  5
3E7
100
AcDbEntity
  8
ADF70-2303
370
              15
390
0
  6
STYLE_12
 62
               7
100
AcDbVertex
100
AcDb2dVertex
 10
279.70427384473385
 20
-352.13963753185362
 30
0.0
  0
VERTEX
  5
3E8
100
AcDbEntity
  8
ADF70-2303
370
              15
390
0
  6
STYLE_12
 62
               7
100
AcDbVertex
100
AcDb2dVertex
 10
278.93425431348385
 20
-352.08299690685362
 30
0.0
  0
VERTEX
  5
3E9
100
AcDbEntity
  8
ADF70-2303
370
              15
390
0
  6
STYLE_12
 62
               7
100
AcDbVertex
100
AcDb2dVertex
 10
278.16325821973385
 20
-352.04881721935362
 30
0.0
  0
VERTEX
  5
3EA
100
AcDbEntity
  8
ADF70-2303
370
              15
390
0
  6
STYLE_12
 62
               7
100
AcDbVertex
100
AcDb2dVertex
 10
277.39128556348385
 20
-352.03807503185362
 30
0.0
  0
SEQEND
  5
3EB
100
AcDbEntity
  8
ADF70-2303
370
              15
390
0
  6
STYLE_12
 62
               7
  0
LINE
  5
3EC
100
AcDbEntity
  8
ADF70-2303
370
              15
390
0
  6
Continuous
 62
               7
100
AcDbLine
 10
272.62663712598385
 20
-352.03807503185362
 30
0.0
 11
277.39128556348385
 21
-352.03807503185362
 31
0.0
  0
ARC
  5
3ED
100
AcDbEntity
  8
ADF70-2303
370
              15
390
0
  6
Continuous
 62
               7
100
AcDbCircle
 10
272.62663712598385
 20
-362.03807503185362
 30
0.0
 40
10.0
100
AcDbArc
 50
90.0
 51
183.00043610705623
  0
LINE
  5
3EE
100
AcDbEntity
  8
ADF70-2303
370
              15
390
0
  6
STYLE_12
 62
               7
100
AcDbLine
 10
-509.94496930646807
 20
-392.02635628185362
 30
0.0
 11
-469.94496930646807
 21
-392.02635628185362
 31
0.0
  0
LINE
  5
3EF
100
AcDbEntity
  8
ADF70-2303
370
              15
390
0
  6
STYLE_12
 62
               7
100
AcDbLine
 10
-489.94496930646807
 20
-412.02635628185362
 30
0.0
 11
-489.94496930646807
 21
-372.02635628185362
 31
0.0
  0
CIRCLE
  5
3F0
100
AcDbEntity
  8
ADF70-2303
370
              15
390
0
  6
STYLE_12
 62
               7
100
AcDbCircle
 10
-489.94496930646807
 20
-392.02635628185362
 30
0.0
 40
10.0
  0
LINE
  5
3F1
100
AcDbEntity
  8
ADF70-2303
370
              15
390
0
  6
STYLE_12
 62
               7
100
AcDbLine
 10
-509.94496930646807
 20
-392.02635628185362
 30
0.0
 11
-469.94496930646807
 21
-392.02635628185362
 31
0.0
  0
LINE
  5
3F2
100
AcDbEntity
  8
ADF70-2303
370
              15
390
0
  6
STYLE_12
 62
               7
100
AcDbLine
 10
-489.94496930646807
 20
-412.02635628185362
 30
0.0
 11
-489.94496930646807
 21
-372.02635628185362
 31
0.0
  0
CIRCLE
  5
3F3
100
AcDbEntity
  8
ADF70-2303
370
              15
390
0
  6
STYLE_12
 62
               7
100
AcDbCircle
 10
-489.94496930646807
 20
-392.02635628185362
 30
0.0
 40
10.0
  0
LINE
  5
3F4
100
AcDbEntity
  8
ADF70-2303
370
              15
390
0
  6
STYLE_12
 62
               7
100
AcDbLine
 10
-379.94496930646807
 20
-392.02635628185362
 30
0.0
 11
-339.94496930646807
 21
-392.02635628185362
 31
0.0
  0
LINE
  5
3F5
100
AcDbEntity
  8
ADF70-2303
370
              15
390
0
  6
STYLE_12
 62
               7
100
AcDbLine
 10
-359.94496930646807
 20
-412.02635628185362
 30
0.0
 11
-359.94496930646807
 21
-372.02635628185362
 31
0.0
  0
CIRCLE
  5
3F6
100
AcDbEntity
  8
ADF70-2303
370
              15
390
0
  6
STYLE_12
 62
               7
100
AcDbCircle
 10
-359.94496930646807
 20
-392.02635628185362
 30
0.0
 40
10.0
  0
LINE
  5
3F7
100
AcDbEntity
  8
ADF70-2303
370
              15
390
0
  6
STYLE_12
 62
               7
100
AcDbLine
 10
-379.94496930646807
 20
-392.02635628185362
 30
0.0
 11
-339.94496930646807
 21
-392.02635628185362
 31
0.0
  0
LINE
  5
3F8
100
AcDbEntity
  8
ADF70-2303
370
              15
390
0
  6
STYLE_12
 62
               7
100
AcDbLine
 10
-359.94496930646807
 20
-412.02635628185362
 30
0.0
 11
-359.94496930646807
 21
-372.02635628185362
 31
0.0
  0
CIRCLE
  5
3F9
100
AcDbEntity
  8
ADF70-2303
370
              15
390
0
  6
STYLE_12
 62
               7
100
AcDbCircle
 10
-359.94496930646807
 20
-392.02635628185362
 30
0.0
 40
10.0
  0
LINE
  5
3FA
100
AcDbEntity
  8
ADF70-2303
370
              15
390
0
  6
Continuous
 62
               7
100
AcDbLine
 10
385.09441056348385
 20
-520.48338753185362
 30
0.0
 11
560.40837540723442
 21
-520.48338753185362
 31
0.0
  0
LINE
  5
3FB
100
AcDbEntity
  8
ADF70-2303
370
              15
390
0
  6
STYLE_12
 62
               7
100
AcDbLine
 10
458.14909806348385
 20
-506.60291878185365
 30
0.0
 11
448.16960587598385
 21
-498.23084846935365
 31
0.0
  0
LINE
  5
3FC
100
AcDbEntity
  8
ADF70-2303
370
              15
390
0
  6
STYLE_12
 62
               7
100
AcDbLine
 10
458.83025040723385
 20
-506.60291878185365
 30
0.0
 11
458.83025040723385
 21
-552.03026253185362
 31
0.0
  0
ARC
  5
3FD
100
AcDbEntity
  8
ADF70-2303
370
              15
390
0
  6
STYLE_12
 62
               7
100
AcDbCircle
 10
442.68913712598385
 20
-506.68592659435365
 30
0.0
 40
10.00000201463679
100
AcDbArc
 50
49.997417569792304
 51
89.994404162581219
  0
LINE
  5
3FE
100
AcDbEntity
  8
ADF70-2303
370
              15
390
0
  6
Continuous
 62
               7
100
AcDbLine
 10
702.64030900098442
 20
-409.05370003185362
 30
0.0
 11
265.07634415723385
 21
-409.05370003185362
 31
0.0
  0
LINE
  5
3FF
100
AcDbEntity
  8
ADF70-2303
370
              15
390
0
  6
Continuous
 62
               7
100
AcDbLine
 10
702.64030900098442
 20
-472.03026253185362
 30
0.0
 11
333.36247696973385
 21
-472.03026253185362
 31
0.0
  0
ARC
  5
400
100
AcDbEntity
  8
ADF70-2303
370
              15
390
0
  6
Continuous
 62
               7
100
AcDbCircle
 10
698.64030900098442
 20
-482.99315315685362
 30
0.0
 40
4.0
100
AcDbArc
 50
270.0
 51
0.0
  0
ARC
  5
401
100
AcDbEntity
  8
ADF70-2303
370
              15
390
0
  6
Continuous
 62
               7
100
AcDbCircle
 10
435.32536759473385
 20
-522.82713753185362
 30
0.0
 40
10.00001192092185
100
AcDbArc
 50
5.0029438672234665
 51
15.572631956634755
  0
ARC
  5
402
100
AcDbEntity
  8
ADF70-2303
370
              15
390
0
  6
Continuous
 62
               7
100
AcDbCircle
 10
513.24919571973385
 20
-549.03026253185362
 30
0.0
 40
3.0
100
AcDbArc
 50
270.0
 51
354.99470997448043
  0
LINE
  5
403
100
AcDbEntity
  8
ADF70-2303
370
              15
390
0
  6
Continuous
 62
               7
100
AcDbLine
 10
516.28151920081939
 20
-548.92329052162779
 30
0.0
 11
518.70915665723396
 21
-521.95506721935362
 31
0.0
  0
ARC
  5
404
100
AcDbEntity
  8
ADF70-2303
370
              15
390
0
  6
Continuous
 62
               7
100
AcDbCircle
 10
-456.19594586896807
 20
-549.03026253185362
 30
0.0
 40
2.99972024248981
100
AcDbArc
 50
185.0052900255196
 51
270.0
  0
LINE
  5
405
100
AcDbEntity
  8
ADF70-2303
370
              15
390
0
  6
Continuous
 62
               7
100
AcDbLine
 10
-393.69399274396807
 20
-552.03026253185362
 30
0.0
 11
-449.98012555646807
 21
-552.03026253185362
 31
0.0
  0
LINE
  5
406
100
AcDbEntity
  8
ADF70-2303
370
              15
390
0
  6
Continuous
 62
               7
100
AcDbLine
 10
-449.98012555646807
 20
-552.03026253185362
 30
0.0
 11
-456.19594586896807
 21
-552.03026253185362
 31
0.0
  0
LINE
  5
407
100
AcDbEntity
  8
ADF70-2303
370
              15
390
0
  6
STYLE_12
 62
               7
100
AcDbLine
 10
-401.26332868146807
 20
-506.60291878185365
 30
0.0
 11
-448.79409040021807
 21
-506.60291878185365
 31
0.0
  0
LINE
  5
408
100
AcDbEntity
  8
ADF70-2303
370
              15
390
0
  6
STYLE_12
 62
               7
100
AcDbLine
 10
-401.26332868146807
 20
-506.60291878185365
 30
0.0
 11
-402.06845490185509
 21
-552.03026253185362
 31
0.0
  0
LINE
  5
409
100
AcDbEntity
  8
ADF70-2303
370
              15
390
0
  6
Continuous
 62
               7
100
AcDbLine
 10
-459.18422711896807
 20
-549.29198128185362
 30
0.0
 11
-461.65590680646807
 21
-523.04198128185362
 31
0.0
  0
POLYLINE
  5
40A
100
AcDbEntity
  8
ADF70-2303
370
              15
390
0
  6
STYLE_12
 62
               7
100
AcDb2dPolyline
 66
               1
 10
0.0
 20
0.0
 30
0.0
 75
               5
  0
VERTEX
  5
40B
100
AcDbEntity
  8
ADF70-2303
370
              15
390
0
  6
STYLE_12
 62
               7
100
AcDbVertex
100
AcDb2dVertex
 10
-464.25307477521807
 20
-496.68690315685365
 30
0.0
  0
VERTEX
  5
40C
100
AcDbEntity
  8
ADF70-2303
370
              15
390
0
  6
STYLE_12
 62
               7
100
AcDbVertex
100
AcDb2dVertex
 10
-471.02167661969776
 20
-496.39830586375069
 30
0.0
  0
VERTEX
  5
40D
100
AcDbEntity
  8
ADF70-2303
370
              15
390
0
  6
STYLE_12
 62
               7
100
AcDbVertex
100
AcDb2dVertex
 10
-477.78734791062953
 20
-495.97405056161426
 30
0.0
  0
VERTEX
  5
40E
100
AcDbEntity
  8
ADF70-2303
370
              15
390
0
  6
STYLE_12
 62
               7
100
AcDbVertex
100
AcDb2dVertex
 10
-484.54862337123956
 20
-495.402904421671
 30
0.0
  0
VERTEX
  5
40F
100
AcDbEntity
  8
ADF70-2303
370
              15
390
0
  6
STYLE_12
 62
               7
100
AcDbVertex
100
AcDb2dVertex
 10
-491.3035492991624
 20
-494.67536274265098
 30
0.0
  0
VERTEX
  5
410
100
AcDbEntity
  8
ADF70-2303
370
              15
390
0
  6
STYLE_12
 62
               7
100
AcDbVertex
100
AcDb2dVertex
 10
-498.04968356644139
 20
-493.78192082328428
 30
0.0
  0
VERTEX
  5
411
100
AcDbEntity
  8
ADF70-2303
370
              15
390
0
  6
STYLE_12
 62
               7
100
AcDbVertex
100
AcDb2dVertex
 10
-504.7850724707115
 20
-492.7087536435422
 30
0.0
  0
VERTEX
  5
412
100
AcDbEntity
  8
ADF70-2303
370
              15
390
0
  6
STYLE_12
 62
               7
100
AcDbVertex
100
AcDb2dVertex
 10
-511.50580860724216
 20
-491.44549243840277
 30
0.0
  0
VERTEX
  5
413
100
AcDbEntity
  8
ADF70-2303
370
              15
390
0
  6
STYLE_12
 62
               7
100
AcDbVertex
100
AcDb2dVertex
 10
-518.20993827366806
 20
-489.97831218783745
 30
0.0
  0
VERTEX
  5
414
100
AcDbEntity
  8
ADF70-2303
370
              15
390
0
  6
STYLE_12
 62
               7
100
AcDbVertex
100
AcDb2dVertex
 10
-524.8916003628932
 20
-488.29425193556892
 30
0.0
  0
VERTEX
  5
415
100
AcDbEntity
  8
ADF70-2303
370
              15
390
0
  6
STYLE_12
 62
               7
100
AcDbVertex
100
AcDb2dVertex
 10
-531.546399044596
 20
-486.37862259781662
 30
0.0
  0
VERTEX
  5
416
100
AcDbEntity
  8
ADF70-2303
370
              15
390
0
  6
STYLE_12
 62
               7
100
AcDbVertex
100
AcDb2dVertex
 10
-538.16896163727165
 20
-484.21068664453725
 30
0.0
  0
VERTEX
  5
417
100
AcDbEntity
  8
ADF70-2303
370
              15
390
0
  6
STYLE_12
 62
               7
100
AcDbVertex
100
AcDb2dVertex
 10
-544.75293860823331
 20
-481.78093937446073
 30
0.0
  0
VERTEX
  5
418
100
AcDbEntity
  8
ADF70-2303
370
              15
390
0
  6
STYLE_12
 62
               7
100
AcDbVertex
100
AcDb2dVertex
 10
-551.28904987124577
 20
-479.06864325754401
 30
0.0
  0
VERTEX
  5
419
100
AcDbEntity
  8
ADF70-2303
370
              15
390
0
  6
STYLE_12
 62
               7
100
AcDbVertex
100
AcDb2dVertex
 10
-557.76996904243947
 20
-476.0547888912472
 30
0.0
  0
VERTEX
  5
41A
100
AcDbEntity
  8
ADF70-2303
370
              15
390
0
  6
STYLE_12
 62
               7
100
AcDbVertex
100
AcDb2dVertex
 10
-564.18397390762266
 20
-472.72641531929327
 30
0.0
  0
VERTEX
  5
41B
100
AcDbEntity
  8
ADF70-2303
370
              15
390
0
  6
STYLE_12
 62
               7
100
AcDbVertex
100
AcDb2dVertex
 10
-570.52031910378628
 20
-469.06364907539069
 30
0.0
  0
VERTEX
  5
41C
100
AcDbEntity
  8
ADF70-2303
370
              15
390
0
  6
STYLE_12
 62
               7
100
AcDbVertex
100
AcDb2dVertex
 10
-576.76679399114732
 20
-465.05180107575876
 30
0.0
  0
VERTEX
  5
41D
100
AcDbEntity
  8
ADF70-2303
370
              15
390
0
  6
STYLE_12
 62
               7
100
AcDbVertex
100
AcDb2dVertex
 10
-582.90874580196646
 20
-460.67963849162413
 30
0.0
  0
VERTEX
  5
41E
100
AcDbEntity
  8
ADF70-2303
370
              15
390
0
  6
STYLE_12
 62
               7
100
AcDbVertex
100
AcDb2dVertex
 10
-588.93152176850424
 20
-455.9290159841986
 30
0.0
  0
VERTEX
  5
41F
100
AcDbEntity
  8
ADF70-2303
370
              15
390
0
  6
STYLE_12
 62
               7
100
AcDbVertex
100
AcDb2dVertex
 10
-594.81851542065556
 20
-450.79820542597889
 30
0.0
  0
VERTEX
  5
420
100
AcDbEntity
  8
ADF70-2303
370
              15
390
0
  6
STYLE_12
 62
               7
100
AcDbVertex
100
AcDb2dVertex
 10
-600.55458556508984
 20
-445.27770211569498
 30
0.0
  0
VERTEX
  5
421
100
AcDbEntity
  8
ADF70-2303
370
              15
390
0
  6
STYLE_12
 62
               7
100
AcDbVertex
100
AcDb2dVertex
 10
-606.1241025828848
 20
-439.36837011709866
 30
0.0
  0
VERTEX
  5
422
100
AcDbEntity
  8
ADF70-2303
370
              15
390
0
  6
STYLE_12
 62
               7
100
AcDbVertex
100
AcDb2dVertex
 10
-611.51094842952693
 20
-433.07452974894903
 30
0.0
  0
VERTEX
  5
423
100
AcDbEntity
  8
ADF70-2303
370
              15
390
0
  6
STYLE_12
 62
               7
100
AcDbVertex
100
AcDb2dVertex
 10
-616.70340089082458
 20
-426.40482164876403
 30
0.0
  0
VERTEX
  5
424
100
AcDbEntity
  8
ADF70-2303
370
              15
390
0
  6
STYLE_12
 62
               7
100
AcDbVertex
100
AcDb2dVertex
 10
-621.68680719903841
 20
-419.3713427090691
 30
0.0
  0
VERTEX
  5
425
100
AcDbEntity
  8
ADF70-2303
370
              15
390
0
  6
STYLE_12
 62
               7
100
AcDbVertex
100
AcDb2dVertex
 10
-626.45481782148113
 20
-411.9948304599074
 30
0.0
  0
VERTEX
  5
426
100
AcDbEntity
  8
ADF70-2303
370
              15
390
0
  6
STYLE_12
 62
               7
100
AcDbVertex
100
AcDb2dVertex
 10
-630.99912952310035
 20
-404.29343024006698
 30
0.0
  0
VERTEX
  5
427
100
AcDbEntity
  8
ADF70-2303
370
              15
390
0
  6
STYLE_12
 62
               7
100
AcDbVertex
100
AcDb2dVertex
 10
-635.31730017593952
 20
-396.28874364334285
 30
0.0
  0
VERTEX
  5
428
100
AcDbEntity
  8
ADF70-2303
370
              15
390
0
  6
STYLE_12
 62
               7
100
AcDbVertex
100
AcDb2dVertex
 10
-639.40932977999853
 20
-388.01014883729647
 30
0.0
  0
VERTEX
  5
429
100
AcDbEntity
  8
ADF70-2303
370
              15
390
0
  6
STYLE_12
 62
               7
100
AcDbVertex
100
AcDb2dVertex
 10
-643.27570676086896
 20
-379.48183960697838
 30
0.0
  0
VERTEX
  5
42A
100
AcDbEntity
  8
ADF70-2303
370
              15
390
0
  6
STYLE_12
 62
               7
100
AcDbVertex
100
AcDb2dVertex
 10
-646.9222922256464
 20
-370.7288738011909
 30
0.0
  0
VERTEX
  5
42B
100
AcDbEntity
  8
ADF70-2303
370
              15
390
0
  6
STYLE_12
 62
               7
100
AcDbVertex
100
AcDb2dVertex
 10
-650.38034541217519
 20
-361.70113572232935
 30
0.0
  0
SEQEND
  5
42C
100
AcDbEntity
  8
ADF70-2303
370
              15
390
0
  6
STYLE_12
 62
               7
  0
LINE
  5
42D
100
AcDbEntity
  8
ADF70-2303
370
              15
390
0
  6
STYLE_12
 62
               7
100
AcDbLine
 10
-448.79409040021807
 20
-506.60291878185365
 30
0.0
 11
-458.77358258771807
 21
-498.23084846935365
 31
0.0
  0
LINE
  5
42E
100
AcDbEntity
  8
ADF70-2303
370
              15
390
0
  6
STYLE_12
 62
               7
100
AcDbLine
 10
-448.79457868146807
 20
-506.60291878185365
 30
0.0
 11
-447.98945246108104
 21
-552.03026253185362
 31
0.0
  0
ARC
  5
42F
100
AcDbEntity
  8
ADF70-2303
370
              15
390
0
  6
STYLE_12
 62
               7
100
AcDbCircle
 10
-464.25405133771807
 20
-506.68592659435365
 30
0.0
 40
10.00000201463679
100
AcDbArc
 50
49.997417569792304
 51
89.994404162581219
  0
ARC
  5
430
100
AcDbEntity
  8
ADF70-2303
370
              15
390
0
  6
Continuous
 62
               7
100
AcDbCircle
 10
-471.61782086896807
 20
-523.91405159435362
 30
0.0
 40
10.00001192092185
100
AcDbArc
 50
5.0029438672234665
 51
19.392237403442216
  0
ARC
  5
431
100
AcDbEntity
  8
ADF70-2303
370
              15
390
0
  6
Continuous
 62
               7
100
AcDbCircle
 10
-393.69399274396807
 20
-549.03026253185362
 30
0.0
 40
3.0
100
AcDbArc
 50
270.0
 51
354.99470997448043
  0
LINE
  5
432
100
AcDbEntity
  8
ADF70-2303
370
              15
390
0
  6
Continuous
 62
               7
100
AcDbLine
 10
-390.70571149396807
 20
-549.29198128185362
 30
0.0
 11
-388.23403180646807
 21
-523.04198128185362
 31
0.0
  0
ARC
  5
433
100
AcDbEntity
  8
ADF70-2303
370
              15
390
0
  6
Continuous
 62
               7
100
AcDbCircle
 10
-378.27211774396807
 20
-523.91405159435362
 30
0.0
 40
9.9999681114642005
100
AcDbArc
 50
162.36041842829113
 51
174.99705613277655
  0
LINE
  5
434
100
AcDbEntity
  8
ADF70-2303
370
              15
390
0
  6
STYLE_12
 62
               7
100
AcDbLine
 10
-401.26332868146807
 20
-506.60291878185365
 30
0.0
 11
-391.28383649396807
 21
-498.23084846935365
 31
0.0
  0
ARC
  5
435
100
AcDbEntity
  8
ADF70-2303
370
              15
390
0
  6
STYLE_12
 62
               7
100
AcDbCircle
 10
-385.80336774396807
 20
-506.68592659435365
 30
0.0
 40
9.9990234851883724
100
AcDbArc
 50
90.005595837418781
 51
130.00258243020772
  0
ENDSEC
  0
SECTION
  2
OBJECTS
  0
DICTIONARY
  5
19
100
AcDbDictionary
280
               0
281
               1
  3
ACAD_GROUP
350
1A
  3
ACAD_MLINESTYLE
350
1B
  3
ACAD_LAYOUT
350
1E
  3
ACAD_PLOTSETTINGS
350
22
  3
ACAD_PLOTSTYLENAME
350
1F
  0
DICTIONARY
  5
1A
102
{ACAD_REACTORS
330
19
102
}
100
AcDbDictionary
280
               0
281
               1
  0
DICTIONARY
  5
1B
102
{ACAD_REACTORS
330
19
102
}
100
AcDbDictionary
280
               0
281
               1
  3
Standard
350
1C
  0
MLINESTYLE
  5
1C
102
{ACAD_REACTORS
330
1B
102
}
100
AcDbMlineStyle
  2
Standard
 70
               0
  3

 62
               0
 51
90.0
 52
90.0
 71
               2
 49
0.5
 62
             256
  6
ByLayer
 49
-0.5
 62
             256
  6
ByLayer
  0
ACDBDICTIONARYWDFLT
  5
1F
102
{ACAD_REACTORS
330
19
102
}
100
AcDbDictionary
281
               1
  3
Normal
350
1D
100
AcDbDictionaryWithDefault
340
1D
  0
ACDBPLACEHOLDER
  5
1D
102
{ACAD_REACTORS
330
1F
102
}
  0
LAYOUT
  5
20
102
{ACAD_REACTORS
330
1E
102
}
100
AcDbPlotSettings
  1

  2

  4

  6

 40
0.0
 41
0.0
 42
0.0
 43
0.0
 44
0.0
 45
0.0
 46
0.0
 47
0.0
 48
0.0
 49
0.0
140
0.0
141
0.0
142
1.0
143
1.0
 70
            1024
 72
               0
 73
               0
 74
               0
  7

 75
               0
147
1.0
148
0.0
149
0.0
100
AcDbLayout
  1
Model
 70
               0
 71
               0
 10
0.0
 20
0.0
 11
0.0
 21
0.0
 12
0.0
 22
0.0
 32
0.0
 14
0.0
 24
0.0
 34
0.0
 15
0.0
 25
0.0
 35
0.0
146
0.0
 13
0.0
 23
0.0
 33
0.0
 16
0.0
 26
0.0
 36
0.0
 17
0.0
 27
0.0
 37
0.0
 76
               0
330
A
331
0
345
0
346
0
  0
LAYOUT
  5
21
102
{ACAD_REACTORS
330
1E
102
}
100
AcDbPlotSettings
  1

  2

  4

  6

 40
0.0
 41
0.0
 42
0.0
 43
0.0
 44
0.0
 45
0.0
 46
0.0
 47
0.0
 48
0.0
 49
0.0
140
0.0
141
0.0
142
1.0
143
1.0
 70
               0
 72
               0
 73
               0
 74
               0
  7

 75
               0
147
1.0
148
0.0
149
0.0
100
AcDbLayout
  1
Layout1
 70
               0
 71
               0
 10
0.0
 20
0.0
 11
0.0
 21
0.0
 12
0.0
 22
0.0
 32
0.0
 14
0.0
 24
0.0
 34
0.0
 15
0.0
 25
0.0
 35
0.0
146
0.0
 13
0.0
 23
0.0
 33
0.0
 16
0.0
 26
0.0
 36
0.0
 17
0.0
 27
0.0
 37
0.0
 76
               0
330
B
331
0
345
0
346
0
  0
DICTIONARY
  5
1E
102
{ACAD_REACTORS
330
19
102
}
100
AcDbDictionary
280
               0
281
               1
  3
Layout1
350
21
  3
Model
350
20
  0
DICTIONARY
  5
22
102
{ACAD_REACTORS
330
19
102
}
100
AcDbDictionary
280
               0
281
               1
  0
ENDSEC
  0
EOF
