  0
SECTION
  2
HEADER
  9
$ACADVER
  1
AC1021
  9
$ACADMAINTVER
 70
    25
  9
$DWGCODEPAGE
  3
ANSI_932
  9
$LASTSAVEDBY
  1
oku
  9
$INSBASE
 10
0.0
 20
0.0
 30
0.0
  9
$EXTMIN
 10
17.73478042659985
 20
17.25567800557177
 30
0.0
  9
$EXTMAX
 10
823.4224208338999
 20
1174.693162940315
 30
0.0
  9
$LIMMIN
 10
0.0
 20
0.0
  9
$LIMMAX
 10
840.0000000000002
 20
1188.0
  9
$ORTHOMODE
 70
     0
  9
$REGENMODE
 70
     1
  9
$FILLMODE
 70
     1
  9
$QTEXTMODE
 70
     0
  9
$MIRRTEXT
 70
     1
  9
$LTSCALE
 40
50.8
  9
$ATTMODE
 70
     1
  9
$TEXTSIZE
 40
2.5
  9
$TRACEWID
 40
1.0
  9
$TEXTSTYLE
  7
ＭＳ ゴシック
  9
$CLAYER
  8
MODEL
  9
$CELTYPE
  6
Continuous
  9
$CECOLOR
 62
   256
  9
$CELTSCALE
 40
1.0
  9
$DISPSILH
 70
     0
  9
$DIMSCALE
 40
1.0
  9
$DIMASZ
 40
6.0
  9
$DIMEXO
 40
25.0
  9
$DIMDLI
 40
0.9999999999999999
  9
$DIMRND
 40
0.0
  9
$DIMDLE
 40
0.0
  9
$DIMEXE
 40
0.0
  9
$DIMTP
 40
0.0
  9
$DIMTM
 40
0.0
  9
$DIMTXT
 40
12.0
  9
$DIMCEN
 40
0.0
  9
$DIMTSZ
 40
0.0
  9
$DIMTOL
 70
     0
  9
$DIMLIM
 70
     0
  9
$DIMTIH
 70
     0
  9
$DIMTOH
 70
     0
  9
$DIMSE1
 70
     0
  9
$DIMSE2
 70
     0
  9
$DIMTAD
 70
     1
  9
$DIMZIN
 70
    11
  9
$DIMBLK
  1
DOT
  9
$DIMASO
 70
     1
  9
$DIMSHO
 70
     1
  9
$DIMPOST
  1
<>
  9
$DIMAPOST
  1
[]
  9
$DIMALT
 70
     0
  9
$DIMALTD
 70
     1
  9
$DIMALTF
 40
1.0
  9
$DIMLFAC
 40
1.0
  9
$DIMTOFL
 70
     0
  9
$DIMTVP
 40
0.0
  9
$DIMTIX
 70
     1
  9
$DIMSOXD
 70
     0
  9
$DIMSAH
 70
     0
  9
$DIMBLK1
  1

  9
$DIMBLK2
  1

  9
$DIMSTYLE
  2
tfrom線あり
  9
$DIMCLRD
 70
     0
  9
$DIMCLRE
 70
     0
  9
$DIMCLRT
 70
     0
  9
$DIMTFAC
 40
1.0
  9
$DIMGAP
 40
10.0
  9
$DIMJUST
 70
     0
  9
$DIMSD1
 70
     0
  9
$DIMSD2
 70
     0
  9
$DIMTOLJ
 70
     1
  9
$DIMTZIN
 70
    11
  9
$DIMALTZ
 70
    11
  9
$DIMALTTZ
 70
    11
  9
$DIMUPT
 70
     0
  9
$DIMDEC
 70
     0
  9
$DIMTDEC
 70
     1
  9
$DIMALTU
 70
     2
  9
$DIMALTTD
 70
     2
  9
$DIMTXSTY
  7
ＭＳ ゴシック
  9
$DIMAUNIT
 70
     0
  9
$DIMADEC
 70
     2
  9
$DIMALTRND
 40
0.0
  9
$DIMAZIN
 70
     0
  9
$DIMDSEP
 70
    46
  9
$DIMATFIT
 70
     0
  9
$DIMFRAC
 70
     2
  9
$DIMLDRBLK
  1
DOT
  9
$DIMLUNIT
 70
     2
  9
$DIMLWD
 70
    -2
  9
$DIMLWE
 70
    -2
  9
$DIMTMOVE
 70
     0
  9
$DIMFXL
 40
1.0
  9
$DIMFXLON
 70
     0
  9
$DIMJOGANG
 40
0.7853981633974483
  9
$DIMTFILL
 70
     0
  9
$DIMTFILLCLR
 70
     0
  9
$DIMARCSYM
 70
     0
  9
$DIMLTYPE
  6

  9
$DIMLTEX1
  6

  9
$DIMLTEX2
  6

  9
$LUNITS
 70
     2
  9
$LUPREC
 70
     0
  9
$SKETCHINC
 40
0.1
  9
$FILLETRAD
 40
0.0
  9
$AUNITS
 70
     0
  9
$AUPREC
 70
     0
  9
$MENU
  1
acad
  9
$ELEVATION
 40
0.0
  9
$PELEVATION
 40
0.0
  9
$THICKNESS
 40
0.0
  9
$LIMCHECK
 70
     0
  9
$CHAMFERA
 40
0.0
  9
$CHAMFERB
 40
0.0
  9
$CHAMFERC
 40
0.0
  9
$CHAMFERD
 40
0.0
  9
$SKPOLY
 70
     0
  9
$TDCREATE
 40
2447893.375
  9
$TDUCREATE
 40
0.0
  9
$TDUPDATE
 40
2456629.479630474
  9
$TDUUPDATE
 40
2456629.104630474
  9
$TDINDWG
 40
0.2298023264
  9
$TDUSRTIMER
 40
2456629.100297373
  9
$USRTIMER
 70
     1
  9
$ANGBASE
 50
0.0
  9
$ANGDIR
 70
     0
  9
$PDMODE
 70
     1
  9
$PDSIZE
 40
-2.0
  9
$PLINEWID
 40
0.0
  9
$SPLFRAME
 70
     0
  9
$SPLINETYPE
 70
     6
  9
$SPLINESEGS
 70
     8
  9
$HANDSEED
  5
37C4
  9
$SURFTAB1
 70
     6
  9
$SURFTAB2
 70
     6
  9
$SURFTYPE
 70
     6
  9
$SURFU
 70
     6
  9
$SURFV
 70
     6
  9
$UCSBASE
  2

  9
$UCSNAME
  2

  9
$UCSORG
 10
0.0
 20
0.0
 30
0.0
  9
$UCSXDIR
 10
1.0
 20
0.0
 30
0.0
  9
$UCSYDIR
 10
0.0
 20
1.0
 30
0.0
  9
$UCSORTHOREF
  2

  9
$UCSORTHOVIEW
 70
     1
  9
$UCSORGTOP
 10
0.0
 20
0.0
 30
0.0
  9
$UCSORGBOTTOM
 10
0.0
 20
0.0
 30
0.0
  9
$UCSORGLEFT
 10
0.0
 20
0.0
 30
0.0
  9
$UCSORGRIGHT
 10
0.0
 20
0.0
 30
0.0
  9
$UCSORGFRONT
 10
0.0
 20
0.0
 30
0.0
  9
$UCSORGBACK
 10
0.0
 20
0.0
 30
0.0
  9
$PUCSBASE
  2

  9
$PUCSNAME
  2

  9
$PUCSORG
 10
0.0
 20
0.0
 30
0.0
  9
$PUCSXDIR
 10
1.0
 20
0.0
 30
0.0
  9
$PUCSYDIR
 10
0.0
 20
1.0
 30
0.0
  9
$PUCSORTHOREF
  2

  9
$PUCSORTHOVIEW
 70
     0
  9
$PUCSORGTOP
 10
0.0
 20
0.0
 30
0.0
  9
$PUCSORGBOTTOM
 10
0.0
 20
0.0
 30
0.0
  9
$PUCSORGLEFT
 10
0.0
 20
0.0
 30
0.0
  9
$PUCSORGRIGHT
 10
0.0
 20
0.0
 30
0.0
  9
$PUCSORGFRONT
 10
0.0
 20
0.0
 30
0.0
  9
$PUCSORGBACK
 10
0.0
 20
0.0
 30
0.0
  9
$USERI1
 70
     0
  9
$USERI2
 70
     0
  9
$USERI3
 70
     0
  9
$USERI4
 70
     0
  9
$USERI5
 70
     0
  9
$USERR1
 40
0.0
  9
$USERR2
 40
0.0
  9
$USERR3
 40
0.0
  9
$USERR4
 40
0.0
  9
$USERR5
 40
0.0
  9
$WORLDVIEW
 70
     1
  9
$SHADEDGE
 70
     3
  9
$SHADEDIF
 70
    70
  9
$TILEMODE
 70
     1
  9
$MAXACTVP
 70
    64
  9
$PINSBASE
 10
0.0
 20
0.0
 30
0.0
  9
$PLIMCHECK
 70
     0
  9
$PEXTMIN
 10
0.0
 20
0.0
 30
0.0
  9
$PEXTMAX
 10
0.0
 20
0.0
 30
0.0
  9
$PLIMMIN
 10
-7.5
 20
-20.0
  9
$PLIMMAX
 10
412.5
 20
277.0
  9
$UNITMODE
 70
     0
  9
$VISRETAIN
 70
     0
  9
$PLINEGEN
 70
     1
  9
$PSLTSCALE
 70
     0
  9
$TREEDEPTH
 70
  3020
  9
$CMLSTYLE
  2
Standard
  9
$CMLJUST
 70
     0
  9
$CMLSCALE
 40
1.0
  9
$PROXYGRAPHICS
 70
     0
  9
$MEASUREMENT
 70
     1
  9
$CELWEIGHT
370
     0
  9
$ENDCAPS
280
     0
  9
$JOINSTYLE
280
     0
  9
$LWDISPLAY
290
     1
  9
$INSUNITS
 70
     4
  9
$HYPERLINKBASE
  1

  9
$STYLESHEET
  1

  9
$XEDIT
290
     1
  9
$CEPSNTYPE
380
     0
  9
$PSTYLEMODE
290
     1
  9
$FINGERPRINTGUID
  2

  9
$VERSIONGUID
  2

  9
$EXTNAMES
290
     1
  9
$PSVPSCALE
 40
0.0
  9
$OLESTARTUP
290
     0
  9
$SORTENTS
280
   127
  9
$INDEXCTL
280
     0
  9
$HIDETEXT
280
     1
  9
$XCLIPFRAME
290
     0
  9
$HALOGAP
280
     0
  9
$OBSCOLOR
 70
   257
  9
$OBSLTYPE
280
     0
  9
$INTERSECTIONDISPLAY
280
     0
  9
$INTERSECTIONCOLOR
 70
   257
  9
$DIMASSOC
280
     2
  9
$PROJECTNAME
  1

  9
$CAMERADISPLAY
290
     0
  9
$LENSLENGTH
 40
50.0
  9
$CAMERAHEIGHT
 40
0.0
  9
$STEPSPERSEC
 40
2.0
  9
$STEPSIZE
 40
6.0
  9
$3DDWFPREC
 40
2.0
  9
$PSOLWIDTH
 40
0.25
  9
$PSOLHEIGHT
 40
4.0
  9
$LOFTANG1
 40
1.570796326794897
  9
$LOFTANG2
 40
1.570796326794897
  9
$LOFTMAG1
 40
0.0
  9
$LOFTMAG2
 40
0.0
  9
$LOFTPARAM
 70
     7
  9
$LOFTNORMALS
280
     1
  9
$LATITUDE
 40
37.795
  9
$LONGITUDE
 40
-122.394
  9
$NORTHDIRECTION
 40
0.0
  9
$TIMEZONE
 70
 -8000
  9
$LIGHTGLYPHDISPLAY
280
     1
  9
$TILEMODELIGHTSYNCH
280
     1
  9
$SOLIDHIST
280
     1
  9
$SHOWHIST
280
     1
  9
$DWFFRAME
280
     2
  9
$DGNFRAME
280
     2
  9
$REALWORLDSCALE
290
     1
  9
$INTERFERECOLOR
 62
   256
  9
$CSHADOW
280
     0
  9
$SHADOWPLANELOCATION
 40
0.0
  0
ENDSEC
  0
SECTION
  2
CLASSES
  0
CLASS
  1
LWPOLYLINE
  2
AcDbPolyline
  3
ObjectDBX Classes
 90
        0
 91
        1
280
     0
281
     1
  0
CLASS
  1
IMAGE
  2
AcDbRasterImage
  3
ISM
 90
      127
 91
        5
280
     0
281
     1
  0
CLASS
  1
OLE2FRAME
  2
AcDbOle2Frame
  3
ObjectDBX Classes
 90
        0
 91
        1
280
     0
281
     1
  0
CLASS
  1
HATCH
  2
AcDbHatch
  3
ObjectDBX Classes
 90
        0
 91
        1
280
     0
281
     1
  0
CLASS
  1
DICTIONARYVAR
  2
AcDbDictionaryVar
  3
ObjectDBX Classes
 90
        0
 91
        4
280
     0
281
     0
  0
CLASS
  1
RASTERVARIABLES
  2
AcDbRasterVariables
  3
ISM
 90
        0
 91
        5
280
     0
281
     0
  0
CLASS
  1
IMAGEDEF
  2
AcDbRasterImageDef
  3
ISM
 90
        0
 91
        4
280
     0
281
     0
  0
CLASS
  1
IMAGEDEF_REACTOR
  2
AcDbRasterImageDefReactor
  3
ISM
 90
        1
 91
        4
280
     0
281
     0
  0
CLASS
  1
IDBUFFER
  2
AcDbIdBuffer
  3
ObjectDBX Classes
 90
        0
 91
        4
280
     0
281
     0
  0
CLASS
  1
SPATIAL_FILTER
  2
AcDbSpatialFilter
  3
ObjectDBX Classes
 90
        0
 91
        4
280
     0
281
     0
  0
CLASS
  1
XRECORD
  2
AcDbXrecord
  3
ObjectDBX Classes
 90
        0
 91
        1
280
     0
281
     0
  0
CLASS
  1
SORTENTSTABLE
  2
AcDbSortentsTable
  3
ObjectDBX Classes
 90
        0
 91
        4
280
     0
281
     0
  0
CLASS
  1
LAYER_INDEX
  2
AcDbLayerIndex
  3
ObjectDBX Classes
 90
        0
 91
        4
280
     0
281
     0
  0
CLASS
  1
SPATIAL_INDEX
  2
AcDbSpatialIndex
  3
AutoCAD 2000
 90
        0
 91
        4
280
     0
281
     0
  0
CLASS
  1
OBJECT_PTR
  2
CAseDLPNTableRecord
  3
ASE-LPNTableRecord
 90
        1
 91
        4
280
     0
281
     0
  0
CLASS
  1
LAYOUT
  2
AcDbLayout
  3
ObjectDBX Classes
 90
        0
 91
        1
280
     0
281
     0
  0
CLASS
  1
PLOTSETTINGS
  2
AcDbPlotSettings
  3
ObjectDBX Classes
 90
        0
 91
        4
280
     0
281
     0
  0
CLASS
  1
ACDBDICTIONARYWDFLT
  2
AcDbDictionaryWithDefault
  3
ObjectDBX Classes
 90
        0
 91
        5
280
     0
281
     0
  0
CLASS
  1
ACDBPLACEHOLDER
  2
AcDbPlaceHolder
  3
ObjectDBX Classes
 90
        0
 91
        1
280
     0
281
     0
  0
CLASS
  1
SCALE
  2
AcDbScale
  3
ObjectDBX Classes
 90
     1153
 91
        5
280
     0
281
     0
  0
CLASS
  1
MATERIAL
  2
AcDbMaterial
  3
ObjectDBX Classes
 90
     1153
 91
        5
280
     0
281
     0
  0
CLASS
  1
VISUALSTYLE
  2
AcDbVisualStyle
  3
ObjectDBX Classes
 90
     4095
 91
        5
280
     0
281
     0
  0
CLASS
  1
TABLESTYLE
  2
AcDbTableStyle
  3
ObjectDBX Classes
 90
     4095
 91
        5
280
     0
281
     0
  0
CLASS
  1
DIMASSOC
  2
AcDbDimAssoc
  3
"AcDbDimAssoc|Product Desc:     AcDim ARX App For Dimension|Company:          Autodesk, Inc.|WEB Address:      www.autodesk.com"
 90
        0
 91
        4
280
     0
281
     0
  0
CLASS
  1
CELLSTYLEMAP
  2
AcDbCellStyleMap
  3
ObjectDBX Classes
 90
     1152
 91
        4
280
     0
281
     0
  0
CLASS
  1
SUN
  2
AcDbSun
  3
SCENEOE
 90
     1153
 91
        5
280
     0
281
     0
  0
ENDSEC
  0
SECTION
  2
TABLES
  0
TABLE
  2
VPORT
  5
7
330
0
100
AcDbSymbolTable
 70
     1
  0
VPORT
  5
15
330
7
100
AcDbSymbolTableRecord
100
AcDbViewportTableRecord
  2
*ACTIVE
 70
     0
 10
0.0
 20
0.0
 11
1.0
 21
1.0
 12
604.4545785610169
 22
496.5514778108819
 13
0.0
 23
0.0
 14
1.0
 24
1.0
 15
0.0
 25
0.0
 16
0.0
 26
0.0
 36
1.0
 17
-91.0201356709008
 27
73.5987145301624
 37
-46.86809886248109
 40
852.8018626187278
 41
2.0
 42
50.0
 43
0.0
 44
0.0
 50
0.0
 51
0.0
 71
    16
 72
  2000
 73
     1
 74
     1
 75
     0
 76
     0
 77
     0
 78
     0
281
     0
 65
     0
110
0.0
120
0.0
130
0.0
111
1.0
121
0.0
131
0.0
112
0.0
122
1.0
132
0.0
 79
     0
146
0.0
348
26C
 60
     3
 61
     5
292
     1
282
     1
141
0.0
142
0.0
 63
   256
361
904
  0
ENDTAB
  0
TABLE
  2
LTYPE
  5
4
330
0
100
AcDbSymbolTable
 70
    18
  0
LTYPE
  5
11
330
4
100
AcDbSymbolTableRecord
100
AcDbLinetypeTableRecord
  2
ByBlock
 70
     0
  3

 72
    65
 73
     0
 40
0.0
  0
LTYPE
  5
12
330
4
100
AcDbSymbolTableRecord
100
AcDbLinetypeTableRecord
  2
ByLayer
 70
     0
  3
Solid line
 72
    65
 73
     0
 40
0.0
  0
LTYPE
  5
13
330
4
100
AcDbSymbolTableRecord
100
AcDbLinetypeTableRecord
  2
Continuous
 70
     0
  3
Solid line
 72
    65
 73
     0
 40
0.0
  0
LTYPE
  5
3A
330
4
100
AcDbSymbolTableRecord
100
AcDbLinetypeTableRecord
  2
STYLE_01
 70
     0
  3

 72
    65
 73
     2
 40
0.2460629921259842
 49
0.1230314960629921
 74
     0
 49
-0.1230314960629921
 74
     0
  0
LTYPE
  5
3B
330
4
100
AcDbSymbolTableRecord
100
AcDbLinetypeTableRecord
  2
STYLE_02
 70
     0
  3

 72
    65
 73
     2
 40
0.6944250000000001
 49
0.48607
 74
     0
 49
-0.2083550000000001
 74
     0
  0
LTYPE
  5
3C
330
4
100
AcDbSymbolTableRecord
100
AcDbLinetypeTableRecord
  2
STYLE_03
 70
     0
  3

 72
    65
 73
     2
 40
1.25
 49
1.04164
 74
     0
 49
-0.2083599999999999
 74
     0
  0
LTYPE
  5
3D
330
4
100
AcDbSymbolTableRecord
100
AcDbLinetypeTableRecord
  2
STYLE_04
 70
     0
  3

 72
    65
 73
     2
 40
1.52771
 49
1.319425
 74
     0
 49
-0.208285
 74
     0
  0
LTYPE
  5
3E
330
4
100
AcDbSymbolTableRecord
100
AcDbLinetypeTableRecord
  2
STYLE_05
 70
     0
  3

 72
    65
 73
     2
 40
0.20828
 49
0.069425
 74
     0
 49
-0.138855
 74
     0
  0
LTYPE
  5
3F
330
4
100
AcDbSymbolTableRecord
100
AcDbLinetypeTableRecord
  2
STYLE_06
 70
     0
  3

 72
    65
 73
     4
 40
1.04164
 49
0.625
 74
     0
 49
-0.20828
 74
     0
 49
0.06943
 74
     0
 49
-0.13893
 74
     0
  0
LTYPE
  5
40
330
4
100
AcDbSymbolTableRecord
100
AcDbLinetypeTableRecord
  2
STYLE_07
 70
     0
  3

 72
    65
 73
     6
 40
1.875
 49
0.625
 74
     0
 49
-0.20828
 74
     0
 49
0.6250000000000001
 74
     0
 49
-0.2083599999999999
 74
     0
 49
0.06943
 74
     0
 49
-0.1389299999999999
 74
     0
  0
LTYPE
  5
41
330
4
100
AcDbSymbolTableRecord
100
AcDbLinetypeTableRecord
  2
STYLE_08
 70
     0
  3

 72
    65
 73
     6
 40
1.25
 49
0.625
 74
     0
 49
-0.20828
 74
     0
 49
0.06943
 74
     0
 49
-0.13893
 74
     0
 49
0.0694299999999999
 74
     0
 49
-0.13893
 74
     0
  0
LTYPE
  5
42
330
4
100
AcDbSymbolTableRecord
100
AcDbLinetypeTableRecord
  2
STYLE_09
 70
     0
  3

 72
    65
 73
     4
 40
5.0
 49
3.75
 74
     0
 49
-0.2777849999999998
 74
     0
 49
0.6944300000000003
 74
     0
 49
-0.2777849999999998
 74
     0
  0
LTYPE
  5
43
330
4
100
AcDbSymbolTableRecord
100
AcDbLinetypeTableRecord
  2
STYLE_10
 70
     0
  3

 72
    65
 73
     6
 40
5.9375
 49
3.75
 74
     0
 49
-0.2777849999999998
 74
     0
 49
0.6944300000000003
 74
     0
 49
-0.2777849999999998
 74
     0
 49
0.625
 74
     0
 49
-0.3125
 74
     0
  0
LTYPE
  5
44
330
4
100
AcDbSymbolTableRecord
100
AcDbLinetypeTableRecord
  2
STYLE_11
 70
     0
  3

 72
    65
 73
     2
 40
0.0694444881889764
 49
0.0347222440944882
 74
     0
 49
-0.0347222440944882
 74
     0
  0
LTYPE
  5
45
330
4
100
AcDbSymbolTableRecord
100
AcDbLinetypeTableRecord
  2
STYLE_12
 70
     0
  3

 72
    65
 73
     2
 40
0.3937007874015748
 49
0.1968503937007874
 74
     0
 49
-0.1968503937007874
 74
     0
  0
LTYPE
  5
46
330
4
100
AcDbSymbolTableRecord
100
AcDbLinetypeTableRecord
  2
STYLE_13
 70
     0
  3

 72
    65
 73
     2
 40
0.5905511811023622
 49
0.2952755905511811
 74
     0
 49
-0.2952755905511811
 74
     0
  0
LTYPE
  5
47
330
4
100
AcDbSymbolTableRecord
100
AcDbLinetypeTableRecord
  2
STYLE_14
 70
     0
  3

 72
    65
 73
     2
 40
1.968503937007874
 49
0.9842519685039369
 74
     0
 49
-0.9842519685039369
 74
     0
  0
LTYPE
  5
48
330
4
100
AcDbSymbolTableRecord
100
AcDbLinetypeTableRecord
  2
STYLE_15
 70
     0
  3

 72
    65
 73
     2
 40
0.1875
 49
0.125
 74
     0
 49
-0.0625
 74
     0
  0
LTYPE
  5
49
330
4
100
AcDbSymbolTableRecord
100
AcDbLinetypeTableRecord
  2
STYLE_16
 70
     0
  3

 72
    65
 73
     2
 40
0.3690944881889764
 49
0.2460629921259843
 74
     0
 49
-0.1230314960629922
 74
     0
  0
LTYPE
  5
916
330
4
100
AcDbSymbolTableRecord
100
AcDbLinetypeTableRecord
  2
CENTER2
 70
     0
  3
___ _ ___ _ ___ _ ___ _ ___ _ ___ _ ___ _ ___ _
 72
    65
 73
     4
 40
1.125
 49
0.75
 74
     0
 49
-0.125
 74
     0
 49
0.125
 74
     0
 49
-0.125
 74
     0
  0
ENDTAB
  0
TABLE
  2
LAYER
  5
2
102
{ACAD_XDICTIONARY
360
2E1
102
}
330
0
100
AcDbSymbolTable
 70
     8
  0
LAYER
  5
14
330
2
100
AcDbSymbolTableRecord
100
AcDbLayerTableRecord
  2
0
 70
     0
 62
     7
  6
Continuous
370
    -3
390
1D
347
266
  0
LAYER
  5
4B
330
2
100
AcDbSymbolTableRecord
100
AcDbLayerTableRecord
  2
TEMPLATE
 70
     0
 62
     7
  6
Continuous
370
     0
390
1D
347
266
  0
LAYER
  5
4C
330
2
100
AcDbSymbolTableRecord
100
AcDbLayerTableRecord
  2
DIM
 70
     0
 62
     7
  6
Continuous
370
     9
390
1D
347
266
  0
LAYER
  5
4D
330
2
100
AcDbSymbolTableRecord
100
AcDbLayerTableRecord
  2
MODEL
 70
     0
 62
     7
  6
Continuous
370
    -3
390
1D
347
266
  0
LAYER
  5
667
330
2
100
AcDbSymbolTableRecord
100
AcDbLayerTableRecord
  2
LOGO
 70
     0
 62
     7
  6
Continuous
370
    -3
390
1D
347
266
  0
LAYER
  5
88C
330
2
100
AcDbSymbolTableRecord
100
AcDbLayerTableRecord
  2
HIDDEN
 70
     0
 62
     7
  6
STYLE_12
370
     9
390
1D
347
266
1001
AcAecLayerStandard
1000

1000

  0
LAYER
  5
240E
330
2
100
AcDbSymbolTableRecord
100
AcDbLayerTableRecord
  2
Defpoints
 70
     0
 62
     7
  6
Continuous
290
     0
370
    -3
390
1D
347
266
  0
LAYER
  5
2411
330
2
100
AcDbSymbolTableRecord
100
AcDbLayerTableRecord
  2
SPESSA
 70
     0
 62
     4
  6
Continuous
370
    -3
390
1D
347
266
  0
ENDTAB
  0
TABLE
  2
STYLE
  5
3
330
0
100
AcDbSymbolTable
 70
     4
  0
STYLE
  5
17
330
3
100
AcDbSymbolTableRecord
100
AcDbTextStyleTableRecord
  2
Standard
 70
     0
 40
0.0
 41
1.0
 50
0.0
 71
     0
 42
2.5
  3
txt
  4
BIGFONT.SHX
  0
STYLE
  5
39
330
3
100
AcDbSymbolTableRecord
100
AcDbTextStyleTableRecord
  2
ＭＳ ゴシック
 70
     0
 40
0.0
 41
1.0
 50
0.0
 71
     0
 42
2.5
  3
msgothic.ttc
  4
ＭＳ ゴシック
1001
ACAD
1000
ＭＳ ゴシック
1071
        0
  0
STYLE
  5
384
330
3
100
AcDbSymbolTableRecord
100
AcDbTextStyleTableRecord
  2
ARIAL
 70
     0
 40
0.0
 41
1.0
 50
0.0
 71
     0
 42
12.0
  3
ARIAL.TTF
  4

1001
ACAD
1000
Arial
1071
       34
  0
STYLE
  5
385
330
3
100
AcDbSymbolTableRecord
100
AcDbTextStyleTableRecord
  2
ROMANS
 70
     0
 40
0.0
 41
1.0
 50
0.0
 71
     0
 42
5.0
  3
romans.shx
  4

  0
ENDTAB
  0
TABLE
  2
VIEW
  5
5
330
0
100
AcDbSymbolTable
 70
     0
  0
ENDTAB
  0
TABLE
  2
UCS
  5
6
330
0
100
AcDbSymbolTable
 70
     0
  0
ENDTAB
  0
TABLE
  2
APPID
  5
8
330
0
100
AcDbSymbolTable
 70
     3
  0
APPID
  5
16
330
8
100
AcDbSymbolTableRecord
100
AcDbRegAppTableRecord
  2
ACAD
 70
     0
  0
APPID
  5
7AC
330
8
100
AcDbSymbolTableRecord
100
AcDbRegAppTableRecord
  2
AcAecLayerStandard
 70
     0
  0
APPID
  5
109C
330
8
100
AcDbSymbolTableRecord
100
AcDbRegAppTableRecord
  2
ACAD_DSTYLE_DIMRADIAL_EXTENSION
 70
     0
  0
ENDTAB
  0
TABLE
  2
DIMSTYLE
  5
9
330
0
100
AcDbSymbolTable
 70
     5
100
AcDbDimStyleTable
  0
DIMSTYLE
105
18
330
9
100
AcDbSymbolTableRecord
100
AcDbDimStyleTableRecord
  2
Standard
 70
     0
178
     0
340
17
  0
DIMSTYLE
105
56
330
9
100
AcDbSymbolTableRecord
100
AcDbDimStyleTableRecord
  2
tform線あり
 70
     0
  3
<>
  4
[]
 41
9.999389648437498
 42
25.0
 43
0.9999999999999999
 44
0.0
 73
     0
 74
     0
 77
     1
 78
    11
140
24.4326171875
141
0.0
143
1.0
146
0.8
147
0.4999999999999999
171
     1
172
     1
174
     1
178
     0
179
     2
271
     1
272
     1
276
     2
284
    11
285
    11
286
    11
289
     0
340
39
341
4E
342
4E
  0
DIMSTYLE
105
57
102
{ACAD_REACTORS
330
32CE
330
32D2
330
336F
330
33A3
330
33AC
102
}
330
9
100
AcDbSymbolTableRecord
100
AcDbDimStyleTableRecord
  2
tfrom線あり
 70
     0
  3
<>
  4
[]
 41
6.0
 42
25.0
 43
0.9999999999999999
 44
0.0
 73
     0
 74
     0
 77
     1
 78
    11
140
12.0
141
0.0
143
1.0
147
10.0
171
     1
174
     1
178
     0
179
     2
271
     0
272
     1
276
     2
284
    11
285
    11
286
    11
289
     0
340
39
341
4E
342
4E
  0
DIMSTYLE
105
5C
330
9
100
AcDbSymbolTableRecord
100
AcDbDimStyleTableRecord
  2
JIS
 70
     0
  3
<>
  4
[]
 41
9.0
 42
0.0
 43
6.99999999999994
 44
19.9999999999962
 73
     0
 74
     0
 77
     1
 78
    11
140
24.4326171875
141
0.0
143
1.0
147
10.0
171
     1
174
     1
178
     0
179
     2
271
     1
272
     1
276
     2
284
    11
285
    11
286
    11
289
     0
340
39
341
4E
342
4E
  0
DIMSTYLE
105
383
102
{ACAD_REACTORS
330
2ACF
330
2AD0
330
2AD1
330
2AD2
330
2AD7
330
2AD8
330
2F35
330
2F37
330
2F39
330
2F3A
330
2F3B
330
3770
102
}
330
9
100
AcDbSymbolTableRecord
100
AcDbDimStyleTableRecord
  2
ARIAL
 70
     0
 41
10.0
 42
3.0
 43
0.5
 44
3.0
 73
     0
 74
     0
 77
     1
 78
     8
140
12.0
141
0.0
146
0.5
147
4.0
171
     1
172
     1
178
     0
271
     1
289
     0
340
384
  0
ENDTAB
  0
TABLE
  2
BLOCK_RECORD
  5
1
330
0
100
AcDbSymbolTable
 70
    38
  0
BLOCK_RECORD
  5
A
330
1
100
AcDbSymbolTableRecord
100
AcDbBlockTableRecord
  2
*MODEL_SPACE
340
20
 70
     0
280
     1
281
     0
  0
BLOCK_RECORD
  5
B
330
1
100
AcDbSymbolTableRecord
100
AcDbBlockTableRecord
  2
*PAPER_SPACE
340
21
 70
     0
280
     1
281
     0
  0
BLOCK_RECORD
  5
4E
330
1
100
AcDbSymbolTableRecord
100
AcDbBlockTableRecord
  2
_DOT
340
0
102
{BLKREFS
331
2F42
331
2F43
331
0
331
0
331
2F61
331
2F62
331
2F6F
331
2F70
331
2F7C
331
2F7D
331
2F8B
331
2F8C
331
2F99
331
2F9A
331
2FA5
331
2FA6
331
2FB2
331
2FB3
331
2FC1
331
2FC2
331
2FD0
331
2FD1
331
2FDF
331
2FE0
331
2FEF
331
2FF0
331
2FFC
331
2FFD
331
300B
331
300C
331
301A
331
301B
331
302A
331
302B
331
3036
331
3037
331
3043
331
3044
331
3052
331
3053
331
3061
331
3062
331
3070
331
3071
331
307E
331
307F
331
308B
331
308C
331
3099
331
309A
331
30A9
331
30AA
331
30B5
331
30B6
331
30C1
331
30C2
331
30CD
331
30CE
331
33B5
331
33B6
331
3586
331
3587
331
3766
331
3767
331
3777
331
3778
331
2F55
331
2F54
102
}
 70
     0
280
     1
281
     0
  0
BLOCK_RECORD
  5
68A
330
1
100
AcDbSymbolTableRecord
100
AcDbBlockTableRecord
  2
名称未設定-1
340
0
102
{BLKREFS
331
23FF
102
}
 70
     1
280
     1
281
     0
  0
BLOCK_RECORD
  5
690
330
1
100
AcDbSymbolTableRecord
100
AcDbBlockTableRecord
  2
block 3
340
0
102
{BLKREFS
331
68F
102
}
 70
     0
280
     1
281
     0
  0
BLOCK_RECORD
  5
693
330
1
100
AcDbSymbolTableRecord
100
AcDbBlockTableRecord
  2
block 4
340
0
102
{BLKREFS
331
692
102
}
 70
     0
280
     1
281
     0
  0
BLOCK_RECORD
  5
6A2
330
1
100
AcDbSymbolTableRecord
100
AcDbBlockTableRecord
  2
block 5
340
0
102
{BLKREFS
331
6A1
102
}
 70
     0
280
     1
281
     0
  0
BLOCK_RECORD
  5
2F3C
330
1
100
AcDbSymbolTableRecord
100
AcDbBlockTableRecord
  2
*D5
340
0
 70
     0
280
     1
281
     0
  0
BLOCK_RECORD
  5
2F4B
330
1
100
AcDbSymbolTableRecord
100
AcDbBlockTableRecord
  2
*D6
340
0
 70
     0
280
     1
281
     0
  0
BLOCK_RECORD
  5
2F5A
330
1
100
AcDbSymbolTableRecord
100
AcDbBlockTableRecord
  2
*D7
340
0
 70
     0
280
     1
281
     0
  0
BLOCK_RECORD
  5
2F69
330
1
100
AcDbSymbolTableRecord
100
AcDbBlockTableRecord
  2
*D8
340
0
 70
     0
280
     1
281
     0
  0
BLOCK_RECORD
  5
2F75
330
1
100
AcDbSymbolTableRecord
100
AcDbBlockTableRecord
  2
*D9
340
0
 70
     0
280
     1
281
     0
  0
BLOCK_RECORD
  5
2F84
330
1
100
AcDbSymbolTableRecord
100
AcDbBlockTableRecord
  2
*D10
340
0
 70
     0
280
     1
281
     0
  0
BLOCK_RECORD
  5
2F93
330
1
100
AcDbSymbolTableRecord
100
AcDbBlockTableRecord
  2
*D11
340
0
 70
     0
280
     1
281
     0
  0
BLOCK_RECORD
  5
2F9F
330
1
100
AcDbSymbolTableRecord
100
AcDbBlockTableRecord
  2
*D12
340
0
 70
     0
280
     1
281
     0
  0
BLOCK_RECORD
  5
2FAB
330
1
100
AcDbSymbolTableRecord
100
AcDbBlockTableRecord
  2
*D13
340
0
 70
     0
280
     1
281
     0
  0
BLOCK_RECORD
  5
2FBA
330
1
100
AcDbSymbolTableRecord
100
AcDbBlockTableRecord
  2
*D14
340
0
 70
     0
280
     1
281
     0
  0
BLOCK_RECORD
  5
2FC9
330
1
100
AcDbSymbolTableRecord
100
AcDbBlockTableRecord
  2
*D15
340
0
 70
     0
280
     1
281
     0
  0
BLOCK_RECORD
  5
2FD8
330
1
100
AcDbSymbolTableRecord
100
AcDbBlockTableRecord
  2
*D16
340
0
 70
     0
280
     1
281
     0
  0
BLOCK_RECORD
  5
2FE7
330
1
100
AcDbSymbolTableRecord
100
AcDbBlockTableRecord
  2
*D17
340
0
 70
     0
280
     1
281
     0
  0
BLOCK_RECORD
  5
2FF5
330
1
100
AcDbSymbolTableRecord
100
AcDbBlockTableRecord
  2
*D18
340
0
 70
     0
280
     1
281
     0
  0
BLOCK_RECORD
  5
3004
330
1
100
AcDbSymbolTableRecord
100
AcDbBlockTableRecord
  2
*D19
340
0
 70
     0
280
     1
281
     0
  0
BLOCK_RECORD
  5
3013
330
1
100
AcDbSymbolTableRecord
100
AcDbBlockTableRecord
  2
*D20
340
0
 70
     0
280
     1
281
     0
  0
BLOCK_RECORD
  5
3022
330
1
100
AcDbSymbolTableRecord
100
AcDbBlockTableRecord
  2
*D21
340
0
 70
     0
280
     1
281
     0
  0
BLOCK_RECORD
  5
3030
330
1
100
AcDbSymbolTableRecord
100
AcDbBlockTableRecord
  2
*D22
340
0
 70
     0
280
     1
281
     0
  0
BLOCK_RECORD
  5
303C
330
1
100
AcDbSymbolTableRecord
100
AcDbBlockTableRecord
  2
*D23
340
0
 70
     0
280
     1
281
     0
  0
BLOCK_RECORD
  5
304B
330
1
100
AcDbSymbolTableRecord
100
AcDbBlockTableRecord
  2
*D24
340
0
 70
     0
280
     1
281
     0
  0
BLOCK_RECORD
  5
305A
330
1
100
AcDbSymbolTableRecord
100
AcDbBlockTableRecord
  2
*D25
340
0
 70
     0
280
     1
281
     0
  0
BLOCK_RECORD
  5
3069
330
1
100
AcDbSymbolTableRecord
100
AcDbBlockTableRecord
  2
*D26
340
0
 70
     0
280
     1
281
     0
  0
BLOCK_RECORD
  5
3078
330
1
100
AcDbSymbolTableRecord
100
AcDbBlockTableRecord
  2
*D27
340
0
 70
     0
280
     1
281
     0
  0
BLOCK_RECORD
  5
3084
330
1
100
AcDbSymbolTableRecord
100
AcDbBlockTableRecord
  2
*D28
340
0
 70
     0
280
     1
281
     0
  0
BLOCK_RECORD
  5
3093
330
1
100
AcDbSymbolTableRecord
100
AcDbBlockTableRecord
  2
*D29
340
0
 70
     0
280
     1
281
     0
  0
BLOCK_RECORD
  5
30A3
330
1
100
AcDbSymbolTableRecord
100
AcDbBlockTableRecord
  2
*D30
340
0
 70
     0
280
     1
281
     0
  0
BLOCK_RECORD
  5
30AF
330
1
100
AcDbSymbolTableRecord
100
AcDbBlockTableRecord
  2
*D31
340
0
 70
     0
280
     1
281
     0
  0
BLOCK_RECORD
  5
30BB
330
1
100
AcDbSymbolTableRecord
100
AcDbBlockTableRecord
  2
*D32
340
0
 70
     0
280
     1
281
     0
  0
BLOCK_RECORD
  5
30C7
330
1
100
AcDbSymbolTableRecord
100
AcDbBlockTableRecord
  2
*D33
340
0
 70
     0
280
     1
281
     0
  0
BLOCK_RECORD
  5
33AF
330
1
100
AcDbSymbolTableRecord
100
AcDbBlockTableRecord
  2
*D34
340
0
 70
     0
280
     1
281
     0
  0
BLOCK_RECORD
  5
357F
330
1
100
AcDbSymbolTableRecord
100
AcDbBlockTableRecord
  2
*D35
340
0
 70
     0
280
     1
281
     0
  0
BLOCK_RECORD
  5
3761
330
1
100
AcDbSymbolTableRecord
100
AcDbBlockTableRecord
  2
*D36
340
0
 70
     0
280
     1
281
     0
  0
BLOCK_RECORD
  5
3771
330
1
100
AcDbSymbolTableRecord
100
AcDbBlockTableRecord
  2
*D37
340
0
 70
     0
280
     1
281
     0
  0
ENDTAB
  0
ENDSEC
  0
SECTION
  2
BLOCKS
  0
BLOCK
  5
D
330
A
100
AcDbEntity
  8
0
390
1D
100
AcDbBlockBegin
  2
*MODEL_SPACE
 70
     0
 10
0.0
 20
0.0
 30
0.0
  3
*MODEL_SPACE
  1
*MODEL_SPACE
  0
ENDBLK
  5
E
330
A
100
AcDbEntity
  8
0
390
1D
100
AcDbBlockEnd
  0
BLOCK
  5
F
330
B
100
AcDbEntity
 67
     1
  8
0
390
1D
100
AcDbBlockBegin
  2
*PAPER_SPACE
 70
     0
 10
0.0
 20
0.0
 30
0.0
  3
*PAPER_SPACE
  1
*PAPER_SPACE
  0
ENDBLK
  5
10
330
B
100
AcDbEntity
 67
     1
  8
0
390
1D
100
AcDbBlockEnd
  0
BLOCK
  5
5B7
330
4E
100
AcDbEntity
  8
0
390
1D
100
AcDbBlockBegin
  2
_DOT
 70
     0
 10
0.0
 20
0.0
 30
0.0
  3
_DOT
  1
_DOT
  0
POLYLINE
  5
5B9
330
4E
100
AcDbEntity
  8
0
  6
ByBlock
 62
     0
370
    -2
390
1D
100
AcDb2dPolyline
 66
     1
 10
0.0
 20
0.0
 30
0.0
 70
     1
 40
0.5
 41
0.5
  0
VERTEX
  5
5BA
330
5B9
100
AcDbEntity
  8
0
  6
ByBlock
 62
     0
370
    -2
390
1D
100
AcDbVertex
100
AcDb2dVertex
 10
-0.25
 20
0.0
 30
0.0
 42
1.0
  0
VERTEX
  5
5BB
330
5B9
100
AcDbEntity
  8
0
  6
ByBlock
 62
     0
370
    -2
390
1D
100
AcDbVertex
100
AcDb2dVertex
 10
0.25
 20
0.0
 30
0.0
 42
1.0
  0
SEQEND
  5
5BC
330
5B9
100
AcDbEntity
  8
0
390
1D
  0
LINE
  5
5BD
330
4E
100
AcDbEntity
  8
0
  6
ByBlock
 62
     0
370
    -2
390
1D
100
AcDbLine
 10
-0.5
 20
0.0
 30
0.0
 11
-1.0
 21
0.0
 31
0.0
  0
ENDBLK
  5
5BE
330
4E
100
AcDbEntity
  8
0
390
1D
100
AcDbBlockEnd
  0
BLOCK
  5
68B
330
68A
100
AcDbEntity
  8
0
100
AcDbBlockBegin
  2
名称未設定-1
 70
     0
 10
0.0
 20
0.0
 30
0.0
  3
名称未設定-1
  1
名称未設定-1
  0
INSERT
  5
68F
330
68A
100
AcDbEntity
  8
LOGO
100
AcDbBlockReference
  2
block 3
 10
0.0
 20
0.0
 30
0.0
  0
ENDBLK
  5
6B1
330
68A
100
AcDbEntity
  8
0
100
AcDbBlockEnd
  0
BLOCK
  5
691
330
690
100
AcDbEntity
  8
0
100
AcDbBlockBegin
  2
block 3
 70
     0
 10
0.0
 20
0.0
 30
0.0
  3
block 3
  1
block 3
  0
INSERT
  5
692
330
690
100
AcDbEntity
  8
LOGO
100
AcDbBlockReference
  2
block 4
 10
0.0
 20
0.0
 30
0.0
  0
INSERT
  5
6A1
330
690
100
AcDbEntity
  8
LOGO
100
AcDbBlockReference
  2
block 5
 10
0.0
 20
0.0
 30
0.0
  0
ENDBLK
  5
6AF
330
690
100
AcDbEntity
  8
0
100
AcDbBlockEnd
  0
BLOCK
  5
694
330
693
100
AcDbEntity
  8
0
100
AcDbBlockBegin
  2
block 4
 70
     0
 10
0.0
 20
0.0
 30
0.0
  3
block 4
  1
block 4
  0
POLYLINE
  5
695
330
693
100
AcDbEntity
  8
LOGO
370
     0
100
AcDb2dPolyline
 66
     1
 10
0.0
 20
0.0
 30
0.0
  0
VERTEX
  5
696
330
695
100
AcDbEntity
  8
LOGO
370
     0
100
AcDbVertex
100
AcDb2dVertex
 10
83.79545727667795
 20
167.6444858234922
 30
0.0
  0
VERTEX
  5
697
330
695
100
AcDbEntity
  8
LOGO
370
     0
100
AcDbVertex
100
AcDb2dVertex
 10
83.79545727667795
 20
159.7968976406313
 30
0.0
  0
VERTEX
  5
698
330
695
100
AcDbEntity
  8
LOGO
370
     0
100
AcDbVertex
100
AcDb2dVertex
 10
71.3631329975216
 20
159.7968976406313
 30
0.0
  0
VERTEX
  5
699
330
695
100
AcDbEntity
  8
LOGO
370
     0
100
AcDbVertex
100
AcDb2dVertex
 10
71.3631329975216
 20
127.8027915271048
 30
0.0
  0
VERTEX
  5
69A
330
695
100
AcDbEntity
  8
LOGO
370
     0
100
AcDbVertex
100
AcDb2dVertex
 10
60.43011526263018
 20
127.8027915271048
 30
0.0
  0
VERTEX
  5
69B
330
695
100
AcDbEntity
  8
LOGO
370
     0
100
AcDbVertex
100
AcDb2dVertex
 10
60.43011526263018
 20
159.7968976406313
 30
0.0
  0
VERTEX
  5
69C
330
695
100
AcDbEntity
  8
LOGO
370
     0
100
AcDbVertex
100
AcDb2dVertex
 10
48.21793273020759
 20
159.7968976406313
 30
0.0
  0
VERTEX
  5
69D
330
695
100
AcDbEntity
  8
LOGO
370
     0
100
AcDbVertex
100
AcDb2dVertex
 10
48.21793273020759
 20
167.6444858234922
 30
0.0
  0
VERTEX
  5
69E
330
695
100
AcDbEntity
  8
LOGO
370
     0
100
AcDbVertex
100
AcDb2dVertex
 10
83.79545727667795
 20
167.6444858234922
 30
0.0
  0
SEQEND
  5
69F
330
695
100
AcDbEntity
  8
LOGO
370
     0
  0
HATCH
  5
6A0
330
693
100
AcDbEntity
  8
LOGO
 62
   250
420
  2234388
100
AcDbHatch
 10
0.0
 20
0.0
 30
0.0
210
0.0
220
0.0
230
1.0
  2
SOLID
 70
     1
 71
     0
 91
        1
 92
        1
 93
        8
 72
     1
 10
83.79545727667795
 20
167.6444858234922
 11
83.79545727667795
 21
159.7968976406313
 72
     1
 10
83.79545727667795
 20
159.7968976406313
 11
71.3631329975216
 21
159.7968976406313
 72
     1
 10
71.3631329975216
 20
159.7968976406313
 11
71.3631329975216
 21
127.8027915271048
 72
     1
 10
71.3631329975216
 20
127.8027915271048
 11
60.43011526263018
 21
127.8027915271048
 72
     1
 10
60.43011526263018
 20
127.8027915271048
 11
60.43011526263018
 21
159.7968976406313
 72
     1
 10
60.43011526263018
 20
159.7968976406313
 11
48.21793273020759
 21
159.7968976406313
 72
     1
 10
48.21793273020759
 20
159.7968976406313
 11
48.21793273020759
 21
167.6444858234922
 72
     1
 10
48.21793273020759
 20
167.6444858234922
 11
83.79545727667795
 21
167.6444858234922
 97
        0
 75
     2
 76
     1
 98
        0
  0
ENDBLK
  5
6AE
330
693
100
AcDbEntity
  8
0
100
AcDbBlockEnd
  0
BLOCK
  5
6A3
330
6A2
100
AcDbEntity
  8
0
100
AcDbBlockBegin
  2
block 5
 70
     0
 10
0.0
 20
0.0
 30
0.0
  3
block 5
  1
block 5
  0
SPLINE
  5
6A4
330
6A2
100
AcDbEntity
  8
LOGO
370
     0
100
AcDbSpline
210
0.0
220
0.0
230
1.0
 70
    11
 71
     3
 72
    56
 73
    52
 74
     0
 42
0.000000001
 43
0.0000000001
 40
0.0
 40
0.0
 40
0.0
 40
0.0
 40
1.0
 40
1.0
 40
1.0
 40
2.0
 40
2.0
 40
2.0
 40
3.0
 40
3.0
 40
3.0
 40
4.0
 40
4.0
 40
4.0
 40
5.0
 40
5.0
 40
5.0
 40
6.0
 40
6.0
 40
6.0
 40
7.0
 40
7.0
 40
7.0
 40
8.0
 40
8.0
 40
8.0
 40
9.0
 40
9.0
 40
9.0
 40
10.0
 40
10.0
 40
10.0
 40
11.0
 40
11.0
 40
11.0
 40
12.0
 40
12.0
 40
12.0
 40
13.0
 40
13.0
 40
13.0
 40
14.0
 40
14.0
 40
14.0
 40
15.0
 40
15.0
 40
15.0
 40
16.0
 40
16.0
 40
16.0
 40
17.0
 40
17.0
 40
17.0
 40
17.0
 10
100.4504378777679
 20
166.69157178364
 30
0.0
 10
101.9848844191641
 20
167.1313385124438
 30
0.0
 10
103.9637485713373
 20
166.7649523658846
 30
0.0
 10
103.9637485713373
 20
166.7649523658846
 30
0.0
 10
103.9637485713373
 20
166.7649523658846
 30
0.0
 10
103.0132460999156
 20
163.911205638077
 30
0.0
 10
103.0132460999156
 20
163.911205638077
 30
0.0
 10
103.0132460999156
 20
163.911205638077
 30
0.0
 10
101.0674548862189
 20
164.3601018759394
 30
0.0
 10
99.57090442016032
 20
163.1805004036133
 30
0.0
 10
98.40508333886608
 20
162.258247733807
 30
0.0
 10
97.65301849830304
 20
159.804132345923
 30
0.0
 10
97.3598406791005
 20
158.8699940888517
 30
0.0
 10
97.3598406791005
 20
158.8699940888517
 30
0.0
 10
96.07137411762282
 20
154.9119212747295
 30
0.0
 10
96.07137411762282
 20
154.9119212747295
 30
0.0
 10
96.07137411762282
 20
154.9119212747295
 30
0.0
 10
100.3012651448482
 20
154.9119212747295
 30
0.0
 10
100.3012651448482
 20
154.9119212747295
 30
0.0
 10
100.3012651448482
 20
154.9119212747295
 30
0.0
 10
99.64152892419852
 20
152.4199098115079
 30
0.0
 10
99.64152892419852
 20
152.4199098115079
 30
0.0
 10
99.64152892419852
 20
152.4199098115079
 30
0.0
 10
95.38097652692731
 20
152.4199098115079
 30
0.0
 10
95.38097652692731
 20
152.4199098115079
 30
0.0
 10
95.38097652692731
 20
152.4199098115079
 30
0.0
 10
87.75353009080013
 20
127.8027915271048
 30
0.0
 10
87.75353009080013
 20
127.8027915271048
 30
0.0
 10
87.75353009080013
 20
127.8027915271048
 30
0.0
 10
85.36538832498108
 20
127.8027915271048
 30
0.0
 10
85.36538832498108
 20
127.8027915271048
 30
0.0
 10
85.36538832498108
 20
127.8027915271048
 30
0.0
 10
93.00006946639998
 20
152.4199098115079
 30
0.0
 10
93.00006946639998
 20
152.4199098115079
 30
0.0
 10
93.00006946639998
 20
152.4199098115079
 30
0.0
 10
89.85297266450198
 20
152.4199098115079
 30
0.0
 10
89.85297266450198
 20
152.4199098115079
 30
0.0
 10
89.85297266450198
 20
152.4199098115079
 30
0.0
 10
90.51270888515164
 20
154.9119212747295
 30
0.0
 10
90.51270888515164
 20
154.9119212747295
 30
0.0
 10
90.51270888515164
 20
154.9119212747295
 30
0.0
 10
93.6904670570955
 20
154.9119212747295
 30
0.0
 10
93.6904670570955
 20
154.9119212747295
 30
0.0
 10
93.6904670570955
 20
154.9119212747295
 30
0.0
 10
94.81598049462158
 20
158.3616699146644
 30
0.0
 10
94.81598049462158
 20
158.3616699146644
 30
0.0
 10
95.7237637538445
 20
161.2605474231013
 30
0.0
 10
96.4968436907311
 20
162.8139420021662
 30
0.0
 10
97.15657991138076
 20
163.9844139654337
 30
0.0
 10
97.81183750494507
 20
165.1523021053827
 30
0.0
 10
99.1047826935081
 20
166.3084769129547
 30
0.0
 10
100.4504378777679
 20
166.69157178364
 30
0.0
  0
HATCH
  5
6A5
330
6A2
100
AcDbEntity
  8
LOGO
 62
   250
420
  2234388
100
AcDbHatch
 10
0.0
 20
0.0
 30
0.0
210
0.0
220
0.0
230
1.0
  2
SOLID
 70
     1
 71
     0
 91
        1
 92
        1
 93
        1
 72
     4
 94
        3
 73
     0
 74
     1
 95
       56
 96
       52
 40
0.0
 40
0.0
 40
0.0
 40
0.0
 40
1.0
 40
1.0
 40
1.0
 40
2.0
 40
2.0
 40
2.0
 40
3.0
 40
3.0
 40
3.0
 40
4.0
 40
4.0
 40
4.0
 40
5.0
 40
5.0
 40
5.0
 40
6.0
 40
6.0
 40
6.0
 40
7.0
 40
7.0
 40
7.0
 40
8.0
 40
8.0
 40
8.0
 40
9.0
 40
9.0
 40
9.0
 40
10.0
 40
10.0
 40
10.0
 40
11.0
 40
11.0
 40
11.0
 40
12.0
 40
12.0
 40
12.0
 40
13.0
 40
13.0
 40
13.0
 40
14.0
 40
14.0
 40
14.0
 40
15.0
 40
15.0
 40
15.0
 40
16.0
 40
16.0
 40
16.0
 40
17.0
 40
17.0
 40
17.0
 40
17.0
 10
100.4504378777679
 20
166.69157178364
 10
101.9848844191641
 20
167.1313385124438
 10
103.9637485713373
 20
166.7649523658846
 10
103.9637485713373
 20
166.7649523658846
 10
103.9637485713373
 20
166.7649523658846
 10
103.0132460999156
 20
163.911205638077
 10
103.0132460999156
 20
163.911205638077
 10
103.0132460999156
 20
163.911205638077
 10
101.0674548862189
 20
164.3601018759394
 10
99.57090442016032
 20
163.1805004036133
 10
98.40508333886608
 20
162.258247733807
 10
97.65301849830304
 20
159.804132345923
 10
97.3598406791005
 20
158.8699940888517
 10
97.3598406791005
 20
158.8699940888517
 10
96.07137411762282
 20
154.9119212747295
 10
96.07137411762282
 20
154.9119212747295
 10
96.07137411762282
 20
154.9119212747295
 10
100.3012651448482
 20
154.9119212747295
 10
100.3012651448482
 20
154.9119212747295
 10
100.3012651448482
 20
154.9119212747295
 10
99.64152892419852
 20
152.4199098115079
 10
99.64152892419852
 20
152.4199098115079
 10
99.64152892419852
 20
152.4199098115079
 10
95.38097652692731
 20
152.4199098115079
 10
95.38097652692731
 20
152.4199098115079
 10
95.38097652692731
 20
152.4199098115079
 10
87.75353009080013
 20
127.8027915271048
 10
87.75353009080013
 20
127.8027915271048
 10
87.75353009080013
 20
127.8027915271048
 10
85.36538832498108
 20
127.8027915271048
 10
85.36538832498108
 20
127.8027915271048
 10
85.36538832498108
 20
127.8027915271048
 10
93.00006946639998
 20
152.4199098115079
 10
93.00006946639998
 20
152.4199098115079
 10
93.00006946639998
 20
152.4199098115079
 10
89.85297266450198
 20
152.4199098115079
 10
89.85297266450198
 20
152.4199098115079
 10
89.85297266450198
 20
152.4199098115079
 10
90.51270888515164
 20
154.9119212747295
 10
90.51270888515164
 20
154.9119212747295
 10
90.51270888515164
 20
154.9119212747295
 10
93.6904670570955
 20
154.9119212747295
 10
93.6904670570955
 20
154.9119212747295
 10
93.6904670570955
 20
154.9119212747295
 10
94.81598049462158
 20
158.3616699146644
 10
94.81598049462158
 20
158.3616699146644
 10
95.7237637538445
 20
161.2605474231013
 10
96.4968436907311
 20
162.8139420021662
 10
97.15657991138076
 20
163.9844139654337
 10
97.81183750494507
 20
165.1523021053827
 10
99.1047826935081
 20
166.3084769129547
 10
100.4504378777679
 20
166.69157178364
 97
        0
 75
     2
 76
     1
 98
        0
  0
SPLINE
  5
6A6
330
6A2
100
AcDbEntity
  8
LOGO
370
     0
100
AcDbSpline
210
0.0
220
0.0
230
1.0
 70
    11
 71
     3
 72
    38
 73
    34
 74
     0
 42
0.000000001
 43
0.0000000001
 40
0.0
 40
0.0
 40
0.0
 40
0.0
 40
1.0
 40
1.0
 40
1.0
 40
2.0
 40
2.0
 40
2.0
 40
3.0
 40
3.0
 40
3.0
 40
4.0
 40
4.0
 40
4.0
 40
5.0
 40
5.0
 40
5.0
 40
6.0
 40
6.0
 40
6.0
 40
7.0
 40
7.0
 40
7.0
 40
8.0
 40
8.0
 40
8.0
 40
9.0
 40
9.0
 40
9.0
 40
10.0
 40
10.0
 40
10.0
 40
11.0
 40
11.0
 40
11.0
 40
11.0
 10
126.377554584636
 20
154.8151140277308
 30
0.0
 10
126.377554584636
 20
154.8151140277308
 30
0.0
 10
128.8311532078563
 20
154.8151140277308
 30
0.0
 10
128.8311532078563
 20
154.8151140277308
 30
0.0
 10
128.8311532078563
 20
154.8151140277308
 30
0.0
 10
127.7345785914971
 20
151.3062819612468
 30
0.0
 10
127.7345785914971
 20
151.3062819612468
 30
0.0
 10
128.571392836906
 20
152.2922689395754
 30
0.0
 10
129.8860421413442
 20
153.604506675583
 30
0.0
 10
131.0163787157314
 20
154.2664822097754
 30
0.0
 10
132.7044766171327
 20
155.2500576196734
 30
0.0
 10
133.6642808525008
 20
155.3847609420097
 30
0.0
 10
134.7284715499351
 20
155.3565111403944
 30
0.0
 10
134.7284715499351
 20
155.3565111403944
 30
0.0
 10
133.6877075172549
 20
152.0345756272799
 30
0.0
 10
133.6877075172549
 20
152.0345756272799
 30
0.0
 10
133.011434827367
 20
152.3184516825359
 30
0.0
 10
130.930940291334
 20
151.7768823149844
 30
0.0
 10
129.739280976855
 20
150.9162968950455
 30
0.0
 10
128.66613302525
 20
150.1454562717016
 30
0.0
 10
127.9192358313239
 20
149.4857200510519
 30
0.0
 10
127.0393578639405
 20
147.8282835196966
 30
0.0
 10
126.164647543194
 20
146.1699857139017
 30
0.0
 10
125.4742499524985
 20
143.5262176944419
 30
0.0
 10
124.2822461282437
 20
139.6959580071401
 30
0.0
 10
124.2822461282437
 20
139.6959580071401
 30
0.0
 10
120.5753209406769
 20
127.8027915271048
 30
0.0
 10
120.5753209406769
 20
127.8027915271048
 30
0.0
 10
120.5753209406769
 20
127.8027915271048
 30
0.0
 10
118.1964809388044
 20
127.8027915271048
 30
0.0
 10
118.1964809388044
 20
127.8027915271048
 30
0.0
 10
118.1964809388044
 20
127.8027915271048
 30
0.0
 10
126.377554584636
 20
154.8151140277308
 30
0.0
 10
126.377554584636
 20
154.8151140277308
 30
0.0
  0
HATCH
  5
6A7
330
6A2
100
AcDbEntity
  8
LOGO
 62
   250
420
  2234388
100
AcDbHatch
 10
0.0
 20
0.0
 30
0.0
210
0.0
220
0.0
230
1.0
  2
SOLID
 70
     1
 71
     0
 91
        1
 92
        1
 93
        1
 72
     4
 94
        3
 73
     0
 74
     1
 95
       38
 96
       34
 40
0.0
 40
0.0
 40
0.0
 40
0.0
 40
1.0
 40
1.0
 40
1.0
 40
2.0
 40
2.0
 40
2.0
 40
3.0
 40
3.0
 40
3.0
 40
4.0
 40
4.0
 40
4.0
 40
5.0
 40
5.0
 40
5.0
 40
6.0
 40
6.0
 40
6.0
 40
7.0
 40
7.0
 40
7.0
 40
8.0
 40
8.0
 40
8.0
 40
9.0
 40
9.0
 40
9.0
 40
10.0
 40
10.0
 40
10.0
 40
11.0
 40
11.0
 40
11.0
 40
11.0
 10
126.377554584636
 20
154.8151140277308
 10
126.377554584636
 20
154.8151140277308
 10
128.8311532078563
 20
154.8151140277308
 10
128.8311532078563
 20
154.8151140277308
 10
128.8311532078563
 20
154.8151140277308
 10
127.7345785914971
 20
151.3062819612468
 10
127.7345785914971
 20
151.3062819612468
 10
128.571392836906
 20
152.2922689395754
 10
129.8860421413442
 20
153.604506675583
 10
131.0163787157314
 20
154.2664822097754
 10
132.7044766171327
 20
155.2500576196734
 10
133.6642808525008
 20
155.3847609420097
 10
134.7284715499351
 20
155.3565111403944
 10
134.7284715499351
 20
155.3565111403944
 10
133.6877075172549
 20
152.0345756272799
 10
133.6877075172549
 20
152.0345756272799
 10
133.011434827367
 20
152.3184516825359
 10
130.930940291334
 20
151.7768823149844
 10
129.739280976855
 20
150.9162968950455
 10
128.66613302525
 20
150.1454562717016
 10
127.9192358313239
 20
149.4857200510519
 10
127.0393578639405
 20
147.8282835196966
 10
126.164647543194
 20
146.1699857139017
 10
125.4742499524985
 20
143.5262176944419
 10
124.2822461282437
 20
139.6959580071401
 10
124.2822461282437
 20
139.6959580071401
 10
120.5753209406769
 20
127.8027915271048
 10
120.5753209406769
 20
127.8027915271048
 10
120.5753209406769
 20
127.8027915271048
 10
118.1964809388044
 20
127.8027915271048
 10
118.1964809388044
 20
127.8027915271048
 10
118.1964809388044
 20
127.8027915271048
 10
126.377554584636
 20
154.8151140277308
 10
126.377554584636
 20
154.8151140277308
 97
        0
 75
     2
 76
     1
 98
        0
  0
SPLINE
  5
6A8
330
6A2
100
AcDbEntity
  8
LOGO
370
     0
100
AcDbSpline
210
0.0
220
0.0
230
1.0
 70
    11
 71
     3
 72
   104
 73
   100
 74
     0
 42
0.000000001
 43
0.0000000001
 40
0.0
 40
0.0
 40
0.0
 40
0.0
 40
1.0
 40
1.0
 40
1.0
 40
2.0
 40
2.0
 40
2.0
 40
3.0
 40
3.0
 40
3.0
 40
4.0
 40
4.0
 40
4.0
 40
5.0
 40
5.0
 40
5.0
 40
6.0
 40
6.0
 40
6.0
 40
7.0
 40
7.0
 40
7.0
 40
8.0
 40
8.0
 40
8.0
 40
9.0
 40
9.0
 40
9.0
 40
10.0
 40
10.0
 40
10.0
 40
11.0
 40
11.0
 40
11.0
 40
12.0
 40
12.0
 40
12.0
 40
13.0
 40
13.0
 40
13.0
 40
14.0
 40
14.0
 40
14.0
 40
15.0
 40
15.0
 40
15.0
 40
16.0
 40
16.0
 40
16.0
 40
17.0
 40
17.0
 40
17.0
 40
18.0
 40
18.0
 40
18.0
 40
19.0
 40
19.0
 40
19.0
 40
20.0
 40
20.0
 40
20.0
 40
21.0
 40
21.0
 40
21.0
 40
22.0
 40
22.0
 40
22.0
 40
23.0
 40
23.0
 40
23.0
 40
24.0
 40
24.0
 40
24.0
 40
25.0
 40
25.0
 40
25.0
 40
26.0
 40
26.0
 40
26.0
 40
27.0
 40
27.0
 40
27.0
 40
28.0
 40
28.0
 40
28.0
 40
29.0
 40
29.0
 40
29.0
 40
30.0
 40
30.0
 40
30.0
 40
31.0
 40
31.0
 40
31.0
 40
32.0
 40
32.0
 40
32.0
 40
33.0
 40
33.0
 40
33.0
 40
33.0
 10
139.8926730891197
 20
154.8294111834263
 30
0.0
 10
139.8926730891197
 20
154.8294111834263
 30
0.0
 10
142.0344903652445
 20
154.8294111834263
 30
0.0
 10
142.0344903652445
 20
154.8294111834263
 30
0.0
 10
142.0344903652445
 20
154.8294111834263
 30
0.0
 10
140.9516961399171
 20
151.3157559800812
 30
0.0
 10
140.9516961399171
 20
151.3157559800812
 30
0.0
 10
141.8928968473923
 20
152.7887075264977
 30
0.0
 10
142.7341897198865
 20
153.4484437471474
 30
0.0
 10
143.8552245303272
 20
154.2926649527359
 30
0.0
 10
144.9803934580775
 20
155.1296514530327
 30
0.0
 10
146.3139908001845
 20
155.3044901642492
 30
0.0
 10
147.241066606852
 20
155.3044901642492
 30
0.0
 10
148.3855280820469
 20
155.3044901642492
 30
0.0
 10
149.4969166187653
 20
155.0752189084569
 30
0.0
 10
150.0784491203092
 20
153.8172414621372
 30
0.0
 10
150.5228667310863
 20
152.833838307127
 30
0.0
 10
150.5414702589793
 20
152.7201500811143
 30
0.0
 10
150.4140016419347
 20
150.7765981809602
 30
0.0
 10
151.5818897818837
 20
152.7699317437168
 30
0.0
 10
152.4424752018226
 20
153.6256940267945
 30
0.0
 10
153.9038856707499
 20
154.4507949398263
 30
0.0
 10
155.4455669174378
 20
155.3044901642492
 30
0.0
 10
156.339225275853
 20
155.3659851592288
 30
0.0
 10
157.3748216618963
 20
155.2147453676543
 30
0.0
 10
158.911679771723
 20
154.9877134254046
 30
0.0
 10
159.8859534176746
 20
154.4390816074493
 30
0.0
 10
160.3965169054045
 20
152.7816450760939
 30
0.0
 10
160.9070803931344
 20
151.1219692311958
 30
0.0
 10
160.6328506116007
 20
150.2303779314354
 30
0.0
 10
159.9992971339115
 20
147.597634224801
 30
0.0
 10
159.7105979417943
 20
146.4014962832367
 30
0.0
 10
159.2947746424084
 20
144.9400858143094
 30
0.0
 10
158.7463150793409
 20
143.2092687007094
 30
0.0
 10
158.7463150793409
 20
143.2092687007094
 30
0.0
 10
153.9038856707499
 20
127.8027915271048
 30
0.0
 10
153.9038856707499
 20
127.8027915271048
 30
0.0
 10
153.9038856707499
 20
127.8027915271048
 30
0.0
 10
151.3882752878863
 20
127.8027915271048
 30
0.0
 10
151.3882752878863
 20
127.8027915271048
 30
0.0
 10
151.3882752878863
 20
127.8027915271048
 30
0.0
 10
155.6250565106276
 20
141.2751908193897
 30
0.0
 10
155.6250565106276
 20
141.2751908193897
 30
0.0
 10
156.5094131050963
 20
144.0936252951782
 30
0.0
 10
157.109893644309
 20
146.1506931664571
 30
0.0
 10
157.4220195011804
 20
147.4415712963654
 30
0.0
 10
157.8095929989511
 20
149.0530157726519
 30
0.0
 10
157.9656559273867
 20
149.5826995529385
 30
0.0
 10
157.7816877071116
 20
150.7529992613181
 30
0.0
 10
157.6111553680925
 20
151.8430281919372
 30
0.0
 10
157.0582171779396
 20
152.5547853887321
 30
0.0
 10
156.1170164704645
 20
152.5547853887321
 30
0.0
 10
155.1096698860365
 20
152.5547853887321
 30
0.0
 10
154.2962823053817
 20
152.4412694176073
 30
0.0
 10
153.156643967048
 20
151.2945686288697
 30
0.0
 10
152.0170056287143
 20
150.1476955852443
 30
0.0
 10
151.076149431015
 20
148.7930831468137
 30
0.0
 10
150.3337308641742
 20
147.2290087646991
 30
0.0
 10
149.5957909244188
 20
145.6683794803425
 30
0.0
 10
148.8530278478023
 20
143.6822806228776
 30
0.0
 10
148.0964843801539
 20
141.2751908193897
 30
0.0
 10
148.0964843801539
 20
141.2751908193897
 30
0.0
 10
143.8552245303272
 20
127.8027915271048
 30
0.0
 10
143.8552245303272
 20
127.8027915271048
 30
0.0
 10
143.8552245303272
 20
127.8027915271048
 30
0.0
 10
141.486030802177
 20
127.8027915271048
 30
0.0
 10
141.486030802177
 20
127.8027915271048
 30
0.0
 10
141.486030802177
 20
127.8027915271048
 30
0.0
 10
146.3329388378533
 20
143.2092687007094
 30
0.0
 10
146.3329388378533
 20
143.2092687007094
 30
0.0
 10
146.8483254624444
 20
144.8408669988801
 30
0.0
 10
147.2314203331297
 20
146.1837661049335
 30
0.0
 10
147.4867020769946
 20
147.224185627838
 30
0.0
 10
147.9169947869641
 20
149.0197705792876
 30
0.0
 10
148.0306830129768
 20
150.2400242051577
 30
0.0
 10
147.709255392159
 20
151.3157559800812
 30
0.0
 10
147.3874832615654
 20
152.3916600098926
 30
0.0
 10
146.8245542879144
 20
152.6683013598569
 30
0.0
 10
145.8840425999909
 20
152.6683013598569
 30
0.0
 10
145.0989048209514
 20
152.6683013598569
 30
0.0
 10
144.3282364524954
 20
152.3275811915945
 30
0.0
 10
143.4531816219731
 20
151.6538923250251
 30
0.0
 10
142.34627171234
 20
150.8074318058939
 30
0.0
 10
141.901854101563
 20
150.1097995099067
 30
0.0
 10
141.3578731655808
 20
149.289521733736
 30
0.0
 10
140.6299240093235
 20
148.192602607601
 30
0.0
 10
140.2850697237515
 20
147.455696197173
 30
0.0
 10
139.6652966370942
 20
145.8385673095858
 30
0.0
 10
139.0506911970739
 20
144.2214384219986
 30
0.0
 10
138.463991048893
 20
142.3252566160164
 30
0.0
 10
138.0571250036777
 20
141.0154304484394
 30
0.0
 10
138.0571250036777
 20
141.0154304484394
 30
0.0
 10
133.9009590684727
 20
127.8027915271048
 30
0.0
 10
133.9009590684727
 20
127.8027915271048
 30
0.0
 10
133.9009590684727
 20
127.8027915271048
 30
0.0
 10
131.4180771143097
 20
127.8027915271048
 30
0.0
 10
131.4180771143097
 20
127.8027915271048
 30
0.0
 10
131.4180771143097
 20
127.8027915271048
 30
0.0
 10
139.8926730891197
 20
154.8294111834263
 30
0.0
 10
139.8926730891197
 20
154.8294111834263
 30
0.0
  0
HATCH
  5
6A9
330
6A2
100
AcDbEntity
  8
LOGO
 62
   250
420
  2234388
100
AcDbHatch
 10
0.0
 20
0.0
 30
0.0
210
0.0
220
0.0
230
1.0
  2
SOLID
 70
     1
 71
     0
 91
        1
 92
        1
 93
        1
 72
     4
 94
        3
 73
     0
 74
     1
 95
      104
 96
      100
 40
0.0
 40
0.0
 40
0.0
 40
0.0
 40
1.0
 40
1.0
 40
1.0
 40
2.0
 40
2.0
 40
2.0
 40
3.0
 40
3.0
 40
3.0
 40
4.0
 40
4.0
 40
4.0
 40
5.0
 40
5.0
 40
5.0
 40
6.0
 40
6.0
 40
6.0
 40
7.0
 40
7.0
 40
7.0
 40
8.0
 40
8.0
 40
8.0
 40
9.0
 40
9.0
 40
9.0
 40
10.0
 40
10.0
 40
10.0
 40
11.0
 40
11.0
 40
11.0
 40
12.0
 40
12.0
 40
12.0
 40
13.0
 40
13.0
 40
13.0
 40
14.0
 40
14.0
 40
14.0
 40
15.0
 40
15.0
 40
15.0
 40
16.0
 40
16.0
 40
16.0
 40
17.0
 40
17.0
 40
17.0
 40
18.0
 40
18.0
 40
18.0
 40
19.0
 40
19.0
 40
19.0
 40
20.0
 40
20.0
 40
20.0
 40
21.0
 40
21.0
 40
21.0
 40
22.0
 40
22.0
 40
22.0
 40
23.0
 40
23.0
 40
23.0
 40
24.0
 40
24.0
 40
24.0
 40
25.0
 40
25.0
 40
25.0
 40
26.0
 40
26.0
 40
26.0
 40
27.0
 40
27.0
 40
27.0
 40
28.0
 40
28.0
 40
28.0
 40
29.0
 40
29.0
 40
29.0
 40
30.0
 40
30.0
 40
30.0
 40
31.0
 40
31.0
 40
31.0
 40
32.0
 40
32.0
 40
32.0
 40
33.0
 40
33.0
 40
33.0
 40
33.0
 10
139.8926730891197
 20
154.8294111834263
 10
139.8926730891197
 20
154.8294111834263
 10
142.0344903652445
 20
154.8294111834263
 10
142.0344903652445
 20
154.8294111834263
 10
142.0344903652445
 20
154.8294111834263
 10
140.9516961399171
 20
151.3157559800812
 10
140.9516961399171
 20
151.3157559800812
 10
141.8928968473923
 20
152.7887075264977
 10
142.7341897198865
 20
153.4484437471474
 10
143.8552245303272
 20
154.2926649527359
 10
144.9803934580775
 20
155.1296514530327
 10
146.3139908001845
 20
155.3044901642492
 10
147.241066606852
 20
155.3044901642492
 10
148.3855280820469
 20
155.3044901642492
 10
149.4969166187653
 20
155.0752189084569
 10
150.0784491203092
 20
153.8172414621372
 10
150.5228667310863
 20
152.833838307127
 10
150.5414702589793
 20
152.7201500811143
 10
150.4140016419347
 20
150.7765981809602
 10
151.5818897818837
 20
152.7699317437168
 10
152.4424752018226
 20
153.6256940267945
 10
153.9038856707499
 20
154.4507949398263
 10
155.4455669174378
 20
155.3044901642492
 10
156.339225275853
 20
155.3659851592288
 10
157.3748216618963
 20
155.2147453676543
 10
158.911679771723
 20
154.9877134254046
 10
159.8859534176746
 20
154.4390816074493
 10
160.3965169054045
 20
152.7816450760939
 10
160.9070803931344
 20
151.1219692311958
 10
160.6328506116007
 20
150.2303779314354
 10
159.9992971339115
 20
147.597634224801
 10
159.7105979417943
 20
146.4014962832367
 10
159.2947746424084
 20
144.9400858143094
 10
158.7463150793409
 20
143.2092687007094
 10
158.7463150793409
 20
143.2092687007094
 10
153.9038856707499
 20
127.8027915271048
 10
153.9038856707499
 20
127.8027915271048
 10
153.9038856707499
 20
127.8027915271048
 10
151.3882752878863
 20
127.8027915271048
 10
151.3882752878863
 20
127.8027915271048
 10
151.3882752878863
 20
127.8027915271048
 10
155.6250565106276
 20
141.2751908193897
 10
155.6250565106276
 20
141.2751908193897
 10
156.5094131050963
 20
144.0936252951782
 10
157.109893644309
 20
146.1506931664571
 10
157.4220195011804
 20
147.4415712963654
 10
157.8095929989511
 20
149.0530157726519
 10
157.9656559273867
 20
149.5826995529385
 10
157.7816877071116
 20
150.7529992613181
 10
157.6111553680925
 20
151.8430281919372
 10
157.0582171779396
 20
152.5547853887321
 10
156.1170164704645
 20
152.5547853887321
 10
155.1096698860365
 20
152.5547853887321
 10
154.2962823053817
 20
152.4412694176073
 10
153.156643967048
 20
151.2945686288697
 10
152.0170056287143
 20
150.1476955852443
 10
151.076149431015
 20
148.7930831468137
 10
150.3337308641742
 20
147.2290087646991
 10
149.5957909244188
 20
145.6683794803425
 10
148.8530278478023
 20
143.6822806228776
 10
148.0964843801539
 20
141.2751908193897
 10
148.0964843801539
 20
141.2751908193897
 10
143.8552245303272
 20
127.8027915271048
 10
143.8552245303272
 20
127.8027915271048
 10
143.8552245303272
 20
127.8027915271048
 10
141.486030802177
 20
127.8027915271048
 10
141.486030802177
 20
127.8027915271048
 10
141.486030802177
 20
127.8027915271048
 10
146.3329388378533
 20
143.2092687007094
 10
146.3329388378533
 20
143.2092687007094
 10
146.8483254624444
 20
144.8408669988801
 10
147.2314203331297
 20
146.1837661049335
 10
147.4867020769946
 20
147.224185627838
 10
147.9169947869641
 20
149.0197705792876
 10
148.0306830129768
 20
150.2400242051577
 10
147.709255392159
 20
151.3157559800812
 10
147.3874832615654
 20
152.3916600098926
 10
146.8245542879144
 20
152.6683013598569
 10
145.8840425999909
 20
152.6683013598569
 10
145.0989048209514
 20
152.6683013598569
 10
144.3282364524954
 20
152.3275811915945
 10
143.4531816219731
 20
151.6538923250251
 10
142.34627171234
 20
150.8074318058939
 10
141.901854101563
 20
150.1097995099067
 10
141.3578731655808
 20
149.289521733736
 10
140.6299240093235
 20
148.192602607601
 10
140.2850697237515
 20
147.455696197173
 10
139.6652966370942
 20
145.8385673095858
 10
139.0506911970739
 20
144.2214384219986
 10
138.463991048893
 20
142.3252566160164
 10
138.0571250036777
 20
141.0154304484394
 10
138.0571250036777
 20
141.0154304484394
 10
133.9009590684727
 20
127.8027915271048
 10
133.9009590684727
 20
127.8027915271048
 10
133.9009590684727
 20
127.8027915271048
 10
131.4180771143097
 20
127.8027915271048
 10
131.4180771143097
 20
127.8027915271048
 10
131.4180771143097
 20
127.8027915271048
 10
139.8926730891197
 20
154.8294111834263
 10
139.8926730891197
 20
154.8294111834263
 97
        0
 75
     2
 76
     1
 98
        0
  0
SPLINE
  5
6AA
330
6A2
100
AcDbEntity
  8
LOGO
370
     0
100
AcDbSpline
210
0.0
220
0.0
230
1.0
 70
    11
 71
     3
 72
    29
 73
    25
 74
     0
 42
0.000000001
 43
0.0000000001
 40
0.0
 40
0.0
 40
0.0
 40
0.0
 40
1.0
 40
1.0
 40
1.0
 40
2.0
 40
2.0
 40
2.0
 40
3.0
 40
3.0
 40
3.0
 40
4.0
 40
4.0
 40
4.0
 40
5.0
 40
5.0
 40
5.0
 40
6.0
 40
6.0
 40
6.0
 40
7.0
 40
7.0
 40
7.0
 40
8.0
 40
8.0
 40
8.0
 40
8.0
 10
101.6420971922469
 20
132.8388354296931
 30
0.0
 10
101.630039350094
 20
134.7164137077823
 30
0.0
 10
102.2236296937908
 20
138.0598810818841
 30
0.0
 10
103.7487744712405
 20
142.5378191476827
 30
0.0
 10
105.819967243327
 20
148.5896501242061
 30
0.0
 10
107.0602024361932
 20
150.8074318058939
 30
0.0
 10
108.1522984254671
 20
151.8833358357054
 30
0.0
 10
109.741177511439
 20
153.4532668840085
 30
0.0
 10
111.8740375333931
 20
153.5290590346837
 30
0.0
 10
112.5075910110823
 20
153.4532668840085
 30
0.0
 10
113.4012493694975
 20
153.3490526768302
 30
0.0
 10
114.6683563248758
 20
152.7580461564518
 30
0.0
 10
114.7493161221879
 20
150.7838328862519
 30
0.0
 10
114.8106388622796
 20
149.0909118479895
 30
0.0
 10
114.3186789024427
 20
145.9191825971221
 30
0.0
 10
112.6164561002338
 20
140.9489400617108
 30
0.0
 10
110.6444821435766
 20
135.1746117095912
 30
0.0
 10
109.4669477299053
 20
132.8960240524753
 30
0.0
 10
108.5212683953448
 20
131.9072809959403
 30
0.0
 10
106.7346406980658
 20
130.0538184021569
 30
0.0
 10
104.8222669326213
 20
130.2336525051225
 30
0.0
 10
104.5408024457958
 20
130.2336525051225
 30
0.0
 10
104.1721769856939
 20
130.2336525051225
 30
0.0
 10
101.6465758193322
 20
130.6305277668397
 30
0.0
 10
101.6420971922469
 20
132.8388354296931
 30
0.0
  0
SPLINE
  5
6AB
330
6A2
100
AcDbEntity
  8
LOGO
370
     0
100
AcDbSpline
210
0.0
220
0.0
230
1.0
 70
    11
 71
     3
 72
    32
 73
    28
 74
     0
 42
0.000000001
 43
0.0000000001
 40
0.0
 40
0.0
 40
0.0
 40
0.0
 40
1.0
 40
1.0
 40
1.0
 40
2.0
 40
2.0
 40
2.0
 40
3.0
 40
3.0
 40
3.0
 40
4.0
 40
4.0
 40
4.0
 40
5.0
 40
5.0
 40
5.0
 40
6.0
 40
6.0
 40
6.0
 40
7.0
 40
7.0
 40
7.0
 40
8.0
 40
8.0
 40
8.0
 40
9.0
 40
9.0
 40
9.0
 40
9.0
 10
106.2595617172429
 20
153.4105476718098
 30
0.0
 10
104.8222669326213
 20
151.5474388043041
 30
0.0
 10
103.7177685914188
 20
149.8758773721411
 30
0.0
 10
101.9232171692965
 20
144.6141795664062
 30
0.0
 10
100.2754269116635
 20
139.7999999594306
 30
0.0
 10
99.22777268346732
 20
136.3052927937542
 30
0.0
 10
99.06964269637689
 20
132.039572749846
 30
0.0
 10
98.94665270641765
 20
128.8673267343149
 30
0.0
 10
100.8807305877373
 20
127.8027915271048
 30
0.0
 10
103.7129454545577
 20
127.8027915271048
 30
0.0
 10
104.9352661390825
 20
127.8027915271048
 30
0.0
 10
108.0151835347002
 20
127.8827177950895
 30
0.0
 10
110.2045431598849
 20
130.5926316915021
 30
0.0
 10
111.7417457794874
 20
132.4984597712065
 30
0.0
 10
113.155269389579
 20
134.475256864725
 30
0.0
 10
115.0562743324223
 20
140.9489400617108
 30
0.0
 10
116.6361961642235
 20
146.3680788349845
 30
0.0
 10
117.7282921534974
 20
149.8639917848761
 30
0.0
 10
117.6480213757369
 20
151.8595646611754
 30
0.0
 10
117.6480213757369
 20
151.8595646611754
 30
0.0
 10
117.6480213757369
 20
151.8595646611754
 30
0.0
 10
117.6480213757369
 20
151.8595646611754
 30
0.0
 10
117.13229024137
 20
155.18150017429
 30
0.0
 10
114.7162431837115
 20
155.886194920681
 30
0.0
 10
113.3351034925446
 20
155.886194920681
 30
0.0
 10
111.9829026225447
 20
155.886194920681
 30
0.0
 10
108.3414342923792
 20
156.1251124501957
 30
0.0
 10
106.2595617172429
 20
153.4105476718098
 30
0.0
  0
HATCH
  5
6AC
330
6A2
100
AcDbEntity
  8
LOGO
 62
   250
420
  2234388
100
AcDbHatch
 10
0.0
 20
0.0
 30
0.0
210
0.0
220
0.0
230
1.0
  2
SOLID
 70
     1
 71
     0
 91
        2
 92
        1
 93
        1
 72
     4
 94
        3
 73
     0
 74
     1
 95
       29
 96
       25
 40
0.0
 40
0.0
 40
0.0
 40
0.0
 40
1.0
 40
1.0
 40
1.0
 40
2.0
 40
2.0
 40
2.0
 40
3.0
 40
3.0
 40
3.0
 40
4.0
 40
4.0
 40
4.0
 40
5.0
 40
5.0
 40
5.0
 40
6.0
 40
6.0
 40
6.0
 40
7.0
 40
7.0
 40
7.0
 40
8.0
 40
8.0
 40
8.0
 40
8.0
 10
101.6420971922469
 20
132.8388354296931
 10
101.630039350094
 20
134.7164137077823
 10
102.2236296937908
 20
138.0598810818841
 10
103.7487744712405
 20
142.5378191476827
 10
105.819967243327
 20
148.5896501242061
 10
107.0602024361932
 20
150.8074318058939
 10
108.1522984254671
 20
151.8833358357054
 10
109.741177511439
 20
153.4532668840085
 10
111.8740375333931
 20
153.5290590346837
 10
112.5075910110823
 20
153.4532668840085
 10
113.4012493694975
 20
153.3490526768302
 10
114.6683563248758
 20
152.7580461564518
 10
114.7493161221879
 20
150.7838328862519
 10
114.8106388622796
 20
149.0909118479895
 10
114.3186789024427
 20
145.9191825971221
 10
112.6164561002338
 20
140.9489400617108
 10
110.6444821435766
 20
135.1746117095912
 10
109.4669477299053
 20
132.8960240524753
 10
108.5212683953448
 20
131.9072809959403
 10
106.7346406980658
 20
130.0538184021569
 10
104.8222669326213
 20
130.2336525051225
 10
104.5408024457958
 20
130.2336525051225
 10
104.1721769856939
 20
130.2336525051225
 10
101.6465758193322
 20
130.6305277668397
 10
101.6420971922469
 20
132.8388354296931
 97
        0
 92
        1
 93
        1
 72
     4
 94
        3
 73
     0
 74
     1
 95
       32
 96
       28
 40
0.0
 40
0.0
 40
0.0
 40
0.0
 40
1.0
 40
1.0
 40
1.0
 40
2.0
 40
2.0
 40
2.0
 40
3.0
 40
3.0
 40
3.0
 40
4.0
 40
4.0
 40
4.0
 40
5.0
 40
5.0
 40
5.0
 40
6.0
 40
6.0
 40
6.0
 40
7.0
 40
7.0
 40
7.0
 40
8.0
 40
8.0
 40
8.0
 40
9.0
 40
9.0
 40
9.0
 40
9.0
 10
106.2595617172429
 20
153.4105476718098
 10
104.8222669326213
 20
151.5474388043041
 10
103.7177685914188
 20
149.8758773721411
 10
101.9232171692965
 20
144.6141795664062
 10
100.2754269116635
 20
139.7999999594306
 10
99.22777268346732
 20
136.3052927937542
 10
99.06964269637689
 20
132.039572749846
 10
98.94665270641765
 20
128.8673267343149
 10
100.8807305877373
 20
127.8027915271048
 10
103.7129454545577
 20
127.8027915271048
 10
104.9352661390825
 20
127.8027915271048
 10
108.0151835347002
 20
127.8827177950895
 10
110.2045431598849
 20
130.5926316915021
 10
111.7417457794874
 20
132.4984597712065
 10
113.155269389579
 20
134.475256864725
 10
115.0562743324223
 20
140.9489400617108
 10
116.6361961642235
 20
146.3680788349845
 10
117.7282921534974
 20
149.8639917848761
 10
117.6480213757369
 20
151.8595646611754
 10
117.6480213757369
 20
151.8595646611754
 10
117.6480213757369
 20
151.8595646611754
 10
117.6480213757369
 20
151.8595646611754
 10
117.13229024137
 20
155.18150017429
 10
114.7162431837115
 20
155.886194920681
 10
113.3351034925446
 20
155.886194920681
 10
111.9829026225447
 20
155.886194920681
 10
108.3414342923792
 20
156.1251124501957
 10
106.2595617172429
 20
153.4105476718098
 97
        0
 75
     2
 76
     1
 98
        0
  0
ENDBLK
  5
6AD
330
6A2
100
AcDbEntity
  8
0
100
AcDbBlockEnd
  0
BLOCK
  5
2F3D
330
2F3C
100
AcDbEntity
  8
0
100
AcDbBlockBegin
  2
*D5
 70
     1
 10
0.0
 20
0.0
 30
0.0
  3
*D5
  1
*D35
  0
LINE
  5
2F3F
330
2F3C
100
AcDbEntity
  8
DIM
 62
     0
370
    -2
100
AcDbLine
 10
531.9184134783413
 20
727.6423813228971
 30
0.0
 11
531.9184134783413
 21
748.9679186536014
 31
0.0
  0
LINE
  5
2F40
330
2F3C
100
AcDbEntity
  8
DIM
 62
     0
370
    -2
100
AcDbLine
 10
551.8238744572927
 20
723.8679905540946
 30
0.0
 11
551.8238744572927
 21
748.9679186536014
 31
0.0
  0
LINE
  5
2F41
330
2F3C
100
AcDbEntity
  8
DIM
 62
     0
370
    -2
100
AcDbLine
 10
534.9184134783413
 20
748.9679186536014
 30
0.0
 11
548.8238744572927
 21
748.9679186536014
 31
0.0
  0
INSERT
  5
2F42
330
2F3C
100
AcDbEntity
  8
DIM
 62
     0
370
    -2
100
AcDbBlockReference
  2
_DOT
 10
531.9184134783413
 20
748.9679186536014
 30
0.0
 41
3.0
 42
3.0
 43
3.0
 50
180.0
  0
INSERT
  5
2F43
330
2F3C
100
AcDbEntity
  8
DIM
 62
     0
370
    -2
100
AcDbBlockReference
  2
_DOT
 10
551.8238744572927
 20
748.9679186536014
 30
0.0
 41
3.0
 42
3.0
 43
3.0
  0
MTEXT
  5
2F44
330
2F3C
100
AcDbEntity
  8
DIM
  6
Continuous
 62
     0
100
AcDbMText
 10
541.871143967817
 20
758.9679186536014
 30
0.0
 40
12.0
 41
0.0
 46
0.0
 71
     5
 72
     1
  1
\A1;20
  7
ＭＳ ゴシック
 73
     1
 44
1.0
  0
POINT
  5
2F45
330
2F3C
100
AcDbEntity
  8
Defpoints
 62
     0
100
AcDbPoint
 10
531.9184134783413
 20
724.6423813228971
 30
0.0
  0
POINT
  5
2F46
330
2F3C
100
AcDbEntity
  8
Defpoints
 62
     0
100
AcDbPoint
 10
551.8238744572927
 20
720.8679905540946
 30
0.0
  0
POINT
  5
2F47
330
2F3C
100
AcDbEntity
  8
Defpoints
 62
     0
100
AcDbPoint
 10
551.8238744572927
 20
748.9679186536014
 30
0.0
  0
ENDBLK
  5
2F3E
330
2F3C
100
AcDbEntity
  8
0
100
AcDbBlockEnd
  0
BLOCK
  5
2F4C
330
2F4B
100
AcDbEntity
  8
0
100
AcDbBlockBegin
  2
*D6
 70
     1
 10
0.0
 20
0.0
 30
0.0
  3
*D6
  1
*D36
  0
LINE
  5
2F4E
330
2F4B
100
AcDbEntity
  8
DIM
 62
     0
370
    -2
100
AcDbLine
 10
554.8238744572927
 20
707.8679905540946
 30
0.0
 11
584.1012062650047
 21
707.8679905540946
 31
0.0
  0
LINE
  5
2F4F
330
2F4B
100
AcDbEntity
  8
DIM
 62
     0
370
    -2
100
AcDbLine
 10
554.8238744572927
 20
720.8679905540946
 30
0.0
 11
584.1012062650047
 21
720.8679905540946
 31
0.0
  0
LINE
  5
2F50
330
2F4B
100
AcDbEntity
  8
DIM
 62
     0
370
    -2
100
AcDbLine
 10
584.1012062650047
 20
720.8679905540946
 30
0.0
 11
584.1012062650047
 21
749.4659905540947
 31
0.0
  0
LINE
  5
2F51
330
2F4B
100
AcDbEntity
  8
DIM
 62
     0
370
    -2
100
AcDbLine
 10
584.1012062650047
 20
707.8679905540946
 30
0.0
 11
584.1012062650047
 21
720.8679905540946
 31
0.0
  0
LINE
  5
2F52
330
2F4B
100
AcDbEntity
  8
DIM
 62
     0
370
    -2
100
AcDbLine
 10
584.1012062650047
 20
704.8679905540946
 30
0.0
 11
584.1012062650047
 21
701.8679905540946
 31
0.0
  0
LINE
  5
2F53
330
2F4B
100
AcDbEntity
  8
DIM
 62
     0
370
    -2
100
AcDbLine
 10
584.1012062650047
 20
723.8679905540946
 30
0.0
 11
584.1012062650047
 21
726.8679905540946
 31
0.0
  0
INSERT
  5
2F54
330
2F4B
100
AcDbEntity
  8
DIM
 62
     0
370
    -2
100
AcDbBlockReference
  2
_DOT
 10
584.1012062650047
 20
707.8679905540946
 30
0.0
 41
3.0
 42
3.0
 43
3.0
 50
90.0
  0
INSERT
  5
2F55
330
2F4B
100
AcDbEntity
  8
DIM
 62
     0
370
    -2
100
AcDbBlockReference
  2
_DOT
 10
584.1012062650047
 20
720.8679905540946
 30
0.0
 41
3.0
 42
3.0
 43
3.0
 50
270.0
  0
MTEXT
  5
2F56
330
2F4B
100
AcDbEntity
  8
DIM
  6
Continuous
 62
     0
100
AcDbMText
 10
574.1012062650047
 20
738.8899905540947
 30
0.0
 40
12.0
 41
0.0
 46
0.0
 71
     5
 72
     1
  1
\A1;13
  7
ＭＳ ゴシック
 11
0.0
 21
1.0
 31
0.0
 73
     1
 44
1.0
  0
POINT
  5
2F57
330
2F4B
100
AcDbEntity
  8
Defpoints
 62
     0
100
AcDbPoint
 10
551.8238744572927
 20
707.8679905540946
 30
0.0
  0
POINT
  5
37BC
330
2F4B
100
AcDbEntity
  8
Defpoints
 62
     0
100
AcDbPoint
 10
551.8238744572927
 20
720.8679905540946
 30
0.0
  0
POINT
  5
37BD
330
2F4B
100
AcDbEntity
  8
Defpoints
 62
     0
100
AcDbPoint
 10
584.1012062650047
 20
720.8679905540946
 30
0.0
  0
ENDBLK
  5
2F4D
330
2F4B
100
AcDbEntity
  8
0
100
AcDbBlockEnd
  0
BLOCK
  5
2F5B
330
2F5A
100
AcDbEntity
  8
0
100
AcDbBlockBegin
  2
*D7
 70
     1
 10
0.0
 20
0.0
 30
0.0
  3
*D7
  1
*D37
  0
LINE
  5
2F5D
330
2F5A
100
AcDbEntity
  8
DIM
 62
     0
370
    -2
100
AcDbLine
 10
258.6588797351349
 20
721.7683918922774
 30
0.0
 11
258.6588797351349
 21
740.9521273254627
 31
0.0
  0
LINE
  5
2F5E
330
2F5A
100
AcDbEntity
  8
DIM
 62
     0
370
    -2
100
AcDbLine
 10
262.8588800156087
 20
721.8679906057134
 30
0.0
 11
262.8588800156087
 21
740.9521273254627
 31
0.0
  0
LINE
  5
2F5F
330
2F5A
100
AcDbEntity
  8
DIM
 62
     0
370
    -2
100
AcDbLine
 10
262.8588800156087
 20
740.9521273254627
 30
0.0
 11
291.4777219941434
 21
740.9521273254627
 31
0.0
  0
LINE
  5
2F60
330
2F5A
100
AcDbEntity
  8
DIM
 62
     0
370
    -2
100
AcDbLine
 10
261.6588797351349
 20
740.9521273254627
 30
0.0
 11
259.8588800156087
 21
740.9521273254627
 31
0.0
  0
INSERT
  5
2F61
330
2F5A
100
AcDbEntity
  8
DIM
 62
     0
370
    -2
100
AcDbBlockReference
  2
_DOT
 10
258.6588797351349
 20
740.9521273254627
 30
0.0
 41
3.0
 42
3.0
 43
3.0
 50
180.0
  0
INSERT
  5
2F62
330
2F5A
100
AcDbEntity
  8
DIM
 62
     0
370
    -2
100
AcDbBlockReference
  2
_DOT
 10
262.8588800156087
 20
740.9521273254627
 30
0.0
 41
3.0
 42
3.0
 43
3.0
  0
MTEXT
  5
2F63
330
2F5A
100
AcDbEntity
  8
DIM
  6
Continuous
 62
     0
100
AcDbMText
 10
284.0997219941434
 20
750.9521273254627
 30
0.0
 40
12.0
 41
0.0
 46
0.0
 71
     5
 72
     1
  1
\A1;4
  7
ＭＳ ゴシック
 73
     1
 44
1.0
  0
POINT
  5
2F64
330
2F5A
100
AcDbEntity
  8
Defpoints
 62
     0
100
AcDbPoint
 10
258.6588797351349
 20
718.7683918922774
 30
0.0
  0
POINT
  5
2F65
330
2F5A
100
AcDbEntity
  8
Defpoints
 62
     0
100
AcDbPoint
 10
262.8588800156087
 20
718.8679906057134
 30
0.0
  0
POINT
  5
2F66
330
2F5A
100
AcDbEntity
  8
Defpoints
 62
     0
100
AcDbPoint
 10
262.8588800156087
 20
740.9521273254627
 30
0.0
  0
ENDBLK
  5
2F5C
330
2F5A
100
AcDbEntity
  8
0
100
AcDbBlockEnd
  0
BLOCK
  5
2F6A
330
2F69
100
AcDbEntity
  8
0
100
AcDbBlockBegin
  2
*D8
 70
     1
 10
0.0
 20
0.0
 30
0.0
  3
*D8
  1
*D38
  0
LINE
  5
2F6C
330
2F69
100
AcDbEntity
  8
DIM
 62
     0
370
    -2
100
AcDbLine
 10
296.1588792437617
 20
696.3679913877434
 30
0.0
 11
317.0791097219234
 21
696.3679913877434
 31
0.0
  0
LINE
  5
2F6D
330
2F69
100
AcDbEntity
  8
DIM
 62
     0
370
    -2
100
AcDbLine
 10
296.1588784952844
 20
725.3679860591125
 30
0.0
 11
317.0791097219234
 21
725.3679860591125
 31
0.0
  0
LINE
  5
2F6E
330
2F69
100
AcDbEntity
  8
DIM
 62
     0
370
    -2
100
AcDbLine
 10
317.0791097219234
 20
699.3679913877434
 30
0.0
 11
317.0791097219234
 21
722.3679860591125
 31
0.0
  0
INSERT
  5
2F6F
330
2F69
100
AcDbEntity
  8
DIM
 62
     0
370
    -2
100
AcDbBlockReference
  2
_DOT
 10
317.0791097219234
 20
696.3679913877434
 30
0.0
 41
3.0
 42
3.0
 43
3.0
 50
270.0
  0
INSERT
  5
2F70
330
2F69
100
AcDbEntity
  8
DIM
 62
     0
370
    -2
100
AcDbBlockReference
  2
_DOT
 10
317.0791097219234
 20
725.3679860591125
 30
0.0
 41
3.0
 42
3.0
 43
3.0
 50
90.0
  0
MTEXT
  5
2F71
330
2F69
100
AcDbEntity
  8
DIM
  6
Continuous
 62
     0
100
AcDbMText
 10
307.0791097219234
 20
710.867988723428
 30
0.0
 40
12.0
 41
0.0
 46
0.0
 71
     5
 72
     1
  1
\A1;32
  7
ＭＳ ゴシック
 11
0.0
 21
1.0
 31
0.0
 73
     1
 44
1.0
  0
POINT
  5
2F72
330
2F69
100
AcDbEntity
  8
Defpoints
 62
     0
100
AcDbPoint
 10
293.1588792437617
 20
696.3679913877434
 30
0.0
  0
POINT
  5
2F73
330
2F69
100
AcDbEntity
  8
Defpoints
 62
     0
100
AcDbPoint
 10
293.1588784952844
 20
725.3679860591125
 30
0.0
  0
POINT
  5
2F74
330
2F69
100
AcDbEntity
  8
Defpoints
 62
     0
100
AcDbPoint
 10
317.0791097219234
 20
725.3679860591125
 30
0.0
  0
ENDBLK
  5
2F6B
330
2F69
100
AcDbEntity
  8
0
100
AcDbBlockEnd
  0
BLOCK
  5
2F76
330
2F75
100
AcDbEntity
  8
0
100
AcDbBlockBegin
  2
*D9
 70
     1
 10
0.0
 20
0.0
 30
0.0
  3
*D9
  1
*D39
  0
LINE
  5
2F78
330
2F75
100
AcDbEntity
  8
DIM
 62
     0
370
    -2
100
AcDbLine
 10
148.6588759151814
 20
828.3348993083866
 30
0.0
 11
148.6588759151814
 21
839.0097358908862
 31
0.0
  0
LINE
  5
2F79
330
2F75
100
AcDbEntity
  8
DIM
 62
     0
370
    -2
100
AcDbLine
 10
172.6588759151812
 20
828.3348999278162
 30
0.0
 11
172.6588759151812
 21
839.0097358908862
 31
0.0
  0
LINE
  5
2F7A
330
2F75
100
AcDbEntity
  8
DIM
 62
     0
370
    -2
100
AcDbLine
 10
148.6588759151814
 20
839.0097358908862
 30
0.0
 11
85.19209631300828
 21
839.0097358908862
 31
0.0
  0
LINE
  5
2F7B
330
2F75
100
AcDbEntity
  8
DIM
 62
     0
370
    -2
100
AcDbLine
 10
151.6588759151814
 20
839.0097358908862
 30
0.0
 11
169.6588759151812
 21
839.0097358908862
 31
0.0
  0
INSERT
  5
2F7C
330
2F75
100
AcDbEntity
  8
DIM
 62
     0
370
    -2
100
AcDbBlockReference
  2
_DOT
 10
148.6588759151814
 20
839.0097358908862
 30
0.0
 41
3.0
 42
3.0
 43
3.0
 50
180.0
  0
INSERT
  5
2F7D
330
2F75
100
AcDbEntity
  8
DIM
 62
     0
370
    -2
100
AcDbBlockReference
  2
_DOT
 10
172.6588759151812
 20
839.0097358908862
 30
0.0
 41
3.0
 42
3.0
 43
3.0
  0
MTEXT
  5
2F7E
330
2F75
100
AcDbEntity
  8
DIM
  6
Continuous
 62
     0
100
AcDbMText
 10
102.6920963130083
 20
849.3517358908862
 30
0.0
 40
12.0
 41
0.0
 46
0.0
 71
     5
 72
     1
  1
\A1;%%c24
  7
ARIAL
 73
     1
 44
1.0
  0
POINT
  5
2F7F
330
2F75
100
AcDbEntity
  8
Defpoints
 62
     0
100
AcDbPoint
 10
148.6588759151814
 20
825.3348993083866
 30
0.0
  0
POINT
  5
2F80
330
2F75
100
AcDbEntity
  8
Defpoints
 62
     0
100
AcDbPoint
 10
172.6588759151812
 20
825.3348999278162
 30
0.0
  0
POINT
  5
2F81
330
2F75
100
AcDbEntity
  8
Defpoints
 62
     0
100
AcDbPoint
 10
172.6588759151812
 20
839.0097358908862
 30
0.0
  0
ENDBLK
  5
2F77
330
2F75
100
AcDbEntity
  8
0
100
AcDbBlockEnd
  0
BLOCK
  5
2F85
330
2F84
100
AcDbEntity
  8
0
100
AcDbBlockBegin
  2
*D10
 70
     1
 10
0.0
 20
0.0
 30
0.0
  3
*D10
  1
*D40
  0
LINE
  5
2F87
330
2F84
100
AcDbEntity
  8
DIM
 62
     0
370
    -2
100
AcDbLine
 10
128.1588792437619
 20
696.867987129164
 30
0.0
 11
128.1588792437619
 21
742.2536449927759
 31
0.0
  0
LINE
  5
2F88
330
2F84
100
AcDbEntity
  8
DIM
 62
     0
370
    -2
100
AcDbLine
 10
193.1588792437619
 20
696.8679888067861
 30
0.0
 11
193.1588792437619
 21
742.2536449927759
 31
0.0
  0
LINE
  5
2F89
330
2F84
100
AcDbEntity
  8
DIM
 62
     0
370
    -2
100
AcDbLine
 10
128.1588792437619
 20
742.2536449927759
 30
0.0
 11
71.42507569669513
 21
742.2536449927759
 31
0.0
  0
LINE
  5
2F8A
330
2F84
100
AcDbEntity
  8
DIM
 62
     0
370
    -2
100
AcDbLine
 10
131.1588792437619
 20
742.2536449927759
 30
0.0
 11
190.1588792437619
 21
742.2536449927759
 31
0.0
  0
INSERT
  5
2F8B
330
2F84
100
AcDbEntity
  8
DIM
 62
     0
370
    -2
100
AcDbBlockReference
  2
_DOT
 10
128.1588792437619
 20
742.2536449927759
 30
0.0
 41
3.0
 42
3.0
 43
3.0
 50
180.0
  0
INSERT
  5
2F8C
330
2F84
100
AcDbEntity
  8
DIM
 62
     0
370
    -2
100
AcDbBlockReference
  2
_DOT
 10
193.1588792437619
 20
742.2536449927759
 30
0.0
 41
3.0
 42
3.0
 43
3.0
  0
MTEXT
  5
2F8D
330
2F84
100
AcDbEntity
  8
DIM
  6
Continuous
 62
     0
100
AcDbMText
 10
88.99107569669513
 20
752.5956449927759
 30
0.0
 40
12.0
 41
0.0
 46
0.0
 71
     5
 72
     1
  1
\A1;%%c65
  7
ARIAL
 73
     1
 44
1.0
  0
POINT
  5
2F8E
330
2F84
100
AcDbEntity
  8
Defpoints
 62
     0
100
AcDbPoint
 10
128.1588792437619
 20
693.867987129164
 30
0.0
  0
POINT
  5
2F8F
330
2F84
100
AcDbEntity
  8
Defpoints
 62
     0
100
AcDbPoint
 10
193.1588792437619
 20
693.8679888067861
 30
0.0
  0
POINT
  5
2F90
330
2F84
100
AcDbEntity
  8
Defpoints
 62
     0
100
AcDbPoint
 10
193.1588792437619
 20
742.2536449927759
 30
0.0
  0
ENDBLK
  5
2F86
330
2F84
100
AcDbEntity
  8
0
100
AcDbBlockEnd
  0
BLOCK
  5
2F94
330
2F93
100
AcDbEntity
  8
0
100
AcDbBlockBegin
  2
*D11
 70
     1
 10
0.0
 20
0.0
 30
0.0
  3
*D11
  1
*D41
  0
LINE
  5
2F96
330
2F93
100
AcDbEntity
  8
DIM
 62
     0
370
    -2
100
AcDbLine
 10
499.4184263742359
 20
794.5624310376255
 30
0.0
 11
499.4184263742359
 21
796.8124310376255
 31
0.0
  0
LINE
  5
2F97
330
2F93
100
AcDbEntity
  8
DIM
 62
     0
370
    -2
100
AcDbLine
 10
654.2738164517272
 20
849.6679167236018
 30
0.0
 11
654.2738164517272
 21
796.8124310376255
 31
0.0
  0
LINE
  5
2F98
330
2F93
100
AcDbEntity
  8
DIM
 62
     0
370
    -2
100
AcDbLine
 10
502.4184263742359
 20
796.8124310376255
 30
0.0
 11
651.2738164517272
 21
796.8124310376255
 31
0.0
  0
INSERT
  5
2F99
330
2F93
100
AcDbEntity
  8
DIM
 62
     0
370
    -2
100
AcDbBlockReference
  2
_DOT
 10
499.4184263742359
 20
796.8124310376255
 30
0.0
 41
3.0
 42
3.0
 43
3.0
 50
180.0
  0
INSERT
  5
2F9A
330
2F93
100
AcDbEntity
  8
DIM
 62
     0
370
    -2
100
AcDbBlockReference
  2
_DOT
 10
654.2738164517272
 20
796.8124310376255
 30
0.0
 41
3.0
 42
3.0
 43
3.0
  0
MTEXT
  5
2F9B
330
2F93
100
AcDbEntity
  8
DIM
  6
Continuous
 62
     0
100
AcDbMText
 10
572.7235701898367
 20
806.8124310376255
 30
0.0
 40
12.0
 41
0.0
 46
0.0
 71
     5
 72
     1
  1
\A1;155
  7
ＭＳ ゴシック
 73
     1
 44
1.0
  0
POINT
  5
2F9C
330
2F93
100
AcDbEntity
  8
Defpoints
 62
     0
100
AcDbPoint
 10
499.4184263742359
 20
797.5624310376255
 30
0.0
  0
POINT
  5
2F9D
330
2F93
100
AcDbEntity
  8
Defpoints
 62
     0
100
AcDbPoint
 10
654.2738164517272
 20
852.6679167236018
 30
0.0
  0
POINT
  5
2F9E
330
2F93
100
AcDbEntity
  8
Defpoints
 62
     0
100
AcDbPoint
 10
654.2738164517272
 20
796.8124310376255
 30
0.0
  0
ENDBLK
  5
2F95
330
2F93
100
AcDbEntity
  8
0
100
AcDbBlockEnd
  0
BLOCK
  5
2FA0
330
2F9F
100
AcDbEntity
  8
0
100
AcDbBlockBegin
  2
*D12
 70
     1
 10
0.0
 20
0.0
 30
0.0
  3
*D12
  1
*D42
  0
LINE
  5
2FA2
330
2F9F
100
AcDbEntity
  8
DIM
 62
     0
370
    -2
100
AcDbLine
 10
679.4184186194893
 20
910.8679879679755
 30
0.0
 11
679.4184186194893
 21
959.1815474396262
 31
0.0
  0
LINE
  5
2FA3
330
2F9F
100
AcDbEntity
  8
DIM
 62
     0
370
    -2
100
AcDbLine
 10
466.9184134783412
 20
728.3679905489328
 30
0.0
 11
466.9184134783412
 21
959.1815474396262
 31
0.0
  0
LINE
  5
2FA4
330
2F9F
100
AcDbEntity
  8
DIM
 62
     0
370
    -2
100
AcDbLine
 10
676.4184186194893
 20
959.1815474396262
 30
0.0
 11
469.9184134783412
 21
959.1815474396262
 31
0.0
  0
INSERT
  5
2FA5
330
2F9F
100
AcDbEntity
  8
DIM
 62
     0
370
    -2
100
AcDbBlockReference
  2
_DOT
 10
679.4184186194893
 20
959.1815474396262
 30
0.0
 41
3.0
 42
3.0
 43
3.0
  0
INSERT
  5
2FA6
330
2F9F
100
AcDbEntity
  8
DIM
 62
     0
370
    -2
100
AcDbBlockReference
  2
_DOT
 10
466.9184134783412
 20
959.1815474396262
 30
0.0
 41
3.0
 42
3.0
 43
3.0
 50
180.0
  0
MTEXT
  5
2FA7
330
2F9F
100
AcDbEntity
  8
DIM
  6
Continuous
 62
     0
100
AcDbMText
 10
573.1684160489153
 20
969.1815474396262
 30
0.0
 40
12.0
 41
0.0
 46
0.0
 71
     5
 72
     1
  1
\A1;212
  7
ＭＳ ゴシック
 73
     1
 44
1.0
  0
POINT
  5
2FA8
330
2F9F
100
AcDbEntity
  8
Defpoints
 62
     0
100
AcDbPoint
 10
679.4184186194893
 20
907.8679879679755
 30
0.0
  0
POINT
  5
2FA9
330
2F9F
100
AcDbEntity
  8
Defpoints
 62
     0
100
AcDbPoint
 10
466.9184134783412
 20
725.3679905489328
 30
0.0
  0
POINT
  5
2FAA
330
2F9F
100
AcDbEntity
  8
Defpoints
 62
     0
100
AcDbPoint
 10
466.9184134783412
 20
959.1815474396262
 30
0.0
  0
ENDBLK
  5
2FA1
330
2F9F
100
AcDbEntity
  8
0
100
AcDbBlockEnd
  0
BLOCK
  5
2FAC
330
2FAB
100
AcDbEntity
  8
0
100
AcDbBlockBegin
  2
*D13
 70
     1
 10
0.0
 20
0.0
 30
0.0
  3
*D13
  1
*D43
  0
LINE
  5
2FAE
330
2FAB
100
AcDbEntity
  8
DIM
 62
     0
370
    -2
100
AcDbLine
 10
244.1588817343163
 20
618.1545295095884
 30
0.0
 11
244.1588817343163
 21
616.8049705668705
 31
0.0
  0
LINE
  5
2FAF
330
2FAB
100
AcDbEntity
  8
DIM
 62
     0
370
    -2
100
AcDbLine
 10
277.1588830444848
 20
618.1545290511353
 30
0.0
 11
277.1588830444848
 21
616.8049705668705
 31
0.0
  0
LINE
  5
2FB0
330
2FAB
100
AcDbEntity
  8
DIM
 62
     0
370
    -2
100
AcDbLine
 10
277.1588830444848
 20
616.8049705668705
 30
0.0
 11
351.1301545315244
 21
616.8049705668705
 31
0.0
  0
LINE
  5
2FB1
330
2FAB
100
AcDbEntity
  8
DIM
 62
     0
370
    -2
100
AcDbLine
 10
247.1588817343163
 20
616.8049705668705
 30
0.0
 11
274.1588830444848
 21
616.8049705668705
 31
0.0
  0
INSERT
  5
2FB2
330
2FAB
100
AcDbEntity
  8
DIM
 62
     0
370
    -2
100
AcDbBlockReference
  2
_DOT
 10
244.1588817343163
 20
616.8049705668705
 30
0.0
 41
3.0
 42
3.0
 43
3.0
 50
180.0
  0
INSERT
  5
2FB3
330
2FAB
100
AcDbEntity
  8
DIM
 62
     0
370
    -2
100
AcDbBlockReference
  2
_DOT
 10
277.1588830444848
 20
616.8049705668705
 30
0.0
 41
3.0
 42
3.0
 43
3.0
  0
MTEXT
  5
2FB4
330
2FAB
100
AcDbEntity
  8
DIM
  6
Continuous
 62
     0
100
AcDbMText
 10
324.1561545315244
 20
626.9309705668704
 30
0.0
 40
12.0
 41
0.0
 46
0.0
 71
     5
 72
     1
  1
\A1;M33x1
  7
ARIAL
 73
     1
 44
1.0
  0
POINT
  5
2FB5
330
2FAB
100
AcDbEntity
  8
Defpoints
 62
     0
100
AcDbPoint
 10
244.1588817343163
 20
615.1545295095884
 30
0.0
  0
POINT
  5
2FB6
330
2FAB
100
AcDbEntity
  8
Defpoints
 62
     0
100
AcDbPoint
 10
277.1588830444848
 20
615.1545290511353
 30
0.0
  0
POINT
  5
2FB7
330
2FAB
100
AcDbEntity
  8
Defpoints
 62
     0
100
AcDbPoint
 10
277.1588830444848
 20
616.8049705668705
 30
0.0
  0
ENDBLK
  5
2FAD
330
2FAB
100
AcDbEntity
  8
0
100
AcDbBlockEnd
  0
BLOCK
  5
2FBB
330
2FBA
100
AcDbEntity
  8
0
100
AcDbBlockBegin
  2
*D14
 70
     1
 10
0.0
 20
0.0
 30
0.0
  3
*D14
  1
*D44
  0
LINE
  5
2FBD
330
2FBA
100
AcDbEntity
  8
DIM
 62
     0
370
    -2
100
AcDbLine
 10
262.0196109361229
 20
257.3658004850372
 30
0.0
 11
262.0196109361229
 21
225.384723373975
 31
0.0
  0
LINE
  5
2FBE
330
2FBA
100
AcDbEntity
  8
DIM
 62
     0
370
    -2
100
AcDbLine
 10
278.0196109361229
 20
257.3658004850372
 30
0.0
 11
278.0196109361229
 21
225.384723373975
 31
0.0
  0
LINE
  5
2FBF
330
2FBA
100
AcDbEntity
  8
DIM
 62
     0
370
    -2
100
AcDbLine
 10
278.0196109361229
 20
225.384723373975
 30
0.0
 11
351.2767187123849
 21
225.384723373975
 31
0.0
  0
LINE
  5
2FC0
330
2FBA
100
AcDbEntity
  8
DIM
 62
     0
370
    -2
100
AcDbLine
 10
265.0196109361229
 20
225.384723373975
 30
0.0
 11
275.0196109361229
 21
225.384723373975
 31
0.0
  0
INSERT
  5
2FC1
330
2FBA
100
AcDbEntity
  8
DIM
 62
     0
370
    -2
100
AcDbBlockReference
  2
_DOT
 10
262.0196109361229
 20
225.384723373975
 30
0.0
 41
3.0
 42
3.0
 43
3.0
 50
180.0
  0
INSERT
  5
2FC2
330
2FBA
100
AcDbEntity
  8
DIM
 62
     0
370
    -2
100
AcDbBlockReference
  2
_DOT
 10
278.0196109361229
 20
225.384723373975
 30
0.0
 41
3.0
 42
3.0
 43
3.0
  0
MTEXT
  5
2FC3
330
2FBA
100
AcDbEntity
  8
DIM
  6
Continuous
 62
     0
100
AcDbMText
 10
324.6567187123849
 20
235.588723373975
 30
0.0
 40
12.0
 41
0.0
 46
0.0
 71
     5
 72
     1
  1
\A1;G 3/8"
  7
ARIAL
 73
     1
 44
1.0
  0
POINT
  5
2FC4
330
2FBA
100
AcDbEntity
  8
Defpoints
 62
     0
100
AcDbPoint
 10
262.0196109361229
 20
260.3658004850372
 30
0.0
  0
POINT
  5
2FC5
330
2FBA
100
AcDbEntity
  8
Defpoints
 62
     0
100
AcDbPoint
 10
278.0196109361229
 20
260.3658004850372
 30
0.0
  0
POINT
  5
2FC6
330
2FBA
100
AcDbEntity
  8
Defpoints
 62
     0
100
AcDbPoint
 10
278.0196109361229
 20
225.384723373975
 30
0.0
  0
ENDBLK
  5
2FBC
330
2FBA
100
AcDbEntity
  8
0
100
AcDbBlockEnd
  0
BLOCK
  5
2FCA
330
2FC9
100
AcDbEntity
  8
0
100
AcDbBlockBegin
  2
*D15
 70
     1
 10
0.0
 20
0.0
 30
0.0
  3
*D15
  1
*D45
  0
LINE
  5
2FCC
330
2FC9
100
AcDbEntity
  8
DIM
 62
     0
370
    -2
100
AcDbLine
 10
515.8737754671529
 20
609.6937150992792
 30
0.0
 11
515.8737754671529
 21
598.0306293131614
 31
0.0
  0
LINE
  5
2FCD
330
2FC9
100
AcDbEntity
  8
DIM
 62
     0
370
    -2
100
AcDbLine
 10
482.8737741569844
 20
609.6937146408261
 30
0.0
 11
482.8737741569844
 21
598.0306293131614
 31
0.0
  0
LINE
  5
2FCE
330
2FC9
100
AcDbEntity
  8
DIM
 62
     0
370
    -2
100
AcDbLine
 10
515.8737754671529
 20
598.0306293131614
 30
0.0
 11
589.8450469541925
 21
598.0306293131614
 31
0.0
  0
LINE
  5
2FCF
330
2FC9
100
AcDbEntity
  8
DIM
 62
     0
370
    -2
100
AcDbLine
 10
512.8737754671529
 20
598.0306293131614
 30
0.0
 11
485.8737741569844
 21
598.0306293131614
 31
0.0
  0
INSERT
  5
2FD0
330
2FC9
100
AcDbEntity
  8
DIM
 62
     0
370
    -2
100
AcDbBlockReference
  2
_DOT
 10
515.8737754671529
 20
598.0306293131614
 30
0.0
 41
3.0
 42
3.0
 43
3.0
  0
INSERT
  5
2FD1
330
2FC9
100
AcDbEntity
  8
DIM
 62
     0
370
    -2
100
AcDbBlockReference
  2
_DOT
 10
482.8737741569844
 20
598.0306293131614
 30
0.0
 41
3.0
 42
3.0
 43
3.0
 50
180.0
  0
MTEXT
  5
2FD2
330
2FC9
100
AcDbEntity
  8
DIM
  6
Continuous
 62
     0
100
AcDbMText
 10
562.8710469541925
 20
608.1566293131614
 30
0.0
 40
12.0
 41
0.0
 46
0.0
 71
     5
 72
     1
  1
\A1;M33x1
  7
ARIAL
 73
     1
 44
1.0
  0
POINT
  5
2FD3
330
2FC9
100
AcDbEntity
  8
Defpoints
 62
     0
100
AcDbPoint
 10
515.8737754671529
 20
612.6937150992792
 30
0.0
  0
POINT
  5
2FD4
330
2FC9
100
AcDbEntity
  8
Defpoints
 62
     0
100
AcDbPoint
 10
482.8737741569844
 20
612.6937146408261
 30
0.0
  0
POINT
  5
2FD5
330
2FC9
100
AcDbEntity
  8
Defpoints
 62
     0
100
AcDbPoint
 10
482.8737741569844
 20
598.0306293131614
 30
0.0
  0
ENDBLK
  5
2FCB
330
2FC9
100
AcDbEntity
  8
0
100
AcDbBlockEnd
  0
BLOCK
  5
2FD9
330
2FD8
100
AcDbEntity
  8
0
100
AcDbBlockBegin
  2
*D16
 70
     1
 10
0.0
 20
0.0
 30
0.0
  3
*D16
  1
*D46
  0
LINE
  5
2FDB
330
2FD8
100
AcDbEntity
  8
DIM
 62
     0
370
    -2
100
AcDbLine
 10
517.0103229800065
 20
257.9353253547715
 30
0.0
 11
517.0103229800065
 21
243.5491616737784
 31
0.0
  0
LINE
  5
2FDC
330
2FD8
100
AcDbEntity
  8
DIM
 62
     0
370
    -2
100
AcDbLine
 10
501.0103229800065
 20
257.3161632347324
 30
0.0
 11
501.0103229800065
 21
243.5491616737784
 31
0.0
  0
LINE
  5
2FDD
330
2FD8
100
AcDbEntity
  8
DIM
 62
     0
370
    -2
100
AcDbLine
 10
517.0103229800065
 20
243.5491616737784
 30
0.0
 11
590.2674307562689
 21
243.5491616737784
 31
0.0
  0
LINE
  5
2FDE
330
2FD8
100
AcDbEntity
  8
DIM
 62
     0
370
    -2
100
AcDbLine
 10
514.0103229800065
 20
243.5491616737784
 30
0.0
 11
504.0103229800065
 21
243.5491616737784
 31
0.0
  0
INSERT
  5
2FDF
330
2FD8
100
AcDbEntity
  8
DIM
 62
     0
370
    -2
100
AcDbBlockReference
  2
_DOT
 10
517.0103229800065
 20
243.5491616737784
 30
0.0
 41
3.0
 42
3.0
 43
3.0
  0
INSERT
  5
2FE0
330
2FD8
100
AcDbEntity
  8
DIM
 62
     0
370
    -2
100
AcDbBlockReference
  2
_DOT
 10
501.0103229800065
 20
243.5491616737784
 30
0.0
 41
3.0
 42
3.0
 43
3.0
 50
180.0
  0
MTEXT
  5
2FE1
330
2FD8
100
AcDbEntity
  8
DIM
  6
Continuous
 62
     0
100
AcDbMText
 10
563.6474307562689
 20
253.7531616737784
 30
0.0
 40
12.0
 41
0.0
 46
0.0
 71
     5
 72
     1
  1
\A1;G 3/8"
  7
ARIAL
 73
     1
 44
1.0
  0
POINT
  5
2FE2
330
2FD8
100
AcDbEntity
  8
Defpoints
 62
     0
100
AcDbPoint
 10
517.0103229800065
 20
260.9353253547715
 30
0.0
  0
POINT
  5
2FE3
330
2FD8
100
AcDbEntity
  8
Defpoints
 62
     0
100
AcDbPoint
 10
501.0103229800065
 20
260.3161632347324
 30
0.0
  0
POINT
  5
2FE4
330
2FD8
100
AcDbEntity
  8
Defpoints
 62
     0
100
AcDbPoint
 10
501.0103229800065
 20
243.5491616737784
 30
0.0
  0
ENDBLK
  5
2FDA
330
2FD8
100
AcDbEntity
  8
0
100
AcDbBlockEnd
  0
BLOCK
  5
2FE8
330
2FE7
100
AcDbEntity
  8
0
100
AcDbBlockBegin
  2
*D17
 70
     1
 10
0.0
 20
0.0
 30
0.0
  3
*D17
  1
*D47
  0
LINE
  5
2FEA
330
2FE7
100
AcDbEntity
  8
DIM
 62
     0
370
    -2
100
AcDbLine
 10
657.3350222602148
 20
386.9823805983631
 30
0.0
 11
617.370737471645
 21
386.9823805983631
 31
0.0
  0
LINE
  5
2FEB
330
2FE7
100
AcDbEntity
  8
DIM
 62
     0
370
    -2
100
AcDbLine
 10
662.3350222602057
 20
376.9823805983554
 30
0.0
 11
617.370737471645
 21
376.9823805983554
 31
0.0
  0
LINE
  5
2FEC
330
2FE7
100
AcDbEntity
  8
DIM
 62
     0
370
    -2
100
AcDbLine
 10
617.370737471645
 20
373.9823805983554
 30
0.0
 11
617.370737471645
 21
346.9863805983553
 31
0.0
  0
LINE
  5
2FED
330
2FE7
100
AcDbEntity
  8
DIM
 62
     0
370
    -2
100
AcDbLine
 10
617.370737471645
 20
386.9823805983631
 30
0.0
 11
617.370737471645
 21
376.9823805983554
 31
0.0
  0
LINE
  5
2FEE
330
2FE7
100
AcDbEntity
  8
DIM
 62
     0
370
    -2
100
AcDbLine
 10
617.370737471645
 20
389.9823805983631
 30
0.0
 11
617.370737471645
 21
392.9823805983631
 31
0.0
  0
INSERT
  5
2FEF
330
2FE7
100
AcDbEntity
  8
DIM
 62
     0
370
    -2
100
AcDbBlockReference
  2
_DOT
 10
617.370737471645
 20
386.9823805983631
 30
0.0
 41
3.0
 42
3.0
 43
3.0
 50
270.0
  0
INSERT
  5
2FF0
330
2FE7
100
AcDbEntity
  8
DIM
 62
     0
370
    -2
100
AcDbBlockReference
  2
_DOT
 10
617.370737471645
 20
376.9823805983554
 30
0.0
 41
3.0
 42
3.0
 43
3.0
 50
90.0
  0
MTEXT
  5
2FF1
330
2FE7
100
AcDbEntity
  8
DIM
  6
Continuous
 62
     0
100
AcDbMText
 10
607.2447374716451
 20
358.9843805983554
 30
0.0
 40
12.0
 41
0.0
 46
0.0
 71
     5
 72
     1
  1
\A1;10
  7
ARIAL
 11
0.0
 21
1.0
 31
0.0
 73
     1
 44
1.0
  0
POINT
  5
2FF2
330
2FE7
100
AcDbEntity
  8
Defpoints
 62
     0
100
AcDbPoint
 10
660.3350222602148
 20
386.9823805983631
 30
0.0
  0
POINT
  5
2FF3
330
2FE7
100
AcDbEntity
  8
Defpoints
 62
     0
100
AcDbPoint
 10
665.3350222602057
 20
376.9823805983554
 30
0.0
  0
POINT
  5
2FF4
330
2FE7
100
AcDbEntity
  8
Defpoints
 62
     0
100
AcDbPoint
 10
617.370737471645
 20
376.9823805983554
 30
0.0
  0
ENDBLK
  5
2FE9
330
2FE7
100
AcDbEntity
  8
0
100
AcDbBlockEnd
  0
BLOCK
  5
2FF6
330
2FF5
100
AcDbEntity
  8
0
100
AcDbBlockBegin
  2
*D18
 70
     1
 10
0.0
 20
0.0
 30
0.0
  3
*D18
  1
*D48
  0
LINE
  5
2FF8
330
2FF5
100
AcDbEntity
  8
DIM
 62
     0
370
    -2
100
AcDbLine
 10
664.3350222602148
 20
383.4548523254769
 30
0.0
 11
664.3350222602148
 21
350.7191275551225
 31
0.0
  0
LINE
  5
2FF9
330
2FF5
100
AcDbEntity
  8
DIM
 62
     0
370
    -2
100
AcDbLine
 10
706.3350222602148
 20
383.4548523254769
 30
0.0
 11
706.3350222602148
 21
350.7191275551225
 31
0.0
  0
LINE
  5
2FFA
330
2FF5
100
AcDbEntity
  8
DIM
 62
     0
370
    -2
100
AcDbLine
 10
706.3350222602148
 20
350.7191275551225
 30
0.0
 11
780.1382528195602
 21
350.7191275551225
 31
0.0
  0
LINE
  5
2FFB
330
2FF5
100
AcDbEntity
  8
DIM
 62
     0
370
    -2
100
AcDbLine
 10
667.3350222602148
 20
350.7191275551225
 30
0.0
 11
703.3350222602148
 21
350.7191275551225
 31
0.0
  0
INSERT
  5
2FFC
330
2FF5
100
AcDbEntity
  8
DIM
 62
     0
370
    -2
100
AcDbBlockReference
  2
_DOT
 10
664.3350222602148
 20
350.7191275551225
 30
0.0
 41
3.0
 42
3.0
 43
3.0
 50
180.0
  0
INSERT
  5
2FFD
330
2FF5
100
AcDbEntity
  8
DIM
 62
     0
370
    -2
100
AcDbBlockReference
  2
_DOT
 10
706.3350222602148
 20
350.7191275551225
 30
0.0
 41
3.0
 42
3.0
 43
3.0
  0
MTEXT
  5
2FFE
330
2FF5
100
AcDbEntity
  8
DIM
  6
Continuous
 62
     0
100
AcDbMText
 10
753.2422528195602
 20
361.0551275551225
 30
0.0
 40
12.0
 41
0.0
 46
0.0
 71
     5
 72
     1
  1
\A1;G 1"¼
  7
ARIAL
 73
     1
 44
1.0
  0
POINT
  5
2FFF
330
2FF5
100
AcDbEntity
  8
Defpoints
 62
     0
100
AcDbPoint
 10
664.3350222602148
 20
386.4548523254769
 30
0.0
  0
POINT
  5
3000
330
2FF5
100
AcDbEntity
  8
Defpoints
 62
     0
100
AcDbPoint
 10
706.3350222602148
 20
386.4548523254769
 30
0.0
  0
POINT
  5
3001
330
2FF5
100
AcDbEntity
  8
Defpoints
 62
     0
100
AcDbPoint
 10
706.3350222602148
 20
350.7191275551225
 30
0.0
  0
ENDBLK
  5
2FF7
330
2FF5
100
AcDbEntity
  8
0
100
AcDbBlockEnd
  0
BLOCK
  5
3005
330
3004
100
AcDbEntity
  8
0
100
AcDbBlockBegin
  2
*D19
 70
     1
 10
0.0
 20
0.0
 30
0.0
  3
*D19
  1
*D49
  0
LINE
  5
3007
330
3004
100
AcDbEntity
  8
DIM
 62
     0
370
    -2
100
AcDbLine
 10
651.5850222602148
 20
462.6823805983556
 30
0.0
 11
629.9484796778997
 21
462.6823805983556
 31
0.0
  0
LINE
  5
3008
330
3004
100
AcDbEntity
  8
DIM
 62
     0
370
    -2
100
AcDbLine
 10
654.2211987101382
 20
426.8604820610642
 30
0.0
 11
629.9484796778997
 21
426.8604820610642
 31
0.0
  0
LINE
  5
3009
330
3004
100
AcDbEntity
  8
DIM
 62
     0
370
    -2
100
AcDbLine
 10
629.9484796778997
 20
462.6823805983556
 30
0.0
 11
629.9484796778997
 21
548.2390136133628
 31
0.0
  0
LINE
  5
300A
330
3004
100
AcDbEntity
  8
DIM
 62
     0
370
    -2
100
AcDbLine
 10
629.9484796778997
 20
459.6823805983556
 30
0.0
 11
629.9484796778997
 21
429.8604820610642
 31
0.0
  0
INSERT
  5
300B
330
3004
100
AcDbEntity
  8
DIM
 62
     0
370
    -2
100
AcDbBlockReference
  2
_DOT
 10
629.9484796778997
 20
462.6823805983556
 30
0.0
 41
3.0
 42
3.0
 43
3.0
 50
90.0
  0
INSERT
  5
300C
330
3004
100
AcDbEntity
  8
DIM
 62
     0
370
    -2
100
AcDbBlockReference
  2
_DOT
 10
629.9484796778997
 20
426.8604820610642
 30
0.0
 41
3.0
 42
3.0
 43
3.0
 50
270.0
  0
MTEXT
  5
300D
330
3004
100
AcDbEntity
  8
DIM
  6
Continuous
 62
     0
100
AcDbMText
 10
609.7984796778998
 20
515.4750136133628
 30
0.0
 40
12.0
 41
0.0
 46
0.0
 71
     5
 72
     1
  1
\A1;MIN 35\PMAX 50
  7
ARIAL
 11
0.0
 21
1.0
 31
0.0
 73
     1
 44
1.0
  0
POINT
  5
300E
330
3004
100
AcDbEntity
  8
Defpoints
 62
     0
100
AcDbPoint
 10
654.5850222602148
 20
462.6823805983556
 30
0.0
  0
POINT
  5
300F
330
3004
100
AcDbEntity
  8
Defpoints
 62
     0
100
AcDbPoint
 10
657.2211987101382
 20
426.8604820610642
 30
0.0
  0
POINT
  5
3010
330
3004
100
AcDbEntity
  8
Defpoints
 62
     0
100
AcDbPoint
 10
629.9484796778997
 20
426.8604820610642
 30
0.0
  0
ENDBLK
  5
3006
330
3004
100
AcDbEntity
  8
0
100
AcDbBlockEnd
  0
BLOCK
  5
3014
330
3013
100
AcDbEntity
  8
0
100
AcDbBlockBegin
  2
*D20
 70
     1
 10
0.0
 20
0.0
 30
0.0
  3
*D20
  1
*D50
  0
LINE
  5
3016
330
3013
100
AcDbEntity
  8
DIM
 62
     0
370
    -2
100
AcDbLine
 10
716.7350222602145
 20
460.3323805983557
 30
0.0
 11
716.7350222602145
 21
434.8743205486778
 31
0.0
  0
LINE
  5
3017
330
3013
100
AcDbEntity
  8
DIM
 62
     0
370
    -2
100
AcDbLine
 10
653.9350222602152
 20
460.3323805983557
 30
0.0
 11
653.9350222602152
 21
434.8743205486778
 31
0.0
  0
LINE
  5
3018
330
3013
100
AcDbEntity
  8
DIM
 62
     0
370
    -2
100
AcDbLine
 10
716.7350222602145
 20
434.8743205486778
 30
0.0
 11
781.9608891863169
 21
434.8743205486778
 31
0.0
  0
LINE
  5
3019
330
3013
100
AcDbEntity
  8
DIM
 62
     0
370
    -2
100
AcDbLine
 10
713.7350222602145
 20
434.8743205486778
 30
0.0
 11
656.9350222602152
 21
434.8743205486778
 31
0.0
  0
INSERT
  5
301A
330
3013
100
AcDbEntity
  8
DIM
 62
     0
370
    -2
100
AcDbBlockReference
  2
_DOT
 10
716.7350222602145
 20
434.8743205486778
 30
0.0
 41
3.0
 42
3.0
 43
3.0
  0
INSERT
  5
301B
330
3013
100
AcDbEntity
  8
DIM
 62
     0
370
    -2
100
AcDbBlockReference
  2
_DOT
 10
653.9350222602152
 20
434.8743205486778
 30
0.0
 41
3.0
 42
3.0
 43
3.0
 50
180.0
  0
MTEXT
  5
301C
330
3013
100
AcDbEntity
  8
DIM
  6
Continuous
 62
     0
100
AcDbMText
 10
764.4368891863169
 20
445.2163205486777
 30
0.0
 40
12.0
 41
0.0
 46
0.0
 71
     5
 72
     1
  1
\A1;%%c63
  7
ARIAL
 73
     1
 44
1.0
  0
POINT
  5
301D
330
3013
100
AcDbEntity
  8
Defpoints
 62
     0
100
AcDbPoint
 10
716.7350222602145
 20
463.3323805983557
 30
0.0
  0
POINT
  5
301E
330
3013
100
AcDbEntity
  8
Defpoints
 62
     0
100
AcDbPoint
 10
653.9350222602152
 20
463.3323805983557
 30
0.0
  0
POINT
  5
301F
330
3013
100
AcDbEntity
  8
Defpoints
 62
     0
100
AcDbPoint
 10
653.9350222602152
 20
434.8743205486778
 30
0.0
  0
ENDBLK
  5
3015
330
3013
100
AcDbEntity
  8
0
100
AcDbBlockEnd
  0
BLOCK
  5
3023
330
3022
100
AcDbEntity
  8
0
100
AcDbBlockBegin
  2
*D21
 70
     1
 10
0.0
 20
0.0
 30
0.0
  3
*D21
  1
*D51
  0
LINE
  5
3025
330
3022
100
AcDbEntity
  8
DIM
 62
     0
370
    -2
100
AcDbLine
 10
719.0850222602148
 20
463.9823805983558
 30
0.0
 11
742.94537790702
 21
463.9823805983558
 31
0.0
  0
LINE
  5
3026
330
3022
100
AcDbEntity
  8
DIM
 62
     0
370
    -2
100
AcDbLine
 10
721.0037239057601
 20
469.1048795975514
 30
0.0
 11
742.94537790702
 21
469.1048795975514
 31
0.0
  0
LINE
  5
3027
330
3022
100
AcDbEntity
  8
DIM
 62
     0
370
    -2
100
AcDbLine
 10
742.94537790702
 20
472.1048795975514
 30
0.0
 11
742.94537790702
 21
491.0488795975513
 31
0.0
  0
LINE
  5
3028
330
3022
100
AcDbEntity
  8
DIM
 62
     0
370
    -2
100
AcDbLine
 10
742.94537790702
 20
463.9823805983558
 30
0.0
 11
742.94537790702
 21
469.1048795975514
 31
0.0
  0
LINE
  5
3029
330
3022
100
AcDbEntity
  8
DIM
 62
     0
370
    -2
100
AcDbLine
 10
742.94537790702
 20
460.9823805983558
 30
0.0
 11
742.94537790702
 21
457.9823805983558
 31
0.0
  0
INSERT
  5
302A
330
3022
100
AcDbEntity
  8
DIM
 62
     0
370
    -2
100
AcDbBlockReference
  2
_DOT
 10
742.94537790702
 20
463.9823805983558
 30
0.0
 41
3.0
 42
3.0
 43
3.0
 50
90.0
  0
INSERT
  5
302B
330
3022
100
AcDbEntity
  8
DIM
 62
     0
370
    -2
100
AcDbBlockReference
  2
_DOT
 10
742.94537790702
 20
469.1048795975514
 30
0.0
 41
3.0
 42
3.0
 43
3.0
 50
270.0
  0
MTEXT
  5
302C
330
3022
100
AcDbEntity
  8
DIM
  6
Continuous
 62
     0
100
AcDbMText
 10
732.84337790702
 20
483.0768795975513
 30
0.0
 40
12.0
 41
0.0
 46
0.0
 71
     5
 72
     1
  1
\A1;5
  7
ARIAL
 11
0.0
 21
1.0
 31
0.0
 73
     1
 44
1.0
  0
POINT
  5
302D
330
3022
100
AcDbEntity
  8
Defpoints
 62
     0
100
AcDbPoint
 10
716.0850222602148
 20
463.9823805983558
 30
0.0
  0
POINT
  5
302E
330
3022
100
AcDbEntity
  8
Defpoints
 62
     0
100
AcDbPoint
 10
718.0037239057601
 20
469.1048795975514
 30
0.0
  0
POINT
  5
302F
330
3022
100
AcDbEntity
  8
Defpoints
 62
     0
100
AcDbPoint
 10
742.94537790702
 20
469.1048795975514
 30
0.0
  0
ENDBLK
  5
3024
330
3022
100
AcDbEntity
  8
0
100
AcDbBlockEnd
  0
BLOCK
  5
3031
330
3030
100
AcDbEntity
  8
0
100
AcDbBlockBegin
  2
*D22
 70
     1
 10
0.0
 20
0.0
 30
0.0
  3
*D22
  1
*D52
  0
LINE
  5
3033
330
3030
100
AcDbEntity
  8
DIM
 62
     0
370
    -2
100
AcDbLine
 10
718.4734995222007
 20
472.9441294209216
 30
0.0
 11
718.4734995222007
 21
500.943576117839
 31
0.0
  0
LINE
  5
3034
330
3030
100
AcDbEntity
  8
DIM
 62
     0
370
    -2
100
AcDbLine
 10
652.3330391364616
 20
473.8961791812055
 30
0.0
 11
652.3330391364616
 21
500.943576117839
 31
0.0
  0
LINE
  5
3035
330
3030
100
AcDbEntity
  8
DIM
 62
     0
370
    -2
100
AcDbLine
 10
715.4734995222007
 20
500.943576117839
 30
0.0
 11
655.3330391364616
 21
500.943576117839
 31
0.0
  0
INSERT
  5
3036
330
3030
100
AcDbEntity
  8
DIM
 62
     0
370
    -2
100
AcDbBlockReference
  2
_DOT
 10
718.4734995222007
 20
500.943576117839
 30
0.0
 41
3.0
 42
3.0
 43
3.0
  0
INSERT
  5
3037
330
3030
100
AcDbEntity
  8
DIM
 62
     0
370
    -2
100
AcDbBlockReference
  2
_DOT
 10
652.3330391364616
 20
500.943576117839
 30
0.0
 41
3.0
 42
3.0
 43
3.0
 50
180.0
  0
MTEXT
  5
3038
330
3030
100
AcDbEntity
  8
DIM
  6
Continuous
 62
     0
100
AcDbMText
 10
681.6235165409371
 20
511.285576117839
 30
0.0
 40
12.0
 41
0.0
 46
0.0
 71
     5
 72
     1
  1
\A1;%%c63
  7
ARIAL
 73
     1
 44
1.0
  0
POINT
  5
3039
330
3030
100
AcDbEntity
  8
Defpoints
 62
     0
100
AcDbPoint
 10
718.4734995222007
 20
469.9441294209216
 30
0.0
  0
POINT
  5
303A
330
3030
100
AcDbEntity
  8
Defpoints
 62
     0
100
AcDbPoint
 10
652.3330391364616
 20
470.8961791812055
 30
0.0
  0
POINT
  5
303B
330
3030
100
AcDbEntity
  8
Defpoints
 62
     0
100
AcDbPoint
 10
652.3330391364616
 20
500.943576117839
 30
0.0
  0
ENDBLK
  5
3032
330
3030
100
AcDbEntity
  8
0
100
AcDbBlockEnd
  0
BLOCK
  5
303D
330
303C
100
AcDbEntity
  8
0
100
AcDbBlockBegin
  2
*D23
 70
     1
 10
0.0
 20
0.0
 30
0.0
  3
*D23
  1
*D53
  0
LINE
  5
303F
330
303C
100
AcDbEntity
  8
DIM
 62
     0
370
    -2
100
AcDbLine
 10
498.1814955533996
 20
272.2444124792244
 30
0.0
 11
498.1814955533996
 21
263.9737136605695
 31
0.0
  0
LINE
  5
3040
330
303C
100
AcDbEntity
  8
DIM
 62
     0
370
    -2
100
AcDbLine
 10
482.1814955533996
 20
272.1112403347622
 30
0.0
 11
482.1814955533996
 21
263.9737136605695
 31
0.0
  0
LINE
  5
3041
330
303C
100
AcDbEntity
  8
DIM
 62
     0
370
    -2
100
AcDbLine
 10
482.1814955533996
 20
263.9737136605695
 30
0.0
 11
408.9243877771379
 21
263.9737136605695
 31
0.0
  0
LINE
  5
3042
330
303C
100
AcDbEntity
  8
DIM
 62
     0
370
    -2
100
AcDbLine
 10
495.1814955533996
 20
263.9737136605695
 30
0.0
 11
485.1814955533996
 21
263.9737136605695
 31
0.0
  0
INSERT
  5
3043
330
303C
100
AcDbEntity
  8
DIM
 62
     0
370
    -2
100
AcDbBlockReference
  2
_DOT
 10
498.1814955533996
 20
263.9737136605695
 30
0.0
 41
3.0
 42
3.0
 43
3.0
  0
INSERT
  5
3044
330
303C
100
AcDbEntity
  8
DIM
 62
     0
370
    -2
100
AcDbBlockReference
  2
_DOT
 10
482.1814955533996
 20
263.9737136605695
 30
0.0
 41
3.0
 42
3.0
 43
3.0
 50
180.0
  0
MTEXT
  5
3045
330
303C
100
AcDbEntity
  8
DIM
  6
Continuous
 62
     0
100
AcDbMText
 10
435.5443877771379
 20
274.1777136605695
 30
0.0
 40
12.0
 41
0.0
 46
0.0
 71
     5
 72
     1
  1
\A1;G 1/2"
  7
ARIAL
 73
     1
 44
1.0
  0
POINT
  5
3046
330
303C
100
AcDbEntity
  8
Defpoints
 62
     0
100
AcDbPoint
 10
498.1814955533996
 20
275.2444124792244
 30
0.0
  0
POINT
  5
3047
330
303C
100
AcDbEntity
  8
Defpoints
 62
     0
100
AcDbPoint
 10
482.1814955533996
 20
275.1112403347622
 30
0.0
  0
POINT
  5
3048
330
303C
100
AcDbEntity
  8
Defpoints
 62
     0
100
AcDbPoint
 10
482.1814955533996
 20
263.9737136605695
 30
0.0
  0
ENDBLK
  5
303E
330
303C
100
AcDbEntity
  8
0
100
AcDbBlockEnd
  0
BLOCK
  5
304C
330
304B
100
AcDbEntity
  8
0
100
AcDbBlockBegin
  2
*D24
 70
     1
 10
0.0
 20
0.0
 30
0.0
  3
*D24
  1
*D54
  0
LINE
  5
304E
330
304B
100
AcDbEntity
  8
DIM
 62
     0
370
    -2
100
AcDbLine
 10
242.998836176758
 20
257.5463592723925
 30
0.0
 11
242.998836176758
 21
243.1601955913993
 31
0.0
  0
LINE
  5
304F
330
304B
100
AcDbEntity
  8
DIM
 62
     0
370
    -2
100
AcDbLine
 10
258.998836176758
 20
256.9271971523533
 30
0.0
 11
258.998836176758
 21
243.1601955913993
 31
0.0
  0
LINE
  5
3050
330
304B
100
AcDbEntity
  8
DIM
 62
     0
370
    -2
100
AcDbLine
 10
242.998836176758
 20
243.1601955913993
 30
0.0
 11
169.7417284004961
 21
243.1601955913993
 31
0.0
  0
LINE
  5
3051
330
304B
100
AcDbEntity
  8
DIM
 62
     0
370
    -2
100
AcDbLine
 10
245.998836176758
 20
243.1601955913993
 30
0.0
 11
255.998836176758
 21
243.1601955913993
 31
0.0
  0
INSERT
  5
3052
330
304B
100
AcDbEntity
  8
DIM
 62
     0
370
    -2
100
AcDbBlockReference
  2
_DOT
 10
242.998836176758
 20
243.1601955913993
 30
0.0
 41
3.0
 42
3.0
 43
3.0
 50
180.0
  0
INSERT
  5
3053
330
304B
100
AcDbEntity
  8
DIM
 62
     0
370
    -2
100
AcDbBlockReference
  2
_DOT
 10
258.998836176758
 20
243.1601955913993
 30
0.0
 41
3.0
 42
3.0
 43
3.0
  0
MTEXT
  5
3054
330
304B
100
AcDbEntity
  8
DIM
  6
Continuous
 62
     0
100
AcDbMText
 10
196.3617284004961
 20
253.3641955913993
 30
0.0
 40
12.0
 41
0.0
 46
0.0
 71
     5
 72
     1
  1
\A1;G 3/8"
  7
ARIAL
 73
     1
 44
1.0
  0
POINT
  5
3055
330
304B
100
AcDbEntity
  8
Defpoints
 62
     0
100
AcDbPoint
 10
242.998836176758
 20
260.5463592723925
 30
0.0
  0
POINT
  5
3056
330
304B
100
AcDbEntity
  8
Defpoints
 62
     0
100
AcDbPoint
 10
258.998836176758
 20
259.9271971523533
 30
0.0
  0
POINT
  5
3057
330
304B
100
AcDbEntity
  8
Defpoints
 62
     0
100
AcDbPoint
 10
258.998836176758
 20
243.1601955913993
 30
0.0
  0
ENDBLK
  5
304D
330
304B
100
AcDbEntity
  8
0
100
AcDbBlockEnd
  0
BLOCK
  5
305B
330
305A
100
AcDbEntity
  8
0
100
AcDbBlockBegin
  2
*D25
 70
     1
 10
0.0
 20
0.0
 30
0.0
  3
*D25
  1
*D55
  0
LINE
  5
305D
330
305A
100
AcDbEntity
  8
DIM
 62
     0
370
    -2
100
AcDbLine
 10
151.158215717749
 20
627.3805495466486
 30
0.0
 11
151.158215717749
 21
578.2692262676151
 31
0.0
  0
LINE
  5
305E
330
305A
100
AcDbEntity
  8
DIM
 62
     0
370
    -2
100
AcDbLine
 10
169.7892157177491
 20
627.3805500275066
 30
0.0
 11
169.7892157177491
 21
578.2692262676151
 31
0.0
  0
LINE
  5
305F
330
305A
100
AcDbEntity
  8
DIM
 62
     0
370
    -2
100
AcDbLine
 10
151.158215717749
 20
578.2692262676151
 30
0.0
 11
66.58255405335638
 21
578.2692262676151
 31
0.0
  0
LINE
  5
3060
330
305A
100
AcDbEntity
  8
DIM
 62
     0
370
    -2
100
AcDbLine
 10
154.158215717749
 20
578.2692262676151
 30
0.0
 11
166.7892157177491
 21
578.2692262676151
 31
0.0
  0
INSERT
  5
3061
330
305A
100
AcDbEntity
  8
DIM
 62
     0
370
    -2
100
AcDbBlockReference
  2
_DOT
 10
151.158215717749
 20
578.2692262676151
 30
0.0
 41
3.0
 42
3.0
 43
3.0
 50
180.0
  0
INSERT
  5
3062
330
305A
100
AcDbEntity
  8
DIM
 62
     0
370
    -2
100
AcDbBlockReference
  2
_DOT
 10
169.7892157177491
 20
578.2692262676151
 30
0.0
 41
3.0
 42
3.0
 43
3.0
  0
MTEXT
  5
3063
330
305A
100
AcDbEntity
  8
DIM
  6
Continuous
 62
     0
100
AcDbMText
 10
93.20255405335638
 20
588.473226267615
 30
0.0
 40
12.0
 41
0.0
 46
0.0
 71
     5
 72
     1
  1
\A1;G 1/2"
  7
ARIAL
 73
     1
 44
1.0
  0
POINT
  5
3064
330
305A
100
AcDbEntity
  8
Defpoints
 62
     0
100
AcDbPoint
 10
151.158215717749
 20
630.3805495466486
 30
0.0
  0
POINT
  5
3065
330
305A
100
AcDbEntity
  8
Defpoints
 62
     0
100
AcDbPoint
 10
169.7892157177491
 20
630.3805500275066
 30
0.0
  0
POINT
  5
3066
330
305A
100
AcDbEntity
  8
Defpoints
 62
     0
100
AcDbPoint
 10
169.7892157177491
 20
578.2692262676151
 30
0.0
  0
ENDBLK
  5
305C
330
305A
100
AcDbEntity
  8
0
100
AcDbBlockEnd
  0
BLOCK
  5
306A
330
3069
100
AcDbEntity
  8
0
100
AcDbBlockBegin
  2
*D26
 70
     1
 10
0.0
 20
0.0
 30
0.0
  3
*D26
  1
*D56
  0
LINE
  5
306C
330
3069
100
AcDbEntity
  8
DIM
 62
     0
370
    -2
100
AcDbLine
 10
147.6588817343043
 20
658.3805494563321
 30
0.0
 11
147.6588817343043
 21
659.7064963269208
 31
0.0
  0
LINE
  5
306D
330
3069
100
AcDbEntity
  8
DIM
 62
     0
370
    -2
100
AcDbLine
 10
173.6588817343043
 20
658.380550127381
 30
0.0
 11
173.6588817343043
 21
659.7064963269208
 31
0.0
  0
LINE
  5
306E
330
3069
100
AcDbEntity
  8
DIM
 62
     0
370
    -2
100
AcDbLine
 10
147.6588817343043
 20
659.7064963269208
 30
0.0
 11
48.92488991984314
 21
659.7064963269208
 31
0.0
  0
LINE
  5
306F
330
3069
100
AcDbEntity
  8
DIM
 62
     0
370
    -2
100
AcDbLine
 10
150.6588817343043
 20
659.7064963269208
 30
0.0
 11
170.6588817343043
 21
659.7064963269208
 31
0.0
  0
INSERT
  5
3070
330
3069
100
AcDbEntity
  8
DIM
 62
     0
370
    -2
100
AcDbBlockReference
  2
_DOT
 10
147.6588817343043
 20
659.7064963269208
 30
0.0
 41
3.0
 42
3.0
 43
3.0
 50
180.0
  0
INSERT
  5
3071
330
3069
100
AcDbEntity
  8
DIM
 62
     0
370
    -2
100
AcDbBlockReference
  2
_DOT
 10
173.6588817343043
 20
659.7064963269208
 30
0.0
 41
3.0
 42
3.0
 43
3.0
  0
MTEXT
  5
3072
330
3069
100
AcDbEntity
  8
DIM
  6
Continuous
 62
     0
100
AcDbMText
 10
88.27688991984314
 20
669.8324963269208
 30
0.0
 40
12.0
 41
0.0
 46
0.0
 71
     5
 72
     1
  1
\A1;W26x19F
  7
ARIAL
 73
     1
 44
1.0
  0
POINT
  5
3073
330
3069
100
AcDbEntity
  8
Defpoints
 62
     0
100
AcDbPoint
 10
147.6588817343043
 20
655.3805494563321
 30
0.0
  0
POINT
  5
3074
330
3069
100
AcDbEntity
  8
Defpoints
 62
     0
100
AcDbPoint
 10
173.6588817343043
 20
655.380550127381
 30
0.0
  0
POINT
  5
3075
330
3069
100
AcDbEntity
  8
Defpoints
 62
     0
100
AcDbPoint
 10
173.6588817343043
 20
659.7064963269208
 30
0.0
  0
ENDBLK
  5
306B
330
3069
100
AcDbEntity
  8
0
100
AcDbBlockEnd
  0
BLOCK
  5
3079
330
3078
100
AcDbEntity
  8
0
100
AcDbBlockBegin
  2
*D27
 70
     1
 10
0.0
 20
0.0
 30
0.0
  3
*D27
  1
*D57
  0
LINE
  5
307B
330
3078
100
AcDbEntity
  8
DIM
 62
     0
370
    -2
100
AcDbLine
 10
160.6588808712249
 20
869.8526503373189
 30
0.0
 11
160.6588808712249
 21
906.5009755009183
 31
0.0
  0
LINE
  5
307C
330
3078
100
AcDbEntity
  8
DIM
 62
     0
370
    -2
100
AcDbLine
 10
260.6588817343163
 20
746.4762601555508
 30
0.0
 11
260.6588817343163
 21
906.5009755009183
 31
0.0
  0
LINE
  5
307D
330
3078
100
AcDbEntity
  8
DIM
 62
     0
370
    -2
100
AcDbLine
 10
163.6588808712249
 20
906.5009755009183
 30
0.0
 11
257.6588817343163
 21
906.5009755009183
 31
0.0
  0
INSERT
  5
307E
330
3078
100
AcDbEntity
  8
DIM
 62
     0
370
    -2
100
AcDbBlockReference
  2
_DOT
 10
160.6588808712249
 20
906.5009755009183
 30
0.0
 41
3.0
 42
3.0
 43
3.0
 50
180.0
  0
INSERT
  5
307F
330
3078
100
AcDbEntity
  8
DIM
 62
     0
370
    -2
100
AcDbBlockReference
  2
_DOT
 10
260.6588817343163
 20
906.5009755009183
 30
0.0
 41
3.0
 42
3.0
 43
3.0
  0
MTEXT
  5
3080
330
3078
100
AcDbEntity
  8
DIM
  6
Continuous
 62
     0
100
AcDbMText
 10
210.6588813027706
 20
916.5009755009183
 30
0.0
 40
12.0
 41
0.0
 46
0.0
 71
     5
 72
     1
  1
\A1;100
  7
ＭＳ ゴシック
 73
     1
 44
1.0
  0
POINT
  5
3081
330
3078
100
AcDbEntity
  8
Defpoints
 62
     0
100
AcDbPoint
 10
160.6588808712249
 20
866.8526503373189
 30
0.0
  0
POINT
  5
3082
330
3078
100
AcDbEntity
  8
Defpoints
 62
     0
100
AcDbPoint
 10
260.6588817343163
 20
743.4762601555508
 30
0.0
  0
POINT
  5
3083
330
3078
100
AcDbEntity
  8
Defpoints
 62
     0
100
AcDbPoint
 10
260.6588817343163
 20
906.5009755009183
 30
0.0
  0
ENDBLK
  5
307A
330
3078
100
AcDbEntity
  8
0
100
AcDbBlockEnd
  0
BLOCK
  5
3085
330
3084
100
AcDbEntity
  8
0
100
AcDbBlockBegin
  2
*D28
 70
     1
 10
0.0
 20
0.0
 30
0.0
  3
*D28
  1
*D58
  0
LINE
  5
3087
330
3084
100
AcDbEntity
  8
DIM
 62
     0
370
    -2
100
AcDbLine
 10
531.9184134783413
 20
728.1679905459525
 30
0.0
 11
531.9184134783413
 21
777.0440108103941
 31
0.0
  0
LINE
  5
3088
330
3084
100
AcDbEntity
  8
DIM
 62
     0
370
    -2
100
AcDbLine
 10
466.9184134783413
 20
728.1679905459525
 30
0.0
 11
466.9184134783413
 21
777.0440108103941
 31
0.0
  0
LINE
  5
3089
330
3084
100
AcDbEntity
  8
DIM
 62
     0
370
    -2
100
AcDbLine
 10
466.9184134783413
 20
777.0440108103941
 30
0.0
 11
410.1846099312748
 21
777.0440108103941
 31
0.0
  0
LINE
  5
308A
330
3084
100
AcDbEntity
  8
DIM
 62
     0
370
    -2
100
AcDbLine
 10
528.9184134783413
 20
777.0440108103941
 30
0.0
 11
469.9184134783413
 21
777.0440108103941
 31
0.0
  0
INSERT
  5
308B
330
3084
100
AcDbEntity
  8
DIM
 62
     0
370
    -2
100
AcDbBlockReference
  2
_DOT
 10
531.9184134783413
 20
777.0440108103941
 30
0.0
 41
3.0
 42
3.0
 43
3.0
  0
INSERT
  5
308C
330
3084
100
AcDbEntity
  8
DIM
 62
     0
370
    -2
100
AcDbBlockReference
  2
_DOT
 10
466.9184134783413
 20
777.0440108103941
 30
0.0
 41
3.0
 42
3.0
 43
3.0
 50
180.0
  0
MTEXT
  5
308D
330
3084
100
AcDbEntity
  8
DIM
  6
Continuous
 62
     0
100
AcDbMText
 10
427.7506099312748
 20
787.386010810394
 30
0.0
 40
12.0
 41
0.0
 46
0.0
 71
     5
 72
     1
  1
\A1;%%C65
  7
ARIAL
 73
     1
 44
1.0
  0
POINT
  5
308E
330
3084
100
AcDbEntity
  8
Defpoints
 62
     0
100
AcDbPoint
 10
531.9184134783413
 20
725.1679905459525
 30
0.0
  0
POINT
  5
308F
330
3084
100
AcDbEntity
  8
Defpoints
 62
     0
100
AcDbPoint
 10
466.9184134783413
 20
725.1679905459525
 30
0.0
  0
POINT
  5
3090
330
3084
100
AcDbEntity
  8
Defpoints
 62
     0
100
AcDbPoint
 10
466.9184134783413
 20
777.0440108103941
 30
0.0
  0
ENDBLK
  5
3086
330
3084
100
AcDbEntity
  8
0
100
AcDbBlockEnd
  0
BLOCK
  5
3094
330
3093
100
AcDbEntity
  8
0
100
AcDbBlockBegin
  2
*D29
 70
     1
 10
0.0
 20
0.0
 30
0.0
  3
*D29
  1
*D59
  0
LINE
  5
3096
330
3093
100
AcDbEntity
  8
DIM
 62
     0
370
    -2
100
AcDbLine
 10
654.2738164517272
 20
852.6679167236015
 30
0.0
 11
654.2738155897015
 21
812.5726383023975
 31
0.0
  0
LINE
  5
3097
330
3093
100
AcDbEntity
  8
DIM
 62
     0
370
    -2
100
AcDbLine
 10
654.2738164517272
 20
852.6679167236015
 30
0.0
 11
661.2362884445713
 21
813.1817756685083
 31
0.0
  0
ARC
  5
3098
330
3093
100
AcDbEntity
  8
DIM
 62
     0
370
    -2
100
AcDbCircle
 10
654.2738164517272
 20
852.6679167236015
 30
0.0
 40
40.09527842120389
100
AcDbArc
 50
269.9999987681733
 51
279.9999999447938
  0
INSERT
  5
3099
330
3093
100
AcDbEntity
  8
DIM
 62
     0
370
    -2
100
AcDbBlockReference
  2
_DOT
 10
654.2738155897015
 20
812.5726383023975
 30
0.0
 41
3.0
 42
3.0
 43
3.0
 50
182.1439851107174
  0
INSERT
  5
309A
330
3093
100
AcDbEntity
  8
DIM
 62
     0
370
    -2
100
AcDbBlockReference
  2
_DOT
 10
661.2362884445713
 20
813.1817756685083
 30
0.0
 41
3.0
 42
3.0
 43
3.0
 50
7.856013602249654
  0
MTEXT
  5
309B
330
3093
100
AcDbEntity
  8
DIM
  6
Continuous
 62
     0
100
AcDbMText
 10
634.9252163759187
 20
829.8915794100802
 30
0.0
 40
12.0
 41
0.0
 46
0.0
 71
     5
 72
     1
  1
\A1;10%%d
  7
ＭＳ ゴシック
 11
0.7621256523868031
 21
-0.6474291389596162
 31
0.0
 73
     1
 44
1.0
  0
POINT
  5
309C
330
3093
100
AcDbEntity
  8
Defpoints
 62
     0
100
AcDbPoint
 10
658.928593855327
 20
812.8437481949705
 30
0.0
  0
POINT
  5
309D
330
3093
100
AcDbEntity
  8
Defpoints
 62
     0
100
AcDbPoint
 10
654.2738164517272
 20
852.6679167236015
 30
0.0
  0
POINT
  5
309E
330
3093
100
AcDbEntity
  8
Defpoints
 62
     0
100
AcDbPoint
 10
654.2738164517273
 20
852.6679220115014
 30
0.0
  0
POINT
  5
309F
330
3093
100
AcDbEntity
  8
Defpoints
 62
     0
100
AcDbPoint
 10
654.2738164517272
 20
852.6679167236018
 30
0.0
  0
POINT
  5
30A0
330
3093
100
AcDbEntity
  8
Defpoints
 62
     0
100
AcDbPoint
 10
654.2738155082176
 20
852.6679220745102
 30
0.0
  0
ENDBLK
  5
3095
330
3093
100
AcDbEntity
  8
0
100
AcDbBlockEnd
  0
BLOCK
  5
30A4
330
30A3
100
AcDbEntity
  8
0
100
AcDbBlockBegin
  2
*D30
 70
     1
 10
0.0
 20
0.0
 30
0.0
  3
*D30
  1
*D60
  0
LINE
  5
30A6
330
30A3
100
AcDbEntity
  8
DIM
 62
     0
370
    -2
100
AcDbLine
 10
196.1588792437619
 20
693.8679888067861
 30
0.0
 11
206.1961098193101
 21
693.8679888067861
 31
0.0
  0
LINE
  5
30A7
330
30A3
100
AcDbEntity
  8
DIM
 62
     0
370
    -2
100
AcDbLine
 10
163.6588808712249
 20
847.8679879679856
 30
0.0
 11
206.1961098193101
 21
847.8679879679856
 31
0.0
  0
LINE
  5
30A8
330
30A3
100
AcDbEntity
  8
DIM
 62
     0
370
    -2
100
AcDbLine
 10
206.1961098193101
 20
696.8679888067861
 30
0.0
 11
206.1961098193101
 21
844.8679879679856
 31
0.0
  0
INSERT
  5
30A9
330
30A3
100
AcDbEntity
  8
DIM
 62
     0
370
    -2
100
AcDbBlockReference
  2
_DOT
 10
206.1961098193101
 20
693.8679888067861
 30
0.0
 41
3.0
 42
3.0
 43
3.0
 50
270.0
  0
INSERT
  5
30AA
330
30A3
100
AcDbEntity
  8
DIM
 62
     0
370
    -2
100
AcDbBlockReference
  2
_DOT
 10
206.1961098193101
 20
847.8679879679856
 30
0.0
 41
3.0
 42
3.0
 43
3.0
 50
90.0
  0
MTEXT
  5
30AB
330
30A3
100
AcDbEntity
  8
DIM
  6
Continuous
 62
     0
100
AcDbMText
 10
196.0701098193101
 20
768.6315674209369
 30
0.0
 40
12.0
 41
0.0
 46
0.0
 71
     5
 72
     1
  1
\A1;154
  7
ARIAL
 11
0.0
 21
1.0
 31
0.0
 73
     1
 44
1.0
  0
POINT
  5
30AC
330
30A3
100
AcDbEntity
  8
Defpoints
 62
     0
100
AcDbPoint
 10
193.1588792437619
 20
693.8679888067861
 30
0.0
  0
POINT
  5
30AD
330
30A3
100
AcDbEntity
  8
Defpoints
 62
     0
100
AcDbPoint
 10
160.6588808712249
 20
847.8679879679856
 30
0.0
  0
POINT
  5
30AE
330
30A3
100
AcDbEntity
  8
Defpoints
 62
     0
100
AcDbPoint
 10
206.1961098193101
 20
847.8679879679856
 30
0.0
  0
ENDBLK
  5
30A5
330
30A3
100
AcDbEntity
  8
0
100
AcDbBlockEnd
  0
BLOCK
  5
30B0
330
30AF
100
AcDbEntity
  8
0
100
AcDbBlockBegin
  2
*D31
 70
     1
 10
0.0
 20
0.0
 30
0.0
  3
*D31
  1
*D61
  0
LINE
  5
30B2
330
30AF
100
AcDbEntity
  8
DIM
 62
     0
370
    -2
100
AcDbLine
 10
163.6588808712249
 20
871.8679879679702
 30
0.0
 11
224.9647468804594
 21
871.8679879679702
 31
0.0
  0
LINE
  5
30B3
330
30AF
100
AcDbEntity
  8
DIM
 62
     0
370
    -2
100
AcDbLine
 10
196.1588792437619
 20
693.8679888067861
 30
0.0
 11
224.9647468804594
 21
693.8679888067861
 31
0.0
  0
LINE
  5
30B4
330
30AF
100
AcDbEntity
  8
DIM
 62
     0
370
    -2
100
AcDbLine
 10
224.9647468804594
 20
868.8679879679702
 30
0.0
 11
224.9647468804594
 21
696.8679888067861
 31
0.0
  0
INSERT
  5
30B5
330
30AF
100
AcDbEntity
  8
DIM
 62
     0
370
    -2
100
AcDbBlockReference
  2
_DOT
 10
224.9647468804594
 20
871.8679879679702
 30
0.0
 41
3.0
 42
3.0
 43
3.0
 50
90.0
  0
INSERT
  5
30B6
330
30AF
100
AcDbEntity
  8
DIM
 62
     0
370
    -2
100
AcDbBlockReference
  2
_DOT
 10
224.9647468804594
 20
693.8679888067861
 30
0.0
 41
3.0
 42
3.0
 43
3.0
 50
270.0
  0
MTEXT
  5
30B7
330
30AF
100
AcDbEntity
  8
DIM
  6
Continuous
 62
     0
100
AcDbMText
 10
214.9647468804594
 20
782.8679883873781
 30
0.0
 40
12.0
 41
0.0
 46
0.0
 71
     5
 72
     1
  1
\A1;178
  7
ＭＳ ゴシック
 11
0.0
 21
1.0
 31
0.0
 73
     1
 44
1.0
  0
POINT
  5
30B8
330
30AF
100
AcDbEntity
  8
Defpoints
 62
     0
100
AcDbPoint
 10
160.6588808712249
 20
871.8679879679702
 30
0.0
  0
POINT
  5
30B9
330
30AF
100
AcDbEntity
  8
Defpoints
 62
     0
100
AcDbPoint
 10
193.1588792437619
 20
693.8679888067861
 30
0.0
  0
POINT
  5
30BA
330
30AF
100
AcDbEntity
  8
Defpoints
 62
     0
100
AcDbPoint
 10
224.9647468804594
 20
693.8679888067861
 30
0.0
  0
ENDBLK
  5
30B1
330
30AF
100
AcDbEntity
  8
0
100
AcDbBlockEnd
  0
BLOCK
  5
30BC
330
30BB
100
AcDbEntity
  8
0
100
AcDbBlockBegin
  2
*D32
 70
     1
 10
0.0
 20
0.0
 30
0.0
  3
*D32
  1
*D62
  0
LINE
  5
30BE
330
30BB
100
AcDbEntity
  8
DIM
 62
     0
370
    -2
100
AcDbLine
 10
679.4184186194893
 20
874.8679879679784
 30
0.0
 11
679.4184186194893
 21
905.8547819050185
 31
0.0
  0
LINE
  5
30BF
330
30BB
100
AcDbEntity
  8
DIM
 62
     0
370
    -2
100
AcDbLine
 10
487.4184116881593
 20
825.3679879679784
 30
0.0
 11
487.4184116881593
 21
905.8547819050185
 31
0.0
  0
LINE
  5
30C0
330
30BB
100
AcDbEntity
  8
DIM
 62
     0
370
    -2
100
AcDbLine
 10
676.4184186194893
 20
905.8547819050185
 30
0.0
 11
490.4184116881593
 21
905.8547819050185
 31
0.0
  0
INSERT
  5
30C1
330
30BB
100
AcDbEntity
  8
DIM
 62
     0
370
    -2
100
AcDbBlockReference
  2
_DOT
 10
679.4184186194893
 20
905.8547819050185
 30
0.0
 41
3.0
 42
3.0
 43
3.0
  0
INSERT
  5
30C2
330
30BB
100
AcDbEntity
  8
DIM
 62
     0
370
    -2
100
AcDbBlockReference
  2
_DOT
 10
487.4184116881593
 20
905.8547819050185
 30
0.0
 41
3.0
 42
3.0
 43
3.0
 50
180.0
  0
MTEXT
  5
30C3
330
30BB
100
AcDbEntity
  8
DIM
  6
Continuous
 62
     0
100
AcDbMText
 10
583.4184151538243
 20
915.8547819050185
 30
0.0
 40
12.0
 41
0.0
 46
0.0
 71
     5
 72
     1
  1
\A1;192
  7
ＭＳ ゴシック
 73
     1
 44
1.0
  0
POINT
  5
30C4
330
30BB
100
AcDbEntity
  8
Defpoints
 62
     0
100
AcDbPoint
 10
679.4184186194893
 20
871.8679879679784
 30
0.0
  0
POINT
  5
30C5
330
30BB
100
AcDbEntity
  8
Defpoints
 62
     0
100
AcDbPoint
 10
487.4184116881593
 20
822.3679879679784
 30
0.0
  0
POINT
  5
30C6
330
30BB
100
AcDbEntity
  8
Defpoints
 62
     0
100
AcDbPoint
 10
487.4184116881593
 20
905.8547819050185
 30
0.0
  0
ENDBLK
  5
30BD
330
30BB
100
AcDbEntity
  8
0
100
AcDbBlockEnd
  0
BLOCK
  5
30C8
330
30C7
100
AcDbEntity
  8
0
100
AcDbBlockBegin
  2
*D33
 70
     1
 10
0.0
 20
0.0
 30
0.0
  3
*D33
  1
*D63
  0
LINE
  5
30CA
330
30C7
100
AcDbEntity
  8
DIM
 62
     0
370
    -2
100
AcDbLine
 10
291.6588810405162
 20
693.8679897101208
 30
0.0
 11
405.4214437221048
 21
693.8679897101208
 31
0.0
  0
LINE
  5
30CB
330
30C7
100
AcDbEntity
  8
DIM
 62
     0
370
    -2
100
AcDbLine
 10
364.1633744163321
 20
292.9881530449784
 30
0.0
 11
405.4214437221048
 21
292.9881530449784
 31
0.0
  0
LINE
  5
30CC
330
30C7
100
AcDbEntity
  8
DIM
 62
     0
370
    -2
100
AcDbLine
 10
405.4214437221048
 20
690.8679897101208
 30
0.0
 11
405.4214437221048
 21
295.9881530449784
 31
0.0
  0
INSERT
  5
30CD
330
30C7
100
AcDbEntity
  8
DIM
 62
     0
370
    -2
100
AcDbBlockReference
  2
_DOT
 10
405.4214437221048
 20
693.8679897101208
 30
0.0
 41
3.0
 42
3.0
 43
3.0
 50
90.0
  0
INSERT
  5
30CE
330
30C7
100
AcDbEntity
  8
DIM
 62
     0
370
    -2
100
AcDbBlockReference
  2
_DOT
 10
405.4214437221048
 20
292.9881530449784
 30
0.0
 41
3.0
 42
3.0
 43
3.0
 50
270.0
  0
MTEXT
  5
30CF
330
30C7
100
AcDbEntity
  8
DIM
  6
Continuous
 62
     0
100
AcDbMText
 10
395.4214437221048
 20
493.4280713775496
 30
0.0
 40
12.0
 41
0.0
 46
0.0
 71
     5
 72
     1
  1
\A1;450
  7
ＭＳ ゴシック
 11
0.0
 21
1.0
 31
0.0
 73
     1
 44
1.0
  0
POINT
  5
30D0
330
30C7
100
AcDbEntity
  8
Defpoints
 62
     0
100
AcDbPoint
 10
288.6588810405162
 20
693.8679897101208
 30
0.0
  0
POINT
  5
30D1
330
30C7
100
AcDbEntity
  8
Defpoints
 62
     0
100
AcDbPoint
 10
361.1633744163321
 20
292.9881530449784
 30
0.0
  0
POINT
  5
30D2
330
30C7
100
AcDbEntity
  8
Defpoints
 62
     0
100
AcDbPoint
 10
405.4214437221048
 20
292.9881530449784
 30
0.0
  0
ENDBLK
  5
30C9
330
30C7
100
AcDbEntity
  8
0
100
AcDbBlockEnd
  0
BLOCK
  5
33B0
330
33AF
100
AcDbEntity
  8
0
100
AcDbBlockBegin
  2
*D34
 70
     1
 10
0.0
 20
0.0
 30
0.0
  3
*D34
  1
*D38
  0
LINE
  5
33B2
330
33AF
100
AcDbEntity
  8
DIM
  6
Continuous
 62
     0
370
    -2
100
AcDbLine
 10
628.5445196303231
 20
693.8679897101208
 30
0.0
 11
735.6737856859165
 21
693.8679897101208
 31
0.0
  0
LINE
  5
33B3
330
33AF
100
AcDbEntity
  8
DIM
  6
Continuous
 62
     0
370
    -2
100
AcDbLine
 10
682.4184240022446
 20
847.8679879679784
 30
0.0
 11
735.6737856859165
 21
847.8679879679784
 31
0.0
  0
LINE
  5
33B4
330
33AF
100
AcDbEntity
  8
DIM
  6
Continuous
 62
     0
370
    -2
100
AcDbLine
 10
735.6737856859165
 20
696.8679897101208
 30
0.0
 11
735.6737856859165
 21
844.8679879679784
 31
0.0
  0
INSERT
  5
33B5
330
33AF
100
AcDbEntity
  8
DIM
 62
     0
370
    -2
100
AcDbBlockReference
  2
_DOT
 10
735.6737856859165
 20
693.8679897101208
 30
0.0
 41
3.0
 42
3.0
 43
3.0
 50
270.0
  0
INSERT
  5
33B6
330
33AF
100
AcDbEntity
  8
DIM
 62
     0
370
    -2
100
AcDbBlockReference
  2
_DOT
 10
735.6737856859165
 20
847.8679879679784
 30
0.0
 41
3.0
 42
3.0
 43
3.0
 50
90.0
  0
MTEXT
  5
33B7
330
33AF
100
AcDbEntity
  8
DIM
  6
Continuous
 62
     0
370
     0
100
AcDbMText
 10
719.6737856859165
 20
770.8679888390495
 30
0.0
 40
12.0
 41
0.0
 46
0.0
 71
     5
 72
     1
  1
\A1;154
  7
ＭＳ ゴシック
 11
0.0
 21
1.0
 31
0.0
 73
     1
 44
1.0
  0
POINT
  5
33B8
330
33AF
100
AcDbEntity
  8
Defpoints
 62
     0
100
AcDbPoint
 10
625.5445196303231
 20
693.8679897101208
 30
0.0
  0
POINT
  5
33B9
330
33AF
100
AcDbEntity
  8
Defpoints
 62
     0
100
AcDbPoint
 10
679.4184240022446
 20
847.8679879679784
 30
0.0
  0
POINT
  5
33BA
330
33AF
100
AcDbEntity
  8
Defpoints
 62
     0
100
AcDbPoint
 10
735.6737856859165
 20
847.8679879679784
 30
0.0
  0
ENDBLK
  5
33B1
330
33AF
100
AcDbEntity
  8
0
100
AcDbBlockEnd
  0
BLOCK
  5
3580
330
357F
100
AcDbEntity
  8
0
100
AcDbBlockBegin
  2
*D35
 70
     1
 10
0.0
 20
0.0
 30
0.0
  3
*D35
  1
*D44
  0
LINE
  5
3582
330
357F
100
AcDbEntity
  8
MODEL
  6
Continuous
 62
     0
370
    -2
100
AcDbLine
 10
170.9512154937438
 20
609.2639362370923
 30
0.0
 11
170.9512154937438
 21
586.0901448887051
 31
0.0
  0
LINE
  5
3583
330
357F
100
AcDbEntity
  8
MODEL
  6
Continuous
 62
     0
370
    -2
100
AcDbLine
 10
149.9962154937436
 20
609.2639356962527
 30
0.0
 11
149.9962154937436
 21
586.0901448887051
 31
0.0
  0
LINE
  5
3584
330
357F
100
AcDbEntity
  8
MODEL
  6
Continuous
 62
     0
370
    -2
100
AcDbLine
 10
176.9512154937438
 20
586.0901448887051
 30
0.0
 11
182.9512154937438
 21
586.0901448887051
 31
0.0
  0
LINE
  5
3585
330
357F
100
AcDbEntity
  8
MODEL
  6
Continuous
 62
     0
370
    -2
100
AcDbLine
 10
143.9962154937436
 20
586.0901448887051
 30
0.0
 11
137.9962154937436
 21
586.0901448887051
 31
0.0
  0
INSERT
  5
3586
330
357F
100
AcDbEntity
  8
MODEL
 62
     0
370
    -2
100
AcDbBlockReference
  2
_DOT
 10
170.9512154937438
 20
586.0901448887051
 30
0.0
 41
6.0
 42
6.0
 43
6.0
 50
180.0
  0
INSERT
  5
3587
330
357F
100
AcDbEntity
  8
MODEL
 62
     0
370
    -2
100
AcDbBlockReference
  2
_DOT
 10
149.9962154937436
 20
586.0901448887051
 30
0.0
 41
6.0
 42
6.0
 43
6.0
  0
MTEXT
  5
3588
330
357F
100
AcDbEntity
  8
MODEL
  6
Continuous
 62
     0
370
     0
100
AcDbMText
 10
160.4737154937437
 20
602.0901448887051
 30
0.0
 40
12.0
 41
0.0
 46
0.0
 71
     5
 72
     1
  1
\A1;21
  7
ＭＳ ゴシック
 73
     1
 44
1.0
  0
POINT
  5
3589
330
357F
100
AcDbEntity
  8
Defpoints
 62
     0
100
AcDbPoint
 10
170.9512154937438
 20
634.2639362370923
 30
0.0
  0
POINT
  5
358A
330
357F
100
AcDbEntity
  8
Defpoints
 62
     0
100
AcDbPoint
 10
149.9962154937436
 20
634.2639356962527
 30
0.0
  0
POINT
  5
358B
330
357F
100
AcDbEntity
  8
Defpoints
 62
     0
100
AcDbPoint
 10
149.9962154937436
 20
586.0901448887051
 30
0.0
  0
ENDBLK
  5
3581
330
357F
100
AcDbEntity
  8
0
100
AcDbBlockEnd
  0
BLOCK
  5
3762
330
3761
100
AcDbEntity
  8
0
100
AcDbBlockBegin
  2
*D36
 70
     1
 10
0.0
 20
0.0
 30
0.0
  3
*D36
  1
*D57
  0
LINE
  5
3763
330
3761
100
AcDbEntity
  8
DIM
 62
     0
370
    -2
100
AcDbLine
 10
1.5
 20
192.5067898010013
 30
0.0
 11
1.5
 21
229.1551149646008
 31
0.0
  0
LINE
  5
3764
330
3761
100
AcDbEntity
  8
DIM
 62
     0
370
    -2
100
AcDbLine
 10
101.5000008630914
 20
3.0
 30
0.0
 11
101.5000008630914
 21
229.1551149646008
 31
0.0
  0
LINE
  5
3765
330
3761
100
AcDbEntity
  8
DIM
 62
     0
370
    -2
100
AcDbLine
 10
4.5
 20
229.1551149646008
 30
0.0
 11
98.5000008630914
 21
229.1551149646008
 31
0.0
  0
INSERT
  5
3766
330
3761
100
AcDbEntity
  8
DIM
 62
     0
370
    -2
100
AcDbBlockReference
  2
_DOT
 10
1.5
 20
229.1551149646008
 30
0.0
 41
3.0
 42
3.0
 43
3.0
 50
180.0
  0
INSERT
  5
3767
330
3761
100
AcDbEntity
  8
DIM
 62
     0
370
    -2
100
AcDbBlockReference
  2
_DOT
 10
101.5000008630914
 20
229.1551149646008
 30
0.0
 41
3.0
 42
3.0
 43
3.0
  0
MTEXT
  5
3768
330
3761
100
AcDbEntity
  8
DIM
  6
Continuous
 62
     0
100
AcDbMText
 10
51.50000043154569
 20
239.1551149646008
 30
0.0
 40
12.0
 41
0.0
 46
0.0
 71
     5
 72
     1
  1
\A1;100
  7
ＭＳ ゴシック
 73
     1
 44
1.0
  0
POINT
  5
3769
330
3761
100
AcDbEntity
  8
Defpoints
 62
     0
100
AcDbPoint
 10
1.5
 20
189.5067898010013
 30
0.0
  0
POINT
  5
376A
330
3761
100
AcDbEntity
  8
Defpoints
 62
     0
100
AcDbPoint
 10
101.5000008630914
 20
0.0
 30
0.0
  0
POINT
  5
376B
330
3761
100
AcDbEntity
  8
Defpoints
 62
     0
100
AcDbPoint
 10
101.5000008630914
 20
229.1551149646008
 30
0.0
  0
ENDBLK
  5
376C
330
3761
100
AcDbEntity
  8
0
100
AcDbBlockEnd
  0
BLOCK
  5
3772
330
3771
100
AcDbEntity
  8
0
100
AcDbBlockBegin
  2
*D37
 70
     1
 10
0.0
 20
0.0
 30
0.0
  3
*D37
  1
*D38
  0
LINE
  5
3774
330
3771
100
AcDbEntity
  8
DIM
 62
     0
370
    -2
100
AcDbLine
 10
160.5369504137571
 20
1041.810721465095
 30
0.0
 11
160.5369504137571
 21
1076.273210323136
 31
0.0
  0
LINE
  5
3775
330
3771
100
AcDbEntity
  8
DIM
 62
     0
370
    -2
100
AcDbLine
 10
260.5369504137571
 20
1041.810721465095
 30
0.0
 11
260.5369504137571
 21
1076.273210323136
 31
0.0
  0
LINE
  5
3776
330
3771
100
AcDbEntity
  8
DIM
 62
     0
370
    -2
100
AcDbLine
 10
163.5369504137571
 20
1076.273210323136
 30
0.0
 11
257.5369504137571
 21
1076.273210323136
 31
0.0
  0
INSERT
  5
3777
330
3771
100
AcDbEntity
  8
DIM
 62
     0
370
    -2
100
AcDbBlockReference
  2
_DOT
 10
160.5369504137571
 20
1076.273210323136
 30
0.0
 41
3.0
 42
3.0
 43
3.0
 50
180.0
  0
INSERT
  5
3778
330
3771
100
AcDbEntity
  8
DIM
 62
     0
370
    -2
100
AcDbBlockReference
  2
_DOT
 10
260.5369504137571
 20
1076.273210323136
 30
0.0
 41
3.0
 42
3.0
 43
3.0
  0
MTEXT
  5
3779
330
3771
100
AcDbEntity
  8
DIM
  6
Continuous
 62
     0
100
AcDbMText
 10
210.5369504137571
 20
1086.273210323136
 30
0.0
 40
12.0
 41
0.0
 46
0.0
 71
     5
 72
     1
  1
\A1;100
  7
ＭＳ ゴシック
 73
     1
 44
1.0
  0
POINT
  5
377A
330
3771
100
AcDbEntity
  8
Defpoints
 62
     0
100
AcDbPoint
 10
160.5369504137571
 20
1038.810721465095
 30
0.0
  0
POINT
  5
377B
330
3771
100
AcDbEntity
  8
Defpoints
 62
     0
100
AcDbPoint
 10
260.5369504137571
 20
1038.810721465095
 30
0.0
  0
POINT
  5
377C
330
3771
100
AcDbEntity
  8
Defpoints
 62
     0
100
AcDbPoint
 10
260.5369504137571
 20
1076.273210323136
 30
0.0
  0
ENDBLK
  5
3773
330
3771
100
AcDbEntity
  8
0
100
AcDbBlockEnd
  0
ENDSEC
  0
SECTION
  2
ENTITIES
  0
MTEXT
  5
23F3
330
A
100
AcDbEntity
  8
TEMPLATE
 62
     7
390
1D
100
AcDbMText
 10
21.23478042684087
 20
142.9020811546089
 30
0.0
 40
8.144205729166664
 41
0.0
 46
0.0
 71
     1
 72
     1
  1
品名
  7
ＭＳ ゴシック
 73
     1
 44
0.7828267384257843
  0
MTEXT
  5
23F4
330
A
100
AcDbEntity
  8
TEMPLATE
 62
     7
390
1D
100
AcDbMText
 10
21.23478042684087
 20
107.8751586351608
 30
0.0
 40
8.144205729166664
 41
0.0
 46
0.0
 71
     1
 72
     1
  1
仕様
  7
ＭＳ ゴシック
 73
     1
 44
0.7828267384257843
  0
LWPOLYLINE
  5
23F5
330
A
100
AcDbEntity
  8
TEMPLATE
  6
Continuous
 62
     7
370
     0
390
1D
100
AcDbPolyline
 90
        5
 70
   128
 43
0.0
 10
823.4224208338999
 20
1174.693162940315
 10
17.73478042659985
 20
1174.693162940315
 10
17.73478042659985
 20
33.93294059650032
 10
823.4224208338999
 20
33.93294059650032
 10
823.4224208338999
 20
1174.693162940315
  0
MTEXT
  5
23F6
330
A
100
AcDbEntity
  8
TEMPLATE
 62
     7
390
1D
100
AcDbMText
 10
17.73478042694273
 20
28.00602956807177
 30
0.0
 40
10.85894097222222
 41
0.0
 46
10.85894097222222
 71
     1
 72
     1
  1
{131105NX}
  7
ＭＳ ゴシック
 73
     1
 44
0.7828267384257843
1001
ACAD
1000
ACAD_MTEXT_DEFINED_HEIGHT_BEGIN
1070
    46
1040
10.85894097222222
1000
ACAD_MTEXT_DEFINED_HEIGHT_END
  0
MTEXT
  5
23F7
330
A
100
AcDbEntity
  8
TEMPLATE
 62
     7
390
1D
100
AcDbMText
 10
468.5534419044254
 20
61.47774335984627
 30
0.0
 40
12.21630859375
 41
0.0
 46
0.0
 71
     1
 72
     1
  1
大洋金物株式会社 ティーフォルム事業部
  7
ＭＳ ゴシック
 73
     1
 44
0.7828267384257843
  0
MTEXT
  5
23F8
330
A
100
AcDbEntity
  8
TEMPLATE
 62
     7
390
1D
100
AcDbMText
 10
746.3448627027603
 20
93.58392816641083
 30
0.0
 40
12.21630859375
 41
0.0
 46
12.21630859375
 71
     1
 72
     1
  1
{1:4}
  7
ＭＳ ゴシック
 73
     1
 44
0.7828267384257843
1001
ACAD
1000
ACAD_MTEXT_DEFINED_HEIGHT_BEGIN
1070
    46
1040
12.21630859375
1000
ACAD_MTEXT_DEFINED_HEIGHT_END
  0
MTEXT
  5
23F9
330
A
100
AcDbEntity
  8
TEMPLATE
 62
     7
390
1D
100
AcDbMText
 10
719.8448627027603
 20
107.8751586351608
 30
0.0
 40
8.144205729166664
 41
0.0
 46
0.0
 71
     1
 72
     1
  1
縮尺
  7
ＭＳ ゴシック
 73
     1
 44
0.7828267384257843
  0
MTEXT
  5
23FA
330
A
100
AcDbEntity
  8
TEMPLATE
 62
     7
390
1D
100
AcDbMText
 10
594.3448627027603
 20
107.8751586351608
 30
0.0
 40
8.144205729166664
 41
0.0
 46
0.0
 71
     1
 72
     1
  1
容量
  7
ＭＳ ゴシック
 73
     1
 44
0.7828267384257843
  0
MTEXT
  5
23FB
330
A
100
AcDbEntity
  8
TEMPLATE
 62
     7
390
1D
100
AcDbMText
 10
468.8448627027601
 20
142.9020811546089
 30
0.0
 40
8.144205729166664
 41
0.0
 46
0.0
 71
     1
 72
     1
  1
品番
  7
ＭＳ ゴシック
 73
     1
 44
0.7828267384257843
  0
MTEXT
  5
23FC
330
A
100
AcDbEntity
  8
TEMPLATE
 62
     7
390
1D
100
AcDbMText
 10
468.8448627027601
 20
107.8751586351608
 30
0.0
 40
8.144205729166664
 41
0.0
 46
0.0
 71
     1
 72
     1
  1
重量
  7
ＭＳ ゴシック
 73
     1
 44
0.7828267384257843
  0
MTEXT
  5
23FD
330
A
100
AcDbEntity
  8
TEMPLATE
 62
     7
390
1D
100
AcDbMText
 10
495.3448627027601
 20
128.6108506858589
 30
0.0
 40
12.21630859375
 41
0.0
 46
12.21630859375
 71
     1
 72
     1
  1
{AGN73-3602}
  7
ＭＳ ゴシック
 73
     1
 44
0.7828267384257843
1001
ACAD
1000
ACAD_MTEXT_DEFINED_HEIGHT_BEGIN
1070
    46
1040
12.21630859375
1000
ACAD_MTEXT_DEFINED_HEIGHT_END
  0
MTEXT
  5
23FE
330
A
100
AcDbEntity
  8
TEMPLATE
 62
     7
390
1D
100
AcDbMText
 10
47.73478042684087
 20
128.6108506858589
 30
0.0
 40
12.21630859375
 41
0.0
 46
12.21630859375
 71
     1
 72
     1
  1
{混合栓 -FANTINI,Fukasawa-}
  7
ＭＳ ゴシック
 73
     1
 44
0.7828267384257843
1001
ACAD
1000
ACAD_MTEXT_DEFINED_HEIGHT_BEGIN
1070
    46
1040
12.21630859375
1000
ACAD_MTEXT_DEFINED_HEIGHT_END
  0
INSERT
  5
23FF
330
A
100
AcDbEntity
  8
TEMPLATE
  6
Continuous
370
     0
100
AcDbBlockReference
  2
名称未設定-1
 10
754.3920405486544
 20
-1.667013278386918
 30
0.0
 41
0.3809999999999999
 42
0.3809999999999999
 43
0.3809999999999999
  0
MTEXT
  5
2400
330
A
100
AcDbEntity
  8
TEMPLATE
 62
     7
390
1D
100
AcDbMText
 10
44.26088079099372
 20
91.91527083414445
 30
0.0
 40
12.21630859375
 41
0.0
 46
12.21630859375
 71
     1
 72
     1
  1
{クローム}
  7
ＭＳ ゴシック
 73
     1
 44
0.7828267384257843
1001
ACAD
1000
ACAD_MTEXT_DEFINED_HEIGHT_BEGIN
1070
    46
1040
12.21630859375
1000
ACAD_MTEXT_DEFINED_HEIGHT_END
  0
LINE
  5
2404
330
A
100
AcDbEntity
  8
TEMPLATE
  6
Continuous
 62
     7
370
     0
390
1D
100
AcDbLine
 10
462.2348677134712
 20
33.93294059650032
 30
0.0
 11
462.2348677134712
 21
147.1095420921088
 31
0.0
  0
LINE
  5
2405
330
A
100
AcDbEntity
  8
TEMPLATE
  6
Continuous
 62
     7
370
     0
390
1D
100
AcDbLine
 10
823.4224208338999
 20
76.43294059650032
 30
0.0
 11
462.2348677134712
 21
76.43294059650032
 31
0.0
  0
LINE
  5
2406
330
A
100
AcDbEntity
  8
TEMPLATE
  6
Continuous
 62
     7
370
     0
390
1D
100
AcDbLine
 10
716.3448627027603
 20
76.43294059650032
 30
0.0
 11
716.3448627027603
 21
112.082619572661
 31
0.0
  0
LINE
  5
2407
330
A
100
AcDbEntity
  8
TEMPLATE
  6
Continuous
 62
     7
370
     0
390
1D
100
AcDbLine
 10
823.4224208338999
 20
147.1095420921088
 30
0.0
 11
17.73478042659985
 21
147.1095420921088
 31
0.0
  0
LINE
  5
2408
330
A
100
AcDbEntity
  8
TEMPLATE
  6
Continuous
 62
     7
370
     0
390
1D
100
AcDbLine
 10
823.4224208338999
 20
112.082619572661
 30
0.0
 11
17.73478042659985
 21
112.082619572661
 31
0.0
  0
LINE
  5
2409
330
A
100
AcDbEntity
  8
TEMPLATE
  6
Continuous
 62
     7
370
     0
390
1D
100
AcDbLine
 10
590.8448627027603
 20
76.43294059650032
 30
0.0
 11
590.8448627027603
 21
112.082619572661
 31
0.0
  0
POINT
  5
2A88
330
A
100
AcDbEntity
  8
SPESSA
100
AcDbPoint
 10
185.8714731695532
 20
361.1350725317831
 30
0.0
  0
POINT
  5
2A8A
330
A
100
AcDbEntity
  8
SPESSA
100
AcDbPoint
 10
227.8714731695532
 20
361.1350725317831
 30
0.0
  0
LINE
  5
2A8B
330
A
100
AcDbEntity
  8
MODEL
100
AcDbLine
 10
511.4184123463033
 20
699.8679876582602
 30
0.0
 11
511.4184116881593
 21
822.3679879679784
 31
0.0
  0
LINE
  5
2A8C
330
A
100
AcDbEntity
  8
MODEL
100
AcDbLine
 10
487.4184123463033
 20
699.8679876582602
 30
0.0
 11
487.4184116881593
 21
822.3679879679784
 31
0.0
  0
LINE
  5
2A8D
330
A
100
AcDbEntity
  8
MODEL
100
AcDbLine
 10
531.9184134783413
 20
707.8679905540946
 30
0.0
 11
551.8238744572927
 21
707.8679905540946
 31
0.0
  0
LINE
  5
2A8E
330
A
100
AcDbEntity
  8
HIDDEN
  6
Continuous
370
     0
100
AcDbLine
 10
531.9133361871932
 20
709.8679906057134
 30
0.0
 11
551.8238744930964
 21
709.8679906057134
 31
0.0
  0
LINE
  5
2A8F
330
A
100
AcDbEntity
  8
HIDDEN
  6
Continuous
370
     0
100
AcDbLine
 10
531.9174903345179
 20
718.8679906057134
 30
0.0
 11
551.8238744930964
 21
718.8679906057134
 31
0.0
  0
LINE
  5
2A90
330
A
100
AcDbEntity
  8
MODEL
100
AcDbLine
 10
531.9184134783413
 20
720.8679905540946
 30
0.0
 11
551.8238744572927
 21
720.8679905540946
 31
0.0
  0
LINE
  5
2A91
330
A
100
AcDbEntity
  8
MODEL
100
AcDbLine
 10
551.8238744930964
 20
709.8679906057134
 30
0.0
 11
551.8238744930964
 21
718.8679906057134
 31
0.0
  0
LINE
  5
2A92
330
A
100
AcDbEntity
  8
MODEL
100
AcDbLine
 10
551.8238744572927
 20
709.8679906057134
 30
0.0
 11
551.8238744572927
 21
707.8679905540946
 31
0.0
  0
LINE
  5
2A93
330
A
100
AcDbEntity
  8
MODEL
100
AcDbLine
 10
551.8238744572927
 20
720.8679905540946
 30
0.0
 11
551.8238744572927
 21
718.8679906057134
 31
0.0
  0
LINE
  5
2A94
330
A
100
AcDbEntity
  8
HIDDEN
  6
CENTER2
370
     0
100
AcDbLine
 10
499.4184263742359
 20
796.8124310376255
 30
0.0
 11
499.4184140601506
 21
687.4986089441371
 31
0.0
  0
LINE
  5
2A95
330
A
100
AcDbEntity
  8
MODEL
100
AcDbLine
 10
487.4184122103765
 20
725.1679905459525
 30
0.0
 11
466.9184134783413
 21
725.1679905459525
 31
0.0
  0
LINE
  5
2A96
330
A
100
AcDbEntity
  8
MODEL
100
AcDbLine
 10
487.4184122093019
 20
725.3679905489328
 30
0.0
 11
467.1184134813216
 21
725.3679905489328
 31
0.0
  0
LINE
  5
2A98
330
A
100
AcDbEntity
  8
MODEL
100
AcDbLine
 10
466.9184124326877
 20
693.867987129164
 30
0.0
 11
531.9184124326877
 21
693.8679888067861
 31
0.0
  0
LINE
  5
2A99
330
A
100
AcDbEntity
  8
MODEL
100
AcDbLine
 10
531.9124130433188
 20
707.8679905540946
 30
0.0
 11
531.9184134783413
 21
720.8679905489328
 31
0.0
  0
LINE
  5
2A9B
330
A
100
AcDbEntity
  8
MODEL
100
AcDbLine
 10
531.9184134783413
 20
697.1179905489328
 30
0.0
 11
531.9184134783413
 21
701.947348920414
 31
0.0
  0
LINE
  5
2A9C
330
A
100
AcDbEntity
  8
MODEL
100
AcDbLine
 10
531.9184134783413
 20
696.3679905489328
 30
0.0
 11
531.9184134783413
 21
707.8679905540946
 31
0.0
  0
LINE
  5
2A9E
330
A
100
AcDbEntity
  8
MODEL
100
AcDbLine
 10
531.9184134783413
 20
725.1679905459525
 30
0.0
 11
511.4184122103765
 21
725.1679905459525
 31
0.0
  0
LINE
  5
2A9F
330
A
100
AcDbEntity
  8
MODEL
100
AcDbLine
 10
531.7184134753611
 20
725.3679905489328
 30
0.0
 11
511.4184122093019
 21
725.3679905489328
 31
0.0
  0
LINE
  5
2AA0
330
A
100
AcDbEntity
  8
MODEL
100
AcDbLine
 10
531.7184134753611
 20
725.3679905489328
 30
0.0
 11
531.9184134783413
 21
725.1679905459525
 31
0.0
  0
LINE
  5
2AA1
330
A
100
AcDbEntity
  8
MODEL
100
AcDbLine
 10
531.9184134783413
 20
720.8679905489328
 30
0.0
 11
531.9184134783413
 21
725.1679905459525
 31
0.0
  0
LINE
  5
2AA2
330
A
100
AcDbEntity
  8
MODEL
100
AcDbLine
 10
466.9184134783413
 20
708.6679622963982
 30
0.0
 11
466.9184134783413
 21
725.1679905459525
 31
0.0
  0
LINE
  5
2AA3
330
A
100
AcDbEntity
  8
MODEL
100
AcDbLine
 10
466.9184134783413
 20
696.3679905489328
 30
0.0
 11
466.9184134783413
 21
704.0679905459522
 31
0.0
  0
LWPOLYLINE
  5
2AA5
330
A
100
AcDbEntity
  8
MODEL
100
AcDbPolyline
 90
       13
 70
     0
 43
0.0
 10
466.9184116815873
 20
704.0679849067421
 10
466.923965880806
 20
704.1465066352578
 10
466.9390415643998
 20
704.3762429633828
 10
466.9596409296341
 20
704.7416604438515
 10
466.9802708124466
 20
705.2179940620156
 10
466.9952854608841
 20
705.772528974125
 10
467.0008396601029
 20
706.3680184760781
 10
466.9953464960404
 20
706.9633248725625
 10
466.9802402948685
 20
707.5181191840859
 10
466.9596409296341
 20
707.9940713325234
 10
466.9390110468216
 20
708.3597634711953
 10
466.9240269159623
 20
708.5892403999062
 10
466.9184116815873
 20
708.6679604926796
  0
LINE
  5
2AA6
330
A
100
AcDbEntity
  8
MODEL
100
AcDbLine
 10
467.1184134813216
 20
725.3679905489328
 30
0.0
 11
466.9184134783413
 21
725.1679905459525
 31
0.0
  0
LINE
  5
2AA7
330
A
100
AcDbEntity
  8
MODEL
100
AcDbLine
 10
536.9184240022446
 20
847.8679879679784
 30
0.0
 11
645.3413902239758
 21
847.8679879679784
 31
0.0
  0
LINE
  5
2AA8
330
A
100
AcDbEntity
  8
MODEL
100
AcDbLine
 10
536.9184240022446
 20
871.8679879679784
 30
0.0
 11
679.4184240022446
 21
871.8679879679784
 31
0.0
  0
LINE
  5
2AA9
330
A
100
AcDbEntity
  8
MODEL
100
AcDbLine
 10
664.8373434288851
 20
847.8679879679784
 30
0.0
 11
679.4184240022446
 21
847.8679879679784
 31
0.0
  0
LINE
  5
2AAA
102
{ACAD_REACTORS
330
33AE
102
}
330
A
100
AcDbEntity
  8
MODEL
100
AcDbLine
 10
679.4184240022446
 20
871.8679879679784
 30
0.0
 11
679.4184240022446
 21
847.8679879679784
 31
0.0
  0
LWPOLYLINE
  5
2AAB
330
A
100
AcDbEntity
  8
MODEL
100
AcDbPolyline
 90
       32
 70
     0
 43
0.0
 10
645.3413976284851
 20
847.8680562888452
 10
645.3904622647156
 20
847.9128866111108
 10
645.5363057705749
 20
848.045485488064
 10
645.775090560614
 20
848.2604207907983
 10
646.1013387295593
 20
848.5494832907983
 10
646.5088094326843
 20
848.902419081814
 10
646.9913686367859
 20
849.307936659939
 10
647.5439351651062
 20
849.7537069236108
 10
648.1627477261413
 20
850.2268209372827
 10
648.8458684536804
 20
850.7130575095483
 10
649.5934880825866
 20
851.195387831814
 10
650.4071935269226
 20
851.653883925564
 10
651.2889150235046
 20
852.0626058493921
 10
652.2366841885437
 20
852.3885946189233
 10
653.2396596524109
 20
852.5988607322046
 10
654.2738164517273
 20
852.6679220115014
 10
655.307317123114
 20
852.5937642966577
 10
656.3153813931335
 20
852.3970785056421
 10
657.2836888882507
 20
852.107008925564
 10
658.2081273648132
 20
851.7521505271264
 10
659.0883306118835
 20
851.3542318259546
 10
659.9246724697937
 20
850.9314107810327
 10
660.7165959927429
 20
850.496901503689
 10
661.4620565029968
 20
850.0622091208764
 10
662.1571401211609
 20
849.6377401267358
 10
662.795712814032
 20
849.2335653220483
 10
663.3692449185241
 20
848.8603658591577
 10
663.8670781704773
 20
848.5294332419702
 10
664.2762349697937
 20
848.2530660544702
 10
664.582578048407
 20
848.0437154685327
 10
664.7730001065124
 20
847.9125814353296
 10
664.837346419989
 20
847.8681478415796
  0
ARC
  5
2AAC
330
A
100
AcDbEntity
  8
MODEL
100
AcDbCircle
 10
536.9184240022446
 20
822.3679879679784
 30
0.0
 40
49.5
100
AcDbArc
 50
90.00000000022108
 51
180.0
  0
ARC
  5
2AAD
330
A
100
AcDbEntity
  8
MODEL
100
AcDbCircle
 10
536.9184240022446
 20
822.3679879679784
 30
0.0
 40
25.5
100
AcDbArc
 50
90.00000000022071
 51
180.0
  0
LINE
  5
2AB0
330
A
100
AcDbEntity
  8
MODEL
100
AcDbLine
 10
172.6588791534282
 20
699.8679882776896
 30
0.0
 11
172.658875024249
 21
859.8543539333041
 31
0.0
  0
LINE
  5
2AB1
330
A
100
AcDbEntity
  8
MODEL
100
AcDbLine
 10
148.6588791534284
 20
699.8679876582605
 30
0.0
 11
148.658875024249
 21
859.8543539333042
 31
0.0
  0
LINE
  5
2AB2
330
A
100
AcDbEntity
  8
MODEL
100
AcDbLine
 10
228.1588785004462
 20
725.167989707141
 30
0.0
 11
293.1588785004462
 21
725.1679913847631
 31
0.0
  0
LINE
  5
2AB3
330
A
100
AcDbEntity
  8
MODEL
100
AcDbLine
 10
228.3588784982644
 20
725.3679897152831
 30
0.0
 11
292.9588784923042
 21
725.3679913825811
 31
0.0
  0
LINE
  5
2AB4
330
A
100
AcDbEntity
  8
MODEL
100
AcDbLine
 10
228.1588792437619
 20
696.3679897101213
 30
0.0
 11
293.1588792437617
 21
696.3679913877434
 31
0.0
  0
LINE
  5
2AB5
330
A
100
AcDbEntity
  8
MODEL
100
AcDbLine
 10
288.6588810405162
 20
693.8679897101208
 30
0.0
 11
232.6588810405165
 21
693.8679897101213
 31
0.0
  0
LINE
  5
2AB6
330
A
100
AcDbEntity
  8
MODEL
100
AcDbLine
 10
160.6588799277154
 20
699.8679879679751
 30
0.0
 11
128.1588790889045
 21
699.867987129164
 31
0.0
  0
LINE
  5
2AB7
330
A
100
AcDbEntity
  8
MODEL
100
AcDbLine
 10
193.1588792437619
 20
693.8679888067861
 30
0.0
 11
128.1588792437619
 21
693.867987129164
 31
0.0
  0
LINE
  5
2AB8
330
A
100
AcDbEntity
  8
MODEL
100
AcDbLine
 10
128.1588790889045
 20
699.867987129164
 30
0.0
 11
128.1588792437619
 21
693.867987129164
 31
0.0
  0
LINE
  5
2AB9
330
A
100
AcDbEntity
  8
MODEL
100
AcDbLine
 10
193.1588790889045
 20
699.8679888067861
 30
0.0
 11
160.6588799277156
 21
699.8679879679751
 31
0.0
  0
LINE
  5
2ABA
330
A
100
AcDbEntity
  8
MODEL
100
AcDbLine
 10
193.1588790889045
 20
699.8679888067861
 30
0.0
 11
193.1588792437619
 21
693.8679888067861
 31
0.0
  0
LINE
  5
2ABB
330
A
100
AcDbEntity
  8
MODEL
100
AcDbLine
 10
228.1588792437619
 20
696.3679897101213
 30
0.0
 11
228.1588785004462
 21
725.167989707141
 31
0.0
  0
LINE
  5
2ABC
330
A
100
AcDbEntity
  8
MODEL
100
AcDbLine
 10
232.6588810405165
 20
693.8679897101213
 30
0.0
 11
232.6588810405165
 21
696.3679897101213
 31
0.0
  0
LINE
  5
2ABD
330
A
100
AcDbEntity
  8
MODEL
100
AcDbLine
 10
228.3588784982644
 20
725.3679897152831
 30
0.0
 11
228.1588785004462
 21
725.1679897071406
 31
0.0
  0
LINE
  5
2ABE
330
A
100
AcDbEntity
  8
MODEL
100
AcDbLine
 10
258.6588797351349
 20
709.7679904973131
 30
0.0
 11
258.6588795028485
 21
718.7679904973131
 31
0.0
  0
LINE
  5
2ABF
330
A
100
AcDbEntity
  8
MODEL
100
AcDbLine
 10
262.8588802478951
 20
709.8679906057134
 30
0.0
 11
262.8588800156087
 21
718.8679906057134
 31
0.0
  0
ARC
  5
2AC0
330
A
100
AcDbEntity
  8
MODEL
100
AcDbCircle
 10
260.8588802478951
 20
709.8679905540941
 30
0.0
 40
2.0
100
AcDbArc
 50
293.2968524922321
 51
0.0000014787834798
  0
ARC
  5
2AC1
330
A
100
AcDbEntity
  8
MODEL
100
AcDbCircle
 10
260.6588817343163
 20
709.7682790356914
 30
0.0
 40
2.00000201999492
100
AcDbArc
 50
180.0082660076285
 51
299.7023176048356
  0
ARC
  5
2AC2
330
A
100
AcDbEntity
  8
MODEL
100
AcDbCircle
 10
260.8588800156087
 20
718.8679905540941
 30
0.0
 40
2.0
100
AcDbArc
 50
0.000001479070086
 51
119.779253593846
  0
ARC
  5
2AC3
330
A
100
AcDbEntity
  8
MODEL
100
AcDbCircle
 10
260.6602740357646
 20
718.7670329914324
 30
0.0
 40
2.001394761960876
100
AcDbArc
 50
113.3957498143505
 51
179.9725885922428
  0
LINE
  5
2AC4
330
A
100
AcDbEntity
  8
MODEL
100
AcDbLine
 10
293.1588792437617
 20
696.3679913877434
 30
0.0
 11
293.1588785004462
 21
725.1679913847631
 31
0.0
  0
LINE
  5
2AC5
330
A
100
AcDbEntity
  8
MODEL
100
AcDbLine
 10
288.6588810405162
 20
693.8679897101208
 30
0.0
 11
288.6588810405162
 21
696.3679897101208
 31
0.0
  0
LINE
  5
2AC6
330
A
100
AcDbEntity
  8
MODEL
100
AcDbLine
 10
292.9588784923042
 20
725.3679913825811
 30
0.0
 11
293.1588785004462
 21
725.1679913847631
 31
0.0
  0
CIRCLE
  5
2AC7
330
A
100
AcDbEntity
  8
MODEL
100
AcDbCircle
 10
160.658867278959
 20
859.8679879679779
 30
0.0
 40
12.0
  0
LINE
  5
2ACA
330
A
100
AcDbEntity
  8
MODEL
100
AcDbLine
 10
148.6588645689549
 20
822.3679876582631
 30
0.0
 11
148.6588636010956
 21
859.8679876582631
 31
0.0
  0
LINE
  5
2ACB
330
A
100
AcDbEntity
  8
MODEL
100
AcDbLine
 10
148.6588645689549
 20
819.8679876582631
 30
0.0
 11
148.6588636010956
 21
857.3679876582631
 31
0.0
  0
LINE
  5
2ACC
330
A
100
AcDbEntity
  8
MODEL
100
AcDbLine
 10
172.6588645689544
 20
822.3679882776927
 30
0.0
 11
172.6588636010956
 21
859.8679882776927
 31
0.0
  0
LINE
  5
2ACD
330
A
100
AcDbEntity
  8
MODEL
100
AcDbLine
 10
172.6588645689544
 20
819.8679882776927
 30
0.0
 11
172.6588636010956
 21
857.3679882776927
 31
0.0
  0
LINE
  5
2ACE
330
A
100
AcDbEntity
  8
HIDDEN
  6
CENTER2
370
     0
100
AcDbLine
 10
160.6588808712249
 20
883.3747795111224
 30
0.0
 11
160.6588808712249
 21
693.8679879679751
 31
0.0
  0
DIMENSION
  5
2ACF
330
A
100
AcDbEntity
  8
DIM
100
AcDbDimension
  2
*D5
 10
551.8238744572927
 20
748.9679186536014
 30
0.0
 11
541.871143967817
 21
748.9679186536014
 31
0.0
 70
   160
  1
20
 71
     5
 42
19.9054609789514
 73
     0
 74
     0
 75
     0
 52
-89.99999999999999
  3
ARIAL
100
AcDbAlignedDimension
 13
531.9184134783413
 23
724.6423813228971
 33
0.0
 14
551.8238744572927
 24
720.8679905540946
 34
0.0
 50
180.0
100
AcDbRotatedDimension
1001
ACAD
1000
DSTYLE
1002
{
1070
   340
1005
39
1070
    44
1040
0.0
1070
   173
1070
     1
1070
   342
1005
0
1070
   344
1005
4E
1070
   343
1005
4E
1070
    41
1040
3.0
1002
}
  0
DIMENSION
  5
2AD0
330
A
100
AcDbEntity
  8
DIM
100
AcDbDimension
  2
*D6
 10
584.1012062650047
 20
720.8679905540946
 30
0.0
 11
584.1012062650047
 21
738.8899905540947
 31
0.0
 70
   160
 71
     5
 42
13.0
 73
     0
 74
     0
 75
     0
 52
-90.0
  3
ARIAL
100
AcDbAlignedDimension
 13
551.8238744572927
 23
707.8679905540946
 33
0.0
 14
551.8238744572927
 24
720.8679905540946
 34
0.0
 50
90.00000000000001
100
AcDbRotatedDimension
1001
ACAD
1000
DSTYLE
1002
{
1070
   340
1005
39
1070
    44
1040
0.0
1070
   173
1070
     1
1070
   342
1005
0
1070
   344
1005
4E
1070
   343
1005
4E
1070
    41
1040
3.0
1002
}
  0
DIMENSION
  5
2AD1
330
A
100
AcDbEntity
  8
DIM
100
AcDbDimension
  2
*D7
 10
262.8588800156087
 20
740.9521273254627
 30
0.0
 11
284.0997219941434
 21
740.9521273254627
 31
0.0
 70
   160
  1
4
 71
     5
 42
4.200000280473773
 73
     0
 74
     1
 75
     1
  3
ARIAL
100
AcDbAlignedDimension
 13
258.6588797351349
 23
718.7683918922774
 33
0.0
 14
262.8588800156087
 24
718.8679906057134
 34
0.0
100
AcDbRotatedDimension
1001
ACAD
1000
DSTYLE
1002
{
1070
   340
1005
39
1070
    44
1040
0.0
1070
   173
1070
     1
1070
   342
1005
0
1070
   344
1005
4E
1070
   343
1005
4E
1070
    41
1040
3.0
1002
}
  0
DIMENSION
  5
2AD2
330
A
100
AcDbEntity
  8
DIM
100
AcDbDimension
  2
*D8
 10
317.0791097219234
 20
725.3679860591125
 30
0.0
 11
317.0791097219234
 21
710.867988723428
 31
0.0
 70
   160
  1
32
 71
     5
 42
28.99999467136911
 73
     0
 74
     0
 75
     0
  3
ARIAL
100
AcDbAlignedDimension
 13
293.1588792437617
 23
696.3679913877434
 33
0.0
 14
293.1588784952844
 24
725.3679860591125
 34
0.0
 50
90.0
100
AcDbRotatedDimension
1001
ACAD
1000
DSTYLE
1002
{
1070
   340
1005
39
1070
    44
1040
0.0
1070
   173
1070
     1
1070
   342
1005
0
1070
   344
1005
4E
1070
   343
1005
4E
1070
    41
1040
3.0
1002
}
  0
DIMENSION
  5
2AD7
330
A
100
AcDbEntity
  8
DIM
100
AcDbDimension
  2
*D11
 10
654.2738164517272
 20
796.8124310376255
 30
0.0
 11
572.7235701898367
 21
796.8124310376255
 31
0.0
 70
   160
  1
155
 71
     5
 42
154.8553900774913
 73
     0
 74
     0
 75
     0
 52
-89.99999999999999
  3
ARIAL
100
AcDbAlignedDimension
 13
499.4184263742359
 23
797.5624310376255
 33
0.0
 14
654.2738164517272
 24
852.6679167236018
 34
0.0
 50
180.0
100
AcDbRotatedDimension
1001
ACAD
1000
DSTYLE
1002
{
1070
   340
1005
39
1070
    44
1040
0.0
1070
   173
1070
     1
1070
   342
1005
0
1070
   344
1005
4E
1070
   343
1005
4E
1070
    41
1040
3.0
1002
}
  0
DIMENSION
  5
2AD8
330
A
100
AcDbEntity
  8
DIM
100
AcDbDimension
  2
*D12
 10
466.9184134783412
 20
959.1815474396262
 30
0.0
 11
573.1684160489153
 21
969.1815474396262
 31
0.0
 70
    32
  1
212
 71
     5
 42
212.5000051411481
 73
     0
 74
     0
 75
     0
 52
-89.99999999999999
  3
ARIAL
100
AcDbAlignedDimension
 13
679.4184186194893
 23
907.8679879679755
 33
0.0
 14
466.9184134783412
 24
725.3679905489328
 34
0.0
 50
180.0
100
AcDbRotatedDimension
1001
ACAD
1000
DSTYLE
1002
{
1070
   340
1005
39
1070
    44
1040
0.0
1070
   173
1070
     1
1070
   342
1005
0
1070
   344
1005
4E
1070
   343
1005
4E
1070
    41
1040
3.0
1002
}
  0
HATCH
  5
2ADB
330
A
100
AcDbEntity
  8
MODEL
100
AcDbHatch
 10
0.0
 20
0.0
 30
0.0
210
0.0
220
0.0
230
1.0
  2
SOLID
 70
     1
 71
     0
 91
        2
 92
        7
 72
     0
 73
     1
 93
        4
 10
281.1588349150488
 20
674.0517918379592
 10
281.1588349150486
 20
676.0517918379592
 10
260.6588349150484
 20
676.0517918379592
 10
260.6588349150484
 20
674.0517918379592
 97
        0
 92
        7
 72
     0
 73
     1
 93
        4
 10
240.1588349150486
 20
676.0517918379592
 10
240.1588349150486
 20
674.0517918379592
 10
260.6588349150486
 20
674.0517918379592
 10
260.6588349150486
 20
676.0517918379592
 97
        0
 75
     0
 76
     1
 47
0.0627163313527135
 98
        2
 10
273.2784919008445
 20
674.5698097465156
 10
256.5279497281313
 20
675.1342563205421
  0
LINE
  5
2ADC
330
A
100
AcDbEntity
  8
MODEL
100
AcDbLine
 10
281.1588349150488
 20
676.0517918379592
 30
0.0
 11
240.1588349150488
 21
676.0517918379592
 31
0.0
  0
LINE
  5
2ADD
330
A
100
AcDbEntity
  8
MODEL
100
AcDbLine
 10
240.1588349150486
 20
674.0517918379592
 30
0.0
 11
281.1588349150488
 21
674.0517918379592
 31
0.0
  0
LINE
  5
2ADE
330
A
100
AcDbEntity
  8
MODEL
100
AcDbLine
 10
255.9652128088658
 20
671.6448570998
 30
0.0
 11
285.2534501857638
 21
671.6448570998
 31
0.0
  0
LINE
  5
2ADF
330
A
100
AcDbEntity
  8
MODEL
100
AcDbLine
 10
236.1161167205507
 20
674.0517918379592
 30
0.0
 11
285.2015531095467
 21
674.0517918379592
 31
0.0
  0
LINE
  5
2AE0
330
A
100
AcDbEntity
  8
MODEL
100
AcDbLine
 10
235.9384849773462
 20
673.9436992068167
 30
0.0
 11
285.379184175029
 21
673.9436992068167
 31
0.0
  0
LINE
  5
2AE1
330
A
100
AcDbEntity
  8
MODEL
100
AcDbLine
 10
235.8821034536945
 20
671.7622484081221
 30
0.0
 11
285.435591950564
 21
671.7622484081221
 31
0.0
  0
LINE
  5
2AE2
102
{ACAD_REACTORS
330
33AE
102
}
330
A
100
AcDbEntity
  8
DIM
100
AcDbLine
 10
140.8108898742105
 20
693.8679897101208
 30
0.0
 11
625.5445196303231
 21
693.8679897101208
 31
0.0
  0
LINE
  5
2AE5
330
A
100
AcDbEntity
  8
MODEL
100
AcDbLine
 10
277.1588817343163
 20
693.867989710121
 30
0.0
 11
277.1588817343163
 21
674.0517918379592
 31
0.0
  0
LINE
  5
2AE6
330
A
100
AcDbEntity
  8
MODEL
100
AcDbLine
 10
244.1588817343163
 20
693.867989710121
 30
0.0
 11
244.1588817343163
 21
674.0517918379592
 31
0.0
  0
LINE
  5
2AE9
330
A
100
AcDbEntity
  8
MODEL
100
AcDbLine
 10
173.6588817343043
 20
693.8666438232685
 30
0.0
 11
173.6588817343043
 21
677.0322491943716
 31
0.0
  0
LINE
  5
2AEB
330
A
100
AcDbEntity
  8
MODEL
100
AcDbLine
 10
147.6588817343043
 20
693.8666438232685
 30
0.0
 11
147.6588817343043
 21
677.0322491943716
 31
0.0
  0
POINT
  5
2AFA
330
A
100
AcDbEntity
  8
SPESSA
100
AcDbPoint
 10
185.8714731695532
 20
361.1350725317831
 30
0.0
  0
POINT
  5
2AFE
330
A
100
AcDbEntity
  8
SPESSA
100
AcDbPoint
 10
227.8714731695532
 20
361.1350725317831
 30
0.0
  0
POINT
  5
2B37
330
A
100
AcDbEntity
  8
0
 62
     0
370
    30
100
AcDbPoint
 10
173.759102103832
 20
452.9888391390219
 30
0.0
  0
POINT
  5
2B38
330
A
100
AcDbEntity
  8
0
 62
     0
370
    30
100
AcDbPoint
 10
175.471473169562
 20
446.4850725317834
 30
0.0
  0
POINT
  5
2B3E
330
A
100
AcDbEntity
  8
0
 62
     0
370
    30
100
AcDbPoint
 10
206.8714731695621
 20
458.393265982762
 30
0.0
  0
POINT
  5
2B3F
330
A
100
AcDbEntity
  8
0
 62
     0
370
    30
100
AcDbPoint
 10
206.8714731695621
 20
447.1350725317835
 30
0.0
  0
POINT
  5
2B42
330
A
100
AcDbEntity
  8
0
 62
     0
370
    30
100
AcDbPoint
 10
239.9838442352916
 20
452.9888391390219
 30
0.0
  0
POINT
  5
2B44
330
A
100
AcDbEntity
  8
0
 62
     0
370
    30
100
AcDbPoint
 10
238.2714731695621
 20
446.4850725317834
 30
0.0
  0
LINE
  5
2E77
330
A
100
AcDbEntity
  8
MODEL
100
AcDbLine
 10
135.658881734304
 20
677.0322491943716
 30
0.0
 11
185.6588817343043
 21
677.0322491943716
 31
0.0
  0
LINE
  5
2E78
330
A
100
AcDbEntity
  8
MODEL
100
AcDbLine
 10
135.6588817343043
 20
676.0322491943716
 30
0.0
 11
185.6588817343043
 21
676.0322491943716
 31
0.0
  0
LINE
  5
2E79
330
A
100
AcDbEntity
  8
MODEL
100
AcDbLine
 10
138.458881734304
 20
674.732249194371
 30
0.0
 11
182.8588817343041
 21
674.7322491943714
 31
0.0
  0
LINE
  5
2E7A
330
A
100
AcDbEntity
  8
MODEL
100
AcDbLine
 10
143.1532152653635
 20
643.1126001476118
 30
0.0
 11
143.1532149934364
 21
653.6484985324737
 31
0.0
  0
LINE
  5
2E7B
330
A
100
AcDbEntity
  8
MODEL
100
AcDbLine
 10
151.8134656525067
 20
643.1126003711292
 30
0.0
 11
151.8134653805796
 21
653.6484987559911
 31
0.0
  0
LINE
  5
2E7C
330
A
100
AcDbEntity
  8
MODEL
100
AcDbLine
 10
169.1339656525067
 20
643.1126008181641
 30
0.0
 11
169.1339653805799
 21
653.648499203026
 31
0.0
  0
LINE
  5
2E7D
330
A
100
AcDbEntity
  8
MODEL
100
AcDbLine
 10
177.7942152653634
 20
643.1126010416815
 30
0.0
 11
177.7942149934365
 21
653.6484994265434
 31
0.0
  0
LINE
  5
2E7E
330
A
100
AcDbEntity
  8
MODEL
100
AcDbLine
 10
174.7942153100669
 20
641.3805501566835
 30
0.0
 11
146.153215310067
 21
641.3805494174717
 31
0.0
  0
LWPOLYLINE
  5
2E7F
330
A
100
AcDbEntity
  8
MODEL
100
AcDbPolyline
 90
       10
 70
     0
 43
0.0
 10
169.1339645835219
 20
643.1126025812632
 10
167.25460056985
 20
642.6166843073374
 10
165.3516312094985
 20
642.2192920343882
 10
163.428184554225
 20
641.9392474787242
 10
161.4900513144789
 20
641.7927554743296
 10
159.5464554282485
 20
641.7894519464976
 10
157.607856795436
 20
641.9295047419077
 10
155.6835632773696
 20
642.203735698939
 10
153.7795792075453
 20
642.5961612360484
 10
151.8134689780532
 20
643.1126025812632
  0
LINE
  5
2E82
330
A
100
AcDbEntity
  8
MODEL
100
AcDbLine
 10
149.9962153100669
 20
641.3805495166575
 30
0.0
 11
149.9962154360676
 21
636.4986111653608
 31
0.0
  0
LINE
  5
2E83
330
A
100
AcDbEntity
  8
MODEL
100
AcDbLine
 10
151.1582155598446
 20
636.4986111653608
 30
0.0
 11
151.1582154338439
 21
641.3805495466486
 31
0.0
  0
LINE
  5
2E85
330
A
100
AcDbEntity
  8
MODEL
100
AcDbLine
 10
146.153215310067
 20
641.3805494174717
 30
0.0
 11
143.1532152653635
 21
643.1126001476118
 31
0.0
  0
LWPOLYLINE
  5
2E86
330
A
100
AcDbEntity
  8
MODEL
100
AcDbPolyline
 90
       10
 70
     0
 43
0.0
 10
151.8134689780532
 20
643.1126025812632
 10
150.8738327475844
 20
642.6167224543101
 10
149.9223556968032
 20
642.2193225519663
 10
148.9606628867446
 20
641.9392779963023
 10
147.9916305991469
 20
641.7927631037242
 10
147.0198593589125
 20
641.7894214289195
 10
146.0505905600844
 20
641.9294665949351
 10
145.0884705039321
 20
642.2036594049937
 10
144.1365204306899
 20
642.5960239069468
 10
143.1532135459242
 20
643.1126025812632
  0
LINE
  5
2E87
330
A
100
AcDbEntity
  8
MODEL
100
AcDbLine
 10
170.9512153100668
 20
641.3805500574977
 30
0.0
 11
170.9512154360677
 21
636.4986111653608
 31
0.0
  0
LINE
  5
2E88
330
A
100
AcDbEntity
  8
MODEL
100
AcDbLine
 10
169.7892155598446
 20
636.4986111653608
 30
0.0
 11
169.7892154338438
 21
641.3805500275066
 31
0.0
  0
LINE
  5
2E8A
330
A
100
AcDbEntity
  8
MODEL
100
AcDbLine
 10
174.7942153100669
 20
641.3805501566835
 30
0.0
 11
177.7942152653634
 21
643.1126010416815
 31
0.0
  0
LWPOLYLINE
  5
2E8B
330
A
100
AcDbEntity
  8
MODEL
100
AcDbPolyline
 90
       10
 70
     0
 43
0.0
 10
177.7942123862563
 20
643.1126025812632
 10
176.8545761557875
 20
642.6167224543101
 10
175.9031067344008
 20
642.2193225519663
 10
174.9414139243422
 20
641.9392779963023
 10
173.9723816367446
 20
641.7927631037242
 10
173.0006103965102
 20
641.7894214289195
 10
172.0313415976821
 20
641.9294665949351
 10
171.0692215415297
 20
642.2036594049937
 10
170.1172714682875
 20
642.5960315363413
 10
169.1339645835219
 20
643.1126025812632
  0
LINE
  5
2E8C
330
A
100
AcDbEntity
  8
MODEL
100
AcDbLine
 10
146.153214948733
 20
655.3805494174717
 30
0.0
 11
174.794214948733
 21
655.3805501566835
 31
0.0
  0
LWPOLYLINE
  5
2E8D
330
A
100
AcDbEntity
  8
MODEL
100
AcDbPolyline
 90
       10
 70
     0
 43
0.0
 10
151.8134689780532
 20
653.6484988825327
 10
153.6927338095961
 20
654.1443790094859
 10
155.5956802817641
 20
654.5417789118296
 10
157.5190735312758
 20
654.8218234674937
 10
159.4571304770766
 20
654.9683307306773
 10
161.4006729575453
 20
654.9716800348765
 10
163.3392105552016
 20
654.8316348688609
 10
165.2634506675063
 20
654.5574420588023
 10
167.1673508139907
 20
654.1650699274546
 10
169.1339645835219
 20
653.6484988825327
  0
LINE
  5
2E90
330
A
100
AcDbEntity
  8
MODEL
100
AcDbLine
 10
143.3383736586154
 20
669.7322491943714
 30
0.0
 11
177.9793898099931
 21
669.7322491943714
 31
0.0
  0
LINE
  5
2E93
330
A
100
AcDbEntity
  8
MODEL
100
AcDbLine
 10
143.3383736586154
 20
674.7322491943714
 30
0.0
 11
143.3383736586154
 21
669.7322491943714
 31
0.0
  0
LINE
  5
2E94
330
A
100
AcDbEntity
  8
MODEL
100
AcDbLine
 10
151.9986276964598
 20
674.7322491943714
 30
0.0
 11
151.9986276964598
 21
669.7322491943714
 31
0.0
  0
LINE
  5
2E95
330
A
100
AcDbEntity
  8
MODEL
100
AcDbLine
 10
146.153214948733
 20
655.3805494174717
 30
0.0
 11
143.1532149934364
 21
653.6484985324742
 31
0.0
  0
LWPOLYLINE
  5
2E96
330
A
100
AcDbEntity
  8
MODEL
100
AcDbPolyline
 90
       10
 70
     0
 43
0.0
 10
143.1532135459242
 20
653.6484988825327
 10
144.0928955527602
 20
654.1444171564585
 10
145.044380232936
 20
654.5418094294077
 10
146.0061035605727
 20
654.8218539850718
 10
146.975173995143
 20
654.9683459894663
 10
147.946968123561
 20
654.9716495172984
 10
148.9162674399672
 20
654.8315890924937
 10
149.8784180136977
 20
654.5573581354624
 10
150.8304062339125
 20
654.1649402277476
 10
151.8134689780532
 20
653.6484988825327
  0
LINE
  5
2E99
330
A
100
AcDbEntity
  8
MODEL
100
AcDbLine
 10
147.6588817343043
 20
669.7322491943714
 30
0.0
 11
147.6588817343043
 21
655.3805494563321
 31
0.0
  0
LINE
  5
2E9A
330
A
100
AcDbEntity
  8
MODEL
100
AcDbLine
 10
135.658881734304
 20
677.0322491943716
 30
0.0
 11
135.6588817343043
 21
676.0322491943716
 31
0.0
  0
LINE
  5
2E9B
330
A
100
AcDbEntity
  8
MODEL
100
AcDbLine
 10
137.1588817343043
 20
676.0322491943707
 30
0.0
 11
138.4588817343042
 21
674.732249194371
 31
0.0
  0
LINE
  5
2E9C
330
A
100
AcDbEntity
  8
MODEL
100
AcDbLine
 10
177.9793898099931
 20
674.7322491943714
 30
0.0
 11
177.9793898099931
 21
669.7322491943714
 31
0.0
  0
LINE
  5
2E9D
330
A
100
AcDbEntity
  8
MODEL
100
AcDbLine
 10
169.3191357721487
 20
674.7322491943714
 30
0.0
 11
169.3191357721487
 21
669.7322491943714
 31
0.0
  0
LINE
  5
2EA0
330
A
100
AcDbEntity
  8
MODEL
100
AcDbLine
 10
174.794214948733
 20
655.3805501566835
 30
0.0
 11
177.7942149934365
 21
653.6484994265434
 31
0.0
  0
LWPOLYLINE
  5
2EA1
330
A
100
AcDbEntity
  8
MODEL
100
AcDbPolyline
 90
       10
 70
     0
 43
0.0
 10
169.1339645835219
 20
653.6484988825327
 10
170.0736465903578
 20
654.1444171564585
 10
171.0251312705336
 20
654.5418094294077
 10
171.9868545981703
 20
654.8218539850718
 10
172.9559250327407
 20
654.9683459894663
 10
173.9277191611586
 20
654.9716495172984
 10
174.8970184775649
 20
654.8315890924937
 10
175.8591690512953
 20
654.5573581354624
 10
176.8111572715102
 20
654.1649402277476
 10
177.7942123862563
 20
653.6484988825327
  0
LINE
  5
2EA4
330
A
100
AcDbEntity
  8
MODEL
100
AcDbLine
 10
173.6588817343043
 20
669.7322491943714
 30
0.0
 11
173.6588817343043
 21
655.380550127381
 31
0.0
  0
LINE
  5
2EA5
330
A
100
AcDbEntity
  8
MODEL
100
AcDbLine
 10
256.0712708376543
 20
610.5138577525599
 30
0.0
 11
254.4835575973827
 21
610.5138577525599
 31
0.0
  0
LINE
  5
2EA6
330
A
100
AcDbEntity
  8
MODEL
100
AcDbLine
 10
258.3081306309343
 20
605.5138577525599
 30
0.0
 11
244.3081316027453
 21
605.5138577525599
 31
0.0
  0
LINE
  5
2EA7
330
A
100
AcDbEntity
  8
MODEL
100
AcDbLine
 10
258.3081306309343
 20
605.2499221307089
 30
0.0
 11
244.3081316027453
 21
605.2499221307089
 31
0.0
  0
LINE
  5
2EA8
330
A
100
AcDbEntity
  8
MODEL
100
AcDbLine
 10
258.3081306309339
 20
590.541718198212
 30
0.0
 11
244.3081316027458
 21
590.541718198212
 31
0.0
  0
LINE
  5
2EA9
330
A
100
AcDbEntity
  8
MODEL
100
AcDbLine
 10
258.3081306309339
 20
588.5138577525599
 30
0.0
 11
244.3081316027458
 21
588.5138577525599
 31
0.0
  0
LINE
  5
2EAA
330
A
100
AcDbEntity
  8
MODEL
100
AcDbLine
 10
258.2025578219343
 20
604.8027085352091
 30
0.0
 11
244.4137044117451
 21
604.8027085352091
 31
0.0
  0
LINE
  5
2EAB
330
A
100
AcDbEntity
  8
MODEL
100
AcDbLine
 10
257.3081306309327
 20
602.5138541532119
 30
0.0
 11
245.3081316027467
 21
602.5138541532119
 31
0.0
  0
LINE
  5
2EAC
330
A
100
AcDbEntity
  8
MODEL
100
AcDbLine
 10
257.3081306309325
 20
593.5138541532119
 30
0.0
 11
245.3081316027467
 21
593.5138541532119
 31
0.0
  0
LINE
  5
2EAD
330
A
100
AcDbEntity
  8
MODEL
100
AcDbLine
 10
258.0969850129334
 20
591.4361453892129
 30
0.0
 11
244.5192772207463
 21
591.4361453892129
 31
0.0
  0
LINE
  5
2EAE
330
A
100
AcDbEntity
  8
MODEL
100
AcDbLine
 10
254.8723135647358
 20
606.5138577525599
 30
0.0
 11
254.4835575973827
 21
606.5138577525599
 31
0.0
  0
LINE
  5
2EAF
330
A
100
AcDbEntity
  8
MODEL
100
AcDbLine
 10
245.3081316027467
 20
602.5138541532119
 30
0.0
 11
245.3081316027467
 21
593.5138541532119
 31
0.0
  0
ARC
  5
2EB0
330
A
100
AcDbEntity
  8
MODEL
100
AcDbCircle
 10
246.3081316027458
 20
590.541718198212
 30
0.0
 40
2.000000000000064
100
AcDbArc
 50
153.4349488229031
 51
180.0
  0
LINE
  5
2EB1
330
A
100
AcDbEntity
  8
MODEL
100
AcDbLine
 10
244.3081316027458
 20
590.541718198212
 30
0.0
 11
244.3081316027458
 21
588.5138577525599
 31
0.0
  0
LINE
  5
2EB2
330
A
100
AcDbEntity
  8
MODEL
100
AcDbLine
 10
245.3081316027467
 20
593.5138541532119
 30
0.0
 11
244.5192772207463
 21
591.4361453892129
 31
0.0
  0
LINE
  5
2EB3
330
A
100
AcDbEntity
  8
MODEL
100
AcDbLine
 10
251.3081311168396
 20
610.5138577525599
 30
0.0
 11
248.1327046362969
 21
610.5138577525599
 31
0.0
  0
LINE
  5
2EB4
330
A
100
AcDbEntity
  8
MODEL
100
AcDbLine
 10
245.8081311168396
 20
610.5138577525599
 30
0.0
 11
245.8081311168396
 21
614.0138566321307
 31
0.0
  0
LINE
  5
2EB5
330
A
100
AcDbEntity
  8
MODEL
100
AcDbLine
 10
248.1327046362969
 20
610.5138577525599
 30
0.0
 11
246.5449913960254
 21
610.5138577525599
 31
0.0
  0
LINE
  5
2EB6
330
A
100
AcDbEntity
  8
MODEL
100
AcDbLine
 10
246.5449913960254
 20
610.5138577525599
 30
0.0
 11
244.9572781557538
 21
610.5138577525599
 31
0.0
  0
LINE
  5
2EB7
330
A
100
AcDbEntity
  8
MODEL
100
AcDbLine
 10
254.4835575973827
 20
610.5138577525599
 30
0.0
 11
251.3081311168396
 21
610.5138577525599
 31
0.0
  0
LINE
  5
2EB8
330
A
100
AcDbEntity
  8
MODEL
100
AcDbLine
 10
253.7060456626762
 20
606.5138577525599
 30
0.0
 11
248.9102165710033
 21
606.5138577525599
 31
0.0
  0
ARC
  5
2EB9
330
A
100
AcDbEntity
  8
MODEL
100
AcDbCircle
 10
245.3081316027453
 20
605.5138577525599
 30
0.0
 40
1.0
100
AcDbArc
 50
90.0
 51
180.0
  0
ARC
  5
2EBA
330
A
100
AcDbEntity
  8
MODEL
100
AcDbCircle
 10
245.3081316027453
 20
605.2499221307089
 30
0.0
 40
0.999999999999996
100
AcDbArc
 50
180.0
 51
206.5650511770656
  0
LINE
  5
2EBB
330
A
100
AcDbEntity
  8
MODEL
100
AcDbLine
 10
244.3081316027453
 20
605.5138577525599
 30
0.0
 11
244.3081316027453
 21
605.2499221307089
 31
0.0
  0
LINE
  5
2EBC
330
A
100
AcDbEntity
  8
MODEL
100
AcDbLine
 10
244.4137044117451
 20
604.8027085352091
 30
0.0
 11
245.3081316027467
 21
602.5138541532119
 31
0.0
  0
LINE
  5
2EBD
330
A
100
AcDbEntity
  8
MODEL
100
AcDbLine
 10
247.7439486689436
 20
606.5138577525599
 30
0.0
 11
245.3460341231071
 21
606.5138577525599
 31
0.0
  0
LINE
  5
2EBE
330
A
100
AcDbEntity
  8
MODEL
100
AcDbLine
 10
248.1327046362969
 20
606.5138577525599
 30
0.0
 11
247.7439486689436
 21
606.5138577525599
 31
0.0
  0
LINE
  5
2EBF
330
A
100
AcDbEntity
  8
MODEL
100
AcDbLine
 10
245.3460341231071
 20
606.5138577525599
 30
0.0
 11
244.9572781557538
 21
606.5138577525599
 31
0.0
  0
LINE
  5
2EC0
330
A
100
AcDbEntity
  8
MODEL
100
AcDbLine
 10
248.9102165710033
 20
606.5138577525599
 30
0.0
 11
248.1327046362969
 21
606.5138577525599
 31
0.0
  0
LINE
  5
2EC1
330
A
100
AcDbEntity
  8
MODEL
100
AcDbLine
 10
254.4835575973827
 20
606.5138577525599
 30
0.0
 11
253.7060456626762
 21
606.5138577525599
 31
0.0
  0
LINE
  5
2EC2
330
A
100
AcDbEntity
  8
MODEL
100
AcDbLine
 10
248.1327046362969
 20
610.5138577525599
 30
0.0
 11
248.1327046362969
 21
606.5138577525599
 31
0.0
  0
LINE
  5
2EC3
330
A
100
AcDbEntity
  8
MODEL
100
AcDbLine
 10
244.9572781557538
 20
610.5138577525599
 30
0.0
 11
244.9572781557538
 21
606.5138577525599
 31
0.0
  0
LINE
  5
2EC4
330
A
100
AcDbEntity
  8
MODEL
100
AcDbLine
 10
254.4835575973827
 20
610.5138577525599
 30
0.0
 11
254.4835575973827
 21
606.5138577525599
 31
0.0
  0
LINE
  5
2EC5
330
A
100
AcDbEntity
  8
MODEL
100
AcDbLine
 10
275.9611002302574
 20
602.5138541532124
 30
0.0
 11
275.9611002302574
 21
593.5138541532124
 31
0.0
  0
LINE
  5
2EC6
330
A
100
AcDbEntity
  8
MODEL
100
AcDbLine
 10
263.9611012020714
 20
602.5138541532124
 30
0.0
 11
263.9611012020714
 21
593.5138541532124
 31
0.0
  0
LINE
  5
2EC7
330
A
100
AcDbEntity
  8
MODEL
100
AcDbLine
 10
257.3081306309327
 20
602.5138541532119
 30
0.0
 11
257.3081306309327
 21
593.5138541532119
 31
0.0
  0
LINE
  5
2EC8
330
A
100
AcDbEntity
  8
MODEL
100
AcDbLine
 10
276.9611002302586
 20
590.5417181982125
 30
0.0
 11
262.9611012020705
 21
590.5417181982125
 31
0.0
  0
LINE
  5
2EC9
330
A
100
AcDbEntity
  8
MODEL
100
AcDbLine
 10
276.9611002302586
 20
588.5138577525604
 30
0.0
 11
262.9611012020705
 21
588.5138577525604
 31
0.0
  0
LINE
  5
2ECA
330
A
100
AcDbEntity
  8
MODEL
100
AcDbLine
 10
275.9611002302572
 20
593.5138541532124
 30
0.0
 11
263.9611012020714
 21
593.5138541532124
 31
0.0
  0
LINE
  5
2ECB
330
A
100
AcDbEntity
  8
MODEL
100
AcDbLine
 10
276.7499546122581
 20
591.4361453892134
 30
0.0
 11
263.172246820071
 21
591.4361453892134
 31
0.0
  0
ARC
  5
2ECC
330
A
100
AcDbEntity
  8
MODEL
100
AcDbCircle
 10
264.9611012020705
 20
590.5417181982125
 30
0.0
 40
2.000000000000064
100
AcDbArc
 50
153.4349488229024
 51
180.0
  0
LINE
  5
2ECD
330
A
100
AcDbEntity
  8
MODEL
100
AcDbLine
 10
262.9611012020705
 20
590.5417181982125
 30
0.0
 11
262.9611012020705
 21
588.5138577525604
 31
0.0
  0
LINE
  5
2ECE
330
A
100
AcDbEntity
  8
MODEL
100
AcDbLine
 10
263.9611012020714
 20
593.5138541532124
 30
0.0
 11
263.172246820071
 21
591.4361453892134
 31
0.0
  0
LINE
  5
2ECF
330
A
100
AcDbEntity
  8
MODEL
100
AcDbLine
 10
258.3081306309339
 20
590.541718198212
 30
0.0
 11
258.3081306309339
 21
588.5138577525599
 31
0.0
  0
ARC
  5
2ED0
330
A
100
AcDbEntity
  8
MODEL
100
AcDbCircle
 10
256.3081306309336
 20
590.541718198212
 30
0.0
 40
2.000000000000064
100
AcDbArc
 50
0.0
 51
26.56505117709766
  0
LINE
  5
2ED1
330
A
100
AcDbEntity
  8
MODEL
100
AcDbLine
 10
257.3081306309325
 20
593.5138541532119
 30
0.0
 11
258.0969850129334
 21
591.4361453892129
 31
0.0
  0
LINE
  5
2ED2
330
A
100
AcDbEntity
  8
MODEL
100
AcDbLine
 10
276.9611002302586
 20
590.5417181982125
 30
0.0
 11
276.9611002302586
 21
588.5138577525604
 31
0.0
  0
ARC
  5
2ED3
330
A
100
AcDbEntity
  8
MODEL
100
AcDbCircle
 10
274.9611002302584
 20
590.5417181982125
 30
0.0
 40
2.000000000000064
100
AcDbArc
 50
0.0
 51
26.56505117709693
  0
LINE
  5
2ED4
330
A
100
AcDbEntity
  8
MODEL
100
AcDbLine
 10
275.9611002302572
 20
593.5138541532124
 30
0.0
 11
276.7499546122581
 21
591.4361453892134
 31
0.0
  0
LINE
  5
2ED5
330
A
100
AcDbEntity
  8
MODEL
100
AcDbLine
 10
269.9611007161643
 20
610.5138577525604
 30
0.0
 11
266.7856742356216
 21
610.5138577525604
 31
0.0
  0
LINE
  5
2ED6
330
A
100
AcDbEntity
  8
MODEL
100
AcDbLine
 10
267.563186170328
 20
606.5138577525604
 30
0.0
 11
266.7856742356216
 21
606.5138577525604
 31
0.0
  0
LINE
  5
2ED7
330
A
100
AcDbEntity
  8
MODEL
100
AcDbLine
 10
276.961100230259
 20
605.5138577525604
 30
0.0
 11
262.96110120207
 21
605.5138577525604
 31
0.0
  0
LINE
  5
2ED8
330
A
100
AcDbEntity
  8
MODEL
100
AcDbLine
 10
276.961100230259
 20
605.2499221307094
 30
0.0
 11
262.96110120207
 21
605.2499221307094
 31
0.0
  0
LINE
  5
2ED9
330
A
100
AcDbEntity
  8
MODEL
100
AcDbLine
 10
276.855527421259
 20
604.8027085352096
 30
0.0
 11
263.0666740110698
 21
604.8027085352096
 31
0.0
  0
LINE
  5
2EDA
330
A
100
AcDbEntity
  8
MODEL
100
AcDbLine
 10
275.9611002302574
 20
602.5138541532124
 30
0.0
 11
263.9611012020714
 21
602.5138541532124
 31
0.0
  0
LINE
  5
2EDB
330
A
100
AcDbEntity
  8
MODEL
100
AcDbLine
 10
266.7856742356216
 20
610.5138577525604
 30
0.0
 11
265.1979609953501
 21
610.5138577525604
 31
0.0
  0
LINE
  5
2EDC
330
A
100
AcDbEntity
  8
MODEL
100
AcDbLine
 10
265.1979609953501
 20
610.5138577525604
 30
0.0
 11
263.6102477550785
 21
610.5138577525604
 31
0.0
  0
LINE
  5
2EDD
330
A
100
AcDbEntity
  8
MODEL
100
AcDbLine
 10
264.4611007161643
 20
610.5138577525604
 30
0.0
 11
264.4611007161643
 21
614.0138566321311
 31
0.0
  0
LINE
  5
2EDE
330
A
100
AcDbEntity
  8
MODEL
100
AcDbLine
 10
256.8081311168396
 20
610.5138577525599
 30
0.0
 11
256.8081311168396
 21
614.0138566321307
 31
0.0
  0
LINE
  5
2EDF
330
A
100
AcDbEntity
  8
MODEL
100
AcDbLine
 10
257.6589840779257
 20
610.5138577525599
 30
0.0
 11
256.0712708376543
 21
610.5138577525599
 31
0.0
  0
ARC
  5
2EE0
330
A
100
AcDbEntity
  8
MODEL
100
AcDbCircle
 10
263.96110120207
 20
605.5138577525604
 30
0.0
 40
1.0
100
AcDbArc
 50
90.0
 51
180.0
  0
ARC
  5
2EE1
330
A
100
AcDbEntity
  8
MODEL
100
AcDbCircle
 10
263.96110120207
 20
605.2499221307094
 30
0.0
 40
0.999999999999996
100
AcDbArc
 50
180.0
 51
206.565051177059
  0
LINE
  5
2EE2
330
A
100
AcDbEntity
  8
MODEL
100
AcDbLine
 10
262.96110120207
 20
605.5138577525604
 30
0.0
 11
262.96110120207
 21
605.2499221307094
 31
0.0
  0
LINE
  5
2EE3
330
A
100
AcDbEntity
  8
MODEL
100
AcDbLine
 10
263.0666740110698
 20
604.8027085352096
 30
0.0
 11
263.9611012020714
 21
602.5138541532124
 31
0.0
  0
LINE
  5
2EE4
330
A
100
AcDbEntity
  8
MODEL
100
AcDbLine
 10
266.3969182682683
 20
606.5138577525604
 30
0.0
 11
263.9990037224318
 21
606.5138577525604
 31
0.0
  0
LINE
  5
2EE5
330
A
100
AcDbEntity
  8
MODEL
100
AcDbLine
 10
266.7856742356216
 20
606.5138577525604
 30
0.0
 11
266.3969182682683
 21
606.5138577525604
 31
0.0
  0
LINE
  5
2EE6
330
A
100
AcDbEntity
  8
MODEL
100
AcDbLine
 10
263.9990037224318
 20
606.5138577525604
 30
0.0
 11
263.6102477550785
 21
606.5138577525604
 31
0.0
  0
ARC
  5
2EE7
330
A
100
AcDbEntity
  8
MODEL
100
AcDbCircle
 10
257.3081306309343
 20
605.5138577525599
 30
0.0
 40
1.0
100
AcDbArc
 50
0.0
 51
90.0
  0
LINE
  5
2EE8
330
A
100
AcDbEntity
  8
MODEL
100
AcDbLine
 10
258.2025578219343
 20
604.8027085352091
 30
0.0
 11
257.3081306309325
 21
602.5138541532119
 31
0.0
  0
ARC
  5
2EE9
330
A
100
AcDbEntity
  8
MODEL
100
AcDbCircle
 10
257.3081306309343
 20
605.2499221307089
 30
0.0
 40
0.999999999999996
100
AcDbArc
 50
333.4349488229336
 51
0.0
  0
LINE
  5
2EEA
330
A
100
AcDbEntity
  8
MODEL
100
AcDbLine
 10
258.3081306309343
 20
605.5138577525599
 30
0.0
 11
258.3081306309343
 21
605.2499221307089
 31
0.0
  0
LINE
  5
2EEB
330
A
100
AcDbEntity
  8
MODEL
100
AcDbLine
 10
257.2702281105724
 20
606.5138577525599
 30
0.0
 11
254.8723135647358
 21
606.5138577525599
 31
0.0
  0
LINE
  5
2EEC
330
A
100
AcDbEntity
  8
MODEL
100
AcDbLine
 10
257.6589840779257
 20
606.5138577525599
 30
0.0
 11
257.2702281105724
 21
606.5138577525599
 31
0.0
  0
LINE
  5
2EED
330
A
100
AcDbEntity
  8
MODEL
100
AcDbLine
 10
266.7856742356216
 20
610.5138577525604
 30
0.0
 11
266.7856742356216
 21
606.5138577525604
 31
0.0
  0
LINE
  5
2EEE
330
A
100
AcDbEntity
  8
MODEL
100
AcDbLine
 10
263.6102477550785
 20
610.5138577525604
 30
0.0
 11
263.6102477550785
 21
606.5138577525604
 31
0.0
  0
LINE
  5
2EEF
330
A
100
AcDbEntity
  8
MODEL
100
AcDbLine
 10
257.6589840779257
 20
610.5138577525599
 30
0.0
 11
257.6589840779257
 21
606.5138577525599
 31
0.0
  0
LINE
  5
2EF0
330
A
100
AcDbEntity
  8
MODEL
100
AcDbLine
 10
276.3119536772504
 20
610.5138577525604
 30
0.0
 11
274.724240436979
 21
610.5138577525604
 31
0.0
  0
LINE
  5
2EF1
330
A
100
AcDbEntity
  8
MODEL
100
AcDbLine
 10
274.724240436979
 20
610.5138577525604
 30
0.0
 11
273.1365271967074
 21
610.5138577525604
 31
0.0
  0
LINE
  5
2EF2
330
A
100
AcDbEntity
  8
MODEL
100
AcDbLine
 10
275.4611007161643
 20
610.5138577525604
 30
0.0
 11
275.4611007161643
 21
614.0138566321311
 31
0.0
  0
LINE
  5
2EF3
330
A
100
AcDbEntity
  8
MODEL
100
AcDbLine
 10
273.1365271967074
 20
610.5138577525604
 30
0.0
 11
269.9611007161643
 21
610.5138577525604
 31
0.0
  0
LINE
  5
2EF4
330
A
100
AcDbEntity
  8
MODEL
100
AcDbLine
 10
275.9231977098971
 20
606.5138577525604
 30
0.0
 11
273.5252831640605
 21
606.5138577525604
 31
0.0
  0
LINE
  5
2EF5
330
A
100
AcDbEntity
  8
MODEL
100
AcDbLine
 10
273.5252831640605
 20
606.5138577525604
 30
0.0
 11
273.1365271967074
 21
606.5138577525604
 31
0.0
  0
LINE
  5
2EF6
330
A
100
AcDbEntity
  8
MODEL
100
AcDbLine
 10
273.1365271967074
 20
606.5138577525604
 30
0.0
 11
272.3590152620009
 21
606.5138577525604
 31
0.0
  0
LINE
  5
2EF7
330
A
100
AcDbEntity
  8
MODEL
100
AcDbLine
 10
276.3119536772504
 20
606.5138577525604
 30
0.0
 11
275.9231977098971
 21
606.5138577525604
 31
0.0
  0
LINE
  5
2EF8
330
A
100
AcDbEntity
  8
MODEL
100
AcDbLine
 10
276.855527421259
 20
604.8027085352096
 30
0.0
 11
275.9611002302572
 21
602.5138541532124
 31
0.0
  0
ARC
  5
2EF9
330
A
100
AcDbEntity
  8
MODEL
100
AcDbCircle
 10
275.961100230259
 20
605.2499221307094
 30
0.0
 40
0.999999999999996
100
AcDbArc
 50
333.4349488229336
 51
0.0
  0
LINE
  5
2EFA
330
A
100
AcDbEntity
  8
MODEL
100
AcDbLine
 10
276.961100230259
 20
605.5138577525604
 30
0.0
 11
276.961100230259
 21
605.2499221307094
 31
0.0
  0
ARC
  5
2EFB
330
A
100
AcDbEntity
  8
MODEL
100
AcDbCircle
 10
275.961100230259
 20
605.5138577525604
 30
0.0
 40
1.0
100
AcDbArc
 50
0.0
 51
90.0
  0
LINE
  5
2EFC
330
A
100
AcDbEntity
  8
MODEL
100
AcDbLine
 10
272.3590152620009
 20
606.5138577525604
 30
0.0
 11
267.563186170328
 21
606.5138577525604
 31
0.0
  0
LINE
  5
2EFD
330
A
100
AcDbEntity
  8
MODEL
100
AcDbLine
 10
276.3119536772504
 20
610.5138577525604
 30
0.0
 11
276.3119536772504
 21
606.5138577525604
 31
0.0
  0
LINE
  5
2EFE
330
A
100
AcDbEntity
  8
MODEL
100
AcDbLine
 10
273.1365271967074
 20
610.5138577525604
 30
0.0
 11
273.1365271967074
 21
606.5138577525604
 31
0.0
  0
LINE
  5
2EFF
330
A
100
AcDbEntity
  8
MODEL
100
AcDbLine
 10
185.6588817343043
 20
677.0322491943716
 30
0.0
 11
185.6588817343043
 21
676.0322491943716
 31
0.0
  0
LINE
  5
2F00
330
A
100
AcDbEntity
  8
MODEL
100
AcDbLine
 10
184.1588817343043
 20
676.0322491943716
 30
0.0
 11
182.8588817343041
 21
674.7322491943714
 31
0.0
  0
LINE
  5
2F01
330
A
100
AcDbEntity
  8
MODEL
100
AcDbLine
 10
279.5609562496807
 20
649.15452825377
 30
0.0
 11
279.560955669215
 21
671.6448570998
 31
0.0
  0
LINE
  5
2F02
330
A
100
AcDbEntity
  8
MODEL
100
AcDbLine
 10
241.8609562496806
 20
649.1545272807493
 30
0.0
 11
241.8609556692149
 21
671.6448570998
 31
0.0
  0
LINE
  5
2F03
330
A
100
AcDbEntity
  8
MODEL
100
AcDbLine
 10
245.1588830702945
 20
614.1545282252296
 30
0.0
 11
260.6588834703427
 21
614.1545286252781
 31
0.0
  0
LINE
  5
2F04
330
A
100
AcDbEntity
  8
MODEL
100
AcDbLine
 10
244.1588830444848
 20
615.1545281994199
 30
0.0
 11
260.658883470343
 21
615.1545286252781
 31
0.0
  0
LINE
  5
2F05
330
A
100
AcDbEntity
  8
MODEL
100
AcDbLine
 10
276.1588830702945
 20
614.1545281659637
 30
0.0
 11
245.1588830702945
 21
614.1545273658676
 31
0.0
  0
LWPOLYLINE
  5
2F06
330
A
100
AcDbEntity
  8
MODEL
100
AcDbPolyline
 90
       10
 70
     0
 43
0.0
 10
259.4524361426979
 20
647.7688835719318
 10
257.6632668311745
 20
648.2546242335529
 10
255.8552529151589
 20
648.6393745997639
 10
254.0316750342995
 20
648.9076622584553
 10
252.1975075538307
 20
649.0479210475178
 10
250.3596932227761
 20
649.0531471827717
 10
248.5251442725807
 20
648.922379360506
 10
246.7005135352761
 20
648.6633156398029
 10
244.8912941749245
 20
648.2866905787678
 10
242.9694802100807
 20
647.7688835719318
  0
LINE
  5
2F07
330
A
100
AcDbEntity
  8
MODEL
100
AcDbLine
 10
241.8609562496806
 20
649.1545272807493
 30
0.0
 11
260.7109567361911
 21
649.1545277672599
 31
0.0
  0
LWPOLYLINE
  5
2F08
330
A
100
AcDbEntity
  8
MODEL
100
AcDbPolyline
 90
       10
 70
     0
 43
0.0
 10
242.9694802100807
 20
620.540169582674
 10
244.7582070167214
 20
620.0544823268147
 10
246.5656716163307
 20
619.6698235133381
 10
248.3887154395729
 20
619.4016655543537
 10
250.2222573096901
 20
619.2611549952717
 10
252.0597664649636
 20
619.2556923487873
 10
253.8939186866432
 20
619.3860176661701
 10
255.7178170020729
 20
619.6452339747639
 10
257.5266091163307
 20
620.0215691188068
 10
259.4524361426979
 20
620.540169582674
  0
LINE
  5
2F09
330
A
100
AcDbEntity
  8
MODEL
100
AcDbLine
 10
279.5609570239676
 20
619.15452825377
 30
0.0
 11
241.8609570239678
 21
619.1545272807493
 31
0.0
  0
LINE
  5
2F0A
330
A
100
AcDbEntity
  8
MODEL
100
AcDbLine
 10
242.9694837213806
 20
647.7688866633048
 30
0.0
 11
242.9694844241421
 21
620.5401679554147
 31
0.0
  0
LINE
  5
2F0B
330
A
100
AcDbEntity
  8
MODEL
100
AcDbLine
 10
241.71095723382
 20
620.540167922933
 30
0.0
 11
241.7109565310584
 21
647.7688866308231
 31
0.0
  0
LINE
  5
2F0C
330
A
100
AcDbEntity
  8
MODEL
100
AcDbLine
 10
241.71095723382
 20
620.540167922933
 30
0.0
 11
242.9694844241421
 21
620.5401679554147
 31
0.0
  0
LINE
  5
2F0D
330
A
100
AcDbEntity
  8
MODEL
100
AcDbLine
 10
241.7109570217326
 20
619.241129817256
 30
0.0
 11
241.71095723382
 21
620.540167922933
 31
0.0
  0
LINE
  5
2F0E
330
A
100
AcDbEntity
  8
MODEL
100
AcDbLine
 10
241.7109570217326
 20
619.241129817256
 30
0.0
 11
241.8609570239678
 21
619.1545272807493
 31
0.0
  0
LINE
  5
2F0F
330
A
100
AcDbEntity
  8
MODEL
100
AcDbLine
 10
245.1588830702945
 20
614.1545282252296
 30
0.0
 11
245.1588830702945
 21
619.1545273658671
 31
0.0
  0
LINE
  5
2F10
330
A
100
AcDbEntity
  8
MODEL
100
AcDbLine
 10
244.1588830444848
 20
615.1545281994199
 30
0.0
 11
245.1588830702945
 21
614.1545282252296
 31
0.0
  0
LINE
  5
2F11
330
A
100
AcDbEntity
  8
MODEL
100
AcDbLine
 10
244.1588817343163
 20
619.1545273400575
 30
0.0
 11
244.1588817343163
 21
615.1545281994199
 31
0.0
  0
LINE
  5
2F12
330
A
100
AcDbEntity
  8
MODEL
100
AcDbLine
 10
242.9694837213806
 20
647.7688866633048
 30
0.0
 11
241.7109565310584
 21
647.7688866308231
 31
0.0
  0
LINE
  5
2F13
330
A
100
AcDbEntity
  8
MODEL
100
AcDbLine
 10
241.7109565310584
 20
647.7688866308231
 30
0.0
 11
241.7109562519158
 21
649.0679247364992
 31
0.0
  0
LINE
  5
2F14
330
A
100
AcDbEntity
  8
MODEL
100
AcDbLine
 10
241.7109562519158
 20
649.0679247364992
 30
0.0
 11
241.8609562496806
 21
649.1545272807493
 31
0.0
  0
LINE
  5
2F15
330
A
100
AcDbEntity
  8
MODEL
100
AcDbLine
 10
261.9694839669955
 20
647.7688871536866
 30
0.0
 11
261.9694846697571
 21
620.540168445797
 31
0.0
  0
LINE
  5
2F16
330
A
100
AcDbEntity
  8
MODEL
100
AcDbLine
 10
259.452430401634
 20
620.5401683808327
 30
0.0
 11
259.4524296988725
 21
647.7688870887227
 31
0.0
  0
LINE
  5
2F17
330
A
100
AcDbEntity
  8
MODEL
100
AcDbLine
 10
279.7109565310584
 20
647.7688876115867
 30
0.0
 11
279.71095723382
 21
620.5401689036967
 31
0.0
  0
LINE
  5
2F18
330
A
100
AcDbEntity
  8
MODEL
100
AcDbLine
 10
278.4524301560191
 20
620.5401688712145
 30
0.0
 11
278.4524294532575
 21
647.7688875791041
 31
0.0
  0
LINE
  5
2F19
330
A
100
AcDbEntity
  8
MODEL
100
AcDbLine
 10
260.6588834703427
 20
614.1545286252781
 30
0.0
 11
276.1588830702945
 21
614.1545290253262
 31
0.0
  0
LINE
  5
2F1A
330
A
100
AcDbEntity
  8
MODEL
100
AcDbLine
 10
260.658883470343
 20
615.1545286252781
 30
0.0
 11
277.1588830444848
 21
615.1545290511353
 31
0.0
  0
LWPOLYLINE
  5
2F1B
330
A
100
AcDbEntity
  8
MODEL
100
AcDbPolyline
 90
       10
 70
     0
 43
0.0
 10
261.9694802100807
 20
620.540169582674
 10
263.7582070167214
 20
620.0544823268147
 10
265.5656716163307
 20
619.6698235133381
 10
267.3887154395729
 20
619.4016655543537
 10
269.2222573096901
 20
619.2611549952717
 10
271.0597664649636
 20
619.2556923487873
 10
272.8939186866432
 20
619.3860176661701
 10
274.7178170020729
 20
619.6452339747639
 10
276.5266091163307
 20
620.0215691188068
 10
278.4524361426979
 20
620.540169582674
  0
LINE
  5
2F1C
330
A
100
AcDbEntity
  8
MODEL
100
AcDbLine
 10
259.452430401634
 20
620.5401683808327
 30
0.0
 11
261.9694846697571
 21
620.540168445797
 31
0.0
  0
LINE
  5
2F1D
330
A
100
AcDbEntity
  8
MODEL
100
AcDbLine
 10
276.1588830702945
 20
614.1545290253262
 30
0.0
 11
276.1588830702945
 21
619.1545281659637
 31
0.0
  0
LINE
  5
2F1E
330
A
100
AcDbEntity
  8
MODEL
100
AcDbLine
 10
277.1588830444848
 20
615.1545290511353
 30
0.0
 11
276.1588830702945
 21
614.1545290253262
 31
0.0
  0
LINE
  5
2F1F
330
A
100
AcDbEntity
  8
MODEL
100
AcDbLine
 10
277.1588817343163
 20
619.1545281917734
 30
0.0
 11
277.1588817343163
 21
615.1545290511353
 31
0.0
  0
LINE
  5
2F20
330
A
100
AcDbEntity
  8
MODEL
100
AcDbLine
 10
279.7109703688047
 20
619.2411385039563
 30
0.0
 11
279.5609570239676
 21
619.1545282537704
 31
0.0
  0
LINE
  5
2F21
330
A
100
AcDbEntity
  8
MODEL
100
AcDbLine
 10
278.4524301560191
 20
620.5401688712145
 30
0.0
 11
279.71095723382
 21
620.5401689036967
 31
0.0
  0
LINE
  5
2F22
330
A
100
AcDbEntity
  8
MODEL
100
AcDbLine
 10
279.71095723382
 20
620.5401689036967
 30
0.0
 11
279.7109570217335
 21
619.2411017390882
 31
0.0
  0
LWPOLYLINE
  5
2F23
330
A
100
AcDbEntity
  8
MODEL
100
AcDbPolyline
 90
       10
 70
     0
 43
0.0
 10
278.4524361426979
 20
647.7688912013264
 10
276.6632668311745
 20
648.2546242335529
 10
274.8552529151589
 20
648.6393745997639
 10
273.0316750342995
 20
648.9076622584553
 10
271.1975075538307
 20
649.0479210475178
 10
269.3596932227761
 20
649.0531471827717
 10
267.5251442725807
 20
648.922379360506
 10
265.7005135352761
 20
648.6633156398029
 10
263.8912941749245
 20
648.2866905787678
 10
261.9694802100807
 20
647.7688835719318
  0
LINE
  5
2F24
330
A
100
AcDbEntity
  8
MODEL
100
AcDbLine
 10
260.7109567361911
 20
649.1545277672599
 30
0.0
 11
279.5609562496807
 21
649.15452825377
 31
0.0
  0
LINE
  5
2F25
330
A
100
AcDbEntity
  8
MODEL
100
AcDbLine
 10
261.9694839669955
 20
647.7688871536866
 30
0.0
 11
259.4524296988725
 21
647.7688870887227
 31
0.0
  0
LINE
  5
2F26
330
A
100
AcDbEntity
  8
MODEL
100
AcDbLine
 10
279.7109627651291
 20
649.0679219568578
 30
0.0
 11
279.5609562496807
 21
649.15452825377
 31
0.0
  0
LINE
  5
2F27
330
A
100
AcDbEntity
  8
MODEL
100
AcDbLine
 10
279.7109565310584
 20
647.7688876115867
 30
0.0
 11
278.4524294532575
 21
647.7688875791041
 31
0.0
  0
LWPOLYLINE
  5
2F28
330
A
100
AcDbEntity
  8
MODEL
100
AcDbPolyline
 90
        6
 70
     0
 43
0.0
 10
279.7109505469948
 20
649.0679024317951
 10
279.7109505469948
 20
649.0163963893147
 10
279.7109505469948
 20
648.8648155787678
 10
279.7109505469948
 20
648.6186836817951
 10
279.7109505469948
 20
648.285660610506
 10
279.7109505469948
 20
647.7688912013264
  0
LINE
  5
2F29
330
A
100
AcDbEntity
  8
MODEL
100
AcDbLine
 10
242.0609556074216
 20
674.1545272859112
 30
0.0
 11
260.7109560857898
 21
674.1545277672599
 31
0.0
  0
LINE
  5
2F2A
330
A
100
AcDbEntity
  8
MODEL
100
AcDbLine
 10
236.0648340384641
 20
671.6448570998
 30
0.0
 11
255.9652128088658
 21
671.6448570998
 31
0.0
  0
ARC
  5
2F2B
330
A
100
AcDbEntity
  8
MODEL
100
AcDbCircle
 10
238.1588817343163
 20
672.7948570759581
 30
0.0
 40
2.5
100
AcDbArc
 50
152.6427745307952
 51
204.3961645827369
  0
ARC
  5
2F2C
330
A
100
AcDbEntity
  8
MODEL
100
AcDbCircle
 10
236.0642457188585
 20
671.8448571027802
 30
0.0
 40
0.200000002980247
100
AcDbArc
 50
204.396164582759
 51
270.0
  0
LINE
  5
2F2D
330
A
100
AcDbEntity
  8
MODEL
100
AcDbLine
 10
240.1588349150486
 20
674.0517918379592
 30
0.0
 11
240.1588349150486
 21
676.0517918379592
 31
0.0
  0
ARC
  5
2F2E
330
A
100
AcDbEntity
  8
MODEL
100
AcDbCircle
 10
236.1161167205507
 20
673.8517918349789
 30
0.0
 40
0.2000000029802322
100
AcDbArc
 50
90.0
 51
152.6427745307996
  0
LINE
  5
2F2F
330
A
100
AcDbEntity
  8
MODEL
100
AcDbLine
 10
260.7109560857898
 20
674.1545277672599
 30
0.0
 11
279.3609556014612
 21
674.1545282486081
 31
0.0
  0
ARC
  5
2F31
330
A
100
AcDbEntity
  8
MODEL
100
AcDbCircle
 10
283.1588817343163
 20
672.7948570759581
 30
0.0
 40
2.5
100
AcDbArc
 50
335.6038354172631
 51
27.35722546920482
  0
ARC
  5
2F32
330
A
100
AcDbEntity
  8
MODEL
100
AcDbCircle
 10
285.2534731687779
 20
671.8448207357214
 30
0.0
 40
0.1999636372374335
100
AcDbArc
 50
269.9934273455388
 51
335.610551321732
  0
LINE
  5
2F33
330
A
100
AcDbEntity
  8
MODEL
100
AcDbLine
 10
281.1588349150488
 20
674.0517918379592
 30
0.0
 11
281.1588349150486
 21
676.0517918379592
 31
0.0
  0
SPLINE
  5
2F34
330
A
100
AcDbEntity
  8
MODEL
100
AcDbSpline
210
0.0
220
0.0
230
1.0
 70
     8
 71
     3
 72
    10
 73
     6
 74
     4
 42
0.000000001
 43
0.0000000001
 44
0.000001
 12
0.99999999408485
 22
-0.0001087671828921599
 32
0.0
 13
0.4595382329125097
 23
-0.8881579884748253
 33
0.0
 40
0.0
 40
0.0
 40
0.0
 40
0.0
 40
0.0724539208665959
 40
0.1449392347164355
 40
0.2174347950899856
 40
0.2174347950899856
 40
0.2174347950899856
 40
0.2174347950899856
 10
285.2015749757006
 20
674.0517918367032
 30
0.0
 10
285.2257262825133
 20
674.0517892098335
 30
0.0
 10
285.274503620816
 20
674.0428241416028
 30
0.0
 10
285.337689713751
 20
674.0043735697657
 30
0.0
 10
285.3680794041443
 20
673.9651617105084
 30
0.0
 10
285.3791842313803
 20
673.9436992068167
 30
0.0
 11
285.2015749757006
 21
674.0517918367032
 31
0.0
 11
285.2728297845351
 21
674.038662303391
 31
0.0
 11
285.3347522418203
 21
674.0009832933265
 31
0.0
 11
285.3791842313803
 21
673.9436992068167
 31
0.0
  0
DIMENSION
  5
2F35
330
A
100
AcDbEntity
  8
DIM
100
AcDbDimension
  2
*D27
 10
260.6588817343163
 20
906.5009755009183
 30
0.0
 11
210.6588813027706
 21
906.5009755009183
 31
0.0
 70
   160
 71
     5
 42
100.0000008630914
 73
     0
 74
     0
 75
     0
  3
ARIAL
100
AcDbAlignedDimension
 13
160.6588808712249
 23
866.8526503373189
 33
0.0
 14
260.6588817343163
 24
743.4762601555508
 34
0.0
100
AcDbRotatedDimension
1001
ACAD
1000
DSTYLE
1002
{
1070
   340
1005
39
1070
    44
1040
0.0
1070
   173
1070
     1
1070
   342
1005
0
1070
   344
1005
4E
1070
   343
1005
4E
1070
    41
1040
3.0
1002
}
  0
DIMENSION
  5
2F37
330
A
100
AcDbEntity
  8
DIM
100
AcDbDimension
  2
*D29
 10
654.2738155082176
 20
852.6679220745102
 30
0.0
 11
628.314964867141
 21
822.110276499211
 31
0.0
 70
   162
 71
     5
 42
0.1745329457353346
 73
     0
 74
     1
 75
     1
  3
ARIAL
100
AcDb2LineAngularDimension
 13
654.2738164517273
 23
852.6679220115014
 33
0.0
 14
654.2738164517272
 24
852.6679167236018
 34
0.0
 15
654.2738164517272
 25
852.6679167236015
 35
0.0
 16
658.928593855327
 26
812.8437481949705
 36
0.0
1001
ACAD
1000
DSTYLE
1002
{
1070
    42
1040
0.0
1070
   340
1005
39
1070
    44
1040
0.0
1070
   173
1070
     1
1070
   342
1005
0
1070
   344
1005
4E
1070
   343
1005
4E
1070
    41
1040
3.0
1002
}
  0
DIMENSION
  5
2F39
330
A
100
AcDbEntity
  8
DIM
100
AcDbDimension
  2
*D31
 10
224.9647468804594
 20
693.8679888067861
 30
0.0
 11
214.9647468804594
 21
782.8679883873781
 31
0.0
 70
    32
 71
     5
 42
177.9999991611841
 73
     0
 74
     0
 75
     0
  3
ARIAL
100
AcDbAlignedDimension
 13
160.6588808712249
 23
871.8679879679702
 33
0.0
 14
193.1588792437619
 24
693.8679888067861
 34
0.0
 50
90.0
100
AcDbRotatedDimension
1001
ACAD
1000
DSTYLE
1002
{
1070
   340
1005
39
1070
    44
1040
0.0
1070
   173
1070
     1
1070
   342
1005
0
1070
   344
1005
4E
1070
   343
1005
4E
1070
    41
1040
3.0
1002
}
  0
DIMENSION
  5
2F3A
330
A
100
AcDbEntity
  8
DIM
100
AcDbDimension
  2
*D32
 10
487.4184116881593
 20
905.8547819050185
 30
0.0
 11
583.4184151538243
 21
915.8547819050185
 31
0.0
 70
    32
 71
     5
 42
192.00000693133
 73
     0
 74
     0
 75
     0
 52
-89.99999999999999
  3
ARIAL
100
AcDbAlignedDimension
 13
679.4184186194893
 23
871.8679879679784
 33
0.0
 14
487.4184116881593
 24
822.3679879679784
 34
0.0
 50
180.0
100
AcDbRotatedDimension
1001
ACAD
1000
DSTYLE
1002
{
1070
   340
1005
39
1070
    44
1040
0.0
1070
   173
1070
     1
1070
   342
1005
0
1070
   344
1005
4E
1070
   343
1005
4E
1070
    41
1040
3.0
1002
}
  0
DIMENSION
  5
2F3B
330
A
100
AcDbEntity
  8
DIM
100
AcDbDimension
  2
*D33
 10
405.4214437221048
 20
292.9881530449784
 30
0.0
 11
395.4214437221048
 21
493.4280713775496
 31
0.0
 70
    32
  1
450
 71
     5
 42
400.8798366651424
 73
     0
 74
     0
 75
     0
  3
ARIAL
100
AcDbAlignedDimension
 13
288.6588810405162
 23
693.8679897101208
 33
0.0
 14
361.1633744163321
 24
292.9881530449784
 34
0.0
 50
90.0
100
AcDbRotatedDimension
1001
ACAD
1000
DSTYLE
1002
{
1070
   340
1005
39
1070
    44
1040
0.0
1070
   173
1070
     1
1070
   342
1005
0
1070
   344
1005
4E
1070
   343
1005
4E
1070
    41
1040
3.0
1002
}
  0
MTEXT
  5
3108
330
A
100
AcDbEntity
  8
TEMPLATE
 62
     7
390
1D
100
AcDbMText
 10
172.5456582107081
 20
1124.841589778654
 30
0.0
 40
12.21630859375
 41
0.0
 46
12.21630859375
 71
     1
 72
     1
  1
{水栓取付穴}
  7
ＭＳ ゴシック
 73
     1
 44
0.7828267384257843
1001
ACAD
1000
ACAD_MTEXT_DEFINED_HEIGHT_BEGIN
1070
    46
1040
12.21630859375
1000
ACAD_MTEXT_DEFINED_HEIGHT_END
  0
CIRCLE
  5
3109
102
{ACAD_REACTORS
330
32D1
102
}
330
A
100
AcDbEntity
  8
MODEL
100
AcDbCircle
 10
260.5369504137571
 20
1038.810721465095
 30
0.0
 40
17.5
  0
CIRCLE
  5
32CA
330
A
100
AcDbEntity
  8
MODEL
  6
Continuous
370
    -3
100
AcDbCircle
 10
160.5369504137571
 20
1038.810721465095
 30
0.0
 40
15.0
  0
LEADER
  5
32CE
102
{ACAD_REACTORS
330
32D1
102
}
102
{ACAD_XDICTIONARY
360
32D0
102
}
330
A
100
AcDbEntity
  8
DIM
  6
Continuous
370
     0
100
AcDbLeader
  3
tfrom線あり
 76
     3
 10
267.7441856272197
 20
1022.86375433721
 30
0.0
 10
280.2413707498436
 20
1002.46867194306
 30
0.0
 10
312.8555631346744
 20
1002.46867194306
 30
0.0
1001
ACAD
1000
DSTYLE
1002
{
1070
    41
1040
3.0
1002
}
  0
LEADER
  5
32D2
102
{ACAD_XDICTIONARY
360
32D3
102
}
330
A
100
AcDbEntity
  8
DIM
  6
Continuous
370
     0
100
AcDbLeader
  3
tfrom線あり
 76
     3
 10
161.1801140772163
 20
1023.824516458423
 30
0.0
 10
177.1493752500969
 20
1002.46867194306
 30
0.0
 10
209.7635676349277
 20
1002.46867194306
 30
0.0
1001
ACAD
1000
DSTYLE
1002
{
1070
    41
1040
3.0
1002
}
  0
MTEXT
  5
3304
330
A
100
AcDbEntity
  8
TEMPLATE
 62
     7
390
1D
100
AcDbMText
 10
179.988580766385
 20
1019.910141784063
 30
0.0
 40
12.21630859375
 41
0.0
 46
12.21630859375
 71
     1
 72
     1
  1
{%%c30}
  7
ＭＳ ゴシック
 73
     1
 44
0.7828267384257843
1001
ACAD
1000
ACAD_MTEXT_DEFINED_HEIGHT_BEGIN
1070
    46
1040
12.21630859375
1000
ACAD_MTEXT_DEFINED_HEIGHT_END
  0
MTEXT
  5
3333
330
A
100
AcDbEntity
  8
TEMPLATE
 62
     7
390
1D
100
AcDbMText
 10
285.6812854212696
 20
1019.910141784063
 30
0.0
 40
12.21630859375
 41
0.0
 46
12.21630859375
 71
     1
 72
     1
  1
{%%c35}
  7
ＭＳ ゴシック
 73
     1
 44
0.7828267384257843
1001
ACAD
1000
ACAD_MTEXT_DEFINED_HEIGHT_BEGIN
1070
    46
1040
12.21630859375
1000
ACAD_MTEXT_DEFINED_HEIGHT_END
  0
LEADER
  5
336F
102
{ACAD_XDICTIONARY
360
3370
102
}
330
A
100
AcDbEntity
  8
DIM
  6
Continuous
370
     0
100
AcDbLeader
  3
tfrom線あり
 76
     3
 10
148.6588768335475
 20
789.7525086381143
 30
0.0
 10
124.7474877813804
 20
798.7169817052169
 30
0.0
 10
93.69652370197929
 20
798.7169817052169
 30
0.0
1001
ACAD
1000
DSTYLE
1002
{
1070
    41
1040
3.0
1002
}
  0
MTEXT
  5
3371
330
A
100
AcDbEntity
  8
TEMPLATE
 62
     7
390
1D
100
AcDbMText
 10
96.68772815580235
 20
816.1584515462192
 30
0.0
 40
12.21630859375
 41
0.0
 46
12.21630859375
 71
     1
 72
     1
  1
{%%c24}
  7
ＭＳ ゴシック
 73
     1
 44
0.7828267384257843
1001
ACAD
1000
ACAD_MTEXT_DEFINED_HEIGHT_BEGIN
1070
    46
1040
12.21630859375
1000
ACAD_MTEXT_DEFINED_HEIGHT_END
  0
LEADER
  5
33A3
102
{ACAD_XDICTIONARY
360
33A4
102
}
330
A
100
AcDbEntity
  8
DIM
  6
Continuous
370
     0
100
AcDbLeader
  3
tfrom線あり
 76
     3
 10
137.100603305434
 20
700.387735305577
 30
0.0
 10
113.1892142532669
 20
709.3522083726797
 30
0.0
 10
82.13825017386574
 20
709.3522083726797
 30
0.0
1001
ACAD
1000
DSTYLE
1002
{
1070
    41
1040
3.0
1002
}
  0
MTEXT
  5
33A5
330
A
100
AcDbEntity
  8
TEMPLATE
 62
     7
390
1D
100
AcDbMText
 10
85.1294546276888
 20
726.793678213682
 30
0.0
 40
12.21630859375
 41
0.0
 46
12.21630859375
 71
     1
 72
     1
  1
{%%c65}
  7
ＭＳ ゴシック
 73
     1
 44
0.7828267384257843
1001
ACAD
1000
ACAD_MTEXT_DEFINED_HEIGHT_BEGIN
1070
    46
1040
12.21630859375
1000
ACAD_MTEXT_DEFINED_HEIGHT_END
  0
DIMENSION
  5
33AC
102
{ACAD_REACTORS
330
33AE
102
}
102
{ACAD_XDICTIONARY
360
33AD
102
}
330
A
100
AcDbEntity
  8
DIM
  6
Continuous
370
     0
100
AcDbDimension
  2
*D34
 10
735.6737856859165
 20
847.8679879679784
 30
0.0
 11
719.6737856859165
 21
770.8679888390495
 31
0.0
 70
    32
 71
     5
 42
153.9999982578576
 73
     0
 74
     0
 75
     0
  3
tfrom線あり
100
AcDbAlignedDimension
 13
625.5445196303231
 23
693.8679897101208
 33
0.0
 14
679.4184240022446
 24
847.8679879679784
 34
0.0
 50
90.0
100
AcDbRotatedDimension
1001
ACAD
1000
DSTYLE
1002
{
1070
   340
1005
39
1070
    42
1040
3.0
1070
    41
1040
3.0
1002
}
  0
LINE
  5
33BB
330
A
100
AcDbEntity
  8
MODEL
100
AcDbLine
 10
531.9184122778303
 20
699.8679888067861
 30
0.0
 11
531.9184124326877
 21
693.8679888067861
 31
0.0
  0
LINE
  5
33BC
330
A
100
AcDbEntity
  8
MODEL
100
AcDbLine
 10
531.9184122778303
 20
699.8679888067861
 30
0.0
 11
499.4184131166413
 21
699.8679879679751
 31
0.0
  0
LINE
  5
33BD
330
A
100
AcDbEntity
  8
MODEL
100
AcDbLine
 10
499.4184131166411
 20
699.8679879679751
 30
0.0
 11
466.9184122778303
 21
699.867987129164
 31
0.0
  0
LINE
  5
33BE
330
A
100
AcDbEntity
  8
MODEL
100
AcDbLine
 10
466.9184122778303
 20
699.867987129164
 30
0.0
 11
466.9184124326877
 21
693.867987129164
 31
0.0
  0
LINE
  5
33C2
102
{ACAD_REACTORS
330
3488
102
}
330
A
100
AcDbEntity
  8
MODEL
  6
Continuous
370
     0
100
AcDbLine
 10
257.3081311168396
 20
588.5138577525599
 30
0.0
 11
245.3081311168396
 21
588.5138577525599
 31
0.0
  0
LINE
  5
345F
330
A
100
AcDbEntity
  8
MODEL
100
AcDbLine
 10
160.1058574166719
 20
292.9881530449784
 30
0.0
 11
153.6337305449952
 21
299.4602799166555
 31
0.0
  0
LINE
  5
3460
330
A
100
AcDbEntity
  8
MODEL
100
AcDbLine
 10
160.1058574166719
 20
292.9881530449784
 30
0.0
 11
166.8233718379441
 21
286.2706386237062
 31
0.0
  0
LINE
  5
3461
330
A
100
AcDbEntity
  8
MODEL
100
AcDbLine
 10
175.3086532121826
 20
294.7559199979448
 30
0.0
 11
166.8233718379441
 21
286.2706386237062
 31
0.0
  0
LINE
  5
3462
330
A
100
AcDbEntity
  8
MODEL
100
AcDbLine
 10
162.1190119192337
 20
307.9455612908941
 30
0.0
 11
153.6337305449952
 21
299.4602799166555
 31
0.0
  0
LINE
  5
3463
330
A
100
AcDbEntity
  8
MODEL
100
AcDbLine
 10
182.278192007448
 20
315.1604876357546
 30
0.0
 11
160.1058574166719
 21
292.9881530449784
 31
0.0
  0
LINE
  5
3464
330
A
100
AcDbEntity
  8
MODEL
100
AcDbLine
 10
168.5911387909104
 20
301.473434419217
 30
0.0
 11
162.1190119192337
 21
307.9455612908941
 31
0.0
  0
LINE
  5
3465
330
A
100
AcDbEntity
  8
MODEL
100
AcDbLine
 10
168.5911387909104
 20
301.473434419217
 30
0.0
 11
175.3086532121826
 21
294.7559199979448
 31
0.0
  0
LINE
  5
3466
330
A
100
AcDbEntity
  8
MODEL
100
AcDbLine
 10
174.9353998551288
 20
317.7171897328723
 30
0.0
 11
184.8348941045656
 21
307.8176954834354
 31
0.0
  0
LINE
  5
3467
330
A
100
AcDbEntity
  8
MODEL
100
AcDbLine
 10
173.5408891479273
 20
314.9084654632962
 30
0.0
 11
182.0261698349896
 21
306.423184776234
 31
0.0
  0
LINE
  5
3468
330
A
100
AcDbEntity
  8
MODEL
100
AcDbLine
 10
174.4522468214008
 20
316.9354317025324
 30
0.0
 11
184.0531360742257
 21
307.3345424497074
 31
0.0
  0
LINE
  5
3469
330
A
100
AcDbEntity
  8
MODEL
100
AcDbLine
 10
164.3484984473782
 20
307.1302883251223
 30
0.0
 11
174.2479926968157
 21
297.2307940756848
 31
0.0
  0
LINE
  5
346A
330
A
100
AcDbEntity
  8
MODEL
100
AcDbLine
 10
164.5351291153855
 20
307.3169189931296
 30
0.0
 11
174.434623364823
 21
297.4174247436921
 31
0.0
  0
LINE
  5
346B
330
A
100
AcDbEntity
  8
MODEL
100
AcDbLine
 10
164.926008130555
 20
307.5584955099935
 30
0.0
 11
174.6761998816868
 21
297.8083037588617
 31
0.0
  0
LINE
  5
346C
330
A
100
AcDbEntity
  8
MODEL
100
AcDbLine
 10
167.1769281172484
 20
308.5445044326173
 30
0.0
 11
175.6622088043108
 21
300.059223745555
 31
0.0
  0
LINE
  5
346D
330
A
100
AcDbEntity
  8
MODEL
100
AcDbLine
 10
175.6622088043108
 20
300.059223745555
 30
0.0
 11
182.0261698349896
 21
306.423184776234
 31
0.0
  0
LINE
  5
346E
330
A
100
AcDbEntity
  8
MODEL
100
AcDbLine
 10
174.6761998816868
 20
297.8083037588617
 30
0.0
 11
175.6622088043108
 21
300.059223745555
 31
0.0
  0
ARC
  5
346F
330
A
100
AcDbEntity
  8
MODEL
100
AcDbCircle
 10
173.5408859156292
 20
297.9379008568714
 30
0.0
 40
1.0
100
AcDbArc
 50
225.0
 51
314.9999999999989
  0
ARC
  5
3470
330
A
100
AcDbEntity
  8
MODEL
100
AcDbCircle
 10
173.7275165836364
 20
298.1245315248786
 30
0.0
 40
0.999999999999996
100
AcDbArc
 50
315.0
 51
341.5650511770651
  0
LINE
  5
3471
330
A
100
AcDbEntity
  8
MODEL
100
AcDbLine
 10
174.2479926968157
 20
297.2307940756848
 30
0.0
 11
174.434623364823
 21
297.4174247436921
 31
0.0
  0
ARC
  5
3472
330
A
100
AcDbEntity
  8
MODEL
100
AcDbCircle
 10
183.4206805421926
 20
309.2319090458085
 30
0.0
 40
2.000000000000064
100
AcDbArc
 50
288.4349488229079
 51
314.9999999999994
  0
LINE
  5
3473
330
A
100
AcDbEntity
  8
MODEL
100
AcDbLine
 10
184.8348941045656
 20
307.8176954834354
 30
0.0
 11
186.2688079769866
 21
309.2516093558563
 31
0.0
  0
LINE
  5
3474
330
A
100
AcDbEntity
  8
MODEL
100
AcDbLine
 10
182.0261698349896
 20
306.423184776234
 30
0.0
 11
184.0531360742257
 21
307.3345424497074
 31
0.0
  0
LINE
  5
3475
330
A
100
AcDbEntity
  8
MODEL
100
AcDbLine
 10
167.1769281172484
 20
308.5445044326173
 30
0.0
 11
173.5408891479273
 21
314.9084654632962
 31
0.0
  0
LINE
  5
3476
330
A
100
AcDbEntity
  8
MODEL
100
AcDbLine
 10
164.926008130555
 20
307.5584955099935
 30
0.0
 11
167.1769281172484
 21
308.5445044326173
 31
0.0
  0
ARC
  5
3477
330
A
100
AcDbEntity
  8
MODEL
100
AcDbCircle
 10
165.242235896572
 20
306.6098122119431
 30
0.0
 40
0.999999999999996
100
AcDbArc
 50
108.4349488229354
 51
135.0
  0
LINE
  5
3478
330
A
100
AcDbEntity
  8
MODEL
100
AcDbLine
 10
164.3484984473782
 20
307.1302883251223
 30
0.0
 11
164.5351291153855
 21
307.3169189931296
 31
0.0
  0
ARC
  5
3479
330
A
100
AcDbEntity
  8
MODEL
100
AcDbCircle
 10
165.0556052285648
 20
306.4231815439358
 30
0.0
 40
1.0
100
AcDbArc
 50
135.0
 51
225.0
  0
LINE
  5
347A
330
A
100
AcDbEntity
  8
MODEL
100
AcDbLine
 10
174.9353998551288
 20
317.7171897328723
 30
0.0
 11
176.3693137275497
 21
319.1511036052932
 31
0.0
  0
ARC
  5
347B
330
A
100
AcDbEntity
  8
MODEL
100
AcDbCircle
 10
176.3496134175019
 20
316.3029761704992
 30
0.0
 40
2.000000000000064
100
AcDbArc
 50
134.9999999999989
 51
161.5650511770916
  0
LINE
  5
347C
330
A
100
AcDbEntity
  8
MODEL
100
AcDbLine
 10
173.5408891479273
 20
314.9084654632962
 30
0.0
 11
174.4522468214008
 21
316.9354317025324
 31
0.0
  0
LINE
  5
347D
102
{ACAD_REACTORS
330
3488
102
}
330
A
100
AcDbEntity
  8
MODEL
100
AcDbLine
 10
176.3693137275497
 20
319.1511036052932
 30
0.0
 11
186.2688079769866
 21
309.2516093558563
 31
0.0
  0
LINE
  5
3480
102
{ACAD_REACTORS
330
3488
102
}
330
A
100
AcDbEntity
  8
MODEL
  6
Continuous
100
AcDbLine
 10
245.3081311168396
 20
588.5138577525599
 30
0.0
 11
245.3081311168396
 21
503.5658664234699
 31
0.0
  0
LINE
  5
3481
102
{ACAD_REACTORS
330
3488
102
}
330
A
100
AcDbEntity
  8
MODEL
  6
Continuous
100
AcDbLine
 10
257.3081311168396
 20
588.5138577525599
 30
0.0
 11
257.3081311168396
 21
503.5658664234699
 31
0.0
  0
ARC
  5
3484
102
{ACAD_REACTORS
330
3488
102
}
330
A
100
AcDbEntity
  8
MODEL
  6
Continuous
100
AcDbCircle
 10
-11.19237321360097
 20
492.9708558743578
 30
0.0
 40
256.7192298412922
100
AcDbArc
 50
317.1692063559566
 51
2.365315017935816
  0
ARC
  5
3485
102
{ACAD_REACTORS
330
3488
102
}
330
A
100
AcDbEntity
  8
MODEL
  6
Continuous
100
AcDbCircle
 10
-4.551613754190242
 20
490.5077861133833
 30
0.0
 40
262.1851243783779
100
AcDbArc
 50
316.4780817354211
 51
2.854786469606172
  0
HATCH
  5
3488
330
A
100
AcDbEntity
  8
MODEL
  6
Continuous
370
     0
100
AcDbHatch
 10
0.0
 20
0.0
 30
0.0
210
0.0
220
0.0
230
1.0
  2
EARTH
 70
     0
 71
     1
 91
        1
 92
        7
 72
     1
 73
     1
 93
        6
 10
185.5617015393873
 20
309.9587157934554
 42
0.2051645948222872
 10
257.3081311168395
 20
503.5658664234685
 42
0.0
 10
257.3081311168396
 20
588.5138577525599
 42
0.0
 10
245.3081311168396
 20
588.5138577525599
 42
0.0
 10
245.3081311168396
 20
503.5658664234705
 42
-0.1998020606512068
 10
177.0764201651489
 20
318.4439971676939
 42
0.0
 97
        6
330
3485
330
3481
330
33C2
330
3480
330
3484
330
347D
 75
     0
 76
     1
 52
45.0
 41
1.0
 77
     0
 78
     6
 53
45.0
 43
31.41837537229139
 44
0.0
 45
0.0000000000000009
 46
8.980256121069154
 79
     2
 49
6.35
 49
-6.35
 53
45.0
 43
29.73457734959093
 44
1.683798022700467
 45
0.0000000000000009
 46
8.980256121069154
 79
     2
 49
6.35
 49
-6.35
 53
45.0
 43
28.05077932689046
 44
3.367596045400933
 45
0.0000000000000009
 46
8.980256121069154
 79
     2
 49
6.35
 49
-6.35
 53
135.0
 43
28.05077932689046
 44
4.490128060534577
 45
-8.980256121069154
 46
0.0000000000000009
 79
     2
 49
6.35
 49
-6.35
 53
135.0
 43
29.73457734959093
 44
6.173926083235044
 45
-8.980256121069154
 46
0.0000000000000009
 79
     2
 49
6.35
 49
-6.35
 53
135.0
 43
31.41837537229139
 44
7.85772410593551
 45
-8.980256121069154
 46
0.0000000000000009
 79
     2
 49
6.35
 49
-6.35
 47
0.0
 98
        1
 10
244.1743949083547
 20
437.8066824277832
1001
ACAD
1010
0.0
1020
0.0
1030
0.0
  0
MTEXT
  5
34B8
330
A
100
AcDbEntity
  8
TEMPLATE
 62
     7
390
1D
100
AcDbMText
 10
152.6285433766777
 20
286.9590015853358
 30
0.0
 40
12.21630859375
 41
0.0
 46
12.21630859375
 71
     1
 72
     1
  1
{▲}
  7
ＭＳ ゴシック
 73
     1
 44
0.7828267384257843
1001
ACAD
1000
ACAD_MTEXT_DEFINED_HEIGHT_BEGIN
1070
    46
1040
12.21630859375
1000
ACAD_MTEXT_DEFINED_HEIGHT_END
  0
MTEXT
  5
34E8
330
A
100
AcDbEntity
  8
TEMPLATE
 62
     7
390
1D
100
AcDbMText
 10
152.1496321853269
 20
266.9234279840305
 30
0.0
 40
12.21630859375
 41
0.0
 46
12.21630859375
 71
     1
 72
     1
  1
{湯}
  7
ＭＳ ゴシック
 73
     1
 44
0.7828267384257843
1001
ACAD
1000
ACAD_MTEXT_DEFINED_HEIGHT_BEGIN
1070
    46
1040
12.21630859375
1000
ACAD_MTEXT_DEFINED_HEIGHT_END
  0
MTEXT
  5
3518
330
A
100
AcDbEntity
  8
TEMPLATE
 62
     7
390
1D
100
AcDbMText
 10
142.3874517693382
 20
248.0356735063045
 30
0.0
 40
12.21630859375
 41
0.0
 46
12.21630859375
 71
     1
 72
     1
  1
{G3/8"}
  7
ＭＳ ゴシック
 73
     1
 44
0.7828267384257843
1001
ACAD
1000
ACAD_MTEXT_DEFINED_HEIGHT_BEGIN
1070
    46
1040
12.21630859375
1000
ACAD_MTEXT_DEFINED_HEIGHT_END
  0
MTEXT
  5
354D
330
A
100
AcDbEntity
  8
TEMPLATE
 62
     7
390
1D
100
AcDbMText
 10
355.7063476393913
 20
288.4151665691426
 30
0.0
 40
12.21630859375
 41
0.0
 46
12.21630859375
 71
     1
 72
     1
  1
{▲}
  7
ＭＳ ゴシック
 73
     1
 44
0.7828267384257843
1001
ACAD
1000
ACAD_MTEXT_DEFINED_HEIGHT_BEGIN
1070
    46
1040
12.21630859375
1000
ACAD_MTEXT_DEFINED_HEIGHT_END
  0
MTEXT
  5
354E
330
A
100
AcDbEntity
  8
TEMPLATE
 62
     7
390
1D
100
AcDbMText
 10
355.2274364480405
 20
268.3795929678373
 30
0.0
 40
12.21630859375
 41
0.0
 46
12.21630859375
 71
     1
 72
     1
  1
{水}
  7
ＭＳ ゴシック
 73
     1
 44
0.7828267384257843
1001
ACAD
1000
ACAD_MTEXT_DEFINED_HEIGHT_BEGIN
1070
    46
1040
12.21630859375
1000
ACAD_MTEXT_DEFINED_HEIGHT_END
  0
MTEXT
  5
354F
330
A
100
AcDbEntity
  8
TEMPLATE
 62
     7
390
1D
100
AcDbMText
 10
345.4652560320518
 20
249.4918384901113
 30
0.0
 40
12.21630859375
 41
0.0
 46
12.21630859375
 71
     1
 72
     1
  1
{G3/8"}
  7
ＭＳ ゴシック
 73
     1
 44
0.7828267384257843
1001
ACAD
1000
ACAD_MTEXT_DEFINED_HEIGHT_BEGIN
1070
    46
1040
12.21630859375
1000
ACAD_MTEXT_DEFINED_HEIGHT_END
  0
LINE
  5
3553
330
A
100
AcDbEntity
  8
MODEL
  6
Continuous
370
     0
100
AcDbLine
 10
245.3081311168396
 20
588.5138577525599
 30
0.0
 11
245.3081311168396
 21
590.0589507852127
 31
0.0
  0
LINE
  5
3554
330
A
100
AcDbEntity
  8
MODEL
  6
Continuous
370
     0
100
AcDbLine
 10
275.9611007161643
 20
588.5138577525604
 30
0.0
 11
275.9611007161643
 21
589.9727496223338
 31
0.0
  0
LINE
  5
3555
330
A
100
AcDbEntity
  8
MODEL
  6
Continuous
370
     0
100
AcDbLine
 10
263.9611007161643
 20
588.5138577525604
 30
0.0
 11
263.9611007161643
 21
590.0589507852128
 31
0.0
  0
LINE
  5
3556
330
A
100
AcDbEntity
  8
MODEL
  6
Continuous
370
     0
100
AcDbLine
 10
257.3081311168396
 20
588.5138577525599
 30
0.0
 11
257.3081311168396
 21
590.0158502037733
 31
0.0
  0
LINE
  5
3557
102
{ACAD_REACTORS
330
357B
102
}
330
A
100
AcDbEntity
  8
MODEL
  6
Continuous
370
     0
100
AcDbLine
 10
263.9611007161643
 20
588.5138577525599
 30
0.0
 11
275.9611007161643
 21
588.5138577525599
 31
0.0
  0
LINE
  5
3558
330
A
100
AcDbEntity
  8
MODEL
100
AcDbLine
 10
361.1633744163321
 20
292.9881530449784
 30
0.0
 11
367.6355012880088
 21
299.4602799166555
 31
0.0
  0
LINE
  5
3559
330
A
100
AcDbEntity
  8
MODEL
100
AcDbLine
 10
361.1633744163321
 20
292.9881530449784
 30
0.0
 11
354.4458599950599
 21
286.2706386237062
 31
0.0
  0
LINE
  5
355A
330
A
100
AcDbEntity
  8
MODEL
100
AcDbLine
 10
345.9605786208213
 20
294.7559199979448
 30
0.0
 11
354.4458599950599
 21
286.2706386237062
 31
0.0
  0
LINE
  5
355B
330
A
100
AcDbEntity
  8
MODEL
100
AcDbLine
 10
359.1502199137702
 20
307.9455612908941
 30
0.0
 11
367.6355012880088
 21
299.4602799166555
 31
0.0
  0
LINE
  5
355C
330
A
100
AcDbEntity
  8
MODEL
100
AcDbLine
 10
338.9910398255559
 20
315.1604876357546
 30
0.0
 11
361.1633744163321
 21
292.9881530449784
 31
0.0
  0
LINE
  5
355D
330
A
100
AcDbEntity
  8
MODEL
100
AcDbLine
 10
352.6780930420935
 20
301.473434419217
 30
0.0
 11
359.1502199137702
 21
307.9455612908941
 31
0.0
  0
LINE
  5
355E
330
A
100
AcDbEntity
  8
MODEL
100
AcDbLine
 10
352.6780930420935
 20
301.473434419217
 30
0.0
 11
345.9605786208213
 21
294.7559199979448
 31
0.0
  0
LINE
  5
355F
330
A
100
AcDbEntity
  8
MODEL
100
AcDbLine
 10
346.3338319778751
 20
317.7171897328723
 30
0.0
 11
336.4343377284383
 21
307.8176954834354
 31
0.0
  0
LINE
  5
3560
330
A
100
AcDbEntity
  8
MODEL
100
AcDbLine
 10
347.7283426850766
 20
314.9084654632962
 30
0.0
 11
339.2430619980144
 21
306.423184776234
 31
0.0
  0
LINE
  5
3561
330
A
100
AcDbEntity
  8
MODEL
100
AcDbLine
 10
346.8169850116032
 20
316.9354317025324
 30
0.0
 11
337.2160957587782
 21
307.3345424497074
 31
0.0
  0
LINE
  5
3562
330
A
100
AcDbEntity
  8
MODEL
100
AcDbLine
 10
356.9207333856257
 20
307.1302883251223
 30
0.0
 11
347.0212391361882
 21
297.2307940756848
 31
0.0
  0
LINE
  5
3563
330
A
100
AcDbEntity
  8
MODEL
100
AcDbLine
 10
356.7341027176184
 20
307.3169189931296
 30
0.0
 11
346.8346084681809
 21
297.4174247436921
 31
0.0
  0
LINE
  5
3564
330
A
100
AcDbEntity
  8
MODEL
100
AcDbLine
 10
356.3432237024489
 20
307.5584955099935
 30
0.0
 11
346.5930319513171
 21
297.8083037588617
 31
0.0
  0
LINE
  5
3565
330
A
100
AcDbEntity
  8
MODEL
100
AcDbLine
 10
354.0923037157555
 20
308.5445044326173
 30
0.0
 11
345.6070230286931
 21
300.059223745555
 31
0.0
  0
LINE
  5
3566
330
A
100
AcDbEntity
  8
MODEL
100
AcDbLine
 10
345.6070230286931
 20
300.059223745555
 30
0.0
 11
339.2430619980144
 21
306.423184776234
 31
0.0
  0
LINE
  5
3567
330
A
100
AcDbEntity
  8
MODEL
100
AcDbLine
 10
346.5930319513171
 20
297.8083037588617
 30
0.0
 11
345.6070230286931
 21
300.059223745555
 31
0.0
  0
ARC
  5
3568
330
A
100
AcDbEntity
  8
MODEL
100
AcDbCircle
 10
347.7283459173747
 20
297.9379008568714
 30
0.0
 40
1.0
100
AcDbArc
 50
225.0000000000023
 51
315.0
  0
ARC
  5
3569
330
A
100
AcDbEntity
  8
MODEL
100
AcDbCircle
 10
347.5417152493675
 20
298.1245315248786
 30
0.0
 40
0.999999999999996
100
AcDbArc
 50
198.4349488229344
 51
225.0
  0
LINE
  5
356A
330
A
100
AcDbEntity
  8
MODEL
100
AcDbLine
 10
347.0212391361882
 20
297.2307940756848
 30
0.0
 11
346.8346084681809
 21
297.4174247436921
 31
0.0
  0
ARC
  5
356B
330
A
100
AcDbEntity
  8
MODEL
100
AcDbCircle
 10
337.8485512908113
 20
309.2319090458085
 30
0.0
 40
2.000000000000064
100
AcDbArc
 50
225.0000000000012
 51
251.5650511770935
  0
LINE
  5
356C
330
A
100
AcDbEntity
  8
MODEL
100
AcDbLine
 10
336.4343377284383
 20
307.8176954834354
 30
0.0
 11
335.0004238560173
 21
309.2516093558563
 31
0.0
  0
LINE
  5
356D
330
A
100
AcDbEntity
  8
MODEL
100
AcDbLine
 10
339.2430619980144
 20
306.423184776234
 30
0.0
 11
337.2160957587782
 21
307.3345424497074
 31
0.0
  0
LINE
  5
356E
330
A
100
AcDbEntity
  8
MODEL
100
AcDbLine
 10
354.0923037157555
 20
308.5445044326173
 30
0.0
 11
347.7283426850766
 21
314.9084654632962
 31
0.0
  0
LINE
  5
356F
330
A
100
AcDbEntity
  8
MODEL
100
AcDbLine
 10
356.3432237024489
 20
307.5584955099935
 30
0.0
 11
354.0923037157555
 21
308.5445044326173
 31
0.0
  0
ARC
  5
3570
330
A
100
AcDbEntity
  8
MODEL
100
AcDbCircle
 10
356.0269959364319
 20
306.6098122119431
 30
0.0
 40
0.999999999999996
100
AcDbArc
 50
45.0
 51
71.5650511770646
  0
LINE
  5
3571
330
A
100
AcDbEntity
  8
MODEL
100
AcDbLine
 10
356.9207333856257
 20
307.1302883251223
 30
0.0
 11
356.7341027176184
 21
307.3169189931296
 31
0.0
  0
ARC
  5
3572
330
A
100
AcDbEntity
  8
MODEL
100
AcDbCircle
 10
356.2136266044391
 20
306.4231815439358
 30
0.0
 40
1.0
100
AcDbArc
 50
315.0
 51
45.0
  0
LINE
  5
3573
330
A
100
AcDbEntity
  8
MODEL
100
AcDbLine
 10
346.3338319778751
 20
317.7171897328723
 30
0.0
 11
344.8999181054542
 21
319.1511036052932
 31
0.0
  0
ARC
  5
3574
330
A
100
AcDbEntity
  8
MODEL
100
AcDbCircle
 10
344.919618415502
 20
316.3029761704992
 30
0.0
 40
2.000000000000064
100
AcDbArc
 50
18.43494882290862
 51
45.00000000000115
  0
LINE
  5
3575
330
A
100
AcDbEntity
  8
MODEL
100
AcDbLine
 10
347.7283426850766
 20
314.9084654632962
 30
0.0
 11
346.8169850116032
 21
316.9354317025324
 31
0.0
  0
LINE
  5
3576
102
{ACAD_REACTORS
330
357B
102
}
330
A
100
AcDbEntity
  8
MODEL
100
AcDbLine
 10
344.8999181054542
 20
319.1511036052932
 30
0.0
 11
335.0004238560173
 21
309.2516093558563
 31
0.0
  0
LINE
  5
3577
102
{ACAD_REACTORS
330
357B
102
}
330
A
100
AcDbEntity
  8
MODEL
  6
Continuous
100
AcDbLine
 10
275.9611007161643
 20
588.5138577525599
 30
0.0
 11
275.9611007161643
 21
503.5658664234699
 31
0.0
  0
LINE
  5
3578
102
{ACAD_REACTORS
330
357B
102
}
330
A
100
AcDbEntity
  8
MODEL
  6
Continuous
100
AcDbLine
 10
263.9611007161643
 20
588.5138577525599
 30
0.0
 11
263.9611007161643
 21
503.5658664234699
 31
0.0
  0
ARC
  5
3579
102
{ACAD_REACTORS
330
357B
102
}
330
A
100
AcDbEntity
  8
MODEL
  6
Continuous
100
AcDbCircle
 10
532.4616050466049
 20
492.9708558743578
 30
0.0
 40
256.7192298412922
100
AcDbArc
 50
177.6346849820642
 51
222.8307936440433
  0
ARC
  5
357A
102
{ACAD_REACTORS
330
357B
102
}
330
A
100
AcDbEntity
  8
MODEL
  6
Continuous
100
AcDbCircle
 10
525.8208455871942
 20
490.5077861133833
 30
0.0
 40
262.1851243783779
100
AcDbArc
 50
177.1452135303938
 51
223.5219182645789
  0
HATCH
  5
357B
330
A
100
AcDbEntity
  8
MODEL
  6
Continuous
370
     0
100
AcDbHatch
 10
0.0
 20
0.0
 30
0.0
210
0.0
220
0.0
230
1.0
  2
EARTH
 70
     0
 71
     1
 91
        1
 92
        7
 72
     1
 73
     1
 93
        6
 10
344.192811667855
 20
318.443997167694
 42
-0.1998020606512065
 10
275.9611007161643
 20
503.5658664234708
 42
0.0
 10
275.9611007161643
 20
588.5138577525599
 42
0.0
 10
263.9611007161643
 20
588.5138577525599
 42
0.0
 10
263.9611007161643
 20
503.5658664234687
 42
0.2051645948222865
 10
335.7075302936166
 20
309.9587157934555
 42
0.0
 97
        6
330
3579
330
3577
330
3557
330
3578
330
357A
330
3576
 75
     0
 76
     1
 52
135.0
 41
1.0
 77
     0
 78
     6
 53
135.0
 43
489.8508564607125
 44
0.0
 45
-0.0000000000000009
 46
8.980256121069154
 79
     2
 49
6.35
 49
-6.35
 53
135.0
 43
491.534654483413
 44
1.683798022700467
 45
-0.0000000000000009
 46
8.980256121069154
 79
     2
 49
6.35
 49
-6.35
 53
135.0
 43
493.2184525061134
 44
3.367596045400933
 45
-0.0000000000000009
 46
8.980256121069154
 79
     2
 49
6.35
 49
-6.35
 53
45.00000000000001
 43
493.2184525061134
 44
4.490128060534577
 45
8.980256121069154
 46
0.0000000000000009
 79
     2
 49
6.35
 49
-6.35
 53
45.00000000000001
 43
491.534654483413
 44
6.173926083235044
 45
8.980256121069154
 46
0.0000000000000009
 79
     2
 49
6.35
 49
-6.35
 53
45.00000000000001
 43
489.8508564607125
 44
7.85772410593551
 45
8.980256121069154
 46
0.0000000000000009
 79
     2
 49
6.35
 49
-6.35
 47
0.0
 98
        1
 10
277.0948369246493
 20
437.8066824277832
1001
ACAD
1010
0.0
1020
0.0
1030
0.0
  0
LINE
  5
35D9
330
A
100
AcDbEntity
  8
MODEL
100
AcDbLine
 10
174.2031697090542
 20
623.3805497870778
 30
0.0
 11
174.2031697090542
 21
636.4986111653608
 31
0.0
  0
LINE
  5
35DA
330
A
100
AcDbEntity
  8
MODEL
100
AcDbLine
 10
160.473715310067
 20
597.7305476949546
 30
0.0
 11
160.473715310067
 21
641.3805497870776
 31
0.0
  0
LINE
  5
35DB
330
A
100
AcDbEntity
  8
MODEL
100
AcDbLine
 10
174.2031697090542
 20
641.3805497870778
 30
0.0
 11
160.473715310067
 21
641.3805497870776
 31
0.0
  0
LINE
  5
35DD
330
A
100
AcDbEntity
  8
MODEL
100
AcDbLine
 10
169.4737145812068
 20
617.3805443880563
 30
0.0
 11
169.4737145812065
 21
603.8805443880563
 31
0.0
  0
LINE
  5
35DE
330
A
100
AcDbEntity
  8
MODEL
100
AcDbLine
 10
151.4737160389276
 20
617.3805443880563
 30
0.0
 11
151.4737160389276
 21
603.8805443880563
 31
0.0
  0
LINE
  5
35DF
330
A
100
AcDbEntity
  8
MODEL
100
AcDbLine
 10
174.2031697090542
 20
623.3805497870778
 30
0.0
 11
160.473715310067
 21
623.3805497870776
 31
0.0
  0
LINE
  5
35E0
330
A
100
AcDbEntity
  8
MODEL
100
AcDbLine
 10
149.9737160389252
 20
621.8805497870776
 30
0.0
 11
170.9737145812087
 21
621.8805497870776
 31
0.0
  0
LINE
  5
35E1
330
A
100
AcDbEntity
  8
MODEL
100
AcDbLine
 10
149.9737160389252
 20
621.4846463543017
 30
0.0
 11
170.9737145812087
 21
621.4846463543017
 31
0.0
  0
LINE
  5
35E2
330
A
100
AcDbEntity
  8
MODEL
100
AcDbLine
 10
150.1320752524254
 20
620.8138259610521
 30
0.0
 11
170.8153553677088
 21
620.8138259610521
 31
0.0
  0
LINE
  5
35E3
330
A
100
AcDbEntity
  8
MODEL
100
AcDbLine
 10
151.4737160389276
 20
617.3805443880563
 30
0.0
 11
169.4737145812068
 21
617.3805443880563
 31
0.0
  0
ARC
  5
35E4
330
A
100
AcDbEntity
  8
MODEL
100
AcDbCircle
 10
169.4737145812087
 20
621.8805497870776
 30
0.0
 40
1.5
100
AcDbArc
 50
0.0
 51
90.0
  0
ARC
  5
35E5
330
A
100
AcDbEntity
  8
MODEL
100
AcDbCircle
 10
169.4737145812087
 20
621.4846463543017
 30
0.0
 40
1.499999999999994
100
AcDbArc
 50
333.4349488229346
 51
0.0
  0
LINE
  5
35E6
330
A
100
AcDbEntity
  8
MODEL
100
AcDbLine
 10
170.9737145812087
 20
621.8805497870776
 30
0.0
 11
170.9737145812087
 21
621.4846463543017
 31
0.0
  0
LINE
  5
35E7
330
A
100
AcDbEntity
  8
MODEL
100
AcDbLine
 10
170.8153553677088
 20
620.8138259610521
 30
0.0
 11
169.4737145812068
 21
617.3805443880563
 31
0.0
  0
LINE
  5
35E8
330
A
100
AcDbEntity
  8
MODEL
100
AcDbLine
 10
150.1320752524254
 20
620.8138259610521
 30
0.0
 11
151.4737160389276
 21
617.3805443880563
 31
0.0
  0
ARC
  5
35E9
330
A
100
AcDbEntity
  8
MODEL
100
AcDbCircle
 10
151.4737160389252
 20
621.4846463543017
 30
0.0
 40
1.499999999999994
100
AcDbArc
 50
180.0
 51
206.5650511770654
  0
LINE
  5
35EA
330
A
100
AcDbEntity
  8
MODEL
100
AcDbLine
 10
149.9737160389252
 20
621.8805497870776
 30
0.0
 11
149.9737160389252
 21
621.4846463543017
 31
0.0
  0
ARC
  5
35EB
330
A
100
AcDbEntity
  8
MODEL
100
AcDbCircle
 10
151.4737160389252
 20
621.8805497870776
 30
0.0
 40
1.5
100
AcDbArc
 50
90.0
 51
180.0
  0
LINE
  5
35ED
330
A
100
AcDbEntity
  8
MODEL
100
AcDbLine
 10
149.973716038926
 20
599.4223404555564
 30
0.0
 11
170.9737145812081
 21
599.4223404555564
 31
0.0
  0
LINE
  5
35EE
330
A
100
AcDbEntity
  8
MODEL
100
AcDbLine
 10
151.4737160389276
 20
603.8805443880563
 30
0.0
 11
169.4737145812065
 21
603.8805443880563
 31
0.0
  0
LINE
  5
35EF
330
A
100
AcDbEntity
  8
MODEL
100
AcDbLine
 10
150.2904344659268
 20
600.7639812420571
 30
0.0
 11
170.6569961542074
 21
600.7639812420571
 31
0.0
  0
ARC
  5
35F0
330
A
100
AcDbEntity
  8
MODEL
100
AcDbCircle
 10
167.9737145812081
 20
599.4223404555564
 30
0.0
 40
3.000000000000096
100
AcDbArc
 50
0.0
 51
26.56505117709838
  0
LINE
  5
35F1
330
A
100
AcDbEntity
  8
MODEL
100
AcDbLine
 10
170.9737145812081
 20
599.4223404555564
 30
0.0
 11
170.9737145812081
 21
596.3805497870776
 31
0.0
  0
LINE
  5
35F2
330
A
100
AcDbEntity
  8
MODEL
100
AcDbLine
 10
169.4737145812065
 20
603.8805443880563
 30
0.0
 11
170.6569961542074
 21
600.7639812420571
 31
0.0
  0
LINE
  5
35F3
330
A
100
AcDbEntity
  8
MODEL
100
AcDbLine
 10
149.973716038926
 20
599.4223404555564
 30
0.0
 11
149.973716038926
 21
596.3805497870776
 31
0.0
  0
ARC
  5
35F4
330
A
100
AcDbEntity
  8
MODEL
100
AcDbCircle
 10
152.973716038926
 20
599.4223404555564
 30
0.0
 40
3.000000000000096
100
AcDbArc
 50
153.4349488229065
 51
180.0
  0
LINE
  5
35F5
330
A
100
AcDbEntity
  8
MODEL
100
AcDbLine
 10
151.4737160389276
 20
603.8805443880563
 30
0.0
 11
150.2904344659268
 21
600.7639812420571
 31
0.0
  0
LINE
  5
35F6
102
{ACAD_REACTORS
330
379D
102
}
330
A
100
AcDbEntity
  8
MODEL
100
AcDbLine
 10
149.973716038926
 20
596.3805497870776
 30
0.0
 11
170.9737145812081
 21
596.3805497870776
 31
0.0
  0
LINE
  5
3600
330
A
100
AcDbEntity
  8
MODEL
100
AcDbLine
 10
146.7442609110797
 20
623.3805497870778
 30
0.0
 11
146.7442609110797
 21
636.4986111653608
 31
0.0
  0
LINE
  5
3601
330
A
100
AcDbEntity
  8
MODEL
100
AcDbLine
 10
146.7442609110797
 20
641.3805497870778
 30
0.0
 11
160.473715310067
 21
641.3805497870776
 31
0.0
  0
LINE
  5
3602
330
A
100
AcDbEntity
  8
MODEL
100
AcDbLine
 10
146.7442609110797
 20
623.3805497870778
 30
0.0
 11
160.473715310067
 21
623.3805497870776
 31
0.0
  0
LINE
  5
3603
102
{ACAD_REACTORS
330
379D
102
}
330
A
100
AcDbEntity
  8
MODEL
  6
Continuous
100
AcDbLine
 10
169.7892157177491
 20
596.3805497870776
 30
0.0
 11
169.7892157177491
 21
573.6229020697979
 31
0.0
  0
LINE
  5
3606
102
{ACAD_REACTORS
330
379D
102
}
330
A
100
AcDbEntity
  8
MODEL
  6
Continuous
100
AcDbLine
 10
151.158214902385
 20
596.3805497870776
 30
0.0
 11
151.158214902385
 21
575.690578684671
 31
0.0
  0
LINE
  5
36CA
330
A
100
AcDbEntity
  8
MODEL
  6
Continuous
100
AcDbLine
 10
174.2031697090542
 20
636.4986111653608
 30
0.0
 11
146.7442609110797
 21
636.4986111653608
 31
0.0
  0
DIMENSION
  5
3770
330
A
100
AcDbEntity
  8
DIM
100
AcDbDimension
  2
*D37
 10
260.5369504137571
 20
1076.273210323136
 30
0.0
 11
210.5369504137571
 21
1076.273210323136
 31
0.0
 70
   160
 71
     5
 42
100.0
 73
     0
 74
     0
 75
     0
  3
ARIAL
100
AcDbAlignedDimension
 13
160.5369504137571
 23
1038.810721465095
 33
0.0
 14
260.5369504137571
 24
1038.810721465095
 34
0.0
100
AcDbRotatedDimension
1001
ACAD
1000
DSTYLE
1002
{
1070
   340
1005
39
1070
    44
1040
0.0
1070
   173
1070
     1
1070
   342
1005
0
1070
   344
1005
4E
1070
   343
1005
4E
1070
    41
1040
3.0
1002
}
  0
SPLINE
  5
3796
102
{ACAD_REACTORS
330
379D
102
}
330
A
100
AcDbEntity
  8
MODEL
  6
Continuous
370
     0
100
AcDbSpline
210
0.0
220
0.0
230
1.0
 70
     8
 71
     3
 72
    10
 73
     6
 74
     4
 42
0.000000001
 43
0.0000000001
 44
0.0
 40
0.0
 40
0.0
 40
0.0
 40
0.0
 40
7.066793442252968
 40
11.55702175921907
 40
19.5581460251524
 40
19.5581460251524
 40
19.5581460251524
 40
19.5581460251524
 10
151.158214902385
 20
575.690578684671
 30
0.0
 10
153.5406986887378
 20
574.8403914619857
 30
0.0
 10
157.4370085476388
 20
573.449996750116
 30
0.0
 10
163.3108694558177
 20
577.8899341321944
 30
0.0
 10
167.2597970505073
 20
575.2889307314284
 30
0.0
 10
169.7892157177491
 20
573.6229020697979
 30
0.0
 11
151.158214902385
 21
575.690578684671
 31
0.0
 11
158.1466058555397
 21
574.6408351725047
 31
0.0
 11
162.2819590852862
 21
576.390407692782
 31
0.0
 11
169.7892157177491
 21
573.6229020697979
 31
0.0
  0
LINE
  5
3797
330
A
100
AcDbEntity
  8
MODEL
  6
CENTER2
 48
0.3
370
     0
100
AcDbLine
 10
160.6561804770952
 20
575.7648574612682
 30
0.0
 11
160.6561804770952
 21
522.5814055227466
 31
0.0
  0
LINE
  5
3799
330
A
100
AcDbEntity
  8
MODEL
  6
CENTER2
 48
0.3
370
     0
100
AcDbLine
 10
260.6588830702945
 20
614.1545277659156
 30
0.0
 11
260.6588830702945
 21
522.5814055227461
 31
0.0
  0
LINE
  5
379A
330
A
100
AcDbEntity
  8
MODEL
  6
CENTER2
 48
0.3
370
     0
100
AcDbLine
 10
255.9202796905907
 20
517.3957070360424
 30
0.0
 11
165.3947838567991
 21
517.3957070360424
 31
0.0
  0
ARC
  5
379B
330
A
100
AcDbEntity
  8
MODEL
  6
CENTER2
 48
0.3
370
     0
100
AcDbCircle
 10
166.1752296168225
 20
522.8667421109581
 30
0.0
 40
5.526420213419895
100
AcDbArc
 50
182.9595749162416
 51
261.8815022729916
  0
ARC
  5
379C
330
A
100
AcDbEntity
  8
MODEL
  6
CENTER2
 48
0.3
370
     0
100
AcDbCircle
 10
255.1398339305673
 20
522.8667421109581
 30
0.0
 40
5.526420213419895
100
AcDbArc
 50
278.1184977270088
 51
357.0404250837583
  0
HATCH
  5
379D
330
A
100
AcDbEntity
  8
MODEL
  6
Continuous
370
     0
100
AcDbHatch
 10
0.0
 20
0.0
 30
0.0
210
0.0
220
0.0
230
1.0
  2
EARTH
 70
     0
 71
     1
 91
        1
 92
        5
 93
        4
 72
     1
 10
169.7892157177491
 20
573.6229020697979
 11
169.7892157177491
 21
596.3805497870776
 72
     1
 10
169.7892157177491
 20
596.3805497870776
 11
151.158214902385
 21
596.3805497870776
 72
     1
 10
151.158214902385
 20
596.3805497870776
 11
151.158214902385
 21
575.690578684671
 72
     4
 94
        3
 73
     0
 74
     0
 95
       10
 96
        6
 40
0.0
 40
0.0
 40
0.0
 40
0.0
 40
7.066793442252997
 40
11.5570217592191
 40
19.5581460251524
 40
19.5581460251524
 40
19.5581460251524
 40
19.5581460251524
 10
151.158214902385
 20
575.690578684671
 10
153.5406986887378
 20
574.8403914619857
 10
157.4370085476388
 20
573.4499967501163
 10
163.3108694558178
 20
577.8899341321943
 10
167.2597970505074
 20
575.2889307314285
 10
169.7892157177491
 20
573.6229020697979
 97
        4
330
3603
330
35F6
330
3606
330
3796
 75
     0
 76
     1
 52
45.0
 41
0.8
 77
     0
 78
     6
 53
45.0
 43
0.0
 44
0.0
 45
0.0000000000000007
 46
7.184204896855324
 79
     2
 49
5.08
 49
-5.08
 53
45.0
 43
-1.347038418160373
 44
1.347038418160373
 45
0.0000000000000007
 46
7.184204896855324
 79
     2
 49
5.08
 49
-5.08
 53
45.0
 43
-2.694076836320746
 44
2.694076836320747
 45
0.0000000000000007
 46
7.184204896855324
 79
     2
 49
5.08
 49
-5.08
 53
135.0
 43
-2.694076836320746
 44
3.592102448427662
 45
-7.184204896855324
 46
0.0000000000000007
 79
     2
 49
5.08
 49
-5.08
 53
135.0
 43
-1.347038418160373
 44
4.939140866588035
 45
-7.184204896855324
 46
0.0000000000000007
 79
     2
 49
5.08
 49
-5.08
 53
135.0
 43
0.0000000000000009
 44
6.286179284748409
 45
-7.184204896855324
 46
0.0000000000000007
 79
     2
 49
5.08
 49
-5.08
 47
0.0
 98
        1
 10
161.0893991795537
 20
587.7372823490674
1001
ACAD
1010
0.0
1020
0.0
1030
0.0
  0
VIEWPORT
  5
349
330
B
100
AcDbEntity
 67
     1
  8
0
100
AcDbViewport
 10
202.5
 20
128.5
 30
0.0
 40
486.0
 41
308.4
 68
     1
 69
     1
 12
202.5
 22
128.5
 13
0.0
 23
0.0
 14
0.5
 24
0.5
 15
0.0
 25
0.0
 16
0.0
 26
0.0
 36
1.0
 17
0.0
 27
0.0
 37
0.0
 42
50.0
 43
0.0
 44
0.0
 45
308.4
 50
0.0
 51
0.0
 72
   100
 90
   557152
  1

281
     0
 71
     1
 74
     0
110
0.0
120
0.0
130
0.0
111
1.0
121
0.0
131
0.0
112
0.0
122
1.0
132
0.0
 79
     0
146
0.0
170
     0
 61
     5
348
26C
292
     1
282
     1
141
0.0
142
0.0
 63
   256
  0
VIEWPORT
  5
34A
330
B
100
AcDbEntity
 67
     1
  8
0
100
AcDbViewport
 10
202.5
 20
128.5
 30
0.0
 40
324.0
 41
205.6
 68
     2
 69
     2
 12
986.6781359294573
 22
1427.077061889956
 13
0.0
 23
0.0
 14
0.5
 24
0.5
 15
0.0
 25
0.0
 16
0.0
 26
0.0
 36
1.0
 17
0.0
 27
0.0
 37
0.0
 42
50.0
 43
0.0
 44
0.0
 45
2890.021615685494
 50
0.0
 51
0.0
 72
   100
 90
   557152
  1

281
     0
 71
     1
 74
     0
110
0.0
120
0.0
130
0.0
111
1.0
121
0.0
131
0.0
112
0.0
122
1.0
132
0.0
 79
     0
146
0.0
170
     0
 61
     5
348
26C
292
     1
282
     1
141
0.0
142
0.0
 63
   256
  0
ENDSEC
  0
SECTION
  2
OBJECTS
  0
DICTIONARY
  5
19
330
0
100
AcDbDictionary
281
     1
  3
ACAD_COLOR
350
674
  3
ACAD_DETAILVIEWSTYLE
350
908
  3
ACAD_GROUP
350
1A
  3
ACAD_IMAGE_VARS
350
27B
  3
ACAD_LAYOUT
350
1E
  3
ACAD_MATERIAL
350
263
  3
ACAD_MLEADERSTYLE
350
336
  3
ACAD_MLINESTYLE
350
1B
  3
ACAD_PLOTSETTINGS
350
22
  3
ACAD_PLOTSTYLENAME
350
1F
  3
ACAD_SCALELIST
350
241
  3
ACAD_SECTIONVIEWSTYLE
350
909
  3
ACAD_TABLESTYLE
350
278
  3
ACAD_VISUALSTYLE
350
267
  3
AcadDim
350
32CF
  3
ACDB_RECOMPOSE_DATA
350
37C3
  3
AcDbVariableDictionary
350
330
  3
APPDATA
350
27A
  0
SUN
  5
904
330
15
100
AcDbSun
 90
        1
290
     0
 63
     7
421
 16777215
 40
1.0
291
     1
 91
  2455826
 92
 54000000
292
     0
 70
     2
 71
   256
280
     1
  0
DICTIONARY
  5
2E1
330
2
100
AcDbDictionary
280
     1
281
     1
  3
ACAD_LAYERSTATES
360
2E2
  3
ACLYDICTIONARY
360
32AD
  0
DICTIONARY
  5
32D0
330
32CE
100
AcDbDictionary
280
     1
281
     1
  3
ACAD_DIMASSOC
360
32D1
  0
DICTIONARY
  5
32D3
330
32D2
100
AcDbDictionary
280
     1
281
     1
  0
DICTIONARY
  5
3370
330
336F
100
AcDbDictionary
280
     1
281
     1
  0
DICTIONARY
  5
33A4
330
33A3
100
AcDbDictionary
280
     1
281
     1
  0
DICTIONARY
  5
33AD
330
33AC
100
AcDbDictionary
280
     1
281
     1
  3
ACAD_DIMASSOC
360
33AE
  0
DICTIONARY
  5
674
102
{ACAD_REACTORS
330
19
102
}
330
19
100
AcDbDictionary
281
     1
  0
DICTIONARY
  5
908
102
{ACAD_REACTORS
330
19
102
}
330
19
100
AcDbDictionary
281
     1
  0
DICTIONARY
  5
1A
102
{ACAD_REACTORS
330
19
102
}
330
19
100
AcDbDictionary
281
     1
  0
RASTERVARIABLES
  5
27B
102
{ACAD_REACTORS
330
19
102
}
330
19
100
AcDbRasterVariables
 90
        0
 70
     1
 71
     1
 72
     1
  0
DICTIONARY
  5
1E
102
{ACAD_REACTORS
330
19
102
}
330
19
100
AcDbDictionary
281
     1
  3
Layout1
350
21
  3
Model
350
20
  0
DICTIONARY
  5
263
102
{ACAD_REACTORS
330
19
102
}
330
19
100
AcDbDictionary
281
     1
  3
ByBlock
350
265
  3
ByLayer
350
264
  3
Global
350
266
  0
DICTIONARY
  5
336
102
{ACAD_REACTORS
330
19
102
}
330
19
100
AcDbDictionary
281
     1
  0
DICTIONARY
  5
1B
102
{ACAD_REACTORS
330
19
102
}
330
19
100
AcDbDictionary
281
     1
  3
Standard
350
1C
  0
DICTIONARY
  5
22
102
{ACAD_REACTORS
330
19
102
}
330
19
100
AcDbDictionary
281
     1
  0
ACDBDICTIONARYWDFLT
  5
1F
102
{ACAD_REACTORS
330
19
102
}
330
19
100
AcDbDictionary
281
     1
  3
Normal
350
1D
100
AcDbDictionaryWithDefault
340
1D
  0
DICTIONARY
  5
241
102
{ACAD_REACTORS
330
19
102
}
330
19
100
AcDbDictionary
281
     1
  3
A0
350
242
  3
A1
350
243
  3
A2
350
244
  3
A3
350
245
  3
A4
350
246
  3
A5
350
247
  3
A6
350
248
  3
A7
350
249
  3
A8
350
24A
  3
A9
350
24B
  3
B0
350
24C
  3
B1
350
24D
  3
B2
350
24E
  3
B3
350
24F
  3
B4
350
250
  3
B5
350
251
  3
B6
350
252
  3
B7
350
253
  3
B8
350
254
  3
B9
350
255
  3
C0
350
256
  3
C1
350
257
  3
C2
350
258
  3
C3
350
259
  3
C4
350
25A
  3
C5
350
25B
  3
C6
350
25C
  3
C7
350
25D
  3
C8
350
25E
  3
C9
350
25F
  3
D0
350
260
  3
D1
350
261
  3
D2
350
262
  0
DICTIONARY
  5
909
102
{ACAD_REACTORS
330
19
102
}
330
19
100
AcDbDictionary
281
     1
  0
DICTIONARY
  5
278
102
{ACAD_REACTORS
330
19
102
}
330
19
100
AcDbDictionary
281
     1
  3
Standard
350
279
  0
DICTIONARY
  5
267
102
{ACAD_REACTORS
330
19
102
}
330
19
100
AcDbDictionary
281
     1
  3
2dWireframe
350
26C
  3
3D Hidden
350
26E
  3
3dWireframe
350
26D
  3
Basic
350
26F
  3
Brighten
350
273
  3
ColorChange
350
277
  3
Conceptual
350
271
  3
Dim
350
272
  3
EdgeColorOff
350
8FE
  3
Facepattern
350
276
  3
Flat
350
268
  3
FlatWithEdges
350
269
  3
Gouraud
350
26A
  3
GouraudWithEdges
350
26B
  3
Hidden
350
8FB
  3
JitterOff
350
8FC
  3
Linepattern
350
275
  3
OverhangOff
350
8FD
  3
Realistic
350
270
  3
Shaded
350
903
  3
Shaded with edges
350
902
  3
Shades of Gray
350
8FF
  3
Sketchy
350
900
  3
Thicken
350
274
  3
Wireframe
350
8FA
  3
X-Ray
350
901
  0
XRECORD
  5
32CF
102
{ACAD_REACTORS
330
19
102
}
330
19
100
AcDbXrecord
280
     1
340
0
 72
     0
 71
     0
 70
     0
 69
     0
 68
     1
 67
     3
 66
     0
 65
     0
 64
     0
 63
     3
 62
     1
 61
     0
 60
     0
 40
0.0
  0
XRECORD
  5
37C3
102
{ACAD_REACTORS
330
19
102
}
330
19
100
AcDbXrecord
280
     1
 90
        1
330
279
  0
DICTIONARY
  5
330
102
{ACAD_REACTORS
330
19
102
}
330
19
100
AcDbDictionary
281
     1
  3
CANNOSCALE
350
331
  3
CTABLESTYLE
350
335
  3
XCLIPFRAME
350
896
  0
DICTIONARY
  5
27A
102
{ACAD_REACTORS
330
19
102
}
330
19
100
AcDbDictionary
281
     1
  0
DICTIONARY
  5
2E2
102
{ACAD_REACTORS
330
2E1
102
}
330
2E1
100
AcDbDictionary
281
     1
  3
ARGON_LAYERP_4
350
10F2
  3
ARGON_LAYERP_5
350
8F6
  3
ARGON_LAYERP_9
350
7AA
  0
DICTIONARY
  5
32AD
102
{ACAD_REACTORS
330
2E1
102
}
330
2E1
100
AcDbDictionary
281
     1
1001
ACAD
1000
<All
  0
DIMASSOC
  5
32D1
102
{ACAD_REACTORS
330
32D0
102
}
330
32D0
100
AcDbDimAssoc
330
32CE
 90
        1
 70
     0
 71
     1
  1
AcDbOsnapPointRef
 72
    10
331
3109
 73
     0
 91
        0
 40
5.136863522324433
 10
0.0
 20
0.0
 30
0.0
 75
     0
  0
DIMASSOC
  5
33AE
102
{ACAD_REACTORS
330
33AD
102
}
330
33AD
100
AcDbDimAssoc
330
33AC
 90
        3
 70
     0
 71
     1
  1
AcDbOsnapPointRef
 72
     1
331
2AE2
 73
     0
 91
        0
 40
0.0
 10
0.0
 20
0.0
 30
0.0
 75
     0
  1
AcDbOsnapPointRef
 72
     1
331
2AAA
 73
     0
 91
        0
 40
0.0
 10
0.0
 20
0.0
 30
0.0
 75
     0
  0
LAYOUT
  5
21
102
{ACAD_REACTORS
330
1E
102
}
330
1E
100
AcDbPlotSettings
  1

  2
none_device
  4
ISO_A3_(420.00_x_297.00_MM)
  6

 40
7.5
 41
20.0
 42
7.5
 43
20.0
 44
420.0
 45
297.0
 46
0.0
 47
0.0
 48
0.0
 49
0.0
140
0.0
141
0.0
142
1.0
143
1.0
 70
     0
 72
     1
 73
     0
 74
     0
  7

 75
     0
 76
     0
 77
     2
 78
   300
147
1.0
148
0.0
149
0.0
100
AcDbLayout
  1
Layout1
 70
     0
 71
     0
 10
-7.5
 20
-20.0
 11
412.5
 21
277.0
 12
0.0
 22
0.0
 32
0.0
 14
0.0
 24
0.0
 34
0.0
 15
0.0
 25
0.0
 35
0.0
146
0.0
 13
0.0
 23
0.0
 33
0.0
 16
0.0
 26
0.0
 36
0.0
 17
0.0
 27
0.0
 37
0.0
 76
     0
330
B
331
349
  0
LAYOUT
  5
20
102
{ACAD_REACTORS
330
1E
102
}
330
1E
100
AcDbPlotSettings
  1

  2
none_device
  4
ISO_A3_(420.00_x_297.00_MM)
  6

 40
7.5
 41
20.0
 42
7.5
 43
20.0
 44
420.0
 45
297.0
 46
0.0
 47
0.0
 48
0.0
 49
0.0
140
0.0
141
0.0
142
1.0
143
1.0
 70
  1024
 72
     1
 73
     0
 74
     0
  7

 75
     0
 76
     0
 77
     2
 78
   300
147
1.0
148
0.0
149
0.0
100
AcDbLayout
  1
Model
 70
     0
 71
     1
 10
0.0
 20
0.0
 11
840.0000000000002
 21
1188.0
 12
0.0
 22
0.0
 32
0.0
 14
17.73478042659985
 24
17.25567800557177
 34
0.0
 15
823.4224208338999
 25
1174.693162940315
 35
0.0
146
0.0
 13
0.0
 23
0.0
 33
0.0
 16
0.0
 26
0.0
 36
0.0
 17
0.0
 27
0.0
 37
0.0
 76
     0
330
A
331
15
  0
MATERIAL
  5
265
102
{ACAD_REACTORS
330
263
102
}
330
263
100
AcDbMaterial
  1
ByBlock
 72
     1
 94
      127
  0
MATERIAL
  5
264
102
{ACAD_REACTORS
330
263
102
}
330
263
100
AcDbMaterial
  1
ByLayer
 72
     1
 94
      127
  0
MATERIAL
  5
266
102
{ACAD_REACTORS
330
263
102
}
330
263
100
AcDbMaterial
  1
Global
 72
     1
 94
      127
  0
MLINESTYLE
  5
1C
102
{ACAD_REACTORS
330
1B
102
}
330
1B
100
AcDbMlineStyle
  2
Standard
 70
     0
  3

 62
     0
 51
90.0
 52
90.0
 71
     2
 49
0.5
 62
   256
  6
BYLAYER
 49
-0.5
 62
   256
  6
BYLAYER
  0
ACDBPLACEHOLDER
  5
1D
102
{ACAD_REACTORS
330
1F
102
}
330
1F
  0
SCALE
  5
242
102
{ACAD_REACTORS
330
241
102
}
330
241
100
AcDbScale
 70
     0
300
1:1
140
1.0
141
1.0
290
     1
  0
SCALE
  5
243
102
{ACAD_REACTORS
330
241
102
}
330
241
100
AcDbScale
 70
     0
300
1:2
140
1.0
141
2.0
290
     0
  0
SCALE
  5
244
102
{ACAD_REACTORS
330
241
102
}
330
241
100
AcDbScale
 70
     0
300
1:4
140
1.0
141
4.0
290
     0
  0
SCALE
  5
245
102
{ACAD_REACTORS
330
241
102
}
330
241
100
AcDbScale
 70
     0
300
1:5
140
1.0
141
5.0
290
     0
  0
SCALE
  5
246
102
{ACAD_REACTORS
330
241
102
}
330
241
100
AcDbScale
 70
     0
300
1:8
140
1.0
141
8.0
290
     0
  0
SCALE
  5
247
102
{ACAD_REACTORS
330
241
102
}
330
241
100
AcDbScale
 70
     0
300
1:10
140
1.0
141
10.0
290
     0
  0
SCALE
  5
248
102
{ACAD_REACTORS
330
241
102
}
330
241
100
AcDbScale
 70
     0
300
1:16
140
1.0
141
16.0
290
     0
  0
SCALE
  5
249
102
{ACAD_REACTORS
330
241
102
}
330
241
100
AcDbScale
 70
     0
300
1:20
140
1.0
141
20.0
290
     0
  0
SCALE
  5
24A
102
{ACAD_REACTORS
330
241
102
}
330
241
100
AcDbScale
 70
     0
300
1:30
140
1.0
141
30.0
290
     0
  0
SCALE
  5
24B
102
{ACAD_REACTORS
330
241
102
}
330
241
100
AcDbScale
 70
     0
300
1:40
140
1.0
141
40.0
290
     0
  0
SCALE
  5
24C
102
{ACAD_REACTORS
330
241
102
}
330
241
100
AcDbScale
 70
     0
300
1:50
140
1.0
141
50.0
290
     0
  0
SCALE
  5
24D
102
{ACAD_REACTORS
330
241
102
}
330
241
100
AcDbScale
 70
     0
300
1:100
140
1.0
141
100.0
290
     0
  0
SCALE
  5
24E
102
{ACAD_REACTORS
330
241
102
}
330
241
100
AcDbScale
 70
     0
300
2:1
140
2.0
141
1.0
290
     0
  0
SCALE
  5
24F
102
{ACAD_REACTORS
330
241
102
}
330
241
100
AcDbScale
 70
     0
300
4:1
140
4.0
141
1.0
290
     0
  0
SCALE
  5
250
102
{ACAD_REACTORS
330
241
102
}
330
241
100
AcDbScale
 70
     0
300
8:1
140
8.0
141
1.0
290
     0
  0
SCALE
  5
251
102
{ACAD_REACTORS
330
241
102
}
330
241
100
AcDbScale
 70
     0
300
10:1
140
10.0
141
1.0
290
     0
  0
SCALE
  5
252
102
{ACAD_REACTORS
330
241
102
}
330
241
100
AcDbScale
 70
     0
300
100:1
140
100.0
141
1.0
290
     0
  0
SCALE
  5
253
102
{ACAD_REACTORS
330
241
102
}
330
241
100
AcDbScale
 70
     0
300
1/128" = 1'-0"
140
0.0078125
141
12.0
290
     0
  0
SCALE
  5
254
102
{ACAD_REACTORS
330
241
102
}
330
241
100
AcDbScale
 70
     0
300
1/64" = 1'-0"
140
0.015625
141
12.0
290
     0
  0
SCALE
  5
255
102
{ACAD_REACTORS
330
241
102
}
330
241
100
AcDbScale
 70
     0
300
1/32" = 1'-0"
140
0.03125
141
12.0
290
     0
  0
SCALE
  5
256
102
{ACAD_REACTORS
330
241
102
}
330
241
100
AcDbScale
 70
     0
300
1/16" = 1'-0"
140
0.0625
141
12.0
290
     0
  0
SCALE
  5
257
102
{ACAD_REACTORS
330
241
102
}
330
241
100
AcDbScale
 70
     0
300
3/32" = 1'-0"
140
0.09375
141
12.0
290
     0
  0
SCALE
  5
258
102
{ACAD_REACTORS
330
241
102
}
330
241
100
AcDbScale
 70
     0
300
1/8" = 1'-0"
140
0.125
141
12.0
290
     0
  0
SCALE
  5
259
102
{ACAD_REACTORS
330
241
102
}
330
241
100
AcDbScale
 70
     0
300
3/16" = 1'-0"
140
0.1875
141
12.0
290
     0
  0
SCALE
  5
25A
102
{ACAD_REACTORS
330
241
102
}
330
241
100
AcDbScale
 70
     0
300
1/4" = 1'-0"
140
0.25
141
12.0
290
     0
  0
SCALE
  5
25B
102
{ACAD_REACTORS
330
241
102
}
330
241
100
AcDbScale
 70
     0
300
3/8" = 1'-0"
140
0.375
141
12.0
290
     0
  0
SCALE
  5
25C
102
{ACAD_REACTORS
330
241
102
}
330
241
100
AcDbScale
 70
     0
300
1/2" = 1'-0"
140
0.5
141
12.0
290
     0
  0
SCALE
  5
25D
102
{ACAD_REACTORS
330
241
102
}
330
241
100
AcDbScale
 70
     0
300
3/4" = 1'-0"
140
0.75
141
12.0
290
     0
  0
SCALE
  5
25E
102
{ACAD_REACTORS
330
241
102
}
330
241
100
AcDbScale
 70
     0
300
1" = 1'-0"
140
1.0
141
12.0
290
     0
  0
SCALE
  5
25F
102
{ACAD_REACTORS
330
241
102
}
330
241
100
AcDbScale
 70
     0
300
1-1/2" = 1'-0"
140
1.5
141
12.0
290
     0
  0
SCALE
  5
260
102
{ACAD_REACTORS
330
241
102
}
330
241
100
AcDbScale
 70
     0
300
3" = 1'-0"
140
3.0
141
12.0
290
     0
  0
SCALE
  5
261
102
{ACAD_REACTORS
330
241
102
}
330
241
100
AcDbScale
 70
     0
300
6" = 1'-0"
140
6.0
141
12.0
290
     0
  0
SCALE
  5
262
102
{ACAD_REACTORS
330
241
102
}
330
241
100
AcDbScale
 70
     0
300
1'-0" = 1'-0"
140
12.0
141
12.0
290
     0
  0
TABLESTYLE
  5
279
102
{ACAD_REACTORS
330
278
102
}
102
{ACAD_XDICTIONARY
360
37C1
102
}
330
278
100
AcDbTableStyle
  3
Standard
 70
     0
 71
     0
 40
0.06
 41
0.06
280
     0
281
     0
  7
Standard
140
4.5
170
     2
 62
     0
 63
   257
283
     0
 90
        4
 91
        0
  1

274
    -2
284
     1
 64
     0
275
    -2
285
     1
 65
     0
276
    -2
286
     1
 66
     0
277
    -2
287
     1
 67
     0
278
    -2
288
     1
 68
     0
279
    -2
289
     1
 69
     0
  7
Standard
140
6.0
170
     5
 62
     0
 63
   257
283
     0
 90
        4
 91
        0
  1

274
    -2
284
     1
 64
     0
275
    -2
285
     1
 65
     0
276
    -2
286
     1
 66
     0
277
    -2
287
     1
 67
     0
278
    -2
288
     1
 68
     0
279
    -2
289
     1
 69
     0
  7
Standard
140
4.5
170
     5
 62
     0
 63
   257
283
     0
 90
        4
 91
        0
  1

274
    -2
284
     1
 64
     0
275
    -2
285
     1
 65
     0
276
    -2
286
     1
 66
     0
277
    -2
287
     1
 67
     0
278
    -2
288
     1
 68
     0
279
    -2
289
     1
 69
     0
  0
VISUALSTYLE
  5
26C
102
{ACAD_REACTORS
330
267
102
}
330
267
100
AcDbVisualStyle
  2
2dWireframe
 70
     4
 71
     0
 72
     2
 73
     0
 90
        0
 40
-0.6
 41
-30.0
 62
     5
 63
     7
421
 16777215
 74
     1
 91
        4
 64
     7
 65
   257
 75
     1
175
     1
 42
1.0
 92
        0
 66
   257
 43
1.0
 76
     1
 77
     6
 78
     2
 67
     7
 79
     5
170
     0
171
     0
290
     0
174
     0
 93
        1
 44
0.0
173
     0
291
     0
 45
0.0
  0
VISUALSTYLE
  5
26E
102
{ACAD_REACTORS
330
267
102
}
330
267
100
AcDbVisualStyle
  2
3D Hidden
 70
     6
 71
     1
 72
     2
 73
     2
 90
        0
 40
-0.6
 41
-30.0
 62
     5
 63
     7
421
 16777215
 74
     2
 91
        2
 64
     7
 65
   257
 75
     2
175
     1
 42
40.0
 92
        0
 66
   257
 43
1.0
 76
     1
 77
     6
 78
     2
 67
     7
 79
     3
170
     0
171
     0
290
     0
174
     0
 93
        1
 44
0.0
173
     0
291
     0
 45
0.0
  0
VISUALSTYLE
  5
26D
102
{ACAD_REACTORS
330
267
102
}
330
267
100
AcDbVisualStyle
  2
3dWireframe
 70
     5
 71
     0
 72
     2
 73
     0
 90
        0
 40
-0.6
 41
-30.0
 62
     5
 63
     7
421
 16777215
 74
     1
 91
        4
 64
     7
 65
   257
 75
     1
175
     1
 42
1.0
 92
        0
 66
   257
 43
1.0
 76
     1
 77
     6
 78
     2
 67
     7
 79
     5
170
     0
171
     0
290
     0
174
     0
 93
        1
 44
0.0
173
     0
291
     0
 45
0.0
  0
VISUALSTYLE
  5
26F
102
{ACAD_REACTORS
330
267
102
}
330
267
100
AcDbVisualStyle
  2
Basic
 70
     7
 71
     1
 72
     0
 73
     1
 90
        0
 40
-0.6
 41
-30.0
 62
     5
 63
     7
421
 16777215
 74
     0
 91
        4
 64
     7
 65
   257
 75
     1
175
     1
 42
1.0
 92
        8
 66
     7
 43
1.0
 76
     1
 77
     6
 78
     2
 67
     7
 79
     5
170
     0
171
     0
290
     0
174
     0
 93
        1
 44
0.0
173
     0
291
     1
 45
0.0
  0
VISUALSTYLE
  5
273
102
{ACAD_REACTORS
330
267
102
}
330
267
100
AcDbVisualStyle
  2
Brighten
 70
    12
 71
     2
 72
     2
 73
     0
 90
        0
 40
-0.6
 41
-30.0
 62
     5
 63
     7
421
 16777215
 74
     1
 91
        4
 64
     7
 65
   257
 75
     1
175
     1
 42
1.0
 92
        8
 66
     7
 43
1.0
 76
     1
 77
     6
 78
     2
 67
     7
 79
     5
170
     0
171
     0
290
     0
174
     0
 93
        1
 44
50.0
173
     0
291
     1
 45
0.0
  0
VISUALSTYLE
  5
277
102
{ACAD_REACTORS
330
267
102
}
330
267
100
AcDbVisualStyle
  2
ColorChange
 70
    16
 71
     2
 72
     2
 73
     3
 90
        0
 40
-0.6
 41
-30.0
 62
     5
 63
     8
421
  8421504
 74
     1
 91
        4
 64
     7
 65
   257
 75
     1
175
     1
 42
1.0
 92
        8
 66
     8
424
  8421504
 43
1.0
 76
     1
 77
     6
 78
     2
 67
     7
 79
     5
170
     0
171
     0
290
     0
174
     0
 93
        1
 44
0.0
173
     0
291
     1
 45
0.0
  0
VISUALSTYLE
  5
271
102
{ACAD_REACTORS
330
267
102
}
330
267
100
AcDbVisualStyle
  2
Conceptual
 70
     9
 71
     3
 72
     2
 73
     0
 90
        0
 40
-0.6
 41
-30.0
 62
     5
 63
     7
421
 16777215
 74
     2
 91
        2
 64
     7
 65
   257
 75
     1
175
     1
 42
40.0
 92
        8
 66
     7
 43
1.0
 76
     1
 77
     6
 78
     2
 67
     7
 79
     3
170
     0
171
     0
290
     0
174
     0
 93
        1
 44
0.0
173
     0
291
     0
 45
0.0
  0
VISUALSTYLE
  5
272
102
{ACAD_REACTORS
330
267
102
}
330
267
100
AcDbVisualStyle
  2
Dim
 70
    11
 71
     2
 72
     2
 73
     0
 90
        0
 40
-0.6
 41
-30.0
 62
     5
 63
     7
421
 16777215
 74
     1
 91
        4
 64
     7
 65
   257
 75
     1
175
     1
 42
1.0
 92
        8
 66
     7
 43
1.0
 76
     1
 77
     6
 78
     2
 67
     7
 79
     5
170
     0
171
     0
290
     0
174
     0
 93
        1
 44
-50.0
173
     0
291
     1
 45
0.0
  0
VISUALSTYLE
  5
8FE
102
{ACAD_REACTORS
330
267
102
}
330
267
100
AcDbVisualStyle
  2
EdgeColorOff
 70
    22
 71
     2
 72
     2
 73
     0
 90
        0
 40
0.6
 41
30.0
 62
     5
 63
     7
421
 16777215
 74
     1
 91
        4
 64
     7
 65
   257
 75
     1
175
     1
 42
1.0
 92
        8
 66
     7
 43
1.0
 76
     1
 77
     6
 78
     2
 67
     7
 79
     5
170
     0
171
     0
290
     0
174
     0
 93
        1
 44
0.0
173
     0
291
     1
 45
0.0
  0
VISUALSTYLE
  5
276
102
{ACAD_REACTORS
330
267
102
}
330
267
100
AcDbVisualStyle
  2
Facepattern
 70
    15
 71
     2
 72
     2
 73
     0
 90
        0
 40
-0.6
 41
-30.0
 62
     5
 63
     7
421
 16777215
 74
     1
 91
        4
 64
     7
 65
   257
 75
     1
175
     1
 42
1.0
 92
        8
 66
     7
 43
1.0
 76
     1
 77
     6
 78
     2
 67
     7
 79
     5
170
     0
171
     0
290
     0
174
     0
 93
        1
 44
0.0
173
     0
291
     1
 45
0.0
  0
VISUALSTYLE
  5
268
102
{ACAD_REACTORS
330
267
102
}
330
267
100
AcDbVisualStyle
  2
Flat
 70
     0
 71
     2
 72
     1
 73
     1
 90
        2
 40
-0.6
 41
30.0
 62
     5
 63
     7
421
 16777215
 74
     0
 91
        4
 64
     7
 65
   257
 75
     1
175
     1
 42
1.0
 92
        8
 66
     7
 43
1.0
 76
     1
 77
     6
 78
     2
 67
     7
 79
     5
170
     0
171
     0
290
     0
174
     0
 93
       13
 44
0.0
173
     0
291
     1
 45
0.0
  0
VISUALSTYLE
  5
269
102
{ACAD_REACTORS
330
267
102
}
330
267
100
AcDbVisualStyle
  2
FlatWithEdges
 70
     1
 71
     2
 72
     1
 73
     1
 90
        2
 40
-0.6
 41
30.0
 62
     5
 63
     7
421
 16777215
 74
     1
 91
        4
 64
     7
 65
   257
 75
     1
175
     1
 42
1.0
 92
        0
 66
   257
 43
1.0
 76
     1
 77
     6
 78
     2
 67
     7
 79
     5
170
     0
171
     0
290
     0
174
     0
 93
       13
 44
0.0
173
     0
291
     1
 45
0.0
  0
VISUALSTYLE
  5
26A
102
{ACAD_REACTORS
330
267
102
}
330
267
100
AcDbVisualStyle
  2
Gouraud
 70
     2
 71
     2
 72
     2
 73
     1
 90
        2
 40
-0.6
 41
30.0
 62
     5
 63
     7
421
 16777215
 74
     0
 91
        4
 64
     7
 65
   257
 75
     1
175
     1
 42
1.0
 92
        0
 66
     7
 43
1.0
 76
     1
 77
     6
 78
     2
 67
     7
 79
     5
170
     0
171
     0
290
     0
174
     0
 93
       13
 44
0.0
173
     0
291
     1
 45
0.0
  0
VISUALSTYLE
  5
26B
102
{ACAD_REACTORS
330
267
102
}
330
267
100
AcDbVisualStyle
  2
GouraudWithEdges
 70
     3
 71
     2
 72
     2
 73
     1
 90
        2
 40
-0.6
 41
30.0
 62
     5
 63
     7
421
 16777215
 74
     1
 91
        4
 64
     7
 65
   257
 75
     1
175
     1
 42
1.0
 92
        0
 66
   257
 43
1.0
 76
     1
 77
     6
 78
     2
 67
     7
 79
     5
170
     0
171
     0
290
     0
174
     0
 93
       13
 44
0.0
173
     0
291
     1
 45
0.0
  0
VISUALSTYLE
  5
8FB
102
{ACAD_REACTORS
330
267
102
}
330
267
100
AcDbVisualStyle
  2
Hidden
 70
     6
 71
     1
 72
     2
 73
     2
 90
        0
 40
0.6
 41
30.0
 62
     5
 63
     7
421
 16777215
 74
     2
 91
        2
 64
     7
 65
   257
 75
     2
175
     1
 42
40.0
 92
        0
 66
   257
 43
1.0
 76
     1
 77
     6
 78
     2
 67
     7
 79
     3
170
     0
171
     0
290
     0
174
     0
 93
        1
 44
0.0
173
     0
291
     0
 45
0.0
  0
VISUALSTYLE
  5
8FC
102
{ACAD_REACTORS
330
267
102
}
330
267
100
AcDbVisualStyle
  2
JitterOff
 70
    20
 71
     2
 72
     2
 73
     0
 90
        0
 40
0.6
 41
30.0
 62
     5
 63
     7
421
 16777215
 74
     1
 91
        4
 64
     7
 65
   257
 75
     1
175
     1
 42
1.0
 92
       10
 66
     7
 43
1.0
 76
     1
 77
     6
 78
     2
 67
     7
 79
     5
170
     0
171
     0
290
     0
174
     0
 93
        1
 44
0.0
173
     0
291
     1
 45
0.0
  0
VISUALSTYLE
  5
275
102
{ACAD_REACTORS
330
267
102
}
330
267
100
AcDbVisualStyle
  2
Linepattern
 70
    14
 71
     2
 72
     2
 73
     0
 90
        0
 40
-0.6
 41
-30.0
 62
     5
 63
     7
421
 16777215
 74
     1
 91
        4
 64
     7
 65
   257
 75
     7
175
     7
 42
1.0
 92
        8
 66
     7
 43
1.0
 76
     1
 77
     6
 78
     2
 67
     7
 79
     5
170
     0
171
     0
290
     0
174
     0
 93
        1
 44
0.0
173
     0
291
     1
 45
0.0
  0
VISUALSTYLE
  5
8FD
102
{ACAD_REACTORS
330
267
102
}
330
267
100
AcDbVisualStyle
  2
OverhangOff
 70
    21
 71
     2
 72
     2
 73
     0
 90
        0
 40
0.6
 41
30.0
 62
     5
 63
     7
421
 16777215
 74
     1
 91
        4
 64
     7
 65
   257
 75
     1
175
     1
 42
1.0
 92
        9
 66
     7
 43
1.0
 76
     1
 77
     6
 78
     2
 67
     7
 79
     5
170
     0
171
     0
290
     0
174
     0
 93
        1
 44
0.0
173
     0
291
     1
 45
0.0
  0
VISUALSTYLE
  5
270
102
{ACAD_REACTORS
330
267
102
}
330
267
100
AcDbVisualStyle
  2
Realistic
 70
     8
 71
     2
 72
     2
 73
     0
 90
        0
 40
-0.6
 41
-30.0
 62
     5
 63
     7
421
 16777215
 74
     1
 91
        0
 64
     7
 65
   257
 75
     1
175
     1
 42
1.0
 92
        8
 66
     8
424
  7895160
 43
1.0
 76
     1
 77
     6
 78
     2
 67
     7
 79
     5
170
     0
171
     0
290
     0
174
     0
 93
       13
 44
0.0
173
     0
291
     0
 45
0.0
  0
VISUALSTYLE
  5
903
102
{ACAD_REACTORS
330
267
102
}
330
267
100
AcDbVisualStyle
  2
Shaded
 70
    27
 71
     2
 72
     2
 73
     1
 90
        2
 40
0.6
 41
30.0
 62
     5
 63
     7
421
 16777215
 74
     0
 91
        4
 64
     7
 65
   257
 75
     1
175
     1
 42
1.0
 92
        8
 66
   257
 43
1.0
 76
     1
 77
     6
 78
     2
 67
     8
425
  7895160
 79
     3
170
     0
171
     0
290
     0
174
     0
 93
        5
 44
0.0
173
     0
291
     0
 45
0.0
  0
VISUALSTYLE
  5
902
102
{ACAD_REACTORS
330
267
102
}
330
267
100
AcDbVisualStyle
  2
Shaded with edges
 70
    26
 71
     2
 72
     2
 73
     1
 90
        2
 40
0.6
 41
30.0
 62
     5
 63
     7
421
 16777215
 74
     1
 91
       10
 64
     7
 65
   257
 75
     2
175
     1
 42
1.0
 92
        8
 66
   257
 43
1.0
 76
     1
 77
     6
 78
     2
 67
     7
 79
     3
170
     0
171
     0
290
     0
174
     0
 93
        5
 44
0.0
173
     0
291
     0
 45
0.0
  0
VISUALSTYLE
  5
8FF
102
{ACAD_REACTORS
330
267
102
}
330
267
100
AcDbVisualStyle
  2
Shades of Gray
 70
    23
 71
     2
 72
     2
 73
     3
 90
        0
 40
0.6
 41
30.0
 62
     5
 63
     7
421
 16777215
 74
     2
 91
        2
 64
     7
 65
     7
 75
     1
175
     1
 42
40.0
 92
        8
 66
     7
 43
1.0
 76
     1
 77
     6
 78
     2
 67
     7
 79
     3
170
     0
171
     0
290
     0
174
     0
 93
        1
 44
0.0
173
     0
291
     0
 45
0.0
  0
VISUALSTYLE
  5
900
102
{ACAD_REACTORS
330
267
102
}
330
267
100
AcDbVisualStyle
  2
Sketchy
 70
    24
 71
     1
 72
     2
 73
     2
 90
        0
 40
0.6
 41
30.0
 62
     5
 63
     7
421
 16777215
 74
     2
 91
        2
 64
     7
 65
     7
 75
     1
175
     1
 42
40.0
 92
       11
 66
     7
 43
1.0
 76
     1
 77
     6
 78
     2
 67
     7
 79
     6
170
     0
171
     0
290
     0
174
     0
 93
        1
 44
0.0
173
     0
291
     0
 45
0.0
  0
VISUALSTYLE
  5
274
102
{ACAD_REACTORS
330
267
102
}
330
267
100
AcDbVisualStyle
  2
Thicken
 70
    13
 71
     2
 72
     2
 73
     0
 90
        0
 40
-0.6
 41
-30.0
 62
     5
 63
     7
421
 16777215
 74
     1
 91
        4
 64
     7
 65
   257
 75
     1
175
     1
 42
1.0
 92
       12
 66
     7
 43
1.0
 76
     1
 77
     6
 78
     2
 67
     7
 79
     5
170
     0
171
     0
290
     0
174
     0
 93
        1
 44
0.0
173
     0
291
     1
 45
0.0
  0
VISUALSTYLE
  5
8FA
102
{ACAD_REACTORS
330
267
102
}
330
267
100
AcDbVisualStyle
  2
Wireframe
 70
     5
 71
     0
 72
     2
 73
     0
 90
        0
 40
0.6
 41
30.0
 62
     5
 63
     7
421
 16777215
 74
     1
 91
        4
 64
     7
 65
   257
 75
     1
175
     1
 42
1.0
 92
        0
 66
   257
 43
1.0
 76
     1
 77
     6
 78
     2
 67
     7
 79
     3
170
     0
171
     0
290
     0
174
     0
 93
        1
 44
0.0
173
     0
291
     0
 45
0.0
  0
VISUALSTYLE
  5
901
102
{ACAD_REACTORS
330
267
102
}
330
267
100
AcDbVisualStyle
  2
X-Ray
 70
    25
 71
     2
 72
     2
 73
     1
 90
        1
 40
0.5
 41
30.0
 62
     5
 63
     7
421
 16777215
 74
     1
 91
        0
 64
     7
 65
   257
 75
     1
175
     1
 42
1.0
 92
        8
 66
     7
 43
1.0
 76
     1
 77
     6
 78
     2
 67
     7
 79
     3
170
     0
171
     0
290
     0
174
     0
 93
       13
 44
0.0
173
     0
291
     0
 45
0.0
  0
DICTIONARYVAR
  5
331
102
{ACAD_REACTORS
330
330
102
}
330
330
100
DictionaryVariables
280
     0
  1
1:1
  0
DICTIONARYVAR
  5
335
102
{ACAD_REACTORS
330
330
102
}
330
330
100
DictionaryVariables
280
     0
  1
Standard
  0
DICTIONARYVAR
  5
896
102
{ACAD_REACTORS
330
330
102
}
330
330
100
DictionaryVariables
280
     0
  1
0
  0
XRECORD
  5
10F2
102
{ACAD_REACTORS
330
2E2
102
}
330
2E2
100
AcDbXrecord
280
     1
 91
     1023
301

290
     0
302
DIM
330
14
 90
        8
 62
     7
370
    -3
331
13
  1
Color_7
330
4B
 90
        8
 62
     7
370
     0
331
13
  1
Color_7
330
4C
 90
        8
 62
     7
370
     9
331
13
  1
Color_7
330
4D
 90
        8
 62
     7
370
    -3
331
13
  1
Color_7
330
667
 90
        8
 62
     7
370
    -3
331
13
  1
Color_7
330
88C
 90
        8
 62
     7
370
     9
331
45
  1
Color_7
330
240E
 90
        0
 62
     7
370
    -3
331
13
  1
Color_7
330
2411
 90
        8
 62
     4
370
    -3
331
13
  1
Color_4
  0
XRECORD
  5
8F6
102
{ACAD_REACTORS
330
2E2
102
}
330
2E2
100
AcDbXrecord
280
     1
 91
     1023
301

290
     0
302
DIM
330
14
 90
        8
 62
     7
370
    -3
331
13
  1
Color_7
330
4B
 90
       12
 62
     7
370
     0
331
13
  1
Color_7
330
4C
 90
        8
 62
     7
370
     9
331
13
  1
Color_7
330
4D
 90
        8
 62
     7
370
    -3
331
13
  1
Color_7
330
667
 90
        8
 62
     7
370
    -3
331
13
  1
Color_7
330
88C
 90
        8
 62
     7
370
     9
331
45
  1
Color_7
  0
XRECORD
  5
7AA
102
{ACAD_REACTORS
330
2E2
102
}
330
2E2
100
AcDbXrecord
280
     1
 91
     1023
301

290
     0
302
MODEL
330
14
 90
        8
 62
     7
370
    -3
331
13
  1
Color_7
330
0
 90
        0
 62
     7
370
    -3
331
13
  1
Color_7
330
4B
 90
        8
 62
     7
370
    -3
331
13
  1
Color_7
330
4C
 90
        8
 62
     7
370
    -3
331
13
  1
Color_7
330
4D
 90
        8
 62
     7
370
    -3
331
13
  1
Color_7
330
0
 90
        9
 62
     1
370
    -3
331
13
  1
Color_1
330
0
 90
        8
 62
     4
370
    -3
331
13
  1
Color_4
330
667
 90
        8
 62
     7
370
    -3
331
13
  1
Color_7
  0
DICTIONARY
  5
37C1
330
279
100
AcDbDictionary
280
     1
281
     1
  3
ACAD_ROUNDTRIP_2008_TABLESTYLE_CELLSTYLEMAP
360
37C2
  0
CELLSTYLEMAP
  5
37C2
102
{ACAD_REACTORS
330
37C1
102
}
330
37C1
100
AcDbCellStyleMap
 90
        3
300
CELLSTYLE
  1
TABLEFORMAT_BEGIN
 90
        5
170
     1
 91
        0
 92
    32768
 62
   257
 93
        1
300
CONTENTFORMAT
  1
CONTENTFORMAT_BEGIN
 90
        0
 91
        0
 92
        4
 93
        0
300

 40
0.0
140
1.0
 94
        5
 62
     0
340
17
144
6.0
309
CONTENTFORMAT_END
171
     1
301
MARGIN
  1
CELLMARGIN_BEGIN
 40
0.06
 40
0.06
 40
0.06
 40
0.06
 40
0.18
 40
0.18
309
CELLMARGIN_END
 94
        6
 95
        1
302
GRIDFORMAT
  1
GRIDFORMAT_BEGIN
 90
        0
 91
        1
 62
     0
 92
       -2
340
0
 93
        0
 40
0.045
309
GRIDFORMAT_END
 95
        2
302
GRIDFORMAT
  1
GRIDFORMAT_BEGIN
 90
        0
 91
        1
 62
     0
 92
       -2
340
0
 93
        0
 40
0.045
309
GRIDFORMAT_END
 95
        4
302
GRIDFORMAT
  1
GRIDFORMAT_BEGIN
 90
        0
 91
        1
 62
     0
 92
       -2
340
0
 93
        0
 40
0.045
309
GRIDFORMAT_END
 95
        8
302
GRIDFORMAT
  1
GRIDFORMAT_BEGIN
 90
        0
 91
        1
 62
     0
 92
       -2
340
0
 93
        0
 40
0.045
309
GRIDFORMAT_END
 95
       16
302
GRIDFORMAT
  1
GRIDFORMAT_BEGIN
 90
        0
 91
        1
 62
     0
 92
       -2
340
0
 93
        0
 40
0.045
309
GRIDFORMAT_END
 95
       32
302
GRIDFORMAT
  1
GRIDFORMAT_BEGIN
 90
        0
 91
        1
 62
     0
 92
       -2
340
0
 93
        0
 40
0.045
309
GRIDFORMAT_END
309
TABLEFORMAT_END
  1
CELLSTYLE_BEGIN
 90
        1
 91
        1
300
_TITLE
309
CELLSTYLE_END
300
CELLSTYLE
  1
TABLEFORMAT_BEGIN
 90
        5
170
     1
 91
        0
 92
        0
 62
   257
 93
        1
300
CONTENTFORMAT
  1
CONTENTFORMAT_BEGIN
 90
        0
 91
        0
 92
        4
 93
        0
300

 40
0.0
140
1.0
 94
        5
 62
     0
340
17
144
4.5
309
CONTENTFORMAT_END
171
     1
301
MARGIN
  1
CELLMARGIN_BEGIN
 40
0.06
 40
0.06
 40
0.06
 40
0.06
 40
0.18
 40
0.18
309
CELLMARGIN_END
 94
        6
 95
        1
302
GRIDFORMAT
  1
GRIDFORMAT_BEGIN
 90
        0
 91
        1
 62
     0
 92
       -2
340
0
 93
        0
 40
0.045
309
GRIDFORMAT_END
 95
        2
302
GRIDFORMAT
  1
GRIDFORMAT_BEGIN
 90
        0
 91
        1
 62
     0
 92
       -2
340
0
 93
        0
 40
0.045
309
GRIDFORMAT_END
 95
        4
302
GRIDFORMAT
  1
GRIDFORMAT_BEGIN
 90
        0
 91
        1
 62
     0
 92
       -2
340
0
 93
        0
 40
0.045
309
GRIDFORMAT_END
 95
        8
302
GRIDFORMAT
  1
GRIDFORMAT_BEGIN
 90
        0
 91
        1
 62
     0
 92
       -2
340
0
 93
        0
 40
0.045
309
GRIDFORMAT_END
 95
       16
302
GRIDFORMAT
  1
GRIDFORMAT_BEGIN
 90
        0
 91
        1
 62
     0
 92
       -2
340
0
 93
        0
 40
0.045
309
GRIDFORMAT_END
 95
       32
302
GRIDFORMAT
  1
GRIDFORMAT_BEGIN
 90
        0
 91
        1
 62
     0
 92
       -2
340
0
 93
        0
 40
0.045
309
GRIDFORMAT_END
309
TABLEFORMAT_END
  1
CELLSTYLE_BEGIN
 90
        2
 91
        1
300
_HEADER
309
CELLSTYLE_END
300
CELLSTYLE
  1
TABLEFORMAT_BEGIN
 90
        5
170
     1
 91
        0
 92
        0
 62
   257
 93
        1
300
CONTENTFORMAT
  1
CONTENTFORMAT_BEGIN
 90
        0
 91
        0
 92
        4
 93
        0
300

 40
0.0
140
1.0
 94
        2
 62
     0
340
17
144
4.5
309
CONTENTFORMAT_END
171
     1
301
MARGIN
  1
CELLMARGIN_BEGIN
 40
0.06
 40
0.06
 40
0.06
 40
0.06
 40
0.18
 40
0.18
309
CELLMARGIN_END
 94
        6
 95
        1
302
GRIDFORMAT
  1
GRIDFORMAT_BEGIN
 90
        0
 91
        1
 62
     0
 92
       -2
340
0
 93
        0
 40
0.045
309
GRIDFORMAT_END
 95
        2
302
GRIDFORMAT
  1
GRIDFORMAT_BEGIN
 90
        0
 91
        1
 62
     0
 92
       -2
340
0
 93
        0
 40
0.045
309
GRIDFORMAT_END
 95
        4
302
GRIDFORMAT
  1
GRIDFORMAT_BEGIN
 90
        0
 91
        1
 62
     0
 92
       -2
340
0
 93
        0
 40
0.045
309
GRIDFORMAT_END
 95
        8
302
GRIDFORMAT
  1
GRIDFORMAT_BEGIN
 90
        0
 91
        1
 62
     0
 92
       -2
340
0
 93
        0
 40
0.045
309
GRIDFORMAT_END
 95
       16
302
GRIDFORMAT
  1
GRIDFORMAT_BEGIN
 90
        0
 91
        1
 62
     0
 92
       -2
340
0
 93
        0
 40
0.045
309
GRIDFORMAT_END
 95
       32
302
GRIDFORMAT
  1
GRIDFORMAT_BEGIN
 90
        0
 91
        1
 62
     0
 92
       -2
340
0
 93
        0
 40
0.045
309
GRIDFORMAT_END
309
TABLEFORMAT_END
  1
CELLSTYLE_BEGIN
 90
        3
 91
        2
300
_DATA
309
CELLSTYLE_END
  0
ENDSEC
  0
EOF
