  0
SECTION
  2
HEADER
  9
$ACADVER
  1
AC1021
  9
$ACADMAINTVER
 70
    25
  9
$DWGCODEPAGE
  3
ANSI_932
  9
$LASTSAVEDBY
  1
oku
  9
$INSBASE
 10
0.0
 20
0.0
 30
0.0
  9
$EXTMIN
 10
17.73478042659985
 20
17.25567800557165
 30
0.0
  9
$EXTMAX
 10
823.4224208338999
 20
1174.693162940315
 30
0.0
  9
$LIMMIN
 10
0.0
 20
0.0
  9
$LIMMAX
 10
840.0000000000002
 20
1188.0
  9
$ORTHOMODE
 70
     0
  9
$REGENMODE
 70
     1
  9
$FILLMODE
 70
     1
  9
$QTEXTMODE
 70
     0
  9
$MIRRTEXT
 70
     1
  9
$LTSCALE
 40
50.8
  9
$ATTMODE
 70
     1
  9
$TEXTSIZE
 40
2.5
  9
$TRACEWID
 40
1.0
  9
$TEXTSTYLE
  7
ＭＳ ゴシック
  9
$CLAYER
  8
MODEL
  9
$CELTYPE
  6
Continuous
  9
$CECOLOR
 62
   256
  9
$CELTSCALE
 40
1.0
  9
$DISPSILH
 70
     0
  9
$DIMSCALE
 40
1.0
  9
$DIMASZ
 40
6.0
  9
$DIMEXO
 40
25.0
  9
$DIMDLI
 40
0.9999999999999999
  9
$DIMRND
 40
0.0
  9
$DIMDLE
 40
0.0
  9
$DIMEXE
 40
0.0
  9
$DIMTP
 40
0.0
  9
$DIMTM
 40
0.0
  9
$DIMTXT
 40
12.0
  9
$DIMCEN
 40
0.0
  9
$DIMTSZ
 40
0.0
  9
$DIMTOL
 70
     0
  9
$DIMLIM
 70
     0
  9
$DIMTIH
 70
     0
  9
$DIMTOH
 70
     0
  9
$DIMSE1
 70
     0
  9
$DIMSE2
 70
     0
  9
$DIMTAD
 70
     1
  9
$DIMZIN
 70
    11
  9
$DIMBLK
  1
DOT
  9
$DIMASO
 70
     1
  9
$DIMSHO
 70
     1
  9
$DIMPOST
  1
<>
  9
$DIMAPOST
  1
[]
  9
$DIMALT
 70
     0
  9
$DIMALTD
 70
     1
  9
$DIMALTF
 40
1.0
  9
$DIMLFAC
 40
1.0
  9
$DIMTOFL
 70
     0
  9
$DIMTVP
 40
0.0
  9
$DIMTIX
 70
     1
  9
$DIMSOXD
 70
     0
  9
$DIMSAH
 70
     0
  9
$DIMBLK1
  1

  9
$DIMBLK2
  1

  9
$DIMSTYLE
  2
tfrom線あり
  9
$DIMCLRD
 70
     0
  9
$DIMCLRE
 70
     0
  9
$DIMCLRT
 70
     0
  9
$DIMTFAC
 40
1.0
  9
$DIMGAP
 40
10.0
  9
$DIMJUST
 70
     0
  9
$DIMSD1
 70
     0
  9
$DIMSD2
 70
     0
  9
$DIMTOLJ
 70
     1
  9
$DIMTZIN
 70
    11
  9
$DIMALTZ
 70
    11
  9
$DIMALTTZ
 70
    11
  9
$DIMUPT
 70
     0
  9
$DIMDEC
 70
     0
  9
$DIMTDEC
 70
     1
  9
$DIMALTU
 70
     2
  9
$DIMALTTD
 70
     2
  9
$DIMTXSTY
  7
ＭＳ ゴシック
  9
$DIMAUNIT
 70
     0
  9
$DIMADEC
 70
     2
  9
$DIMALTRND
 40
0.0
  9
$DIMAZIN
 70
     0
  9
$DIMDSEP
 70
    46
  9
$DIMATFIT
 70
     0
  9
$DIMFRAC
 70
     2
  9
$DIMLDRBLK
  1
DOT
  9
$DIMLUNIT
 70
     2
  9
$DIMLWD
 70
    -2
  9
$DIMLWE
 70
    -2
  9
$DIMTMOVE
 70
     0
  9
$DIMFXL
 40
1.0
  9
$DIMFXLON
 70
     0
  9
$DIMJOGANG
 40
0.7853981633974483
  9
$DIMTFILL
 70
     0
  9
$DIMTFILLCLR
 70
     0
  9
$DIMARCSYM
 70
     0
  9
$DIMLTYPE
  6

  9
$DIMLTEX1
  6

  9
$DIMLTEX2
  6

  9
$LUNITS
 70
     2
  9
$LUPREC
 70
     0
  9
$SKETCHINC
 40
0.1
  9
$FILLETRAD
 40
0.0
  9
$AUNITS
 70
     0
  9
$AUPREC
 70
     0
  9
$MENU
  1
acad
  9
$ELEVATION
 40
0.0
  9
$PELEVATION
 40
0.0
  9
$THICKNESS
 40
0.0
  9
$LIMCHECK
 70
     0
  9
$CHAMFERA
 40
0.0
  9
$CHAMFERB
 40
0.0
  9
$CHAMFERC
 40
0.0
  9
$CHAMFERD
 40
0.0
  9
$SKPOLY
 70
     0
  9
$TDCREATE
 40
2447893.375
  9
$TDUCREATE
 40
0.0
  9
$TDUPDATE
 40
2456629.565530023
  9
$TDUUPDATE
 40
2456629.190530023
  9
$TDINDWG
 40
0.2085539468
  9
$TDUSRTIMER
 40
2456629.110872975
  9
$USRTIMER
 70
     1
  9
$ANGBASE
 50
0.0
  9
$ANGDIR
 70
     0
  9
$PDMODE
 70
     1
  9
$PDSIZE
 40
-2.0
  9
$PLINEWID
 40
0.0
  9
$SPLFRAME
 70
     0
  9
$SPLINETYPE
 70
     6
  9
$SPLINESEGS
 70
     8
  9
$HANDSEED
  5
2AD8
  9
$SURFTAB1
 70
     6
  9
$SURFTAB2
 70
     6
  9
$SURFTYPE
 70
     6
  9
$SURFU
 70
     6
  9
$SURFV
 70
     6
  9
$UCSBASE
  2

  9
$UCSNAME
  2

  9
$UCSORG
 10
0.0
 20
0.0
 30
0.0
  9
$UCSXDIR
 10
1.0
 20
0.0
 30
0.0
  9
$UCSYDIR
 10
0.0
 20
1.0
 30
0.0
  9
$UCSORTHOREF
  2

  9
$UCSORTHOVIEW
 70
     1
  9
$UCSORGTOP
 10
0.0
 20
0.0
 30
0.0
  9
$UCSORGBOTTOM
 10
0.0
 20
0.0
 30
0.0
  9
$UCSORGLEFT
 10
0.0
 20
0.0
 30
0.0
  9
$UCSORGRIGHT
 10
0.0
 20
0.0
 30
0.0
  9
$UCSORGFRONT
 10
0.0
 20
0.0
 30
0.0
  9
$UCSORGBACK
 10
0.0
 20
0.0
 30
0.0
  9
$PUCSBASE
  2

  9
$PUCSNAME
  2

  9
$PUCSORG
 10
0.0
 20
0.0
 30
0.0
  9
$PUCSXDIR
 10
1.0
 20
0.0
 30
0.0
  9
$PUCSYDIR
 10
0.0
 20
1.0
 30
0.0
  9
$PUCSORTHOREF
  2

  9
$PUCSORTHOVIEW
 70
     0
  9
$PUCSORGTOP
 10
0.0
 20
0.0
 30
0.0
  9
$PUCSORGBOTTOM
 10
0.0
 20
0.0
 30
0.0
  9
$PUCSORGLEFT
 10
0.0
 20
0.0
 30
0.0
  9
$PUCSORGRIGHT
 10
0.0
 20
0.0
 30
0.0
  9
$PUCSORGFRONT
 10
0.0
 20
0.0
 30
0.0
  9
$PUCSORGBACK
 10
0.0
 20
0.0
 30
0.0
  9
$USERI1
 70
     0
  9
$USERI2
 70
     0
  9
$USERI3
 70
     0
  9
$USERI4
 70
     0
  9
$USERI5
 70
     0
  9
$USERR1
 40
0.0
  9
$USERR2
 40
0.0
  9
$USERR3
 40
0.0
  9
$USERR4
 40
0.0
  9
$USERR5
 40
0.0
  9
$WORLDVIEW
 70
     1
  9
$SHADEDGE
 70
     3
  9
$SHADEDIF
 70
    70
  9
$TILEMODE
 70
     1
  9
$MAXACTVP
 70
    64
  9
$PINSBASE
 10
0.0
 20
0.0
 30
0.0
  9
$PLIMCHECK
 70
     0
  9
$PEXTMIN
 10
0.0
 20
0.0
 30
0.0
  9
$PEXTMAX
 10
0.0
 20
0.0
 30
0.0
  9
$PLIMMIN
 10
-7.5
 20
-20.0
  9
$PLIMMAX
 10
412.5
 20
277.0
  9
$UNITMODE
 70
     0
  9
$VISRETAIN
 70
     0
  9
$PLINEGEN
 70
     1
  9
$PSLTSCALE
 70
     0
  9
$TREEDEPTH
 70
  3020
  9
$CMLSTYLE
  2
Standard
  9
$CMLJUST
 70
     0
  9
$CMLSCALE
 40
1.0
  9
$PROXYGRAPHICS
 70
     0
  9
$MEASUREMENT
 70
     1
  9
$CELWEIGHT
370
     0
  9
$ENDCAPS
280
     0
  9
$JOINSTYLE
280
     0
  9
$LWDISPLAY
290
     1
  9
$INSUNITS
 70
     4
  9
$HYPERLINKBASE
  1

  9
$STYLESHEET
  1

  9
$XEDIT
290
     1
  9
$CEPSNTYPE
380
     0
  9
$PSTYLEMODE
290
     1
  9
$FINGERPRINTGUID
  2

  9
$VERSIONGUID
  2

  9
$EXTNAMES
290
     1
  9
$PSVPSCALE
 40
0.0
  9
$OLESTARTUP
290
     0
  9
$SORTENTS
280
   127
  9
$INDEXCTL
280
     0
  9
$HIDETEXT
280
     1
  9
$XCLIPFRAME
290
     0
  9
$HALOGAP
280
     0
  9
$OBSCOLOR
 70
   257
  9
$OBSLTYPE
280
     0
  9
$INTERSECTIONDISPLAY
280
     0
  9
$INTERSECTIONCOLOR
 70
   257
  9
$DIMASSOC
280
     2
  9
$PROJECTNAME
  1

  9
$CAMERADISPLAY
290
     0
  9
$LENSLENGTH
 40
50.0
  9
$CAMERAHEIGHT
 40
0.0
  9
$STEPSPERSEC
 40
2.0
  9
$STEPSIZE
 40
6.0
  9
$3DDWFPREC
 40
2.0
  9
$PSOLWIDTH
 40
0.25
  9
$PSOLHEIGHT
 40
4.0
  9
$LOFTANG1
 40
1.570796326794897
  9
$LOFTANG2
 40
1.570796326794897
  9
$LOFTMAG1
 40
0.0
  9
$LOFTMAG2
 40
0.0
  9
$LOFTPARAM
 70
     7
  9
$LOFTNORMALS
280
     1
  9
$LATITUDE
 40
37.795
  9
$LONGITUDE
 40
-122.394
  9
$NORTHDIRECTION
 40
0.0
  9
$TIMEZONE
 70
 -8000
  9
$LIGHTGLYPHDISPLAY
280
     1
  9
$TILEMODELIGHTSYNCH
280
     1
  9
$SOLIDHIST
280
     1
  9
$SHOWHIST
280
     1
  9
$DWFFRAME
280
     2
  9
$DGNFRAME
280
     2
  9
$REALWORLDSCALE
290
     1
  9
$INTERFERECOLOR
 62
   256
  9
$CSHADOW
280
     0
  9
$SHADOWPLANELOCATION
 40
0.0
  0
ENDSEC
  0
SECTION
  2
CLASSES
  0
CLASS
  1
LWPOLYLINE
  2
AcDbPolyline
  3
ObjectDBX Classes
 90
        0
 91
        1
280
     0
281
     1
  0
CLASS
  1
IMAGE
  2
AcDbRasterImage
  3
ISM
 90
      127
 91
        5
280
     0
281
     1
  0
CLASS
  1
OLE2FRAME
  2
AcDbOle2Frame
  3
ObjectDBX Classes
 90
        0
 91
        1
280
     0
281
     1
  0
CLASS
  1
HATCH
  2
AcDbHatch
  3
ObjectDBX Classes
 90
        0
 91
        1
280
     0
281
     1
  0
CLASS
  1
DICTIONARYVAR
  2
AcDbDictionaryVar
  3
ObjectDBX Classes
 90
        0
 91
        4
280
     0
281
     0
  0
CLASS
  1
RASTERVARIABLES
  2
AcDbRasterVariables
  3
ISM
 90
        0
 91
        5
280
     0
281
     0
  0
CLASS
  1
IMAGEDEF
  2
AcDbRasterImageDef
  3
ISM
 90
        0
 91
        4
280
     0
281
     0
  0
CLASS
  1
IMAGEDEF_REACTOR
  2
AcDbRasterImageDefReactor
  3
ISM
 90
        1
 91
        4
280
     0
281
     0
  0
CLASS
  1
IDBUFFER
  2
AcDbIdBuffer
  3
ObjectDBX Classes
 90
        0
 91
        4
280
     0
281
     0
  0
CLASS
  1
SPATIAL_FILTER
  2
AcDbSpatialFilter
  3
ObjectDBX Classes
 90
        0
 91
        4
280
     0
281
     0
  0
CLASS
  1
XRECORD
  2
AcDbXrecord
  3
ObjectDBX Classes
 90
        0
 91
        1
280
     0
281
     0
  0
CLASS
  1
SORTENTSTABLE
  2
AcDbSortentsTable
  3
ObjectDBX Classes
 90
        0
 91
        4
280
     0
281
     0
  0
CLASS
  1
LAYER_INDEX
  2
AcDbLayerIndex
  3
ObjectDBX Classes
 90
        0
 91
        4
280
     0
281
     0
  0
CLASS
  1
SPATIAL_INDEX
  2
AcDbSpatialIndex
  3
AutoCAD 2000
 90
        0
 91
        4
280
     0
281
     0
  0
CLASS
  1
OBJECT_PTR
  2
CAseDLPNTableRecord
  3
ASE-LPNTableRecord
 90
        1
 91
        4
280
     0
281
     0
  0
CLASS
  1
LAYOUT
  2
AcDbLayout
  3
ObjectDBX Classes
 90
        0
 91
        1
280
     0
281
     0
  0
CLASS
  1
PLOTSETTINGS
  2
AcDbPlotSettings
  3
ObjectDBX Classes
 90
        0
 91
        4
280
     0
281
     0
  0
CLASS
  1
ACDBDICTIONARYWDFLT
  2
AcDbDictionaryWithDefault
  3
ObjectDBX Classes
 90
        0
 91
        5
280
     0
281
     0
  0
CLASS
  1
ACDBPLACEHOLDER
  2
AcDbPlaceHolder
  3
ObjectDBX Classes
 90
        0
 91
        1
280
     0
281
     0
  0
CLASS
  1
SCALE
  2
AcDbScale
  3
ObjectDBX Classes
 90
     1153
 91
        5
280
     0
281
     0
  0
CLASS
  1
MATERIAL
  2
AcDbMaterial
  3
ObjectDBX Classes
 90
     1153
 91
        5
280
     0
281
     0
  0
CLASS
  1
VISUALSTYLE
  2
AcDbVisualStyle
  3
ObjectDBX Classes
 90
     4095
 91
        5
280
     0
281
     0
  0
CLASS
  1
TABLESTYLE
  2
AcDbTableStyle
  3
ObjectDBX Classes
 90
     4095
 91
        5
280
     0
281
     0
  0
CLASS
  1
DIMASSOC
  2
AcDbDimAssoc
  3
"AcDbDimAssoc|Product Desc:     AcDim ARX App For Dimension|Company:          Autodesk, Inc.|WEB Address:      www.autodesk.com"
 90
        0
 91
        4
280
     0
281
     0
  0
CLASS
  1
CELLSTYLEMAP
  2
AcDbCellStyleMap
  3
ObjectDBX Classes
 90
     1152
 91
        4
280
     0
281
     0
  0
CLASS
  1
SUN
  2
AcDbSun
  3
SCENEOE
 90
     1153
 91
        5
280
     0
281
     0
  0
ENDSEC
  0
SECTION
  2
TABLES
  0
TABLE
  2
VPORT
  5
7
330
0
100
AcDbSymbolTable
 70
     1
  0
VPORT
  5
15
330
7
100
AcDbSymbolTableRecord
100
AcDbViewportTableRecord
  2
*ACTIVE
 70
     0
 10
0.0
 20
0.0
 11
1.0
 21
1.0
 12
488.0616469263753
 22
380.6649783678353
 13
0.0
 23
0.0
 14
1.0
 24
1.0
 15
0.0
 25
0.0
 16
0.0
 26
0.0
 36
1.0
 17
-91.02013567090074
 27
73.5987145301624
 37
-46.86809886248109
 40
944.4689877067437
 41
2.0
 42
50.0
 43
0.0
 44
0.0
 50
0.0
 51
0.0
 71
    16
 72
  2000
 73
     1
 74
     1
 75
     0
 76
     0
 77
     0
 78
     0
281
     0
 65
     0
110
0.0
120
0.0
130
0.0
111
1.0
121
0.0
131
0.0
112
0.0
122
1.0
132
0.0
 79
     0
146
0.0
348
26C
 60
     3
 61
     5
292
     1
282
     1
141
0.0
142
0.0
 63
   256
361
904
  0
ENDTAB
  0
TABLE
  2
LTYPE
  5
4
330
0
100
AcDbSymbolTable
 70
    19
  0
LTYPE
  5
11
330
4
100
AcDbSymbolTableRecord
100
AcDbLinetypeTableRecord
  2
ByBlock
 70
     0
  3

 72
    65
 73
     0
 40
0.0
  0
LTYPE
  5
12
330
4
100
AcDbSymbolTableRecord
100
AcDbLinetypeTableRecord
  2
ByLayer
 70
     0
  3
Solid line
 72
    65
 73
     0
 40
0.0
  0
LTYPE
  5
13
330
4
100
AcDbSymbolTableRecord
100
AcDbLinetypeTableRecord
  2
Continuous
 70
     0
  3
Solid line
 72
    65
 73
     0
 40
0.0
  0
LTYPE
  5
3A
330
4
100
AcDbSymbolTableRecord
100
AcDbLinetypeTableRecord
  2
STYLE_01
 70
     0
  3

 72
    65
 73
     2
 40
0.2460629921259842
 49
0.1230314960629921
 74
     0
 49
-0.1230314960629921
 74
     0
  0
LTYPE
  5
3B
330
4
100
AcDbSymbolTableRecord
100
AcDbLinetypeTableRecord
  2
STYLE_02
 70
     0
  3

 72
    65
 73
     2
 40
0.6944250000000001
 49
0.48607
 74
     0
 49
-0.2083550000000001
 74
     0
  0
LTYPE
  5
3C
330
4
100
AcDbSymbolTableRecord
100
AcDbLinetypeTableRecord
  2
STYLE_03
 70
     0
  3

 72
    65
 73
     2
 40
1.25
 49
1.04164
 74
     0
 49
-0.2083599999999999
 74
     0
  0
LTYPE
  5
3D
330
4
100
AcDbSymbolTableRecord
100
AcDbLinetypeTableRecord
  2
STYLE_04
 70
     0
  3

 72
    65
 73
     2
 40
1.52771
 49
1.319425
 74
     0
 49
-0.208285
 74
     0
  0
LTYPE
  5
3E
330
4
100
AcDbSymbolTableRecord
100
AcDbLinetypeTableRecord
  2
STYLE_05
 70
     0
  3

 72
    65
 73
     2
 40
0.20828
 49
0.069425
 74
     0
 49
-0.138855
 74
     0
  0
LTYPE
  5
3F
330
4
100
AcDbSymbolTableRecord
100
AcDbLinetypeTableRecord
  2
STYLE_06
 70
     0
  3

 72
    65
 73
     4
 40
1.04164
 49
0.625
 74
     0
 49
-0.20828
 74
     0
 49
0.06943
 74
     0
 49
-0.13893
 74
     0
  0
LTYPE
  5
40
330
4
100
AcDbSymbolTableRecord
100
AcDbLinetypeTableRecord
  2
STYLE_07
 70
     0
  3

 72
    65
 73
     6
 40
1.875
 49
0.625
 74
     0
 49
-0.20828
 74
     0
 49
0.6250000000000001
 74
     0
 49
-0.2083599999999999
 74
     0
 49
0.06943
 74
     0
 49
-0.1389299999999999
 74
     0
  0
LTYPE
  5
41
330
4
100
AcDbSymbolTableRecord
100
AcDbLinetypeTableRecord
  2
STYLE_08
 70
     0
  3

 72
    65
 73
     6
 40
1.25
 49
0.625
 74
     0
 49
-0.20828
 74
     0
 49
0.06943
 74
     0
 49
-0.13893
 74
     0
 49
0.0694299999999999
 74
     0
 49
-0.13893
 74
     0
  0
LTYPE
  5
42
330
4
100
AcDbSymbolTableRecord
100
AcDbLinetypeTableRecord
  2
STYLE_09
 70
     0
  3

 72
    65
 73
     4
 40
5.0
 49
3.75
 74
     0
 49
-0.2777849999999998
 74
     0
 49
0.6944300000000003
 74
     0
 49
-0.2777849999999998
 74
     0
  0
LTYPE
  5
43
330
4
100
AcDbSymbolTableRecord
100
AcDbLinetypeTableRecord
  2
STYLE_10
 70
     0
  3

 72
    65
 73
     6
 40
5.9375
 49
3.75
 74
     0
 49
-0.2777849999999998
 74
     0
 49
0.6944300000000003
 74
     0
 49
-0.2777849999999998
 74
     0
 49
0.625
 74
     0
 49
-0.3125
 74
     0
  0
LTYPE
  5
44
330
4
100
AcDbSymbolTableRecord
100
AcDbLinetypeTableRecord
  2
STYLE_11
 70
     0
  3

 72
    65
 73
     2
 40
0.0694444881889764
 49
0.0347222440944882
 74
     0
 49
-0.0347222440944882
 74
     0
  0
LTYPE
  5
45
330
4
100
AcDbSymbolTableRecord
100
AcDbLinetypeTableRecord
  2
STYLE_12
 70
     0
  3

 72
    65
 73
     2
 40
0.3937007874015748
 49
0.1968503937007874
 74
     0
 49
-0.1968503937007874
 74
     0
  0
LTYPE
  5
46
330
4
100
AcDbSymbolTableRecord
100
AcDbLinetypeTableRecord
  2
STYLE_13
 70
     0
  3

 72
    65
 73
     2
 40
0.5905511811023622
 49
0.2952755905511811
 74
     0
 49
-0.2952755905511811
 74
     0
  0
LTYPE
  5
47
330
4
100
AcDbSymbolTableRecord
100
AcDbLinetypeTableRecord
  2
STYLE_14
 70
     0
  3

 72
    65
 73
     2
 40
1.968503937007874
 49
0.9842519685039369
 74
     0
 49
-0.9842519685039369
 74
     0
  0
LTYPE
  5
48
330
4
100
AcDbSymbolTableRecord
100
AcDbLinetypeTableRecord
  2
STYLE_15
 70
     0
  3

 72
    65
 73
     2
 40
0.1875
 49
0.125
 74
     0
 49
-0.0625
 74
     0
  0
LTYPE
  5
49
330
4
100
AcDbSymbolTableRecord
100
AcDbLinetypeTableRecord
  2
STYLE_16
 70
     0
  3

 72
    65
 73
     2
 40
0.3690944881889764
 49
0.2460629921259843
 74
     0
 49
-0.1230314960629922
 74
     0
  0
LTYPE
  5
916
330
4
100
AcDbSymbolTableRecord
100
AcDbLinetypeTableRecord
  2
CENTER2
 70
     0
  3
___ _ ___ _ ___ _ ___ _ ___ _ ___ _ ___ _ ___ _
 72
    65
 73
     4
 40
1.125
 49
0.75
 74
     0
 49
-0.125
 74
     0
 49
0.125
 74
     0
 49
-0.125
 74
     0
  0
LTYPE
  5
241E
330
4
100
AcDbSymbolTableRecord
100
AcDbLinetypeTableRecord
  2
CENTER
 70
     0
  3
____ _ ____ _ ____ _ ____ _ ____ _ ____ _ ____
 72
    65
 73
     4
 40
0.6
 49
0.375
 74
     0
 49
-0.075
 74
     0
 49
0.075
 74
     0
 49
-0.075
 74
     0
  0
ENDTAB
  0
TABLE
  2
LAYER
  5
2
102
{ACAD_XDICTIONARY
360
2E1
102
}
330
0
100
AcDbSymbolTable
 70
     7
  0
LAYER
  5
14
330
2
100
AcDbSymbolTableRecord
100
AcDbLayerTableRecord
  2
0
 70
     0
 62
     7
  6
Continuous
370
    -3
390
1D
347
266
  0
LAYER
  5
4B
330
2
100
AcDbSymbolTableRecord
100
AcDbLayerTableRecord
  2
TEMPLATE
 70
     0
 62
     7
  6
Continuous
370
     0
390
1D
347
266
  0
LAYER
  5
4C
330
2
100
AcDbSymbolTableRecord
100
AcDbLayerTableRecord
  2
DIM
 70
     0
 62
     7
  6
Continuous
370
     9
390
1D
347
266
  0
LAYER
  5
4D
330
2
100
AcDbSymbolTableRecord
100
AcDbLayerTableRecord
  2
MODEL
 70
     0
 62
     7
  6
Continuous
370
    -3
390
1D
347
266
  0
LAYER
  5
667
330
2
100
AcDbSymbolTableRecord
100
AcDbLayerTableRecord
  2
LOGO
 70
     0
 62
     7
  6
Continuous
370
    -3
390
1D
347
266
  0
LAYER
  5
88C
330
2
100
AcDbSymbolTableRecord
100
AcDbLayerTableRecord
  2
HIDDEN
 70
     0
 62
     7
  6
STYLE_12
370
     9
390
1D
347
266
1001
AcAecLayerStandard
1000

1000

  0
LAYER
  5
2668
330
2
100
AcDbSymbolTableRecord
100
AcDbLayerTableRecord
  2
Defpoints
 70
     0
 62
     7
  6
Continuous
290
     0
370
    -3
390
1D
347
266
  0
ENDTAB
  0
TABLE
  2
STYLE
  5
3
330
0
100
AcDbSymbolTable
 70
     4
  0
STYLE
  5
17
330
3
100
AcDbSymbolTableRecord
100
AcDbTextStyleTableRecord
  2
Standard
 70
     0
 40
0.0
 41
1.0
 50
0.0
 71
     0
 42
2.5
  3
txt
  4
BIGFONT.SHX
  0
STYLE
  5
39
330
3
100
AcDbSymbolTableRecord
100
AcDbTextStyleTableRecord
  2
ＭＳ ゴシック
 70
     0
 40
0.0
 41
1.0
 50
0.0
 71
     0
 42
2.5
  3
msgothic.ttc
  4
ＭＳ ゴシック
1001
ACAD
1000
ＭＳ ゴシック
1071
        0
  0
STYLE
  5
384
330
3
100
AcDbSymbolTableRecord
100
AcDbTextStyleTableRecord
  2
ARIAL
 70
     0
 40
0.0
 41
1.0
 50
0.0
 71
     0
 42
12.0
  3
ARIAL.TTF
  4

1001
ACAD
1000
Arial
1071
       34
  0
STYLE
  5
385
330
3
100
AcDbSymbolTableRecord
100
AcDbTextStyleTableRecord
  2
ROMANS
 70
     0
 40
0.0
 41
1.0
 50
0.0
 71
     0
 42
5.0
  3
romans.shx
  4

  0
ENDTAB
  0
TABLE
  2
VIEW
  5
5
330
0
100
AcDbSymbolTable
 70
     0
  0
ENDTAB
  0
TABLE
  2
UCS
  5
6
330
0
100
AcDbSymbolTable
 70
     0
  0
ENDTAB
  0
TABLE
  2
APPID
  5
8
330
0
100
AcDbSymbolTable
 70
     3
  0
APPID
  5
16
330
8
100
AcDbSymbolTableRecord
100
AcDbRegAppTableRecord
  2
ACAD
 70
     0
  0
APPID
  5
7AC
330
8
100
AcDbSymbolTableRecord
100
AcDbRegAppTableRecord
  2
AcAecLayerStandard
 70
     0
  0
APPID
  5
109C
330
8
100
AcDbSymbolTableRecord
100
AcDbRegAppTableRecord
  2
ACAD_DSTYLE_DIMRADIAL_EXTENSION
 70
     0
  0
ENDTAB
  0
TABLE
  2
DIMSTYLE
  5
9
330
0
100
AcDbSymbolTable
 70
     7
100
AcDbDimStyleTable
  0
DIMSTYLE
105
18
330
9
100
AcDbSymbolTableRecord
100
AcDbDimStyleTableRecord
  2
Standard
 70
     0
178
     0
340
17
  0
DIMSTYLE
105
56
330
9
100
AcDbSymbolTableRecord
100
AcDbDimStyleTableRecord
  2
tform線あり
 70
     0
  3
<>
  4
[]
 41
9.999389648437498
 42
25.0
 43
0.9999999999999999
 44
0.0
 73
     0
 74
     0
 77
     1
 78
    11
140
24.4326171875
141
0.0
143
1.0
146
0.8
147
0.4999999999999999
171
     1
172
     1
174
     1
178
     0
179
     2
271
     1
272
     1
276
     2
284
    11
285
    11
286
    11
289
     0
340
39
341
4E
342
4E
  0
DIMSTYLE
105
57
102
{ACAD_REACTORS
330
27F5
330
284D
330
27A7
330
27E5
330
27D4
330
27AA
330
27D6
330
27AC
330
2805
330
2808
330
2A39
330
2A77
102
}
330
9
100
AcDbSymbolTableRecord
100
AcDbDimStyleTableRecord
  2
tfrom線あり
 70
     0
  3
<>
  4
[]
 41
6.0
 42
25.0
 43
0.9999999999999999
 44
0.0
 73
     0
 74
     0
 77
     1
 78
    11
140
12.0
141
0.0
143
1.0
147
10.0
171
     1
174
     1
178
     0
179
     2
271
     0
272
     1
276
     2
284
    11
285
    11
286
    11
289
     0
340
39
341
4E
342
4E
  0
DIMSTYLE
105
5C
330
9
100
AcDbSymbolTableRecord
100
AcDbDimStyleTableRecord
  2
JIS
 70
     0
  3
<>
  4
[]
 41
9.0
 42
0.0
 43
6.99999999999994
 44
19.9999999999962
 73
     0
 74
     0
 77
     1
 78
    11
140
24.4326171875
141
0.0
143
1.0
147
10.0
171
     1
174
     1
178
     0
179
     2
271
     1
272
     1
276
     2
284
    11
285
    11
286
    11
289
     0
340
39
341
4E
342
4E
  0
DIMSTYLE
105
383
330
9
100
AcDbSymbolTableRecord
100
AcDbDimStyleTableRecord
  2
ARIAL
 70
     0
 41
10.0
 42
3.0
 43
0.5
 44
3.0
 73
     0
 74
     0
 77
     1
 78
     8
140
12.0
141
0.0
146
0.5
147
4.0
171
     1
172
     1
178
     0
271
     1
289
     0
340
384
  0
DIMSTYLE
105
2425
330
9
100
AcDbSymbolTableRecord
100
AcDbDimStyleTableRecord
  2
DIMSTYLE_1
 70
     0
 41
4.0
 47
0.001
 48
0.001
 73
     0
 74
     0
 77
     1
 78
     8
140
5.0
144
2.5
271
     3
178
     5
271
     3
272
     3
284
     8
340
17
341
2421
342
2421
343
2421
344
2421
  0
DIMSTYLE
105
2426
330
9
100
AcDbSymbolTableRecord
100
AcDbDimStyleTableRecord
  2
DIMSTYLE_2
 70
     0
 41
4.0
 73
     0
 74
     0
 77
     1
 78
     8
140
5.0
144
2.5
271
     0
178
     5
271
     0
272
     0
284
     8
340
17
341
2421
342
2421
343
2421
344
2421
  0
ENDTAB
  0
TABLE
  2
BLOCK_RECORD
  5
1
330
0
100
AcDbSymbolTable
 70
    20
  0
BLOCK_RECORD
  5
A
330
1
100
AcDbSymbolTableRecord
100
AcDbBlockTableRecord
  2
*MODEL_SPACE
340
20
 70
     0
280
     1
281
     0
  0
BLOCK_RECORD
  5
B
330
1
100
AcDbSymbolTableRecord
100
AcDbBlockTableRecord
  2
*PAPER_SPACE
340
21
 70
     0
280
     1
281
     0
  0
BLOCK_RECORD
  5
4E
330
1
100
AcDbSymbolTableRecord
100
AcDbBlockTableRecord
  2
_DOT
340
0
102
{BLKREFS
331
2463
331
2464
331
2472
331
2473
331
247D
331
247E
331
248A
331
248B
331
24BE
331
24BF
331
24CB
331
24CC
331
24EA
331
24EB
331
24F5
331
24F6
331
250E
331
250F
331
2519
331
251A
331
2532
331
2533
331
253D
331
253E
331
258C
331
258D
331
0
331
0
331
0
331
0
331
259A
331
2599
102
}
 70
     0
280
     1
281
     0
  0
BLOCK_RECORD
  5
68A
330
1
100
AcDbSymbolTableRecord
100
AcDbBlockTableRecord
  2
名称未設定-1
340
0
102
{BLKREFS
331
23FF
102
}
 70
     1
280
     1
281
     0
  0
BLOCK_RECORD
  5
690
330
1
100
AcDbSymbolTableRecord
100
AcDbBlockTableRecord
  2
block 3
340
0
102
{BLKREFS
331
68F
102
}
 70
     0
280
     1
281
     0
  0
BLOCK_RECORD
  5
693
330
1
100
AcDbSymbolTableRecord
100
AcDbBlockTableRecord
  2
block 4
340
0
102
{BLKREFS
331
692
102
}
 70
     0
280
     1
281
     0
  0
BLOCK_RECORD
  5
6A2
330
1
100
AcDbSymbolTableRecord
100
AcDbBlockTableRecord
  2
block 5
340
0
102
{BLKREFS
331
6A1
102
}
 70
     0
280
     1
281
     0
  0
BLOCK_RECORD
  5
2421
330
1
100
AcDbSymbolTableRecord
100
AcDbBlockTableRecord
  2
_ARROW_FILLED
340
0
 70
     0
280
     1
281
     0
  0
BLOCK_RECORD
  5
245E
330
1
100
AcDbSymbolTableRecord
100
AcDbBlockTableRecord
  2
*D6
340
0
 70
     0
280
     1
281
     0
  0
BLOCK_RECORD
  5
246B
330
1
100
AcDbSymbolTableRecord
100
AcDbBlockTableRecord
  2
*D7
340
0
 70
     0
280
     1
281
     0
  0
BLOCK_RECORD
  5
2478
330
1
100
AcDbSymbolTableRecord
100
AcDbBlockTableRecord
  2
*D8
340
0
 70
     0
280
     1
281
     0
  0
BLOCK_RECORD
  5
2485
330
1
100
AcDbSymbolTableRecord
100
AcDbBlockTableRecord
  2
*D9
340
0
 70
     0
280
     1
281
     0
  0
BLOCK_RECORD
  5
24B9
330
1
100
AcDbSymbolTableRecord
100
AcDbBlockTableRecord
  2
*D10
340
0
 70
     0
280
     1
281
     0
  0
BLOCK_RECORD
  5
24C6
330
1
100
AcDbSymbolTableRecord
100
AcDbBlockTableRecord
  2
*D11
340
0
 70
     0
280
     1
281
     0
  0
BLOCK_RECORD
  5
24E5
330
1
100
AcDbSymbolTableRecord
100
AcDbBlockTableRecord
  2
*D12
340
0
 70
     0
280
     1
281
     0
  0
BLOCK_RECORD
  5
24F0
330
1
100
AcDbSymbolTableRecord
100
AcDbBlockTableRecord
  2
*D13
340
0
 70
     0
280
     1
281
     0
  0
BLOCK_RECORD
  5
2509
330
1
100
AcDbSymbolTableRecord
100
AcDbBlockTableRecord
  2
*D14
340
0
 70
     0
280
     1
281
     0
  0
BLOCK_RECORD
  5
2514
330
1
100
AcDbSymbolTableRecord
100
AcDbBlockTableRecord
  2
*D15
340
0
 70
     0
280
     1
281
     0
  0
BLOCK_RECORD
  5
252D
330
1
100
AcDbSymbolTableRecord
100
AcDbBlockTableRecord
  2
*D16
340
0
 70
     0
280
     1
281
     0
  0
BLOCK_RECORD
  5
2538
330
1
100
AcDbSymbolTableRecord
100
AcDbBlockTableRecord
  2
*D17
340
0
 70
     0
280
     1
281
     0
  0
BLOCK_RECORD
  5
2587
330
1
100
AcDbSymbolTableRecord
100
AcDbBlockTableRecord
  2
*D18
340
0
 70
     0
280
     1
281
     0
  0
BLOCK_RECORD
  5
2594
330
1
100
AcDbSymbolTableRecord
100
AcDbBlockTableRecord
  2
*D19
340
0
 70
     0
280
     1
281
     0
  0
ENDTAB
  0
ENDSEC
  0
SECTION
  2
BLOCKS
  0
BLOCK
  5
D
330
A
100
AcDbEntity
  8
0
390
1D
100
AcDbBlockBegin
  2
*MODEL_SPACE
 70
     0
 10
0.0
 20
0.0
 30
0.0
  3
*MODEL_SPACE
  1
*MODEL_SPACE
  0
ENDBLK
  5
E
330
A
100
AcDbEntity
  8
0
390
1D
100
AcDbBlockEnd
  0
BLOCK
  5
F
330
B
100
AcDbEntity
 67
     1
  8
0
390
1D
100
AcDbBlockBegin
  2
*PAPER_SPACE
 70
     0
 10
0.0
 20
0.0
 30
0.0
  3
*PAPER_SPACE
  1
*PAPER_SPACE
  0
ENDBLK
  5
10
330
B
100
AcDbEntity
 67
     1
  8
0
390
1D
100
AcDbBlockEnd
  0
BLOCK
  5
5B7
330
4E
100
AcDbEntity
  8
0
390
1D
100
AcDbBlockBegin
  2
_DOT
 70
     0
 10
0.0
 20
0.0
 30
0.0
  3
_DOT
  1
_DOT
  0
POLYLINE
  5
5B9
330
4E
100
AcDbEntity
  8
0
  6
ByBlock
 62
     0
370
    -2
390
1D
100
AcDb2dPolyline
 66
     1
 10
0.0
 20
0.0
 30
0.0
 70
     1
 40
0.5
 41
0.5
  0
VERTEX
  5
5BA
330
5B9
100
AcDbEntity
  8
0
  6
ByBlock
 62
     0
370
    -2
390
1D
100
AcDbVertex
100
AcDb2dVertex
 10
-0.25
 20
0.0
 30
0.0
 42
1.0
  0
VERTEX
  5
5BB
330
5B9
100
AcDbEntity
  8
0
  6
ByBlock
 62
     0
370
    -2
390
1D
100
AcDbVertex
100
AcDb2dVertex
 10
0.25
 20
0.0
 30
0.0
 42
1.0
  0
SEQEND
  5
5BC
330
5B9
100
AcDbEntity
  8
0
390
1D
  0
LINE
  5
5BD
330
4E
100
AcDbEntity
  8
0
  6
ByBlock
 62
     0
370
    -2
390
1D
100
AcDbLine
 10
-0.5
 20
0.0
 30
0.0
 11
-1.0
 21
0.0
 31
0.0
  0
ENDBLK
  5
5BE
330
4E
100
AcDbEntity
  8
0
390
1D
100
AcDbBlockEnd
  0
BLOCK
  5
68B
330
68A
100
AcDbEntity
  8
0
100
AcDbBlockBegin
  2
名称未設定-1
 70
     0
 10
0.0
 20
0.0
 30
0.0
  3
名称未設定-1
  1
名称未設定-1
  0
INSERT
  5
68F
330
68A
100
AcDbEntity
  8
LOGO
100
AcDbBlockReference
  2
block 3
 10
0.0
 20
0.0
 30
0.0
  0
ENDBLK
  5
6B1
330
68A
100
AcDbEntity
  8
0
100
AcDbBlockEnd
  0
BLOCK
  5
691
330
690
100
AcDbEntity
  8
0
100
AcDbBlockBegin
  2
block 3
 70
     0
 10
0.0
 20
0.0
 30
0.0
  3
block 3
  1
block 3
  0
INSERT
  5
692
330
690
100
AcDbEntity
  8
LOGO
100
AcDbBlockReference
  2
block 4
 10
0.0
 20
0.0
 30
0.0
  0
INSERT
  5
6A1
330
690
100
AcDbEntity
  8
LOGO
100
AcDbBlockReference
  2
block 5
 10
0.0
 20
0.0
 30
0.0
  0
ENDBLK
  5
6AF
330
690
100
AcDbEntity
  8
0
100
AcDbBlockEnd
  0
BLOCK
  5
694
330
693
100
AcDbEntity
  8
0
100
AcDbBlockBegin
  2
block 4
 70
     0
 10
0.0
 20
0.0
 30
0.0
  3
block 4
  1
block 4
  0
POLYLINE
  5
695
330
693
100
AcDbEntity
  8
LOGO
370
     0
100
AcDb2dPolyline
 66
     1
 10
0.0
 20
0.0
 30
0.0
  0
VERTEX
  5
696
330
695
100
AcDbEntity
  8
LOGO
370
     0
100
AcDbVertex
100
AcDb2dVertex
 10
83.79545727667795
 20
167.6444858234922
 30
0.0
  0
VERTEX
  5
697
330
695
100
AcDbEntity
  8
LOGO
370
     0
100
AcDbVertex
100
AcDb2dVertex
 10
83.79545727667795
 20
159.7968976406313
 30
0.0
  0
VERTEX
  5
698
330
695
100
AcDbEntity
  8
LOGO
370
     0
100
AcDbVertex
100
AcDb2dVertex
 10
71.3631329975216
 20
159.7968976406313
 30
0.0
  0
VERTEX
  5
699
330
695
100
AcDbEntity
  8
LOGO
370
     0
100
AcDbVertex
100
AcDb2dVertex
 10
71.3631329975216
 20
127.8027915271048
 30
0.0
  0
VERTEX
  5
69A
330
695
100
AcDbEntity
  8
LOGO
370
     0
100
AcDbVertex
100
AcDb2dVertex
 10
60.43011526263018
 20
127.8027915271048
 30
0.0
  0
VERTEX
  5
69B
330
695
100
AcDbEntity
  8
LOGO
370
     0
100
AcDbVertex
100
AcDb2dVertex
 10
60.43011526263018
 20
159.7968976406313
 30
0.0
  0
VERTEX
  5
69C
330
695
100
AcDbEntity
  8
LOGO
370
     0
100
AcDbVertex
100
AcDb2dVertex
 10
48.21793273020759
 20
159.7968976406313
 30
0.0
  0
VERTEX
  5
69D
330
695
100
AcDbEntity
  8
LOGO
370
     0
100
AcDbVertex
100
AcDb2dVertex
 10
48.21793273020759
 20
167.6444858234922
 30
0.0
  0
VERTEX
  5
69E
330
695
100
AcDbEntity
  8
LOGO
370
     0
100
AcDbVertex
100
AcDb2dVertex
 10
83.79545727667795
 20
167.6444858234922
 30
0.0
  0
SEQEND
  5
69F
330
695
100
AcDbEntity
  8
LOGO
370
     0
  0
HATCH
  5
6A0
330
693
100
AcDbEntity
  8
LOGO
 62
   250
420
  2234388
100
AcDbHatch
 10
0.0
 20
0.0
 30
0.0
210
0.0
220
0.0
230
1.0
  2
SOLID
 70
     1
 71
     0
 91
        1
 92
        1
 93
        8
 72
     1
 10
83.79545727667795
 20
167.6444858234922
 11
83.79545727667795
 21
159.7968976406313
 72
     1
 10
83.79545727667795
 20
159.7968976406313
 11
71.3631329975216
 21
159.7968976406313
 72
     1
 10
71.3631329975216
 20
159.7968976406313
 11
71.3631329975216
 21
127.8027915271048
 72
     1
 10
71.3631329975216
 20
127.8027915271048
 11
60.43011526263018
 21
127.8027915271048
 72
     1
 10
60.43011526263018
 20
127.8027915271048
 11
60.43011526263018
 21
159.7968976406313
 72
     1
 10
60.43011526263018
 20
159.7968976406313
 11
48.21793273020759
 21
159.7968976406313
 72
     1
 10
48.21793273020759
 20
159.7968976406313
 11
48.21793273020759
 21
167.6444858234922
 72
     1
 10
48.21793273020759
 20
167.6444858234922
 11
83.79545727667795
 21
167.6444858234922
 97
        0
 75
     2
 76
     1
 98
        0
  0
ENDBLK
  5
6AE
330
693
100
AcDbEntity
  8
0
100
AcDbBlockEnd
  0
BLOCK
  5
6A3
330
6A2
100
AcDbEntity
  8
0
100
AcDbBlockBegin
  2
block 5
 70
     0
 10
0.0
 20
0.0
 30
0.0
  3
block 5
  1
block 5
  0
SPLINE
  5
6A4
330
6A2
100
AcDbEntity
  8
LOGO
370
     0
100
AcDbSpline
210
0.0
220
0.0
230
1.0
 70
    11
 71
     3
 72
    56
 73
    52
 74
     0
 42
0.000000001
 43
0.0000000001
 40
0.0
 40
0.0
 40
0.0
 40
0.0
 40
1.0
 40
1.0
 40
1.0
 40
2.0
 40
2.0
 40
2.0
 40
3.0
 40
3.0
 40
3.0
 40
4.0
 40
4.0
 40
4.0
 40
5.0
 40
5.0
 40
5.0
 40
6.0
 40
6.0
 40
6.0
 40
7.0
 40
7.0
 40
7.0
 40
8.0
 40
8.0
 40
8.0
 40
9.0
 40
9.0
 40
9.0
 40
10.0
 40
10.0
 40
10.0
 40
11.0
 40
11.0
 40
11.0
 40
12.0
 40
12.0
 40
12.0
 40
13.0
 40
13.0
 40
13.0
 40
14.0
 40
14.0
 40
14.0
 40
15.0
 40
15.0
 40
15.0
 40
16.0
 40
16.0
 40
16.0
 40
17.0
 40
17.0
 40
17.0
 40
17.0
 10
100.4504378777679
 20
166.69157178364
 30
0.0
 10
101.9848844191641
 20
167.1313385124438
 30
0.0
 10
103.9637485713373
 20
166.7649523658846
 30
0.0
 10
103.9637485713373
 20
166.7649523658846
 30
0.0
 10
103.9637485713373
 20
166.7649523658846
 30
0.0
 10
103.0132460999156
 20
163.911205638077
 30
0.0
 10
103.0132460999156
 20
163.911205638077
 30
0.0
 10
103.0132460999156
 20
163.911205638077
 30
0.0
 10
101.0674548862189
 20
164.3601018759394
 30
0.0
 10
99.57090442016032
 20
163.1805004036133
 30
0.0
 10
98.40508333886608
 20
162.258247733807
 30
0.0
 10
97.65301849830304
 20
159.804132345923
 30
0.0
 10
97.3598406791005
 20
158.8699940888517
 30
0.0
 10
97.3598406791005
 20
158.8699940888517
 30
0.0
 10
96.07137411762282
 20
154.9119212747295
 30
0.0
 10
96.07137411762282
 20
154.9119212747295
 30
0.0
 10
96.07137411762282
 20
154.9119212747295
 30
0.0
 10
100.3012651448482
 20
154.9119212747295
 30
0.0
 10
100.3012651448482
 20
154.9119212747295
 30
0.0
 10
100.3012651448482
 20
154.9119212747295
 30
0.0
 10
99.64152892419852
 20
152.4199098115079
 30
0.0
 10
99.64152892419852
 20
152.4199098115079
 30
0.0
 10
99.64152892419852
 20
152.4199098115079
 30
0.0
 10
95.38097652692731
 20
152.4199098115079
 30
0.0
 10
95.38097652692731
 20
152.4199098115079
 30
0.0
 10
95.38097652692731
 20
152.4199098115079
 30
0.0
 10
87.75353009080013
 20
127.8027915271048
 30
0.0
 10
87.75353009080013
 20
127.8027915271048
 30
0.0
 10
87.75353009080013
 20
127.8027915271048
 30
0.0
 10
85.36538832498108
 20
127.8027915271048
 30
0.0
 10
85.36538832498108
 20
127.8027915271048
 30
0.0
 10
85.36538832498108
 20
127.8027915271048
 30
0.0
 10
93.00006946639998
 20
152.4199098115079
 30
0.0
 10
93.00006946639998
 20
152.4199098115079
 30
0.0
 10
93.00006946639998
 20
152.4199098115079
 30
0.0
 10
89.85297266450198
 20
152.4199098115079
 30
0.0
 10
89.85297266450198
 20
152.4199098115079
 30
0.0
 10
89.85297266450198
 20
152.4199098115079
 30
0.0
 10
90.51270888515164
 20
154.9119212747295
 30
0.0
 10
90.51270888515164
 20
154.9119212747295
 30
0.0
 10
90.51270888515164
 20
154.9119212747295
 30
0.0
 10
93.6904670570955
 20
154.9119212747295
 30
0.0
 10
93.6904670570955
 20
154.9119212747295
 30
0.0
 10
93.6904670570955
 20
154.9119212747295
 30
0.0
 10
94.81598049462158
 20
158.3616699146644
 30
0.0
 10
94.81598049462158
 20
158.3616699146644
 30
0.0
 10
95.7237637538445
 20
161.2605474231013
 30
0.0
 10
96.4968436907311
 20
162.8139420021662
 30
0.0
 10
97.15657991138076
 20
163.9844139654337
 30
0.0
 10
97.81183750494507
 20
165.1523021053827
 30
0.0
 10
99.1047826935081
 20
166.3084769129547
 30
0.0
 10
100.4504378777679
 20
166.69157178364
 30
0.0
  0
HATCH
  5
6A5
330
6A2
100
AcDbEntity
  8
LOGO
 62
   250
420
  2234388
100
AcDbHatch
 10
0.0
 20
0.0
 30
0.0
210
0.0
220
0.0
230
1.0
  2
SOLID
 70
     1
 71
     0
 91
        1
 92
        1
 93
        1
 72
     4
 94
        3
 73
     0
 74
     1
 95
       56
 96
       52
 40
0.0
 40
0.0
 40
0.0
 40
0.0
 40
1.0
 40
1.0
 40
1.0
 40
2.0
 40
2.0
 40
2.0
 40
3.0
 40
3.0
 40
3.0
 40
4.0
 40
4.0
 40
4.0
 40
5.0
 40
5.0
 40
5.0
 40
6.0
 40
6.0
 40
6.0
 40
7.0
 40
7.0
 40
7.0
 40
8.0
 40
8.0
 40
8.0
 40
9.0
 40
9.0
 40
9.0
 40
10.0
 40
10.0
 40
10.0
 40
11.0
 40
11.0
 40
11.0
 40
12.0
 40
12.0
 40
12.0
 40
13.0
 40
13.0
 40
13.0
 40
14.0
 40
14.0
 40
14.0
 40
15.0
 40
15.0
 40
15.0
 40
16.0
 40
16.0
 40
16.0
 40
17.0
 40
17.0
 40
17.0
 40
17.0
 10
100.4504378777679
 20
166.69157178364
 10
101.9848844191641
 20
167.1313385124438
 10
103.9637485713373
 20
166.7649523658846
 10
103.9637485713373
 20
166.7649523658846
 10
103.9637485713373
 20
166.7649523658846
 10
103.0132460999156
 20
163.911205638077
 10
103.0132460999156
 20
163.911205638077
 10
103.0132460999156
 20
163.911205638077
 10
101.0674548862189
 20
164.3601018759394
 10
99.57090442016032
 20
163.1805004036133
 10
98.40508333886608
 20
162.258247733807
 10
97.65301849830304
 20
159.804132345923
 10
97.3598406791005
 20
158.8699940888517
 10
97.3598406791005
 20
158.8699940888517
 10
96.07137411762282
 20
154.9119212747295
 10
96.07137411762282
 20
154.9119212747295
 10
96.07137411762282
 20
154.9119212747295
 10
100.3012651448482
 20
154.9119212747295
 10
100.3012651448482
 20
154.9119212747295
 10
100.3012651448482
 20
154.9119212747295
 10
99.64152892419852
 20
152.4199098115079
 10
99.64152892419852
 20
152.4199098115079
 10
99.64152892419852
 20
152.4199098115079
 10
95.38097652692731
 20
152.4199098115079
 10
95.38097652692731
 20
152.4199098115079
 10
95.38097652692731
 20
152.4199098115079
 10
87.75353009080013
 20
127.8027915271048
 10
87.75353009080013
 20
127.8027915271048
 10
87.75353009080013
 20
127.8027915271048
 10
85.36538832498108
 20
127.8027915271048
 10
85.36538832498108
 20
127.8027915271048
 10
85.36538832498108
 20
127.8027915271048
 10
93.00006946639998
 20
152.4199098115079
 10
93.00006946639998
 20
152.4199098115079
 10
93.00006946639998
 20
152.4199098115079
 10
89.85297266450198
 20
152.4199098115079
 10
89.85297266450198
 20
152.4199098115079
 10
89.85297266450198
 20
152.4199098115079
 10
90.51270888515164
 20
154.9119212747295
 10
90.51270888515164
 20
154.9119212747295
 10
90.51270888515164
 20
154.9119212747295
 10
93.6904670570955
 20
154.9119212747295
 10
93.6904670570955
 20
154.9119212747295
 10
93.6904670570955
 20
154.9119212747295
 10
94.81598049462158
 20
158.3616699146644
 10
94.81598049462158
 20
158.3616699146644
 10
95.7237637538445
 20
161.2605474231013
 10
96.4968436907311
 20
162.8139420021662
 10
97.15657991138076
 20
163.9844139654337
 10
97.81183750494507
 20
165.1523021053827
 10
99.1047826935081
 20
166.3084769129547
 10
100.4504378777679
 20
166.69157178364
 97
        0
 75
     2
 76
     1
 98
        0
  0
SPLINE
  5
6A6
330
6A2
100
AcDbEntity
  8
LOGO
370
     0
100
AcDbSpline
210
0.0
220
0.0
230
1.0
 70
    11
 71
     3
 72
    38
 73
    34
 74
     0
 42
0.000000001
 43
0.0000000001
 40
0.0
 40
0.0
 40
0.0
 40
0.0
 40
1.0
 40
1.0
 40
1.0
 40
2.0
 40
2.0
 40
2.0
 40
3.0
 40
3.0
 40
3.0
 40
4.0
 40
4.0
 40
4.0
 40
5.0
 40
5.0
 40
5.0
 40
6.0
 40
6.0
 40
6.0
 40
7.0
 40
7.0
 40
7.0
 40
8.0
 40
8.0
 40
8.0
 40
9.0
 40
9.0
 40
9.0
 40
10.0
 40
10.0
 40
10.0
 40
11.0
 40
11.0
 40
11.0
 40
11.0
 10
126.377554584636
 20
154.8151140277308
 30
0.0
 10
126.377554584636
 20
154.8151140277308
 30
0.0
 10
128.8311532078563
 20
154.8151140277308
 30
0.0
 10
128.8311532078563
 20
154.8151140277308
 30
0.0
 10
128.8311532078563
 20
154.8151140277308
 30
0.0
 10
127.7345785914971
 20
151.3062819612468
 30
0.0
 10
127.7345785914971
 20
151.3062819612468
 30
0.0
 10
128.571392836906
 20
152.2922689395754
 30
0.0
 10
129.8860421413442
 20
153.604506675583
 30
0.0
 10
131.0163787157314
 20
154.2664822097754
 30
0.0
 10
132.7044766171327
 20
155.2500576196734
 30
0.0
 10
133.6642808525008
 20
155.3847609420097
 30
0.0
 10
134.7284715499351
 20
155.3565111403944
 30
0.0
 10
134.7284715499351
 20
155.3565111403944
 30
0.0
 10
133.6877075172549
 20
152.0345756272799
 30
0.0
 10
133.6877075172549
 20
152.0345756272799
 30
0.0
 10
133.011434827367
 20
152.3184516825359
 30
0.0
 10
130.930940291334
 20
151.7768823149844
 30
0.0
 10
129.739280976855
 20
150.9162968950455
 30
0.0
 10
128.66613302525
 20
150.1454562717016
 30
0.0
 10
127.9192358313239
 20
149.4857200510519
 30
0.0
 10
127.0393578639405
 20
147.8282835196966
 30
0.0
 10
126.164647543194
 20
146.1699857139017
 30
0.0
 10
125.4742499524985
 20
143.5262176944419
 30
0.0
 10
124.2822461282437
 20
139.6959580071401
 30
0.0
 10
124.2822461282437
 20
139.6959580071401
 30
0.0
 10
120.5753209406769
 20
127.8027915271048
 30
0.0
 10
120.5753209406769
 20
127.8027915271048
 30
0.0
 10
120.5753209406769
 20
127.8027915271048
 30
0.0
 10
118.1964809388044
 20
127.8027915271048
 30
0.0
 10
118.1964809388044
 20
127.8027915271048
 30
0.0
 10
118.1964809388044
 20
127.8027915271048
 30
0.0
 10
126.377554584636
 20
154.8151140277308
 30
0.0
 10
126.377554584636
 20
154.8151140277308
 30
0.0
  0
HATCH
  5
6A7
330
6A2
100
AcDbEntity
  8
LOGO
 62
   250
420
  2234388
100
AcDbHatch
 10
0.0
 20
0.0
 30
0.0
210
0.0
220
0.0
230
1.0
  2
SOLID
 70
     1
 71
     0
 91
        1
 92
        1
 93
        1
 72
     4
 94
        3
 73
     0
 74
     1
 95
       38
 96
       34
 40
0.0
 40
0.0
 40
0.0
 40
0.0
 40
1.0
 40
1.0
 40
1.0
 40
2.0
 40
2.0
 40
2.0
 40
3.0
 40
3.0
 40
3.0
 40
4.0
 40
4.0
 40
4.0
 40
5.0
 40
5.0
 40
5.0
 40
6.0
 40
6.0
 40
6.0
 40
7.0
 40
7.0
 40
7.0
 40
8.0
 40
8.0
 40
8.0
 40
9.0
 40
9.0
 40
9.0
 40
10.0
 40
10.0
 40
10.0
 40
11.0
 40
11.0
 40
11.0
 40
11.0
 10
126.377554584636
 20
154.8151140277308
 10
126.377554584636
 20
154.8151140277308
 10
128.8311532078563
 20
154.8151140277308
 10
128.8311532078563
 20
154.8151140277308
 10
128.8311532078563
 20
154.8151140277308
 10
127.7345785914971
 20
151.3062819612468
 10
127.7345785914971
 20
151.3062819612468
 10
128.571392836906
 20
152.2922689395754
 10
129.8860421413442
 20
153.604506675583
 10
131.0163787157314
 20
154.2664822097754
 10
132.7044766171327
 20
155.2500576196734
 10
133.6642808525008
 20
155.3847609420097
 10
134.7284715499351
 20
155.3565111403944
 10
134.7284715499351
 20
155.3565111403944
 10
133.6877075172549
 20
152.0345756272799
 10
133.6877075172549
 20
152.0345756272799
 10
133.011434827367
 20
152.3184516825359
 10
130.930940291334
 20
151.7768823149844
 10
129.739280976855
 20
150.9162968950455
 10
128.66613302525
 20
150.1454562717016
 10
127.9192358313239
 20
149.4857200510519
 10
127.0393578639405
 20
147.8282835196966
 10
126.164647543194
 20
146.1699857139017
 10
125.4742499524985
 20
143.5262176944419
 10
124.2822461282437
 20
139.6959580071401
 10
124.2822461282437
 20
139.6959580071401
 10
120.5753209406769
 20
127.8027915271048
 10
120.5753209406769
 20
127.8027915271048
 10
120.5753209406769
 20
127.8027915271048
 10
118.1964809388044
 20
127.8027915271048
 10
118.1964809388044
 20
127.8027915271048
 10
118.1964809388044
 20
127.8027915271048
 10
126.377554584636
 20
154.8151140277308
 10
126.377554584636
 20
154.8151140277308
 97
        0
 75
     2
 76
     1
 98
        0
  0
SPLINE
  5
6A8
330
6A2
100
AcDbEntity
  8
LOGO
370
     0
100
AcDbSpline
210
0.0
220
0.0
230
1.0
 70
    11
 71
     3
 72
   104
 73
   100
 74
     0
 42
0.000000001
 43
0.0000000001
 40
0.0
 40
0.0
 40
0.0
 40
0.0
 40
1.0
 40
1.0
 40
1.0
 40
2.0
 40
2.0
 40
2.0
 40
3.0
 40
3.0
 40
3.0
 40
4.0
 40
4.0
 40
4.0
 40
5.0
 40
5.0
 40
5.0
 40
6.0
 40
6.0
 40
6.0
 40
7.0
 40
7.0
 40
7.0
 40
8.0
 40
8.0
 40
8.0
 40
9.0
 40
9.0
 40
9.0
 40
10.0
 40
10.0
 40
10.0
 40
11.0
 40
11.0
 40
11.0
 40
12.0
 40
12.0
 40
12.0
 40
13.0
 40
13.0
 40
13.0
 40
14.0
 40
14.0
 40
14.0
 40
15.0
 40
15.0
 40
15.0
 40
16.0
 40
16.0
 40
16.0
 40
17.0
 40
17.0
 40
17.0
 40
18.0
 40
18.0
 40
18.0
 40
19.0
 40
19.0
 40
19.0
 40
20.0
 40
20.0
 40
20.0
 40
21.0
 40
21.0
 40
21.0
 40
22.0
 40
22.0
 40
22.0
 40
23.0
 40
23.0
 40
23.0
 40
24.0
 40
24.0
 40
24.0
 40
25.0
 40
25.0
 40
25.0
 40
26.0
 40
26.0
 40
26.0
 40
27.0
 40
27.0
 40
27.0
 40
28.0
 40
28.0
 40
28.0
 40
29.0
 40
29.0
 40
29.0
 40
30.0
 40
30.0
 40
30.0
 40
31.0
 40
31.0
 40
31.0
 40
32.0
 40
32.0
 40
32.0
 40
33.0
 40
33.0
 40
33.0
 40
33.0
 10
139.8926730891197
 20
154.8294111834263
 30
0.0
 10
139.8926730891197
 20
154.8294111834263
 30
0.0
 10
142.0344903652445
 20
154.8294111834263
 30
0.0
 10
142.0344903652445
 20
154.8294111834263
 30
0.0
 10
142.0344903652445
 20
154.8294111834263
 30
0.0
 10
140.9516961399171
 20
151.3157559800812
 30
0.0
 10
140.9516961399171
 20
151.3157559800812
 30
0.0
 10
141.8928968473923
 20
152.7887075264977
 30
0.0
 10
142.7341897198865
 20
153.4484437471474
 30
0.0
 10
143.8552245303272
 20
154.2926649527359
 30
0.0
 10
144.9803934580775
 20
155.1296514530327
 30
0.0
 10
146.3139908001845
 20
155.3044901642492
 30
0.0
 10
147.241066606852
 20
155.3044901642492
 30
0.0
 10
148.3855280820469
 20
155.3044901642492
 30
0.0
 10
149.4969166187653
 20
155.0752189084569
 30
0.0
 10
150.0784491203092
 20
153.8172414621372
 30
0.0
 10
150.5228667310863
 20
152.833838307127
 30
0.0
 10
150.5414702589793
 20
152.7201500811143
 30
0.0
 10
150.4140016419347
 20
150.7765981809602
 30
0.0
 10
151.5818897818837
 20
152.7699317437168
 30
0.0
 10
152.4424752018226
 20
153.6256940267945
 30
0.0
 10
153.9038856707499
 20
154.4507949398263
 30
0.0
 10
155.4455669174378
 20
155.3044901642492
 30
0.0
 10
156.339225275853
 20
155.3659851592288
 30
0.0
 10
157.3748216618963
 20
155.2147453676543
 30
0.0
 10
158.911679771723
 20
154.9877134254046
 30
0.0
 10
159.8859534176746
 20
154.4390816074493
 30
0.0
 10
160.3965169054045
 20
152.7816450760939
 30
0.0
 10
160.9070803931344
 20
151.1219692311958
 30
0.0
 10
160.6328506116007
 20
150.2303779314354
 30
0.0
 10
159.9992971339115
 20
147.597634224801
 30
0.0
 10
159.7105979417943
 20
146.4014962832367
 30
0.0
 10
159.2947746424084
 20
144.9400858143094
 30
0.0
 10
158.7463150793409
 20
143.2092687007094
 30
0.0
 10
158.7463150793409
 20
143.2092687007094
 30
0.0
 10
153.9038856707499
 20
127.8027915271048
 30
0.0
 10
153.9038856707499
 20
127.8027915271048
 30
0.0
 10
153.9038856707499
 20
127.8027915271048
 30
0.0
 10
151.3882752878863
 20
127.8027915271048
 30
0.0
 10
151.3882752878863
 20
127.8027915271048
 30
0.0
 10
151.3882752878863
 20
127.8027915271048
 30
0.0
 10
155.6250565106276
 20
141.2751908193897
 30
0.0
 10
155.6250565106276
 20
141.2751908193897
 30
0.0
 10
156.5094131050963
 20
144.0936252951782
 30
0.0
 10
157.109893644309
 20
146.1506931664571
 30
0.0
 10
157.4220195011804
 20
147.4415712963654
 30
0.0
 10
157.8095929989511
 20
149.0530157726519
 30
0.0
 10
157.9656559273867
 20
149.5826995529385
 30
0.0
 10
157.7816877071116
 20
150.7529992613181
 30
0.0
 10
157.6111553680925
 20
151.8430281919372
 30
0.0
 10
157.0582171779396
 20
152.5547853887321
 30
0.0
 10
156.1170164704645
 20
152.5547853887321
 30
0.0
 10
155.1096698860365
 20
152.5547853887321
 30
0.0
 10
154.2962823053817
 20
152.4412694176073
 30
0.0
 10
153.156643967048
 20
151.2945686288697
 30
0.0
 10
152.0170056287143
 20
150.1476955852443
 30
0.0
 10
151.076149431015
 20
148.7930831468137
 30
0.0
 10
150.3337308641742
 20
147.2290087646991
 30
0.0
 10
149.5957909244188
 20
145.6683794803425
 30
0.0
 10
148.8530278478023
 20
143.6822806228776
 30
0.0
 10
148.0964843801539
 20
141.2751908193897
 30
0.0
 10
148.0964843801539
 20
141.2751908193897
 30
0.0
 10
143.8552245303272
 20
127.8027915271048
 30
0.0
 10
143.8552245303272
 20
127.8027915271048
 30
0.0
 10
143.8552245303272
 20
127.8027915271048
 30
0.0
 10
141.486030802177
 20
127.8027915271048
 30
0.0
 10
141.486030802177
 20
127.8027915271048
 30
0.0
 10
141.486030802177
 20
127.8027915271048
 30
0.0
 10
146.3329388378533
 20
143.2092687007094
 30
0.0
 10
146.3329388378533
 20
143.2092687007094
 30
0.0
 10
146.8483254624444
 20
144.8408669988801
 30
0.0
 10
147.2314203331297
 20
146.1837661049335
 30
0.0
 10
147.4867020769946
 20
147.224185627838
 30
0.0
 10
147.9169947869641
 20
149.0197705792876
 30
0.0
 10
148.0306830129768
 20
150.2400242051577
 30
0.0
 10
147.709255392159
 20
151.3157559800812
 30
0.0
 10
147.3874832615654
 20
152.3916600098926
 30
0.0
 10
146.8245542879144
 20
152.6683013598569
 30
0.0
 10
145.8840425999909
 20
152.6683013598569
 30
0.0
 10
145.0989048209514
 20
152.6683013598569
 30
0.0
 10
144.3282364524954
 20
152.3275811915945
 30
0.0
 10
143.4531816219731
 20
151.6538923250251
 30
0.0
 10
142.34627171234
 20
150.8074318058939
 30
0.0
 10
141.901854101563
 20
150.1097995099067
 30
0.0
 10
141.3578731655808
 20
149.289521733736
 30
0.0
 10
140.6299240093235
 20
148.192602607601
 30
0.0
 10
140.2850697237515
 20
147.455696197173
 30
0.0
 10
139.6652966370942
 20
145.8385673095858
 30
0.0
 10
139.0506911970739
 20
144.2214384219986
 30
0.0
 10
138.463991048893
 20
142.3252566160164
 30
0.0
 10
138.0571250036777
 20
141.0154304484394
 30
0.0
 10
138.0571250036777
 20
141.0154304484394
 30
0.0
 10
133.9009590684727
 20
127.8027915271048
 30
0.0
 10
133.9009590684727
 20
127.8027915271048
 30
0.0
 10
133.9009590684727
 20
127.8027915271048
 30
0.0
 10
131.4180771143097
 20
127.8027915271048
 30
0.0
 10
131.4180771143097
 20
127.8027915271048
 30
0.0
 10
131.4180771143097
 20
127.8027915271048
 30
0.0
 10
139.8926730891197
 20
154.8294111834263
 30
0.0
 10
139.8926730891197
 20
154.8294111834263
 30
0.0
  0
HATCH
  5
6A9
330
6A2
100
AcDbEntity
  8
LOGO
 62
   250
420
  2234388
100
AcDbHatch
 10
0.0
 20
0.0
 30
0.0
210
0.0
220
0.0
230
1.0
  2
SOLID
 70
     1
 71
     0
 91
        1
 92
        1
 93
        1
 72
     4
 94
        3
 73
     0
 74
     1
 95
      104
 96
      100
 40
0.0
 40
0.0
 40
0.0
 40
0.0
 40
1.0
 40
1.0
 40
1.0
 40
2.0
 40
2.0
 40
2.0
 40
3.0
 40
3.0
 40
3.0
 40
4.0
 40
4.0
 40
4.0
 40
5.0
 40
5.0
 40
5.0
 40
6.0
 40
6.0
 40
6.0
 40
7.0
 40
7.0
 40
7.0
 40
8.0
 40
8.0
 40
8.0
 40
9.0
 40
9.0
 40
9.0
 40
10.0
 40
10.0
 40
10.0
 40
11.0
 40
11.0
 40
11.0
 40
12.0
 40
12.0
 40
12.0
 40
13.0
 40
13.0
 40
13.0
 40
14.0
 40
14.0
 40
14.0
 40
15.0
 40
15.0
 40
15.0
 40
16.0
 40
16.0
 40
16.0
 40
17.0
 40
17.0
 40
17.0
 40
18.0
 40
18.0
 40
18.0
 40
19.0
 40
19.0
 40
19.0
 40
20.0
 40
20.0
 40
20.0
 40
21.0
 40
21.0
 40
21.0
 40
22.0
 40
22.0
 40
22.0
 40
23.0
 40
23.0
 40
23.0
 40
24.0
 40
24.0
 40
24.0
 40
25.0
 40
25.0
 40
25.0
 40
26.0
 40
26.0
 40
26.0
 40
27.0
 40
27.0
 40
27.0
 40
28.0
 40
28.0
 40
28.0
 40
29.0
 40
29.0
 40
29.0
 40
30.0
 40
30.0
 40
30.0
 40
31.0
 40
31.0
 40
31.0
 40
32.0
 40
32.0
 40
32.0
 40
33.0
 40
33.0
 40
33.0
 40
33.0
 10
139.8926730891197
 20
154.8294111834263
 10
139.8926730891197
 20
154.8294111834263
 10
142.0344903652445
 20
154.8294111834263
 10
142.0344903652445
 20
154.8294111834263
 10
142.0344903652445
 20
154.8294111834263
 10
140.9516961399171
 20
151.3157559800812
 10
140.9516961399171
 20
151.3157559800812
 10
141.8928968473923
 20
152.7887075264977
 10
142.7341897198865
 20
153.4484437471474
 10
143.8552245303272
 20
154.2926649527359
 10
144.9803934580775
 20
155.1296514530327
 10
146.3139908001845
 20
155.3044901642492
 10
147.241066606852
 20
155.3044901642492
 10
148.3855280820469
 20
155.3044901642492
 10
149.4969166187653
 20
155.0752189084569
 10
150.0784491203092
 20
153.8172414621372
 10
150.5228667310863
 20
152.833838307127
 10
150.5414702589793
 20
152.7201500811143
 10
150.4140016419347
 20
150.7765981809602
 10
151.5818897818837
 20
152.7699317437168
 10
152.4424752018226
 20
153.6256940267945
 10
153.9038856707499
 20
154.4507949398263
 10
155.4455669174378
 20
155.3044901642492
 10
156.339225275853
 20
155.3659851592288
 10
157.3748216618963
 20
155.2147453676543
 10
158.911679771723
 20
154.9877134254046
 10
159.8859534176746
 20
154.4390816074493
 10
160.3965169054045
 20
152.7816450760939
 10
160.9070803931344
 20
151.1219692311958
 10
160.6328506116007
 20
150.2303779314354
 10
159.9992971339115
 20
147.597634224801
 10
159.7105979417943
 20
146.4014962832367
 10
159.2947746424084
 20
144.9400858143094
 10
158.7463150793409
 20
143.2092687007094
 10
158.7463150793409
 20
143.2092687007094
 10
153.9038856707499
 20
127.8027915271048
 10
153.9038856707499
 20
127.8027915271048
 10
153.9038856707499
 20
127.8027915271048
 10
151.3882752878863
 20
127.8027915271048
 10
151.3882752878863
 20
127.8027915271048
 10
151.3882752878863
 20
127.8027915271048
 10
155.6250565106276
 20
141.2751908193897
 10
155.6250565106276
 20
141.2751908193897
 10
156.5094131050963
 20
144.0936252951782
 10
157.109893644309
 20
146.1506931664571
 10
157.4220195011804
 20
147.4415712963654
 10
157.8095929989511
 20
149.0530157726519
 10
157.9656559273867
 20
149.5826995529385
 10
157.7816877071116
 20
150.7529992613181
 10
157.6111553680925
 20
151.8430281919372
 10
157.0582171779396
 20
152.5547853887321
 10
156.1170164704645
 20
152.5547853887321
 10
155.1096698860365
 20
152.5547853887321
 10
154.2962823053817
 20
152.4412694176073
 10
153.156643967048
 20
151.2945686288697
 10
152.0170056287143
 20
150.1476955852443
 10
151.076149431015
 20
148.7930831468137
 10
150.3337308641742
 20
147.2290087646991
 10
149.5957909244188
 20
145.6683794803425
 10
148.8530278478023
 20
143.6822806228776
 10
148.0964843801539
 20
141.2751908193897
 10
148.0964843801539
 20
141.2751908193897
 10
143.8552245303272
 20
127.8027915271048
 10
143.8552245303272
 20
127.8027915271048
 10
143.8552245303272
 20
127.8027915271048
 10
141.486030802177
 20
127.8027915271048
 10
141.486030802177
 20
127.8027915271048
 10
141.486030802177
 20
127.8027915271048
 10
146.3329388378533
 20
143.2092687007094
 10
146.3329388378533
 20
143.2092687007094
 10
146.8483254624444
 20
144.8408669988801
 10
147.2314203331297
 20
146.1837661049335
 10
147.4867020769946
 20
147.224185627838
 10
147.9169947869641
 20
149.0197705792876
 10
148.0306830129768
 20
150.2400242051577
 10
147.709255392159
 20
151.3157559800812
 10
147.3874832615654
 20
152.3916600098926
 10
146.8245542879144
 20
152.6683013598569
 10
145.8840425999909
 20
152.6683013598569
 10
145.0989048209514
 20
152.6683013598569
 10
144.3282364524954
 20
152.3275811915945
 10
143.4531816219731
 20
151.6538923250251
 10
142.34627171234
 20
150.8074318058939
 10
141.901854101563
 20
150.1097995099067
 10
141.3578731655808
 20
149.289521733736
 10
140.6299240093235
 20
148.192602607601
 10
140.2850697237515
 20
147.455696197173
 10
139.6652966370942
 20
145.8385673095858
 10
139.0506911970739
 20
144.2214384219986
 10
138.463991048893
 20
142.3252566160164
 10
138.0571250036777
 20
141.0154304484394
 10
138.0571250036777
 20
141.0154304484394
 10
133.9009590684727
 20
127.8027915271048
 10
133.9009590684727
 20
127.8027915271048
 10
133.9009590684727
 20
127.8027915271048
 10
131.4180771143097
 20
127.8027915271048
 10
131.4180771143097
 20
127.8027915271048
 10
131.4180771143097
 20
127.8027915271048
 10
139.8926730891197
 20
154.8294111834263
 10
139.8926730891197
 20
154.8294111834263
 97
        0
 75
     2
 76
     1
 98
        0
  0
SPLINE
  5
6AA
330
6A2
100
AcDbEntity
  8
LOGO
370
     0
100
AcDbSpline
210
0.0
220
0.0
230
1.0
 70
    11
 71
     3
 72
    29
 73
    25
 74
     0
 42
0.000000001
 43
0.0000000001
 40
0.0
 40
0.0
 40
0.0
 40
0.0
 40
1.0
 40
1.0
 40
1.0
 40
2.0
 40
2.0
 40
2.0
 40
3.0
 40
3.0
 40
3.0
 40
4.0
 40
4.0
 40
4.0
 40
5.0
 40
5.0
 40
5.0
 40
6.0
 40
6.0
 40
6.0
 40
7.0
 40
7.0
 40
7.0
 40
8.0
 40
8.0
 40
8.0
 40
8.0
 10
101.6420971922469
 20
132.8388354296931
 30
0.0
 10
101.630039350094
 20
134.7164137077823
 30
0.0
 10
102.2236296937908
 20
138.0598810818841
 30
0.0
 10
103.7487744712405
 20
142.5378191476827
 30
0.0
 10
105.819967243327
 20
148.5896501242061
 30
0.0
 10
107.0602024361932
 20
150.8074318058939
 30
0.0
 10
108.1522984254671
 20
151.8833358357054
 30
0.0
 10
109.741177511439
 20
153.4532668840085
 30
0.0
 10
111.8740375333931
 20
153.5290590346837
 30
0.0
 10
112.5075910110823
 20
153.4532668840085
 30
0.0
 10
113.4012493694975
 20
153.3490526768302
 30
0.0
 10
114.6683563248758
 20
152.7580461564518
 30
0.0
 10
114.7493161221879
 20
150.7838328862519
 30
0.0
 10
114.8106388622796
 20
149.0909118479895
 30
0.0
 10
114.3186789024427
 20
145.9191825971221
 30
0.0
 10
112.6164561002338
 20
140.9489400617108
 30
0.0
 10
110.6444821435766
 20
135.1746117095912
 30
0.0
 10
109.4669477299053
 20
132.8960240524753
 30
0.0
 10
108.5212683953448
 20
131.9072809959403
 30
0.0
 10
106.7346406980658
 20
130.0538184021569
 30
0.0
 10
104.8222669326213
 20
130.2336525051225
 30
0.0
 10
104.5408024457958
 20
130.2336525051225
 30
0.0
 10
104.1721769856939
 20
130.2336525051225
 30
0.0
 10
101.6465758193322
 20
130.6305277668397
 30
0.0
 10
101.6420971922469
 20
132.8388354296931
 30
0.0
  0
SPLINE
  5
6AB
330
6A2
100
AcDbEntity
  8
LOGO
370
     0
100
AcDbSpline
210
0.0
220
0.0
230
1.0
 70
    11
 71
     3
 72
    32
 73
    28
 74
     0
 42
0.000000001
 43
0.0000000001
 40
0.0
 40
0.0
 40
0.0
 40
0.0
 40
1.0
 40
1.0
 40
1.0
 40
2.0
 40
2.0
 40
2.0
 40
3.0
 40
3.0
 40
3.0
 40
4.0
 40
4.0
 40
4.0
 40
5.0
 40
5.0
 40
5.0
 40
6.0
 40
6.0
 40
6.0
 40
7.0
 40
7.0
 40
7.0
 40
8.0
 40
8.0
 40
8.0
 40
9.0
 40
9.0
 40
9.0
 40
9.0
 10
106.2595617172429
 20
153.4105476718098
 30
0.0
 10
104.8222669326213
 20
151.5474388043041
 30
0.0
 10
103.7177685914188
 20
149.8758773721411
 30
0.0
 10
101.9232171692965
 20
144.6141795664062
 30
0.0
 10
100.2754269116635
 20
139.7999999594306
 30
0.0
 10
99.22777268346732
 20
136.3052927937542
 30
0.0
 10
99.06964269637689
 20
132.039572749846
 30
0.0
 10
98.94665270641765
 20
128.8673267343149
 30
0.0
 10
100.8807305877373
 20
127.8027915271048
 30
0.0
 10
103.7129454545577
 20
127.8027915271048
 30
0.0
 10
104.9352661390825
 20
127.8027915271048
 30
0.0
 10
108.0151835347002
 20
127.8827177950895
 30
0.0
 10
110.2045431598849
 20
130.5926316915021
 30
0.0
 10
111.7417457794874
 20
132.4984597712065
 30
0.0
 10
113.155269389579
 20
134.475256864725
 30
0.0
 10
115.0562743324223
 20
140.9489400617108
 30
0.0
 10
116.6361961642235
 20
146.3680788349845
 30
0.0
 10
117.7282921534974
 20
149.8639917848761
 30
0.0
 10
117.6480213757369
 20
151.8595646611754
 30
0.0
 10
117.6480213757369
 20
151.8595646611754
 30
0.0
 10
117.6480213757369
 20
151.8595646611754
 30
0.0
 10
117.6480213757369
 20
151.8595646611754
 30
0.0
 10
117.13229024137
 20
155.18150017429
 30
0.0
 10
114.7162431837115
 20
155.886194920681
 30
0.0
 10
113.3351034925446
 20
155.886194920681
 30
0.0
 10
111.9829026225447
 20
155.886194920681
 30
0.0
 10
108.3414342923792
 20
156.1251124501957
 30
0.0
 10
106.2595617172429
 20
153.4105476718098
 30
0.0
  0
HATCH
  5
6AC
330
6A2
100
AcDbEntity
  8
LOGO
 62
   250
420
  2234388
100
AcDbHatch
 10
0.0
 20
0.0
 30
0.0
210
0.0
220
0.0
230
1.0
  2
SOLID
 70
     1
 71
     0
 91
        2
 92
        1
 93
        1
 72
     4
 94
        3
 73
     0
 74
     1
 95
       29
 96
       25
 40
0.0
 40
0.0
 40
0.0
 40
0.0
 40
1.0
 40
1.0
 40
1.0
 40
2.0
 40
2.0
 40
2.0
 40
3.0
 40
3.0
 40
3.0
 40
4.0
 40
4.0
 40
4.0
 40
5.0
 40
5.0
 40
5.0
 40
6.0
 40
6.0
 40
6.0
 40
7.0
 40
7.0
 40
7.0
 40
8.0
 40
8.0
 40
8.0
 40
8.0
 10
101.6420971922469
 20
132.8388354296931
 10
101.630039350094
 20
134.7164137077823
 10
102.2236296937908
 20
138.0598810818841
 10
103.7487744712405
 20
142.5378191476827
 10
105.819967243327
 20
148.5896501242061
 10
107.0602024361932
 20
150.8074318058939
 10
108.1522984254671
 20
151.8833358357054
 10
109.741177511439
 20
153.4532668840085
 10
111.8740375333931
 20
153.5290590346837
 10
112.5075910110823
 20
153.4532668840085
 10
113.4012493694975
 20
153.3490526768302
 10
114.6683563248758
 20
152.7580461564518
 10
114.7493161221879
 20
150.7838328862519
 10
114.8106388622796
 20
149.0909118479895
 10
114.3186789024427
 20
145.9191825971221
 10
112.6164561002338
 20
140.9489400617108
 10
110.6444821435766
 20
135.1746117095912
 10
109.4669477299053
 20
132.8960240524753
 10
108.5212683953448
 20
131.9072809959403
 10
106.7346406980658
 20
130.0538184021569
 10
104.8222669326213
 20
130.2336525051225
 10
104.5408024457958
 20
130.2336525051225
 10
104.1721769856939
 20
130.2336525051225
 10
101.6465758193322
 20
130.6305277668397
 10
101.6420971922469
 20
132.8388354296931
 97
        0
 92
        1
 93
        1
 72
     4
 94
        3
 73
     0
 74
     1
 95
       32
 96
       28
 40
0.0
 40
0.0
 40
0.0
 40
0.0
 40
1.0
 40
1.0
 40
1.0
 40
2.0
 40
2.0
 40
2.0
 40
3.0
 40
3.0
 40
3.0
 40
4.0
 40
4.0
 40
4.0
 40
5.0
 40
5.0
 40
5.0
 40
6.0
 40
6.0
 40
6.0
 40
7.0
 40
7.0
 40
7.0
 40
8.0
 40
8.0
 40
8.0
 40
9.0
 40
9.0
 40
9.0
 40
9.0
 10
106.2595617172429
 20
153.4105476718098
 10
104.8222669326213
 20
151.5474388043041
 10
103.7177685914188
 20
149.8758773721411
 10
101.9232171692965
 20
144.6141795664062
 10
100.2754269116635
 20
139.7999999594306
 10
99.22777268346732
 20
136.3052927937542
 10
99.06964269637689
 20
132.039572749846
 10
98.94665270641765
 20
128.8673267343149
 10
100.8807305877373
 20
127.8027915271048
 10
103.7129454545577
 20
127.8027915271048
 10
104.9352661390825
 20
127.8027915271048
 10
108.0151835347002
 20
127.8827177950895
 10
110.2045431598849
 20
130.5926316915021
 10
111.7417457794874
 20
132.4984597712065
 10
113.155269389579
 20
134.475256864725
 10
115.0562743324223
 20
140.9489400617108
 10
116.6361961642235
 20
146.3680788349845
 10
117.7282921534974
 20
149.8639917848761
 10
117.6480213757369
 20
151.8595646611754
 10
117.6480213757369
 20
151.8595646611754
 10
117.6480213757369
 20
151.8595646611754
 10
117.6480213757369
 20
151.8595646611754
 10
117.13229024137
 20
155.18150017429
 10
114.7162431837115
 20
155.886194920681
 10
113.3351034925446
 20
155.886194920681
 10
111.9829026225447
 20
155.886194920681
 10
108.3414342923792
 20
156.1251124501957
 10
106.2595617172429
 20
153.4105476718098
 97
        0
 75
     2
 76
     1
 98
        0
  0
ENDBLK
  5
6AD
330
6A2
100
AcDbEntity
  8
0
100
AcDbBlockEnd
  0
BLOCK
  5
2422
330
2421
100
AcDbEntity
  8
0
100
AcDbBlockBegin
  2
_ARROW_FILLED
 70
     0
 10
0.0
 20
0.0
 30
0.0
  3
_ARROW_FILLED
  1
_ARROW_FILLED
  0
SOLID
  5
2423
330
2421
100
AcDbEntity
  8
0
  6
ByBlock
 62
     0
100
AcDbTrace
 10
0.0
 20
0.0
 30
0.0
 11
-1.0
 21
0.25
 31
0.0
 12
-1.0
 22
-0.25
 32
0.0
 13
-1.0
 23
-0.25
 33
0.0
  0
ENDBLK
  5
2424
330
2421
100
AcDbEntity
  8
0
  6
ByBlock
 62
     0
100
AcDbBlockEnd
  0
BLOCK
  5
245F
330
245E
100
AcDbEntity
  8
0
  6
Continuous
 62
     2
100
AcDbBlockBegin
  2
*D6
 70
     1
 10
0.0
 20
0.0
 30
0.0
  3
*D6
  1
*D10
  0
LINE
  5
2460
330
245E
100
AcDbEntity
  8
DIM
  6
Continuous
 62
     0
370
    -2
100
AcDbLine
 10
407.675834867475
 20
498.9510644604711
 30
0.0
 11
407.675834867475
 21
490.8601891465112
 31
0.0
  0
LINE
  5
2461
330
245E
100
AcDbEntity
  8
DIM
  6
Continuous
 62
     0
370
    -2
100
AcDbLine
 10
482.1099639567763
 20
568.1398354338596
 30
0.0
 11
482.1099639567763
 21
490.8601891465112
 31
0.0
  0
LINE
  5
2462
330
245E
100
AcDbEntity
  8
DIM
  6
Continuous
 62
     0
370
    -2
100
AcDbLine
 10
410.675834867475
 20
490.8601891465112
 30
0.0
 11
479.1099639567763
 21
490.8601891465112
 31
0.0
  0
INSERT
  5
2463
330
245E
100
AcDbEntity
  8
DIM
 62
     0
370
    -2
100
AcDbBlockReference
  2
_DOT
 10
407.675834867475
 20
490.8601891465112
 30
0.0
 41
3.0
 42
3.0
 43
3.0
 50
180.0
  0
INSERT
  5
2464
330
245E
100
AcDbEntity
  8
DIM
 62
     0
370
    -2
100
AcDbBlockReference
  2
_DOT
 10
482.1099639567763
 20
490.8601891465112
 30
0.0
 41
3.0
 42
3.0
 43
3.0
  0
MTEXT
  5
2465
330
245E
100
AcDbEntity
  8
DIM
  6
Continuous
 62
     0
100
AcDbMText
 10
445.6425612382749
 20
501.8601891465112
 30
0.0
 40
12.0
 41
0.0
 46
0.0
 71
     5
 72
     1
  1
\A1;74.5-84.5
  7
ＭＳ ゴシック
 73
     1
 44
1.0
  0
POINT
  5
2466
330
245E
100
AcDbEntity
  8
Defpoints
 62
     0
100
AcDbPoint
 10
407.675834867475
 20
503.9510644604711
 30
0.0
  0
POINT
  5
2467
330
245E
100
AcDbEntity
  8
Defpoints
 62
     0
100
AcDbPoint
 10
482.1099639567763
 20
573.1398354338596
 30
0.0
  0
POINT
  5
2468
330
245E
100
AcDbEntity
  8
Defpoints
 62
     0
100
AcDbPoint
 10
482.1099639567763
 20
490.8601891465112
 30
0.0
  0
ENDBLK
  5
2469
330
245E
100
AcDbEntity
  8
0
  6
ByBlock
 62
     0
100
AcDbBlockEnd
  0
BLOCK
  5
246C
330
246B
100
AcDbEntity
  8
0
  6
Continuous
 62
     2
100
AcDbBlockBegin
  2
*D7
 70
     1
 10
0.0
 20
0.0
 30
0.0
  3
*D7
  1
*D11
  0
LINE
  5
246D
330
246B
100
AcDbEntity
  8
DIM
  6
Continuous
 62
     0
370
    -2
100
AcDbLine
 10
418.1665510478463
 20
620.1027001810724
 30
0.0
 11
418.1665510478463
 21
709.272039363181
 31
0.0
  0
LINE
  5
246E
330
246B
100
AcDbEntity
  8
DIM
  6
Continuous
 62
     0
370
    -2
100
AcDbLine
 10
397.1851186871038
 20
620.1027001810724
 30
0.0
 11
397.1851186871038
 21
709.272039363181
 31
0.0
  0
LINE
  5
246F
330
246B
100
AcDbEntity
  8
DIM
  6
Continuous
 62
     0
370
    -2
100
AcDbLine
 10
418.1665510478463
 20
709.272039363181
 30
0.0
 11
482.0863617370471
 21
709.272039363181
 31
0.0
  0
LINE
  5
2470
330
246B
100
AcDbEntity
  8
DIM
  6
Continuous
 62
     0
370
    -2
100
AcDbLine
 10
421.1665510478463
 20
709.272039363181
 30
0.0
 11
424.1665510478463
 21
709.272039363181
 31
0.0
  0
LINE
  5
2471
330
246B
100
AcDbEntity
  8
DIM
  6
Continuous
 62
     0
370
    -2
100
AcDbLine
 10
394.1851186871038
 20
709.272039363181
 30
0.0
 11
391.1851186871038
 21
709.272039363181
 31
0.0
  0
INSERT
  5
2472
330
246B
100
AcDbEntity
  8
DIM
 62
     0
370
    -2
100
AcDbBlockReference
  2
_DOT
 10
418.1665510478463
 20
709.272039363181
 30
0.0
 41
3.0
 42
3.0
 43
3.0
 50
180.0
  0
INSERT
  5
2473
330
246B
100
AcDbEntity
  8
DIM
 62
     0
370
    -2
100
AcDbBlockReference
  2
_DOT
 10
397.1851186871038
 20
709.272039363181
 30
0.0
 41
3.0
 42
3.0
 43
3.0
  0
MTEXT
  5
2474
330
246B
100
AcDbEntity
  8
DIM
  6
Continuous
 62
     0
100
AcDbMText
 10
462.224361737047
 20
721.550039363181
 30
0.0
 40
12.0
 41
0.0
 46
0.0
 71
     5
 72
     1
  1
\A1;G1/2
  7
ＭＳ ゴシック
 73
     1
 44
1.0
  0
POINT
  5
2475
330
246B
100
AcDbEntity
  8
Defpoints
 62
     0
100
AcDbPoint
 10
418.1665510478463
 20
615.1027001810724
 30
0.0
  0
POINT
  5
27A9
330
246B
100
AcDbEntity
  8
Defpoints
 62
     0
100
AcDbPoint
 10
397.1851186871038
 20
615.1027001810724
 30
0.0
  0
POINT
  5
28B5
330
246B
100
AcDbEntity
  8
Defpoints
 62
     0
100
AcDbPoint
 10
397.1851186871038
 20
709.272039363181
 30
0.0
  0
ENDBLK
  5
2476
330
246B
100
AcDbEntity
  8
0
  6
ByBlock
 62
     0
100
AcDbBlockEnd
  0
BLOCK
  5
2479
330
2478
100
AcDbEntity
  8
0
  6
Continuous
 62
     2
100
AcDbBlockBegin
  2
*D8
 70
     1
 10
0.0
 20
0.0
 30
0.0
  3
*D8
  1
*D12
  0
LINE
  5
247A
330
2478
100
AcDbEntity
  8
DIM
  6
Continuous
 62
     0
370
    -2
100
AcDbLine
 10
407.675834867475
 20
606.3560158309398
 30
0.0
 11
407.675834867475
 21
490.8601891465112
 31
0.0
  0
LINE
  5
247B
330
2478
100
AcDbEntity
  8
DIM
  6
Continuous
 62
     0
370
    -2
100
AcDbLine
 10
381.199265459871
 20
549.406413708924
 30
0.0
 11
381.199265459871
 21
490.8601891465112
 31
0.0
  0
LINE
  5
247C
330
2478
100
AcDbEntity
  8
DIM
  6
Continuous
 62
     0
370
    -2
100
AcDbLine
 10
404.675834867475
 20
490.8601891465112
 30
0.0
 11
384.199265459871
 21
490.8601891465112
 31
0.0
  0
INSERT
  5
247D
330
2478
100
AcDbEntity
  8
DIM
 62
     0
370
    -2
100
AcDbBlockReference
  2
_DOT
 10
407.675834867475
 20
490.8601891465112
 30
0.0
 41
3.0
 42
3.0
 43
3.0
  0
INSERT
  5
247E
330
2478
100
AcDbEntity
  8
DIM
 62
     0
370
    -2
100
AcDbBlockReference
  2
_DOT
 10
381.199265459871
 20
490.8601891465112
 30
0.0
 41
3.0
 42
3.0
 43
3.0
 50
180.0
  0
MTEXT
  5
247F
330
2478
100
AcDbEntity
  8
DIM
  6
Continuous
 62
     0
100
AcDbMText
 10
394.8227891521067
 20
479.8601891465112
 30
0.0
 40
12.0
 41
0.0
 46
0.0
 71
     5
 72
     1
  1
\A1;26.5
  7
ＭＳ ゴシック
 73
     1
 44
1.0
  0
POINT
  5
2480
330
2478
100
AcDbEntity
  8
Defpoints
 62
     0
100
AcDbPoint
 10
407.675834867475
 20
611.3560158309398
 30
0.0
  0
POINT
  5
2481
330
2478
100
AcDbEntity
  8
Defpoints
 62
     0
100
AcDbPoint
 10
381.199265459871
 20
554.406413708924
 30
0.0
  0
POINT
  5
2482
330
2478
100
AcDbEntity
  8
Defpoints
 62
     0
100
AcDbPoint
 10
381.199265459871
 20
490.8601891465112
 30
0.0
  0
ENDBLK
  5
2483
330
2478
100
AcDbEntity
  8
0
  6
ByBlock
 62
     0
100
AcDbBlockEnd
  0
BLOCK
  5
2486
330
2485
100
AcDbEntity
  8
0
  6
Continuous
 62
     2
100
AcDbBlockBegin
  2
*D9
 70
     1
 10
0.0
 20
0.0
 30
0.0
  3
*D9
  1
*D13
  0
LINE
  5
2487
330
2485
100
AcDbEntity
  8
DIM
  6
Continuous
 62
     0
370
    -2
100
AcDbLine
 10
129.2716349770012
 20
631.754292826888
 30
0.0
 11
129.2716349770012
 21
704.2764602296709
 31
0.0
  0
LINE
  5
2488
330
2485
100
AcDbEntity
  8
DIM
  6
Continuous
 62
     0
370
    -2
100
AcDbLine
 10
209.2009011131638
 20
631.754292826888
 30
0.0
 11
209.2009011131638
 21
704.2764602296709
 31
0.0
  0
LINE
  5
2489
330
2485
100
AcDbEntity
  8
DIM
  6
Continuous
 62
     0
370
    -2
100
AcDbLine
 10
132.2716349770012
 20
704.2764602296709
 30
0.0
 11
206.2009011131638
 21
704.2764602296709
 31
0.0
  0
INSERT
  5
248A
330
2485
100
AcDbEntity
  8
DIM
 62
     0
370
    -2
100
AcDbBlockReference
  2
_DOT
 10
129.2716349770012
 20
704.2764602296709
 30
0.0
 41
3.0
 42
3.0
 43
3.0
 50
180.0
  0
INSERT
  5
248B
330
2485
100
AcDbEntity
  8
DIM
 62
     0
370
    -2
100
AcDbBlockReference
  2
_DOT
 10
209.2009011131638
 20
704.2764602296709
 30
0.0
 41
3.0
 42
3.0
 43
3.0
  0
MTEXT
  5
248C
330
2485
100
AcDbEntity
  8
DIM
  6
Continuous
 62
     0
100
AcDbMText
 10
169.2362680450824
 20
715.2764602296709
 30
0.0
 40
12.0
 41
0.0
 46
0.0
 71
     5
 72
     1
  1
\A1;80
  7
ＭＳ ゴシック
 73
     1
 44
1.0
  0
POINT
  5
248D
330
2485
100
AcDbEntity
  8
Defpoints
 62
     0
100
AcDbPoint
 10
129.2716349770012
 20
626.754292826888
 30
0.0
  0
POINT
  5
27AD
330
2485
100
AcDbEntity
  8
Defpoints
 62
     0
100
AcDbPoint
 10
209.2009011131638
 20
626.754292826888
 30
0.0
  0
POINT
  5
27AE
330
2485
100
AcDbEntity
  8
Defpoints
 62
     0
100
AcDbPoint
 10
209.2009011131638
 20
704.2764602296709
 30
0.0
  0
ENDBLK
  5
248E
330
2485
100
AcDbEntity
  8
0
  6
ByBlock
 62
     0
100
AcDbBlockEnd
  0
BLOCK
  5
24BA
330
24B9
100
AcDbEntity
  8
0
  6
Continuous
 62
     2
100
AcDbBlockBegin
  2
*D10
 70
     1
 10
0.0
 20
0.0
 30
0.0
  3
*D10
  1
*D15
  0
LINE
  5
24BB
330
24B9
100
AcDbEntity
  8
DIM
  6
Continuous
 62
     0
370
    -2
100
AcDbLine
 10
494.8799215298666
 20
678.17898012357
 30
0.0
 11
494.8799215298666
 21
709.272039363181
 31
0.0
  0
LINE
  5
24BC
330
24B9
100
AcDbEntity
  8
DIM
  6
Continuous
 62
     0
370
    -2
100
AcDbLine
 10
507.8684272769931
 20
678.17898012357
 30
0.0
 11
507.8684272769931
 21
709.272039363181
 31
0.0
  0
LINE
  5
24BD
330
24B9
100
AcDbEntity
  8
DIM
  6
Continuous
 62
     0
370
    -2
100
AcDbLine
 10
497.8799215298666
 20
709.272039363181
 30
0.0
 11
504.8684272769931
 21
709.272039363181
 31
0.0
  0
INSERT
  5
24BE
330
24B9
100
AcDbEntity
  8
DIM
 62
     0
370
    -2
100
AcDbBlockReference
  2
_DOT
 10
494.8799215298666
 20
709.272039363181
 30
0.0
 41
3.0
 42
3.0
 43
3.0
 50
180.0
  0
INSERT
  5
24BF
330
24B9
100
AcDbEntity
  8
DIM
 62
     0
370
    -2
100
AcDbBlockReference
  2
_DOT
 10
507.8684272769931
 20
709.272039363181
 30
0.0
 41
3.0
 42
3.0
 43
3.0
  0
MTEXT
  5
24C0
330
24B9
100
AcDbEntity
  8
DIM
  6
Continuous
 62
     0
100
AcDbMText
 10
501.4403820618521
 20
720.272039363181
 30
0.0
 40
12.0
 41
0.0
 46
0.0
 71
     5
 72
     1
  1
\A1;13
  7
ＭＳ ゴシック
 73
     1
 44
1.0
  0
POINT
  5
24C1
330
24B9
100
AcDbEntity
  8
Defpoints
 62
     0
100
AcDbPoint
 10
494.8799215298666
 20
673.17898012357
 30
0.0
  0
POINT
  5
24C2
330
24B9
100
AcDbEntity
  8
Defpoints
 62
     0
100
AcDbPoint
 10
507.8684272769931
 20
673.17898012357
 30
0.0
  0
POINT
  5
24C3
330
24B9
100
AcDbEntity
  8
Defpoints
 62
     0
100
AcDbPoint
 10
507.8684272769931
 20
709.272039363181
 30
0.0
  0
ENDBLK
  5
24C4
330
24B9
100
AcDbEntity
  8
0
  6
ByBlock
 62
     0
100
AcDbBlockEnd
  0
BLOCK
  5
24C7
330
24C6
100
AcDbEntity
  8
0
  6
Continuous
 62
     2
100
AcDbBlockBegin
  2
*D11
 70
     1
 10
0.0
 20
0.0
 30
0.0
  3
*D11
  1
*D16
  0
LINE
  5
24C8
330
24C6
100
AcDbEntity
  8
DIM
  6
Continuous
 62
     0
370
    -2
100
AcDbLine
 10
514.6168799737218
 20
669.9318536867884
 30
0.0
 11
549.010847340531
 21
669.9318536867884
 31
0.0
  0
LINE
  5
24C9
330
24C6
100
AcDbEntity
  8
DIM
  6
Continuous
 62
     0
370
    -2
100
AcDbLine
 10
534.3181867684475
 20
638.8317010652456
 30
0.0
 11
549.010847340531
 21
638.8317010652456
 31
0.0
  0
LINE
  5
24CA
330
24C6
100
AcDbEntity
  8
DIM
  6
Continuous
 62
     0
370
    -2
100
AcDbLine
 10
549.010847340531
 20
666.9318536867884
 30
0.0
 11
549.010847340531
 21
641.8317010652456
 31
0.0
  0
INSERT
  5
24CB
330
24C6
100
AcDbEntity
  8
DIM
 62
     0
370
    -2
100
AcDbBlockReference
  2
_DOT
 10
549.010847340531
 20
669.9318536867884
 30
0.0
 41
3.0
 42
3.0
 43
3.0
 50
90.0
  0
INSERT
  5
24CC
330
24C6
100
AcDbEntity
  8
DIM
 62
     0
370
    -2
100
AcDbBlockReference
  2
_DOT
 10
549.010847340531
 20
638.8317010652456
 30
0.0
 41
3.0
 42
3.0
 43
3.0
 50
270.0
  0
MTEXT
  5
24CD
330
24C6
100
AcDbEntity
  8
DIM
  6
Continuous
 62
     0
100
AcDbMText
 10
538.010847340531
 20
654.381777376017
 30
0.0
 40
12.0
 41
0.0
 46
0.0
 71
     5
 72
     1
  1
\A1;31
  7
ＭＳ ゴシック
 11
0.0
 21
1.0
 31
0.0
 73
     1
 44
1.0
  0
POINT
  5
24CE
330
24C6
100
AcDbEntity
  8
Defpoints
 62
     0
100
AcDbPoint
 10
509.6168799737218
 20
669.9318536867884
 30
0.0
  0
POINT
  5
24CF
330
24C6
100
AcDbEntity
  8
Defpoints
 62
     0
100
AcDbPoint
 10
529.3181867684475
 20
638.8317010652456
 30
0.0
  0
POINT
  5
24D0
330
24C6
100
AcDbEntity
  8
Defpoints
 62
     0
100
AcDbPoint
 10
549.010847340531
 20
638.8317010652456
 30
0.0
  0
ENDBLK
  5
24D1
330
24C6
100
AcDbEntity
  8
0
  6
ByBlock
 62
     0
100
AcDbBlockEnd
  0
BLOCK
  5
24E6
330
24E5
100
AcDbEntity
  8
0
  6
Continuous
 62
     2
100
AcDbBlockBegin
  2
*D12
 70
     1
 10
0.0
 20
0.0
 30
0.0
  3
*D12
  1
*D18
  0
LINE
  5
24E7
330
24E5
100
AcDbEntity
  8
DIM
  6
Continuous
 62
     0
370
    -2
100
AcDbLine
 10
526.0710603316656
 20
565.6443084036099
 30
0.0
 11
526.0710603316656
 21
526.8155649025578
 31
0.0
  0
LINE
  5
24E8
330
24E5
100
AcDbEntity
  8
DIM
  6
Continuous
 62
     0
370
    -2
100
AcDbLine
 10
482.1099639567763
 20
568.1398354338596
 30
0.0
 11
482.1099639567763
 21
526.8155649025578
 31
0.0
  0
LINE
  5
24E9
330
24E5
100
AcDbEntity
  8
DIM
  6
Continuous
 62
     0
370
    -2
100
AcDbLine
 10
523.0710603316656
 20
526.8155649025578
 30
0.0
 11
485.1099639567763
 21
526.8155649025578
 31
0.0
  0
INSERT
  5
24EA
330
24E5
100
AcDbEntity
  8
DIM
 62
     0
370
    -2
100
AcDbBlockReference
  2
_DOT
 10
526.0710603316656
 20
526.8155649025578
 30
0.0
 41
3.0
 42
3.0
 43
3.0
  0
INSERT
  5
24EB
330
24E5
100
AcDbEntity
  8
DIM
 62
     0
370
    -2
100
AcDbBlockReference
  2
_DOT
 10
482.1099639567763
 20
526.8155649025578
 30
0.0
 41
3.0
 42
3.0
 43
3.0
 50
180.0
  0
MTEXT
  5
24EC
330
24E5
100
AcDbEntity
  8
DIM
  6
Continuous
 62
     0
100
AcDbMText
 10
504.090512144221
 20
537.8155649025578
 30
0.0
 40
12.0
 41
0.0
 46
0.0
 71
     5
 72
     1
  1
\A1;44
  7
ＭＳ ゴシック
 73
     1
 44
1.0
  0
POINT
  5
24ED
330
24E5
100
AcDbEntity
  8
Defpoints
 62
     0
100
AcDbPoint
 10
526.0710603316656
 20
570.6443084036099
 30
0.0
  0
POINT
  5
27E6
330
24E5
100
AcDbEntity
  8
Defpoints
 62
     0
100
AcDbPoint
 10
482.1099639567763
 20
573.1398354338596
 30
0.0
  0
POINT
  5
27E7
330
24E5
100
AcDbEntity
  8
Defpoints
 62
     0
100
AcDbPoint
 10
482.1099639567763
 20
526.8155649025578
 30
0.0
  0
ENDBLK
  5
24EE
330
24E5
100
AcDbEntity
  8
0
  6
ByBlock
 62
     0
100
AcDbBlockEnd
  0
BLOCK
  5
24F1
330
24F0
100
AcDbEntity
  8
0
  6
Continuous
 62
     2
100
AcDbBlockBegin
  2
*D13
 70
     1
 10
0.0
 20
0.0
 30
0.0
  3
*D13
  1
*D19
  0
LINE
  5
24F2
330
24F0
100
AcDbEntity
  8
DIM
  6
Continuous
 62
     0
370
    -2
100
AcDbLine
 10
136.7650036772666
 20
597.6137523472969
 30
0.0
 11
136.7650036772666
 21
503.3266170687823
 31
0.0
  0
LINE
  5
24F3
330
24F0
100
AcDbEntity
  8
DIM
  6
Continuous
 62
     0
370
    -2
100
AcDbLine
 10
201.7075324128987
 20
597.6137523472969
 30
0.0
 11
201.7075324128987
 21
503.3266170687823
 31
0.0
  0
LINE
  5
24F4
330
24F0
100
AcDbEntity
  8
DIM
  6
Continuous
 62
     0
370
    -2
100
AcDbLine
 10
139.7650036772666
 20
503.3266170687823
 30
0.0
 11
198.7075324128987
 21
503.3266170687823
 31
0.0
  0
INSERT
  5
24F5
330
24F0
100
AcDbEntity
  8
DIM
 62
     0
370
    -2
100
AcDbBlockReference
  2
_DOT
 10
136.7650036772666
 20
503.3266170687823
 30
0.0
 41
3.0
 42
3.0
 43
3.0
 50
180.0
  0
INSERT
  5
24F6
330
24F0
100
AcDbEntity
  8
DIM
 62
     0
370
    -2
100
AcDbBlockReference
  2
_DOT
 10
201.7075324128987
 20
503.3266170687823
 30
0.0
 41
3.0
 42
3.0
 43
3.0
  0
MTEXT
  5
24F7
330
24F0
100
AcDbEntity
  8
DIM
  6
Continuous
 62
     0
100
AcDbMText
 10
169.2362680450826
 20
514.7766170687823
 30
0.0
 40
12.0
 41
0.0
 46
0.0
 71
     5
 72
     1
  1
\A1;Ø65
  7
ＭＳ ゴシック
 73
     1
 44
1.0
  0
POINT
  5
24F8
330
24F0
100
AcDbEntity
  8
Defpoints
 62
     0
100
AcDbPoint
 10
136.7650036772666
 20
602.6137523472969
 30
0.0
  0
POINT
  5
27E9
330
24F0
100
AcDbEntity
  8
Defpoints
 62
     0
100
AcDbPoint
 10
201.7075324128987
 20
602.6137523472969
 30
0.0
  0
POINT
  5
27EA
330
24F0
100
AcDbEntity
  8
Defpoints
 62
     0
100
AcDbPoint
 10
201.7075324128987
 20
503.3266170687823
 30
0.0
  0
ENDBLK
  5
24F9
330
24F0
100
AcDbEntity
  8
0
  6
ByBlock
 62
     0
100
AcDbBlockEnd
  0
BLOCK
  5
250A
330
2509
100
AcDbEntity
  8
0
  6
Continuous
 62
     2
100
AcDbBlockBegin
  2
*D14
 70
     1
 10
0.0
 20
0.0
 30
0.0
  3
*D14
  1
*D21
  0
LINE
  5
250B
330
2509
100
AcDbEntity
  8
DIM
  6
Continuous
 62
     0
370
    -2
100
AcDbLine
 10
482.1099639567763
 20
568.1398354338596
 30
0.0
 11
482.1099639567763
 21
490.8376692350068
 31
0.0
  0
LINE
  5
250C
330
2509
100
AcDbEntity
  8
DIM
  6
Continuous
 62
     0
370
    -2
100
AcDbLine
 10
696.1205740363521
 20
495.0876692350068
 30
0.0
 11
696.1205740363521
 21
490.8376692350068
 31
0.0
  0
LINE
  5
250D
330
2509
100
AcDbEntity
  8
DIM
  6
Continuous
 62
     0
370
    -2
100
AcDbLine
 10
485.1099639567763
 20
490.8376692350068
 30
0.0
 11
693.1205740363521
 21
490.8376692350068
 31
0.0
  0
INSERT
  5
250E
330
2509
100
AcDbEntity
  8
DIM
 62
     0
370
    -2
100
AcDbBlockReference
  2
_DOT
 10
482.1099639567763
 20
490.8376692350068
 30
0.0
 41
3.0
 42
3.0
 43
3.0
 50
180.0
  0
INSERT
  5
250F
330
2509
100
AcDbEntity
  8
DIM
 62
     0
370
    -2
100
AcDbBlockReference
  2
_DOT
 10
696.1205740363521
 20
490.8376692350068
 30
0.0
 41
3.0
 42
3.0
 43
3.0
  0
MTEXT
  5
2510
330
2509
100
AcDbEntity
  8
DIM
  6
Continuous
 62
     0
100
AcDbMText
 10
589.115268996564
 20
501.8376692350068
 30
0.0
 40
12.0
 41
0.0
 46
0.0
 71
     5
 72
     1
  1
\A1;214
  7
ＭＳ ゴシック
 73
     1
 44
1.0
  0
POINT
  5
2511
330
2509
100
AcDbEntity
  8
Defpoints
 62
     0
100
AcDbPoint
 10
482.1099639567763
 20
573.1398354338596
 30
0.0
  0
POINT
  5
27F6
330
2509
100
AcDbEntity
  8
Defpoints
 62
     0
100
AcDbPoint
 10
696.1205740363521
 20
490.0876692350068
 30
0.0
  0
POINT
  5
27F7
330
2509
100
AcDbEntity
  8
Defpoints
 62
     0
100
AcDbPoint
 10
696.1205740363521
 20
490.8376692350068
 30
0.0
  0
ENDBLK
  5
2512
330
2509
100
AcDbEntity
  8
0
  6
ByBlock
 62
     0
100
AcDbBlockEnd
  0
BLOCK
  5
2515
330
2514
100
AcDbEntity
  8
0
  6
Continuous
 62
     2
100
AcDbBlockBegin
  2
*D15
 70
     1
 10
0.0
 20
0.0
 30
0.0
  3
*D15
  1
*D22
  0
LINE
  5
2516
330
2514
100
AcDbEntity
  8
DIM
  6
Continuous
 62
     0
370
    -2
100
AcDbLine
 10
482.1099639567763
 20
568.1398354338596
 30
0.0
 11
482.1099639567763
 21
465.859773567456
 31
0.0
  0
LINE
  5
2517
330
2514
100
AcDbEntity
  8
DIM
  6
Continuous
 62
     0
370
    -2
100
AcDbLine
 10
708.1099639567765
 20
535.1690131784197
 30
0.0
 11
708.1099639567765
 21
465.859773567456
 31
0.0
  0
LINE
  5
2518
330
2514
100
AcDbEntity
  8
DIM
  6
Continuous
 62
     0
370
    -2
100
AcDbLine
 10
485.1099639567763
 20
465.859773567456
 30
0.0
 11
705.1099639567765
 21
465.859773567456
 31
0.0
  0
INSERT
  5
2519
330
2514
100
AcDbEntity
  8
DIM
 62
     0
370
    -2
100
AcDbBlockReference
  2
_DOT
 10
482.1099639567763
 20
465.859773567456
 30
0.0
 41
3.0
 42
3.0
 43
3.0
 50
180.0
  0
INSERT
  5
251A
330
2514
100
AcDbEntity
  8
DIM
 62
     0
370
    -2
100
AcDbBlockReference
  2
_DOT
 10
708.1099639567765
 20
465.859773567456
 30
0.0
 41
3.0
 42
3.0
 43
3.0
  0
MTEXT
  5
251B
330
2514
100
AcDbEntity
  8
DIM
  6
Continuous
 62
     0
100
AcDbMText
 10
595.1099639567763
 20
476.859773567456
 30
0.0
 40
12.0
 41
0.0
 46
0.0
 71
     5
 72
     1
  1
\A1;226
  7
ＭＳ ゴシック
 73
     1
 44
1.0
  0
POINT
  5
251C
330
2514
100
AcDbEntity
  8
Defpoints
 62
     0
100
AcDbPoint
 10
482.1099639567763
 20
573.1398354338596
 30
0.0
  0
POINT
  5
27F9
330
2514
100
AcDbEntity
  8
Defpoints
 62
     0
100
AcDbPoint
 10
708.1099639567765
 20
540.1690131784197
 30
0.0
  0
POINT
  5
27FA
330
2514
100
AcDbEntity
  8
Defpoints
 62
     0
100
AcDbPoint
 10
708.1099639567765
 20
465.859773567456
 30
0.0
  0
ENDBLK
  5
251D
330
2514
100
AcDbEntity
  8
0
  6
ByBlock
 62
     0
100
AcDbBlockEnd
  0
BLOCK
  5
252E
330
252D
100
AcDbEntity
  8
0
  6
Continuous
 62
     2
100
AcDbBlockBegin
  2
*D16
 70
     1
 10
0.0
 20
0.0
 30
0.0
  3
*D16
  1
*D24
  0
LINE
  5
252F
330
252D
100
AcDbEntity
  8
DIM
  6
Continuous
 62
     0
370
    -2
100
AcDbLine
 10
119.2804767099811
 20
657.3197647257232
 30
0.0
 11
119.2804767099811
 21
729.2543558972219
 31
0.0
  0
LINE
  5
2530
330
252D
100
AcDbEntity
  8
DIM
  6
Continuous
 62
     0
370
    -2
100
AcDbLine
 10
219.1920593801844
 20
657.3197647257232
 30
0.0
 11
219.1920593801844
 21
729.2543558972219
 31
0.0
  0
LINE
  5
2531
330
252D
100
AcDbEntity
  8
DIM
  6
Continuous
 62
     0
370
    -2
100
AcDbLine
 10
122.2804767099811
 20
729.2543558972219
 30
0.0
 11
216.1920593801844
 21
729.2543558972219
 31
0.0
  0
INSERT
  5
2532
330
252D
100
AcDbEntity
  8
DIM
 62
     0
370
    -2
100
AcDbBlockReference
  2
_DOT
 10
119.2804767099811
 20
729.2543558972219
 30
0.0
 41
3.0
 42
3.0
 43
3.0
 50
180.0
  0
INSERT
  5
2533
330
252D
100
AcDbEntity
  8
DIM
 62
     0
370
    -2
100
AcDbBlockReference
  2
_DOT
 10
219.1920593801844
 20
729.2543558972219
 30
0.0
 41
3.0
 42
3.0
 43
3.0
  0
MTEXT
  5
2534
330
252D
100
AcDbEntity
  8
DIM
  6
Continuous
 62
     0
100
AcDbMText
 10
169.2362680450829
 20
740.2543558972219
 30
0.0
 40
12.0
 41
0.0
 46
0.0
 71
     5
 72
     1
  1
\A1;100
  7
ＭＳ ゴシック
 73
     1
 44
1.0
  0
POINT
  5
2535
330
252D
100
AcDbEntity
  8
Defpoints
 62
     0
100
AcDbPoint
 10
119.2804767099811
 20
652.3197647257232
 30
0.0
  0
POINT
  5
2806
330
252D
100
AcDbEntity
  8
Defpoints
 62
     0
100
AcDbPoint
 10
219.1920593801844
 20
652.3197647257232
 30
0.0
  0
POINT
  5
2807
330
252D
100
AcDbEntity
  8
Defpoints
 62
     0
100
AcDbPoint
 10
219.1920593801844
 20
729.2543558972219
 30
0.0
  0
ENDBLK
  5
2536
330
252D
100
AcDbEntity
  8
0
  6
ByBlock
 62
     0
100
AcDbBlockEnd
  0
BLOCK
  5
2539
330
2538
100
AcDbEntity
  8
0
  6
Continuous
 62
     2
100
AcDbBlockBegin
  2
*D17
 70
     1
 10
0.0
 20
0.0
 30
0.0
  3
*D17
  1
*D25
  0
LINE
  5
253A
330
2538
100
AcDbEntity
  8
DIM
  6
Continuous
 62
     0
370
    -2
100
AcDbLine
 10
217.9475854632967
 20
662.3109229927436
 30
0.0
 11
304.2304970108402
 21
662.3109229927436
 31
0.0
  0
LINE
  5
253B
330
2538
100
AcDbEntity
  8
DIM
  6
Continuous
 62
     0
370
    -2
100
AcDbLine
 10
217.9475854632967
 20
554.406413708924
 30
0.0
 11
304.2304970108402
 21
554.406413708924
 31
0.0
  0
LINE
  5
253C
330
2538
100
AcDbEntity
  8
DIM
  6
Continuous
 62
     0
370
    -2
100
AcDbLine
 10
304.2304970108402
 20
659.3109229927436
 30
0.0
 11
304.2304970108402
 21
557.406413708924
 31
0.0
  0
INSERT
  5
253D
330
2538
100
AcDbEntity
  8
DIM
 62
     0
370
    -2
100
AcDbBlockReference
  2
_DOT
 10
304.2304970108402
 20
662.3109229927436
 30
0.0
 41
3.0
 42
3.0
 43
3.0
 50
89.99999999999996
  0
INSERT
  5
253E
330
2538
100
AcDbEntity
  8
DIM
 62
     0
370
    -2
100
AcDbBlockReference
  2
_DOT
 10
304.2304970108402
 20
554.406413708924
 30
0.0
 41
3.0
 42
3.0
 43
3.0
 50
269.9999999999999
  0
MTEXT
  5
253F
330
2538
100
AcDbEntity
  8
DIM
  6
Continuous
 62
     0
100
AcDbMText
 10
293.2304970108402
 20
608.3586683508338
 30
0.0
 40
12.0
 41
0.0
 46
0.0
 71
     5
 72
     1
  1
\A1;108
  7
ＭＳ ゴシック
 11
5.267937293639289E-16
 21
1.0
 31
0.0
 73
     1
 44
1.0
  0
POINT
  5
2540
330
2538
100
AcDbEntity
  8
Defpoints
 62
     0
100
AcDbPoint
 10
212.9475854632967
 20
662.3109229927436
 30
0.0
  0
POINT
  5
2809
330
2538
100
AcDbEntity
  8
Defpoints
 62
     0
100
AcDbPoint
 10
212.9475854632967
 20
554.406413708924
 30
0.0
  0
POINT
  5
280A
330
2538
100
AcDbEntity
  8
Defpoints
 62
     0
100
AcDbPoint
 10
304.2304970108402
 20
554.406413708924
 30
0.0
  0
ENDBLK
  5
2541
330
2538
100
AcDbEntity
  8
0
  6
ByBlock
 62
     0
100
AcDbBlockEnd
  0
BLOCK
  5
2588
330
2587
100
AcDbEntity
  8
0
  6
Continuous
 62
     2
100
AcDbBlockBegin
  2
*D18
 70
     1
 10
0.0
 20
0.0
 30
0.0
  3
*D18
  1
*D27
  0
LINE
  5
2589
330
2587
100
AcDbEntity
  8
DIM
  6
Continuous
 62
     0
370
    -2
100
AcDbLine
 10
157.2468781246585
 20
535.1690131784198
 30
0.0
 11
157.2468781246585
 21
528.3045127363332
 31
0.0
  0
LINE
  5
258A
330
2587
100
AcDbEntity
  8
DIM
  6
Continuous
 62
     0
370
    -2
100
AcDbLine
 10
181.2256579655073
 20
535.1690131784198
 30
0.0
 11
181.2256579655073
 21
528.3045127363332
 31
0.0
  0
LINE
  5
258B
330
2587
100
AcDbEntity
  8
DIM
  6
Continuous
 62
     0
370
    -2
100
AcDbLine
 10
181.2256579655073
 20
528.3045127363332
 30
0.0
 11
242.1127197417042
 21
528.3045127363332
 31
0.0
  0
INSERT
  5
258C
330
2587
100
AcDbEntity
  8
DIM
 62
     0
370
    -2
100
AcDbBlockReference
  2
_DOT
 10
157.2468781246585
 20
528.3045127363332
 30
0.0
 41
3.0
 42
3.0
 43
3.0
 50
180.0
  0
INSERT
  5
258D
330
2587
100
AcDbEntity
  8
DIM
 62
     0
370
    -2
100
AcDbBlockReference
  2
_DOT
 10
181.2256579655073
 20
528.3045127363332
 30
0.0
 41
3.0
 42
3.0
 43
3.0
  0
MTEXT
  5
258E
330
2587
100
AcDbEntity
  8
DIM
  6
Continuous
 62
     0
100
AcDbMText
 10
225.9347197417042
 20
539.7545127363333
 30
0.0
 40
12.0
 41
0.0
 46
0.0
 71
     5
 72
     1
  1
\A1;Ø24
  7
ＭＳ ゴシック
 73
     1
 44
1.0
  0
POINT
  5
258F
330
2587
100
AcDbEntity
  8
Defpoints
 62
     0
100
AcDbPoint
 10
157.2468781246585
 20
540.1690131784198
 30
0.0
  0
POINT
  5
2590
330
2587
100
AcDbEntity
  8
Defpoints
 62
     0
100
AcDbPoint
 10
181.2256579655073
 20
540.1690131784198
 30
0.0
  0
POINT
  5
2591
330
2587
100
AcDbEntity
  8
Defpoints
 62
     0
100
AcDbPoint
 10
181.2256579655073
 20
528.3045127363332
 30
0.0
  0
ENDBLK
  5
2592
330
2587
100
AcDbEntity
  8
0
  6
ByBlock
 62
     0
100
AcDbBlockEnd
  0
BLOCK
  5
2595
330
2594
100
AcDbEntity
  8
0
  6
Continuous
 62
     2
100
AcDbBlockBegin
  2
*D19
 70
     1
 10
0.0
 20
0.0
 30
0.0
  3
*D19
  1
*D28
  0
LINE
  5
2596
330
2594
100
AcDbEntity
  8
DIM
  6
Continuous
 62
     0
370
    -2
100
AcDbLine
 10
695.9591564155139
 20
606.3604366974296
 30
0.0
 11
734.8511269664998
 21
606.3604366974296
 31
0.0
  0
LINE
  5
2597
330
2594
100
AcDbEntity
  8
DIM
  6
Continuous
 62
     0
370
    -2
100
AcDbLine
 10
716.8566483069087
 20
543.9156975285524
 30
0.0
 11
734.8511269664998
 21
543.9156975285524
 31
0.0
  0
LINE
  5
2598
330
2594
100
AcDbEntity
  8
DIM
  6
Continuous
 62
     0
370
    -2
100
AcDbLine
 10
734.8511269664998
 20
603.3604366974296
 30
0.0
 11
734.8511269664998
 21
546.9156975285524
 31
0.0
  0
INSERT
  5
2599
330
2594
100
AcDbEntity
  8
DIM
 62
     0
370
    -2
100
AcDbBlockReference
  2
_DOT
 10
734.8511269664998
 20
606.3604366974296
 30
0.0
 41
3.0
 42
3.0
 43
3.0
 50
90.0
  0
INSERT
  5
259A
330
2594
100
AcDbEntity
  8
DIM
 62
     0
370
    -2
100
AcDbBlockReference
  2
_DOT
 10
734.8511269664998
 20
543.9156975285524
 30
0.0
 41
3.0
 42
3.0
 43
3.0
 50
270.0
  0
MTEXT
  5
259B
330
2594
100
AcDbEntity
  8
DIM
  6
Continuous
 62
     0
100
AcDbMText
 10
723.8511269664998
 20
575.1380671129909
 30
0.0
 40
12.0
 41
0.0
 46
0.0
 71
     5
 72
     1
  1
\A1;62.5
  7
ＭＳ ゴシック
 11
0.0
 21
1.0
 31
0.0
 73
     1
 44
1.0
  0
POINT
  5
259C
330
2594
100
AcDbEntity
  8
Defpoints
 62
     0
100
AcDbPoint
 10
690.9591564155139
 20
606.3604366974296
 30
0.0
  0
POINT
  5
284E
330
2594
100
AcDbEntity
  8
Defpoints
 62
     0
100
AcDbPoint
 10
711.8566483069087
 20
543.9156975285524
 30
0.0
  0
POINT
  5
284F
330
2594
100
AcDbEntity
  8
Defpoints
 62
     0
100
AcDbPoint
 10
734.8511269664998
 20
543.9156975285524
 30
0.0
  0
ENDBLK
  5
259D
330
2594
100
AcDbEntity
  8
0
  6
ByBlock
 62
     0
100
AcDbBlockEnd
  0
ENDSEC
  0
SECTION
  2
ENTITIES
  0
POINT
  5
D78
330
A
100
AcDbEntity
  8
0
 62
     0
370
    30
100
AcDbPoint
 10
694.6265567147177
 20
693.9723286065162
 30
0.0
  0
POINT
  5
D79
330
A
100
AcDbEntity
  8
0
 62
     0
370
    30
100
AcDbPoint
 10
692.9141856489878
 20
700.4760952137547
 30
0.0
  0
POINT
  5
D7F
330
A
100
AcDbEntity
  8
0
 62
     0
370
    30
100
AcDbPoint
 10
726.0265567147178
 20
694.6223286065162
 30
0.0
  0
POINT
  5
D80
330
A
100
AcDbEntity
  8
0
 62
     0
370
    30
100
AcDbPoint
 10
726.0265567147178
 20
705.8805220574948
 30
0.0
  0
POINT
  5
D85
330
A
100
AcDbEntity
  8
0
 62
     0
370
    30
100
AcDbPoint
 10
757.4265567147179
 20
693.9723286065162
 30
0.0
  0
POINT
  5
D87
330
A
100
AcDbEntity
  8
0
 62
     0
370
    30
100
AcDbPoint
 10
759.1389277804474
 20
700.4760952137547
 30
0.0
  0
POINT
  5
1A85
330
A
100
AcDbEntity
  8
0
 62
     0
370
    30
100
AcDbPoint
 10
2123.315201633162
 20
842.5654904634795
 30
0.0
  0
POINT
  5
1A86
330
A
100
AcDbEntity
  8
0
 62
     0
370
    30
100
AcDbPoint
 10
2121.602830567432
 20
849.069257070718
 30
0.0
  0
POINT
  5
1A87
330
A
100
AcDbEntity
  8
0
 62
     0
370
    30
100
AcDbPoint
 10
2154.715201633162
 20
843.2154904634796
 30
0.0
  0
POINT
  5
1A88
330
A
100
AcDbEntity
  8
0
 62
     0
370
    30
100
AcDbPoint
 10
2154.715201633162
 20
854.4736839144581
 30
0.0
  0
POINT
  5
1A89
330
A
100
AcDbEntity
  8
0
 62
     0
370
    30
100
AcDbPoint
 10
2186.115201633162
 20
842.5654904634795
 30
0.0
  0
POINT
  5
1A8A
330
A
100
AcDbEntity
  8
0
 62
     0
370
    30
100
AcDbPoint
 10
2187.827572698891
 20
849.069257070718
 30
0.0
  0
POINT
  5
2368
330
A
100
AcDbEntity
  8
0
 62
     0
370
    30
100
AcDbPoint
 10
3658.431951946838
 20
955.0491165613462
 30
0.0
  0
POINT
  5
2369
330
A
100
AcDbEntity
  8
0
 62
     0
370
    30
100
AcDbPoint
 10
3656.719580881108
 20
961.5528831685847
 30
0.0
  0
POINT
  5
236A
330
A
100
AcDbEntity
  8
0
 62
     0
370
    30
100
AcDbPoint
 10
3689.831951946838
 20
955.6991165613463
 30
0.0
  0
POINT
  5
236B
330
A
100
AcDbEntity
  8
0
 62
     0
370
    30
100
AcDbPoint
 10
3689.831951946838
 20
966.9573100123248
 30
0.0
  0
POINT
  5
236C
330
A
100
AcDbEntity
  8
0
 62
     0
370
    30
100
AcDbPoint
 10
3721.231951946838
 20
955.0491165613462
 30
0.0
  0
POINT
  5
236D
330
A
100
AcDbEntity
  8
0
 62
     0
370
    30
100
AcDbPoint
 10
3722.944323012568
 20
961.5528831685847
 30
0.0
  0
MTEXT
  5
23F3
330
A
100
AcDbEntity
  8
TEMPLATE
 62
     7
390
1D
100
AcDbMText
 10
21.23478042684087
 20
142.9020811546088
 30
0.0
 40
8.144205729166664
 41
0.0
 46
0.0
 71
     1
 72
     1
  1
品名
  7
ＭＳ ゴシック
 73
     1
 44
0.7828267384257843
  0
MTEXT
  5
23F4
330
A
100
AcDbEntity
  8
TEMPLATE
 62
     7
390
1D
100
AcDbMText
 10
21.23478042684087
 20
107.8751586351607
 30
0.0
 40
8.144205729166664
 41
0.0
 46
0.0
 71
     1
 72
     1
  1
仕様
  7
ＭＳ ゴシック
 73
     1
 44
0.7828267384257843
  0
LWPOLYLINE
  5
23F5
330
A
100
AcDbEntity
  8
TEMPLATE
  6
Continuous
 62
     7
370
     0
390
1D
100
AcDbPolyline
 90
        5
 70
   128
 43
0.0
 10
823.4224208338999
 20
1174.693162940315
 10
17.73478042659985
 20
1174.693162940315
 10
17.73478042659985
 20
33.9329405965002
 10
823.4224208338999
 20
33.9329405965002
 10
823.4224208338999
 20
1174.693162940315
  0
MTEXT
  5
23F6
330
A
100
AcDbEntity
  8
TEMPLATE
 62
     7
390
1D
100
AcDbMText
 10
17.73478042694273
 20
28.00602956807165
 30
0.0
 40
10.85894097222222
 41
0.0
 46
10.85894097222222
 71
     1
 72
     1
  1
{131105NX}
  7
ＭＳ ゴシック
 73
     1
 44
0.7828267384257843
1001
ACAD
1000
ACAD_MTEXT_DEFINED_HEIGHT_BEGIN
1070
    46
1040
10.85894097222222
1000
ACAD_MTEXT_DEFINED_HEIGHT_END
  0
MTEXT
  5
23F7
330
A
100
AcDbEntity
  8
TEMPLATE
 62
     7
390
1D
100
AcDbMText
 10
468.5534419044254
 20
61.47774335984616
 30
0.0
 40
12.21630859375
 41
0.0
 46
0.0
 71
     1
 72
     1
  1
大洋金物株式会社 ティーフォルム事業部
  7
ＭＳ ゴシック
 73
     1
 44
0.7828267384257843
  0
MTEXT
  5
23F8
330
A
100
AcDbEntity
  8
TEMPLATE
 62
     7
390
1D
100
AcDbMText
 10
746.3448627027603
 20
93.58392816641071
 30
0.0
 40
12.21630859375
 41
0.0
 46
12.21630859375
 71
     1
 72
     1
  1
{1:4}
  7
ＭＳ ゴシック
 73
     1
 44
0.7828267384257843
1001
ACAD
1000
ACAD_MTEXT_DEFINED_HEIGHT_BEGIN
1070
    46
1040
12.21630859375
1000
ACAD_MTEXT_DEFINED_HEIGHT_END
  0
MTEXT
  5
23F9
330
A
100
AcDbEntity
  8
TEMPLATE
 62
     7
390
1D
100
AcDbMText
 10
719.8448627027603
 20
107.8751586351607
 30
0.0
 40
8.144205729166664
 41
0.0
 46
0.0
 71
     1
 72
     1
  1
縮尺
  7
ＭＳ ゴシック
 73
     1
 44
0.7828267384257843
  0
MTEXT
  5
23FA
330
A
100
AcDbEntity
  8
TEMPLATE
 62
     7
390
1D
100
AcDbMText
 10
594.3448627027603
 20
107.8751586351607
 30
0.0
 40
8.144205729166664
 41
0.0
 46
0.0
 71
     1
 72
     1
  1
容量
  7
ＭＳ ゴシック
 73
     1
 44
0.7828267384257843
  0
MTEXT
  5
23FB
330
A
100
AcDbEntity
  8
TEMPLATE
 62
     7
390
1D
100
AcDbMText
 10
468.8448627027601
 20
142.9020811546088
 30
0.0
 40
8.144205729166664
 41
0.0
 46
0.0
 71
     1
 72
     1
  1
品番
  7
ＭＳ ゴシック
 73
     1
 44
0.7828267384257843
  0
MTEXT
  5
23FC
330
A
100
AcDbEntity
  8
TEMPLATE
 62
     7
390
1D
100
AcDbMText
 10
468.8448627027601
 20
107.8751586351607
 30
0.0
 40
8.144205729166664
 41
0.0
 46
0.0
 71
     1
 72
     1
  1
重量
  7
ＭＳ ゴシック
 73
     1
 44
0.7828267384257843
  0
MTEXT
  5
23FD
330
A
100
AcDbEntity
  8
TEMPLATE
 62
     7
390
1D
100
AcDbMText
 10
495.3448627027601
 20
128.6108506858588
 30
0.0
 40
12.21630859375
 41
0.0
 46
12.21630859375
 71
     1
 72
     1
  1
{AGN73-3605}
  7
ＭＳ ゴシック
 73
     1
 44
0.7828267384257843
1001
ACAD
1000
ACAD_MTEXT_DEFINED_HEIGHT_BEGIN
1070
    46
1040
12.21630859375
1000
ACAD_MTEXT_DEFINED_HEIGHT_END
  0
MTEXT
  5
23FE
330
A
100
AcDbEntity
  8
TEMPLATE
 62
     7
390
1D
100
AcDbMText
 10
47.73478042684087
 20
128.6108506858588
 30
0.0
 40
12.21630859375
 41
0.0
 46
12.21630859375
 71
     1
 72
     1
  1
{混合栓 -FANTINI,Fukasawa-}
  7
ＭＳ ゴシック
 73
     1
 44
0.7828267384257843
1001
ACAD
1000
ACAD_MTEXT_DEFINED_HEIGHT_BEGIN
1070
    46
1040
12.21630859375
1000
ACAD_MTEXT_DEFINED_HEIGHT_END
  0
INSERT
  5
23FF
330
A
100
AcDbEntity
  8
TEMPLATE
  6
Continuous
370
     0
100
AcDbBlockReference
  2
名称未設定-1
 10
754.3920405486544
 20
-1.667013278387032
 30
0.0
 41
0.3809999999999999
 42
0.3809999999999999
 43
0.3809999999999999
  0
MTEXT
  5
2400
330
A
100
AcDbEntity
  8
TEMPLATE
 62
     7
390
1D
100
AcDbMText
 10
44.26088079099372
 20
91.91527083414434
 30
0.0
 40
12.21630859375
 41
0.0
 46
12.21630859375
 71
     1
 72
     1
  1
{クローム}
  7
ＭＳ ゴシック
 73
     1
 44
0.7828267384257843
1001
ACAD
1000
ACAD_MTEXT_DEFINED_HEIGHT_BEGIN
1070
    46
1040
12.21630859375
1000
ACAD_MTEXT_DEFINED_HEIGHT_END
  0
LINE
  5
2404
330
A
100
AcDbEntity
  8
TEMPLATE
  6
Continuous
 62
     7
370
     0
390
1D
100
AcDbLine
 10
462.2348677134712
 20
33.9329405965002
 30
0.0
 11
462.2348677134712
 21
147.1095420921087
 31
0.0
  0
LINE
  5
2405
330
A
100
AcDbEntity
  8
TEMPLATE
  6
Continuous
 62
     7
370
     0
390
1D
100
AcDbLine
 10
823.4224208338999
 20
76.4329405965002
 30
0.0
 11
462.2348677134712
 21
76.4329405965002
 31
0.0
  0
LINE
  5
2406
330
A
100
AcDbEntity
  8
TEMPLATE
  6
Continuous
 62
     7
370
     0
390
1D
100
AcDbLine
 10
716.3448627027603
 20
76.4329405965002
 30
0.0
 11
716.3448627027603
 21
112.0826195726609
 31
0.0
  0
LINE
  5
2407
330
A
100
AcDbEntity
  8
TEMPLATE
  6
Continuous
 62
     7
370
     0
390
1D
100
AcDbLine
 10
823.4224208338999
 20
147.1095420921087
 30
0.0
 11
17.73478042659985
 21
147.1095420921087
 31
0.0
  0
LINE
  5
2408
330
A
100
AcDbEntity
  8
TEMPLATE
  6
Continuous
 62
     7
370
     0
390
1D
100
AcDbLine
 10
823.4224208338999
 20
112.0826195726609
 30
0.0
 11
17.73478042659985
 21
112.0826195726609
 31
0.0
  0
LINE
  5
2409
330
A
100
AcDbEntity
  8
TEMPLATE
  6
Continuous
 62
     7
370
     0
390
1D
100
AcDbLine
 10
590.8448627027603
 20
76.4329405965002
 30
0.0
 11
590.8448627027603
 21
112.0826195726609
 31
0.0
  0
LINE
  5
2799
330
A
100
AcDbEntity
  8
MODEL
100
AcDbLine
 10
482.0529445996347
 20
592.2929541815013
 30
0.0
 11
482.0529445996347
 21
530.2999779981216
 31
0.0
  0
LINE
  5
279A
330
A
100
AcDbEntity
  8
HIDDEN
  6
Continuous
100
AcDbLine
 10
467.5660963837947
 20
544.7863169911012
 30
0.0
 11
482.0605505621941
 21
530.2918657560969
 31
0.0
  0
LINE
  5
279B
330
A
100
AcDbEntity
  8
HIDDEN
  6
Continuous
100
AcDbLine
 10
467.5660963837947
 20
556.6568935788179
 30
0.0
 11
482.0250580317631
 21
542.1979319308492
 31
0.0
  0
LINE
  5
279C
330
A
100
AcDbEntity
  8
HIDDEN
  6
Continuous
100
AcDbLine
 10
467.5666026630099
 20
568.3449358915411
 30
0.0
 11
482.0823529485472
 21
553.8286822704337
 31
0.0
  0
LINE
  5
279D
330
A
100
AcDbEntity
  8
HIDDEN
  6
Continuous
100
AcDbLine
 10
467.5660963837947
 20
580.2155124795075
 30
0.0
 11
482.0468604181162
 21
565.7347484451861
 31
0.0
  0
LINE
  5
279E
330
A
100
AcDbEntity
  8
HIDDEN
  6
Continuous
100
AcDbLine
 10
467.5620402627821
 20
592.1601118036277
 30
0.0
 11
482.0899559677111
 21
577.6327023781636
 31
0.0
  0
LINE
  5
279F
330
A
100
AcDbEntity
  8
HIDDEN
  6
Continuous
100
AcDbLine
 10
467.5666026630099
 20
533.1581009912383
 30
0.0
 11
470.8759853058039
 21
529.8482150126242
 31
0.0
  0
LINE
  5
27A0
330
A
100
AcDbEntity
  8
MODEL
100
AcDbLine
 10
482.0300013384056
 20
694.9097493543393
 30
0.0
 11
482.0300013384056
 21
632.9167731709596
 31
0.0
  0
LINE
  5
27A1
330
A
100
AcDbEntity
  8
HIDDEN
  6
Continuous
100
AcDbLine
 10
467.5431531228153
 20
647.4031121639393
 30
0.0
 11
482.0376073012151
 21
632.9086609289348
 31
0.0
  0
LINE
  5
27A2
330
A
100
AcDbEntity
  8
HIDDEN
  6
Continuous
100
AcDbLine
 10
467.5431531228153
 20
659.2736887519056
 30
0.0
 11
482.0021147707841
 21
644.8147271036872
 31
0.0
  0
LINE
  5
27A3
330
A
100
AcDbEntity
  8
HIDDEN
  6
Continuous
100
AcDbLine
 10
467.5436594020309
 20
670.9617310643791
 30
0.0
 11
482.0594096873185
 21
656.4454774432718
 31
0.0
  0
LINE
  5
27A4
330
A
100
AcDbEntity
  8
HIDDEN
  6
Continuous
100
AcDbLine
 10
467.5431531228153
 20
682.8323076523455
 30
0.0
 11
482.0239171568871
 21
668.3515436180242
 31
0.0
  0
LINE
  5
27A5
330
A
100
AcDbEntity
  8
HIDDEN
  6
Continuous
100
AcDbLine
 10
467.5390970018032
 20
694.7769069767155
 30
0.0
 11
482.0670127067326
 21
680.2494975510017
 31
0.0
  0
LINE
  5
27A6
330
A
100
AcDbEntity
  8
HIDDEN
  6
Continuous
100
AcDbLine
 10
467.5436594020309
 20
635.7748961640763
 30
0.0
 11
470.8530420448249
 21
632.4650101854622
 31
0.0
  0
DIMENSION
  5
27A7
330
A
100
AcDbEntity
  8
DIM
  6
Continuous
100
AcDbDimension
  2
*D6
 10
482.1099639567763
 20
490.8601891465112
 30
0.0
 11
445.6425612382749
 21
490.8601891465112
 31
0.0
 70
   160
  1
74.5-84.5
 71
     5
 42
74.43412908930135
 73
     0
 74
     0
 75
     0
 52
-90.00000000000001
  3
tfrom線あり
100
AcDbAlignedDimension
 13
407.675834867475
 23
503.9510644604711
 33
0.0
 14
482.1099639567763
 24
573.1398354338596
 34
0.0
 50
0.000000000000007
100
AcDbRotatedDimension
1001
ACAD
1000
DSTYLE
1002
{
1070
   147
1040
5.0
1070
   271
1070
     1
1070
    77
1070
     1
1070
   280
1070
     0
1070
    42
1040
5.0
1070
    41
1040
3.0
1070
   144
1040
1.0
1002
}
  0
DIMENSION
  5
27AA
330
A
100
AcDbEntity
  8
DIM
  6
Continuous
100
AcDbDimension
  2
*D8
 10
381.199265459871
 20
490.8601891465112
 30
0.0
 11
394.8227891521067
 21
490.8601891465112
 31
0.0
 70
   160
 71
     5
 42
26.47656940760395
 73
     0
 74
     0
 75
     0
 52
-89.99999999999999
  3
tfrom線あり
100
AcDbAlignedDimension
 13
407.675834867475
 23
611.3560158309398
 33
0.0
 14
381.199265459871
 24
554.406413708924
 34
0.0
 50
180.0
100
AcDbRotatedDimension
1001
ACAD
1000
DSTYLE
1002
{
1070
   147
1040
5.0
1070
   271
1070
     1
1070
    77
1070
     2
1070
   280
1070
     0
1070
    42
1040
5.0
1070
    41
1040
3.0
1070
   144
1040
1.0
1002
}
  0
DIMENSION
  5
27AC
330
A
100
AcDbEntity
  8
DIM
  6
Continuous
100
AcDbDimension
  2
*D9
 10
209.2009011131638
 20
704.2764602296709
 30
0.0
 11
169.2362680450824
 21
704.2764602296709
 31
0.0
 70
   160
 71
     5
 42
79.9292661361626
 73
     0
 74
     0
 75
     0
  3
tfrom線あり
100
AcDbAlignedDimension
 13
129.2716349770012
 23
626.754292826888
 33
0.0
 14
209.2009011131638
 24
626.754292826888
 34
0.0
100
AcDbRotatedDimension
1001
ACAD
1000
DSTYLE
1002
{
1070
   147
1040
5.0
1070
   271
1070
     0
1070
    77
1070
     1
1070
   280
1070
     0
1070
    42
1040
5.0
1070
    41
1040
3.0
1070
   144
1040
1.0
1002
}
  0
LINE
  5
27AF
330
A
100
AcDbEntity
  8
MODEL
100
AcDbLine
 10
129.2716349770012
 20
592.3728151108623
 30
0.0
 11
129.2716349770012
 21
630.3392165247903
 31
0.0
  0
LINE
  5
27B0
330
A
100
AcDbEntity
  8
MODEL
100
AcDbLine
 10
130.2707508037033
 20
631.3383323649804
 30
0.0
 11
130.2707508037033
 21
624.573075873128
 31
0.0
  0
LINE
  5
27B1
330
A
100
AcDbEntity
  8
MODEL
100
AcDbLine
 10
130.2707508037033
 20
598.1389557890011
 30
0.0
 11
130.2707508037033
 21
591.3736992968991
 31
0.0
  0
LINE
  5
27B2
330
A
100
AcDbEntity
  8
MODEL
100
AcDbLine
 10
208.2017852864619
 20
591.3736992968991
 30
0.0
 11
198.0169407489707
 21
591.3736992968991
 31
0.0
  0
LINE
  5
27B3
330
A
100
AcDbEntity
  8
MODEL
100
AcDbLine
 10
140.436090350498
 20
591.3736992968991
 30
0.0
 11
130.2707508037033
 21
591.3736992968991
 31
0.0
  0
LINE
  5
27B4
330
A
100
AcDbEntity
  8
MODEL
100
AcDbLine
 10
208.2017852864619
 20
598.1389557890011
 30
0.0
 11
200.6245418521248
 21
598.1389557890011
 31
0.0
  0
LINE
  5
27B5
330
A
100
AcDbEntity
  8
MODEL
100
AcDbLine
 10
137.8366448167758
 20
598.1389557890011
 30
0.0
 11
130.2707508037033
 21
598.1389557890011
 31
0.0
  0
LINE
  5
27B6
330
A
100
AcDbEntity
  8
MODEL
100
AcDbLine
 10
130.2707508037033
 20
624.573075873128
 30
0.0
 11
142.3679426009867
 21
624.573075873128
 31
0.0
  0
LINE
  5
27B7
330
A
100
AcDbEntity
  8
MODEL
100
AcDbLine
 10
196.0901051829383
 20
624.573075873128
 30
0.0
 11
208.2017852864619
 21
624.573075873128
 31
0.0
  0
LINE
  5
27B8
330
A
100
AcDbEntity
  8
MODEL
100
AcDbLine
 10
208.2017852864619
 20
631.3383323649804
 30
0.0
 11
189.9594214008164
 21
631.3383323649804
 31
0.0
  0
LINE
  5
27B9
330
A
100
AcDbEntity
  8
MODEL
100
AcDbLine
 10
148.5261171297643
 20
631.3383323649804
 30
0.0
 11
130.2707508037033
 21
631.3383323649804
 31
0.0
  0
LINE
  5
27BA
330
A
100
AcDbEntity
  8
MODEL
100
AcDbLine
 10
208.2017852864619
 20
591.3736992968991
 30
0.0
 11
208.2017852864619
 21
598.1389557890011
 31
0.0
  0
LINE
  5
27BB
330
A
100
AcDbEntity
  8
MODEL
100
AcDbLine
 10
208.2017852864619
 20
624.573075873128
 30
0.0
 11
208.2017852864619
 21
631.3383323649804
 31
0.0
  0
LINE
  5
27BC
330
A
100
AcDbEntity
  8
MODEL
100
AcDbLine
 10
209.2009011131638
 20
592.3728151373389
 30
0.0
 11
209.2009011131638
 21
630.3392165512669
 31
0.0
  0
LINE
  5
27BF
330
A
100
AcDbEntity
  8
MODEL
100
AcDbLine
 10
422.6625722680053
 20
598.1389557890011
 30
0.0
 11
422.6625722680053
 21
624.573075873128
 31
0.0
  0
LINE
  5
27C0
330
A
100
AcDbEntity
  8
HIDDEN
  6
CENTER
100
AcDbLine
 10
407.675834867475
 20
611.3560158309397
 30
0.0
 11
407.675834867475
 21
506.4488540272262
 31
0.0
  0
LINE
  5
27C2
330
A
100
AcDbEntity
  8
MODEL
100
AcDbLine
 10
404.6784873873687
 20
612.7398150176396
 30
0.0
 11
404.6784873873687
 21
617.9788115750002
 31
0.0
  0
ARC
  5
27C3
330
A
100
AcDbEntity
  8
MODEL
100
AcDbCircle
 10
130.2707508037033
 20
592.3728151236011
 30
0.0
 40
0.9991158267020337
100
AcDbArc
 50
180.0
 51
270.0
  0
ARC
  5
27C4
330
A
100
AcDbEntity
  8
MODEL
100
AcDbCircle
 10
130.2707508037033
 20
630.3392165382784
 30
0.0
 40
0.9991158267020337
100
AcDbArc
 50
90.0
 51
180.0
  0
ARC
  5
27C5
330
A
100
AcDbEntity
  8
MODEL
100
AcDbCircle
 10
208.2017852864619
 20
592.3728151236011
 30
0.0
 40
0.9991158267020337
100
AcDbArc
 50
270.0
 51
0.0
  0
ARC
  5
27C6
330
A
100
AcDbEntity
  8
MODEL
100
AcDbCircle
 10
208.2017852864619
 20
630.3392165382784
 30
0.0
 40
0.9991158267020337
100
AcDbArc
 50
0.0
 51
90.0
  0
ARC
  5
27C7
330
A
100
AcDbEntity
  8
MODEL
100
AcDbCircle
 10
407.675834867475
 20
611.3560158309397
 30
0.0
 40
19.98231653404067
100
AcDbArc
 50
221.4096221092995
 51
318.5903778906991
  0
ARC
  5
27C8
330
A
100
AcDbEntity
  8
MODEL
100
AcDbCircle
 10
407.675834867475
 20
611.3560158309397
 30
0.0
 40
19.98231653404067
100
AcDbArc
 50
41.4096221093009
 51
138.5903778907005
  0
ARC
  5
27C9
330
A
100
AcDbEntity
  8
MODEL
100
AcDbCircle
 10
407.675834867475
 20
611.3560158309397
 30
0.0
 40
18.98320070733864
100
AcDbArc
 50
37.8636463617003
 51
142.1363536383001
  0
ARC
  5
27CA
330
A
100
AcDbEntity
  8
MODEL
100
AcDbCircle
 10
407.675834867475
 20
611.3560158309397
 30
0.0
 40
18.98320070733864
100
AcDbArc
 50
217.8636463616986
 51
322.1363536383001
  0
CIRCLE
  5
27CB
330
A
100
AcDbEntity
  8
MODEL
100
AcDbCircle
 10
407.675834867475
 20
611.3560158309397
 30
0.0
 40
11.14014146772768
  0
CIRCLE
  5
27CC
330
A
100
AcDbEntity
  8
MODEL
100
AcDbCircle
 10
407.675834867475
 20
611.3560158309397
 30
0.0
 40
10.84040671971706
  0
ARC
  5
27CD
330
A
100
AcDbEntity
  8
MODEL
100
AcDbCircle
 10
407.675834867475
 20
611.3560158309397
 30
0.0
 40
10.49071618037135
100
AcDbArc
 50
345.0000000000006
 51
285.0000000000006
  0
CIRCLE
  5
27CE
330
A
100
AcDbEntity
  8
MODEL
100
AcDbCircle
 10
407.675834867475
 20
611.3560158309397
 30
0.0
 40
9.49160035366932
  0
CIRCLE
  5
27CF
330
A
100
AcDbEntity
  8
MODEL
100
AcDbCircle
 10
407.675834867475
 20
615.3524791377479
 30
0.0
 40
3.996463306808135
  0
SPLINE
  5
27D0
330
A
100
AcDbEntity
  8
MODEL
100
AcDbSpline
210
0.0
220
0.0
230
1.0
 70
     8
 71
     3
 72
    13
 73
     9
 74
     0
 42
0.000000001
 43
0.0000000001
 40
0.0
 40
0.0
 40
0.0
 40
0.0
 40
0.2499520621
 40
0.4997159312
 40
0.6248793967
 40
0.7500222427
 40
0.8750557129000001
 40
1.0
 40
1.0
 40
1.0
 40
1.0
 10
209.2009011131638
 20
599.7044231853738
 30
0.0
 10
209.2009011131638
 20
599.5346239481855
 30
0.0
 10
209.168709727116
 20
599.1943006919587
 30
0.0
 10
209.0344077771492
 20
598.785802579463
 30
0.0
 10
208.8551196052483
 20
598.4952722122327
 30
0.0
 10
208.6786438842028
 20
598.3080649631147
 30
0.0
 10
208.4579435512319
 20
598.1731513441979
 30
0.0
 10
208.2866633403896
 20
598.1389557890011
 30
0.0
 10
208.2017852864619
 20
598.1389557890011
 30
0.0
  0
SPLINE
  5
27D1
330
A
100
AcDbEntity
  8
MODEL
100
AcDbSpline
210
0.0
220
0.0
230
1.0
 70
     8
 71
     3
 72
    13
 73
     9
 74
     0
 42
0.000000001
 43
0.0000000001
 40
0.0
 40
0.0
 40
0.0
 40
0.0
 40
0.1249447473
 40
0.2499785013
 40
0.3751211713
 40
0.500284003
 40
0.7500472536
 40
1.0
 40
1.0
 40
1.0
 40
1.0
 10
130.2707508037033
 20
598.1389557890011
 30
0.0
 10
130.1858724375516
 20
598.1389557890011
 30
0.0
 10
130.0145917086679
 20
598.1731515630042
 30
0.0
 10
129.7938912438137
 20
598.308065747171
 30
0.0
 10
129.6174160895166
 20
598.495273004032
 30
0.0
 10
129.4381284468973
 20
598.7858025135215
 30
0.0
 10
129.3038263670455
 20
599.1943001646753
 30
0.0
 10
129.2716349770012
 20
599.5346234845957
 30
0.0
 10
129.2716349770012
 20
599.7044231853738
 30
0.0
  0
SPLINE
  5
27D2
330
A
100
AcDbEntity
  8
MODEL
100
AcDbSpline
210
0.0
220
0.0
230
1.0
 70
     8
 71
     3
 72
    13
 73
     9
 74
     0
 42
0.000000001
 43
0.0000000001
 40
0.0
 40
0.0
 40
0.0
 40
0.0
 40
0.2499531627
 40
0.4997168167
 40
0.6248798835
 40
0.7500224973999999
 40
0.875055688
 40
1.0
 40
1.0
 40
1.0
 40
1.0
 10
129.2716349770012
 20
623.0076084767554
 30
0.0
 10
129.2716349770012
 20
623.1774084625313
 30
0.0
 10
129.3038263343242
 20
623.5177323976573
 30
0.0
 10
129.4381292209623
 20
623.9262305213929
 30
0.0
 10
129.6174170823879
 20
624.2167604013043
 30
0.0
 10
129.7938926710508
 20
624.403966925564
 30
0.0
 10
130.0145926760617
 20
624.5388803738817
 30
0.0
 10
130.1858727322906
 20
624.573075873128
 30
0.0
 10
130.2707508037033
 20
624.573075873128
 30
0.0
  0
SPLINE
  5
27D3
330
A
100
AcDbEntity
  8
MODEL
100
AcDbSpline
210
0.0
220
0.0
230
1.0
 70
     8
 71
     3
 72
    13
 73
     9
 74
     0
 42
0.000000001
 43
0.0000000001
 40
0.0
 40
0.0
 40
0.0
 40
0.0
 40
0.1249447447
 40
0.2499787887
 40
0.3751216825
 40
0.5002849026
 40
0.7500483592
 40
1.0
 40
1.0
 40
1.0
 40
1.0
 10
208.2017852864619
 20
624.573075873128
 30
0.0
 10
208.2866636501158
 20
624.573075873128
 30
0.0
 10
208.457944556842
 20
624.5388800334331
 30
0.0
 10
208.678645354152
 20
624.4039656521909
 30
0.0
 10
208.8551206220984
 20
624.216757662728
 30
0.0
 10
209.0344085686988
 20
623.9262276849031
 30
0.0
 10
209.1687096921469
 20
623.5177300554799
 30
0.0
 10
209.2009011131638
 20
623.177407425449
 30
0.0
 10
209.2009011131638
 20
623.0076084767554
 30
0.0
  0
DIMENSION
  5
27D4
330
A
100
AcDbEntity
  8
DIM
  6
Continuous
100
AcDbDimension
  2
*D10
 10
507.8684272769931
 20
709.272039363181
 30
0.0
 11
501.4403820618521
 21
709.272039363181
 31
0.0
 70
   160
 71
     5
 42
12.98850574712651
 73
     0
 74
     0
 75
     0
 52
-90.00000000000001
  3
tfrom線あり
100
AcDbAlignedDimension
 13
494.8799215298666
 23
673.17898012357
 33
0.0
 14
507.8684272769931
 24
673.17898012357
 34
0.0
 50
0.000000000000007
100
AcDbRotatedDimension
1001
ACAD
1000
DSTYLE
1002
{
1070
   147
1040
5.0
1070
   271
1070
     0
1070
    77
1070
     1
1070
   280
1070
     0
1070
    42
1040
5.0
1070
    41
1040
3.0
1070
   144
1040
1.0
1002
}
  0
DIMENSION
  5
27D6
330
A
100
AcDbEntity
  8
DIM
  6
Continuous
100
AcDbDimension
  2
*D11
 10
549.010847340531
 20
638.8317010652456
 30
0.0
 11
549.010847340531
 21
654.381777376017
 31
0.0
 70
   160
 71
     5
 42
31.10015262154275
 73
     0
 74
     0
 75
     0
 52
-89.99999999999999
  3
tfrom線あり
100
AcDbAlignedDimension
 13
509.6168799737218
 23
669.9318536867884
 33
0.0
 14
529.3181867684475
 24
638.8317010652456
 34
0.0
 50
-89.99999999999999
100
AcDbRotatedDimension
1001
ACAD
1000
DSTYLE
1002
{
1070
   147
1040
5.0
1070
   271
1070
     0
1070
    77
1070
     1
1070
   280
1070
     0
1070
    42
1040
5.0
1070
    41
1040
3.0
1070
   144
1040
1.0
1002
}
  0
LINE
  5
27D7
330
A
100
AcDbEntity
  8
MODEL
100
AcDbLine
 10
167.2380363916786
 20
638.7318401587293
 30
0.0
 11
167.2380363916786
 21
669.4322957734374
 31
0.0
  0
LINE
  5
27D8
330
A
100
AcDbEntity
  8
MODEL
100
AcDbLine
 10
171.2344996984866
 20
669.4322957734374
 30
0.0
 11
171.2344996984866
 21
638.7723437663287
 31
0.0
  0
LINE
  5
27D9
330
A
100
AcDbEntity
  8
MODEL
100
AcDbLine
 10
167.2380363916786
 20
669.4322957734374
 30
0.0
 11
171.2344996984866
 21
669.4322957734374
 31
0.0
  0
LINE
  5
27DA
330
A
100
AcDbEntity
  8
MODEL
100
AcDbLine
 10
167.7375943050295
 20
669.9318536867884
 30
0.0
 11
170.7349417851356
 21
669.9318536867884
 31
0.0
  0
LINE
  5
27DB
330
A
100
AcDbEntity
  8
MODEL
100
AcDbLine
 10
507.8684272769931
 20
638.7723437663287
 30
0.0
 11
507.8684272769931
 21
669.4322957734374
 31
0.0
  0
LINE
  5
27DC
330
A
100
AcDbEntity
  8
MODEL
100
AcDbLine
 10
505.8701956235889
 20
669.9318536867884
 30
0.0
 11
505.8701956235889
 21
638.7723437663287
 31
0.0
  0
LINE
  5
27DD
330
A
100
AcDbEntity
  8
MODEL
100
AcDbLine
 10
496.8781531832708
 20
669.9318536867884
 30
0.0
 11
496.8782387605386
 21
638.7723437663287
 31
0.0
  0
LINE
  5
27DE
330
A
100
AcDbEntity
  8
MODEL
100
AcDbLine
 10
494.8799215298666
 20
638.7723437663287
 30
0.0
 11
494.8799215298666
 21
669.4322957734374
 31
0.0
  0
LINE
  5
27DF
330
A
100
AcDbEntity
  8
MODEL
100
AcDbLine
 10
507.8684272769931
 20
669.4322957734374
 30
0.0
 11
494.8799215298666
 21
669.4322957734374
 31
0.0
  0
LINE
  5
27E0
330
A
100
AcDbEntity
  8
MODEL
100
AcDbLine
 10
507.3688687953947
 20
669.9318536867884
 30
0.0
 11
495.3794800114649
 21
669.9318536867884
 31
0.0
  0
ARC
  5
27E1
330
A
100
AcDbEntity
  8
MODEL
100
AcDbCircle
 10
167.7375943050295
 20
669.4322957734374
 30
0.0
 40
0.4995579133510168
100
AcDbArc
 50
90.0
 51
180.0
  0
ARC
  5
27E2
330
A
100
AcDbEntity
  8
MODEL
100
AcDbCircle
 10
170.7349417851356
 20
669.4322957734374
 30
0.0
 40
0.4995579133510168
100
AcDbArc
 50
0.0
 51
90.0
  0
ARC
  5
27E3
330
A
100
AcDbEntity
  8
MODEL
100
AcDbCircle
 10
495.3794794432176
 20
669.4322957734374
 30
0.0
 40
0.4995579133510168
100
AcDbArc
 50
89.99993483416871
 51
180.0
  0
ARC
  5
27E4
330
A
100
AcDbEntity
  8
MODEL
100
AcDbCircle
 10
507.368869363642
 20
669.4322957734374
 30
0.0
 40
0.4995579133510168
100
AcDbArc
 50
0.0
 51
90.00006516583127
  0
DIMENSION
  5
27E5
330
A
100
AcDbEntity
  8
DIM
  6
Continuous
100
AcDbDimension
  2
*D12
 10
482.1099639567763
 20
526.8155649025578
 30
0.0
 11
504.090512144221
 21
526.8155649025578
 31
0.0
 70
   160
 71
     5
 42
43.96109637488934
 73
     0
 74
     0
 75
     0
 52
-89.99999999999999
  3
tfrom線あり
100
AcDbAlignedDimension
 13
526.0710603316656
 23
570.6443084036099
 33
0.0
 14
482.1099639567763
 24
573.1398354338596
 34
0.0
 50
180.0
100
AcDbRotatedDimension
1001
ACAD
1000
DSTYLE
1002
{
1070
   147
1040
5.0
1070
   271
1070
     0
1070
    77
1070
     1
1070
   280
1070
     0
1070
    42
1040
5.0
1070
    41
1040
3.0
1070
   144
1040
1.0
1002
}
  0
LINE
  5
27EB
330
A
100
AcDbEntity
  8
MODEL
100
AcDbLine
 10
525.5715024183146
 20
573.8891723296134
 30
0.0
 11
483.1090797834779
 21
573.8891723296134
 31
0.0
  0
LINE
  5
27EC
330
A
100
AcDbEntity
  8
MODEL
100
AcDbLine
 10
526.0710603316656
 20
638.3298806176374
 30
0.0
 11
526.0710603316656
 21
574.3909927774715
 31
0.0
  0
LINE
  5
27ED
330
A
100
AcDbEntity
  8
MODEL
100
AcDbLine
 10
525.5715024183146
 20
573.889181784746
 30
0.0
 11
525.5715024183146
 21
638.8316916103627
 31
0.0
  0
LINE
  5
27EE
330
A
100
AcDbEntity
  8
MODEL
100
AcDbLine
 10
525.5715024183146
 20
638.8317010652456
 30
0.0
 11
483.1090797834779
 21
638.7723437663287
 31
0.0
  0
LINE
  5
27EF
330
A
100
AcDbEntity
  8
MODEL
100
AcDbLine
 10
483.1090797834779
 20
573.8892804501816
 30
0.0
 11
483.1090797834779
 21
638.7723437663287
 31
0.0
  0
ARC
  5
27F0
330
A
100
AcDbEntity
  8
MODEL
100
AcDbCircle
 10
169.2362680450829
 20
606.3604366974296
 30
0.0
 40
32.4712643678161
100
AcDbArc
 50
291.6798710532998
 51
248.3202865288996
  0
ARC
  5
27F1
330
A
100
AcDbEntity
  8
MODEL
100
AcDbCircle
 10
169.2362680450829
 20
606.3604366974296
 30
0.0
 40
31.97170647819408
100
AcDbArc
 50
292.0373673336999
 51
247.9656293194997
  0
ARC
  5
27F2
330
A
100
AcDbEntity
  8
MODEL
100
AcDbCircle
 10
525.5715024183146
 20
574.3887302429645
 30
0.0
 40
0.4995579133510168
100
AcDbArc
 50
270.0
 51
359.9999802847925
  0
ARC
  5
27F3
330
A
100
AcDbEntity
  8
MODEL
100
AcDbCircle
 10
525.5715024183146
 20
638.3321431518946
 30
0.0
 40
0.4995579133510168
100
AcDbArc
 50
0.0000197151944555
 51
90.0
  0
DIMENSION
  5
27F5
330
A
100
AcDbEntity
  8
DIM
  6
Continuous
100
AcDbDimension
  2
*D14
 10
696.1205740363521
 20
490.8376692350068
 30
0.0
 11
589.115268996564
 21
490.8376692350068
 31
0.0
 70
   160
 71
     5
 42
214.0106100795758
 73
     0
 74
     0
 75
     0
 52
-90.00000000000001
  3
tfrom線あり
100
AcDbAlignedDimension
 13
482.1099639567763
 23
573.1398354338596
 33
0.0
 14
696.1205740363521
 24
490.0876692350068
 34
0.0
 50
0.000000000000007
100
AcDbRotatedDimension
1001
ACAD
1000
DSTYLE
1002
{
1070
   147
1040
5.0
1070
   271
1070
     0
1070
    77
1070
     1
1070
   280
1070
     0
1070
    42
1040
5.0
1070
    41
1040
3.0
1070
   144
1040
1.0
1002
}
  0
LINE
  5
27FF
330
A
100
AcDbEntity
  8
MODEL
100
AcDbLine
 10
482.6095218701273
 20
576.3869618963685
 30
0.0
 11
483.1090797834784
 21
576.3869618963685
 31
0.0
  0
LINE
  5
2800
330
A
100
AcDbEntity
  8
MODEL
100
AcDbLine
 10
482.6095218701273
 20
636.3339114984905
 30
0.0
 11
483.1090797834784
 21
636.3339114984905
 31
0.0
  0
LINE
  5
2801
330
A
100
AcDbEntity
  8
MODEL
100
AcDbLine
 10
482.6095218701273
 20
576.3869618963685
 30
0.0
 11
482.6095218701273
 21
636.3339114984905
 31
0.0
  0
LINE
  5
2802
330
A
100
AcDbEntity
  8
MODEL
100
AcDbLine
 10
482.1099639567763
 20
635.8343535851395
 30
0.0
 11
482.1099639567763
 21
576.8865198097194
 31
0.0
  0
ARC
  5
2803
330
A
100
AcDbEntity
  8
MODEL
100
AcDbCircle
 10
482.6095218701273
 20
576.8865198097194
 30
0.0
 40
0.4995579133510168
100
AcDbArc
 50
180.0
 51
270.0
  0
ARC
  5
2804
330
A
100
AcDbEntity
  8
MODEL
100
AcDbCircle
 10
482.6095218701273
 20
635.8343535851395
 30
0.0
 40
0.4995579133510168
100
AcDbArc
 50
90.0
 51
180.0
  0
DIMENSION
  5
2805
330
A
100
AcDbEntity
  8
DIM
  6
Continuous
100
AcDbDimension
  2
*D16
 10
219.1920593801844
 20
729.2543558972219
 30
0.0
 11
169.2362680450829
 21
729.2543558972219
 31
0.0
 70
   160
 71
     5
 42
99.91158267020332
 73
     0
 74
     0
 75
     0
  3
tfrom線あり
100
AcDbAlignedDimension
 13
119.2804767099811
 23
652.3197647257232
 33
0.0
 14
219.1920593801844
 24
652.3197647257232
 34
0.0
100
AcDbRotatedDimension
1001
ACAD
1000
DSTYLE
1002
{
1070
   147
1040
5.0
1070
   271
1070
     0
1070
    77
1070
     1
1070
   280
1070
     0
1070
    42
1040
5.0
1070
    41
1040
3.0
1070
   144
1040
1.0
1002
}
  0
DIMENSION
  5
2808
330
A
100
AcDbEntity
  8
DIM
  6
Continuous
100
AcDbDimension
  2
*D17
 10
304.2304970108402
 20
554.406413708924
 30
0.0
 11
304.2304970108402
 21
608.3586683508338
 31
0.0
 70
   160
 71
     5
 42
107.9045092838196
 73
     0
 74
     0
 75
     0
  3
tfrom線あり
100
AcDbAlignedDimension
 13
212.9475854632967
 23
662.3109229927436
 33
0.0
 14
212.9475854632967
 24
554.406413708924
 34
0.0
 50
-90.00000000000001
100
AcDbRotatedDimension
1001
ACAD
1000
DSTYLE
1002
{
1070
   147
1040
5.0
1070
   271
1070
     0
1070
    77
1070
     1
1070
   280
1070
     0
1070
    42
1040
5.0
1070
    41
1040
3.0
1070
   144
1040
1.0
1002
}
  0
LINE
  5
280B
330
A
100
AcDbEntity
  8
MODEL
100
AcDbLine
 10
119.280476709981
 20
652.3197647257232
 30
0.0
 11
119.280476709981
 21
564.3975719759443
 31
0.0
  0
LINE
  5
280C
330
A
100
AcDbEntity
  8
MODEL
100
AcDbLine
 10
129.2716349770014
 20
554.406413708924
 30
0.0
 11
157.2468781246585
 21
554.406413708924
 31
0.0
  0
LINE
  5
280D
330
A
100
AcDbEntity
  8
MODEL
100
AcDbLine
 10
181.2256579655073
 20
554.406413708924
 30
0.0
 11
209.200901113164
 21
554.406413708924
 31
0.0
  0
LINE
  5
280E
330
A
100
AcDbEntity
  8
MODEL
100
AcDbLine
 10
151.0024042077707
 20
559.4019928424341
 30
0.0
 11
132.5187614137831
 21
559.4019928424341
 31
0.0
  0
LINE
  5
280F
330
A
100
AcDbEntity
  8
MODEL
100
AcDbLine
 10
132.5187614137831
 20
565.8962457159973
 30
0.0
 11
151.0024042077707
 21
565.8962457159973
 31
0.0
  0
LINE
  5
2810
330
A
100
AcDbEntity
  8
MODEL
100
AcDbLine
 10
119.280476709981
 20
575.0036629772042
 30
0.0
 11
157.2468781246585
 21
575.0036629772042
 31
0.0
  0
LINE
  5
2811
330
A
100
AcDbEntity
  8
MODEL
100
AcDbLine
 10
181.2256579655073
 20
575.0036629772042
 30
0.0
 11
219.1920593801844
 21
575.0036629772042
 31
0.0
  0
LINE
  5
2812
330
A
100
AcDbEntity
  8
MODEL
100
AcDbLine
 10
119.280476709981
 20
578.8304986124961
 30
0.0
 11
152.0280665294993
 21
578.8304986124961
 31
0.0
  0
LINE
  5
2813
330
A
100
AcDbEntity
  8
MODEL
100
AcDbLine
 10
186.4209077073638
 20
578.8304986124961
 30
0.0
 11
219.1920593801844
 21
578.8304986124961
 31
0.0
  0
LINE
  5
2814
330
A
100
AcDbEntity
  8
MODEL
100
AcDbLine
 10
119.280476709981
 20
583.8001793114747
 30
0.0
 11
145.9044746126401
 21
583.8001793114747
 31
0.0
  0
LINE
  5
2815
330
A
100
AcDbEntity
  8
MODEL
100
AcDbLine
 10
192.5795433138583
 20
583.8001793114747
 30
0.0
 11
219.1920593801844
 21
583.8001793114747
 31
0.0
  0
LINE
  5
2816
330
A
100
AcDbEntity
  8
MODEL
100
AcDbLine
 10
119.280476709981
 20
587.6270149467666
 30
0.0
 11
142.7322484878966
 21
587.6270149467666
 31
0.0
  0
LINE
  5
2817
330
A
100
AcDbEntity
  8
MODEL
100
AcDbLine
 10
195.7473003587897
 20
587.6270149467666
 30
0.0
 11
219.1920593801844
 21
587.6270149467666
 31
0.0
  0
LINE
  5
2818
330
A
100
AcDbEntity
  8
MODEL
100
AcDbLine
 10
119.280476709981
 20
629.090321754901
 30
0.0
 11
129.2716349770014
 21
629.090321754901
 31
0.0
  0
LINE
  5
2819
330
A
100
AcDbEntity
  8
MODEL
100
AcDbLine
 10
209.200901113164
 20
629.090321754901
 30
0.0
 11
219.1920593801844
 21
629.090321754901
 31
0.0
  0
LINE
  5
281A
330
A
100
AcDbEntity
  8
MODEL
100
AcDbLine
 10
119.280476709981
 20
632.9171573904425
 30
0.0
 11
150.5932300607856
 21
632.9171573904425
 31
0.0
  0
LINE
  5
281B
330
A
100
AcDbEntity
  8
MODEL
100
AcDbLine
 10
187.8899432424168
 20
632.9171573904425
 30
0.0
 11
219.1920593801844
 21
632.9171573904425
 31
0.0
  0
LINE
  5
281C
330
A
100
AcDbEntity
  8
MODEL
100
AcDbLine
 10
200.7084165861968
 20
654.0682174224518
 30
0.0
 11
200.7084165861968
 21
648.5730803755906
 31
0.0
  0
LINE
  5
281D
330
A
100
AcDbEntity
  8
MODEL
100
AcDbLine
 10
200.7084165861968
 20
562.6491192792157
 30
0.0
 11
200.7084165861968
 21
568.1442563260769
 31
0.0
  0
LINE
  5
281E
330
A
100
AcDbEntity
  8
MODEL
100
AcDbLine
 10
119.280476709981
 20
637.8868380894213
 30
0.0
 11
161.5538129638981
 21
637.8868380894213
 31
0.0
  0
LINE
  5
281F
330
A
100
AcDbEntity
  8
MODEL
100
AcDbLine
 10
176.9941659382171
 20
637.8868380894213
 30
0.0
 11
219.1920593801844
 21
637.8868380894213
 31
0.0
  0
LINE
  5
2820
330
A
100
AcDbEntity
  8
MODEL
100
AcDbLine
 10
207.20266945976
 20
568.1442563260769
 30
0.0
 11
207.20266945976
 21
562.6491192792157
 31
0.0
  0
LINE
  5
2821
330
A
100
AcDbEntity
  8
MODEL
100
AcDbLine
 10
207.20266945976
 20
648.5730803755906
 30
0.0
 11
207.20266945976
 21
654.0682174224518
 31
0.0
  0
LINE
  5
2822
330
A
100
AcDbEntity
  8
MODEL
100
AcDbLine
 10
119.280476709981
 20
641.7136737247131
 30
0.0
 11
167.2380363916786
 21
641.7136737247131
 31
0.0
  0
LINE
  5
2823
330
A
100
AcDbEntity
  8
MODEL
100
AcDbLine
 10
171.2344996984868
 20
641.7136737247131
 30
0.0
 11
219.1920593801844
 21
641.7136737247131
 31
0.0
  0
LINE
  5
2824
330
A
100
AcDbEntity
  8
MODEL
100
AcDbLine
 10
132.5187614137831
 20
650.8210909856703
 30
0.0
 11
151.0024042077707
 21
650.8210909856703
 31
0.0
  0
LINE
  5
2825
330
A
100
AcDbEntity
  8
MODEL
100
AcDbLine
 10
219.1920593801844
 20
652.3197647257232
 30
0.0
 11
219.1920593801844
 21
564.3975719759443
 31
0.0
  0
LINE
  5
2826
330
A
100
AcDbEntity
  8
MODEL
100
AcDbLine
 10
151.0024042077707
 20
657.3153438592335
 30
0.0
 11
132.5187614137831
 21
657.3153438592335
 31
0.0
  0
LINE
  5
2827
330
A
100
AcDbEntity
  8
MODEL
100
AcDbLine
 10
129.2716349770014
 20
662.3109229927436
 30
0.0
 11
167.2380363916786
 21
662.3109229927436
 31
0.0
  0
LINE
  5
2828
330
A
100
AcDbEntity
  8
MODEL
100
AcDbLine
 10
171.2344996984868
 20
662.3109229927436
 30
0.0
 11
209.200901113164
 21
662.3109229927436
 31
0.0
  0
LINE
  5
2829
330
A
100
AcDbEntity
  8
MODEL
100
AcDbLine
 10
383.1974971132747
 20
554.406413708924
 30
0.0
 11
381.199265459871
 21
554.406413708924
 31
0.0
  0
LINE
  5
282A
330
A
100
AcDbEntity
  8
MODEL
100
AcDbLine
 10
383.1974971132747
 20
564.3975719759443
 30
0.0
 11
381.199265459871
 21
564.3975719759443
 31
0.0
  0
LINE
  5
282B
330
A
100
AcDbEntity
  8
MODEL
100
AcDbLine
 10
381.199265459871
 20
652.3197647257232
 30
0.0
 11
383.1974971132747
 21
652.3197647257232
 31
0.0
  0
LINE
  5
282C
330
A
100
AcDbEntity
  8
MODEL
100
AcDbLine
 10
381.199265459871
 20
662.3109229927436
 30
0.0
 11
383.1974971132747
 21
662.3109229927436
 31
0.0
  0
LINE
  5
282D
330
A
100
AcDbEntity
  8
MODEL
100
AcDbLine
 10
384.9819798764886
 20
637.8868380894213
 30
0.0
 11
390.9046147034803
 21
632.9171573904425
 31
0.0
  0
LINE
  5
282E
330
A
100
AcDbEntity
  8
MODEL
100
AcDbLine
 10
389.6201761555119
 20
631.3864231362759
 30
0.0
 11
383.6975413282705
 21
636.3561038352547
 31
0.0
  0
LINE
  5
282F
330
A
100
AcDbEntity
  8
MODEL
100
AcDbLine
 10
390.9046147034803
 20
583.8001793114747
 30
0.0
 11
384.9819798764886
 21
578.8304986124961
 31
0.0
  0
LINE
  5
2830
330
A
100
AcDbEntity
  8
MODEL
100
AcDbLine
 10
383.6975413282705
 20
580.3612328666627
 30
0.0
 11
389.6201761555119
 21
585.3309135656414
 31
0.0
  0
LINE
  5
2831
330
A
100
AcDbEntity
  8
MODEL
100
AcDbLine
 10
392.6890974669443
 20
629.090321754901
 30
0.0
 11
392.6890974669443
 21
587.6270149467666
 31
0.0
  0
LINE
  5
2832
330
A
100
AcDbEntity
  8
MODEL
100
AcDbLine
 10
390.6908658135401
 20
587.6270149467666
 30
0.0
 11
390.6908658135401
 21
629.090321754901
 31
0.0
  0
LINE
  5
2833
330
A
100
AcDbEntity
  8
MODEL
100
AcDbLine
 10
383.1974971132747
 20
554.406413708924
 30
0.0
 11
383.1974971132747
 21
575.0036629772042
 31
0.0
  0
LINE
  5
2834
330
A
100
AcDbEntity
  8
MODEL
100
AcDbLine
 10
383.1974971132747
 20
641.7136737247131
 30
0.0
 11
383.1974971132747
 21
662.3109229927436
 31
0.0
  0
LINE
  5
2835
330
A
100
AcDbEntity
  8
MODEL
100
AcDbLine
 10
381.199265459871
 20
554.406413708924
 30
0.0
 11
381.199265459871
 21
575.0036629772042
 31
0.0
  0
LINE
  5
2836
330
A
100
AcDbEntity
  8
MODEL
100
AcDbLine
 10
381.199265459871
 20
641.7136737247131
 30
0.0
 11
381.199265459871
 21
662.3109229927436
 31
0.0
  0
ARC
  5
2837
330
A
100
AcDbEntity
  8
MODEL
100
AcDbCircle
 10
129.2716349770014
 20
564.3975719759443
 30
0.0
 40
9.991158267020337
100
AcDbArc
 50
180.0
 51
270.0
  0
ARC
  5
2838
330
A
100
AcDbEntity
  8
MODEL
100
AcDbCircle
 10
151.0024042077707
 20
562.6491192792157
 30
0.0
 40
3.24712643678161
100
AcDbArc
 50
270.0
 51
90.0
  0
ARC
  5
2839
330
A
100
AcDbEntity
  8
MODEL
100
AcDbCircle
 10
132.5187614137831
 20
562.6491192792157
 30
0.0
 40
3.24712643678161
100
AcDbArc
 50
90.0
 51
270.0
  0
ARC
  5
283A
330
A
100
AcDbEntity
  8
MODEL
100
AcDbCircle
 10
129.2716349770014
 20
652.3197647257232
 30
0.0
 40
9.991158267020337
100
AcDbArc
 50
90.0
 51
180.0
  0
ARC
  5
283B
330
A
100
AcDbEntity
  8
MODEL
100
AcDbCircle
 10
151.0024042077707
 20
654.0682174224518
 30
0.0
 40
3.24712643678161
100
AcDbArc
 50
270.0
 51
90.0
  0
ARC
  5
283C
330
A
100
AcDbEntity
  8
MODEL
100
AcDbCircle
 10
132.5187614137831
 20
654.0682174224518
 30
0.0
 40
3.24712643678161
100
AcDbArc
 50
90.0
 51
270.0
  0
ARC
  5
283D
330
A
100
AcDbEntity
  8
MODEL
100
AcDbCircle
 10
209.200901113164
 20
564.3975719759443
 30
0.0
 40
9.991158267020337
100
AcDbArc
 50
270.0
 51
0.0
  0
ARC
  5
283E
330
A
100
AcDbEntity
  8
MODEL
100
AcDbCircle
 10
203.9555430229784
 20
568.1442563260769
 30
0.0
 40
3.24712643678161
100
AcDbArc
 50
0.0
 51
180.0
  0
ARC
  5
283F
330
A
100
AcDbEntity
  8
MODEL
100
AcDbCircle
 10
203.9555430229784
 20
562.6491192792157
 30
0.0
 40
3.24712643678161
100
AcDbArc
 50
180.0
 51
0.0
  0
ARC
  5
2840
330
A
100
AcDbEntity
  8
MODEL
100
AcDbCircle
 10
209.200901113164
 20
652.3197647257232
 30
0.0
 40
9.991158267020337
100
AcDbArc
 50
0.0
 51
90.0
  0
ARC
  5
2841
330
A
100
AcDbEntity
  8
MODEL
100
AcDbCircle
 10
203.9555430229784
 20
654.0682174224518
 30
0.0
 40
3.24712643678161
100
AcDbArc
 50
0.0
 51
180.0
  0
ARC
  5
2842
330
A
100
AcDbEntity
  8
MODEL
100
AcDbCircle
 10
203.9555430229784
 20
648.5730803755906
 30
0.0
 40
3.24712643678161
100
AcDbArc
 50
180.0
 51
0.0
  0
ARC
  5
2843
330
A
100
AcDbEntity
  8
MODEL
100
AcDbCircle
 10
388.1930762467848
 20
575.0036629772042
 30
0.0
 40
6.993810786914236
100
AcDbArc
 50
129.999999999996
 51
180.0
  0
ARC
  5
2844
330
A
100
AcDbEntity
  8
MODEL
100
AcDbCircle
 10
388.1930762467848
 20
575.0036629772042
 30
0.0
 40
4.995579133510168
100
AcDbArc
 50
129.9999999999995
 51
180.0
  0
ARC
  5
2845
330
A
100
AcDbEntity
  8
MODEL
100
AcDbCircle
 10
387.6935183334338
 20
587.6270149467666
 30
0.0
 40
4.995579133510168
100
AcDbArc
 50
309.9999999999995
 51
0.0
  0
ARC
  5
2846
330
A
100
AcDbEntity
  8
MODEL
100
AcDbCircle
 10
387.6935183334338
 20
587.6270149467666
 30
0.0
 40
2.997347480106101
100
AcDbArc
 50
310.0000000000086
 51
0.0
  0
ARC
  5
2847
330
A
100
AcDbEntity
  8
MODEL
100
AcDbCircle
 10
388.1930762467848
 20
641.7136737247131
 30
0.0
 40
6.993810786914236
100
AcDbArc
 50
180.0
 51
230.0000000000039
  0
ARC
  5
2848
330
A
100
AcDbEntity
  8
MODEL
100
AcDbCircle
 10
387.6935183334338
 20
629.090321754901
 30
0.0
 40
4.995579133510168
100
AcDbArc
 50
0.0
 51
50.00000000000047
  0
ARC
  5
2849
330
A
100
AcDbEntity
  8
MODEL
100
AcDbCircle
 10
388.1930762467848
 20
641.7136737247131
 30
0.0
 40
4.995579133510168
100
AcDbArc
 50
180.0
 51
230.0000000000005
  0
ARC
  5
284A
330
A
100
AcDbEntity
  8
MODEL
100
AcDbCircle
 10
387.6935183334338
 20
629.090321754901
 30
0.0
 40
2.997347480106101
100
AcDbArc
 50
0.0
 51
49.99999999999154
  0
DIMENSION
  5
284D
330
A
100
AcDbEntity
  8
DIM
  6
Continuous
100
AcDbDimension
  2
*D19
 10
734.8511269664998
 20
543.9156975285524
 30
0.0
 11
734.8511269664998
 21
575.1380671129909
 31
0.0
 70
   160
  1
62.5
 71
     5
 42
62.44473916887717
 73
     0
 74
     0
 75
     0
 52
-89.99999999999999
  3
tfrom線あり
100
AcDbAlignedDimension
 13
690.9591564155139
 23
606.3604366974296
 33
0.0
 14
711.8566483069087
 24
543.9156975285524
 34
0.0
 50
-89.99999999999999
100
AcDbRotatedDimension
1001
ACAD
1000
DSTYLE
1002
{
1070
   147
1040
5.0
1070
   271
1070
     1
1070
    77
1070
     1
1070
   280
1070
     0
1070
    42
1040
5.0
1070
    41
1040
3.0
1070
   144
1040
1.0
1002
}
  0
LINE
  5
2850
330
A
100
AcDbEntity
  8
MODEL
100
AcDbLine
 10
181.2256579655073
 20
543.9156975285524
 30
0.0
 11
157.2468781246585
 21
543.9156975285524
 31
0.0
  0
LINE
  5
2851
330
A
100
AcDbEntity
  8
MODEL
100
AcDbLine
 10
181.2256579655073
 20
568.8935931961032
 30
0.0
 11
157.2468781246585
 21
568.8935931961032
 31
0.0
  0
LINE
  5
2852
330
A
100
AcDbEntity
  8
MODEL
100
AcDbLine
 10
157.2468781246585
 20
606.3604366974296
 30
0.0
 11
157.2468781246585
 21
543.9156975285524
 31
0.0
  0
LINE
  5
2853
330
A
100
AcDbEntity
  8
MODEL
100
AcDbLine
 10
181.2256579655073
 20
606.3604366974296
 30
0.0
 11
181.2256579655073
 21
543.9156975285524
 31
0.0
  0
LINE
  5
2854
330
A
100
AcDbEntity
  8
MODEL
100
AcDbLine
 10
708.1099639567763
 20
568.8935931961032
 30
0.0
 11
708.1099639567763
 21
543.9156975285524
 31
0.0
  0
LINE
  5
2855
330
A
100
AcDbEntity
  8
HIDDEN
  6
CENTER
100
AcDbLine
 10
696.1205740363519
 20
570.2086780164768
 30
0.0
 11
696.1205740363521
 21
490.8376692350068
 31
0.0
  0
LINE
  5
2856
330
A
100
AcDbEntity
  8
MODEL
100
AcDbLine
 10
684.1311841159275
 20
568.8935931961032
 30
0.0
 11
684.1311841159275
 21
543.9156975285524
 31
0.0
  0
LINE
  5
2858
330
A
100
AcDbEntity
  8
MODEL
100
AcDbLine
 10
684.1311841159275
 20
543.9156975285524
 30
0.0
 11
708.1099639567763
 21
543.9156975285524
 31
0.0
  0
LINE
  5
2859
330
A
100
AcDbEntity
  8
MODEL
100
AcDbLine
 10
684.1311841159275
 20
568.8935931961032
 30
0.0
 11
708.1099639567763
 21
568.8935931961032
 31
0.0
  0
LINE
  5
285A
330
A
100
AcDbEntity
  8
MODEL
100
AcDbLine
 10
526.270883497006
 20
594.3710467770052
 30
0.0
 11
528.7686730637611
 21
594.3710467770052
 31
0.0
  0
LINE
  5
285B
330
A
100
AcDbEntity
  8
MODEL
100
AcDbLine
 10
533.7642521972714
 20
594.3710467770052
 30
0.0
 11
658.6537305350255
 21
594.3710467770052
 31
0.0
  0
LINE
  5
285C
330
A
100
AcDbEntity
  8
HIDDEN
  6
CENTER
100
AcDbLine
 10
658.6537305350255
 20
606.3604366974296
 30
0.0
 11
478.1049885193272
 21
606.3604366974296
 31
0.0
  0
LINE
  5
285D
330
A
100
AcDbEntity
  8
MODEL
100
AcDbLine
 10
526.270883497006
 20
618.349826617854
 30
0.0
 11
658.6537305350255
 21
618.349826617854
 31
0.0
  0
LINE
  5
285E
330
A
100
AcDbEntity
  8
MODEL
100
AcDbLine
 10
526.270883497006
 20
594.3710467770052
 30
0.0
 11
526.270883497006
 21
618.349826617854
 31
0.0
  0
ARC
  5
285F
330
A
100
AcDbEntity
  8
MODEL
100
AcDbCircle
 10
169.2362680450829
 20
606.3604366974296
 30
0.0
 40
11.9893899204244
100
AcDbArc
 50
0.0
 51
180.0
  0
ARC
  5
2860
330
A
100
AcDbEntity
  8
MODEL
100
AcDbCircle
 10
658.6537305350255
 20
568.8935931961032
 30
0.0
 40
49.45623342175067
100
AcDbArc
 50
0.0
 51
90.0
  0
ARC
  5
2861
330
A
100
AcDbEntity
  8
MODEL
100
AcDbCircle
 10
658.6537305350255
 20
568.8935931961032
 30
0.0
 40
25.47745358090186
100
AcDbArc
 50
0.0
 51
90.0
  0
ARC
  5
2862
330
A
100
AcDbEntity
  8
MODEL
100
AcDbCircle
 10
531.0191065626914
 20
576.4475458549958
 30
0.0
 40
18.13250423582449
100
AcDbArc
 50
81.29230191710003
 51
82.94731279470014
  0
ARC
  5
2863
330
A
100
AcDbEntity
  8
MODEL
100
AcDbCircle
 10
531.4923633905892
 20
576.6025373968394
 30
0.0
 40
17.97605114014147
100
AcDbArc
 50
97.0450488384996
 51
98.71489104140015
  0
ARC
  5
2864
330
A
100
AcDbEntity
  8
MODEL
100
AcDbCircle
 10
531.1215123088871
 20
577.2415670641094
 30
0.0
 40
17.33191776867374
100
AcDbArc
 50
82.96099679179977
 51
83.56382897029977
  0
ARC
  5
2865
330
A
100
AcDbEntity
  8
MODEL
100
AcDbCircle
 10
531.4079606740088
 20
577.2709916481546
 30
0.0
 40
17.30229182582228
100
AcDbArc
 50
96.48564296020004
 51
97.0391552152998
  0
ARC
  5
2866
330
A
100
AcDbEntity
  8
MODEL
100
AcDbCircle
 10
531.3769503180517
 20
577.542489520051
 30
0.0
 40
17.02902873781388
100
AcDbArc
 50
96.31974753260043
 51
96.48515489610071
  0
ARC
  5
2867
330
A
100
AcDbEntity
  8
MODEL
100
AcDbCircle
 10
531.1704204630848
 20
577.6717019212933
 30
0.0
 40
16.89901148308135
100
AcDbArc
 50
83.5651288342999
 51
84.7493779944
  0
ARC
  5
2868
330
A
100
AcDbEntity
  8
MODEL
100
AcDbCircle
 10
531.3460287597625
 20
577.8338245724207
 30
0.0
 40
16.73606041106985
100
AcDbArc
 50
95.09736090920006
 51
96.32431996360008
  0
ARC
  5
2869
330
A
100
AcDbEntity
  8
MODEL
100
AcDbCircle
 10
531.2157735311264
 20
578.1467511732253
 30
0.0
 40
16.42180528645005
100
AcDbArc
 50
84.75527390039996
 51
85.57988054750084
  0
ARC
  5
286A
330
A
100
AcDbEntity
  8
MODEL
100
AcDbCircle
 10
531.3017343183831
 20
578.3357458448036
 30
0.0
 40
16.23218867351238
100
AcDbArc
 50
93.64191702670013
 51
95.09903983139966
  0
ARC
  5
286B
330
A
100
AcDbEntity
  8
MODEL
100
AcDbCircle
 10
531.2373579788452
 20
578.4292000692001
 30
0.0
 40
16.1385329711649
100
AcDbArc
 50
85.57900064350032
 51
86.19696771290012
  0
ARC
  5
286C
330
A
100
AcDbEntity
  8
MODEL
100
AcDbCircle
 10
531.2623709484737
 20
578.825369240513
 30
0.0
 40
15.74157720770115
100
AcDbArc
 50
86.1921679182995
 51
89.98510720300008
  0
ARC
  5
286D
330
A
100
AcDbEntity
  8
MODEL
100
AcDbCircle
 10
531.2681408646033
 20
578.9028075737647
 30
0.0
 40
15.66413843234085
100
AcDbArc
 50
90.00613859039986
 51
93.65104138790018
  0
LINE
  5
286E
330
A
100
AcDbEntity
  8
MODEL
100
AcDbLine
 10
479.4922804908167
 20
592.3728151236008
 30
0.0
 11
446.2417057486994
 21
592.3728151236008
 31
0.0
  0
LINE
  5
286F
330
A
100
AcDbEntity
  8
MODEL
100
AcDbLine
 10
442.0454193352487
 20
592.3728151236008
 30
0.0
 11
426.1594776614622
 21
592.3728151236008
 31
0.0
  0
LINE
  5
2870
330
A
100
AcDbEntity
  8
MODEL
100
AcDbLine
 10
479.4922804908167
 20
630.3392165382782
 30
0.0
 11
426.1594776614622
 21
630.3392165382782
 31
0.0
  0
LINE
  5
2871
330
A
100
AcDbEntity
  8
MODEL
100
AcDbLine
 10
426.1594776614622
 20
592.3728151236008
 30
0.0
 11
426.1594776614622
 21
630.3392165382782
 31
0.0
  0
LINE
  5
2872
330
A
100
AcDbEntity
  8
MODEL
100
AcDbLine
 10
425.1603618347601
 20
629.340100711576
 30
0.0
 11
425.1603618347601
 21
593.3719309503028
 31
0.0
  0
ARC
  5
2873
330
A
100
AcDbEntity
  8
MODEL
100
AcDbCircle
 10
426.1594776614622
 20
593.3719309503028
 30
0.0
 40
0.9991158267020337
100
AcDbArc
 50
180.0
 51
270.0
  0
ARC
  5
2874
330
A
100
AcDbEntity
  8
MODEL
100
AcDbCircle
 10
426.1594776614622
 20
629.340100711576
 30
0.0
 40
0.9991158267020337
100
AcDbArc
 50
90.0
 51
180.0
  0
SPLINE
  5
2875
330
A
100
AcDbEntity
  8
MODEL
100
AcDbSpline
210
0.0
220
0.0
230
1.0
 70
     8
 71
     3
 72
    17
 73
    13
 74
     0
 42
0.000000001
 43
0.0000000001
 40
0.0
 40
0.0
 40
0.0
 40
0.0
 40
0.1947781008
 40
0.3822201963
 40
0.554886836
 40
0.7063858922
 40
0.8308675826
 40
0.9235183895
 40
0.9567224865999999
 40
0.9806751636
 40
0.9951463679000001
 40
1.0
 40
1.0
 40
1.0
 40
1.0
 10
444.1435625420988
 20
592.4891214376592
 30
0.0
 10
444.2800630824106
 20
592.4891214376592
 30
0.0
 10
444.5479172076118
 20
592.4862003921552
 30
0.0
 10
444.9366716531288
 20
592.4737089902433
 30
0.0
 10
445.2945381371253
 20
592.4550776149359
 30
0.0
 10
445.6088192867144
 20
592.4330032380327
 30
0.0
 10
445.8645059660669
 20
592.411342784076
 30
0.0
 10
446.0428855487787
 20
592.3937607781234
 30
0.0
 10
446.1420962614377
 20
592.3837707258776
 30
0.0
 10
446.2007610314624
 20
592.3769409863949
 30
0.0
 10
446.2153162797115
 20
592.3763064331963
 30
0.0
 10
446.2450214711819
 20
592.3720562546663
 30
0.0
 10
446.2417057781734
 20
592.3728151236008
 30
0.0
  0
LINE
  5
2876
330
A
100
AcDbEntity
  8
MODEL
100
AcDbLine
 10
446.2417057781734
 20
592.3728151236008
 30
0.0
 11
446.1705202374771
 21
592.3805511053492
 31
0.0
  0
SPLINE
  5
2877
330
A
100
AcDbEntity
  8
MODEL
100
AcDbSpline
210
0.0
220
0.0
230
1.0
 70
     8
 71
     3
 72
    16
 73
    12
 74
     0
 42
0.000000001
 43
0.0000000001
 40
0.0
 40
0.0
 40
0.0
 40
0.0
 40
0.004853739
 40
0.0193252557
 40
0.0432784465
 40
0.0764832566
 40
0.1691360564
 40
0.2936204254
 40
0.4451227394
 40
0.6177930972
 40
1.0
 40
1.0
 40
1.0
 40
1.0
 10
442.0454193060248
 20
592.3728151236008
 30
0.0
 10
442.0487418412279
 20
592.3735434593059
 30
0.0
 10
442.0623425332171
 20
592.3741856447502
 30
0.0
 10
442.0923586278016
 20
592.378283988897
 30
0.0
 10
442.142345925505
 20
592.3831696585455
 30
0.0
 10
442.2467215716767
 20
592.3943168430305
 30
0.0
 10
442.4213731132907
 20
592.4110636468502
 30
0.0
 10
442.6787682494839
 20
592.4331067761561
 30
0.0
 10
442.9924339682018
 20
592.4550436754708
 30
0.0
 10
443.4867989625566
 20
592.4808249933952
 30
0.0
 10
443.8757176162565
 20
592.4891214376592
 30
0.0
 10
444.1435625420988
 20
592.4891214376592
 30
0.0
  0
LINE
  5
2878
330
A
100
AcDbEntity
  8
MODEL
100
AcDbLine
 10
533.0648711183303
 20
594.3710467770052
 30
0.0
 11
529.4680541424527
 21
594.3710467770052
 31
0.0
  0
LINE
  5
2879
330
A
100
AcDbEntity
  8
MODEL
100
AcDbLine
 10
533.0648711645395
 20
594.3710467310458
 30
0.0
 11
533.1479393059099
 21
594.4541148679202
 31
0.0
  0
LINE
  5
287A
330
A
100
AcDbEntity
  8
MODEL
100
AcDbLine
 10
532.8650479532396
 20
594.4846430241028
 30
0.0
 11
532.8650479532396
 21
594.3710467770052
 31
0.0
  0
LINE
  5
287B
330
A
100
AcDbEntity
  8
MODEL
100
AcDbLine
 10
529.6678773077931
 20
594.4845777948278
 30
0.0
 11
529.6678773077931
 21
594.3710467770052
 31
0.0
  0
LINE
  5
287C
330
A
100
AcDbEntity
  8
MODEL
100
AcDbLine
 10
529.4680540962438
 20
594.3710467310458
 30
0.0
 11
529.3851034229192
 21
594.4539974001241
 31
0.0
  0
LINE
  5
287D
330
A
100
AcDbEntity
  8
MODEL
100
AcDbLine
 10
526.2708834970065
 20
595.3701626037073
 30
0.0
 11
526.0710603316661
 21
595.3701626037073
 31
0.0
  0
LINE
  5
287E
330
A
100
AcDbEntity
  8
MODEL
100
AcDbLine
 10
526.2708834970065
 20
617.3507107911521
 30
0.0
 11
526.0710603316661
 21
617.3507107911521
 31
0.0
  0
LINE
  5
287F
330
A
100
AcDbEntity
  8
MODEL
100
AcDbLine
 10
390.191307900189
 20
600.8652996505682
 30
0.0
 11
390.6908658135401
 21
600.8652996505682
 31
0.0
  0
LINE
  5
2880
330
A
100
AcDbEntity
  8
MODEL
100
AcDbLine
 10
390.191307900189
 20
615.8520370510987
 30
0.0
 11
390.6908658135401
 21
615.8520370510987
 31
0.0
  0
LINE
  5
2881
330
A
100
AcDbEntity
  8
MODEL
100
AcDbLine
 10
390.191307900189
 20
615.8520370510987
 30
0.0
 11
390.191307900189
 21
600.8652996505682
 31
0.0
  0
LINE
  5
2882
330
A
100
AcDbEntity
  8
MODEL
100
AcDbLine
 10
389.691749986838
 20
615.3524791369985
 30
0.0
 11
389.691749986838
 21
601.3648575649183
 31
0.0
  0
ARC
  5
2883
330
A
100
AcDbEntity
  8
MODEL
100
AcDbCircle
 10
390.191307900189
 20
615.3524791377477
 30
0.0
 40
0.4995579133510168
100
AcDbArc
 50
90.0
 51
180.0000001204811
  0
ARC
  5
2884
330
A
100
AcDbEntity
  8
MODEL
100
AcDbCircle
 10
390.191307900189
 20
601.3648575639193
 30
0.0
 40
0.4995579133510168
100
AcDbArc
 50
179.9999998794928
 51
270.0
  0
LINE
  5
2885
330
A
100
AcDbEntity
  8
MODEL
100
AcDbLine
 10
422.6625722680053
 20
602.8635313039724
 30
0.0
 11
425.1603618347606
 21
602.8635313039724
 31
0.0
  0
LINE
  5
2886
330
A
100
AcDbEntity
  8
MODEL
100
AcDbLine
 10
422.6625722680053
 20
603.2631776346534
 30
0.0
 11
425.1603618347606
 21
603.2631776346534
 31
0.0
  0
LINE
  5
2887
330
A
100
AcDbEntity
  8
MODEL
100
AcDbLine
 10
422.6625722680053
 20
607.4594641068019
 30
0.0
 11
425.1603618347606
 21
607.4594641068019
 31
0.0
  0
LINE
  5
2888
330
A
100
AcDbEntity
  8
MODEL
100
AcDbLine
 10
422.6625722680053
 20
607.8591104374827
 30
0.0
 11
425.1603618347606
 21
607.8591104374827
 31
0.0
  0
LINE
  5
2889
330
A
100
AcDbEntity
  8
MODEL
100
AcDbLine
 10
387.1940779408326
 20
603.3630892173235
 30
0.0
 11
389.691749986838
 21
603.3630892173235
 31
0.0
  0
LINE
  5
288A
330
A
100
AcDbEntity
  8
MODEL
100
AcDbLine
 10
386.1203032634101
 20
605.8608787840785
 30
0.0
 11
386.1063856249041
 21
605.8608787840785
 31
0.0
  0
LINE
  5
288B
330
A
100
AcDbEntity
  8
MODEL
100
AcDbLine
 10
386.1203032634101
 20
607.8591104374826
 30
0.0
 11
385.7813587150879
 21
607.8591104374826
 31
0.0
  0
LINE
  5
288C
330
A
100
AcDbEntity
  8
MODEL
100
AcDbLine
 10
387.1941070473247
 20
608.3586683508336
 30
0.0
 11
386.1063789373222
 21
608.3586683508336
 31
0.0
  0
LINE
  5
288D
330
A
100
AcDbEntity
  8
MODEL
100
AcDbLine
 10
385.7813587150879
 20
608.8582262641846
 30
0.0
 11
386.1203032634101
 21
608.8582262641846
 31
0.0
  0
LINE
  5
288E
330
A
100
AcDbEntity
  8
MODEL
100
AcDbLine
 10
386.1063854055981
 20
610.8564579175887
 30
0.0
 11
386.1203032634101
 21
610.8564579175887
 31
0.0
  0
LINE
  5
288F
330
A
100
AcDbEntity
  8
MODEL
100
AcDbLine
 10
387.1940779508238
 20
613.3542474843439
 30
0.0
 11
389.691749986838
 21
613.3542474843439
 31
0.0
  0
LINE
  5
2890
330
A
100
AcDbEntity
  8
MODEL
100
AcDbLine
 10
387.1940779408326
 20
603.3630892175732
 30
0.0
 11
387.1939604200832
 21
608.3586683508336
 31
0.0
  0
LINE
  5
2891
330
A
100
AcDbEntity
  8
MODEL
100
AcDbLine
 10
387.1939604200832
 20
608.3586683508336
 30
0.0
 11
387.1940779508238
 21
613.3542474843439
 31
0.0
  0
ARC
  5
2892
330
A
100
AcDbEntity
  8
MODEL
100
AcDbCircle
 10
395.5976148462589
 20
608.2091887564106
 30
0.0
 40
9.853505856312998
100
AcDbArc
 50
148.5226077390987
 51
164.3817875307996
  0
ARC
  5
2893
330
A
100
AcDbEntity
  8
MODEL
100
AcDbCircle
 10
395.5976148462589
 20
608.5081479455065
 30
0.0
 40
9.853505856312998
100
AcDbArc
 50
195.6182166537999
 51
211.4773922412015
  0
ARC
  5
2894
330
A
100
AcDbEntity
  8
MODEL
100
AcDbCircle
 10
395.0740258825747
 20
608.3588493636453
 30
0.0
 40
8.967657873331124
100
AcDbArc
 50
180.0011565193001
 51
183.1945656600001
  0
ARC
  5
2895
330
A
100
AcDbEntity
  8
MODEL
100
AcDbCircle
 10
395.0740258825747
 20
608.358487338022
 30
0.0
 40
8.967657873331124
100
AcDbArc
 50
176.8054343399999
 51
179.9988434806999
  0
SPLINE
  5
2896
330
A
100
AcDbEntity
  8
MODEL
100
AcDbSpline
210
0.0
220
0.0
230
1.0
 70
     8
 71
     3
 72
     9
 73
     5
 74
     0
 42
0.000000001
 43
0.0000000001
 40
0.0
 40
0.0
 40
0.0
 40
0.0
 40
0.4999891353
 40
1.0
 40
1.0
 40
1.0
 40
1.0
 10
385.7813587150879
 20
607.8591104374826
 30
0.0
 10
385.8021752223997
 20
607.5215009219654
 30
0.0
 10
385.8812925618051
 20
606.8481642551219
 30
0.0
 10
386.0293927357045
 20
606.186698877213
 30
0.0
 10
386.1203032634101
 20
605.8608787840785
 30
0.0
  0
SPLINE
  5
2897
330
A
100
AcDbEntity
  8
MODEL
100
AcDbSpline
210
0.0
220
0.0
230
1.0
 70
     8
 71
     3
 72
     9
 73
     5
 74
     0
 42
0.000000001
 43
0.0000000001
 40
0.0
 40
0.0
 40
0.0
 40
0.0
 40
0.5000108648
 40
1.0
 40
1.0
 40
1.0
 40
1.0
 10
386.1203032634101
 20
610.8564579175887
 30
0.0
 10
386.0293927357045
 20
610.5306378247042
 30
0.0
 10
385.8812925618051
 20
609.8691724467951
 30
0.0
 10
385.8021752223997
 20
609.1958357799517
 30
0.0
 10
385.7813587150879
 20
608.8582262641846
 30
0.0
  0
LINE
  5
2898
330
A
100
AcDbEntity
  8
MODEL
100
AcDbLine
 10
423.8728261121544
 20
608.9581378468547
 30
0.0
 11
422.6625722680053
 21
608.9581378468547
 31
0.0
  0
LINE
  5
2899
330
A
100
AcDbEntity
  8
MODEL
100
AcDbLine
 10
425.1603618347606
 20
610.007209464892
 30
0.0
 11
425.0553476848866
 21
610.007209464892
 31
0.0
  0
LINE
  5
289A
330
A
100
AcDbEntity
  8
MODEL
100
AcDbLine
 10
425.1603618347606
 20
620.6977488106037
 30
0.0
 11
425.0553476848866
 21
620.6977488106037
 31
0.0
  0
LINE
  5
289B
330
A
100
AcDbEntity
  8
MODEL
100
AcDbLine
 10
423.8728261121544
 20
621.7468204286408
 30
0.0
 11
422.6625722680053
 21
621.7468204286408
 31
0.0
  0
LINE
  5
289C
330
A
100
AcDbEntity
  8
MODEL
100
AcDbLine
 10
424.6227178411552
 20
620.9475277672791
 30
0.0
 11
424.3054559558857
 21
621.4970414719653
 31
0.0
  0
LINE
  5
289D
330
A
100
AcDbEntity
  8
MODEL
100
AcDbLine
 10
424.6227178411552
 20
609.7574305082164
 30
0.0
 11
424.3054559558857
 21
609.2079168035302
 31
0.0
  0
LINE
  5
289E
330
A
100
AcDbEntity
  8
MODEL
100
AcDbLine
 10
425.0553476848866
 20
620.6977488106037
 30
0.0
 11
425.0553476848866
 21
610.007209464892
 31
0.0
  0
LINE
  5
289F
330
A
100
AcDbEntity
  8
MODEL
100
AcDbLine
 10
424.6227178411552
 20
620.9475277672791
 30
0.0
 11
424.6227178411552
 21
609.7574305082164
 31
0.0
  0
LINE
  5
28A0
330
A
100
AcDbEntity
  8
MODEL
100
AcDbLine
 10
424.3054559558857
 20
609.2079168035302
 30
0.0
 11
424.3054559558857
 21
621.4970414719653
 31
0.0
  0
LINE
  5
28A1
330
A
100
AcDbEntity
  8
MODEL
100
AcDbLine
 10
423.8728261121544
 20
608.9581378468547
 30
0.0
 11
423.8728261121544
 21
621.7468204286408
 31
0.0
  0
LINE
  5
28A2
330
A
100
AcDbEntity
  8
MODEL
100
AcDbLine
 10
411.172740260932
 20
613.4620391020317
 30
0.0
 11
411.172740260932
 21
617.2623319352787
 31
0.0
  0
LINE
  5
28A3
330
A
100
AcDbEntity
  8
MODEL
100
AcDbLine
 10
410.6731823475809
 20
617.9788501628516
 30
0.0
 11
410.6731823475809
 21
612.7397849842177
 31
0.0
  0
ARC
  5
28A4
330
A
100
AcDbEntity
  8
MODEL
100
AcDbCircle
 10
423.8728261121544
 20
609.4576957602058
 30
0.0
 40
0.4995579133510168
100
AcDbArc
 50
270.0
 51
329.9999999999992
  0
ARC
  5
28A5
330
A
100
AcDbEntity
  8
MODEL
100
AcDbCircle
 10
425.0553476848866
 20
609.5076515515409
 30
0.0
 40
0.4995579133510168
100
AcDbArc
 50
90.0
 51
149.9999999999992
  0
ARC
  5
28A6
330
A
100
AcDbEntity
  8
MODEL
100
AcDbCircle
 10
423.8728261121544
 20
621.2472625152898
 30
0.0
 40
0.4995579133510168
100
AcDbArc
 50
30.0000000000008
 51
90.0
  0
ARC
  5
28A7
330
A
100
AcDbEntity
  8
MODEL
100
AcDbCircle
 10
425.0553476848866
 20
621.1973067239546
 30
0.0
 40
0.4995579133510168
100
AcDbArc
 50
210.0000000000008
 51
270.0
  0
LINE
  5
28A8
330
A
100
AcDbEntity
  8
MODEL
100
AcDbLine
 10
479.4922804908172
 20
590.3945657867312
 30
0.0
 11
479.4922804908172
 21
632.3174658751484
 31
0.0
  0
ARC
  5
28A9
330
A
100
AcDbEntity
  8
MODEL
100
AcDbCircle
 10
480.8011222237967
 20
590.3945657867312
 30
0.0
 40
1.308841732979664
100
AcDbArc
 50
180.0
 51
0.0
  0
ARC
  5
28AA
330
A
100
AcDbEntity
  8
MODEL
100
AcDbCircle
 10
480.8011222237967
 20
632.3174658751484
 30
0.0
 40
1.308841732979664
100
AcDbArc
 50
0.0
 51
180.0
  0
LEADER
  5
2A39
102
{ACAD_XDICTIONARY
360
2A3A
102
}
330
A
100
AcDbEntity
  8
DIM
  6
Continuous
100
AcDbLeader
  3
tfrom線あり
 76
     3
 10
518.1871722785268
 20
573.1883183084872
 30
0.0
 10
548.1908376422926
 20
545.218923144181
 30
0.0
 10
574.1070717807149
 20
545.218923144181
 30
0.0
1001
ACAD
1000
DSTYLE
1002
{
1070
    41
1040
3.0
1002
}
  0
MTEXT
  5
2A3C
330
A
100
AcDbEntity
  8
TEMPLATE
390
1D
100
AcDbMText
 10
549.7583568365765
 20
560.847723311501
 30
0.0
 40
12.21630859375
 41
0.0
 46
12.21630859375
 71
     1
 72
     1
  1
{%%c65}
  7
ＭＳ ゴシック
 73
     1
 44
0.7828267384257843
1001
ACAD
1000
ACAD_MTEXT_DEFINED_HEIGHT_BEGIN
1070
    46
1040
12.21630859375
1000
ACAD_MTEXT_DEFINED_HEIGHT_END
  0
LEADER
  5
2A77
102
{ACAD_XDICTIONARY
360
2A78
102
}
330
A
100
AcDbEntity
  8
DIM
  6
Continuous
100
AcDbLeader
  3
tfrom線あり
 76
     3
 10
630.5087392381374
 20
618.3539071319234
 30
0.0
 10
653.9069271024665
 20
640.4276926418627
 30
0.0
 10
682.9836294991215
 20
640.4276926418627
 30
0.0
1001
ACAD
1000
DSTYLE
1002
{
1070
    41
1040
3.0
1002
}
  0
MTEXT
  5
2A79
330
A
100
AcDbEntity
  8
TEMPLATE
390
1D
100
AcDbMText
 10
657.2619301080772
 20
657.869162482865
 30
0.0
 40
12.21630859375
 41
0.0
 46
12.21630859375
 71
     1
 72
     1
  1
{%%c24}
  7
ＭＳ ゴシック
 73
     1
 44
0.7828267384257843
1001
ACAD
1000
ACAD_MTEXT_DEFINED_HEIGHT_BEGIN
1070
    46
1040
12.21630859375
1000
ACAD_MTEXT_DEFINED_HEIGHT_END
  0
MTEXT
  5
2ABD
330
A
100
AcDbEntity
  8
TEMPLATE
390
1D
100
AcDbMText
 10
75.57084312211285
 20
618.2314084578417
 30
0.0
 40
9.0
 41
0.0
 46
12.21630859375
 71
     1
 72
     1
  1
{湯}
  7
ＭＳ ゴシック
 73
     1
 44
0.7828267384257843
1001
ACAD
1000
ACAD_MTEXT_DEFINED_HEIGHT_BEGIN
1070
    46
1040
12.21630859375
1000
ACAD_MTEXT_DEFINED_HEIGHT_END
  0
MTEXT
  5
2ABE
330
A
100
AcDbEntity
  8
TEMPLATE
390
1D
100
AcDbMText
 10
68.00982065724273
 20
604.4287857267288
 30
0.0
 40
9.0
 41
0.0
 46
9.0
 71
     1
 72
     1
  1
{G1/2"}
  7
ＭＳ ゴシック
 73
     1
 44
0.7828267384257843
1001
ACAD
1000
ACAD_MTEXT_DEFINED_HEIGHT_BEGIN
1070
    46
1040
9.0
1000
ACAD_MTEXT_DEFINED_HEIGHT_END
  0
MTEXT
  5
2ABF
330
A
100
AcDbEntity
  8
TEMPLATE
390
1D
100
AcDbMText
 10
110.0005742185803
 20
612.1189128549108
 30
0.0
 40
9.0
 41
0.0
 46
12.21630859375
 71
     1
 72
     1
  1
{▲}
  7
ＭＳ ゴシック
 11
-1.836970198721030E-16
 21
-1.0
 31
0.0
 73
     1
 44
0.7828267384257843
1001
ACAD
1000
ACAD_MTEXT_DEFINED_HEIGHT_BEGIN
1070
    46
1040
12.21630859375
1000
ACAD_MTEXT_DEFINED_HEIGHT_END
  0
MTEXT
  5
2AC0
330
A
100
AcDbEntity
  8
TEMPLATE
390
1D
100
AcDbMText
 10
244.9733822614141
 20
618.2083438137129
 30
0.0
 40
9.0
 41
0.0
 46
12.21630859375
 71
     1
 72
     1
  1
{水}
  7
ＭＳ ゴシック
 73
     1
 44
0.7828267384257843
1001
ACAD
1000
ACAD_MTEXT_DEFINED_HEIGHT_BEGIN
1070
    46
1040
12.21630859375
1000
ACAD_MTEXT_DEFINED_HEIGHT_END
  0
MTEXT
  5
2AC1
330
A
100
AcDbEntity
  8
TEMPLATE
390
1D
100
AcDbMText
 10
239.0145674607078
 20
604.4057210825999
 30
0.0
 40
9.0
 41
0.0
 46
9.0
 71
     1
 72
     1
  1
{G1/2"}
  7
ＭＳ ゴシック
 73
     1
 44
0.7828267384257843
1001
ACAD
1000
ACAD_MTEXT_DEFINED_HEIGHT_BEGIN
1070
    46
1040
9.0
1000
ACAD_MTEXT_DEFINED_HEIGHT_END
  0
MTEXT
  5
2AC2
330
A
100
AcDbEntity
  8
TEMPLATE
390
1D
100
AcDbMText
 10
224.7014028474131
 20
602.3907148721539
 30
0.0
 40
9.0
 41
0.0
 46
12.21630859375
 71
     1
 72
     1
  1
{▲}
  7
ＭＳ ゴシック
 11
6.123233995736766E-17
 21
1.0
 31
0.0
 73
     1
 44
0.7828267384257843
1001
ACAD
1000
ACAD_MTEXT_DEFINED_HEIGHT_BEGIN
1070
    46
1040
12.21630859375
1000
ACAD_MTEXT_DEFINED_HEIGHT_END
  0
VIEWPORT
  5
349
330
B
100
AcDbEntity
 67
     1
  8
0
100
AcDbViewport
 10
202.5
 20
128.5
 30
0.0
 40
486.0
 41
308.4
 68
     1
 69
     1
 12
202.5
 22
128.5
 13
0.0
 23
0.0
 14
0.5
 24
0.5
 15
0.0
 25
0.0
 16
0.0
 26
0.0
 36
1.0
 17
0.0
 27
0.0
 37
0.0
 42
50.0
 43
0.0
 44
0.0
 45
308.4
 50
0.0
 51
0.0
 72
   100
 90
   557152
  1

281
     0
 71
     1
 74
     0
110
0.0
120
0.0
130
0.0
111
1.0
121
0.0
131
0.0
112
0.0
122
1.0
132
0.0
 79
     0
146
0.0
170
     0
 61
     5
348
26C
292
     1
282
     1
141
0.0
142
0.0
 63
   256
  0
VIEWPORT
  5
34A
330
B
100
AcDbEntity
 67
     1
  8
0
100
AcDbViewport
 10
202.5
 20
128.5
 30
0.0
 40
324.0
 41
205.6
 68
     2
 69
     2
 12
986.6781359294573
 22
1427.077061889956
 13
0.0
 23
0.0
 14
0.5
 24
0.5
 15
0.0
 25
0.0
 16
0.0
 26
0.0
 36
1.0
 17
0.0
 27
0.0
 37
0.0
 42
50.0
 43
0.0
 44
0.0
 45
2890.021615685494
 50
0.0
 51
0.0
 72
   100
 90
   557152
  1

281
     0
 71
     1
 74
     0
110
0.0
120
0.0
130
0.0
111
1.0
121
0.0
131
0.0
112
0.0
122
1.0
132
0.0
 79
     0
146
0.0
170
     0
 61
     5
348
26C
292
     1
282
     1
141
0.0
142
0.0
 63
   256
  0
ENDSEC
  0
SECTION
  2
OBJECTS
  0
DICTIONARY
  5
19
330
0
100
AcDbDictionary
281
     1
  3
ACAD_COLOR
350
674
  3
ACAD_DETAILVIEWSTYLE
350
908
  3
ACAD_GROUP
350
1A
  3
ACAD_IMAGE_VARS
350
27B
  3
ACAD_LAYOUT
350
1E
  3
ACAD_MATERIAL
350
263
  3
ACAD_MLEADERSTYLE
350
336
  3
ACAD_MLINESTYLE
350
1B
  3
ACAD_PLOTSETTINGS
350
22
  3
ACAD_PLOTSTYLENAME
350
1F
  3
ACAD_SCALELIST
350
241
  3
ACAD_SECTIONVIEWSTYLE
350
909
  3
ACAD_TABLESTYLE
350
278
  3
ACAD_VISUALSTYLE
350
267
  3
ACDB_RECOMPOSE_DATA
350
2AD7
  3
AcDbVariableDictionary
350
330
  3
APPDATA
350
27A
  0
SUN
  5
904
330
15
100
AcDbSun
 90
        1
290
     0
 63
     7
421
 16777215
 40
1.0
291
     1
 91
  2455826
 92
 54000000
292
     0
 70
     2
 71
   256
280
     1
  0
DICTIONARY
  5
2E1
330
2
100
AcDbDictionary
280
     1
281
     1
  3
ACAD_LAYERSTATES
360
2E2
  3
ACLYDICTIONARY
360
28CA
  0
DICTIONARY
  5
2A3A
330
2A39
100
AcDbDictionary
280
     1
281
     1
  0
DICTIONARY
  5
2A78
330
2A77
100
AcDbDictionary
280
     1
281
     1
  0
DICTIONARY
  5
674
102
{ACAD_REACTORS
330
19
102
}
330
19
100
AcDbDictionary
281
     1
  0
DICTIONARY
  5
908
102
{ACAD_REACTORS
330
19
102
}
330
19
100
AcDbDictionary
281
     1
  0
DICTIONARY
  5
1A
102
{ACAD_REACTORS
330
19
102
}
330
19
100
AcDbDictionary
281
     1
  0
RASTERVARIABLES
  5
27B
102
{ACAD_REACTORS
330
19
102
}
330
19
100
AcDbRasterVariables
 90
        0
 70
     1
 71
     1
 72
     1
  0
DICTIONARY
  5
1E
102
{ACAD_REACTORS
330
19
102
}
330
19
100
AcDbDictionary
281
     1
  3
Layout1
350
21
  3
Model
350
20
  0
DICTIONARY
  5
263
102
{ACAD_REACTORS
330
19
102
}
330
19
100
AcDbDictionary
281
     1
  3
ByBlock
350
265
  3
ByLayer
350
264
  3
Global
350
266
  0
DICTIONARY
  5
336
102
{ACAD_REACTORS
330
19
102
}
330
19
100
AcDbDictionary
281
     1
  0
DICTIONARY
  5
1B
102
{ACAD_REACTORS
330
19
102
}
330
19
100
AcDbDictionary
281
     1
  3
Standard
350
1C
  0
DICTIONARY
  5
22
102
{ACAD_REACTORS
330
19
102
}
330
19
100
AcDbDictionary
281
     1
  0
ACDBDICTIONARYWDFLT
  5
1F
102
{ACAD_REACTORS
330
19
102
}
330
19
100
AcDbDictionary
281
     1
  3
Normal
350
1D
100
AcDbDictionaryWithDefault
340
1D
  0
DICTIONARY
  5
241
102
{ACAD_REACTORS
330
19
102
}
330
19
100
AcDbDictionary
281
     1
  3
A0
350
242
  3
A1
350
243
  3
A2
350
244
  3
A3
350
245
  3
A4
350
246
  3
A5
350
247
  3
A6
350
248
  3
A7
350
249
  3
A8
350
24A
  3
A9
350
24B
  3
B0
350
24C
  3
B1
350
24D
  3
B2
350
24E
  3
B3
350
24F
  3
B4
350
250
  3
B5
350
251
  3
B6
350
252
  3
B7
350
253
  3
B8
350
254
  3
B9
350
255
  3
C0
350
256
  3
C1
350
257
  3
C2
350
258
  3
C3
350
259
  3
C4
350
25A
  3
C5
350
25B
  3
C6
350
25C
  3
C7
350
25D
  3
C8
350
25E
  3
C9
350
25F
  3
D0
350
260
  3
D1
350
261
  3
D2
350
262
  0
DICTIONARY
  5
909
102
{ACAD_REACTORS
330
19
102
}
330
19
100
AcDbDictionary
281
     1
  0
DICTIONARY
  5
278
102
{ACAD_REACTORS
330
19
102
}
330
19
100
AcDbDictionary
281
     1
  3
Standard
350
279
  0
DICTIONARY
  5
267
102
{ACAD_REACTORS
330
19
102
}
330
19
100
AcDbDictionary
281
     1
  3
2dWireframe
350
26C
  3
3D Hidden
350
26E
  3
3dWireframe
350
26D
  3
Basic
350
26F
  3
Brighten
350
273
  3
ColorChange
350
277
  3
Conceptual
350
271
  3
Dim
350
272
  3
EdgeColorOff
350
8FE
  3
Facepattern
350
276
  3
Flat
350
268
  3
FlatWithEdges
350
269
  3
Gouraud
350
26A
  3
GouraudWithEdges
350
26B
  3
Hidden
350
8FB
  3
JitterOff
350
8FC
  3
Linepattern
350
275
  3
OverhangOff
350
8FD
  3
Realistic
350
270
  3
Shaded
350
903
  3
Shaded with edges
350
902
  3
Shades of Gray
350
8FF
  3
Sketchy
350
900
  3
Thicken
350
274
  3
Wireframe
350
8FA
  3
X-Ray
350
901
  0
XRECORD
  5
2AD7
102
{ACAD_REACTORS
330
19
102
}
330
19
100
AcDbXrecord
280
     1
 90
        1
330
279
  0
DICTIONARY
  5
330
102
{ACAD_REACTORS
330
19
102
}
330
19
100
AcDbDictionary
281
     1
  3
CANNOSCALE
350
331
  3
CTABLESTYLE
350
335
  3
XCLIPFRAME
350
896
  0
DICTIONARY
  5
27A
102
{ACAD_REACTORS
330
19
102
}
330
19
100
AcDbDictionary
281
     1
  0
DICTIONARY
  5
2E2
102
{ACAD_REACTORS
330
2E1
102
}
330
2E1
100
AcDbDictionary
281
     1
  3
ARGON_LAYERP_4
350
10F2
  3
ARGON_LAYERP_5
350
8F6
  3
ARGON_LAYERP_9
350
7AA
  0
DICTIONARY
  5
28CA
102
{ACAD_REACTORS
330
2E1
102
}
330
2E1
100
AcDbDictionary
281
     1
1001
ACAD
1000
<All
  0
LAYOUT
  5
21
102
{ACAD_REACTORS
330
1E
102
}
330
1E
100
AcDbPlotSettings
  1

  2
none_device
  4
ISO_A3_(420.00_x_297.00_MM)
  6

 40
7.5
 41
20.0
 42
7.5
 43
20.0
 44
420.0
 45
297.0
 46
0.0
 47
0.0
 48
0.0
 49
0.0
140
0.0
141
0.0
142
1.0
143
1.0
 70
     0
 72
     1
 73
     0
 74
     0
  7

 75
     0
 76
     0
 77
     2
 78
   300
147
1.0
148
0.0
149
0.0
100
AcDbLayout
  1
Layout1
 70
     0
 71
     0
 10
-7.5
 20
-20.0
 11
412.5
 21
277.0
 12
0.0
 22
0.0
 32
0.0
 14
0.0
 24
0.0
 34
0.0
 15
0.0
 25
0.0
 35
0.0
146
0.0
 13
0.0
 23
0.0
 33
0.0
 16
0.0
 26
0.0
 36
0.0
 17
0.0
 27
0.0
 37
0.0
 76
     0
330
B
331
349
  0
LAYOUT
  5
20
102
{ACAD_REACTORS
330
1E
102
}
330
1E
100
AcDbPlotSettings
  1

  2
none_device
  4
ISO_A3_(420.00_x_297.00_MM)
  6

 40
7.5
 41
20.0
 42
7.5
 43
20.0
 44
420.0
 45
297.0
 46
0.0
 47
0.0
 48
0.0
 49
0.0
140
0.0
141
0.0
142
1.0
143
1.0
 70
  1024
 72
     1
 73
     0
 74
     0
  7

 75
     0
 76
     0
 77
     2
 78
   300
147
1.0
148
0.0
149
0.0
100
AcDbLayout
  1
Model
 70
     0
 71
     1
 10
0.0
 20
0.0
 11
840.0000000000002
 21
1188.0
 12
0.0
 22
0.0
 32
0.0
 14
17.73478042659985
 24
17.25567800557165
 34
0.0
 15
823.4224208338999
 25
1174.693162940315
 35
0.0
146
0.0
 13
0.0
 23
0.0
 33
0.0
 16
0.0
 26
0.0
 36
0.0
 17
0.0
 27
0.0
 37
0.0
 76
     0
330
A
331
15
  0
MATERIAL
  5
265
102
{ACAD_REACTORS
330
263
102
}
330
263
100
AcDbMaterial
  1
ByBlock
 72
     1
 94
      127
  0
MATERIAL
  5
264
102
{ACAD_REACTORS
330
263
102
}
330
263
100
AcDbMaterial
  1
ByLayer
 72
     1
 94
      127
  0
MATERIAL
  5
266
102
{ACAD_REACTORS
330
263
102
}
330
263
100
AcDbMaterial
  1
Global
 72
     1
 94
      127
  0
MLINESTYLE
  5
1C
102
{ACAD_REACTORS
330
1B
102
}
330
1B
100
AcDbMlineStyle
  2
Standard
 70
     0
  3

 62
     0
 51
90.0
 52
90.0
 71
     2
 49
0.5
 62
   256
  6
BYLAYER
 49
-0.5
 62
   256
  6
BYLAYER
  0
ACDBPLACEHOLDER
  5
1D
102
{ACAD_REACTORS
330
1F
102
}
330
1F
  0
SCALE
  5
242
102
{ACAD_REACTORS
330
241
102
}
330
241
100
AcDbScale
 70
     0
300
1:1
140
1.0
141
1.0
290
     1
  0
SCALE
  5
243
102
{ACAD_REACTORS
330
241
102
}
330
241
100
AcDbScale
 70
     0
300
1:2
140
1.0
141
2.0
290
     0
  0
SCALE
  5
244
102
{ACAD_REACTORS
330
241
102
}
330
241
100
AcDbScale
 70
     0
300
1:4
140
1.0
141
4.0
290
     0
  0
SCALE
  5
245
102
{ACAD_REACTORS
330
241
102
}
330
241
100
AcDbScale
 70
     0
300
1:5
140
1.0
141
5.0
290
     0
  0
SCALE
  5
246
102
{ACAD_REACTORS
330
241
102
}
330
241
100
AcDbScale
 70
     0
300
1:8
140
1.0
141
8.0
290
     0
  0
SCALE
  5
247
102
{ACAD_REACTORS
330
241
102
}
330
241
100
AcDbScale
 70
     0
300
1:10
140
1.0
141
10.0
290
     0
  0
SCALE
  5
248
102
{ACAD_REACTORS
330
241
102
}
330
241
100
AcDbScale
 70
     0
300
1:16
140
1.0
141
16.0
290
     0
  0
SCALE
  5
249
102
{ACAD_REACTORS
330
241
102
}
330
241
100
AcDbScale
 70
     0
300
1:20
140
1.0
141
20.0
290
     0
  0
SCALE
  5
24A
102
{ACAD_REACTORS
330
241
102
}
330
241
100
AcDbScale
 70
     0
300
1:30
140
1.0
141
30.0
290
     0
  0
SCALE
  5
24B
102
{ACAD_REACTORS
330
241
102
}
330
241
100
AcDbScale
 70
     0
300
1:40
140
1.0
141
40.0
290
     0
  0
SCALE
  5
24C
102
{ACAD_REACTORS
330
241
102
}
330
241
100
AcDbScale
 70
     0
300
1:50
140
1.0
141
50.0
290
     0
  0
SCALE
  5
24D
102
{ACAD_REACTORS
330
241
102
}
330
241
100
AcDbScale
 70
     0
300
1:100
140
1.0
141
100.0
290
     0
  0
SCALE
  5
24E
102
{ACAD_REACTORS
330
241
102
}
330
241
100
AcDbScale
 70
     0
300
2:1
140
2.0
141
1.0
290
     0
  0
SCALE
  5
24F
102
{ACAD_REACTORS
330
241
102
}
330
241
100
AcDbScale
 70
     0
300
4:1
140
4.0
141
1.0
290
     0
  0
SCALE
  5
250
102
{ACAD_REACTORS
330
241
102
}
330
241
100
AcDbScale
 70
     0
300
8:1
140
8.0
141
1.0
290
     0
  0
SCALE
  5
251
102
{ACAD_REACTORS
330
241
102
}
330
241
100
AcDbScale
 70
     0
300
10:1
140
10.0
141
1.0
290
     0
  0
SCALE
  5
252
102
{ACAD_REACTORS
330
241
102
}
330
241
100
AcDbScale
 70
     0
300
100:1
140
100.0
141
1.0
290
     0
  0
SCALE
  5
253
102
{ACAD_REACTORS
330
241
102
}
330
241
100
AcDbScale
 70
     0
300
1/128" = 1'-0"
140
0.0078125
141
12.0
290
     0
  0
SCALE
  5
254
102
{ACAD_REACTORS
330
241
102
}
330
241
100
AcDbScale
 70
     0
300
1/64" = 1'-0"
140
0.015625
141
12.0
290
     0
  0
SCALE
  5
255
102
{ACAD_REACTORS
330
241
102
}
330
241
100
AcDbScale
 70
     0
300
1/32" = 1'-0"
140
0.03125
141
12.0
290
     0
  0
SCALE
  5
256
102
{ACAD_REACTORS
330
241
102
}
330
241
100
AcDbScale
 70
     0
300
1/16" = 1'-0"
140
0.0625
141
12.0
290
     0
  0
SCALE
  5
257
102
{ACAD_REACTORS
330
241
102
}
330
241
100
AcDbScale
 70
     0
300
3/32" = 1'-0"
140
0.09375
141
12.0
290
     0
  0
SCALE
  5
258
102
{ACAD_REACTORS
330
241
102
}
330
241
100
AcDbScale
 70
     0
300
1/8" = 1'-0"
140
0.125
141
12.0
290
     0
  0
SCALE
  5
259
102
{ACAD_REACTORS
330
241
102
}
330
241
100
AcDbScale
 70
     0
300
3/16" = 1'-0"
140
0.1875
141
12.0
290
     0
  0
SCALE
  5
25A
102
{ACAD_REACTORS
330
241
102
}
330
241
100
AcDbScale
 70
     0
300
1/4" = 1'-0"
140
0.25
141
12.0
290
     0
  0
SCALE
  5
25B
102
{ACAD_REACTORS
330
241
102
}
330
241
100
AcDbScale
 70
     0
300
3/8" = 1'-0"
140
0.375
141
12.0
290
     0
  0
SCALE
  5
25C
102
{ACAD_REACTORS
330
241
102
}
330
241
100
AcDbScale
 70
     0
300
1/2" = 1'-0"
140
0.5
141
12.0
290
     0
  0
SCALE
  5
25D
102
{ACAD_REACTORS
330
241
102
}
330
241
100
AcDbScale
 70
     0
300
3/4" = 1'-0"
140
0.75
141
12.0
290
     0
  0
SCALE
  5
25E
102
{ACAD_REACTORS
330
241
102
}
330
241
100
AcDbScale
 70
     0
300
1" = 1'-0"
140
1.0
141
12.0
290
     0
  0
SCALE
  5
25F
102
{ACAD_REACTORS
330
241
102
}
330
241
100
AcDbScale
 70
     0
300
1-1/2" = 1'-0"
140
1.5
141
12.0
290
     0
  0
SCALE
  5
260
102
{ACAD_REACTORS
330
241
102
}
330
241
100
AcDbScale
 70
     0
300
3" = 1'-0"
140
3.0
141
12.0
290
     0
  0
SCALE
  5
261
102
{ACAD_REACTORS
330
241
102
}
330
241
100
AcDbScale
 70
     0
300
6" = 1'-0"
140
6.0
141
12.0
290
     0
  0
SCALE
  5
262
102
{ACAD_REACTORS
330
241
102
}
330
241
100
AcDbScale
 70
     0
300
1'-0" = 1'-0"
140
12.0
141
12.0
290
     0
  0
TABLESTYLE
  5
279
102
{ACAD_REACTORS
330
278
102
}
102
{ACAD_XDICTIONARY
360
2AD5
102
}
330
278
100
AcDbTableStyle
  3
Standard
 70
     0
 71
     0
 40
0.06
 41
0.06
280
     0
281
     0
  7
Standard
140
4.5
170
     2
 62
     0
 63
   257
283
     0
 90
        4
 91
        0
  1

274
    -2
284
     1
 64
     0
275
    -2
285
     1
 65
     0
276
    -2
286
     1
 66
     0
277
    -2
287
     1
 67
     0
278
    -2
288
     1
 68
     0
279
    -2
289
     1
 69
     0
  7
Standard
140
6.0
170
     5
 62
     0
 63
   257
283
     0
 90
        4
 91
        0
  1

274
    -2
284
     1
 64
     0
275
    -2
285
     1
 65
     0
276
    -2
286
     1
 66
     0
277
    -2
287
     1
 67
     0
278
    -2
288
     1
 68
     0
279
    -2
289
     1
 69
     0
  7
Standard
140
4.5
170
     5
 62
     0
 63
   257
283
     0
 90
        4
 91
        0
  1

274
    -2
284
     1
 64
     0
275
    -2
285
     1
 65
     0
276
    -2
286
     1
 66
     0
277
    -2
287
     1
 67
     0
278
    -2
288
     1
 68
     0
279
    -2
289
     1
 69
     0
  0
VISUALSTYLE
  5
26C
102
{ACAD_REACTORS
330
267
102
}
330
267
100
AcDbVisualStyle
  2
2dWireframe
 70
     4
 71
     0
 72
     2
 73
     0
 90
        0
 40
-0.6
 41
-30.0
 62
     5
 63
     7
421
 16777215
 74
     1
 91
        4
 64
     7
 65
   257
 75
     1
175
     1
 42
1.0
 92
        0
 66
   257
 43
1.0
 76
     1
 77
     6
 78
     2
 67
     7
 79
     5
170
     0
171
     0
290
     0
174
     0
 93
        1
 44
0.0
173
     0
291
     0
 45
0.0
  0
VISUALSTYLE
  5
26E
102
{ACAD_REACTORS
330
267
102
}
330
267
100
AcDbVisualStyle
  2
3D Hidden
 70
     6
 71
     1
 72
     2
 73
     2
 90
        0
 40
-0.6
 41
-30.0
 62
     5
 63
     7
421
 16777215
 74
     2
 91
        2
 64
     7
 65
   257
 75
     2
175
     1
 42
40.0
 92
        0
 66
   257
 43
1.0
 76
     1
 77
     6
 78
     2
 67
     7
 79
     3
170
     0
171
     0
290
     0
174
     0
 93
        1
 44
0.0
173
     0
291
     0
 45
0.0
  0
VISUALSTYLE
  5
26D
102
{ACAD_REACTORS
330
267
102
}
330
267
100
AcDbVisualStyle
  2
3dWireframe
 70
     5
 71
     0
 72
     2
 73
     0
 90
        0
 40
-0.6
 41
-30.0
 62
     5
 63
     7
421
 16777215
 74
     1
 91
        4
 64
     7
 65
   257
 75
     1
175
     1
 42
1.0
 92
        0
 66
   257
 43
1.0
 76
     1
 77
     6
 78
     2
 67
     7
 79
     5
170
     0
171
     0
290
     0
174
     0
 93
        1
 44
0.0
173
     0
291
     0
 45
0.0
  0
VISUALSTYLE
  5
26F
102
{ACAD_REACTORS
330
267
102
}
330
267
100
AcDbVisualStyle
  2
Basic
 70
     7
 71
     1
 72
     0
 73
     1
 90
        0
 40
-0.6
 41
-30.0
 62
     5
 63
     7
421
 16777215
 74
     0
 91
        4
 64
     7
 65
   257
 75
     1
175
     1
 42
1.0
 92
        8
 66
     7
 43
1.0
 76
     1
 77
     6
 78
     2
 67
     7
 79
     5
170
     0
171
     0
290
     0
174
     0
 93
        1
 44
0.0
173
     0
291
     1
 45
0.0
  0
VISUALSTYLE
  5
273
102
{ACAD_REACTORS
330
267
102
}
330
267
100
AcDbVisualStyle
  2
Brighten
 70
    12
 71
     2
 72
     2
 73
     0
 90
        0
 40
-0.6
 41
-30.0
 62
     5
 63
     7
421
 16777215
 74
     1
 91
        4
 64
     7
 65
   257
 75
     1
175
     1
 42
1.0
 92
        8
 66
     7
 43
1.0
 76
     1
 77
     6
 78
     2
 67
     7
 79
     5
170
     0
171
     0
290
     0
174
     0
 93
        1
 44
50.0
173
     0
291
     1
 45
0.0
  0
VISUALSTYLE
  5
277
102
{ACAD_REACTORS
330
267
102
}
330
267
100
AcDbVisualStyle
  2
ColorChange
 70
    16
 71
     2
 72
     2
 73
     3
 90
        0
 40
-0.6
 41
-30.0
 62
     5
 63
     8
421
  8421504
 74
     1
 91
        4
 64
     7
 65
   257
 75
     1
175
     1
 42
1.0
 92
        8
 66
     8
424
  8421504
 43
1.0
 76
     1
 77
     6
 78
     2
 67
     7
 79
     5
170
     0
171
     0
290
     0
174
     0
 93
        1
 44
0.0
173
     0
291
     1
 45
0.0
  0
VISUALSTYLE
  5
271
102
{ACAD_REACTORS
330
267
102
}
330
267
100
AcDbVisualStyle
  2
Conceptual
 70
     9
 71
     3
 72
     2
 73
     0
 90
        0
 40
-0.6
 41
-30.0
 62
     5
 63
     7
421
 16777215
 74
     2
 91
        2
 64
     7
 65
   257
 75
     1
175
     1
 42
40.0
 92
        8
 66
     7
 43
1.0
 76
     1
 77
     6
 78
     2
 67
     7
 79
     3
170
     0
171
     0
290
     0
174
     0
 93
        1
 44
0.0
173
     0
291
     0
 45
0.0
  0
VISUALSTYLE
  5
272
102
{ACAD_REACTORS
330
267
102
}
330
267
100
AcDbVisualStyle
  2
Dim
 70
    11
 71
     2
 72
     2
 73
     0
 90
        0
 40
-0.6
 41
-30.0
 62
     5
 63
     7
421
 16777215
 74
     1
 91
        4
 64
     7
 65
   257
 75
     1
175
     1
 42
1.0
 92
        8
 66
     7
 43
1.0
 76
     1
 77
     6
 78
     2
 67
     7
 79
     5
170
     0
171
     0
290
     0
174
     0
 93
        1
 44
-50.0
173
     0
291
     1
 45
0.0
  0
VISUALSTYLE
  5
8FE
102
{ACAD_REACTORS
330
267
102
}
330
267
100
AcDbVisualStyle
  2
EdgeColorOff
 70
    22
 71
     2
 72
     2
 73
     0
 90
        0
 40
0.6
 41
30.0
 62
     5
 63
     7
421
 16777215
 74
     1
 91
        4
 64
     7
 65
   257
 75
     1
175
     1
 42
1.0
 92
        8
 66
     7
 43
1.0
 76
     1
 77
     6
 78
     2
 67
     7
 79
     5
170
     0
171
     0
290
     0
174
     0
 93
        1
 44
0.0
173
     0
291
     1
 45
0.0
  0
VISUALSTYLE
  5
276
102
{ACAD_REACTORS
330
267
102
}
330
267
100
AcDbVisualStyle
  2
Facepattern
 70
    15
 71
     2
 72
     2
 73
     0
 90
        0
 40
-0.6
 41
-30.0
 62
     5
 63
     7
421
 16777215
 74
     1
 91
        4
 64
     7
 65
   257
 75
     1
175
     1
 42
1.0
 92
        8
 66
     7
 43
1.0
 76
     1
 77
     6
 78
     2
 67
     7
 79
     5
170
     0
171
     0
290
     0
174
     0
 93
        1
 44
0.0
173
     0
291
     1
 45
0.0
  0
VISUALSTYLE
  5
268
102
{ACAD_REACTORS
330
267
102
}
330
267
100
AcDbVisualStyle
  2
Flat
 70
     0
 71
     2
 72
     1
 73
     1
 90
        2
 40
-0.6
 41
30.0
 62
     5
 63
     7
421
 16777215
 74
     0
 91
        4
 64
     7
 65
   257
 75
     1
175
     1
 42
1.0
 92
        8
 66
     7
 43
1.0
 76
     1
 77
     6
 78
     2
 67
     7
 79
     5
170
     0
171
     0
290
     0
174
     0
 93
       13
 44
0.0
173
     0
291
     1
 45
0.0
  0
VISUALSTYLE
  5
269
102
{ACAD_REACTORS
330
267
102
}
330
267
100
AcDbVisualStyle
  2
FlatWithEdges
 70
     1
 71
     2
 72
     1
 73
     1
 90
        2
 40
-0.6
 41
30.0
 62
     5
 63
     7
421
 16777215
 74
     1
 91
        4
 64
     7
 65
   257
 75
     1
175
     1
 42
1.0
 92
        0
 66
   257
 43
1.0
 76
     1
 77
     6
 78
     2
 67
     7
 79
     5
170
     0
171
     0
290
     0
174
     0
 93
       13
 44
0.0
173
     0
291
     1
 45
0.0
  0
VISUALSTYLE
  5
26A
102
{ACAD_REACTORS
330
267
102
}
330
267
100
AcDbVisualStyle
  2
Gouraud
 70
     2
 71
     2
 72
     2
 73
     1
 90
        2
 40
-0.6
 41
30.0
 62
     5
 63
     7
421
 16777215
 74
     0
 91
        4
 64
     7
 65
   257
 75
     1
175
     1
 42
1.0
 92
        0
 66
     7
 43
1.0
 76
     1
 77
     6
 78
     2
 67
     7
 79
     5
170
     0
171
     0
290
     0
174
     0
 93
       13
 44
0.0
173
     0
291
     1
 45
0.0
  0
VISUALSTYLE
  5
26B
102
{ACAD_REACTORS
330
267
102
}
330
267
100
AcDbVisualStyle
  2
GouraudWithEdges
 70
     3
 71
     2
 72
     2
 73
     1
 90
        2
 40
-0.6
 41
30.0
 62
     5
 63
     7
421
 16777215
 74
     1
 91
        4
 64
     7
 65
   257
 75
     1
175
     1
 42
1.0
 92
        0
 66
   257
 43
1.0
 76
     1
 77
     6
 78
     2
 67
     7
 79
     5
170
     0
171
     0
290
     0
174
     0
 93
       13
 44
0.0
173
     0
291
     1
 45
0.0
  0
VISUALSTYLE
  5
8FB
102
{ACAD_REACTORS
330
267
102
}
330
267
100
AcDbVisualStyle
  2
Hidden
 70
     6
 71
     1
 72
     2
 73
     2
 90
        0
 40
0.6
 41
30.0
 62
     5
 63
     7
421
 16777215
 74
     2
 91
        2
 64
     7
 65
   257
 75
     2
175
     1
 42
40.0
 92
        0
 66
   257
 43
1.0
 76
     1
 77
     6
 78
     2
 67
     7
 79
     3
170
     0
171
     0
290
     0
174
     0
 93
        1
 44
0.0
173
     0
291
     0
 45
0.0
  0
VISUALSTYLE
  5
8FC
102
{ACAD_REACTORS
330
267
102
}
330
267
100
AcDbVisualStyle
  2
JitterOff
 70
    20
 71
     2
 72
     2
 73
     0
 90
        0
 40
0.6
 41
30.0
 62
     5
 63
     7
421
 16777215
 74
     1
 91
        4
 64
     7
 65
   257
 75
     1
175
     1
 42
1.0
 92
       10
 66
     7
 43
1.0
 76
     1
 77
     6
 78
     2
 67
     7
 79
     5
170
     0
171
     0
290
     0
174
     0
 93
        1
 44
0.0
173
     0
291
     1
 45
0.0
  0
VISUALSTYLE
  5
275
102
{ACAD_REACTORS
330
267
102
}
330
267
100
AcDbVisualStyle
  2
Linepattern
 70
    14
 71
     2
 72
     2
 73
     0
 90
        0
 40
-0.6
 41
-30.0
 62
     5
 63
     7
421
 16777215
 74
     1
 91
        4
 64
     7
 65
   257
 75
     7
175
     7
 42
1.0
 92
        8
 66
     7
 43
1.0
 76
     1
 77
     6
 78
     2
 67
     7
 79
     5
170
     0
171
     0
290
     0
174
     0
 93
        1
 44
0.0
173
     0
291
     1
 45
0.0
  0
VISUALSTYLE
  5
8FD
102
{ACAD_REACTORS
330
267
102
}
330
267
100
AcDbVisualStyle
  2
OverhangOff
 70
    21
 71
     2
 72
     2
 73
     0
 90
        0
 40
0.6
 41
30.0
 62
     5
 63
     7
421
 16777215
 74
     1
 91
        4
 64
     7
 65
   257
 75
     1
175
     1
 42
1.0
 92
        9
 66
     7
 43
1.0
 76
     1
 77
     6
 78
     2
 67
     7
 79
     5
170
     0
171
     0
290
     0
174
     0
 93
        1
 44
0.0
173
     0
291
     1
 45
0.0
  0
VISUALSTYLE
  5
270
102
{ACAD_REACTORS
330
267
102
}
330
267
100
AcDbVisualStyle
  2
Realistic
 70
     8
 71
     2
 72
     2
 73
     0
 90
        0
 40
-0.6
 41
-30.0
 62
     5
 63
     7
421
 16777215
 74
     1
 91
        0
 64
     7
 65
   257
 75
     1
175
     1
 42
1.0
 92
        8
 66
     8
424
  7895160
 43
1.0
 76
     1
 77
     6
 78
     2
 67
     7
 79
     5
170
     0
171
     0
290
     0
174
     0
 93
       13
 44
0.0
173
     0
291
     0
 45
0.0
  0
VISUALSTYLE
  5
903
102
{ACAD_REACTORS
330
267
102
}
330
267
100
AcDbVisualStyle
  2
Shaded
 70
    27
 71
     2
 72
     2
 73
     1
 90
        2
 40
0.6
 41
30.0
 62
     5
 63
     7
421
 16777215
 74
     0
 91
        4
 64
     7
 65
   257
 75
     1
175
     1
 42
1.0
 92
        8
 66
   257
 43
1.0
 76
     1
 77
     6
 78
     2
 67
     8
425
  7895160
 79
     3
170
     0
171
     0
290
     0
174
     0
 93
        5
 44
0.0
173
     0
291
     0
 45
0.0
  0
VISUALSTYLE
  5
902
102
{ACAD_REACTORS
330
267
102
}
330
267
100
AcDbVisualStyle
  2
Shaded with edges
 70
    26
 71
     2
 72
     2
 73
     1
 90
        2
 40
0.6
 41
30.0
 62
     5
 63
     7
421
 16777215
 74
     1
 91
       10
 64
     7
 65
   257
 75
     2
175
     1
 42
1.0
 92
        8
 66
   257
 43
1.0
 76
     1
 77
     6
 78
     2
 67
     7
 79
     3
170
     0
171
     0
290
     0
174
     0
 93
        5
 44
0.0
173
     0
291
     0
 45
0.0
  0
VISUALSTYLE
  5
8FF
102
{ACAD_REACTORS
330
267
102
}
330
267
100
AcDbVisualStyle
  2
Shades of Gray
 70
    23
 71
     2
 72
     2
 73
     3
 90
        0
 40
0.6
 41
30.0
 62
     5
 63
     7
421
 16777215
 74
     2
 91
        2
 64
     7
 65
     7
 75
     1
175
     1
 42
40.0
 92
        8
 66
     7
 43
1.0
 76
     1
 77
     6
 78
     2
 67
     7
 79
     3
170
     0
171
     0
290
     0
174
     0
 93
        1
 44
0.0
173
     0
291
     0
 45
0.0
  0
VISUALSTYLE
  5
900
102
{ACAD_REACTORS
330
267
102
}
330
267
100
AcDbVisualStyle
  2
Sketchy
 70
    24
 71
     1
 72
     2
 73
     2
 90
        0
 40
0.6
 41
30.0
 62
     5
 63
     7
421
 16777215
 74
     2
 91
        2
 64
     7
 65
     7
 75
     1
175
     1
 42
40.0
 92
       11
 66
     7
 43
1.0
 76
     1
 77
     6
 78
     2
 67
     7
 79
     6
170
     0
171
     0
290
     0
174
     0
 93
        1
 44
0.0
173
     0
291
     0
 45
0.0
  0
VISUALSTYLE
  5
274
102
{ACAD_REACTORS
330
267
102
}
330
267
100
AcDbVisualStyle
  2
Thicken
 70
    13
 71
     2
 72
     2
 73
     0
 90
        0
 40
-0.6
 41
-30.0
 62
     5
 63
     7
421
 16777215
 74
     1
 91
        4
 64
     7
 65
   257
 75
     1
175
     1
 42
1.0
 92
       12
 66
     7
 43
1.0
 76
     1
 77
     6
 78
     2
 67
     7
 79
     5
170
     0
171
     0
290
     0
174
     0
 93
        1
 44
0.0
173
     0
291
     1
 45
0.0
  0
VISUALSTYLE
  5
8FA
102
{ACAD_REACTORS
330
267
102
}
330
267
100
AcDbVisualStyle
  2
Wireframe
 70
     5
 71
     0
 72
     2
 73
     0
 90
        0
 40
0.6
 41
30.0
 62
     5
 63
     7
421
 16777215
 74
     1
 91
        4
 64
     7
 65
   257
 75
     1
175
     1
 42
1.0
 92
        0
 66
   257
 43
1.0
 76
     1
 77
     6
 78
     2
 67
     7
 79
     3
170
     0
171
     0
290
     0
174
     0
 93
        1
 44
0.0
173
     0
291
     0
 45
0.0
  0
VISUALSTYLE
  5
901
102
{ACAD_REACTORS
330
267
102
}
330
267
100
AcDbVisualStyle
  2
X-Ray
 70
    25
 71
     2
 72
     2
 73
     1
 90
        1
 40
0.5
 41
30.0
 62
     5
 63
     7
421
 16777215
 74
     1
 91
        0
 64
     7
 65
   257
 75
     1
175
     1
 42
1.0
 92
        8
 66
     7
 43
1.0
 76
     1
 77
     6
 78
     2
 67
     7
 79
     3
170
     0
171
     0
290
     0
174
     0
 93
       13
 44
0.0
173
     0
291
     0
 45
0.0
  0
DICTIONARYVAR
  5
331
102
{ACAD_REACTORS
330
330
102
}
330
330
100
DictionaryVariables
280
     0
  1
1:1
  0
DICTIONARYVAR
  5
335
102
{ACAD_REACTORS
330
330
102
}
330
330
100
DictionaryVariables
280
     0
  1
Standard
  0
DICTIONARYVAR
  5
896
102
{ACAD_REACTORS
330
330
102
}
330
330
100
DictionaryVariables
280
     0
  1
0
  0
XRECORD
  5
10F2
102
{ACAD_REACTORS
330
2E2
102
}
330
2E2
100
AcDbXrecord
280
     1
 91
     1023
301

290
     0
302
MODEL
330
14
 90
        8
 62
     7
370
    -3
331
13
  1
Color_7
330
4B
 90
        8
 62
     7
370
     0
331
13
  1
Color_7
330
4C
 90
        8
 62
     7
370
     9
331
13
  1
Color_7
330
4D
 90
        8
 62
     7
370
    -3
331
13
  1
Color_7
330
667
 90
        8
 62
     7
370
    -3
331
13
  1
Color_7
330
88C
 90
        8
 62
     7
370
     9
331
45
  1
Color_7
330
0
 90
        8
 62
     7
370
    -3
331
13
  1
Color_7
330
0
 90
        8
 62
     7
370
    -3
331
13
  1
Color_7
330
0
 90
        8
 62
     7
370
    -3
331
13
  1
Color_7
330
0
 90
        8
 62
     7
370
    -3
331
13
  1
Color_7
330
0
 90
        8
 62
     7
370
    -3
331
13
  1
Color_7
330
0
 90
        8
 62
     7
370
    -3
331
13
  1
Color_7
330
0
 90
        8
 62
     7
370
    -3
331
13
  1
Color_7
330
0
 90
        8
 62
     7
370
    -3
331
13
  1
Color_7
330
0
 90
        8
 62
     7
370
    -3
331
13
  1
Color_7
330
0
 90
        8
 62
     7
370
    -3
331
13
  1
Color_7
330
0
 90
        8
 62
     7
370
    -3
331
13
  1
Color_7
330
0
 90
        8
 62
     7
370
    -3
331
13
  1
Color_7
330
0
 90
        8
 62
     7
370
    -3
331
13
  1
Color_7
330
0
 90
        8
 62
     7
370
    -3
331
13
  1
Color_7
330
0
 90
        8
 62
     7
370
    -3
331
13
  1
Color_7
330
0
 90
        8
 62
     7
370
    -3
331
13
  1
Color_7
330
2668
 90
        0
 62
     7
370
    -3
331
13
  1
Color_7
  0
XRECORD
  5
8F6
102
{ACAD_REACTORS
330
2E2
102
}
330
2E2
100
AcDbXrecord
280
     1
 91
     1023
301

290
     0
302
DIM
330
14
 90
        8
 62
     7
370
    -3
331
13
  1
Color_7
330
4B
 90
       12
 62
     7
370
     0
331
13
  1
Color_7
330
4C
 90
        8
 62
     7
370
     9
331
13
  1
Color_7
330
4D
 90
        8
 62
     7
370
    -3
331
13
  1
Color_7
330
667
 90
        8
 62
     7
370
    -3
331
13
  1
Color_7
330
88C
 90
        8
 62
     7
370
     9
331
45
  1
Color_7
  0
XRECORD
  5
7AA
102
{ACAD_REACTORS
330
2E2
102
}
330
2E2
100
AcDbXrecord
280
     1
 91
     1023
301

290
     0
302
MODEL
330
14
 90
        8
 62
     7
370
    -3
331
13
  1
Color_7
330
0
 90
        0
 62
     7
370
    -3
331
13
  1
Color_7
330
4B
 90
        8
 62
     7
370
    -3
331
13
  1
Color_7
330
4C
 90
        8
 62
     7
370
    -3
331
13
  1
Color_7
330
4D
 90
        8
 62
     7
370
    -3
331
13
  1
Color_7
330
0
 90
        9
 62
     1
370
    -3
331
13
  1
Color_1
330
0
 90
        8
 62
     4
370
    -3
331
13
  1
Color_4
330
667
 90
        8
 62
     7
370
    -3
331
13
  1
Color_7
  0
DICTIONARY
  5
2AD5
330
279
100
AcDbDictionary
280
     1
281
     1
  3
ACAD_ROUNDTRIP_2008_TABLESTYLE_CELLSTYLEMAP
360
2AD6
  0
CELLSTYLEMAP
  5
2AD6
102
{ACAD_REACTORS
330
2AD5
102
}
330
2AD5
100
AcDbCellStyleMap
 90
        3
300
CELLSTYLE
  1
TABLEFORMAT_BEGIN
 90
        5
170
     1
 91
        0
 92
    32768
 62
   257
 93
        1
300
CONTENTFORMAT
  1
CONTENTFORMAT_BEGIN
 90
        0
 91
        0
 92
        4
 93
        0
300

 40
0.0
140
1.0
 94
        5
 62
     0
340
17
144
6.0
309
CONTENTFORMAT_END
171
     1
301
MARGIN
  1
CELLMARGIN_BEGIN
 40
0.06
 40
0.06
 40
0.06
 40
0.06
 40
0.18
 40
0.18
309
CELLMARGIN_END
 94
        6
 95
        1
302
GRIDFORMAT
  1
GRIDFORMAT_BEGIN
 90
        0
 91
        1
 62
     0
 92
       -2
340
0
 93
        0
 40
0.045
309
GRIDFORMAT_END
 95
        2
302
GRIDFORMAT
  1
GRIDFORMAT_BEGIN
 90
        0
 91
        1
 62
     0
 92
       -2
340
0
 93
        0
 40
0.045
309
GRIDFORMAT_END
 95
        4
302
GRIDFORMAT
  1
GRIDFORMAT_BEGIN
 90
        0
 91
        1
 62
     0
 92
       -2
340
0
 93
        0
 40
0.045
309
GRIDFORMAT_END
 95
        8
302
GRIDFORMAT
  1
GRIDFORMAT_BEGIN
 90
        0
 91
        1
 62
     0
 92
       -2
340
0
 93
        0
 40
0.045
309
GRIDFORMAT_END
 95
       16
302
GRIDFORMAT
  1
GRIDFORMAT_BEGIN
 90
        0
 91
        1
 62
     0
 92
       -2
340
0
 93
        0
 40
0.045
309
GRIDFORMAT_END
 95
       32
302
GRIDFORMAT
  1
GRIDFORMAT_BEGIN
 90
        0
 91
        1
 62
     0
 92
       -2
340
0
 93
        0
 40
0.045
309
GRIDFORMAT_END
309
TABLEFORMAT_END
  1
CELLSTYLE_BEGIN
 90
        1
 91
        1
300
_TITLE
309
CELLSTYLE_END
300
CELLSTYLE
  1
TABLEFORMAT_BEGIN
 90
        5
170
     1
 91
        0
 92
        0
 62
   257
 93
        1
300
CONTENTFORMAT
  1
CONTENTFORMAT_BEGIN
 90
        0
 91
        0
 92
        4
 93
        0
300

 40
0.0
140
1.0
 94
        5
 62
     0
340
17
144
4.5
309
CONTENTFORMAT_END
171
     1
301
MARGIN
  1
CELLMARGIN_BEGIN
 40
0.06
 40
0.06
 40
0.06
 40
0.06
 40
0.18
 40
0.18
309
CELLMARGIN_END
 94
        6
 95
        1
302
GRIDFORMAT
  1
GRIDFORMAT_BEGIN
 90
        0
 91
        1
 62
     0
 92
       -2
340
0
 93
        0
 40
0.045
309
GRIDFORMAT_END
 95
        2
302
GRIDFORMAT
  1
GRIDFORMAT_BEGIN
 90
        0
 91
        1
 62
     0
 92
       -2
340
0
 93
        0
 40
0.045
309
GRIDFORMAT_END
 95
        4
302
GRIDFORMAT
  1
GRIDFORMAT_BEGIN
 90
        0
 91
        1
 62
     0
 92
       -2
340
0
 93
        0
 40
0.045
309
GRIDFORMAT_END
 95
        8
302
GRIDFORMAT
  1
GRIDFORMAT_BEGIN
 90
        0
 91
        1
 62
     0
 92
       -2
340
0
 93
        0
 40
0.045
309
GRIDFORMAT_END
 95
       16
302
GRIDFORMAT
  1
GRIDFORMAT_BEGIN
 90
        0
 91
        1
 62
     0
 92
       -2
340
0
 93
        0
 40
0.045
309
GRIDFORMAT_END
 95
       32
302
GRIDFORMAT
  1
GRIDFORMAT_BEGIN
 90
        0
 91
        1
 62
     0
 92
       -2
340
0
 93
        0
 40
0.045
309
GRIDFORMAT_END
309
TABLEFORMAT_END
  1
CELLSTYLE_BEGIN
 90
        2
 91
        1
300
_HEADER
309
CELLSTYLE_END
300
CELLSTYLE
  1
TABLEFORMAT_BEGIN
 90
        5
170
     1
 91
        0
 92
        0
 62
   257
 93
        1
300
CONTENTFORMAT
  1
CONTENTFORMAT_BEGIN
 90
        0
 91
        0
 92
        4
 93
        0
300

 40
0.0
140
1.0
 94
        2
 62
     0
340
17
144
4.5
309
CONTENTFORMAT_END
171
     1
301
MARGIN
  1
CELLMARGIN_BEGIN
 40
0.06
 40
0.06
 40
0.06
 40
0.06
 40
0.18
 40
0.18
309
CELLMARGIN_END
 94
        6
 95
        1
302
GRIDFORMAT
  1
GRIDFORMAT_BEGIN
 90
        0
 91
        1
 62
     0
 92
       -2
340
0
 93
        0
 40
0.045
309
GRIDFORMAT_END
 95
        2
302
GRIDFORMAT
  1
GRIDFORMAT_BEGIN
 90
        0
 91
        1
 62
     0
 92
       -2
340
0
 93
        0
 40
0.045
309
GRIDFORMAT_END
 95
        4
302
GRIDFORMAT
  1
GRIDFORMAT_BEGIN
 90
        0
 91
        1
 62
     0
 92
       -2
340
0
 93
        0
 40
0.045
309
GRIDFORMAT_END
 95
        8
302
GRIDFORMAT
  1
GRIDFORMAT_BEGIN
 90
        0
 91
        1
 62
     0
 92
       -2
340
0
 93
        0
 40
0.045
309
GRIDFORMAT_END
 95
       16
302
GRIDFORMAT
  1
GRIDFORMAT_BEGIN
 90
        0
 91
        1
 62
     0
 92
       -2
340
0
 93
        0
 40
0.045
309
GRIDFORMAT_END
 95
       32
302
GRIDFORMAT
  1
GRIDFORMAT_BEGIN
 90
        0
 91
        1
 62
     0
 92
       -2
340
0
 93
        0
 40
0.045
309
GRIDFORMAT_END
309
TABLEFORMAT_END
  1
CELLSTYLE_BEGIN
 90
        3
 91
        2
300
_DATA
309
CELLSTYLE_END
  0
ENDSEC
  0
EOF
