  0
SECTION
  2
HEADER
  9
$ACADVER
  1
AC1015
  9
$ACADMAINTVER
 70
               6
  9
$DWGCODEPAGE
  3
ANSI_932
  9
$INSBASE
 10
0.0
 20
0.0
 30
0.0
  9
$EXTMIN
 10
-975.00000000024124
 20
-1431.5255224711129
 30
-14.834305555555554
  9
$EXTMAX
 10
975.00000000024124
 20
1405.9972926412995
 30
14.834305555555554
  9
$LIMMIN
 10
0.0
 20
0.0
  9
$LIMMAX
 10
0.0
 20
0.0
  9
$ORTHOMODE
 70
               0
  9
$REGENMODE
 70
               1
  9
$FILLMODE
 70
               1
  9
$QTEXTMODE
 70
               0
  9
$MIRRTEXT
 70
               1
  9
$LTSCALE
 40
50.799999999999997
  9
$ATTMODE
 70
               1
  9
$TEXTSIZE
 40
0.2
  9
$TRACEWID
 40
1.0
  9
$TEXTSTYLE
  7
Standard
  9
$CLAYER
  8
AHS70-0106
  9
$CELTYPE
  6
Continuous
  9
$CECOLOR
 62
             256
  9
$CELTSCALE
 40
1.0
  9
$DISPSILH
 70
               0
  9
$DIMSCALE
 40
1.0
  9
$DIMASZ
 40
31.75
  9
$DIMEXO
 40
0.0
  9
$DIMDLI
 40
6.9999999999999396
  9
$DIMRND
 40
0.0
  9
$DIMDLE
 40
0.0
  9
$DIMEXE
 40
19.999999999996199
  9
$DIMTP
 40
0.0
  9
$DIMTM
 40
0.0
  9
$DIMTXT
 40
24.432617187500004
  9
$DIMCEN
 40
0.0
  9
$DIMTSZ
 40
0.0
  9
$DIMTOL
 70
               0
  9
$DIMLIM
 70
               0
  9
$DIMTIH
 70
               0
  9
$DIMTOH
 70
               0
  9
$DIMSE1
 70
               0
  9
$DIMSE2
 70
               0
  9
$DIMTAD
 70
               1
  9
$DIMZIN
 70
              11
  9
$DIMBLK
  1
VW_FILLEDARROW
  9
$DIMASO
 70
               1
  9
$DIMSHO
 70
               1
  9
$DIMPOST
  1
<>
  9
$DIMAPOST
  1
[]
  9
$DIMALT
 70
               0
  9
$DIMALTD
 70
               1
  9
$DIMALTF
 40
1.0
  9
$DIMLFAC
 40
1.0
  9
$DIMTOFL
 70
               0
  9
$DIMTVP
 40
0.0
  9
$DIMTIX
 70
               1
  9
$DIMSOXD
 70
               0
  9
$DIMSAH
 70
               0
  9
$DIMBLK1
  1

  9
$DIMBLK2
  1

  9
$DIMSTYLE
  2
JIS
  9
$DIMCLRD
 70
               0
  9
$DIMCLRE
 70
               0
  9
$DIMCLRT
 70
               0
  9
$DIMTFAC
 40
1.0
  9
$DIMGAP
 40
1.00000000000108
  9
$DIMJUST
 70
               0
  9
$DIMSD1
 70
               0
  9
$DIMSD2
 70
               0
  9
$DIMTOLJ
 70
               1
  9
$DIMTZIN
 70
              11
  9
$DIMALTZ
 70
              11
  9
$DIMALTTZ
 70
              11
  9
$DIMUPT
 70
               0
  9
$DIMDEC
 70
               1
  9
$DIMTDEC
 70
               1
  9
$DIMALTU
 70
               2
  9
$DIMALTTD
 70
               2
  9
$DIMTXSTY
  7
ＭＳ ゴシック
  9
$DIMAUNIT
 70
               0
  9
$DIMADEC
 70
               2
  9
$DIMALTRND
 40
0.0
  9
$DIMAZIN
 70
               0
  9
$DIMDSEP
 70
              46
  9
$DIMATFIT
 70
               0
  9
$DIMFRAC
 70
               2
  9
$DIMLDRBLK
  1

  9
$DIMLUNIT
 70
               2
  9
$DIMLWD
 70
              -2
  9
$DIMLWE
 70
              -2
  9
$DIMTMOVE
 70
               0
  9
$LUNITS
 70
               2
  9
$LUPREC
 70
               4
  9
$SKETCHINC
 40
0.1
  9
$FILLETRAD
 40
0.0
  9
$AUNITS
 70
               0
  9
$AUPREC
 70
               0
  9
$MENU
  1
acad
  9
$ELEVATION
 40
0.0
  9
$PELEVATION
 40
0.0
  9
$THICKNESS
 40
0.0
  9
$LIMCHECK
 70
               0
  9
$CHAMFERA
 40
0.0
  9
$CHAMFERB
 40
0.0
  9
$CHAMFERC
 40
0.0
  9
$CHAMFERD
 40
0.0
  9
$SKPOLY
 70
               0
  9
$TDCREATE
 40
2455947.617500000
  9
$TDUCREATE
 40
0.000000000
  9
$TDUPDATE
 40
2455947.617500000
  9
$TDUUPDATE
 40
0.000000000
  9
$TDINDWG
 40
0.0000000000
  9
$TDUSRTIMER
 40
0.0000000000
  9
$USRTIMER
 70
               1
  9
$ANGBASE
 50
0.0
  9
$ANGDIR
 70
               0
  9
$PDMODE
 70
               1
  9
$PDSIZE
 40
-2.0
  9
$PLINEWID
 40
0.0
  9
$SPLFRAME
 70
               0
  9
$SPLINETYPE
 70
               6
  9
$SPLINESEGS
 70
               8
  9
$HANDSEED
  5
1C2
  9
$SURFTAB1
 70
               6
  9
$SURFTAB2
 70
               6
  9
$SURFTYPE
 70
               6
  9
$SURFU
 70
               6
  9
$SURFV
 70
               6
  9
$UCSBASE
  2

  9
$UCSNAME
  2

  9
$UCSORG
 10
0.0
 20
0.0
 30
0.0
  9
$UCSXDIR
 10
1.0
 20
0.0
 30
0.0
  9
$UCSYDIR
 10
0.0
 20
1.0
 30
0.0
  9
$UCSORTHOREF
  2

  9
$UCSORTHOVIEW
 70
               0
  9
$UCSORGTOP
 10
0.0
 20
0.0
 30
0.0
  9
$UCSORGBOTTOM
 10
0.0
 20
0.0
 30
0.0
  9
$UCSORGLEFT
 10
0.0
 20
0.0
 30
0.0
  9
$UCSORGRIGHT
 10
0.0
 20
0.0
 30
0.0
  9
$UCSORGFRONT
 10
0.0
 20
0.0
 30
0.0
  9
$UCSORGBACK
 10
0.0
 20
0.0
 30
0.0
  9
$PUCSBASE
  2

  9
$PUCSNAME
  2

  9
$PUCSORG
 10
0.0
 20
0.0
 30
0.0
  9
$PUCSXDIR
 10
1.0
 20
0.0
 30
0.0
  9
$PUCSYDIR
 10
0.0
 20
1.0
 30
0.0
  9
$PUCSORTHOREF
  2

  9
$PUCSORTHOVIEW
 70
               0
  9
$PUCSORGTOP
 10
0.0
 20
0.0
 30
0.0
  9
$PUCSORGBOTTOM
 10
0.0
 20
0.0
 30
0.0
  9
$PUCSORGLEFT
 10
0.0
 20
0.0
 30
0.0
  9
$PUCSORGRIGHT
 10
0.0
 20
0.0
 30
0.0
  9
$PUCSORGFRONT
 10
0.0
 20
0.0
 30
0.0
  9
$PUCSORGBACK
 10
0.0
 20
0.0
 30
0.0
  9
$USERI1
 70
               0
  9
$USERI2
 70
               0
  9
$USERI3
 70
               0
  9
$USERI4
 70
               0
  9
$USERI5
 70
               0
  9
$USERR1
 40
0.0
  9
$USERR2
 40
0.0
  9
$USERR3
 40
0.0
  9
$USERR4
 40
0.0
  9
$USERR5
 40
0.0
  9
$WORLDVIEW
 70
               1
  9
$SHADEDGE
 70
               3
  9
$SHADEDIF
 70
              70
  9
$TILEMODE
 70
               1
  9
$MAXACTVP
 70
              64
  9
$PINSBASE
 10
0.0
 20
0.0
 30
0.0
  9
$PLIMCHECK
 70
               0
  9
$PEXTMIN
 10
1.0000000000000000E+20
 20
1.0000000000000000E+20
 30
1.0000000000000000E+20
  9
$PEXTMAX
 10
-1.0000000000000000E+20
 20
-1.0000000000000000E+20
 30
-1.0000000000000000E+20
  9
$PLIMMIN
 10
0.0
 20
0.0
  9
$PLIMMAX
 10
12.0
 20
9.0
  9
$UNITMODE
 70
               0
  9
$VISRETAIN
 70
               0
  9
$PLINEGEN
 70
               1
  9
$PSLTSCALE
 70
               0
  9
$TREEDEPTH
 70
            3020
  9
$CMLSTYLE
  2
Standard
  9
$CMLJUST
 70
               0
  9
$CMLSCALE
 40
1.0
  9
$PROXYGRAPHICS
 70
               0
  9
$MEASUREMENT
 70
               1
  9
$CELWEIGHT
370
               0
  9
$ENDCAPS
280
               0
  9
$JOINSTYLE
280
               0
  9
$LWDISPLAY
290
               1
  9
$INSUNITS
 70
               4
  9
$HYPERLINKBASE
  1

  9
$STYLESHEET
  1

  9
$XEDIT
290
               1
  9
$CEPSNTYPE
380
               0
  9
$PSTYLEMODE
290
               1
  9
$FINGERPRINTGUID
  2

  9
$VERSIONGUID
  2

  9
$EXTNAMES
290
               1
  9
$PSVPSCALE
 40
0.0
  0
ENDSEC
  0
SECTION
  2
CLASSES
  0
CLASS
  1
LWPOLYLINE
  2
AcDbPolyline
  3
AutoCAD 2000
 90
        0
280
               0
281
               1
  0
CLASS
  1
IMAGE
  2
AcDbRasterImage
  3
ISM
 90
      127
280
               0
281
               1
  0
CLASS
  1
OLE2FRAME
  2
AcDbOle2Frame
  3
AutoCAD 2000
 90
        0
280
               0
281
               1
  0
CLASS
  1
HATCH
  2
AcDbHatch
  3
AutoCAD 2000
 90
        0
280
               0
281
               1
  0
CLASS
  1
DICTIONARYVAR
  2
AcDbDictionaryVar
  3
AutoCAD 2000
 90
        0
280
               0
281
               0
  0
CLASS
  1
RASTERVARIABLES
  2
AcDbRasterVariables
  3
ISM
 90
        0
280
               0
281
               0
  0
CLASS
  1
IMAGEDEF
  2
AcDbRasterImageDef
  3
ISM
 90
        0
280
               0
281
               0
  0
CLASS
  1
IMAGEDEF_REACTOR
  2
AcDbRasterImageDefReactor
  3
ISM
 90
        1
280
               0
281
               0
  0
CLASS
  1
IDBUFFER
  2
AcDbIdBuffer
  3
AutoCAD 2000
 90
        0
280
               0
281
               0
  0
CLASS
  1
SPATIAL_FILTER
  2
AcDbSpatialFilter
  3
AutoCAD 2000
 90
        0
280
               0
281
               0
  0
CLASS
  1
XRECORD
  2
AcDbXrecord
  3
AutoCAD 2000
 90
        0
280
               0
281
               0
  0
CLASS
  1
SORTENTSTABLE
  2
AcDbSortentsTable
  3
AutoCAD 2000
 90
        0
280
               0
281
               0
  0
CLASS
  1
LAYER_INDEX
  2
AcDbLayerIndex
  3
AutoCAD 2000
 90
        0
280
               0
281
               0
  0
CLASS
  1
SPATIAL_INDEX
  2
AcDbSpatialIndex
  3
AutoCAD 2000
 90
        0
280
               0
281
               0
  0
CLASS
  1
OBJECT_PTR
  2
CAseDLPNTableRecord
  3
"ASE-LPNTableRecord"
 90
        1
280
               0
281
               0
  0
CLASS
  1
LAYOUT
  2
AcDbLayout
  3
AutoCAD 2000
 90
        0
280
               0
281
               0
  0
CLASS
  1
PLOTSETTINGS
  2
AcDbPlotSettings
  3
AutoCAD 2000
 90
        0
280
               0
281
               0
  0
CLASS
  1
ACDBDICTIONARYWDFLT
  2
AcDbDictionaryWithDefault
  3
AutoCAD 2000
 90
        0
280
               0
281
               0
  0
CLASS
  1
ACDBPLACEHOLDER
  2
AcDbPlaceHolder
  3
AutoCAD 2000
 90
        0
280
               0
281
               0
  0
ENDSEC
  0
SECTION
  2
TABLES
  0
TABLE
  2
VPORT
  5
7
100
AcDbSymbolTable
 70
               1
  0
VPORT
  5
15
100
AcDbSymbolTableRecord
100
AcDbViewportTableRecord
  2
*ACTIVE
 70
               0
 10
0.0
 20
0.0
 11
1.0
 21
1.0
 12
0.0
 22
-12.764114914906713
 13
0.0
 23
0.0
 14
1.0
 24
1.0
 15
0.0
 25
0.0
 16
0.0
 26
0.0
 36
1.0
 17
0.0
 27
0.0
 37
0.0
 40
2837.5228151124124
 41
0.688564
 42
50.0
 43
0.0
 44
0.0
 50
0.0
 51
0.0
 71
               0
 72
            2000
 73
               1
 74
               1
 75
               0
 76
               0
 77
               0
 78
               0
281
               0
 65
               0
110
0.0
120
0.0
130
0.0
111
1.0
121
0.0
131
0.0
112
0.0
122
1.0
132
0.0
345
0
346
0
 79
               0
146
0.0
  0
ENDTAB
  0
TABLE
  2
LTYPE
  5
4
100
AcDbSymbolTable
 70
              19
  0
LTYPE
  5
11
100
AcDbSymbolTableRecord
100
AcDbLinetypeTableRecord
  2
ByBlock
 70
              64
  3

 72
              65
 73
               0
 40
0.0
  0
LTYPE
  5
12
100
AcDbSymbolTableRecord
100
AcDbLinetypeTableRecord
  2
ByLayer
 70
              64
  3

 72
              65
 73
               0
 40
0.0
  0
LTYPE
  5
13
100
AcDbSymbolTableRecord
100
AcDbLinetypeTableRecord
  2
Continuous
 70
              64
  3
Solid line
 72
              65
 73
               0
 40
0.0
  0
LTYPE
  5
39
100
AcDbSymbolTableRecord
100
AcDbLinetypeTableRecord
  2
STYLE_01
 70
               0
  3

 72
              65
 73
               2
 40
0.8333326771653543
 49
0.8333326771653543
 74
               0
 49
-0.0004999999999999
 74
               0
  0
LTYPE
  5
3A
100
AcDbSymbolTableRecord
100
AcDbLinetypeTableRecord
  2
STYLE_02
 70
               0
  3

 72
              65
 73
               2
 40
0.6944448818897637
 49
0.6944448818897637
 74
               0
 49
-0.0004999999999999
 74
               0
  0
LTYPE
  5
3B
100
AcDbSymbolTableRecord
100
AcDbLinetypeTableRecord
  2
STYLE_03
 70
               0
  3

 72
              65
 73
               2
 40
1.25
 49
1.0416400000000001
 74
               0
 49
-0.2083599999999999
 74
               0
  0
LTYPE
  5
3C
100
AcDbSymbolTableRecord
100
AcDbLinetypeTableRecord
  2
STYLE_04
 70
               0
  3

 72
              65
 73
               2
 40
1.5277099999999999
 49
1.3194249999999998
 74
               0
 49
-0.208285
 74
               0
  0
LTYPE
  5
3D
100
AcDbSymbolTableRecord
100
AcDbLinetypeTableRecord
  2
STYLE_05
 70
               0
  3

 72
              65
 73
               2
 40
0.20828
 49
0.069425
 74
               0
 49
-0.138855
 74
               0
  0
LTYPE
  5
3E
100
AcDbSymbolTableRecord
100
AcDbLinetypeTableRecord
  2
STYLE_06
 70
               0
  3

 72
              65
 73
               4
 40
1.0416400000000001
 49
0.625
 74
               0
 49
-0.20828
 74
               0
 49
0.06943
 74
               0
 49
-0.13893
 74
               0
  0
LTYPE
  5
3F
100
AcDbSymbolTableRecord
100
AcDbLinetypeTableRecord
  2
STYLE_07
 70
               0
  3

 72
              65
 73
               6
 40
1.875
 49
0.625
 74
               0
 49
-0.20828
 74
               0
 49
0.6250000000000001
 74
               0
 49
-0.2083599999999999
 74
               0
 49
0.06943
 74
               0
 49
-0.1389299999999999
 74
               0
  0
LTYPE
  5
40
100
AcDbSymbolTableRecord
100
AcDbLinetypeTableRecord
  2
STYLE_08
 70
               0
  3

 72
              65
 73
               6
 40
1.25
 49
0.625
 74
               0
 49
-0.20828
 74
               0
 49
0.06943
 74
               0
 49
-0.13893
 74
               0
 49
0.0694299999999999
 74
               0
 49
-0.13893
 74
               0
  0
LTYPE
  5
41
100
AcDbSymbolTableRecord
100
AcDbLinetypeTableRecord
  2
STYLE_09
 70
               0
  3

 72
              65
 73
               4
 40
5.0
 49
3.75
 74
               0
 49
-0.2777849999999998
 74
               0
 49
0.6944300000000003
 74
               0
 49
-0.2777849999999998
 74
               0
  0
LTYPE
  5
42
100
AcDbSymbolTableRecord
100
AcDbLinetypeTableRecord
  2
STYLE_10
 70
               0
  3

 72
              65
 73
               6
 40
5.9375
 49
3.75
 74
               0
 49
-0.2777849999999998
 74
               0
 49
0.6944300000000003
 74
               0
 49
-0.2777849999999998
 74
               0
 49
0.625
 74
               0
 49
-0.3125
 74
               0
  0
LTYPE
  5
43
100
AcDbSymbolTableRecord
100
AcDbLinetypeTableRecord
  2
STYLE_11
 70
               0
  3

 72
              65
 73
               2
 40
0.0694444881889764
 49
0.0347222440944882
 74
               0
 49
-0.0347222440944882
 74
               0
  0
LTYPE
  5
44
100
AcDbSymbolTableRecord
100
AcDbLinetypeTableRecord
  2
STYLE_12
 70
               0
  3

 72
              65
 73
               2
 40
0.3937007874015748
 49
0.1968503937007874
 74
               0
 49
-0.1968503937007874
 74
               0
  0
LTYPE
  5
45
100
AcDbSymbolTableRecord
100
AcDbLinetypeTableRecord
  2
STYLE_13
 70
               0
  3

 72
              65
 73
               2
 40
0.5905511811023622
 49
0.2952755905511811
 74
               0
 49
-0.2952755905511811
 74
               0
  0
LTYPE
  5
46
100
AcDbSymbolTableRecord
100
AcDbLinetypeTableRecord
  2
STYLE_14
 70
               0
  3

 72
              65
 73
               2
 40
1.9685039370078738
 49
0.9842519685039369
 74
               0
 49
-0.9842519685039369
 74
               0
  0
LTYPE
  5
47
100
AcDbSymbolTableRecord
100
AcDbLinetypeTableRecord
  2
STYLE_15
 70
               0
  3

 72
              65
 73
               2
 40
1.3888897637795274
 49
1.3888897637795274
 74
               0
 49
-0.0004999999999999
 74
               0
  0
LTYPE
  5
48
100
AcDbSymbolTableRecord
100
AcDbLinetypeTableRecord
  2
STYLE_16
 70
               0
  3

 72
              65
 73
               2
 40
1.6666653543307086
 49
1.6666653543307086
 74
               0
 49
-0.0004999999999999
 74
               0
  0
ENDTAB
  0
TABLE
  2
LAYER
  5
2
100
AcDbSymbolTable
 70
               5
  0
LAYER
  5
14
100
AcDbSymbolTableRecord
100
AcDbLayerTableRecord
  2
0
 70
               0
 62
               7
  6
Continuous
290
               1
370
              -3
390
1D
  0
LAYER
  5
49
100
AcDbSymbolTableRecord
100
AcDbLayerTableRecord
  2
Defpoints
 70
               0
 62
               7
  6
Continuous
290
               0
370
              -3
390
1D
  0
LAYER
  5
4A
100
AcDbSymbolTableRecord
100
AcDbLayerTableRecord
  2
template
 70
               0
 62
               7
  6
Continuous
290
               1
370
              -3
390
1D
  0
LAYER
  5
4B
100
AcDbSymbolTableRecord
100
AcDbLayerTableRecord
  2
注釈
 70
               0
 62
               7
  6
Continuous
290
               1
370
              -3
390
1D
  0
LAYER
  5
4C
100
AcDbSymbolTableRecord
100
AcDbLayerTableRecord
  2
AHS70-0106
 70
               0
 62
               7
  6
Continuous
290
               1
370
              -3
390
1D
  0
ENDTAB
  0
TABLE
  2
STYLE
  5
3
100
AcDbSymbolTable
 70
               2
  0
STYLE
  5
17
100
AcDbSymbolTableRecord
100
AcDbTextStyleTableRecord
  2
Standard
 70
               0
 40
0.0
 41
1.0
 50
0.0
 71
               0
 42
0.0
  3
txt
  4
BIGFONT.SHX
  0
STYLE
  5
38
100
AcDbSymbolTableRecord
100
AcDbTextStyleTableRecord
  2
ＭＳ ゴシック
 70
               0
 40
0.0
 41
1.0
 50
0.0
 71
               0
 42
0.0
  3

  4
ＭＳ ゴシック
1001
ACAD
1000
ＭＳ ゴシック
1071
        0
  0
ENDTAB
  0
TABLE
  2
VIEW
  5
5
100
AcDbSymbolTable
 70
               0
  0
ENDTAB
  0
TABLE
  2
UCS
  5
6
100
AcDbSymbolTable
 70
               0
  0
ENDTAB
  0
TABLE
  2
APPID
  5
8
100
AcDbSymbolTable
 70
               1
  0
APPID
  5
16
100
AcDbSymbolTableRecord
100
AcDbRegAppTableRecord
  2
ACAD
 70
               0
  0
ENDTAB
  0
TABLE
  2
DIMSTYLE
  5
9
100
AcDbSymbolTable
 70
               3
100
AcDbDimStyleTable
 71
               0
  0
DIMSTYLE
105
18
100
AcDbSymbolTableRecord
100
AcDbDimStyleTableRecord
  2
Standard
 70
               0
  3

  4

 40
1.0
 41
0.18
 42
0.0625
 43
0.38
 44
0.18
 45
0.0
 46
0.0
 47
0.0
 48
0.0
 71
               0
 72
               0
 73
               1
 74
               1
 75
               0
 76
               0
 77
               0
 78
               0
 79
               0
140
0.18
141
0.09
142
0.0
143
25.399999999999999
144
1.0
145
0.0
146
1.0
147
0.09
148
0.0
170
               0
171
               2
172
               0
173
               0
174
               0
175
               0
176
               0
177
               0
178
               0
179
               0
271
               4
272
               4
273
               2
274
               2
275
               0
276
               0
277
               2
278
              46
279
               0
280
               0
281
               0
282
               0
283
               1
284
               0
285
               0
286
               0
288
               0
289
               3
340
17
341
0
342
0
343
0
344
0
371
              -2
372
              -2
  0
DIMSTYLE
105
55
100
AcDbSymbolTableRecord
100
AcDbDimStyleTableRecord
  2
tfrom線あり
 70
               0
  3
<>
  4
[]
 40
1.0
 41
3.999755859375
 42
24.999999999999996
 43
0.9999999999999999
 44
0.0
 45
0.0
 46
0.0
 47
0.0
 48
0.0
 71
               0
 72
               0
 73
               0
 74
               0
 75
               0
 76
               0
 77
               1
 78
              11
 79
               0
140
24.432617187500004
141
0.0
142
0.0
143
1.0
144
1.0
145
0.0
146
1.0
147
0.4999999999999999
148
0.0
170
               0
171
               1
172
               0
173
               0
174
               1
175
               0
176
               0
177
               0
178
               0
179
               2
271
               1
272
               1
273
               2
274
               2
275
               0
276
               2
277
               2
278
              46
279
               0
280
               0
281
               0
282
               0
283
               1
284
              11
285
              11
286
              11
288
               0
289
               0
340
38
341
4D
342
4D
343
0
344
0
371
              -2
372
              -2
  0
DIMSTYLE
105
5A
100
AcDbSymbolTableRecord
100
AcDbDimStyleTableRecord
  2
JIS
 70
               0
  3
<>
  4
[]
 40
1.0
 41
31.75
 42
0.0
 43
6.9999999999999396
 44
19.999999999996199
 45
0.0
 46
0.0
 47
0.0
 48
0.0
 71
               0
 72
               0
 73
               0
 74
               0
 75
               0
 76
               0
 77
               1
 78
              11
 79
               0
140
24.432617187500004
141
0.0
142
0.0
143
1.0
144
1.0
145
0.0
146
1.0
147
1.00000000000108
148
0.0
170
               0
171
               1
172
               0
173
               0
174
               1
175
               0
176
               0
177
               0
178
               0
179
               2
271
               1
272
               1
273
               2
274
               2
275
               0
276
               2
277
               2
278
              46
279
               0
280
               0
281
               0
282
               0
283
               1
284
              11
285
              11
286
              11
288
               0
289
               0
340
38
341
56
342
56
343
0
344
0
371
              -2
372
              -2
  0
ENDTAB
  0
TABLE
  2
BLOCK_RECORD
  5
1
100
AcDbSymbolTable
 70
              23
  0
BLOCK_RECORD
  5
A
100
AcDbSymbolTableRecord
100
AcDbBlockTableRecord
  2
*MODEL_SPACE
340
20
  0
BLOCK_RECORD
  5
B
100
AcDbSymbolTableRecord
100
AcDbBlockTableRecord
  2
*PAPER_SPACE
340
21
  0
BLOCK_RECORD
  5
4D
100
AcDbSymbolTableRecord
100
AcDbBlockTableRecord
  2
_DOT
340
0
  0
BLOCK_RECORD
  5
56
100
AcDbSymbolTableRecord
100
AcDbBlockTableRecord
  2
VW_FILLEDARROW
340
0
  0
BLOCK_RECORD
  5
23
100
AcDbSymbolTableRecord
100
AcDbBlockTableRecord
  2
グループ
340
0
102
{BLKREFS
331
15C
102
}
  0
BLOCK_RECORD
  5
24
100
AcDbSymbolTableRecord
100
AcDbBlockTableRecord
  2
*D3
340
0
  0
BLOCK_RECORD
  5
25
100
AcDbSymbolTableRecord
100
AcDbBlockTableRecord
  2
*D4
340
0
  0
BLOCK_RECORD
  5
26
100
AcDbSymbolTableRecord
100
AcDbBlockTableRecord
  2
*D5
340
0
  0
BLOCK_RECORD
  5
27
100
AcDbSymbolTableRecord
100
AcDbBlockTableRecord
  2
*D6
340
0
  0
BLOCK_RECORD
  5
28
100
AcDbSymbolTableRecord
100
AcDbBlockTableRecord
  2
*D7
340
0
  0
BLOCK_RECORD
  5
29
100
AcDbSymbolTableRecord
100
AcDbBlockTableRecord
  2
*D8
340
0
  0
BLOCK_RECORD
  5
2A
100
AcDbSymbolTableRecord
100
AcDbBlockTableRecord
  2
*D9
340
0
  0
BLOCK_RECORD
  5
2B
100
AcDbSymbolTableRecord
100
AcDbBlockTableRecord
  2
*D10
340
0
  0
BLOCK_RECORD
  5
2C
100
AcDbSymbolTableRecord
100
AcDbBlockTableRecord
  2
*D11
340
0
  0
BLOCK_RECORD
  5
2D
100
AcDbSymbolTableRecord
100
AcDbBlockTableRecord
  2
*D12
340
0
  0
BLOCK_RECORD
  5
2E
100
AcDbSymbolTableRecord
100
AcDbBlockTableRecord
  2
*D13
340
0
  0
BLOCK_RECORD
  5
2F
100
AcDbSymbolTableRecord
100
AcDbBlockTableRecord
  2
*D14
340
0
  0
BLOCK_RECORD
  5
30
100
AcDbSymbolTableRecord
100
AcDbBlockTableRecord
  2
*D15
340
0
  0
BLOCK_RECORD
  5
31
100
AcDbSymbolTableRecord
100
AcDbBlockTableRecord
  2
*D16
340
0
  0
BLOCK_RECORD
  5
32
100
AcDbSymbolTableRecord
100
AcDbBlockTableRecord
  2
*D17
340
0
  0
BLOCK_RECORD
  5
33
100
AcDbSymbolTableRecord
100
AcDbBlockTableRecord
  2
*D18
340
0
  0
BLOCK_RECORD
  5
34
100
AcDbSymbolTableRecord
100
AcDbBlockTableRecord
  2
グループ-1
340
0
102
{BLKREFS
331
199
102
}
  0
BLOCK_RECORD
  5
35
100
AcDbSymbolTableRecord
100
AcDbBlockTableRecord
  2
グループ-2
340
0
102
{BLKREFS
331
1BF
102
}
  0
BLOCK_RECORD
  5
36
100
AcDbSymbolTableRecord
100
AcDbBlockTableRecord
  2
*D21
340
0
  0
BLOCK_RECORD
  5
37
100
AcDbSymbolTableRecord
100
AcDbBlockTableRecord
  2
*D22
340
0
  0
ENDTAB
  0
ENDSEC
  0
SECTION
  2
BLOCKS
  0
BLOCK
  5
D
100
AcDbEntity
  8
0
390
0
100
AcDbBlockBegin
  2
*MODEL_SPACE
 70
               0
 10
0.0
 20
0.0
 30
0.0
  3
*MODEL_SPACE
  1

  0
ENDBLK
  5
E
100
AcDbEntity
  8
0
390
0
100
AcDbBlockEnd
  0
BLOCK
  5
F
100
AcDbEntity
 67
               1
  8
0
390
0
100
AcDbBlockBegin
  2
*PAPER_SPACE
 70
               0
 10
0.0
 20
0.0
 30
0.0
  3
*PAPER_SPACE
  1

  0
ENDBLK
  5
10
100
AcDbEntity
 67
               1
  8
0
390
0
100
AcDbBlockEnd
  0
BLOCK
  5
4E
100
AcDbEntity
  8
0
390
0
100
AcDbBlockBegin
  2
_DOT
 70
               0
 10
0.0
 20
0.0
 30
0.0
  3
_DOT
  1

  0
POLYLINE
  5
4F
100
AcDbEntity
  8
0
370
              -2
390
0
  6
ByBlock
 62
               0
100
AcDb2dPolyline
 66
               1
 10
0.0
 20
0.0
 30
0.0
 70
               1
 40
0.5
 41
0.5
  0
VERTEX
  5
50
100
AcDbEntity
  8
0
370
              -2
390
0
  6
ByBlock
 62
               0
100
AcDbVertex
100
AcDb2dVertex
 10
-0.25
 20
0.0
 30
0.0
 42
1.0
  0
VERTEX
  5
51
100
AcDbEntity
  8
0
370
              -2
390
0
  6
ByBlock
 62
               0
100
AcDbVertex
100
AcDb2dVertex
 10
0.25
 20
0.0
 30
0.0
 42
1.0
  0
SEQEND
  5
52
100
AcDbEntity
  8
0
390
0
  0
LINE
  5
53
100
AcDbEntity
  8
0
370
              -2
390
0
  6
ByBlock
 62
               0
100
AcDbLine
 10
-0.5
 20
0.0
 30
0.0
 11
-1.0
 21
0.0
 31
0.0
  0
ENDBLK
  5
54
100
AcDbEntity
  8
0
390
0
100
AcDbBlockEnd
  0
BLOCK
  5
57
100
AcDbEntity
  8
0
370
              -2
390
0
  6
ByBlock
 62
               0
100
AcDbBlockBegin
  2
VW_FILLEDARROW
 70
               0
 10
0.0
 20
0.0
 30
0.0
  3
VW_FILLEDARROW
  1

  0
SOLID
  5
58
100
AcDbEntity
  8
0
370
              -2
390
0
 62
               0
100
AcDbTrace
 10
0.0
 20
0.0
 30
0.0
 11
-0.9921874999999999
 21
-0.2658558393652545
 31
0.0
 12
-0.9921874999999999
 22
0.2658558393652548
 32
0.0
 13
-0.9921874999999999
 23
0.2658558393652548
 33
0.0
  0
ENDBLK
  5
59
100
AcDbEntity
  8
0
390
0
100
AcDbBlockEnd
  0
BLOCK
  5
5B
100
AcDbEntity
  8
template
390
0
100
AcDbBlockBegin
  2
グループ
 70
               0
 10
0.0
 20
0.0
 30
0.0
  3
グループ
  1

  0
LWPOLYLINE
  5
5C
100
AcDbEntity
  8
0
370
              15
390
0
  6
Continuous
 62
               7
100
AcDbPolyline
 90
        8
 70
             129
 10
776.86455928195369
 20
-1500.861352355158
 10
776.86455928195369
 20
-1506.8587410487339
 10
767.36336236395039
 20
-1506.8587410487339
 10
767.36336236395039
 20
-1531.3097043122427
 10
759.00798510216759
 20
-1531.3097043122427
 10
759.00798510216759
 20
-1506.8587410487339
 10
749.67502815585817
 20
-1506.8587410487339
 10
749.67502815585817
 20
-1500.861352355158
  0
LWPOLYLINE
  5
5D
100
AcDbEntity
  8
0
370
              15
390
0
  6
Continuous
 62
               7
100
AcDbPolyline
 90
      101
 70
             128
 10
789.59285111251063
 20
-1501.5896008480945
 10
789.6082011412966
 20
-1501.5852400914091
 42
-0.022222160781218
 10
789.89820571796668
 20
-1501.5166156261648
 10
789.91399948196147
 20
-1501.5136122030676
 42
-0.0146883565585081
 10
790.17670218718445
 20
-1501.4716090161185
 42
-0.0127458844186153
 10
790.44134115433951
 20
-1501.4440720480459
 10
790.5037962326503
 20
-1501.4391786254578
 42
-0.0198099018566974
 10
790.89464534212152
 20
-1501.4240934680611
 10
790.9464568115709
 20
-1501.4241472437261
 42
-0.0147617382761463
 10
791.44108027254617
 20
-1501.4392672689712
 10
791.51377172742377
 20
-1501.4436398758589
 42
-0.0162624549000611
 10
791.90392535688466
 20
-1501.4798727511311
 10
792.02545774813859
 20
-1501.4951593101271
 42
-0.0080020874672217
 10
792.17103677923546
 20
-1501.515842157396
 10
792.20935624983474
 20
-1501.5219134352078
 42
-0.0053821929671355
 10
792.27784035514526
 20
-1501.5335209590287
 10
791.55143465594665
 20
-1503.7144494147426
 42
0.0108667757399365
 10
791.4841175858088
 20
-1503.7012622995214
 10
791.44664956262636
 20
-1503.6947645569282
 42
0.0170663203311216
 10
791.30343277571149
 20
-1503.6749349596366
 10
791.2355574430278
 20
-1503.667887789049
 42
0.0220162375273111
 10
790.9551780351743
 20
-1503.6512054282789
 10
790.87732246811811
 20
-1503.6500060610124
 42
0.0282606915789324
 10
790.5416861445425
 20
-1503.6638093379815
 10
790.49777287077006
 20
-1503.6681093279851
 42
0.0169677213685212
 10
790.25184837581128
 20
-1503.7006463775369
 42
0.0190576269862785
 10
790.00894041323056
 20
-1503.7507932496435
 10
790.00268122512034
 20
-1503.7523362237528
 42
0.0213685642848719
 10
789.75229674064065
 20
-1503.8255365088582
 10
789.74680684572638
 20
-1503.8273995049167
 42
0.0237595297599693
 10
789.49331196082551
 20
-1503.9270840268132
 10
789.48820988679802
 20
-1503.9293758022905
 42
0.0261857468816904
 10
789.23603911056955
 20
-1504.058912139664
 10
789.22561292147964
 20
-1504.0649776141342
 42
0.0272553062022536
 10
788.98918314624257
 20
-1504.2203498200774
 10
788.95442013273305
 20
-1504.2460109681699
 42
0.0325996893172728
 10
788.80426478908157
 20
-1504.3727588411411
 10
788.78055535995964
 20
-1504.3955768696528
 42
0.0138050960629964
 10
788.68867220374841
 20
-1504.4890265312056
 42
0.0125280103795111
 10
788.60182967091669
 20
-1504.5871898578034
 10
788.57814922600653
 20
-1504.6153483559931
 42
0.0205218024740011
 10
788.45304915049212
 20
-1504.777141670223
 10
788.43058281000572
 20
-1504.8088014000491
 42
0.0163110129578166
 10
788.27487243075871
 20
-1505.044131835112
 10
788.27214853470343
 20
-1505.0485555971045
 42
0.013189734189603
 10
788.12534801379547
 20
-1505.3016876894728
 10
788.12364791843106
 20
-1505.3048059286048
 42
0.0107895576064034
 10
787.98587121622279
 20
-1505.5710211382348
 10
787.98513832669528
 20
-1505.5725153708863
 42
0.0091371507218533
 10
787.85665837804652
 20
-1505.8470405686439
 10
787.82691274663648
 20
-1505.9137470758046
 42
0.0135418326349114
 10
787.65519880756528
 20
-1506.3286848610721
 10
787.62159399913139
 20
-1506.4165510033527
 42
0.0092834542411372
 10
787.45036493920975
 20
-1506.89044950166
 10
787.42474781149338
 20
-1506.9656905714498
 42
0.0054261043581466
 10
787.31710966319906
 20
-1507.2934545445187
 10
787.29958367701113
 20
-1507.3488427067819
 42
0.000822509081229
 10
787.23091362519165
 20
-1507.5671114648978
 10
786.24622449325818
 20
-1510.5920027581544
 10
789.47884833333205
 20
-1510.5920027581544
 10
788.97465590347861
 20
-1512.4964810565068
 10
785.71859962149529
 20
-1512.4964810565068
 10
779.88945058914146
 20
-1531.3097041225117
 10
778.06435297883115
 20
-1531.3097041225117
 10
783.89903101433208
 20
-1512.4964810565068
 10
781.49391464529174
 20
-1512.4964810565068
 10
781.99810707514519
 20
-1510.5920027581544
 10
784.4266558860952
 20
-1510.5920027581544
 10
785.28681080428385
 20
-1507.9555897574555
 42
-0.0005863560650972
 10
785.32354548245416
 20
-1507.838763337269
 10
785.39963331614774
 20
-1507.5977710377783
 42
-0.0087522378925265
 10
785.59910145960578
 20
-1507.0024949506285
 10
785.6913657350176
 20
-1506.7423547821202
 42
-0.0077400953831074
 10
785.94929939414919
 20
-1506.0493501045707
 10
785.96506436572815
 20
-1506.0089192211844
 42
-0.0082369946331824
 10
786.21214883634002
 20
-1505.404840154989
 42
-0.0085725238366181
 10
786.47939493234492
 20
-1504.8094141156973
 10
786.58102453334902
 20
-1504.5929930137195
 42
-0.0168109410598057
 10
786.86796896208034
 20
-1504.0317854876123
 10
786.99381235256396
 20
-1503.8048214545704
 42
-0.0007817726860512
 10
787.04809670259601
 20
-1503.7072772095839
 10
787.04822500862463
 20
-1503.7070475008272
 42
-0.0036626142157161
 10
787.10311287263448
 20
-1503.6104496208789
 42
-0.0080221150678624
 10
787.16023712804338
 20
-1503.5151703861222
 10
787.19093707940237
 20
-1503.4657794370037
 42
-0.0202139325569899
 10
787.31859281920902
 20
-1503.2777978363224
 10
787.37266028439672
 20
-1503.2047189720815
 42
-0.0249323791802375
 10
787.63182307811508
 20
-1502.8886737299283
 10
787.65596289224288
 20
-1502.8620594570148
 42
-0.0242132121542279
 10
787.99564363378352
 20
-1502.522175970812
 10
788.04355520653621
 20
-1502.4786668346242
 42
-0.0251017527859214
 10
788.32753690717618
 20
-1502.2456740888597
 10
788.32898238399196
 20
-1502.2446048312793
 42
-0.0130868069032644
 10
788.62724303394725
 20
-1502.0358243627384
 10
788.6288048530871
 20
-1502.0347909224652
 42
-0.0290329526389468
 10
788.93991599448327
 20
-1501.8539654208339
 10
788.96976155647837
 20
-1501.8388630379898
 42
-0.0160250190041703
 10
789.23566597023409
 20
-1501.7148469277813
 42
-0.0267600374784348
 10
789.51094204770254
 20
-1501.6140986072326
 10
789.53767796722366
 20
-1501.605906048407
 42
-0.004998158766997
 10
789.59285111251063
 20
-1501.5896008480945
 42
-0.004998158766997
  0
LWPOLYLINE
  5
5E
100
AcDbEntity
  8
0
370
              15
390
0
  6
Continuous
 62
               7
100
AcDbPolyline
 90
      118
 70
             128
 10
809.40721867695754
 20
-1510.6659860859818
 10
811.28234060145701
 20
-1510.6659860859818
 10
810.44430169585712
 20
-1513.3475526123818
 42
-0.0010587229236721
 10
810.47575751140164
 20
-1513.3106480790584
 10
810.53395160206105
 20
-1513.2426658228508
 42
-0.0071874740404114
 10
810.68432682016396
 20
-1513.0720251308162
 10
810.82604959342132
 20
-1512.9157889895087
 42
-0.0148118053515584
 10
811.27617888613474
 20
-1512.4481751434951
 10
811.36340122105139
 20
-1512.3627778226269
 42
-0.0086273358689805
 10
811.6989500220443
 20
-1512.0454021886255
 10
811.74278373827326
 20
-1512.0053525442897
 42
-0.0103138323116304
 10
812.00080744050365
 20
-1511.7791894069542
 10
812.04658184683251
 20
-1511.7407073596924
 42
-0.006020674856583
 10
812.21942991094295
 20
-1511.5989127089397
 10
812.22146104184776
 20
-1511.5972870032933
 42
-0.0067069027288223
 10
812.39375385649146
 20
-1511.4631363695134
 10
812.39630262242406
 20
-1511.4612061996331
 42
-0.0076184352048668
 10
812.56720788828875
 20
-1511.3358313243943
 42
-0.0089652861671014
 10
812.74216885102896
 20
-1511.2161980640578
 10
812.77852057116593
 20
-1511.1922868505801
 42
-0.0156916245940572
 10
812.97448006832838
 20
-1511.0720243641044
 42
-0.002329901106731
 10
813.17474211231456
 20
-1510.9588464245599
 10
813.19012624468803
 20
-1510.9502464294987
 42
-0.0107669341487516
 10
813.42436306978914
 20
-1510.8258462961494
 10
813.44662787086418
 20
-1510.8146295461993
 42
-0.0078058045898602
 10
813.73021798880814
 20
-1510.6772680905649
 10
813.74012507652606
 20
-1510.6726589626924
 42
-0.0181829330471678
 10
814.05043448113872
 20
-1510.5417952215978
 10
814.10448992370641
 20
-1510.5212801016539
 42
-0.0208411536031619
 10
814.45357489115872
 20
-1510.4051896391602
 10
814.46793099128308
 20
-1510.4010711942076
 42
-0.0222799817142819
 10
814.79665078520338
 20
-1510.3224296280664
 10
814.80553974844167
 20
-1510.320717617481
 42
-0.0215509523881733
 10
815.1220107167203
 20
-1510.2738019289468
 10
815.1644926777692
 20
-1510.269364402156
 42
-0.0182545924872091
 10
815.39860145707439
 20
-1510.2535205767651
 10
815.43800247341778
 20
-1510.252296031686
 42
-0.0072962856532897
 10
815.59392535311144
 20
-1510.2497267031638
 10
815.62302502369403
 20
-1510.2496718677601
 42
-0.0059227516315582
 10
815.72077452282838
 20
-1510.2506455795506
 10
815.75001674030875
 20
-1510.251283346154
 42
-0.0011833111908832
 10
815.78926802403271
 20
-1510.2522323504638
 10
814.99388142842554
 20
-1512.7909662955628
 42
0.0143932051613178
 10
814.96748004607298
 20
-1512.780767325517
 10
814.96020807365767
 20
-1512.7781961066603
 42
0.0234388603530055
 10
814.91837720772617
 20
-1512.7655768709451
 10
814.90969554481285
 20
-1512.7633959089399
 42
0.0199162742997882
 10
814.84940671073014
 20
-1512.7507791736043
 10
814.82859277292664
 20
-1512.7472819741763
 42
0.0293643550659492
 10
814.72551791416981
 20
-1512.7361319285233
 10
814.70083273344721
 20
-1512.7349203115045
 42
0.0214606686862344
 10
814.54769181749657
 20
-1512.733981751087
 10
814.53831990667675
 20
-1512.7343266626312
 42
0.016756405416986
 10
814.36679971557021
 20
-1512.746403704999
 10
814.35833992280936
 20
-1512.7472850454265
 42
0.0137677553244064
 10
814.17098660954093
 20
-1512.7720343539706
 10
814.16363487003673
 20
-1512.773212273938
 42
0.0118497261480637
 10
813.96313710593893
 20
-1512.8102296241264
 10
813.95698709868816
 20
-1512.8115164868473
 42
0.0106421143893762
 10
813.74610621139118
 20
-1512.8603488624251
 10
813.7411974030141
 20
-1512.8615962051072
 42
0.0099746379703941
 10
813.52273893385416
 20
-1512.9217707334212
 10
813.46119089368131
 20
-1512.9400526120526
 42
0.0191613675860519
 10
813.1252064311625
 20
-1513.0540299923407
 10
813.0371466584163
 20
-1513.0877169026651
 42
0.0205274080144487
 10
812.65183988651961
 20
-1513.2535453104902
 10
812.59419060453604
 20
-1513.2812132750632
 42
0.0181256912198751
 10
812.33591366387066
 20
-1513.4168970940405
 10
812.28295828055616
 20
-1513.4472147072556
 42
0.0140709242416899
 10
812.13800334592838
 20
-1513.5357093806895
 10
812.11175447730409
 20
-1513.5527661994088
 42
0.0086667884408128
 10
812.02282831576736
 20
-1513.6127688672877
 42
0.0036408192025477
 10
811.93539507773244
 20
-1513.6749497250812
 10
811.90016820326537
 20
-1513.7003906709929
 42
0.0052260781267793
 10
811.74393950589149
 20
-1513.8157230576142
 10
811.72773264961461
 20
-1513.8279511682454
 42
0.0050024435889993
 10
811.54172930657671
 20
-1513.9712337364911
 10
811.52641115004064
 20
-1513.9832797589534
 42
0.0136138710279183
 10
811.31596988171236
 20
-1514.1582462638692
 10
811.28230200592179
 20
-1514.1878252365809
 42
0.0172815186912507
 10
811.01789846426436
 20
-1514.4368219091991
 10
811.0153361184166
 20
-1514.4394077263514
 42
0.0189403857992798
 10
810.76475431983727
 20
-1514.7122129911559
 10
810.73212282629981
 20
-1514.7505569226548
 42
0.0185044199504795
 10
810.54016638732151
 20
-1514.9938055037755
 42
0.0088565243905017
 10
810.36170628068157
 20
-1515.2473219239428
 10
810.35252830104457
 20
-1515.2608633036857
 42
0.0157195347229491
 10
810.1693076947123
 20
-1515.5503855129982
 10
810.12322475278484
 20
-1515.6285377100132
 42
0.0095451879776266
 10
809.95813920264197
 20
-1515.9211323523787
 10
809.94699128370576
 20
-1515.9418030245231
 42
0.0100351706262673
 10
809.81494753455308
 20
-1516.1988585850015
 42
0.0086935915420183
 10
809.6926163827593
 20
-1516.4606917304054
 10
809.68929564134453
 20
-1516.4681340533778
 42
0.007258017486512
 10
809.56894918939986
 20
-1516.74872604496
 10
809.56568755609328
 20
-1516.7566460709786
 42
0.0060005122615593
 10
809.4464868877476
 20
-1517.0562557415917
 10
809.44327590940895
 20
-1517.0646172694887
 42
0.0049017786979705
 10
809.32437575054928
 20
-1517.383546250099
 10
809.32120994416107
 20
-1517.3922991873233
 42
0.0039415167603058
 10
809.20177366610233
 20
-1517.7308412497428
 10
809.19864256345227
 20
-1517.7399444506127
 42
0.0031035838768832
 10
809.07783777776046
 20
-1518.0983843123822
 10
809.07472773322877
 20
-1518.1078049337611
 42
0.0025070747153704
 10
808.95182638192023
 20
-1518.4864521506836
 10
808.91453248548805
 20
-1518.6033438159579
 42
0.0029081910283141
 10
808.72251418768258
 20
-1519.217507474232
 10
808.68171101916016
 20
-1519.3507307165255
 42
0.0009266453734063
 10
808.41329364482772
 20
-1520.2329551765079
 10
808.39240617217672
 20
-1520.302067055778
 42
-0.0005809993664755
 10
808.11506949161367
 20
-1521.2158751623238
 10
808.04878769333777
 20
-1521.4333600944935
 42
-0.001201870816555
 10
807.90180338391156
 20
-1521.9115227590041
 10
807.84948353225616
 20
-1522.0802819001594
 42
-0.0002691059596595
 10
807.80591405117741
 20
-1522.220549520212
 10
804.97295815288817
 20
-1531.3097041225117
 10
803.15496926090964
 20
-1531.3097041225117
 10
809.40721867695754
 20
-1510.6659860859818
  0
SPLINE
  5
5F
100
AcDbEntity
  8
0
370
              15
390
0
  6
Continuous
 62
               7
100
AcDbSpline
210
0.0
220
0.0
230
1.0
 70
              13
 71
               2
 72
             782
 73
             779
 74
               0
 42
0.000001
 43
0.000001
 40
0.0
 40
0.0
 40
0.0
 40
1.0
 40
1.0
 40
2.0
 40
2.0
 40
3.0
 40
3.0
 40
4.0
 40
4.0
 40
5.0
 40
5.0
 40
6.0
 40
6.0
 40
7.0
 40
7.0
 40
8.0
 40
8.0
 40
9.0
 40
9.0
 40
10.0
 40
10.0
 40
11.0
 40
11.0
 40
12.0
 40
12.0
 40
13.0
 40
13.0
 40
14.0
 40
14.0
 40
15.0
 40
15.0
 40
16.0
 40
16.0
 40
17.0
 40
17.0
 40
18.0
 40
18.0
 40
19.0
 40
19.0
 40
20.0
 40
20.0
 40
21.0
 40
21.0
 40
22.0
 40
22.0
 40
23.0
 40
23.0
 40
24.0
 40
24.0
 40
25.0
 40
25.0
 40
26.0
 40
26.0
 40
27.0
 40
27.0
 40
28.0
 40
28.0
 40
29.0
 40
29.0
 40
30.0
 40
30.0
 40
31.0
 40
31.0
 40
32.0
 40
32.0
 40
33.0
 40
33.0
 40
34.0
 40
34.0
 40
35.0
 40
35.0
 40
36.0
 40
36.0
 40
37.0
 40
37.0
 40
38.0
 40
38.0
 40
39.0
 40
39.0
 40
40.0
 40
40.0
 40
41.0
 40
41.0
 40
42.0
 40
42.0
 40
43.0
 40
43.0
 40
44.0
 40
44.0
 40
45.0
 40
45.0
 40
46.0
 40
46.0
 40
47.0
 40
47.0
 40
48.0
 40
48.0
 40
49.0
 40
49.0
 40
50.0
 40
50.0
 40
51.0
 40
51.0
 40
52.0
 40
52.0
 40
53.0
 40
53.0
 40
54.0
 40
54.0
 40
55.0
 40
55.0
 40
56.0
 40
56.0
 40
57.0
 40
57.0
 40
58.0
 40
58.0
 40
59.0
 40
59.0
 40
60.0
 40
60.0
 40
61.0
 40
61.0
 40
62.0
 40
62.0
 40
63.0
 40
63.0
 40
64.0
 40
64.0
 40
65.0
 40
65.0
 40
66.0
 40
66.0
 40
67.0
 40
67.0
 40
68.0
 40
68.0
 40
69.0
 40
69.0
 40
70.0
 40
70.0
 40
71.0
 40
71.0
 40
72.0
 40
72.0
 40
73.0
 40
73.0
 40
74.0
 40
74.0
 40
75.0
 40
75.0
 40
76.0
 40
76.0
 40
77.0
 40
77.0
 40
78.0
 40
78.0
 40
79.0
 40
79.0
 40
80.0
 40
80.0
 40
81.0
 40
81.0
 40
82.0
 40
82.0
 40
83.0
 40
83.0
 40
84.0
 40
84.0
 40
85.0
 40
85.0
 40
86.0
 40
86.0
 40
87.0
 40
87.0
 40
88.0
 40
88.0
 40
89.0
 40
89.0
 40
90.0
 40
90.0
 40
91.0
 40
91.0
 40
92.0
 40
92.0
 40
93.0
 40
93.0
 40
94.0
 40
94.0
 40
95.0
 40
95.0
 40
96.0
 40
96.0
 40
97.0
 40
97.0
 40
98.0
 40
98.0
 40
99.0
 40
99.0
 40
100.0
 40
100.0
 40
101.0
 40
101.0
 40
102.0
 40
102.0
 40
103.0
 40
103.0
 40
104.0
 40
104.0
 40
105.0
 40
105.0
 40
106.0
 40
106.0
 40
107.0
 40
107.0
 40
108.0
 40
108.0
 40
109.0
 40
109.0
 40
110.0
 40
110.0
 40
111.0
 40
111.0
 40
112.0
 40
112.0
 40
113.0
 40
113.0
 40
114.0
 40
114.0
 40
115.0
 40
115.0
 40
116.0
 40
116.0
 40
117.0
 40
117.0
 40
118.0
 40
118.0
 40
119.0
 40
119.0
 40
120.0
 40
120.0
 40
121.0
 40
121.0
 40
122.0
 40
122.0
 40
123.0
 40
123.0
 40
124.0
 40
124.0
 40
125.0
 40
125.0
 40
126.0
 40
126.0
 40
127.0
 40
127.0
 40
128.0
 40
128.0
 40
129.0
 40
129.0
 40
130.0
 40
130.0
 40
131.0
 40
131.0
 40
132.0
 40
132.0
 40
133.0
 40
133.0
 40
134.0
 40
134.0
 40
135.0
 40
135.0
 40
136.0
 40
136.0
 40
137.0
 40
137.0
 40
138.0
 40
138.0
 40
139.0
 40
139.0
 40
140.0
 40
140.0
 40
141.0
 40
141.0
 40
142.0
 40
142.0
 40
143.0
 40
143.0
 40
144.0
 40
144.0
 40
145.0
 40
145.0
 40
146.0
 40
146.0
 40
147.0
 40
147.0
 40
148.0
 40
148.0
 40
149.0
 40
149.0
 40
150.0
 40
150.0
 40
151.0
 40
151.0
 40
152.0
 40
152.0
 40
153.0
 40
153.0
 40
154.0
 40
154.0
 40
155.0
 40
155.0
 40
156.0
 40
156.0
 40
157.0
 40
157.0
 40
158.0
 40
158.0
 40
159.0
 40
159.0
 40
160.0
 40
160.0
 40
161.0
 40
161.0
 40
162.0
 40
162.0
 40
163.0
 40
163.0
 40
164.0
 40
164.0
 40
165.0
 40
165.0
 40
166.0
 40
166.0
 40
167.0
 40
167.0
 40
168.0
 40
168.0
 40
169.0
 40
169.0
 40
170.0
 40
170.0
 40
171.0
 40
171.0
 40
172.0
 40
172.0
 40
173.0
 40
173.0
 40
174.0
 40
174.0
 40
175.0
 40
175.0
 40
176.0
 40
176.0
 40
177.0
 40
177.0
 40
178.0
 40
178.0
 40
179.0
 40
179.0
 40
180.0
 40
180.0
 40
181.0
 40
181.0
 40
182.0
 40
182.0
 40
183.0
 40
183.0
 40
184.0
 40
184.0
 40
185.0
 40
185.0
 40
186.0
 40
186.0
 40
187.0
 40
187.0
 40
188.0
 40
188.0
 40
189.0
 40
189.0
 40
190.0
 40
190.0
 40
191.0
 40
191.0
 40
192.0
 40
192.0
 40
193.0
 40
193.0
 40
194.0
 40
194.0
 40
195.0
 40
195.0
 40
196.0
 40
196.0
 40
197.0
 40
197.0
 40
198.0
 40
198.0
 40
199.0
 40
199.0
 40
200.0
 40
200.0
 40
201.0
 40
201.0
 40
202.0
 40
202.0
 40
203.0
 40
203.0
 40
204.0
 40
204.0
 40
205.0
 40
205.0
 40
206.0
 40
206.0
 40
207.0
 40
207.0
 40
208.0
 40
208.0
 40
209.0
 40
209.0
 40
210.0
 40
210.0
 40
211.0
 40
211.0
 40
212.0
 40
212.0
 40
213.0
 40
213.0
 40
214.0
 40
214.0
 40
215.0
 40
215.0
 40
216.0
 40
216.0
 40
217.0
 40
217.0
 40
218.0
 40
218.0
 40
219.0
 40
219.0
 40
220.0
 40
220.0
 40
221.0
 40
221.0
 40
222.0
 40
222.0
 40
223.0
 40
223.0
 40
224.0
 40
224.0
 40
225.0
 40
225.0
 40
226.0
 40
226.0
 40
227.0
 40
227.0
 40
228.0
 40
228.0
 40
229.0
 40
229.0
 40
230.0
 40
230.0
 40
231.0
 40
231.0
 40
232.0
 40
232.0
 40
233.0
 40
233.0
 40
234.0
 40
234.0
 40
235.0
 40
235.0
 40
236.0
 40
236.0
 40
237.0
 40
237.0
 40
238.0
 40
238.0
 40
239.0
 40
239.0
 40
240.0
 40
240.0
 40
241.0
 40
241.0
 40
242.0
 40
242.0
 40
243.0
 40
243.0
 40
244.0
 40
244.0
 40
245.0
 40
245.0
 40
246.0
 40
246.0
 40
247.0
 40
247.0
 40
248.0
 40
248.0
 40
249.0
 40
249.0
 40
250.0
 40
250.0
 40
251.0
 40
251.0
 40
252.0
 40
252.0
 40
253.0
 40
253.0
 40
254.0
 40
254.0
 40
255.0
 40
255.0
 40
256.0
 40
256.0
 40
257.0
 40
257.0
 40
258.0
 40
258.0
 40
259.0
 40
259.0
 40
260.0
 40
260.0
 40
261.0
 40
261.0
 40
262.0
 40
262.0
 40
263.0
 40
263.0
 40
264.0
 40
264.0
 40
265.0
 40
265.0
 40
266.0
 40
266.0
 40
267.0
 40
267.0
 40
268.0
 40
268.0
 40
269.0
 40
269.0
 40
270.0
 40
270.0
 40
271.0
 40
271.0
 40
272.0
 40
272.0
 40
273.0
 40
273.0
 40
274.0
 40
274.0
 40
275.0
 40
275.0
 40
276.0
 40
276.0
 40
277.0
 40
277.0
 40
278.0
 40
278.0
 40
279.0
 40
279.0
 40
280.0
 40
280.0
 40
281.0
 40
281.0
 40
282.0
 40
282.0
 40
283.0
 40
283.0
 40
284.0
 40
284.0
 40
285.0
 40
285.0
 40
286.0
 40
286.0
 40
287.0
 40
287.0
 40
288.0
 40
288.0
 40
289.0
 40
289.0
 40
290.0
 40
290.0
 40
291.0
 40
291.0
 40
292.0
 40
292.0
 40
293.0
 40
293.0
 40
294.0
 40
294.0
 40
295.0
 40
295.0
 40
296.0
 40
296.0
 40
297.0
 40
297.0
 40
298.0
 40
298.0
 40
299.0
 40
299.0
 40
300.0
 40
300.0
 40
301.0
 40
301.0
 40
302.0
 40
302.0
 40
303.0
 40
303.0
 40
304.0
 40
304.0
 40
305.0
 40
305.0
 40
306.0
 40
306.0
 40
307.0
 40
307.0
 40
308.0
 40
308.0
 40
309.0
 40
309.0
 40
310.0
 40
310.0
 40
311.0
 40
311.0
 40
312.0
 40
312.0
 40
313.0
 40
313.0
 40
314.0
 40
314.0
 40
315.0
 40
315.0
 40
316.0
 40
316.0
 40
317.0
 40
317.0
 40
318.0
 40
318.0
 40
319.0
 40
319.0
 40
320.0
 40
320.0
 40
321.0
 40
321.0
 40
322.0
 40
322.0
 40
323.0
 40
323.0
 40
324.0
 40
324.0
 40
325.0
 40
325.0
 40
326.0
 40
326.0
 40
327.0
 40
327.0
 40
328.0
 40
328.0
 40
329.0
 40
329.0
 40
330.0
 40
330.0
 40
331.0
 40
331.0
 40
332.0
 40
332.0
 40
333.0
 40
333.0
 40
334.0
 40
334.0
 40
335.0
 40
335.0
 40
336.0
 40
336.0
 40
337.0
 40
337.0
 40
338.0
 40
338.0
 40
339.0
 40
339.0
 40
340.0
 40
340.0
 40
341.0
 40
341.0
 40
342.0
 40
342.0
 40
343.0
 40
343.0
 40
344.0
 40
344.0
 40
345.0
 40
345.0
 40
346.0
 40
346.0
 40
347.0
 40
347.0
 40
348.0
 40
348.0
 40
349.0
 40
349.0
 40
350.0
 40
350.0
 40
351.0
 40
351.0
 40
352.0
 40
352.0
 40
353.0
 40
353.0
 40
354.0
 40
354.0
 40
355.0
 40
355.0
 40
356.0
 40
356.0
 40
357.0
 40
357.0
 40
358.0
 40
358.0
 40
359.0
 40
359.0
 40
360.0
 40
360.0
 40
361.0
 40
361.0
 40
362.0
 40
362.0
 40
363.0
 40
363.0
 40
364.0
 40
364.0
 40
365.0
 40
365.0
 40
366.0
 40
366.0
 40
367.0
 40
367.0
 40
368.0
 40
368.0
 40
369.0
 40
369.0
 40
370.0
 40
370.0
 40
371.0
 40
371.0
 40
372.0
 40
372.0
 40
373.0
 40
373.0
 40
374.0
 40
374.0
 40
375.0
 40
375.0
 40
376.0
 40
376.0
 40
377.0
 40
377.0
 40
378.0
 40
378.0
 40
379.0
 40
379.0
 40
380.0
 40
380.0
 40
381.0
 40
381.0
 40
382.0
 40
382.0
 40
383.0
 40
383.0
 40
384.0
 40
384.0
 40
385.0
 40
385.0
 40
386.0
 40
386.0
 40
387.0
 40
387.0
 40
388.0
 40
388.0
 40
389.0
 40
389.0
 40
389.0
 10
819.73592312769017
 20
-1510.6550597226194
 30
0.0
 41
1.0
 10
820.55434723641065
 20
-1510.6550597226194
 30
0.0
 41
1.0
 10
821.37277134513113
 20
-1510.6550597226194
 30
0.0
 41
1.0
 10
820.95901760961442
 20
-1511.9976859868691
 30
0.0
 41
1.0
 10
820.5452638740976
 20
-1513.3403122511188
 30
0.0
 41
1.0
 10
820.56360336925263
 20
-1513.311611478227
 30
0.0
 41
0.9999957264337359
 10
820.58211036607167
 20
-1513.2830184280949
 30
0.0
 41
1.0
 10
820.6125396902213
 20
-1513.2360055496999
 30
0.0
 41
1.0
 10
820.64296901437092
 20
-1513.188992671305
 30
0.0
 41
1.0
 10
820.72233465947568
 20
-1513.0663738644034
 30
0.0
 41
0.9995394069081014
 10
820.80899305102855
 20
-1512.9487958026605
 30
0.0
 41
1.0
 10
820.84474991328921
 20
-1512.9002809100657
 30
0.0
 41
1.0
 10
820.88050677554997
 20
-1512.8517660174707
 30
0.0
 41
1.0
 10
821.01423344336729
 20
-1512.6703257423453
 30
0.0
 41
0.9994460617143254
 10
821.15973392465457
 20
-1512.4981833446964
 30
0.0
 41
1.0
 10
821.16412210562908
 20
-1512.4929916643146
 30
0.0
 41
1.0
 10
821.16851028660358
 20
-1512.4877999839325
 30
0.0
 41
1.0
 10
821.30523440594209
 20
-1512.3260409470474
 30
0.0
 41
0.9994359394934624
 10
821.45250863629394
 20
-1512.1738247458823
 30
0.0
 41
1.0
 10
821.45489199024894
 20
-1512.1713614155074
 30
0.0
 41
1.0
 10
821.45727534420394
 20
-1512.1688980851325
 30
0.0
 41
1.0
 10
821.59978286664648
 20
-1512.0216085447166
 30
0.0
 41
0.9995293688567619
 10
821.75105454762752
 20
-1511.8833353325535
 30
0.0
 41
1.0
 10
821.77034830688774
 20
-1511.8656994469052
 30
0.0
 41
1.0
 10
821.78964206614796
 20
-1511.8480635612568
 30
0.0
 41
1.0
 10
821.90232622860719
 20
-1511.7450621203911
 30
0.0
 41
0.9997087614803082
 10
822.01984911756472
 20
-1511.6476178395915
 30
0.0
 41
1.0
 10
822.03901519074827
 20
-1511.6317262610769
 30
0.0
 41
1.0
 10
822.05818126393183
 20
-1511.6158346825623
 30
0.0
 41
1.0
 10
822.13737200652793
 20
-1511.550173558787
 30
0.0
 41
0.9999595338694105
 10
822.21773127737492
 20
-1511.4859478281387
 30
0.0
 41
1.0
 10
822.29809054824727
 20
-1511.4217220974701
 30
0.0
 41
0.9999749417507822
 10
822.3793510826099
 20
-1511.358640543509
 30
0.0
 41
1.0
 10
822.40033722874546
 20
-1511.3423492562283
 30
0.0
 41
1.0
 10
822.4213233748809
 20
-1511.3260579689477
 30
0.0
 41
1.0
 10
822.50589126019634
 20
-1511.2604089590959
 30
0.0
 41
0.9999792037113664
 10
822.59129885997595
 20
-1511.1958561774445
 30
0.0
 41
1.0
 10
822.61212368588633
 20
-1511.1801163551877
 30
0.0
 41
1.0
 10
822.63294851179671
 20
-1511.1643765329306
 30
0.0
 41
1.0
 10
822.67670645974135
 20
-1511.131303395804
 30
0.0
 41
0.9999993373979361
 10
822.72038814588859
 20
-1511.098129600377
 30
0.0
 41
1.0
 10
822.76406983203105
 20
-1511.0649558049536
 30
0.0
 41
0.9999160953816758
 10
822.80859624294999
 20
-1511.0329247397558
 30
0.0
 41
1.0
 10
822.84141813037013
 20
-1511.0093135841703
 30
0.0
 41
1.0
 10
822.87424001779038
 20
-1510.9857024285848
 30
0.0
 41
1.0
 10
822.98441020354949
 20
-1510.9064490522164
 30
0.0
 41
0.9980964527231997
 10
823.10349919705084
 20
-1510.8413615793602
 30
0.0
 41
1.0
 10
823.14053180397786
 20
-1510.8211215997676
 30
0.0
 41
1.0
 10
823.17756441090478
 20
-1510.8008816201752
 30
0.0
 41
1.0
 10
823.35689142417834
 20
-1510.7028713694738
 30
0.0
 41
0.9984572810572836
 10
823.54597999053772
 20
-1510.625349108127
 30
0.0
 41
1.0
 10
823.54962625993289
 20
-1510.6238542157894
 30
0.0
 41
1.0
 10
823.55327252932818
 20
-1510.6223593234515
 30
0.0
 41
1.0
 10
823.73506855689641
 20
-1510.5478268467807
 30
0.0
 41
0.9987838528034195
 10
823.92332121545587
 20
-1510.491561206615
 30
0.0
 41
1.0
 10
823.92755916465467
 20
-1510.4902945529248
 30
0.0
 41
1.0
 10
823.93179711385346
 20
-1510.4890278992345
 30
0.0
 41
1.0
 10
824.11157387401522
 20
-1510.4352955664492
 30
0.0
 41
0.9990652816207415
 10
824.29531980573097
 20
-1510.3972918869072
 30
0.0
 41
1.0
 10
824.30050820676195
 20
-1510.3962187838008
 30
0.0
 41
1.0
 10
824.30569660779292
 20
-1510.3951456806944
 30
0.0
 41
1.0
 10
824.47906573744649
 20
-1510.3592882073651
 30
0.0
 41
0.9992909934270341
 10
824.65464150390517
 20
-1510.3365777748986
 30
0.0
 41
1.0
 10
824.83021727036282
 20
-1510.3138673424321
 30
0.0
 41
0.9994553539448372
 10
825.00690870345522
 20
-1510.3027880382258
 30
0.0
 41
1.0
 10
825.04234311125083
 20
-1510.3005661501779
 30
0.0
 41
1.0
 10
825.07777751904644
 20
-1510.2983442621303
 30
0.0
 41
1.0
 10
825.2440032856166
 20
-1510.2879211997185
 30
0.0
 41
0.9990928098292906
 10
825.41051307751991
 20
-1510.2916808409532
 30
0.0
 41
1.0
 10
825.44907491278889
 20
-1510.292551532486
 30
0.0
 41
1.0
 10
825.48763674805787
 20
-1510.293422224019
 30
0.0
 41
1.0
 10
825.57702286941969
 20
-1510.2954404821874
 30
0.0
 41
0.9998382089206268
 10
825.66627855220872
 20
-1510.3006726087156
 30
0.0
 41
1.0
 10
825.66670845842941
 20
-1510.3006978096178
 30
0.0
 41
1.0
 10
825.6671383646501
 20
-1510.3007230105202
 30
0.0
 41
1.0
 10
825.75553423499559
 20
-1510.3059047352438
 30
0.0
 41
0.9997558016759235
 10
825.84361481219571
 20
-1510.3149872506101
 30
0.0
 41
1.0
 10
825.8440909506221
 20
-1510.3150363480922
 30
0.0
 41
1.0
 10
825.84456708904838
 20
-1510.3150854455746
 30
0.0
 41
1.0
 10
825.93169538939344
 20
-1510.3240697659762
 30
0.0
 41
0.9996565144181457
 10
826.01823324273869
 20
-1510.3376070726658
 30
0.0
 41
1.0
 10
826.01869916811529
 20
-1510.3376799583971
 30
0.0
 41
1.0
 10
826.01916509349201
 20
-1510.3377528441283
 30
0.0
 41
1.0
 10
826.10477109607984
 20
-1510.3511443793545
 30
0.0
 41
0.9995321806866865
 10
826.18939817640864
 20
-1510.369744867784
 30
0.0
 41
1.0
 10
826.18978737098132
 20
-1510.36983041025
 30
0.0
 41
1.0
 10
826.19017656555388
 20
-1510.3699159527162
 30
0.0
 41
1.0
 10
826.27402525673756
 20
-1510.3883453562134
 30
0.0
 41
0.9993819199219529
 10
826.35637179093283
 20
-1510.4126207394738
 30
0.0
 41
1.0
 10
826.35661022443219
 20
-1510.4126910285836
 30
0.0
 41
1.0
 10
826.35684865793166
 20
-1510.4127613176934
 30
0.0
 41
1.0
 10
826.43871832513025
 20
-1510.4368961227351
 30
0.0
 41
0.9992088568506029
 10
826.51841084411728
 20
-1510.4674613585289
 30
0.0
 41
1.0
 10
826.59809183499624
 20
-1510.4980209592622
 30
0.0
 41
0.9990226101773221
 10
826.67476250490347
 20
-1510.5354983908769
 30
0.0
 41
1.0
 10
826.75142164670194
 20
-1510.5729701874304
 30
0.0
 41
0.9988424273972213
 10
826.82412527391489
 20
-1510.6176349626837
 30
0.0
 41
1.0
 10
826.82439298229372
 20
-1510.6177994267555
 30
0.0
 41
1.0
 10
826.82466069067254
 20
-1510.6179638908275
 30
0.0
 41
1.0
 10
826.89789973464326
 20
-1510.6629575942247
 30
0.0
 41
0.9986928844491281
 10
826.96616260135283
 20
-1510.7151933285043
 30
0.0
 41
1.0
 10
826.96674389357577
 20
-1510.7156381417321
 30
0.0
 41
1.0
 10
826.9673251857987
 20
-1510.7160829549603
 30
0.0
 41
1.0
 10
827.03675063695505
 20
-1510.7692083156967
 30
0.0
 41
0.9986007262279117
 10
827.10017680672183
 20
-1510.8293690853902
 30
0.0
 41
1.0
 10
827.10107122217846
 20
-1510.8302174532248
 30
0.0
 41
1.0
 10
827.1019656376352
 20
-1510.8310658210594
 30
0.0
 41
1.0
 10
827.16718063831615
 20
-1510.892923326423
 30
0.0
 41
0.9985581491381439
 10
827.22538825001868
 20
-1510.9614158166955
 30
0.0
 41
1.0
 10
827.23464670361409
 20
-1510.9723101743969
 30
0.0
 41
1.0
 10
827.24390515720961
 20
-1510.9832045320982
 30
0.0
 41
1.0
 10
827.32062967610273
 20
-1511.0734857377731
 30
0.0
 41
0.9970460233520654
 10
827.38262157726274
 20
-1511.1744528219558
 30
0.0
 41
1.0
 10
827.3970909423424
 20
-1511.1980192810372
 30
0.0
 41
1.0
 10
827.41156030742206
 20
-1511.2215857401186
 30
0.0
 41
1.0
 10
827.45129700743348
 20
-1511.2863054641489
 30
0.0
 41
0.9988468816636265
 10
827.48464337818518
 20
-1511.3545379165769
 30
0.0
 41
1.0
 10
827.49167940067684
 20
-1511.3689348377147
 30
0.0
 41
1.0
 10
827.49871542316851
 20
-1511.3833317588524
 30
0.0
 41
1.0
 10
827.51798974893666
 20
-1511.4227703690044
 30
0.0
 41
0.9998431189998662
 10
827.53585507643174
 20
-1511.4628669234453
 30
0.0
 41
1.0
 10
827.55372040393945
 20
-1511.5029634779144
 30
0.0
 41
0.9999989989827753
 10
827.57169912734832
 20
-1511.5430093154689
 30
0.0
 41
1.0
 10
827.57787143894279
 20
-1511.5567575322821
 30
0.0
 41
1.0
 10
827.58404375053715
 20
-1511.570505749095
 30
0.0
 41
1.0
 10
827.61436709714621
 20
-1511.6380480203009
 30
0.0
 41
0.999879035632094
 10
827.64257497728556
 20
-1511.7065007722413
 30
0.0
 41
1.0
 10
827.64941015856971
 20
-1511.7230878736684
 30
0.0
 41
1.0
 10
827.65624533985397
 20
-1511.7396749750956
 30
0.0
 41
1.0
 10
827.67980300223439
 20
-1511.7968429299813
 30
0.0
 41
0.9998227574560435
 10
827.70119175062382
 20
-1511.8548572382592
 30
0.0
 41
1.0
 10
827.72258049901291
 20
-1511.9128715465354
 30
0.0
 41
0.9996797971041257
 10
827.74100678397144
 20
-1511.971893665652
 30
0.0
 41
1.0
 10
827.74491058669742
 20
-1511.9843981238223
 30
0.0
 41
1.0
 10
827.74881438942339
 20
-1511.9969025819926
 30
0.0
 41
1.0
 10
827.77504827983387
 20
-1512.0809336174486
 30
0.0
 41
0.9979274938733358
 10
827.79027280331263
 20
-1512.1676379761072
 30
0.0
 41
1.0
 10
827.79249649057419
 20
-1512.1803019769309
 30
0.0
 41
1.0
 10
827.79472017783587
 20
-1512.1929659777545
 30
0.0
 41
1.0
 10
827.80565011753379
 20
-1512.2552124850431
 30
0.0
 41
0.9994985982137234
 10
827.81261828271045
 20
-1512.3180259861833
 30
0.0
 41
1.0
 10
827.81958644788756
 20
-1512.3808394873258
 30
0.0
 41
0.999637261120143
 10
827.8231623136553
 20
-1512.4439370660093
 30
0.0
 41
1.0
 10
827.82333089114456
 20
-1512.4469116830905
 30
0.0
 41
1.0
 10
827.82349946863383
 20
-1512.449886300172
 30
0.0
 41
1.0
 10
827.82741248938021
 20
-1512.5189331130161
 30
0.0
 41
0.9997730630737185
 10
827.82838080286831
 20
-1512.5880839370529
 30
0.0
 41
1.0
 10
827.82843790928632
 20
-1512.5921621161945
 30
0.0
 41
1.0
 10
827.82849501570445
 20
-1512.596240295336
 30
0.0
 41
1.0
 10
827.8295775420288
 20
-1512.6735474776506
 30
0.0
 41
0.9998772614069443
 10
827.82823745529709
 20
-1512.7508506242116
 30
0.0
 41
1.0
 10
827.8281481920983
 20
-1512.7559997880498
 30
0.0
 41
1.0
 10
827.82805892889951
 20
-1512.7611489518881
 30
0.0
 41
1.0
 10
827.82654031577056
 20
-1512.8487504261211
 30
0.0
 41
0.9999415567323983
 10
827.8231280055245
 20
-1512.9362985877947
 30
0.0
 41
1.0
 10
827.8228866848491
 20
-1512.9424900475333
 30
0.0
 41
1.0
 10
827.8226453641737
 20
-1512.9486815072721
 30
0.0
 41
1.0
 10
827.81875041257706
 20
-1513.0486125884258
 30
0.0
 41
0.999971681042359
 10
827.81335182945907
 20
-1513.1484737266414
 30
0.0
 41
1.0
 10
827.81013903066969
 20
-1513.2079029763088
 30
0.0
 41
1.0
 10
827.80692623188042
 20
-1513.2673322259761
 30
0.0
 41
1.0
 10
827.79885232272807
 20
-1513.4166806272517
 30
0.0
 41
0.9999819129897246
 10
827.78898253111174
 20
-1513.5659211049576
 30
0.0
 41
1.0
 10
827.77911273949519
 20
-1513.715161582669
 30
0.0
 41
1.0
 10
827.7766734189313
 20
-1513.7523546285183
 30
0.0
 41
1.0
 10
827.79937165275226
 20
-1513.7136136312056
 30
0.0
 41
0.9999982128255397
 10
827.82221621153133
 20
-1513.6749587372076
 30
0.0
 41
1.0
 10
827.84912577140938
 20
-1513.6294255231639
 30
0.0
 41
1.0
 10
827.87603533128743
 20
-1513.5838923091203
 30
0.0
 41
1.0
 10
827.95269900981657
 20
-1513.4541709870452
 30
0.0
 41
0.9998609190060003
 10
828.03364632267949
 20
-1513.3270786051144
 30
0.0
 41
1.0
 10
828.06329464415899
 20
-1513.2805288721606
 30
0.0
 41
1.0
 10
828.0929429656386
 20
-1513.2339791392067
 30
0.0
 41
1.0
 10
828.17521518587421
 20
-1513.1048065692139
 30
0.0
 41
0.9999067609732196
 10
828.26098419533969
 20
-1512.9779288797704
 30
0.0
 41
1.0
 10
828.26338889853889
 20
-1512.9743716137182
 30
0.0
 41
1.0
 10
828.2657936017381
 20
-1512.9708143476657
 30
0.0
 41
1.0
 10
828.3467532047996
 20
-1512.8510511903348
 30
0.0
 41
0.999878495214783
 10
828.43140681448506
 20
-1512.7338699736206
 30
0.0
 41
1.0
 10
828.5160604241629
 20
-1512.6166887569163
 30
0.0
 41
0.9998532968282792
 10
828.60467804498205
 20
-1512.5024758484503
 30
0.0
 41
1.0
 10
828.62463983397572
 20
-1512.4767485274269
 30
0.0
 41
1.0
 10
828.64460162296939
 20
-1512.4510212064035
 30
0.0
 41
1.0
 10
828.76308567272827
 20
-1512.2983155954346
 30
0.0
 41
0.9991551975794974
 10
828.8937101223537
 20
-1512.155856033349
 30
0.0
 41
1.0
 10
828.89721973833286
 20
-1512.1520284317253
 30
0.0
 41
1.0
 10
828.90072935431203
 20
-1512.1482008301016
 30
0.0
 41
1.0
 10
829.02433457197617
 20
-1512.0133964712663
 30
0.0
 41
0.9997418144181569
 10
829.15393671167772
 20
-1511.884347060653
 30
0.0
 41
1.0
 10
829.28353885137619
 20
-1511.7552976500424
 30
0.0
 41
0.9989238204633235
 10
829.42454139962376
 20
-1511.6388126880063
 30
0.0
 41
1.0
 10
829.46978907776679
 20
-1511.6014326963946
 30
0.0
 41
1.0
 10
829.51503675590982
 20
-1511.5640527047829
 30
0.0
 41
1.0
 10
829.65527681312983
 20
-1511.4481976514933
 30
0.0
 41
0.9990825084096915
 10
829.80491674573386
 20
-1511.3447686536601
 30
0.0
 41
1.0
 10
829.81496210979185
 20
-1511.33782544058
 30
0.0
 41
1.0
 10
829.82500747384972
 20
-1511.3308822274998
 30
0.0
 41
1.0
 10
829.95455667833892
 20
-1511.2413396558266
 30
0.0
 41
0.9998164899826032
 10
830.08744088171409
 20
-1511.1568254143108
 30
0.0
 41
1.0
 10
830.09928644223953
 20
-1511.1492916477855
 30
0.0
 41
1.0
 10
830.11113200276498
 20
-1511.14175788126
 30
0.0
 41
1.0
 10
830.22032508508892
 20
-1511.0723111727953
 30
0.0
 41
0.9997473449131238
 10
830.33252904233973
 20
-1511.0078422149788
 30
0.0
 41
1.0
 10
830.44473299958509
 20
-1510.9433732571654
 30
0.0
 41
0.9999327861145188
 10
830.55840161034598
 20
-1510.8815232654854
 30
0.0
 41
1.0
 10
830.55895361291005
 20
-1510.8812229068044
 30
0.0
 41
1.0
 10
830.55950561547411
 20
-1510.8809225481234
 30
0.0
 41
1.0
 10
830.6742782313612
 20
-1510.8184718390826
 30
0.0
 41
0.999695642048455
 10
830.79199155720164
 20
-1510.7617583721076
 30
0.0
 41
1.0
 10
830.82243196209265
 20
-1510.7470923953783
 30
0.0
 41
1.0
 10
830.85287236698355
 20
-1510.7324264186493
 30
0.0
 41
1.0
 10
830.95584947372697
 20
-1510.6828127602062
 30
0.0
 41
0.9998070570176869
 10
831.06069586266938
 20
-1510.6372821733044
 30
0.0
 41
1.0
 10
831.16554225160996
 20
-1510.5917515864037
 30
0.0
 41
0.9997827436148147
 10
831.2721951882213
 20
-1510.5506304150911
 30
0.0
 41
1.0
 10
831.29141803785217
 20
-1510.5432188414588
 30
0.0
 41
1.0
 10
831.31064088748303
 20
-1510.5358072678268
 30
0.0
 41
1.0
 10
831.4557395233569
 20
-1510.4798629492498
 30
0.0
 41
0.9988031841976607
 10
831.60560988596262
 20
-1510.4383628850819
 30
0.0
 41
1.0
 10
831.63052713432421
 20
-1510.4314631392754
 30
0.0
 41
1.0
 10
831.65544438268591
 20
-1510.424563393469
 30
0.0
 41
1.0
 10
831.82271440833358
 20
-1510.3782452510618
 30
0.0
 41
0.998474804054954
 10
831.99407131698297
 20
-1510.350651018797
 30
0.0
 41
1.0
 10
831.99881045323127
 20
-1510.3498878582836
 30
0.0
 41
1.0
 10
832.00354958947958
 20
-1510.3491246977703
 30
0.0
 41
1.0
 10
832.16542822563122
 20
-1510.3230567865321
 30
0.0
 41
0.9984436495479825
 10
832.32920296935663
 20
-1510.3151788327134
 30
0.0
 41
1.0
 10
832.3509001774878
 20
-1510.3141351455138
 30
0.0
 41
1.0
 10
832.37259738561897
 20
-1510.3130914583141
 30
0.0
 41
1.0
 10
832.49297771308113
 20
-1510.3073008788947
 30
0.0
 41
0.9987954789335257
 10
832.61334595799121
 20
-1510.3133374066369
 30
0.0
 41
1.0
 10
832.63331075048859
 20
-1510.3143386509757
 30
0.0
 41
1.0
 10
832.65327554298608
 20
-1510.3153398953145
 30
0.0
 41
1.0
 10
832.73371420290391
 20
-1510.3193739343794
 30
0.0
 41
0.9997941595877995
 10
832.81392298099547
 20
-1510.3266680003003
 30
0.0
 41
1.0
 10
832.89413175908737
 20
-1510.3339620662209
 30
0.0
 41
0.9998589466237433
 10
832.97405030593961
 20
-1510.3439459206709
 30
0.0
 41
1.0
 10
833.0064565077505
 20
-1510.3479942775903
 30
0.0
 41
1.0
 10
833.03886270956139
 20
-1510.3520426345099
 30
0.0
 41
1.0
 10
833.18359366003347
 20
-1510.3701232027986
 30
0.0
 41
0.9993495063249553
 10
833.32664490379943
 20
-1510.3985889125402
 30
0.0
 41
1.0
 10
833.35957860094948
 20
-1510.4051423757546
 30
0.0
 41
1.0
 10
833.39251229809952
 20
-1510.4116958389691
 30
0.0
 41
1.0
 10
833.50180612130612
 20
-1510.4334441731048
 30
0.0
 41
0.9996788715560164
 10
833.60985769326351
 20
-1510.4607019724681
 30
0.0
 41
1.0
 10
833.61192069580466
 20
-1510.4612223990416
 30
0.0
 41
1.0
 10
833.61398369834569
 20
-1510.4617428256149
 30
0.0
 41
1.0
 10
833.71790926522215
 20
-1510.4879597718318
 30
0.0
 41
0.9995480654492784
 10
833.82007150044933
 20
-1510.5203747284554
 30
0.0
 41
1.0
 10
833.82176114257891
 20
-1510.5209108333695
 30
0.0
 41
1.0
 10
833.8234507847086
 20
-1510.5214469382836
 30
0.0
 41
1.0
 10
833.92223373567924
 20
-1510.5527896850801
 30
0.0
 41
0.9993867959456717
 10
834.01858089412133
 20
-1510.5909690543697
 30
0.0
 41
1.0
 10
834.01982384320786
 20
-1510.5914615962665
 30
0.0
 41
1.0
 10
834.02106679229428
 20
-1510.5919541381636
 30
0.0
 41
1.0
 10
834.11492805256535
 20
-1510.6291484236601
 30
0.0
 41
0.9992050256521828
 10
834.2055277275972
 20
-1510.6737023228982
 30
0.0
 41
1.0
 10
834.20626241030823
 20
-1510.6740636153584
 30
0.0
 41
1.0
 10
834.20699709301925
 20
-1510.6744249078185
 30
0.0
 41
1.0
 10
834.29612740262905
 20
-1510.718256222136
 30
0.0
 41
0.9990222350741203
 10
834.3810374640243
 20
-1510.7697894898351
 30
0.0
 41
1.0
 10
834.38122134930722
 20
-1510.7699010927399
 30
0.0
 41
1.0
 10
834.38140523459015
 20
-1510.7700126956449
 30
0.0
 41
1.0
 10
834.46594752541819
 20
-1510.8213227575338
 30
0.0
 41
0.9988642743805769
 10
834.54522206003685
 20
-1510.8804469450588
 30
0.0
 41
1.0
 10
834.62449659465619
 20
-1510.9395711325844
 30
0.0
 41
0.9987681233310913
 10
834.6975203789317
 20
-1511.0062618239845
 30
0.0
 41
1.0
 10
834.69784930689775
 20
-1511.0065622251989
 30
0.0
 41
1.0
 10
834.69817823486369
 20
-1511.0068626264133
 30
0.0
 41
1.0
 10
834.7718598750713
 20
-1511.0741541202422
 30
0.0
 41
0.9987496570898423
 10
834.83845368039874
 20
-1511.1484669343292
 30
0.0
 41
1.0
 10
834.8392258501591
 20
-1511.149328607687
 30
0.0
 41
1.0
 10
834.83999801991945
 20
-1511.1501902810448
 30
0.0
 41
1.0
 10
834.90813616476748
 20
-1511.2262264418473
 30
0.0
 41
0.9988147669827426
 10
834.96855841899264
 20
-1511.3085274486898
 30
0.0
 41
1.0
 10
834.96967774507038
 20
-1511.3100520800422
 30
0.0
 41
1.0
 10
834.97079707114801
 20
-1511.3115767113948
 30
0.0
 41
1.0
 10
835.03345797752911
 20
-1511.3969269809431
 30
0.0
 41
0.9989452636215687
 10
835.08802489048981
 20
-1511.4876656701001
 30
0.0
 41
1.0
 10
835.08937361657547
 20
-1511.4899084511262
 30
0.0
 41
1.0
 10
835.09072234266114
 20
-1511.4921512321525
 30
0.0
 41
1.0
 10
835.14798670779396
 20
-1511.5873754833631
 30
0.0
 41
0.9991046436071011
 10
835.19699592111579
 20
-1511.6870999163887
 30
0.0
 41
1.0
 10
835.19845978270564
 20
-1511.6900785964608
 30
0.0
 41
1.0
 10
835.1999236442955
 20
-1511.6930572765332
 30
0.0
 41
1.0
 10
835.25186058079748
 20
-1511.7987390697044
 30
0.0
 41
0.9992763831101411
 10
835.2956137093521
 20
-1511.9080631316588
 30
0.0
 41
1.0
 10
835.29709297901559
 20
-1511.9117593191927
 30
0.0
 41
1.0
 10
835.29857224867897
 20
-1511.9154555067266
 30
0.0
 41
1.0
 10
835.34528391656113
 20
-1512.0321719437513
 30
0.0
 41
0.9994163472883578
 10
835.38391694775123
 20
-1512.1518055322165
 30
0.0
 41
1.0
 10
835.38515509999763
 20
-1512.1556396759979
 30
0.0
 41
1.0
 10
835.38639325224403
 20
-1512.1594738197796
 30
0.0
 41
1.0
 10
835.42627681326121
 20
-1512.2829798812579
 30
0.0
 41
0.9997268055891359
 10
835.46034486917324
 20
-1512.4082149132084
 30
0.0
 41
1.0
 10
835.46127504944275
 20
-1512.4116342793168
 30
0.0
 41
1.0
 10
835.46220522971214
 20
-1512.4150536454251
 30
0.0
 41
1.0
 10
835.49441292508448
 20
-1512.5334499451558
 30
0.0
 41
0.9996701319000373
 10
835.52049854185566
 20
-1512.6533438984225
 30
0.0
 41
1.0
 10
835.54658415862627
 20
-1512.773237851686
 30
0.0
 41
0.999578545110885
 10
835.56566773596592
 20
-1512.8944436127176
 30
0.0
 41
1.0
 10
835.56988751813958
 20
-1512.9212447674824
 30
0.0
 41
1.0
 10
835.57410730031324
 20
-1512.9480459222473
 30
0.0
 41
1.0
 10
835.60068227625186
 20
-1513.1168318959519
 30
0.0
 41
0.9979925101217095
 10
835.60570786217829
 20
-1513.2876232240424
 30
0.0
 41
1.0
 10
835.60653267460293
 20
-1513.3156539475194
 30
0.0
 41
1.0
 10
835.60735748702746
 20
-1513.3436846709965
 30
0.0
 41
1.0
 10
835.61073344810495
 20
-1513.4584145521276
 30
0.0
 41
0.9995314902262359
 10
835.60708325596613
 20
-1513.5731360358859
 30
0.0
 41
1.0
 10
835.60343306382765
 20
-1513.6878575196388
 30
0.0
 41
0.9996245486944325
 10
835.59350396869661
 20
-1513.8022067907646
 30
0.0
 41
1.0
 10
835.59334092070253
 20
-1513.8040845468986
 30
0.0
 41
1.0
 10
835.59317787270834
 20
-1513.8059623030324
 30
0.0
 41
1.0
 10
835.58292268158891
 20
-1513.9240670864272
 30
0.0
 41
0.9997286095001225
 10
835.56717735801828
 20
-1514.041565995316
 30
0.0
 41
1.0
 10
835.5667838653676
 20
-1514.0445024200208
 30
0.0
 41
1.0
 10
835.5663903727168
 20
-1514.0474388447253
 30
0.0
 41
1.0
 10
835.54985806384434
 20
-1514.1708106030258
 30
0.0
 41
0.9998265533969682
 10
835.52874260511237
 20
-1514.2934810778102
 30
0.0
 41
1.0
 10
835.52806606297509
 20
-1514.2974114563187
 30
0.0
 41
1.0
 10
835.52738952083769
 20
-1514.3013418348273
 30
0.0
 41
1.0
 10
835.50492097783228
 20
-1514.4318730666225
 30
0.0
 41
0.9999022530853403
 10
835.47881151322292
 20
-1514.5617250352586
 30
0.0
 41
1.0
 10
835.47783287205652
 20
-1514.5665921776513
 30
0.0
 41
1.0
 10
835.47685423089013
 20
-1514.5714593200437
 30
0.0
 41
1.0
 10
835.44878748394967
 20
-1514.711045573456
 30
0.0
 41
0.9999524761940857
 10
835.41800451511529
 20
-1514.8500580666184
 30
0.0
 41
1.0
 10
835.41672840793944
 20
-1514.8558208259224
 30
0.0
 41
1.0
 10
835.41545230076372
 20
-1514.8615835852261
 30
0.0
 41
1.0
 10
835.38211711757458
 20
-1515.0121215970098
 30
0.0
 41
0.9999813588729183
 10
835.34694611677935
 20
-1515.1622413096638
 30
0.0
 41
1.0
 10
835.34539219132421
 20
-1515.1688739000799
 30
0.0
 41
1.0
 10
835.34383826586918
 20
-1515.175506490496
 30
0.0
 41
1.0
 10
835.30555941416458
 20
-1515.3388913839788
 30
0.0
 41
0.9999955237729257
 10
835.26630353618725
 20
-1515.5020442875721
 30
0.0
 41
1.0
 10
835.25402190054911
 20
-1515.5530884781106
 30
0.0
 41
1.0
 10
835.24174026491096
 20
-1515.6041326686493
 30
0.0
 41
1.0
 10
835.17792111566825
 20
-1515.8693739532741
 30
0.0
 41
0.9999993604798827
 10
835.11350216848052
 20
-1516.1344702040401
 30
0.0
 41
1.0
 10
835.10878333294011
 20
-1516.1538891120533
 30
0.0
 41
1.0
 10
835.10406449739969
 20
-1516.1733080200665
 30
0.0
 41
1.0
 10
835.03020787913692
 20
-1516.4772420868337
 30
0.0
 41
0.9999659914735491
 10
834.95134828325001
 20
-1516.7799166334
 30
0.0
 41
1.0
 10
834.9463955943213
 20
-1516.7989257705749
 30
0.0
 41
1.0
 10
834.94144290539271
 20
-1516.8179349077498
 30
0.0
 41
1.0
 10
834.85267793164815
 20
-1517.1586277286656
 30
0.0
 41
0.9999441976024373
 10
834.75673489868518
 20
-1517.4973691539631
 30
0.0
 41
1.0
 10
834.74003438025898
 20
-1517.5563328664932
 30
0.0
 41
1.0
 10
834.72333386183277
 20
-1517.6152965790234
 30
0.0
 41
1.0
 10
834.59398979201592
 20
-1518.0719654293848
 30
0.0
 41
0.9999625120736509
 10
834.45675702469396
 20
-1518.5263259633759
 30
0.0
 41
1.0
 10
834.42096708161375
 20
-1518.6448219899939
 30
0.0
 41
1.0
 10
834.38517713853355
 20
-1518.7633180166117
 30
0.0
 41
1.0
 10
834.31065693449307
 20
-1519.010045094713
 30
0.0
 41
0.9999793386314724
 10
834.23297091135009
 20
-1519.2557937339659
 30
0.0
 41
1.0
 10
834.15528488821258
 20
-1519.501542373202
 30
0.0
 41
1.0
 10
834.14450532934188
 20
-1519.5355602775767
 30
0.0
 41
1.0
 10
832.29413227607279
 20
-1525.4226322000441
 30
0.0
 41
1.0
 10
830.44375922280358
 20
-1531.3097041225117
 30
0.0
 41
1.0
 10
829.48250253278002
 20
-1531.3097041225117
 30
0.0
 41
1.0
 10
828.52124584275646
 20
-1531.3097041225117
 30
0.0
 41
1.0
 10
830.14019062143484
 20
-1526.1616756207222
 30
0.0
 41
1.0
 10
831.75913540011334
 20
-1521.0136471189328
 30
0.0
 41
1.0
 10
831.80430122329108
 20
-1520.8696158966522
 30
0.0
 41
1.0
 10
831.8494670464687
 20
-1520.7255846743715
 30
0.0
 41
1.0
 10
832.0197714638241
 20
-1520.1824936452326
 30
0.0
 41
0.9999911657894347
 10
832.18550427550485
 20
-1519.6379901138669
 30
0.0
 41
1.0
 10
832.21520021901006
 20
-1519.5404261738006
 30
0.0
 41
1.0
 10
832.24489616251537
 20
-1519.4428622337343
 30
0.0
 41
1.0
 10
832.3512370871955
 20
-1519.0934865824688
 30
0.0
 41
0.9999952428175429
 10
832.45542067651013
 20
-1518.7434615581537
 30
0.0
 41
1.0
 10
832.4604801468397
 20
-1518.7264632838883
 30
0.0
 41
1.0
 10
832.46553961716927
 20
-1518.7094650096228
 30
0.0
 41
1.0
 10
832.55960426583351
 20
-1518.3934365338087
 30
0.0
 41
0.9999931687541891
 10
832.65133010370869
 20
-1518.0767213205336
 30
0.0
 41
1.0
 10
832.65626536816637
 20
-1518.059680611269
 30
0.0
 41
1.0
 10
832.66120063262406
 20
-1518.0426399020043
 30
0.0
 41
1.0
 10
832.74305594158432
 20
-1517.7600061072567
 30
0.0
 41
0.9999893840780408
 10
832.82230316803918
 20
-1517.4766299780165
 30
0.0
 41
1.0
 10
832.90155039449769
 20
-1517.1932538487645
 30
0.0
 41
0.999983398007571
 10
832.97752663523863
 20
-1516.9089832657382
 30
0.0
 41
1.0
 10
832.98653057195929
 20
-1516.8752943872655
 30
0.0
 41
1.0
 10
832.99553450868007
 20
-1516.841605508793
 30
0.0
 41
1.0
 10
833.06449905754675
 20
-1516.5835696764955
 30
0.0
 41
0.9999233658062764
 10
833.12705402876952
 20
-1516.3239055177635
 30
0.0
 41
1.0
 10
833.18960899998979
 20
-1516.064241359041
 30
0.0
 41
1.0
 10
833.22909241884736
 20
-1515.9004346946149
 30
0.0
 41
1.0
 10
833.23407102282681
 20
-1515.8797797327352
 30
0.0
 41
1.0
 10
833.23904962680626
 20
-1515.8591247708557
 30
0.0
 41
1.0
 10
833.26857583770527
 20
-1515.7366280301871
 30
0.0
 41
0.9999868670845871
 10
833.29684492170111
 20
-1515.6138350845433
 30
0.0
 41
1.0
 10
833.30074240886074
 20
-1515.5969054971183
 30
0.0
 41
1.0
 10
833.30463989602026
 20
-1515.5799759096933
 30
0.0
 41
1.0
 10
833.32511400569842
 20
-1515.4910421388927
 30
0.0
 41
0.9999778173361502
 10
833.34440160381268
 20
-1515.4018435216674
 30
0.0
 41
1.0
 10
833.36368920192922
 20
-1515.3126449044319
 30
0.0
 41
0.9999602692859387
 10
833.38138356055958
 20
-1515.2231166160075
 30
0.0
 41
1.0
 10
833.38458739263683
 20
-1515.2069061611232
 30
0.0
 41
1.0
 10
833.38779122471419
 20
-1515.1906957062392
 30
0.0
 41
1.0
 10
833.41189324749985
 20
-1515.0687465080428
 30
0.0
 41
0.9995617985320566
 10
833.428736594719
 20
-1514.9455847603347
 30
0.0
 41
1.0
 10
833.43120108462517
 20
-1514.9275639429698
 30
0.0
 41
1.0
 10
833.43366557453123
 20
-1514.9095431256051
 30
0.0
 41
1.0
 10
833.45394883557958
 20
-1514.761228075904
 30
0.0
 41
0.9991121410639557
 10
833.46167418916798
 20
-1514.611731977097
 30
0.0
 41
1.0
 10
833.46259297919255
 20
-1514.5939521405191
 30
0.0
 41
1.0
 10
833.46351176921723
 20
-1514.5761723039413
 30
0.0
 41
1.0
 10
833.46939954275649
 20
-1514.4622358782876
 30
0.0
 41
0.9989792494904387
 10
833.4649804506389
 20
-1514.3482330423922
 30
0.0
 41
1.0
 10
833.46433247877007
 20
-1514.3315167964593
 30
0.0
 41
1.0
 10
833.46368450690113
 20
-1514.3148005505263
 30
0.0
 41
1.0
 10
833.46056135852155
 20
-1514.2342302064908
 30
0.0
 41
0.9997820295394
 10
833.45407736114589
 20
-1514.1538604847499
 30
0.0
 41
1.0
 10
833.4475933637699
 20
-1514.0734907630022
 30
0.0
 41
0.9998335105973523
 10
833.43818116825764
 20
-1513.9934111465482
 30
0.0
 41
1.0
 10
833.4365862435817
 20
-1513.9798414160689
 30
0.0
 41
1.0
 10
833.43499131890576
 20
-1513.9662716855896
 30
0.0
 41
1.0
 10
833.42238927404128
 20
-1513.8590526081721
 30
0.0
 41
0.9996876457879245
 10
833.40444536124335
 20
-1513.7525971804591
 30
0.0
 41
1.0
 10
833.40221369809842
 20
-1513.7393574452192
 30
0.0
 41
1.0
 10
833.39998203495338
 20
-1513.7261177099792
 30
0.0
 41
1.0
 10
833.38618621353169
 20
-1513.644271566018
 30
0.0
 41
0.9995547496495829
 10
833.3675328916388
 20
-1513.5633940688244
 30
0.0
 41
1.0
 10
833.36715893476753
 20
-1513.5617726581188
 30
0.0
 41
1.0
 10
833.36678497789615
 20
-1513.5601512474132
 30
0.0
 41
1.0
 10
833.3488795697466
 20
-1513.482516571635
 30
0.0
 41
0.9994899427175585
 10
833.32605466106679
 20
-1513.4061832887987
 30
0.0
 41
1.0
 10
833.32559613432636
 20
-1513.4046498390112
 30
0.0
 41
1.0
 10
833.32513760758604
 20
-1513.4031163892239
 30
0.0
 41
1.0
 10
833.30322975238755
 20
-1513.3298500059643
 30
0.0
 41
0.9993784877590412
 10
833.27621411728092
 20
-1513.2583093008054
 30
0.0
 41
1.0
 10
833.275682426304
 20
-1513.2569013180848
 30
0.0
 41
1.0
 10
833.27515073532709
 20
-1513.2554933353642
 30
0.0
 41
1.0
 10
833.24919848217405
 20
-1513.1867685956458
 30
0.0
 41
0.9992430832254343
 10
833.21798194701501
 20
-1513.1202694435781
 30
0.0
 41
1.0
 10
833.21739983095836
 20
-1513.1190293884606
 30
0.0
 41
1.0
 10
833.21681771490182
 20
-1513.1177893333434
 30
0.0
 41
1.0
 10
833.18676541185516
 20
-1513.053770291509
 30
0.0
 41
0.9990789632798377
 10
833.15133478507892
 20
-1512.9925636797602
 30
0.0
 41
1.0
 10
833.15073907889666
 20
-1512.9915345939007
 30
0.0
 41
1.0
 10
833.15014337271441
 20
-1512.990505508041
 30
0.0
 41
1.0
 10
833.11590415830176
 20
-1512.9313570680099
 30
0.0
 41
0.9988874801121196
 10
833.0762448822702
 20
-1512.8756973555928
 30
0.0
 41
1.0
 10
833.07568935620588
 20
-1512.8749177039178
 30
0.0
 41
1.0
 10
833.07513383014145
 20
-1512.8741380522429
 30
0.0
 41
1.0
 10
833.03658560623728
 20
-1512.8200376431739
 30
0.0
 41
0.9986762060693842
 10
832.99268313496191
 20
-1512.7701839287356
 30
0.0
 41
1.0
 10
832.99223917462962
 20
-1512.7696797869189
 30
0.0
 41
1.0
 10
832.99179521429733
 20
-1512.7691756451022
 30
0.0
 41
1.0
 10
832.94878066368574
 20
-1512.7203302142966
 30
0.0
 41
0.9984621642488563
 10
832.90062310690791
 20
-1512.6765469138254
 30
0.0
 41
1.0
 10
832.90037647239114
 20
-1512.6763226816618
 30
0.0
 41
1.0
 10
832.90012983787449
 20
-1512.6760984494981
 30
0.0
 41
1.0
 10
832.85246555013066
 20
-1512.6327636133547
 30
0.0
 41
0.9982724693850451
 10
832.80004691828867
 20
-1512.5953192628367
 30
0.0
 41
1.0
 10
832.7476282864468
 20
-1512.5578749123185
 30
0.0
 41
0.9981399180157695
 10
832.69104222305305
 20
-1512.5270883928749
 30
0.0
 41
1.0
 10
832.69099656097501
 20
-1512.5270635497182
 30
0.0
 41
1.0
 10
832.69095089889697
 20
-1512.5270387065611
 30
0.0
 41
1.0
 10
832.63427351134783
 20
-1512.496202500804
 30
0.0
 41
0.9980927086837109
 10
832.57422816028304
 20
-1512.472585691952
 30
0.0
 41
1.0
 10
832.57378799057005
 20
-1512.4724125660764
 30
0.0
 41
1.0
 10
832.57334782085695
 20
-1512.4722394402008
 30
0.0
 41
1.0
 10
832.51242213036869
 20
-1512.4482763795988
 30
0.0
 41
0.9981411356562806
 10
832.44903360897069
 20
-1512.4319037380935
 30
0.0
 41
1.0
 10
832.44815149226781
 20
-1512.4316758958876
 30
0.0
 41
1.0
 10
832.44726937556493
 20
-1512.4314480536818
 30
0.0
 41
1.0
 10
832.38211662076128
 20
-1512.4146197277648
 30
0.0
 41
0.998303181293393
 10
832.3154491917652
 20
-1512.4054803665888
 30
0.0
 41
1.0
 10
832.30657816636244
 20
-1512.4042642479176
 30
0.0
 41
1.0
 10
832.29770714095957
 20
-1512.4030481292464
 30
0.0
 41
1.0
 10
832.24335749845579
 20
-1512.3955973992554
 30
0.0
 41
0.9983887708263809
 10
832.18851364916316
 20
-1512.394352725622
 30
0.0
 41
1.0
 10
832.18045024394769
 20
-1512.3941697277471
 30
0.0
 41
1.0
 10
832.17238683873222
 20
-1512.3939867298723
 30
0.0
 41
1.0
 10
832.13366979987234
 20
-1512.3931080519887
 30
0.0
 41
0.9998869563080906
 10
832.09494384666766
 20
-1512.3933939213484
 30
0.0
 41
1.0
 10
832.0562178934731
 20
-1512.3936797907081
 30
0.0
 41
0.9999972320122228
 10
832.01749371426934
 20
-1512.394147890237
 30
0.0
 41
1.0
 10
831.99814069768172
 20
-1512.3943818303264
 30
0.0
 41
1.0
 10
831.97878768109422
 20
-1512.3946157704158
 30
0.0
 41
1.0
 10
831.90135746872261
 20
-1512.3955517501238
 30
0.0
 41
0.9997304945087274
 10
831.82405416248389
 20
-1512.40008084391
 30
0.0
 41
1.0
 10
831.81500452078058
 20
-1512.4006110498999
 30
0.0
 41
1.0
 10
831.80595487907738
 20
-1512.4011412558898
 30
0.0
 41
1.0
 10
831.71055228942942
 20
-1512.4067307616558
 30
0.0
 41
0.9997888306415343
 10
831.6154599535854
 20
-1512.416235726145
 30
0.0
 41
1.0
 10
831.60673889201428
 20
-1512.4171074407768
 30
0.0
 41
1.0
 10
831.59801783044315
 20
-1512.4179791554088
 30
0.0
 41
1.0
 10
831.48548337145485
 20
-1512.4292275491623
 30
0.0
 41
0.9984170238191257
 10
831.37492422410378
 20
-1512.4530436310979
 30
0.0
 41
1.0
 10
831.33854309311755
 20
-1512.4608806669039
 30
0.0
 41
1.0
 10
831.30216196213144
 20
-1512.4687177027101
 30
0.0
 41
1.0
 10
831.18697089370949
 20
-1512.4935315692198
 30
0.0
 41
0.9976592854199404
 10
831.07624272730436
 20
-1512.533830246367
 30
0.0
 41
1.0
 10
830.96551456090094
 20
-1512.5741289235136
 30
0.0
 41
0.9993255074352783
 10
830.85804276211059
 20
-1512.6224458220056
 30
0.0
 41
1.0
 10
830.85341758318623
 20
-1512.6245251982059
 30
0.0
 41
1.0
 10
830.84879240426199
 20
-1512.626604574406
 30
0.0
 41
1.0
 10
830.73207024762542
 20
-1512.6790802252976
 30
0.0
 41
0.9976475078275279
 10
830.62362290331566
 20
-1512.7470282149557
 30
0.0
 41
1.0
 10
830.60528050918379
 20
-1512.7585206937683
 30
0.0
 41
1.0
 10
830.58693811505202
 20
-1512.7700131725808
 30
0.0
 41
1.0
 10
830.50273592349697
 20
-1512.8227702933509
 30
0.0
 41
0.9995131336406987
 10
830.42198820853503
 20
-1512.8806765053071
 30
0.0
 41
1.0
 10
830.34124049357115
 20
-1512.938582717265
 30
0.0
 41
0.9995810107605545
 10
830.26397884583776
 20
-1513.0010643997352
 30
0.0
 41
1.0
 10
830.26100881463321
 20
-1513.0034662711953
 30
0.0
 41
1.0
 10
830.25803878342867
 20
-1513.0058681426553
 30
0.0
 41
1.0
 10
830.17483707328165
 20
-1513.0731535680486
 30
0.0
 41
0.9996617837954859
 10
830.09524638614789
 20
-1513.144674023607
 30
0.0
 41
1.0
 10
830.08311563527161
 20
-1513.1555747565972
 30
0.0
 41
1.0
 10
830.07098488439533
 20
-1513.1664754895871
 30
0.0
 41
1.0
 10
830.00270935699518
 20
-1513.2278281050628
 30
0.0
 41
0.9997267750052337
 10
829.93737584870928
 20
-1513.2923046415899
 30
0.0
 41
1.0
 10
829.87204234042031
 20
-1513.3567811781204
 30
0.0
 41
0.9999667288957215
 10
829.80776939726798
 20
-1513.4223149850206
 30
0.0
 41
1.0
 10
829.73894194949833
 20
-1513.4924926437734
 30
0.0
 41
1.0
 10
829.67011450172868
 20
-1513.5626703025264
 30
0.0
 41
1.0
 10
829.46818666303147
 20
-1513.7685594269374
 30
0.0
 41
0.9988205335174814
 10
829.28718104605275
 20
-1513.9930636589972
 30
0.0
 41
1.0
 10
829.25654108114782
 20
-1514.0310669094274
 30
0.0
 41
1.0
 10
829.22590111624299
 20
-1514.0690701598576
 30
0.0
 41
1.0
 10
828.98361556945417
 20
-1514.3695808927778
 30
0.0
 41
0.9997077826754683
 10
828.756137618347
 20
-1514.6814506869969
 30
0.0
 41
1.0
 10
828.75441420321749
 20
-1514.6838134703753
 30
0.0
 41
1.0
 10
828.75269078808788
 20
-1514.6861762537535
 30
0.0
 41
1.0
 10
828.52176600672169
 20
-1515.002771614729
 30
0.0
 41
0.9989147567078894
 10
828.32130250383807
 20
-1515.3394810759141
 30
0.0
 41
1.0
 10
828.29656135853406
 20
-1515.3810376564616
 30
0.0
 41
1.0
 10
828.27182021322994
 20
-1515.422594237009
 30
0.0
 41
1.0
 10
828.11660891459053
 20
-1515.6832956214653
 30
0.0
 41
0.9997476598181562
 10
827.97326392707737
 20
-1515.9507053700538
 30
0.0
 41
1.0
 10
827.82991893956705
 20
-1516.2181151186376
 30
0.0
 41
0.9996258967110395
 10
827.70141068763473
 20
-1516.4929630552631
 30
0.0
 41
1.0
 10
827.68821077818643
 20
-1516.5211944553557
 30
0.0
 41
1.0
 10
827.67501086873824
 20
-1516.5494258554481
 30
0.0
 41
1.0
 10
827.53480214773936
 20
-1516.8492982533994
 30
0.0
 41
0.9998735413946162
 10
827.40420080101626
 20
-1517.1534778528726
 30
0.0
 41
1.0
 10
827.40075797295378
 20
-1517.1614964383418
 30
0.0
 41
1.0
 10
827.39731514489131
 20
-1517.1695150238111
 30
0.0
 41
1.0
 10
827.2735994542943
 20
-1517.4576574523439
 30
0.0
 41
0.9999377418864629
 10
827.15634465212111
 20
-1517.7484889200155
 30
0.0
 41
1.0
 10
827.03908984994564
 20
-1518.039320387692
 30
0.0
 41
0.9999508299507988
 10
826.92762590657333
 20
-1518.3324200645004
 30
0.0
 41
1.0
 10
826.92454513790858
 20
-1518.3405210904702
 30
0.0
 41
1.0
 10
826.92146436924372
 20
-1518.3486221164403
 30
0.0
 41
1.0
 10
826.80383888854203
 20
-1518.6579238451877
 30
0.0
 41
0.9999609228435429
 10
826.69170028566805
 20
-1518.9692568612031
 30
0.0
 41
1.0
 10
826.68874427531807
 20
-1518.9774637016135
 30
0.0
 41
1.0
 10
826.6857882649681
 20
-1518.9856705420239
 30
0.0
 41
1.0
 10
826.56773764139689
 20
-1519.3134172388532
 30
0.0
 41
0.9999674607402526
 10
826.45499011532513
 20
-1519.643025858858
 30
0.0
 41
1.0
 10
826.40359172476292
 20
-1519.7932850545492
 30
0.0
 41
1.0
 10
826.35219333420071
 20
-1519.9435442502404
 30
0.0
 41
1.0
 10
826.23618272744488
 20
-1520.2826922327376
 30
0.0
 41
0.9999287532306096
 10
826.12830132347312
 20
-1520.6245129717163
 30
0.0
 41
1.0
 10
826.08182406735773
 20
-1520.7717755160115
 30
0.0
 41
1.0
 10
826.03534681124245
 20
-1520.919038060307
 30
0.0
 41
1.0
 10
826.02041991949716
 20
-1520.9663337107081
 30
0.0
 41
0.9999998223545052
 10
826.00554941077189
 20
-1521.0136471189328
 30
0.0
 41
1.0
 10
824.38489327397645
 20
-1526.1616756207222
 30
0.0
 41
1.0
 10
822.764237137181
 20
-1531.3097041225117
 30
0.0
 41
1.0
 10
821.85892869329007
 20
-1531.3097041225117
 30
0.0
 41
1.0
 10
820.95362024939914
 20
-1531.3097041225117
 30
0.0
 41
1.0
 10
822.80570466078518
 20
-1525.4226322000441
 30
0.0
 41
1.0
 10
824.65778907217123
 20
-1519.5355602775767
 30
0.0
 41
1.0
 10
824.66791083047394
 20
-1519.503517064127
 30
0.0
 41
1.0
 10
824.74051849932368
 20
-1519.2732175223011
 30
0.0
 41
1.0
 10
824.81312616817411
 20
-1519.0429179804732
 30
0.0
 41
0.9999825681978526
 10
824.88300920738106
 20
-1518.8117770854233
 30
0.0
 41
1.0
 10
824.93130026954236
 20
-1518.6520525019257
 30
0.0
 41
1.0
 10
824.97959133170355
 20
-1518.4923279184281
 30
0.0
 41
1.0
 10
825.07674368502296
 20
-1518.170992696645
 30
0.0
 41
0.9999672528958125
 10
825.16868249064578
 20
-1517.8481271510605
 30
0.0
 41
1.0
 10
825.17147137431448
 20
-1517.8383333056743
 30
0.0
 41
1.0
 10
825.17426025798318
 20
-1517.8285394602881
 30
0.0
 41
1.0
 10
825.26062129626848
 20
-1517.5252616054759
 30
0.0
 41
0.9999899749164263
 10
825.34426290580382
 20
-1517.2212225170215
 30
0.0
 41
1.0
 10
825.35436882482247
 20
-1517.184487279339
 30
0.0
 41
1.0
 10
825.36447474384113
 20
-1517.1477520416565
 30
0.0
 41
1.0
 10
825.42790451533892
 20
-1516.9171834285671
 30
0.0
 41
0.999921420050461
 10
825.48553394371629
 20
-1516.6850970863597
 30
0.0
 41
1.0
 10
825.49829979589686
 20
-1516.6336862009639
 30
0.0
 41
1.0
 10
825.51106564807731
 20
-1516.5822753155678
 30
0.0
 41
1.0
 10
825.54316337209343
 20
-1516.4530107441524
 30
0.0
 41
0.9999828681671199
 10
825.57374562408938
 20
-1516.3233792696831
 30
0.0
 41
1.0
 10
825.6043278760867
 20
-1516.1937477952079
 30
0.0
 41
0.9999389844479386
 10
825.63203886487531
 20
-1516.0634723393098
 30
0.0
 41
1.0
 10
825.63917660859488
 20
-1516.0299162354754
 30
0.0
 41
1.0
 10
825.64631435231445
 20
-1515.9963601316408
 30
0.0
 41
1.0
 10
825.68830082854549
 20
-1515.7989724680592
 30
0.0
 41
0.9998933699441401
 10
825.72450509294742
 20
-1515.600442860301
 30
0.0
 41
1.0
 10
825.72587791816318
 20
-1515.5929148396076
 30
0.0
 41
1.0
 10
825.72725074337905
 20
-1515.585386818914
 30
0.0
 41
1.0
 10
825.76620065821407
 20
-1515.371801169762
 30
0.0
 41
0.999685030519395
 10
825.79438433447285
 20
-1515.156530164325
 30
0.0
 41
1.0
 10
825.79637936784195
 20
-1515.1412918102042
 30
0.0
 41
1.0
 10
825.79837440121105
 20
-1515.1260534560836
 30
0.0
 41
1.0
 10
825.82578226367025
 20
-1514.9167082289277
 30
0.0
 41
0.999469793670656
 10
825.83950682288992
 20
-1514.7060230335965
 30
0.0
 41
1.0
 10
825.83998389213957
 20
-1514.6986995613865
 30
0.0
 41
1.0
 10
825.84046096138911
 20
-1514.6913760891769
 30
0.0
 41
1.0
 10
825.85323138210936
 20
-1514.4953378382686
 30
0.0
 41
0.9991804893136936
 10
825.85010306583672
 20
-1514.2989089882922
 30
0.0
 41
1.0
 10
825.8500191870146
 20
-1514.2936421868808
 30
0.0
 41
1.0
 10
825.84993530819258
 20
-1514.2883753854692
 30
0.0
 41
1.0
 10
825.84697474956408
 20
-1514.1024801383212
 30
0.0
 41
0.9988448329321735
 10
825.82618320394022
 20
-1513.9177275484853
 30
0.0
 41
1.0
 10
825.8245891302372
 20
-1513.9035626927141
 30
0.0
 41
1.0
 10
825.82299505653418
 20
-1513.8893978369429
 30
0.0
 41
1.0
 10
825.80539165831647
 20
-1513.732974958652
 30
0.0
 41
0.9985503209458704
 10
825.77107538601695
 20
-1513.5793507745627
 30
0.0
 41
1.0
 10
825.76348939394575
 20
-1513.5453904471624
 30
0.0
 41
1.0
 10
825.75590340187455
 20
-1513.5114301197623
 30
0.0
 41
1.0
 10
825.7367591137172
 20
-1513.4257265904735
 30
0.0
 41
0.9991036781370835
 10
825.71043425206608
 20
-1513.3419495031485
 30
0.0
 41
1.0
 10
825.70645202661058
 20
-1513.3292763406394
 30
0.0
 41
1.0
 10
825.70246980115496
 20
-1513.31660317813
 30
0.0
 41
1.0
 10
825.68410939041428
 20
-1513.258172415821
 30
0.0
 41
0.9998874504367731
 10
825.66400418273656
 20
-1513.2003188136002
 30
0.0
 41
1.0
 10
825.64389897505782
 20
-1513.142465211376
 30
0.0
 41
0.9994041637543489
 10
825.61985036212309
 20
-1513.0861365074854
 30
0.0
 41
1.0
 10
825.61565357789948
 20
-1513.0763064430046
 30
0.0
 41
1.0
 10
825.61145679367587
 20
-1513.0664763785237
 30
0.0
 41
1.0
 10
825.58357796268092
 20
-1513.001176212555
 30
0.0
 41
0.9991846840700969
 10
825.55052160598814
 20
-1512.9383381812759
 30
0.0
 41
1.0
 10
825.54938499959337
 20
-1512.9361775648217
 30
0.0
 41
1.0
 10
825.54824839319861
 20
-1512.9340169483673
 30
0.0
 41
1.0
 10
825.5174652492957
 20
-1512.8755001499969
 30
0.0
 41
0.9989253167923432
 10
825.48139582524004
 20
-1512.8200852216055
 30
0.0
 41
1.0
 10
825.48034170056576
 20
-1512.818465726843
 30
0.0
 41
1.0
 10
825.47928757589159
 20
-1512.8168462320807
 30
0.0
 41
1.0
 10
825.44532640118553
 20
-1512.7646702932159
 30
0.0
 41
0.9986467172837461
 10
825.40612924854781
 20
-1512.7163042595857
 30
0.0
 41
1.0
 10
825.40525511984742
 20
-1512.7152256573077
 30
0.0
 41
1.0
 10
825.40438099114692
 20
-1512.7141470550298
 30
0.0
 41
1.0
 10
825.36693209591101
 20
-1512.667938225957
 30
0.0
 41
0.9984001104269115
 10
825.32450536539318
 20
-1512.6262531185871
 30
0.0
 41
1.0
 10
825.32391822728368
 20
-1512.6256762437056
 30
0.0
 41
1.0
 10
825.32333108917419
 20
-1512.6250993688243
 30
0.0
 41
1.0
 10
825.28207863487592
 20
-1512.5845680112184
 30
0.0
 41
0.9982442159083939
 10
825.23632253354049
 20
-1512.5491994499582
 30
0.0
 41
1.0
 10
825.23610773807866
 20
-1512.5490334173151
 30
0.0
 41
1.0
 10
825.23589294261683
 20
-1512.5488673846717
 30
0.0
 41
1.0
 10
825.19056643220472
 20
-1512.5138308886981
 30
0.0
 41
0.9982450060836073
 10
825.14141545313305
 20
-1512.4843991056646
 30
0.0
 41
1.0
 10
825.0922644740599
 20
-1512.45496732263
 30
0.0
 41
0.9983922639633812
 10
825.04009816789437
 20
-1512.4312876879758
 30
0.0
 41
1.0
 10
825.039871290571
 20
-1512.4311847024949
 30
0.0
 41
1.0
 10
825.03964441324752
 20
-1512.431081717014
 30
0.0
 41
1.0
 10
824.98702435243376
 20
-1512.4071961113971
 30
0.0
 41
0.9986517147150742
 10
824.93221137956664
 20
-1512.3888949922755
 30
0.0
 41
1.0
 10
824.93153345813835
 20
-1512.3886686458441
 30
0.0
 41
1.0
 10
824.93085553671017
 20
-1512.3884422994124
 30
0.0
 41
1.0
 10
824.87468672098578
 20
-1512.3696884874275
 30
0.0
 41
0.9989435598956353
 10
824.81703333383405
 20
-1512.3561707851929
 30
0.0
 41
1.0
 10
824.81595321425289
 20
-1512.3559175349401
 30
0.0
 41
1.0
 10
824.81487309467161
 20
-1512.3556642846872
 30
0.0
 41
1.0
 10
824.75505946835699
 20
-1512.3416400819467
 30
0.0
 41
0.9992249241239792
 10
824.69432795946011
 20
-1512.3323647392317
 30
0.0
 41
1.0
 10
824.69291427116877
 20
-1512.3321488308238
 30
0.0
 41
1.0
 10
824.69150058287744
 20
-1512.3319329224159
 30
0.0
 41
1.0
 10
824.62794169739982
 20
-1512.3222257628852
 30
0.0
 41
0.9994396597833357
 10
824.56387576086468
 20
-1512.3167928405396
 30
0.0
 41
1.0
 10
824.54473509338504
 20
-1512.3151696728207
 30
0.0
 41
1.0
 10
824.52559442590541
 20
-1512.3135465051018
 30
0.0
 41
1.0
 10
824.42324715441293
 20
-1512.304867247319
 30
0.0
 41
0.9987693403121392
 10
824.32054353082583
 20
-1512.3063703107716
 30
0.0
 41
1.0
 10
824.3102891965998
 20
-1512.3065203825458
 30
0.0
 41
1.0
 10
824.30003486237388
 20
-1512.3066704543201
 30
0.0
 41
1.0
 10
824.19047909619371
 20
-1512.3082737986074
 30
0.0
 41
0.9989753644966215
 10
824.08151709617596
 20
-1512.3197768055325
 30
0.0
 41
1.0
 10
823.97255509616127
 20
-1512.3312798124575
 30
0.0
 41
0.9983190067306911
 10
823.86565628519759
 20
-1512.3553148042438
 30
0.0
 41
1.0
 10
823.85675533358926
 20
-1512.3573160828068
 30
0.0
 41
1.0
 10
823.84785438198105
 20
-1512.3593173613699
 30
0.0
 41
1.0
 10
823.72315366780072
 20
-1512.3873549102825
 30
0.0
 41
0.9985539388302638
 10
823.6021839141215
 20
-1512.4286185863286
 30
0.0
 41
1.0
 10
823.59983848316278
 20
-1512.429418630144
 30
0.0
 41
1.0
 10
823.59749305220407
 20
-1512.4302186739592
 30
0.0
 41
1.0
 10
823.47183243660606
 20
-1512.4730824376363
 30
0.0
 41
0.9988468746494095
 10
823.35086209430517
 20
-1512.527800522699
 30
0.0
 41
1.0
 10
823.34767927231655
 20
-1512.5292401972588
 30
0.0
 41
1.0
 10
823.34449645032782
 20
-1512.5306798718188
 30
0.0
 41
1.0
 10
823.21716046405106
 20
-1512.5882773060007
 30
0.0
 41
0.9991322885919346
 10
823.09505987999455
 20
-1512.6562726381821
 30
0.0
 41
1.0
 10
823.07745786895225
 20
-1512.6660748401709
 30
0.0
 41
1.0
 10
823.05985585790984
 20
-1512.67587704216
 30
0.0
 41
1.0
 10
822.95767917685077
 20
-1512.7327771579419
 30
0.0
 41
0.9993860037849663
 10
822.85973817277488
 20
-1512.7966931735318
 30
0.0
 41
1.0
 10
822.85411985991686
 20
-1512.8003596682306
 30
0.0
 41
1.0
 10
822.84850154705885
 20
-1512.8040261629292
 30
0.0
 41
1.0
 10
822.76179716869387
 20
-1512.8606091891252
 30
0.0
 41
0.9998821494954356
 10
822.67687079288862
 20
-1512.9198274191972
 30
0.0
 41
1.0
 10
822.59194441706836
 20
-1512.979045649279
 30
0.0
 41
0.9997976482744929
 10
822.50946878665718
 20
-1513.041632057327
 30
0.0
 41
1.0
 10
822.49483252185973
 20
-1513.0527387471011
 30
0.0
 41
1.0
 10
822.4801962570624
 20
-1513.0638454368752
 30
0.0
 41
1.0
 10
822.36844809705087
 20
-1513.1486452244751
 30
0.0
 41
0.9998091630801411
 10
822.26009781902519
 20
-1513.2377455751748
 30
0.0
 41
1.0
 10
822.24709206654597
 20
-1513.2484406756225
 30
0.0
 41
1.0
 10
822.23408631406664
 20
-1513.2591357760703
 30
0.0
 41
1.0
 10
822.09972453108435
 20
-1513.3696263276638
 30
0.0
 41
0.9995035112317154
 10
821.97258865331889
 20
-1513.4883601446807
 30
0.0
 41
1.0
 10
821.96294134293009
 20
-1513.4973698908398
 30
0.0
 41
1.0
 10
821.95329403254129
 20
-1513.5063796369991
 30
0.0
 41
1.0
 10
821.82987096977786
 20
-1513.6216460087533
 30
0.0
 41
0.9994630424299092
 10
821.71426256399718
 20
-1513.7447487519853
 30
0.0
 41
1.0
 10
821.71057972522783
 20
-1513.7486703314962
 30
0.0
 41
1.0
 10
821.70689688645848
 20
-1513.7525919110069
 30
0.0
 41
1.0
 10
821.59865415821639
 20
-1513.8678514952169
 30
0.0
 41
0.9995160693750109
 10
821.49778812868124
 20
-1513.9896189130932
 30
0.0
 41
1.0
 10
821.49585440860335
 20
-1513.9919533372979
 30
0.0
 41
1.0
 10
821.49392068852546
 20
-1513.9942877615026
 30
0.0
 41
1.0
 10
821.39692209915165
 20
-1514.1113863309629
 30
0.0
 41
0.9996561470515372
 10
821.30619588048341
 20
-1514.2334090934148
 30
0.0
 41
1.0
 10
821.30003821457922
 20
-1514.2416908824603
 30
0.0
 41
1.0
 10
821.29388054867502
 20
-1514.2499726715055
 30
0.0
 41
1.0
 10
821.21546966181336
 20
-1514.3554318558695
 30
0.0
 41
0.9998349055172003
 10
821.14094237988525
 20
-1514.4636704395275
 30
0.0
 41
1.0
 10
821.06641509795395
 20
-1514.5719090231896
 30
0.0
 41
0.9999728109571386
 10
820.99349220205352
 20
-1514.6812349487302
 30
0.0
 41
1.0
 10
820.99217698663642
 20
-1514.6832067182406
 30
0.0
 41
1.0
 10
820.99086177121944
 20
-1514.685178487751
 30
0.0
 41
1.0
 10
820.91530844446788
 20
-1514.7984479523379
 30
0.0
 41
0.999997214736555
 10
820.84029063407729
 20
-1514.9120727951993
 30
0.0
 41
1.0
 10
820.83531909147223
 20
-1514.9196028836454
 30
0.0
 41
1.0
 10
820.83034754886705
 20
-1514.9271329720918
 30
0.0
 41
1.0
 10
820.74538665324781
 20
-1515.0558179918728
 30
0.0
 41
0.9999371979008054
 10
820.66333130384453
 20
-1515.1863749056488
 30
0.0
 41
1.0
 10
820.65982241948223
 20
-1515.1919578337147
 30
0.0
 41
1.0
 10
820.65631353512003
 20
-1515.1975407617804
 30
0.0
 41
1.0
 10
820.56724041698931
 20
-1515.3392635316925
 30
0.0
 41
0.999827202561006
 10
820.48349702610778
 20
-1515.4841994084343
 30
0.0
 41
1.0
 10
820.46828185408458
 20
-1515.5105325228897
 30
0.0
 41
1.0
 10
820.45306668206126
 20
-1515.5368656373448
 30
0.0
 41
1.0
 10
820.33889294713185
 20
-1515.7344677429994
 30
0.0
 41
0.9995217214838413
 10
820.23715325757519
 20
-1515.9387500708633
 30
0.0
 41
1.0
 10
820.229509694939
 20
-1515.9540975205687
 30
0.0
 41
1.0
 10
820.22186613230281
 20
-1515.9694449702738
 30
0.0
 41
1.0
 10
820.13496083971336
 20
-1516.1439414283548
 30
0.0
 41
0.9998269762606885
 10
820.05460637344368
 20
-1516.3215497150734
 30
0.0
 41
1.0
 10
819.97425190717172
 20
-1516.4991580017968
 30
0.0
 41
0.9998944747387462
 10
819.8990911126042
 20
-1516.6790257274326
 30
0.0
 41
1.0
 10
819.89413744301407
 20
-1516.6908803823476
 30
0.0
 41
1.0
 10
819.88918377342395
 20
-1516.7027350372623
 30
0.0
 41
1.0
 10
819.80853671286934
 20
-1516.8957319772849
 30
0.0
 41
0.9999506734408136
 10
819.73173918396787
 20
-1517.0902927821362
 30
0.0
 41
1.0
 10
819.71713921870582
 20
-1517.1272807039195
 30
0.0
 41
1.0
 10
819.70253925344389
 20
-1517.164268625703
 30
0.0
 41
1.0
 10
819.65494165506595
 20
-1517.284853586988
 30
0.0
 41
0.9999912393901851
 10
819.60835521104173
 20
-1517.4058327896882
 30
0.0
 41
1.0
 10
819.56176876700829
 20
-1517.5268119924121
 30
0.0
 41
0.9999927113928766
 10
819.51610747261395
 20
-1517.6481433999156
 30
0.0
 41
1.0
 10
819.50213904122188
 20
-1517.6852603818998
 30
0.0
 41
1.0
 10
819.48817060982969
 20
-1517.7223773638839
 30
0.0
 41
1.0
 10
819.41457245263905
 20
-1517.9179427353863
 30
0.0
 41
0.9999487550951378
 10
819.34494882767024
 20
-1518.1149581005604
 30
0.0
 41
1.0
 10
819.32135521772761
 20
-1518.1817214108696
 30
0.0
 41
1.0
 10
819.29776160778488
 20
-1518.248484721179
 30
0.0
 41
1.0
 10
819.20307597341991
 20
-1518.5164185559879
 30
0.0
 41
0.9999808436952599
 10
819.11171438478254
 20
-1518.7855039872411
 30
0.0
 41
1.0
 10
819.0203527961437
 20
-1519.0545894184982
 30
0.0
 41
0.9999873932902742
 10
818.93169808742937
 20
-1519.3245787735
 30
0.0
 41
1.0
 10
818.91160573055686
 20
-1519.3857681062623
 30
0.0
 41
1.0
 10
818.89151337368435
 20
-1519.4469574390248
 30
0.0
 41
1.0
 10
818.76267395122932
 20
-1519.8393254595387
 30
0.0
 41
0.9999794883030165
 10
818.63887116627052
 20
-1520.2333116658178
 30
0.0
 41
1.0
 10
818.62771890683848
 20
-1520.2688022760378
 30
0.0
 41
1.0
 10
818.61656664740633
 20
-1520.3042928862578
 30
0.0
 41
1.0
 10
818.47400848351663
 20
-1520.7579656383193
 30
0.0
 41
0.9999982761673165
 10
818.33313604348177
 20
-1521.2121646605051
 30
0.0
 41
1.0
 10
816.74499571090917
 20
-1526.2609343915083
 30
0.0
 41
1.0
 10
815.15685537833656
 20
-1531.3097041225117
 30
0.0
 41
1.0
 10
814.20810476686017
 20
-1531.3097041225117
 30
0.0
 41
1.0
 10
813.25935415538379
 20
-1531.3097041225117
 30
0.0
 41
1.0
 10
816.49763864153692
 20
-1520.9823819225655
 30
0.0
 41
1.0
 10
819.73592312769017
 20
-1510.6550597226194
 30
0.0
 41
1.0
  0
LWPOLYLINE
  5
60
100
AcDbEntity
  8
0
370
              15
390
0
  6
Continuous
 62
               7
100
AcDbPolyline
 90
      232
 70
             128
 10
794.03237735386313
 20
-1511.7394025541346
 42
0.0004370800704818
 10
793.97950017970243
 20
-1511.8080691935061
 10
793.94021594866365
 20
-1511.8591763062873
 42
0.0030481992176058
 10
793.80987723152828
 20
-1512.0308979986532
 10
793.77136555979405
 20
-1512.0822847824197
 42
0.0042058245757681
 10
793.56738050911497
 20
-1512.3592905275061
 10
793.51497538662352
 20
-1512.431723374274
 42
0.0120948898745156
 10
793.21893146985883
 20
-1512.8624729788282
 10
793.12273897074033
 20
-1513.0099537140479
 42
0.0141601263946032
 10
792.81909492381817
 20
-1513.5056230507835
 10
792.77955765638592
 20
-1513.5744670182262
 42
0.0071131081302618
 10
792.57428533315374
 20
-1513.9439698170534
 42
0.0068458791002038
 10
792.37940580631266
 20
-1514.3190613805255
 10
792.37259394385296
 20
-1514.332623094253
 42
0.0064120880288877
 10
792.17445169381222
 20
-1514.7400475691645
 10
792.16691700829165
 20
-1514.7560594258932
 42
0.0058857236448825
 10
791.96416161642082
 20
-1515.2004355369263
 10
791.955986690126
 20
-1515.2189256905622
 42
0.0053189741894787
 10
791.74728237746035
 20
-1515.7048891644758
 10
791.73853457177711
 20
-1515.7258710426763
 42
0.0047503650419193
 10
791.52256084562248
 20
-1516.2580704758957
 10
791.51329259727822
 20
-1516.2815468519939
 42
0.0042071762169906
 10
791.28874521355601
 20
-1516.864640446049
 10
791.27899581120187
 20
-1516.8906066209333
 42
0.0036680086484731
 10
791.04454116789498
 20
-1517.52924200545
 10
791.034333388042
 20
-1517.5576905398088
 42
0.0032573142627807
 10
790.7887011020722
 20
-1518.2565431995713
 10
790.7200505812358
 20
-1518.4560062836117
 42
0.0026133366647279
 10
790.37160538247667
 20
-1519.4858695672872
 10
790.30834859497293
 20
-1519.6761004026896
 42
0.0020592950742766
 10
790.09448552600884
 20
-1520.3282040552933
 10
790.09143373484278
 20
-1520.3376405437123
 42
0.0025609928535364
 10
789.88961323335991
 20
-1520.9727857660689
 10
789.88702186623652
 20
-1520.9810881069989
 42
0.0031362356241734
 10
789.69753108055625
 20
-1521.601850963189
 10
789.69540003763473
 20
-1521.6089922693805
 42
0.003722991802783
 10
789.51859965070253
 20
-1522.2179775713744
 10
789.51692106150063
 20
-1522.2239244615325
 42
0.0043077623706944
 10
789.35318025943104
 20
-1522.8237431933176
 42
0.0047654161822467
 10
789.20035153691731
 20
-1523.4264292822108
 10
789.16588692807591
 20
-1523.5679910593699
 42
0.0112969368444256
 10
788.97002256993221
 20
-1524.459683219995
 10
788.94201618083571
 20
-1524.6025112660918
 42
0.0130056762572017
 10
788.74117893718903
 20
-1525.7894523377367
 10
788.72063918704248
 20
-1525.9335304512103
 42
0.013872153214425
 10
788.61693618250411
 20
-1526.8403599370395
 10
788.59764069459561
 20
-1527.0638576589722
 42
0.0071254697010667
 10
788.56429404867367
 20
-1527.5270446678119
 10
788.55933307451073
 20
-1527.6130486623656
 42
0.0028881799204855
 10
788.54419478122054
 20
-1527.9047903722144
 42
0.006029729713388
 10
788.53426258144509
 20
-1528.1967393083244
 10
788.53320029977783
 20
-1528.2451316802624
 42
0.0229523164156467
 10
788.54093132756361
 20
-1528.5678865265459
 10
788.5451571010841
 20
-1528.628290060564
 42
0.0123673300664682
 10
788.56423574760231
 20
-1528.8294107857369
 42
0.012857767447044
 10
788.59343113800867
 20
-1529.0293086356639
 10
788.60055701139561
 20
-1529.0706374502606
 42
0.0285717853763578
 10
788.66505101309156
 20
-1529.348753601575
 10
788.6787195367574
 20
-1529.3954083710503
 42
0.0316283099156424
 10
788.79453011667192
 20
-1529.7144228728771
 10
788.79757880842772
 20
-1529.7214092452032
 42
0.0338984824232373
 10
788.94701051939467
 20
-1530.0089752093918
 10
788.94931924876357
 20
-1530.0127662386662
 42
0.0350228718351346
 10
789.1316795394381
 20
-1530.2698182233446
 10
789.13256479121389
 20
-1530.2708973011095
 42
0.0347476747528644
 10
789.34698947845322
 20
-1530.4980823483288
 42
0.0331337701910523
 10
789.59023280420024
 20
-1530.6942110104064
 10
789.59133290271575
 20
-1530.6949837135785
 42
0.0305233319079654
 10
789.85987759828856
 20
-1530.8601118836698
 10
789.86310764279028
 20
-1530.8618358955327
 42
0.0273744481153033
 10
790.15566135436518
 20
-1530.9979740394233
 10
790.16076588950216
 20
-1531.0000176238927
 42
0.0240964406196859
 10
790.47624296514857
 20
-1531.1090013501744
 10
790.48282629435789
 20
-1531.1109260898493
 42
0.0209636179813233
 10
790.82022644701476
 20
-1531.194394237782
 10
790.82785890745913
 20
-1531.1959461507827
 42
0.0181388704690039
 10
791.18618129945673
 20
-1531.2553622439966
 10
791.19446214783579
 20
-1531.2564284278137
 42
0.0156086547585031
 10
791.57264951202148
 20
-1531.2931646143902
 10
791.61584476435803
 20
-1531.2960031168698
 42
0.0137148329023415
 10
791.9435179096505
 20
-1531.3085233721208
 10
791.98945409959731
 20
-1531.309017805236
 42
0.0051057823889384
 10
792.22559968616872
 20
-1531.3091480596449
 42
0.0052256693308989
 10
792.46169696993718
 20
-1531.3043992351813
 10
792.53192375369679
 20
-1531.3022522691667
 42
0.0161507179050612
 10
792.90766083180245
 20
-1531.2786018988397
 10
792.92767379217116
 20
-1531.2766917035526
 42
0.0101216737834036
 10
793.3417010136651
 20
-1531.2286987731866
 10
793.37575430308857
 20
-1531.2240510763775
 42
0.0245291776397931
 10
793.85254395863922
 20
-1531.1349759983013
 10
793.93736727416911
 20
-1531.114780077954
 42
0.0143509212558693
 10
794.29399837810331
 20
-1531.0189754441767
 42
0.0156557857036129
 10
794.6442144428305
 20
-1530.9019642283579
 10
794.65171565732521
 20
-1530.8991940666037
 42
0.0170137333627541
 10
795.00831165300644
 20
-1530.7535364517325
 10
795.01541557541407
 20
-1530.7503486161688
 42
0.018310536441176
 10
795.37476524357839
 20
-1530.5730135743454
 10
795.3817120082191
 20
-1530.5692631394722
 42
0.0194899958156421
 10
795.74019274920397
 20
-1530.3572841575808
 10
795.74720662853974
 20
-1530.3527588152865
 42
0.0204869852953257
 10
796.10122093063001
 20
-1530.1032388002034
 10
796.10848653922073
 20
-1530.0976587348523
 42
0.0212516938555089
 10
796.45447647032563
 20
-1529.8077547379607
 10
796.50099316440787
 20
-1529.765287427861
 42
0.0215248918254572
 10
796.7610193332921
 20
-1529.5065231488697
 10
796.80604906767542
 20
-1529.4576790275169
 42
0.0114578554958939
 10
796.96084122134994
 20
-1529.2818560940614
 10
796.97203575733511
 20
-1529.2685373305178
 42
0.006153130512961
 10
797.09851040333103
 20
-1529.1142477972103
 42
0.0006325587122384
 10
797.2228888875153
 20
-1528.9582444214939
 10
797.24592902253426
 20
-1528.9292709008753
 42
0.0041897761558264
 10
797.41438442650485
 20
-1528.7137515248162
 10
797.47284654639918
 20
-1528.6376501778282
 42
0.0092993880039947
 10
797.74945847362426
 20
-1528.2633714139424
 10
797.83185296682245
 20
-1528.1474344103749
 42
0.0159321727088572
 10
798.17845944946419
 20
-1527.6252601896197
 10
798.2228155848502
 20
-1527.5535806253747
 42
0.0085547317018129
 10
798.45732735017896
 20
-1527.159705676145
 42
0.0084601156888664
 10
798.67830352762007
 20
-1526.758078827115
 10
798.68641900145144
 20
-1526.7427191448398
 42
0.0081429654284881
 10
798.90966827188731
 20
-1526.3029976323023
 10
798.91852843607296
 20
-1526.2848187902796
 42
0.0076574581327807
 10
799.14493594664157
 20
-1525.8016359150226
 10
799.15441558736336
 20
-1525.7805714367237
 42
0.0070682724200512
 10
799.38486049517564
 20
-1525.2485341319291
 10
799.39485077915185
 20
-1525.2245449429306
 42
0.0064559514449339
 10
799.63018398733311
 20
-1524.6382326764128
 10
799.64059334549847
 20
-1524.6112977509697
 42
0.0058311413907541
 10
799.88164008225885
 20
-1523.9652656565925
 10
799.8923951596488
 20
-1523.9353813154253
 42
0.0052312425819415
 10
800.1399764376863
 20
-1523.2241789016007
 10
800.15102027406942
 20
-1523.1913521895212
 42
0.0046680544795712
 10
800.40594870180166
 20
-1522.4095258737736
 10
800.4479408518481
 20
-1522.2765426364724
 42
0.0041666856443458
 10
800.65122686424252
 20
-1521.6135738614687
 10
800.68888930490255
 20
-1521.4869927538277
 42
0.001517097515604
 10
800.81007588331931
 20
-1521.0751244023213
 42
-0.0004887993113479
 10
800.93041565646593
 20
-1520.6630059901991
 10
801.00689291393746
 20
-1520.4020486043382
 42
0.0002583378929999
 10
801.28010748414374
 20
-1519.467991900673
 10
801.36188033359633
 20
-1519.1878926415143
 42
0.0006636169676335
 10
801.55574809358973
 20
-1518.5205397179891
 10
801.5608447479699
 20
-1518.5029081349944
 42
0.0010589131325031
 10
801.74229344885339
 20
-1517.8701767920602
 10
801.7472755193279
 20
-1517.8526638850612
 42
0.0015655524457849
 10
801.91554572651671
 20
-1517.2540472058392
 10
801.92037592692452
 20
-1517.2366550469289
 42
0.0021640440478697
 10
802.0746658989176
 20
-1516.6716280288852
 10
802.07930011834867
 20
-1516.6543632988871
 42
0.0028763871851664
 10
802.21881583640061
 20
-1516.1223953480444
 10
802.22320170057048
 20
-1516.1052713698796
 42
0.0037310511946589
 10
802.34715839240471
 20
-1515.6058237758662
 10
802.35123361269984
 20
-1515.5888635045953
 42
0.0047652197773269
 10
802.45885751320213
 20
-1515.1213857363155
 10
802.46254811252163
 20
-1515.104626181183
 42
0.0060276699295828
 10
802.55307821167912
 20
-1514.6685503860213
 10
802.55629690196702
 20
-1514.6520491717183
 42
0.0075824337754491
 10
802.62898621138379
 20
-1514.2467820072859
 10
802.63163158876466
 20
-1514.2306270598315
 42
0.0095130624611084
 10
802.68574682439521
 20
-1513.8555377067637
 10
802.69273304827823
 20
-1513.7996041486435
 42
0.0121054653225887
 10
802.71932437885573
 20
-1513.5347083201732
 10
802.72019086861451
 20
-1513.5233048772534
 42
0.0069050827383564
 10
802.73527968665303
 20
-1513.2803636504
 10
802.73641498632128
 20
-1513.2568373933607
 42
0.0169063976699493
 10
802.73924226530175
 20
-1513.0606446660545
 10
802.73807161377033
 20
-1513.0003089046982
 42
0.0052007732916865
 10
802.73581816517753
 20
-1512.9247155145531
 42
0.0054038123300205
 10
802.71585465333624
 20
-1512.8046972185289
 10
802.71076879746829
 20
-1512.776038731962
 42
0.0112050460468587
 10
802.67538443541002
 20
-1512.5997122936244
 10
802.65755947336902
 20
-1512.5201707069023
 42
0.024076446801296
 10
802.56666210722267
 20
-1512.1899336714005
 10
802.54810334440936
 20
-1512.1333135064067
 42
0.0256812331835018
 10
802.40474042421988
 20
-1511.7615893001498
 10
802.39933099839811
 20
-1511.7494579651593
 42
0.0268360501217574
 10
802.22990375754864
 20
-1511.4184648311391
 10
802.22436734991345
 20
-1511.4089451608265
 42
0.027467023172915
 10
802.03216637350033
 20
-1511.1166577859094
 10
802.02678507353812
 20
-1511.1093786383685
 42
0.0275035967098332
 10
801.81521219397587
 20
-1510.8538627480641
 10
801.81014269300988
 20
-1510.8483836604344
 42
0.0269557673527871
 10
801.58273914956976
 20
-1510.6277413744715
 10
801.57799609178778
 20
-1510.6236114200112
 42
0.0259124802206528
 10
801.33844126035638
 20
-1510.4359208928581
 10
801.33391041517359
 20
-1510.4327353905271
 42
0.0245162153001252
 10
801.08599406207964
 20
-1510.2760023814176
 10
801.081467515756
 20
-1510.2734421842169
 42
0.0229282588836862
 10
800.82904795892807
 20
-1510.1455739917178
 10
800.82426746509157
 20
-1510.1434216919558
 42
0.0212984135697348
 10
800.57122951262954
 20
-1510.0422227747135
 10
800.565925227663
 20
-1510.0403592119546
 42
0.0197555462346159
 10
800.31614688993704
 20
-1509.9635437939887
 42
0.0183511896787908
 10
800.06121816447364
 20
-1509.905960887023
 10
799.97485296775278
 20
-1509.8897580966384
 42
0.0338057877142024
 10
799.68934561849062
 20
-1509.8559496914977
 10
799.59834021345011
 20
-1509.8513700362364
 42
0.0091990524492279
 10
799.49249310481468
 20
-1509.8479941803143
 42
0.0028333980791589
 10
799.38657918881313
 20
-1509.8471660727978
 10
799.38566373577237
 20
-1509.8471641029737
 42
-0.0023619827789322
 10
799.27791772062631
 20
-1509.8464232618946
 10
799.2415125504906
 20
-1509.8460009554319
 42
0.0008824598476491
 10
799.06095656062951
 20
-1509.8442251771937
 10
799.01709512823481
 20
-1509.8438712156681
 42
0.0038132665763925
 10
798.74881223236446
 20
-1509.8437522796014
 10
798.73227857756251
 20
-1509.8438710457451
 42
0.0060665569335065
 10
798.4309980859631
 20
-1509.8496913451661
 10
798.41674775394586
 20
-1509.8501396531335
 42
0.0080356953337793
 10
798.08728903760391
 20
-1509.8658073752006
 10
798.07521902251938
 20
-1509.8665759581409
 42
0.0098996399103891
 10
797.72245593787534
 20
-1509.8960611873383
 10
797.71241022849381
 20
-1509.8971014835372
 42
0.0117740981367893
 10
797.3412533701453
 20
-1509.9443937310671
 10
797.33303067366251
 20
-1509.9456388476378
 42
0.0137435215135197
 10
796.94844185418083
 20
-1510.0147358211989
 10
796.94178481505401
 20
-1510.0161217174332
 42
0.0158359869388585
 10
796.54878772124709
 20
-1510.111013805915
 10
796.54337453438438
 20
-1510.1125037467843
 42
0.0180554124028157
 10
796.14705948977542
 20
-1510.237141763022
 10
796.14250270168861
 20
-1510.2387577992895
 42
0.0203657431285518
 10
795.74802518387446
 20
-1510.3970181408063
 10
795.74388164486993
 20
-1510.3988797622469
 42
0.0226819684655035
 10
795.35644558866761
 20
-1510.5945223409174
 10
795.35224579764815
 20
-1510.5968879328379
 42
0.0248634984602472
 10
794.97706385647007
 20
-1510.8335145787826
 10
794.92886892768456
 20
-1510.8673716206094
 42
0.0267044190883298
 10
794.65457623076645
 20
-1511.082811996479
 42
0.0139303002198273
 10
794.39840906483198
 20
-1511.3200508373868
 10
794.39355567910673
 20
-1511.3248035002509
 42
0.0283460963446392
 10
794.1494830848801
 20
-1511.5925341606953
 10
794.10981457972298
 20
-1511.6413357381691
 42
0.0070695364819158
 10
794.03237735386313
 20
-1511.7394025541346
 42
0.0070695364819158
  0
LWPOLYLINE
  5
61
100
AcDbEntity
  8
0
370
              15
390
0
  6
Continuous
 62
               7
100
AcDbPolyline
 90
      226
 70
             128
 10
790.50355691661673
 20
-1527.4609913603185
 42
-0.0026277636597603
 10
790.5034790328167
 20
-1527.3942194345379
 10
790.50369639104872
 20
-1527.3410642171325
 42
-0.0088680296729401
 10
790.50747300734179
 20
-1527.1680484347273
 10
790.50981936645417
 20
-1527.1087684092759
 42
-0.0077381705619343
 10
790.52586547721648
 20
-1526.8175079134905
 10
790.52673338839043
 20
-1526.8052196797926
 42
-0.0068872530536258
 10
790.55336546813794
 20
-1526.4899979277295
 10
790.55456969232466
 20
-1526.4777569487046
 42
-0.006213002148217
 10
790.59216340915293
 20
-1526.1388872574621
 10
790.59366731268756
 20
-1526.1267133855497
 42
-0.0056726929665252
 10
790.64258917219047
 20
-1525.7645181634321
 10
790.6443626178343
 20
-1525.752424363191
 42
-0.0052341884493933
 10
790.70497320409561
 20
-1525.3672311076648
 10
790.70699119287087
 20
-1525.3552261776806
 42
-0.004976845016445
 10
790.77972987429769
 20
-1524.9473816102461
 10
790.80397888901905
 20
-1524.8188336272419
 42
-0.0089029805623161
 10
790.94105974081424
 20
-1524.1570581798178
 10
790.97380511613233
 20
-1524.0120267492962
 42
-0.0080318257099394
 10
791.20335373047374
 20
-1523.0663171174399
 10
791.21533865692129
 20
-1523.0201864822525
 42
-0.0074265721316936
 10
791.49935019577526
 20
-1521.9901219038582
 10
791.51922973888725
 20
-1521.921987843285
 42
-0.0069711922702952
 10
791.84653431739457
 20
-1520.8557201029544
 10
791.90648626449365
 20
-1520.6696987446039
 42
-0.0052070422893918
 10
792.13591148975934
 20
-1519.9824266675525
 10
792.15319268189398
 20
-1519.9323993870441
 42
-0.0009167004450664
 10
792.35628456922109
 20
-1519.3479435387812
 42
-0.0025162726945172
 10
792.5633821994918
 20
-1518.7649022745961
 10
792.60060681129153
 20
-1518.6617527287065
 42
-0.0028212681457066
 10
792.8487827302522
 20
-1517.9860220965425
 10
792.85861349300387
 20
-1517.9597146518629
 42
-0.0031964916823738
 10
793.09490575066513
 20
-1517.3395098897386
 10
793.10454020466875
 20
-1517.3146998995833
 42
-0.0036281836450397
 10
793.32964616576533
 20
-1516.7472592187023
 10
793.33908457592145
 20
-1516.7239617872028
 42
-0.0041269166831572
 10
793.55370227258197
 20
-1516.2065208912211
 10
793.58633522900448
 20
-1516.129642444856
 42
-0.0047472213055366
 10
793.74338003455637
 20
-1515.7692209769766
 10
793.7502741157632
 20
-1515.7538003796478
 42
-0.0025651659997208
 10
793.89863214961474
 20
-1515.4264723238962
 42
-0.0057144634989243
 10
794.05238184338748
 20
-1515.1016626505307
 10
794.08041254879049
 20
-1515.0441542681328
 42
-0.0065388068371345
 10
794.26387957652707
 20
-1514.6799217714745
 10
794.27233803229603
 20
-1514.6636621921232
 42
-0.0074510843022962
 10
794.44852027818342
 20
-1514.3369739109821
 10
794.45669994871685
 20
-1514.322333133709
 42
-0.0084648979856681
 10
794.62633380181455
 20
-1514.0304241227523
 10
794.63418992829975
 20
-1514.017417131106
 42
-0.0095638542800971
 10
794.79802537589683
 20
-1513.7575282591229
 10
794.80550031956875
 20
-1513.7461588976671
 42
-0.0107191626804564
 10
794.96430189995613
 20
-1513.5155476631235
 10
794.97131863368986
 20
-1513.505811570755
 42
-0.0118458573900681
 10
795.12586673219971
 20
-1513.3017393754481
 42
-0.0129184518186474
 10
795.29031935580304
 20
-1513.1055788592755
 10
795.32046412816533
 20
-1513.0714527803768
 42
-0.0217742579632635
 10
795.49707645049966
 20
-1512.8882460101281
 10
795.50782199495188
 20
-1512.8780291769328
 42
-0.0097266568654481
 10
795.67387961381587
 20
-1512.7261816024877
 42
-0.0187720905730693
 10
795.84822718969986
 20
-1512.5841127491028
 10
795.87893318037607
 20
-1512.560953666705
 42
-0.0179428207523771
 10
796.11135390037566
 20
-1512.3984014895907
 10
796.11500622729204
 20
-1512.3960375547026
 42
-0.0170047877696691
 10
796.35076986482181
 20
-1512.2545770405513
 10
796.35455285357023
 20
-1512.2524787355142
 42
-0.0160190788363836
 10
796.59146140120367
 20
-1512.130827433527
 42
-0.0151102861491924
 10
796.83549318365135
 20
-1512.0241446574721
 10
796.88787968586212
 20
-1512.0031045245778
 42
-0.0271945441886716
 10
797.24654224492031
 20
-1511.8812397138718
 10
797.31560704540664
 20
-1511.8618901726061
 42
-0.023759659402498
 10
797.73140389243099
 20
-1511.766439460624
 10
797.7994667461594
 20
-1511.7541847724976
 42
-0.021371544055697
 10
798.08534167760672
 20
-1511.7152377409873
 10
798.14548884382759
 20
-1511.7096480262862
 42
-0.0101465655824444
 10
798.31298137581882
 20
-1511.6975044830224
 10
798.3223217620158
 20
-1511.6970175680251
 42
-0.0100375910881556
 10
798.47147586257961
 20
-1511.6922417500998
 10
798.48173513225493
 20
-1511.6921193110854
 42
-0.0103625633384878
 10
798.61044312691479
 20
-1511.693250744612
 10
798.63270877817911
 20
-1511.6939081030769
 42
-0.0115689250248354
 10
798.71675951570967
 20
-1511.6983376093222
 42
-0.0072438037441082
 10
798.80059779514113
 20
-1511.7059268090704
 10
798.81739830462163
 20
-1511.7076933517956
 42
-0.0217917313125263
 10
798.93396806793658
 20
-1511.7251132445167
 10
798.99956815850589
 20
-1511.7378598529317
 42
-0.0332943556750526
 10
799.20396032353028
 20
-1511.7919001442383
 10
799.23413289208122
 20
-1511.8020682213569
 42
-0.0184824084797524
 10
799.37263794854584
 20
-1511.8545192367433
 42
-0.0198002050690831
 10
799.50671228904616
 20
-1511.9174032969429
 10
799.50859892642211
 20
-1511.9183810838224
 42
-0.0212242342971624
 10
799.64073786882238
 20
-1511.9941438226142
 10
799.64255316436743
 20
-1511.9952896248237
 42
-0.0226090605783368
 10
799.77105706558893
 20
-1512.0847692683881
 10
799.77290150732665
 20
-1512.0861815213757
 42
-0.023845705223595
 10
799.8960835886196
 20
-1512.1901774172381
 10
799.89803631717859
 20
-1512.1919922950042
 42
-0.0248160564145693
 10
800.01423782447921
 20
-1512.3112668962128
 10
800.01634145788125
 20
-1512.3136522299174
 42
-0.0254109591450719
 10
800.12394667574699
 20
-1512.4489406158814
 10
800.12619469766128
 20
-1512.4520821642823
 42
-0.0255528488279276
 10
800.223641376459
 20
-1512.6041092185176
 10
800.22597247637464
 20
-1512.6081908301244
 42
-0.0252146793224598
 10
800.31175350238402
 20
-1512.777693076122
 10
800.31405574154132
 20
-1512.7828751580341
 42
-0.0244265635954435
 10
800.38671043530212
 20
-1512.9706217300788
 10
800.39595683677112
 20
-1512.9984871484182
 42
-0.023131961289162
 10
800.44187961576324
 20
-1513.1617881952202
 42
-0.0112130424360438
 10
800.47651563830141
 20
-1513.3279917954078
 10
800.47771816341401
 20
-1513.3344883822961
 42
-0.0210527881237386
 10
800.50340463878467
 20
-1513.5155440277358
 10
800.50691523360661
 20
-1513.5509495762847
 42
-0.0190029892428952
 10
800.52235670715129
 20
-1513.8044854225577
 10
800.52316668359526
 20
-1513.8399610369261
 42
-0.0137974553667074
 10
800.52161783076008
 20
-1514.164992443647
 10
800.52077237580409
 20
-1514.1911111882532
 42
-0.008133663421747
 10
800.50591304058162
 20
-1514.4964586558515
 42
-0.0073526923572517
 10
800.48160450720695
 20
-1514.8012069001377
 10
800.48034308342426
 20
-1514.8145435748027
 42
-0.0066886138696934
 10
800.44460749737834
 20
-1515.1451296182943
 10
800.4429504079078
 20
-1515.1587512372912
 42
-0.0061359187358163
 10
800.39509980585626
 20
-1515.5155152173959
 10
800.39306230478405
 20
-1515.5294100202204
 42
-0.005669861006646
 10
800.33241197401844
 20
-1515.9126885890507
 10
800.33000654069406
 20
-1515.9268477082892
 42
-0.0052721077273509
 10
800.25587433989506
 20
-1516.3369750479633
 10
800.25311119105265
 20
-1516.3513916833531
 42
-0.0049289272173504
 10
800.1648170729502
 20
-1516.7887001944869
 10
800.16170457827002
 20
-1516.8033690472914
 42
-0.004741595671684
 10
800.05846658674011
 20
-1517.2681658046915
 10
800.02369837637798
 20
-1517.4179729000853
 42
-0.0084404470903758
 10
799.83368193280785
 20
-1518.1781969246099
 10
799.82755524482047
 20
-1518.2010610487698
 42
-0.0039635940255366
 10
799.60610156052951
 20
-1519.0020499130419
 10
799.59272476535693
 20
-1519.0489815296091
 42
-0.0072475040837069
 10
799.32527787749382
 20
-1519.9382012459992
 10
799.25506555066374
 20
-1520.1599415959799
 42
-0.0051345458826221
 10
798.96830617860758
 20
-1521.0342667837824
 10
798.9467799118587
 20
-1521.0976930508575
 42
-0.0019150016604026
 10
798.69124650497338
 20
-1521.8412421711384
 10
798.68477890056954
 20
-1521.8598296360815
 42
-0.0021524362751366
 10
798.43630084951337
 20
-1522.5641554577678
 10
798.42709042881881
 20
-1522.5899090360642
 42
-0.0024331286817505
 10
798.19083516978094
 20
-1523.2405083441877
 10
798.18178721722904
 20
-1523.2650516505457
 42
-0.0027449721785745
 10
797.95717264639495
 20
-1523.8641815294664
 10
797.94828263901024
 20
-1523.8875041192989
 42
-0.0031083229768467
 10
797.73474015239276
 20
-1524.4374281568982
 10
797.72600402071225
 20
-1524.4595178727684
 42
-0.0035311343281716
 10
797.52296283512533
 20
-1524.9625009984861
 10
797.51437749597233
 20
-1524.9833437220095
 42
-0.0040245640948274
 10
797.32126569218326
 20
-1525.4416530445887
 10
797.31282957858662
 20
-1525.4612324126458
 42
-0.0046015135855609
 10
797.12907328541644
 20
-1525.8771374423031
 10
797.1207871075884
 20
-1525.8954345817547
 42
-0.0052768638272169
 10
796.94580958863253
 20
-1526.2712074660255
 10
796.93767737801204
 20
-1526.2882008045553
 42
-0.0060672675645588
 10
796.77089776523962
 20
-1526.626116427683
 10
796.76292828476153
 20
-1526.6417816866735
 42
-0.0069904648873251
 10
796.60375989075669
 20
-1526.944117493344
 10
796.59596849114496
 20
-1526.9584280425731
 42
-0.0080637022763273
 10
796.44381663080003
 20
-1527.2274633457243
 10
796.43622759816674
 20
-1527.2403912113284
 42
-0.0093006455664319
 10
796.29048692163724
 20
-1527.4784056098283
 10
796.28313625489409
 20
-1527.4899235790006
 42
-0.0107060778049623
 10
796.14318771145508
 20
-1527.6991938963804
 10
796.13612594317658
 20
-1527.7092794389446
 42
-0.0122723111415816
 10
796.00133222497743
 20
-1527.8920727684354
 10
796.00100600142332
 20
-1527.8924931562451
 42
-0.0141836319625768
 10
795.85742439844921
 20
-1528.0670629140745
 10
795.85047664280091
 20
-1528.0750379143351
 42
-0.0175957477210364
 10
795.71057047476256
 20
-1528.224658802744
 42
-0.0080466359666864
 10
795.5631067097263
 20
-1528.3669813309009
 10
795.51707216521493
 20
-1528.4100017689864
 42
-0.0269600260395639
 10
795.26379191923377
 20
-1528.6223250274943
 10
795.19722478293522
 20
-1528.6722764421193
 42
-0.0178362839755524
 10
794.95728029327915
 20
-1528.8392943683718
 10
794.9500353222752
 20
-1528.8439628805791
 42
-0.0174650732646939
 10
794.71369912483738
 20
-1528.9848238455359
 42
-0.0169240130160598
 10
794.46823287897723
 20
-1529.1091161053146
 10
794.42224672342195
 20
-1529.1304780608805
 42
-0.0318883036843561
 10
794.07189586780225
 20
-1529.2668163703904
 10
794.00353033263639
 20
-1529.2885169908664
 42
-0.0284435909898998
 10
793.62748020634615
 20
-1529.3847344263409
 10
793.59232204584418
 20
-1529.3916280221699
 42
-0.024390934100996
 10
793.27887858492863
 20
-1529.4373490531993
 10
793.22859785816081
 20
-1529.4421946001007
 42
-0.0196639292932566
 10
793.01300228063019
 20
-1529.4544428856145
 10
792.96117820946733
 20
-1529.4553461463513
 42
-0.0100501510682012
 10
792.84875492780247
 20
-1529.4550457479982
 10
792.81709506647553
 20
-1529.4543246761132
 42
-0.0019752031147752
 10
792.76800272977709
 20
-1529.4530125159031
 10
792.76524242655023
 20
-1529.4529278240766
 42
0.0065378751982986
 10
792.72166585180025
 20
-1529.4521609328619
 42
-0.0167974694629815
 10
792.67813502886986
 20
-1529.4505010343362
 10
792.67405568960635
 20
-1529.4502080234411
 42
-0.0081283276287918
 10
792.62249589187627
 20
-1529.4456610298039
 10
792.61075631798917
 20
-1529.4444331122247
 42
-0.0126703440171312
 10
792.53603802219538
 20
-1529.4346983211533
 10
792.51325015451903
 20
-1529.431140065238
 42
-0.0117852088434284
 10
792.39371116868824
 20
-1529.4095770700812
 10
792.33833071692356
 20
-1529.3982335298463
 42
-0.0251774592296798
 10
792.11148667791565
 20
-1529.3397355204131
 10
792.06676748805785
 20
-1529.3257687010757
 42
-0.014652519988869
 10
791.88037450052616
 20
-1529.2615021738798
 42
-0.0166929435857314
 10
791.69839684439887
 20
-1529.1856950408251
 10
791.69374021312638
 20
-1529.1835701402113
 42
-0.0191684358435528
 10
791.50855658188004
 20
-1529.090334056423
 10
791.50522399612009
 20
-1529.0884928088681
 42
-0.0221181781806581
 10
791.32191369221619
 20
-1528.976359310496
 10
791.31956388820947
 20
-1528.9747750125061
 42
-0.0254984685377415
 10
791.14327373782351
 20
-1528.8423638625361
 10
791.12079159012228
 20
-1528.8236115536004
 42
-0.0292492648805753
 10
790.99602265127919
 20
-1528.7065187539572
 42
-0.0159048957503665
 10
790.88218265383034
 20
-1528.5784987623595
 10
790.88086386324971
 20
-1528.576917149338
 42
-0.0343813379564695
 10
790.77822660162394
 20
-1528.4350458235692
 10
790.7467350702625
 20
-1528.3845424314741
 42
-0.0369117275701288
 10
790.66084256836541
 20
-1528.2210651905261
 42
-0.0191751379907074
 10
790.59364918280801
 20
-1528.048660584519
 10
790.59188585904894
 20
-1528.0435672398453
 42
-0.037817804224055
 10
790.54209114026492
 20
-1527.8546264637653
 10
790.53609584453386
 20
-1527.8220658455643
 42
-0.0184846046454993
 10
790.51537864523993
 20
-1527.6803130250221
 42
-0.0179866351323912
 10
790.50504564016649
 20
-1527.5374222119449
 10
790.50498919772053
 20
-1527.5358645253284
 42
-0.0085497186139007
 10
790.50355691661673
 20
-1527.4609913603185
 42
-0.0085497186139007
  0
ENDBLK
  5
62
100
AcDbEntity
  8
template
390
0
100
AcDbBlockEnd
  0
BLOCK
  5
63
100
AcDbEntity
  8
注釈
390
0
100
AcDbBlockBegin
  2
*D3
 70
               1
 10
0.0
 20
0.0
 30
0.0
  3
*D3
  1

  0
LINE
  5
64
100
AcDbEntity
  8
0
370
              -2
390
0
  6
Continuous
 62
               0
100
AcDbLine
 10
-209.06795576879972
 20
434.64776192230818
 30
0.0
 11
-209.06795576879972
 21
179.62770562493392
 31
0.0
  0
LINE
  5
65
100
AcDbEntity
  8
0
370
              -2
390
0
  6
Continuous
 62
               0
100
AcDbLine
 10
-669.1109950829167
 20
434.62770097176963
 30
0.0
 11
-669.1109950829167
 21
179.62770562493392
 31
0.0
  0
LINE
  5
66
100
AcDbEntity
  8
0
370
              -2
390
0
  6
Continuous
 62
               0
100
AcDbLine
 10
-209.06795576879972
 20
179.62770562493392
 30
0.0
 11
-669.1109950829167
 21
179.62770562493392
 31
0.0
  0
CIRCLE
  5
67
102
{ACAD_REACTORS
330
68
102
}
100
AcDbEntity
  8
0
370
              -2
390
0
  6
Continuous
 62
               0
100
AcDbCircle
 10
-209.06795576879972
 20
179.62770562493392
 30
0.0
 40
1.9998779296875
  0
HATCH
  5
68
100
AcDbEntity
  8
0
370
              -2
390
0
  6
Continuous
 62
               0
100
AcDbHatch
 10
0.0
 20
0.0
 30
0.0
210
0.0
220
0.0
230
1.0
  2
SOLID
 70
               1
 71
               1
 91
        1
 92
        1
 93
        1
 72
               2
 10
-209.06795576879972
 20
179.62770562493392
 40
1.9998779296875
 50
0.0
 51
360.0
 73
               0
 97
        1
330
67
 75
               0
 76
               1
 98
        1
 10
0.0
 20
0.0
  0
CIRCLE
  5
69
102
{ACAD_REACTORS
330
6A
102
}
100
AcDbEntity
  8
0
370
              -2
390
0
  6
Continuous
 62
               0
100
AcDbCircle
 10
-669.1109950829167
 20
179.62770562493392
 30
0.0
 40
1.9998779296875
  0
HATCH
  5
6A
100
AcDbEntity
  8
0
370
              -2
390
0
  6
Continuous
 62
               0
100
AcDbHatch
 10
0.0
 20
0.0
 30
0.0
210
0.0
220
0.0
230
1.0
  2
SOLID
 70
               1
 71
               1
 91
        1
 92
        1
 93
        1
 72
               2
 10
-669.1109950829167
 20
179.62770562493392
 40
1.9998779296875
 50
0.0
 51
360.0
 73
               0
 97
        1
330
69
 75
               0
 76
               1
 98
        1
 10
0.0
 20
0.0
  0
MTEXT
  5
6B
100
AcDbEntity
  8
0
390
0
 62
               0
100
AcDbMText
 10
-462.90197710803363
 20
213.50532281243392
 30
0.0
 40
24.432617187500004
 41
0.0
 71
               1
 72
               1
  1
460
  7
ＭＳ ゴシック
 73
               1
 44
0.7828267384257843
  0
POINT
  5
6C
100
AcDbEntity
  8
Defpoints
370
               0
390
0
 62
               0
100
AcDbPoint
 10
-669.1109950829167
 20
459.62770097176963
 30
0.0
  0
POINT
  5
6D
100
AcDbEntity
  8
Defpoints
370
               0
390
0
 62
               0
100
AcDbPoint
 10
-209.06795576879972
 20
459.64776192230818
 30
0.0
  0
POINT
  5
6E
100
AcDbEntity
  8
Defpoints
370
               0
390
0
 62
               0
100
AcDbPoint
 10
-209.06795576879972
 20
179.62770562493392
 30
0.0
  0
ENDBLK
  5
6F
100
AcDbEntity
  8
注釈
390
0
100
AcDbBlockEnd
  0
BLOCK
  5
70
100
AcDbEntity
  8
注釈
390
0
100
AcDbBlockBegin
  2
*D4
 70
               1
 10
0.0
 20
0.0
 30
0.0
  3
*D4
  1

  0
LINE
  5
71
100
AcDbEntity
  8
0
370
              -2
390
0
  6
Continuous
 62
               0
100
AcDbLine
 10
-254.08801206617443
 20
-506.2944969117803
 30
0.0
 11
-66.588012066174414
 21
-506.2944969117803
 31
0.0
  0
LINE
  5
72
100
AcDbEntity
  8
0
370
              -2
390
0
  6
Continuous
 62
               0
100
AcDbLine
 10
-191.26192510965228
 20
-436.29449691178121
 30
0.0
 11
-66.588012066174414
 21
-436.29449691178121
 31
0.0
  0
LINE
  5
73
100
AcDbEntity
  8
0
370
              -2
390
0
  6
Continuous
 62
               0
100
AcDbLine
 10
-66.588012066174414
 20
-506.2944969117803
 30
0.0
 11
-66.588012066174414
 21
-436.29449691178121
 31
0.0
  0
CIRCLE
  5
74
102
{ACAD_REACTORS
330
75
102
}
100
AcDbEntity
  8
0
370
              -2
390
0
  6
Continuous
 62
               0
100
AcDbCircle
 10
-66.588012066174414
 20
-506.2944969117803
 30
0.0
 40
1.9998779296875
  0
HATCH
  5
75
100
AcDbEntity
  8
0
370
              -2
390
0
  6
Continuous
 62
               0
100
AcDbHatch
 10
0.0
 20
0.0
 30
0.0
210
0.0
220
0.0
230
1.0
  2
SOLID
 70
               1
 71
               1
 91
        1
 92
        1
 93
        1
 72
               2
 10
-66.588012066174414
 20
-506.2944969117803
 40
1.9998779296875
 50
0.0
 51
360.0
 73
               0
 97
        1
330
74
 75
               0
 76
               1
 98
        1
 10
0.0
 20
0.0
  0
CIRCLE
  5
76
102
{ACAD_REACTORS
330
77
102
}
100
AcDbEntity
  8
0
370
              -2
390
0
  6
Continuous
 62
               0
100
AcDbCircle
 10
-66.588012066174414
 20
-436.29449691178121
 30
0.0
 40
1.9998779296875
  0
HATCH
  5
77
100
AcDbEntity
  8
0
370
              -2
390
0
  6
Continuous
 62
               0
100
AcDbHatch
 10
0.0
 20
0.0
 30
0.0
210
0.0
220
0.0
230
1.0
  2
SOLID
 70
               1
 71
               1
 91
        1
 92
        1
 93
        1
 72
               2
 10
-66.588012066174414
 20
-436.29449691178121
 40
1.9998779296875
 50
0.0
 51
360.0
 73
               0
 97
        1
330
76
 75
               0
 76
               1
 98
        1
 10
0.0
 20
0.0
  0
MTEXT
  5
78
100
AcDbEntity
  8
0
390
0
 62
               0
100
AcDbMText
 10
-100.46562925367441
 20
-487.16949691178075
 30
0.0
 40
24.432617187500004
 41
0.0
 71
               1
 72
               1
  1
70
  7
ＭＳ ゴシック
 11
0.0
 21
1.0
 31
0.0
 73
               1
 44
0.7828267384257843
  0
POINT
  5
79
100
AcDbEntity
  8
Defpoints
370
               0
390
0
 62
               0
100
AcDbPoint
 10
-216.26192510965228
 20
-436.29449691178121
 30
0.0
  0
POINT
  5
7A
100
AcDbEntity
  8
Defpoints
370
               0
390
0
 62
               0
100
AcDbPoint
 10
-279.08801206617443
 20
-506.2944969117803
 30
0.0
  0
POINT
  5
7B
100
AcDbEntity
  8
Defpoints
370
               0
390
0
 62
               0
100
AcDbPoint
 10
-66.588012066174414
 20
-506.2944969117803
 30
0.0
  0
ENDBLK
  5
7C
100
AcDbEntity
  8
注釈
390
0
100
AcDbBlockEnd
  0
BLOCK
  5
7D
100
AcDbEntity
  8
注釈
390
0
100
AcDbBlockBegin
  2
*D5
 70
               1
 10
0.0
 20
0.0
 30
0.0
  3
*D5
  1

  0
LINE
  5
7E
100
AcDbEntity
  8
0
370
              -2
390
0
  6
Continuous
 62
               0
100
AcDbLine
 10
-329.0880120661746
 20
-686.29449691178024
 30
0.0
 11
-329.0880120661746
 21
-761.29449691178024
 31
0.0
  0
LINE
  5
7F
100
AcDbEntity
  8
0
370
              -2
390
0
  6
Continuous
 62
               0
100
AcDbLine
 10
-549.08801206617261
 20
-686.29449691178024
 30
0.0
 11
-549.08801206617261
 21
-761.29449691178024
 31
0.0
  0
LINE
  5
80
100
AcDbEntity
  8
0
370
              -2
390
0
  6
Continuous
 62
               0
100
AcDbLine
 10
-329.0880120661746
 20
-761.29449691178024
 30
0.0
 11
-549.08801206617261
 21
-761.29449691178024
 31
0.0
  0
CIRCLE
  5
81
102
{ACAD_REACTORS
330
82
102
}
100
AcDbEntity
  8
0
370
              -2
390
0
  6
Continuous
 62
               0
100
AcDbCircle
 10
-329.0880120661746
 20
-761.29449691178024
 30
0.0
 40
1.9998779296875
  0
HATCH
  5
82
100
AcDbEntity
  8
0
370
              -2
390
0
  6
Continuous
 62
               0
100
AcDbHatch
 10
0.0
 20
0.0
 30
0.0
210
0.0
220
0.0
230
1.0
  2
SOLID
 70
               1
 71
               1
 91
        1
 92
        1
 93
        1
 72
               2
 10
-329.0880120661746
 20
-761.29449691178024
 40
1.9998779296875
 50
0.0
 51
360.0
 73
               0
 97
        1
330
81
 75
               0
 76
               1
 98
        1
 10
0.0
 20
0.0
  0
CIRCLE
  5
83
102
{ACAD_REACTORS
330
84
102
}
100
AcDbEntity
  8
0
370
              -2
390
0
  6
Continuous
 62
               0
100
AcDbCircle
 10
-549.08801206617261
 20
-761.29449691178024
 30
0.0
 40
1.9998779296875
  0
HATCH
  5
84
100
AcDbEntity
  8
0
370
              -2
390
0
  6
Continuous
 62
               0
100
AcDbHatch
 10
0.0
 20
0.0
 30
0.0
210
0.0
220
0.0
230
1.0
  2
SOLID
 70
               1
 71
               1
 91
        1
 92
        1
 93
        1
 72
               2
 10
-549.08801206617261
 20
-761.29449691178024
 40
1.9998779296875
 50
0.0
 51
360.0
 73
               0
 97
        1
330
83
 75
               0
 76
               1
 98
        1
 10
0.0
 20
0.0
  0
MTEXT
  5
85
100
AcDbEntity
  8
0
390
0
 62
               0
100
AcDbMText
 10
-462.90051374834911
 20
-727.41687972428031
 30
0.0
 40
24.432617187500004
 41
0.0
 71
               1
 72
               1
  1
220
  7
ＭＳ ゴシック
 73
               1
 44
0.7828267384257843
  0
POINT
  5
86
100
AcDbEntity
  8
Defpoints
370
               0
390
0
 62
               0
100
AcDbPoint
 10
-549.08801206617261
 20
-661.29449691178024
 30
0.0
  0
POINT
  5
87
100
AcDbEntity
  8
Defpoints
370
               0
390
0
 62
               0
100
AcDbPoint
 10
-329.0880120661746
 20
-661.29449691178024
 30
0.0
  0
POINT
  5
88
100
AcDbEntity
  8
Defpoints
370
               0
390
0
 62
               0
100
AcDbPoint
 10
-329.0880120661746
 20
-761.29449691178024
 30
0.0
  0
ENDBLK
  5
89
100
AcDbEntity
  8
注釈
390
0
100
AcDbBlockEnd
  0
BLOCK
  5
8A
100
AcDbEntity
  8
注釈
390
0
100
AcDbBlockBegin
  2
*D6
 70
               1
 10
0.0
 20
0.0
 30
0.0
  3
*D6
  1

  0
LINE
  5
8B
100
AcDbEntity
  8
0
370
              -2
390
0
  6
Continuous
 62
               0
100
AcDbLine
 10
722.35682737647426
 20
-436.29449691178121
 30
0.0
 11
797.23182737647426
 21
-436.29449691178121
 31
0.0
  0
LINE
  5
8C
100
AcDbEntity
  8
0
370
              -2
390
0
  6
Continuous
 62
               0
100
AcDbLine
 10
722.35682737647426
 20
-626.29449691178024
 30
0.0
 11
797.23182737647426
 21
-626.29449691178024
 31
0.0
  0
LINE
  5
8D
100
AcDbEntity
  8
0
370
              -2
390
0
  6
Continuous
 62
               0
100
AcDbLine
 10
797.23182737647426
 20
-436.29449691178121
 30
0.0
 11
797.23182737647426
 21
-626.29449691178024
 31
0.0
  0
CIRCLE
  5
8E
102
{ACAD_REACTORS
330
8F
102
}
100
AcDbEntity
  8
0
370
              -2
390
0
  6
Continuous
 62
               0
100
AcDbCircle
 10
797.23182737647426
 20
-436.29449691178121
 30
0.0
 40
1.9998779296875
  0
HATCH
  5
8F
100
AcDbEntity
  8
0
370
              -2
390
0
  6
Continuous
 62
               0
100
AcDbHatch
 10
0.0
 20
0.0
 30
0.0
210
0.0
220
0.0
230
1.0
  2
SOLID
 70
               1
 71
               1
 91
        1
 92
        1
 93
        1
 72
               2
 10
797.23182737647426
 20
-436.29449691178121
 40
1.9998779296875
 50
0.0
 51
360.0
 73
               0
 97
        1
330
8E
 75
               0
 76
               1
 98
        1
 10
0.0
 20
0.0
  0
CIRCLE
  5
90
102
{ACAD_REACTORS
330
91
102
}
100
AcDbEntity
  8
0
370
              -2
390
0
  6
Continuous
 62
               0
100
AcDbCircle
 10
797.23182737647426
 20
-626.29449691178024
 30
0.0
 40
1.9998779296875
  0
HATCH
  5
91
100
AcDbEntity
  8
0
370
              -2
390
0
  6
Continuous
 62
               0
100
AcDbHatch
 10
0.0
 20
0.0
 30
0.0
210
0.0
220
0.0
230
1.0
  2
SOLID
 70
               1
 71
               1
 91
        1
 92
        1
 93
        1
 72
               2
 10
797.23182737647426
 20
-626.29449691178024
 40
1.9998779296875
 50
0.0
 51
360.0
 73
               0
 97
        1
330
90
 75
               0
 76
               1
 98
        1
 10
0.0
 20
0.0
  0
MTEXT
  5
92
100
AcDbEntity
  8
0
390
0
 62
               0
100
AcDbMText
 10
763.35421018897421
 20
-555.10699859395618
 30
0.0
 40
24.432617187500004
 41
0.0
 71
               1
 72
               1
  1
190
  7
ＭＳ ゴシック
 11
0.0
 21
1.0
 31
0.0
 73
               1
 44
0.7828267384257843
  0
POINT
  5
93
100
AcDbEntity
  8
Defpoints
370
               0
390
0
 62
               0
100
AcDbPoint
 10
697.35682737647426
 20
-626.29449691178024
 30
0.0
  0
POINT
  5
94
100
AcDbEntity
  8
Defpoints
370
               0
390
0
 62
               0
100
AcDbPoint
 10
697.35682737647426
 20
-436.29449691178121
 30
0.0
  0
POINT
  5
95
100
AcDbEntity
  8
Defpoints
370
               0
390
0
 62
               0
100
AcDbPoint
 10
797.23182737647426
 20
-436.29449691178121
 30
0.0
  0
ENDBLK
  5
96
100
AcDbEntity
  8
注釈
390
0
100
AcDbBlockEnd
  0
BLOCK
  5
97
100
AcDbEntity
  8
注釈
390
0
100
AcDbBlockBegin
  2
*D7
 70
               1
 10
0.0
 20
0.0
 30
0.0
  3
*D7
  1

  0
LINE
  5
98
100
AcDbEntity
  8
0
370
              -2
390
0
  6
Continuous
 62
               0
100
AcDbLine
 10
722.35682737647426
 20
-626.29449691178024
 30
0.0
 11
797.10682737647426
 21
-626.29449691178024
 31
0.0
  0
LINE
  5
99
100
AcDbEntity
  8
0
370
              -2
390
0
  6
Continuous
 62
               0
100
AcDbLine
 10
442.35682737647249
 20
-661.29449691178024
 30
0.0
 11
797.10682737647426
 21
-661.29449691178024
 31
0.0
  0
LINE
  5
9A
100
AcDbEntity
  8
0
370
              -2
390
0
  6
Continuous
 62
               0
100
AcDbLine
 10
797.10682737647426
 20
-661.29449691178024
 30
0.0
 11
797.10682737647426
 21
-709.23041625696374
 31
0.0
  0
LINE
  5
9B
100
AcDbEntity
  8
0
370
              -2
390
0
  6
Continuous
 62
               0
100
AcDbLine
 10
797.10682737647426
 20
-626.29449691178024
 30
0.0
 11
797.10682737647426
 21
-661.29449691178024
 31
0.0
  0
CIRCLE
  5
9C
102
{ACAD_REACTORS
330
9D
102
}
100
AcDbEntity
  8
0
370
              -2
390
0
  6
Continuous
 62
               0
100
AcDbCircle
 10
797.10682737647426
 20
-626.29449691178024
 30
0.0
 40
1.9998779296875
  0
HATCH
  5
9D
100
AcDbEntity
  8
0
370
              -2
390
0
  6
Continuous
 62
               0
100
AcDbHatch
 10
0.0
 20
0.0
 30
0.0
210
0.0
220
0.0
230
1.0
  2
SOLID
 70
               1
 71
               1
 91
        1
 92
        1
 93
        1
 72
               2
 10
797.10682737647426
 20
-626.29449691178024
 40
1.9998779296875
 50
0.0
 51
360.0
 73
               0
 97
        1
330
9C
 75
               0
 76
               1
 98
        1
 10
0.0
 20
0.0
  0
CIRCLE
  5
9E
102
{ACAD_REACTORS
330
9F
102
}
100
AcDbEntity
  8
0
370
              -2
390
0
  6
Continuous
 62
               0
100
AcDbCircle
 10
797.10682737647426
 20
-661.29449691178024
 30
0.0
 40
1.9998779296875
  0
HATCH
  5
9F
100
AcDbEntity
  8
0
370
              -2
390
0
  6
Continuous
 62
               0
100
AcDbHatch
 10
0.0
 20
0.0
 30
0.0
210
0.0
220
0.0
230
1.0
  2
SOLID
 70
               1
 71
               1
 91
        1
 92
        1
 93
        1
 72
               2
 10
797.10682737647426
 20
-661.29449691178024
 40
1.9998779296875
 50
0.0
 51
360.0
 73
               0
 97
        1
330
9E
 75
               0
 76
               1
 98
        1
 10
0.0
 20
0.0
  0
MTEXT
  5
A0
100
AcDbEntity
  8
0
390
0
 62
               0
100
AcDbMText
 10
763.22921018897421
 20
-709.23041625696374
 30
0.0
 40
24.432617187500004
 41
0.0
 71
               1
 72
               1
  1
35
  7
ＭＳ ゴシック
 11
0.0
 21
1.0
 31
0.0
 73
               1
 44
0.7828267384257843
  0
POINT
  5
A1
100
AcDbEntity
  8
Defpoints
370
               0
390
0
 62
               0
100
AcDbPoint
 10
417.35682737647249
 20
-661.29449691178024
 30
0.0
  0
POINT
  5
A2
100
AcDbEntity
  8
Defpoints
370
               0
390
0
 62
               0
100
AcDbPoint
 10
697.35682737647426
 20
-626.29449691178024
 30
0.0
  0
POINT
  5
A3
100
AcDbEntity
  8
Defpoints
370
               0
390
0
 62
               0
100
AcDbPoint
 10
797.10682737647426
 20
-626.29449691178024
 30
0.0
  0
ENDBLK
  5
A4
100
AcDbEntity
  8
注釈
390
0
100
AcDbBlockEnd
  0
BLOCK
  5
A5
100
AcDbEntity
  8
注釈
390
0
100
AcDbBlockBegin
  2
*D8
 70
               1
 10
0.0
 20
0.0
 30
0.0
  3
*D8
  1

  0
LINE
  5
A6
100
AcDbEntity
  8
0
370
              -2
390
0
  6
Continuous
 62
               0
100
AcDbLine
 10
313.31935284732612
 20
-606.29449691178024
 30
0.0
 11
298.48601951399263
 21
-606.29449691178024
 31
0.0
  0
LINE
  5
A7
100
AcDbEntity
  8
0
370
              -2
390
0
  6
Continuous
 62
               0
100
AcDbLine
 10
313.31935284732612
 20
-431.29449691178121
 30
0.0
 11
298.48601951399263
 21
-431.29449691178121
 31
0.0
  0
LINE
  5
A8
100
AcDbEntity
  8
0
370
              -2
390
0
  6
Continuous
 62
               0
100
AcDbLine
 10
298.48601951399263
 20
-431.29449691178121
 30
0.0
 11
298.48601951399263
 21
-268.41949691178127
 31
0.0
  0
LINE
  5
A9
100
AcDbEntity
  8
0
370
              -2
390
0
  6
Continuous
 62
               0
100
AcDbLine
 10
298.48601951399263
 20
-606.29449691178024
 30
0.0
 11
298.48601951399263
 21
-431.29449691178121
 31
0.0
  0
CIRCLE
  5
AA
102
{ACAD_REACTORS
330
AB
102
}
100
AcDbEntity
  8
0
370
              -2
390
0
  6
Continuous
 62
               0
100
AcDbCircle
 10
298.48601951399263
 20
-606.29449691178024
 30
0.0
 40
1.9998779296875
  0
HATCH
  5
AB
100
AcDbEntity
  8
0
370
              -2
390
0
  6
Continuous
 62
               0
100
AcDbHatch
 10
0.0
 20
0.0
 30
0.0
210
0.0
220
0.0
230
1.0
  2
SOLID
 70
               1
 71
               1
 91
        1
 92
        1
 93
        1
 72
               2
 10
298.48601951399263
 20
-606.29449691178024
 40
1.9998779296875
 50
0.0
 51
360.0
 73
               0
 97
        1
330
AA
 75
               0
 76
               1
 98
        1
 10
0.0
 20
0.0
  0
CIRCLE
  5
AC
102
{ACAD_REACTORS
330
AD
102
}
100
AcDbEntity
  8
0
370
              -2
390
0
  6
Continuous
 62
               0
100
AcDbCircle
 10
298.48601951399263
 20
-431.29449691178121
 30
0.0
 40
1.9998779296875
  0
HATCH
  5
AD
100
AcDbEntity
  8
0
370
              -2
390
0
  6
Continuous
 62
               0
100
AcDbHatch
 10
0.0
 20
0.0
 30
0.0
210
0.0
220
0.0
230
1.0
  2
SOLID
 70
               1
 71
               1
 91
        1
 92
        1
 93
        1
 72
               2
 10
298.48601951399263
 20
-431.29449691178121
 40
1.9998779296875
 50
0.0
 51
360.0
 73
               0
 97
        1
330
AC
 75
               0
 76
               1
 98
        1
 10
0.0
 20
0.0
  0
MTEXT
  5
AE
100
AcDbEntity
  8
0
390
0
 62
               0
100
AcDbMText
 10
264.60840232649258
 20
-411.29449691178121
 30
0.0
 40
24.432617187500004
 41
0.0
 71
               1
 72
               1
  1
175(深さ)
  7
ＭＳ ゴシック
 11
0.0
 21
1.0
 31
0.0
 73
               1
 44
0.7828267384257843
  0
POINT
  5
AF
100
AcDbEntity
  8
Defpoints
370
               0
390
0
 62
               0
100
AcDbPoint
 10
288.31935284732612
 20
-431.29449691178121
 30
0.0
  0
POINT
  5
B0
100
AcDbEntity
  8
Defpoints
370
               0
390
0
 62
               0
100
AcDbPoint
 10
288.31935284732612
 20
-606.29449691178024
 30
0.0
  0
POINT
  5
B1
100
AcDbEntity
  8
Defpoints
370
               0
390
0
 62
               0
100
AcDbPoint
 10
298.48601951399263
 20
-606.29449691178024
 30
0.0
  0
ENDBLK
  5
B2
100
AcDbEntity
  8
注釈
390
0
100
AcDbBlockEnd
  0
BLOCK
  5
B3
100
AcDbEntity
  8
注釈
390
0
100
AcDbBlockBegin
  2
*D9
 70
               1
 10
0.0
 20
0.0
 30
0.0
  3
*D9
  1

  0
LINE
  5
B4
100
AcDbEntity
  8
0
370
              -2
390
0
  6
Continuous
 62
               0
100
AcDbLine
 10
722.35682737647426
 20
-436.29449691178121
 30
0.0
 11
797.23182737647426
 21
-436.29449691178121
 31
0.0
  0
LINE
  5
B5
100
AcDbEntity
  8
0
370
              -2
390
0
  6
Continuous
 62
               0
100
AcDbLine
 10
562.35682737647312
 20
-431.29449691178132
 30
0.0
 11
797.23182737647426
 21
-431.29449691178132
 31
0.0
  0
LINE
  5
B6
100
AcDbEntity
  8
0
370
              -2
390
0
  6
Continuous
 62
               0
100
AcDbLine
 10
797.23182737647426
 20
-431.29449691178132
 30
0.0
 11
797.23182737647426
 21
-407.6054162569647
 31
0.0
  0
LINE
  5
B7
100
AcDbEntity
  8
0
370
              -2
390
0
  6
Continuous
 62
               0
100
AcDbLine
 10
797.23182737647426
 20
-436.29449691178121
 30
0.0
 11
797.23182737647426
 21
-431.29449691178132
 31
0.0
  0
CIRCLE
  5
B8
102
{ACAD_REACTORS
330
B9
102
}
100
AcDbEntity
  8
0
370
              -2
390
0
  6
Continuous
 62
               0
100
AcDbCircle
 10
797.23182737647426
 20
-436.29449691178121
 30
0.0
 40
1.9998779296875
  0
HATCH
  5
B9
100
AcDbEntity
  8
0
370
              -2
390
0
  6
Continuous
 62
               0
100
AcDbHatch
 10
0.0
 20
0.0
 30
0.0
210
0.0
220
0.0
230
1.0
  2
SOLID
 70
               1
 71
               1
 91
        1
 92
        1
 93
        1
 72
               2
 10
797.23182737647426
 20
-436.29449691178121
 40
1.9998779296875
 50
0.0
 51
360.0
 73
               0
 97
        1
330
B8
 75
               0
 76
               1
 98
        1
 10
0.0
 20
0.0
  0
CIRCLE
  5
BA
102
{ACAD_REACTORS
330
BB
102
}
100
AcDbEntity
  8
0
370
              -2
390
0
  6
Continuous
 62
               0
100
AcDbCircle
 10
797.23182737647426
 20
-431.29449691178132
 30
0.0
 40
1.9998779296875
  0
HATCH
  5
BB
100
AcDbEntity
  8
0
370
              -2
390
0
  6
Continuous
 62
               0
100
AcDbHatch
 10
0.0
 20
0.0
 30
0.0
210
0.0
220
0.0
230
1.0
  2
SOLID
 70
               1
 71
               1
 91
        1
 92
        1
 93
        1
 72
               2
 10
797.23182737647426
 20
-431.29449691178132
 40
1.9998779296875
 50
0.0
 51
360.0
 73
               0
 97
        1
330
BA
 75
               0
 76
               1
 98
        1
 10
0.0
 20
0.0
  0
MTEXT
  5
BC
100
AcDbEntity
  8
0
390
0
 62
               0
100
AcDbMText
 10
763.35421018897421
 20
-423.4804162569647
 30
0.0
 40
24.432617187500004
 41
0.0
 71
               1
 72
               1
  1
5
  7
ＭＳ ゴシック
 11
0.0
 21
1.0
 31
0.0
 73
               1
 44
0.7828267384257843
  0
POINT
  5
BD
100
AcDbEntity
  8
Defpoints
370
               0
390
0
 62
               0
100
AcDbPoint
 10
537.35682737647312
 20
-431.29449691178132
 30
0.0
  0
POINT
  5
BE
100
AcDbEntity
  8
Defpoints
370
               0
390
0
 62
               0
100
AcDbPoint
 10
697.35682737647426
 20
-436.29449691178121
 30
0.0
  0
POINT
  5
BF
100
AcDbEntity
  8
Defpoints
370
               0
390
0
 62
               0
100
AcDbPoint
 10
797.23182737647426
 20
-436.29449691178121
 30
0.0
  0
ENDBLK
  5
C0
100
AcDbEntity
  8
注釈
390
0
100
AcDbBlockEnd
  0
BLOCK
  5
C1
100
AcDbEntity
  8
注釈
390
0
100
AcDbBlockBegin
  2
*D10
 70
               1
 10
0.0
 20
0.0
 30
0.0
  3
*D10
  1

  0
LINE
  5
C2
100
AcDbEntity
  8
0
370
              -2
390
0
  6
Continuous
 62
               0
100
AcDbLine
 10
562.35682737647312
 20
-431.29449691178132
 30
0.0
 11
847.35682737647312
 21
-431.29449691178132
 31
0.0
  0
LINE
  5
C3
100
AcDbEntity
  8
0
370
              -2
390
0
  6
Continuous
 62
               0
100
AcDbLine
 10
442.35682737647249
 20
-661.29449691178024
 30
0.0
 11
847.35682737647312
 21
-661.29449691178024
 31
0.0
  0
LINE
  5
C4
100
AcDbEntity
  8
0
370
              -2
390
0
  6
Continuous
 62
               0
100
AcDbLine
 10
847.35682737647312
 20
-431.29449691178132
 30
0.0
 11
847.35682737647312
 21
-661.29449691178024
 31
0.0
  0
CIRCLE
  5
C5
102
{ACAD_REACTORS
330
C6
102
}
100
AcDbEntity
  8
0
370
              -2
390
0
  6
Continuous
 62
               0
100
AcDbCircle
 10
847.35682737647312
 20
-431.29449691178132
 30
0.0
 40
1.9998779296875
  0
HATCH
  5
C6
100
AcDbEntity
  8
0
370
              -2
390
0
  6
Continuous
 62
               0
100
AcDbHatch
 10
0.0
 20
0.0
 30
0.0
210
0.0
220
0.0
230
1.0
  2
SOLID
 70
               1
 71
               1
 91
        1
 92
        1
 93
        1
 72
               2
 10
847.35682737647312
 20
-431.29449691178132
 40
1.9998779296875
 50
0.0
 51
360.0
 73
               0
 97
        1
330
C5
 75
               0
 76
               1
 98
        1
 10
0.0
 20
0.0
  0
CIRCLE
  5
C7
102
{ACAD_REACTORS
330
C8
102
}
100
AcDbEntity
  8
0
370
              -2
390
0
  6
Continuous
 62
               0
100
AcDbCircle
 10
847.35682737647312
 20
-661.29449691178024
 30
0.0
 40
1.9998779296875
  0
HATCH
  5
C8
100
AcDbEntity
  8
0
370
              -2
390
0
  6
Continuous
 62
               0
100
AcDbHatch
 10
0.0
 20
0.0
 30
0.0
210
0.0
220
0.0
230
1.0
  2
SOLID
 70
               1
 71
               1
 91
        1
 92
        1
 93
        1
 72
               2
 10
847.35682737647312
 20
-661.29449691178024
 40
1.9998779296875
 50
0.0
 51
360.0
 73
               0
 97
        1
330
C7
 75
               0
 76
               1
 98
        1
 10
0.0
 20
0.0
  0
MTEXT
  5
C9
100
AcDbEntity
  8
0
390
0
 62
               0
100
AcDbMText
 10
813.47921018897307
 20
-570.10699859395618
 30
0.0
 40
24.432617187500004
 41
0.0
 71
               1
 72
               1
  1
230
  7
ＭＳ ゴシック
 11
0.0
 21
1.0
 31
0.0
 73
               1
 44
0.7828267384257843
  0
POINT
  5
CA
100
AcDbEntity
  8
Defpoints
370
               0
390
0
 62
               0
100
AcDbPoint
 10
417.35682737647249
 20
-661.29449691178024
 30
0.0
  0
POINT
  5
CB
100
AcDbEntity
  8
Defpoints
370
               0
390
0
 62
               0
100
AcDbPoint
 10
537.35682737647312
 20
-431.29449691178132
 30
0.0
  0
POINT
  5
CC
100
AcDbEntity
  8
Defpoints
370
               0
390
0
 62
               0
100
AcDbPoint
 10
847.35682737647312
 20
-431.29449691178132
 30
0.0
  0
ENDBLK
  5
CD
100
AcDbEntity
  8
注釈
390
0
100
AcDbBlockEnd
  0
BLOCK
  5
CE
100
AcDbEntity
  8
注釈
390
0
100
AcDbBlockBegin
  2
*D11
 70
               1
 10
0.0
 20
0.0
 30
0.0
  3
*D11
  1

  0
LINE
  5
CF
100
AcDbEntity
  8
0
370
              -2
390
0
  6
Continuous
 62
               0
100
AcDbLine
 10
-629.0880120661725
 20
734.62770562493597
 30
0.0
 11
-629.0880120661725
 21
999.62770562493597
 31
0.0
  0
LINE
  5
D0
100
AcDbEntity
  8
0
370
              -2
390
0
  6
Continuous
 62
               0
100
AcDbLine
 10
-249.08801206617426
 20
734.62770562493597
 30
0.0
 11
-249.08801206617426
 21
999.62770562493597
 31
0.0
  0
LINE
  5
D1
100
AcDbEntity
  8
0
370
              -2
390
0
  6
Continuous
 62
               0
100
AcDbLine
 10
-629.0880120661725
 20
999.62770562493597
 30
0.0
 11
-249.08801206617426
 21
999.62770562493597
 31
0.0
  0
CIRCLE
  5
D2
102
{ACAD_REACTORS
330
D3
102
}
100
AcDbEntity
  8
0
370
              -2
390
0
  6
Continuous
 62
               0
100
AcDbCircle
 10
-629.0880120661725
 20
999.62770562493597
 30
0.0
 40
1.9998779296875
  0
HATCH
  5
D3
100
AcDbEntity
  8
0
370
              -2
390
0
  6
Continuous
 62
               0
100
AcDbHatch
 10
0.0
 20
0.0
 30
0.0
210
0.0
220
0.0
230
1.0
  2
SOLID
 70
               1
 71
               1
 91
        1
 92
        1
 93
        1
 72
               2
 10
-629.0880120661725
 20
999.62770562493597
 40
1.9998779296875
 50
0.0
 51
360.0
 73
               0
 97
        1
330
D2
 75
               0
 76
               1
 98
        1
 10
0.0
 20
0.0
  0
CIRCLE
  5
D4
102
{ACAD_REACTORS
330
D5
102
}
100
AcDbEntity
  8
0
370
              -2
390
0
  6
Continuous
 62
               0
100
AcDbCircle
 10
-249.08801206617426
 20
999.62770562493597
 30
0.0
 40
1.9998779296875
  0
HATCH
  5
D5
100
AcDbEntity
  8
0
370
              -2
390
0
  6
Continuous
 62
               0
100
AcDbHatch
 10
0.0
 20
0.0
 30
0.0
210
0.0
220
0.0
230
1.0
  2
SOLID
 70
               1
 71
               1
 91
        1
 92
        1
 93
        1
 72
               2
 10
-249.08801206617426
 20
999.62770562493597
 40
1.9998779296875
 50
0.0
 51
360.0
 73
               0
 97
        1
330
D4
 75
               0
 76
               1
 98
        1
 10
0.0
 20
0.0
  0
MTEXT
  5
D6
100
AcDbEntity
  8
0
390
0
 62
               0
100
AcDbMText
 10
-462.90051374834889
 20
1033.5053228124361
 30
0.0
 40
24.432617187500004
 41
0.0
 71
               1
 72
               1
  1
380
  7
ＭＳ ゴシック
 73
               1
 44
0.7828267384257843
  0
POINT
  5
D7
100
AcDbEntity
  8
Defpoints
370
               0
390
0
 62
               0
100
AcDbPoint
 10
-249.08801206617426
 20
709.62770562493597
 30
0.0
  0
POINT
  5
D8
100
AcDbEntity
  8
Defpoints
370
               0
390
0
 62
               0
100
AcDbPoint
 10
-629.0880120661725
 20
709.62770562493597
 30
0.0
  0
POINT
  5
D9
100
AcDbEntity
  8
Defpoints
370
               0
390
0
 62
               0
100
AcDbPoint
 10
-629.0880120661725
 20
999.62770562493597
 30
0.0
  0
ENDBLK
  5
DA
100
AcDbEntity
  8
注釈
390
0
100
AcDbBlockEnd
  0
BLOCK
  5
DB
100
AcDbEntity
  8
注釈
390
0
100
AcDbBlockBegin
  2
*D12
 70
               1
 10
0.0
 20
0.0
 30
0.0
  3
*D12
  1

  0
LINE
  5
DC
100
AcDbEntity
  8
0
370
              -2
390
0
  6
Continuous
 62
               0
100
AcDbLine
 10
-464.08801206617409
 20
899.62770562493597
 30
0.0
 11
-739.0
 21
899.62770562493597
 31
0.0
  0
LINE
  5
DD
100
AcDbEntity
  8
0
370
              -2
390
0
  6
Continuous
 62
               0
100
AcDbLine
 10
-439.08801206617443
 20
279.62770562493489
 30
0.0
 11
-739.0
 21
279.62770562493489
 31
0.0
  0
LINE
  5
DE
100
AcDbEntity
  8
0
370
              -2
390
0
  6
Continuous
 62
               0
100
AcDbLine
 10
-739.0
 20
899.62770562493597
 30
0.0
 11
-739.0
 21
279.62770562493489
 31
0.0
  0
CIRCLE
  5
DF
102
{ACAD_REACTORS
330
E0
102
}
100
AcDbEntity
  8
0
370
              -2
390
0
  6
Continuous
 62
               0
100
AcDbCircle
 10
-739.0
 20
899.62770562493597
 30
0.0
 40
1.9998779296875
  0
HATCH
  5
E0
100
AcDbEntity
  8
0
370
              -2
390
0
  6
Continuous
 62
               0
100
AcDbHatch
 10
0.0
 20
0.0
 30
0.0
210
0.0
220
0.0
230
1.0
  2
SOLID
 70
               1
 71
               1
 91
        1
 92
        1
 93
        1
 72
               2
 10
-739.0
 20
899.62770562493597
 40
1.9998779296875
 50
0.0
 51
360.0
 73
               0
 97
        1
330
DF
 75
               0
 76
               1
 98
        1
 10
0.0
 20
0.0
  0
CIRCLE
  5
E1
102
{ACAD_REACTORS
330
E2
102
}
100
AcDbEntity
  8
0
370
              -2
390
0
  6
Continuous
 62
               0
100
AcDbCircle
 10
-739.0
 20
279.62770562493489
 30
0.0
 40
1.9998779296875
  0
HATCH
  5
E2
100
AcDbEntity
  8
0
370
              -2
390
0
  6
Continuous
 62
               0
100
AcDbHatch
 10
0.0
 20
0.0
 30
0.0
210
0.0
220
0.0
230
1.0
  2
SOLID
 70
               1
 71
               1
 91
        1
 92
        1
 93
        1
 72
               2
 10
-739.0
 20
279.62770562493489
 40
1.9998779296875
 50
0.0
 51
360.0
 73
               0
 97
        1
330
E1
 75
               0
 76
               1
 98
        1
 10
0.0
 20
0.0
  0
MTEXT
  5
E3
100
AcDbEntity
  8
0
390
0
 62
               0
100
AcDbMText
 10
-772.87761718750005
 20
542.00270226058433
 30
0.0
 40
24.432617187500004
 41
0.0
 71
               1
 72
               1
  1
620
  7
ＭＳ ゴシック
 11
0.0
 21
1.0
 31
0.0
 73
               1
 44
0.7828267384257843
  0
POINT
  5
E4
100
AcDbEntity
  8
Defpoints
370
               0
390
0
 62
               0
100
AcDbPoint
 10
-414.08801206617443
 20
279.62770562493489
 30
0.0
  0
POINT
  5
E5
100
AcDbEntity
  8
Defpoints
370
               0
390
0
 62
               0
100
AcDbPoint
 10
-439.08801206617409
 20
899.62770562493597
 30
0.0
  0
POINT
  5
E6
100
AcDbEntity
  8
Defpoints
370
               0
390
0
 62
               0
100
AcDbPoint
 10
-739.0
 20
899.62770562493597
 30
0.0
  0
ENDBLK
  5
E7
100
AcDbEntity
  8
注釈
390
0
100
AcDbBlockEnd
  0
BLOCK
  5
E8
100
AcDbEntity
  8
注釈
390
0
100
AcDbBlockBegin
  2
*D13
 70
               1
 10
0.0
 20
0.0
 30
0.0
  3
*D13
  1

  0
LINE
  5
E9
100
AcDbEntity
  8
0
370
              -2
390
0
  6
Continuous
 62
               0
100
AcDbLine
 10
697.35682737647426
 20
-421.2944969117811
 30
0.0
 11
697.35682737647426
 21
-331.2944969117811
 31
0.0
  0
LINE
  5
EA
100
AcDbEntity
  8
0
370
              -2
390
0
  6
Continuous
 62
               0
100
AcDbLine
 10
587.3568273764738
 20
-421.2944969117811
 30
0.0
 11
587.3568273764738
 21
-331.2944969117811
 31
0.0
  0
LINE
  5
EB
100
AcDbEntity
  8
0
370
              -2
390
0
  6
Continuous
 62
               0
100
AcDbLine
 10
697.35682737647426
 20
-331.2944969117811
 30
0.0
 11
587.3568273764738
 21
-331.2944969117811
 31
0.0
  0
CIRCLE
  5
EC
102
{ACAD_REACTORS
330
ED
102
}
100
AcDbEntity
  8
0
370
              -2
390
0
  6
Continuous
 62
               0
100
AcDbCircle
 10
697.35682737647426
 20
-331.2944969117811
 30
0.0
 40
1.9998779296875
  0
HATCH
  5
ED
100
AcDbEntity
  8
0
370
              -2
390
0
  6
Continuous
 62
               0
100
AcDbHatch
 10
0.0
 20
0.0
 30
0.0
210
0.0
220
0.0
230
1.0
  2
SOLID
 70
               1
 71
               1
 91
        1
 92
        1
 93
        1
 72
               2
 10
697.35682737647426
 20
-331.2944969117811
 40
1.9998779296875
 50
0.0
 51
360.0
 73
               0
 97
        1
330
EC
 75
               0
 76
               1
 98
        1
 10
0.0
 20
0.0
  0
CIRCLE
  5
EE
102
{ACAD_REACTORS
330
EF
102
}
100
AcDbEntity
  8
0
370
              -2
390
0
  6
Continuous
 62
               0
100
AcDbCircle
 10
587.3568273764738
 20
-331.2944969117811
 30
0.0
 40
1.9998779296875
  0
HATCH
  5
EF
100
AcDbEntity
  8
0
370
              -2
390
0
  6
Continuous
 62
               0
100
AcDbHatch
 10
0.0
 20
0.0
 30
0.0
210
0.0
220
0.0
230
1.0
  2
SOLID
 70
               1
 71
               1
 91
        1
 92
        1
 93
        1
 72
               2
 10
587.3568273764738
 20
-331.2944969117811
 40
1.9998779296875
 50
0.0
 51
360.0
 73
               0
 97
        1
330
EE
 75
               0
 76
               1
 98
        1
 10
0.0
 20
0.0
  0
MTEXT
  5
F0
100
AcDbEntity
  8
0
390
0
 62
               0
100
AcDbMText
 10
618.54432569429855
 20
-297.4168797242811
 30
0.0
 40
24.432617187500004
 41
0.0
 71
               1
 72
               1
  1
110
  7
ＭＳ ゴシック
 73
               1
 44
0.7828267384257843
  0
POINT
  5
F1
100
AcDbEntity
  8
Defpoints
370
               0
390
0
 62
               0
100
AcDbPoint
 10
587.3568273764738
 20
-446.2944969117811
 30
0.0
  0
POINT
  5
F2
100
AcDbEntity
  8
Defpoints
370
               0
390
0
 62
               0
100
AcDbPoint
 10
697.35682737647426
 20
-446.2944969117811
 30
0.0
  0
POINT
  5
F3
100
AcDbEntity
  8
Defpoints
370
               0
390
0
 62
               0
100
AcDbPoint
 10
697.35682737647426
 20
-331.2944969117811
 30
0.0
  0
ENDBLK
  5
F4
100
AcDbEntity
  8
注釈
390
0
100
AcDbBlockEnd
  0
BLOCK
  5
F5
100
AcDbEntity
  8
注釈
390
0
100
AcDbBlockBegin
  2
*D14
 70
               1
 10
0.0
 20
0.0
 30
0.0
  3
*D14
  1

  0
LINE
  5
F6
100
AcDbEntity
  8
0
370
              -2
390
0
  6
Continuous
 62
               0
100
AcDbLine
 10
697.35682737647426
 20
-661.29449691178024
 30
0.0
 11
697.35682737647426
 21
-761.29449691178024
 31
0.0
  0
LINE
  5
F7
100
AcDbEntity
  8
0
370
              -2
390
0
  6
Continuous
 62
               0
100
AcDbLine
 10
307.35682737647289
 20
-686.29449691178024
 30
0.0
 11
307.35682737647289
 21
-761.29449691178024
 31
0.0
  0
LINE
  5
F8
100
AcDbEntity
  8
0
370
              -2
390
0
  6
Continuous
 62
               0
100
AcDbLine
 10
697.35682737647426
 20
-761.29449691178024
 30
0.0
 11
307.35682737647289
 21
-761.29449691178024
 31
0.0
  0
CIRCLE
  5
F9
102
{ACAD_REACTORS
330
FA
102
}
100
AcDbEntity
  8
0
370
              -2
390
0
  6
Continuous
 62
               0
100
AcDbCircle
 10
697.35682737647426
 20
-761.29449691178024
 30
0.0
 40
1.9998779296875
  0
HATCH
  5
FA
100
AcDbEntity
  8
0
370
              -2
390
0
  6
Continuous
 62
               0
100
AcDbHatch
 10
0.0
 20
0.0
 30
0.0
210
0.0
220
0.0
230
1.0
  2
SOLID
 70
               1
 71
               1
 91
        1
 92
        1
 93
        1
 72
               2
 10
697.35682737647426
 20
-761.29449691178024
 40
1.9998779296875
 50
0.0
 51
360.0
 73
               0
 97
        1
330
F9
 75
               0
 76
               1
 98
        1
 10
0.0
 20
0.0
  0
CIRCLE
  5
FB
102
{ACAD_REACTORS
330
FC
102
}
100
AcDbEntity
  8
0
370
              -2
390
0
  6
Continuous
 62
               0
100
AcDbCircle
 10
307.35682737647289
 20
-761.29449691178024
 30
0.0
 40
1.9998779296875
  0
HATCH
  5
FC
100
AcDbEntity
  8
0
370
              -2
390
0
  6
Continuous
 62
               0
100
AcDbHatch
 10
0.0
 20
0.0
 30
0.0
210
0.0
220
0.0
230
1.0
  2
SOLID
 70
               1
 71
               1
 91
        1
 92
        1
 93
        1
 72
               2
 10
307.35682737647289
 20
-761.29449691178024
 40
1.9998779296875
 50
0.0
 51
360.0
 73
               0
 97
        1
330
FB
 75
               0
 76
               1
 98
        1
 10
0.0
 20
0.0
  0
MTEXT
  5
FD
100
AcDbEntity
  8
0
390
0
 62
               0
100
AcDbMText
 10
478.54432569429804
 20
-727.41687972428031
 30
0.0
 40
24.432617187500004
 41
0.0
 71
               1
 72
               1
  1
390
  7
ＭＳ ゴシック
 73
               1
 44
0.7828267384257843
  0
POINT
  5
FE
100
AcDbEntity
  8
Defpoints
370
               0
390
0
 62
               0
100
AcDbPoint
 10
307.35682737647289
 20
-661.29449691178024
 30
0.0
  0
POINT
  5
FF
100
AcDbEntity
  8
Defpoints
370
               0
390
0
 62
               0
100
AcDbPoint
 10
697.35682737647426
 20
-636.29449691178024
 30
0.0
  0
POINT
  5
100
100
AcDbEntity
  8
Defpoints
370
               0
390
0
 62
               0
100
AcDbPoint
 10
697.35682737647426
 20
-761.29449691178024
 30
0.0
  0
ENDBLK
  5
101
100
AcDbEntity
  8
注釈
390
0
100
AcDbBlockEnd
  0
BLOCK
  5
102
100
AcDbEntity
  8
注釈
390
0
100
AcDbBlockBegin
  2
*D15
 70
               1
 10
0.0
 20
0.0
 30
0.0
  3
*D15
  1

  0
LINE
  5
103
100
AcDbEntity
  8
0
370
              -2
390
0
  6
Continuous
 62
               0
100
AcDbLine
 10
-421.41034253651037
 20
917.30537515459969
 30
0.0
 11
-368.37733394751945
 21
970.33838374359084
 31
0.0
  0
LINE
  5
104
100
AcDbEntity
  8
0
370
              -2
390
0
  6
Continuous
 62
               0
100
AcDbLine
 10
-357.77073222972172
 20
853.66576484781058
 30
0.0
 11
-304.73772364073045
 21
906.69877343680173
 31
0.0
  0
LINE
  5
105
100
AcDbEntity
  8
0
370
              -2
390
0
  6
Continuous
 62
               0
100
AcDbLine
 10
-368.37733394751945
 20
970.33838374359084
 30
0.0
 11
-304.73772364073045
 21
906.69877343680173
 31
0.0
  0
CIRCLE
  5
106
102
{ACAD_REACTORS
330
107
102
}
100
AcDbEntity
  8
0
370
              -2
390
0
  6
Continuous
 62
               0
100
AcDbCircle
 10
-368.37733394751945
 20
970.33838374359084
 30
0.0
 40
1.9998779296875
  0
HATCH
  5
107
100
AcDbEntity
  8
0
370
              -2
390
0
  6
Continuous
 62
               0
100
AcDbHatch
 10
0.0
 20
0.0
 30
0.0
210
0.0
220
0.0
230
1.0
  2
SOLID
 70
               1
 71
               1
 91
        1
 92
        1
 93
        1
 72
               2
 10
-368.37733394751945
 20
970.33838374359084
 40
1.9998779296875
 50
0.0
 51
360.0
 73
               0
 97
        1
330
106
 75
               0
 76
               1
 98
        1
 10
0.0
 20
0.0
  0
CIRCLE
  5
108
102
{ACAD_REACTORS
330
109
102
}
100
AcDbEntity
  8
0
370
              -2
390
0
  6
Continuous
 62
               0
100
AcDbCircle
 10
-304.73772364073045
 20
906.69877343680173
 30
0.0
 40
1.9998779296875
  0
HATCH
  5
109
100
AcDbEntity
  8
0
370
              -2
390
0
  6
Continuous
 62
               0
100
AcDbHatch
 10
0.0
 20
0.0
 30
0.0
210
0.0
220
0.0
230
1.0
  2
SOLID
 70
               1
 71
               1
 91
        1
 92
        1
 93
        1
 72
               2
 10
-304.73772364073045
 20
906.69877343680173
 40
1.9998779296875
 50
0.0
 51
360.0
 73
               0
 97
        1
330
108
 75
               0
 76
               1
 98
        1
 10
0.0
 20
0.0
  0
MTEXT
  5
10A
100
AcDbEntity
  8
0
390
0
 62
               0
100
AcDbMText
 10
-323.8277561017382
 20
973.69899158525595
 30
0.0
 40
24.432617187500004
 41
0.0
 71
               1
 72
               1
  1
90
  7
ＭＳ ゴシック
 11
0.7071067811865474
 21
-0.7071067811865477
 31
0.0
 73
               1
 44
0.7828267384257843
  0
POINT
  5
10B
100
AcDbEntity
  8
Defpoints
370
               0
390
0
 62
               0
100
AcDbPoint
 10
-375.44840175938538
 20
835.98809531814686
 30
0.0
  0
POINT
  5
10C
100
AcDbEntity
  8
Defpoints
370
               0
390
0
 62
               0
100
AcDbPoint
 10
-439.08801206617409
 20
899.62770562493597
 30
0.0
  0
POINT
  5
10D
100
AcDbEntity
  8
Defpoints
370
               0
390
0
 62
               0
100
AcDbPoint
 10
-368.37733394751945
 20
970.33838374359084
 30
0.0
  0
ENDBLK
  5
10E
100
AcDbEntity
  8
注釈
390
0
100
AcDbBlockEnd
  0
BLOCK
  5
10F
100
AcDbEntity
  8
注釈
390
0
100
AcDbBlockBegin
  2
*D16
 70
               1
 10
0.0
 20
0.0
 30
0.0
  3
*D16
  1

  0
LINE
  5
110
100
AcDbEntity
  8
0
370
              -2
390
0
  6
Continuous
 62
               0
100
AcDbLine
 10
-357.77073222972172
 20
853.66576484781058
 30
0.0
 11
-304.73772364073062
 21
906.6987734368015
 31
0.0
  0
LINE
  5
111
100
AcDbEntity
  8
0
370
              -2
390
0
  6
Continuous
 62
               0
100
AcDbLine
 10
-287.06005411106696
 20
782.95508672915571
 30
0.0
 11
-234.02704552207587
 21
835.98809531814686
 31
0.0
  0
LINE
  5
112
100
AcDbEntity
  8
0
370
              -2
390
0
  6
Continuous
 62
               0
100
AcDbLine
 10
-304.73772364073062
 20
906.6987734368015
 30
0.0
 11
-234.02704552207587
 21
835.98809531814686
 31
0.0
  0
CIRCLE
  5
113
102
{ACAD_REACTORS
330
114
102
}
100
AcDbEntity
  8
0
370
              -2
390
0
  6
Continuous
 62
               0
100
AcDbCircle
 10
-304.73772364073062
 20
906.6987734368015
 30
0.0
 40
1.9998779296875
  0
HATCH
  5
114
100
AcDbEntity
  8
0
370
              -2
390
0
  6
Continuous
 62
               0
100
AcDbHatch
 10
0.0
 20
0.0
 30
0.0
210
0.0
220
0.0
230
1.0
  2
SOLID
 70
               1
 71
               1
 91
        1
 92
        1
 93
        1
 72
               2
 10
-304.73772364073062
 20
906.6987734368015
 40
1.9998779296875
 50
0.0
 51
360.0
 73
               0
 97
        1
330
113
 75
               0
 76
               1
 98
        1
 10
0.0
 20
0.0
  0
CIRCLE
  5
115
102
{ACAD_REACTORS
330
116
102
}
100
AcDbEntity
  8
0
370
              -2
390
0
  6
Continuous
 62
               0
100
AcDbCircle
 10
-234.02704552207587
 20
835.98809531814686
 30
0.0
 40
1.9998779296875
  0
HATCH
  5
116
100
AcDbEntity
  8
0
370
              -2
390
0
  6
Continuous
 62
               0
100
AcDbHatch
 10
0.0
 20
0.0
 30
0.0
210
0.0
220
0.0
230
1.0
  2
SOLID
 70
               1
 71
               1
 91
        1
 92
        1
 93
        1
 72
               2
 10
-234.02704552207587
 20
835.98809531814686
 40
1.9998779296875
 50
0.0
 51
360.0
 73
               0
 97
        1
330
115
 75
               0
 76
               1
 98
        1
 10
0.0
 20
0.0
  0
MTEXT
  5
117
100
AcDbEntity
  8
0
390
0
 62
               0
100
AcDbMText
 10
-262.26527315416246
 20
912.13650863767975
 30
0.0
 40
24.432617187500004
 41
0.0
 71
               1
 72
               1
  1
100
  7
ＭＳ ゴシック
 11
0.7071067811865474
 21
-0.7071067811865477
 31
0.0
 73
               1
 44
0.7828267384257843
  0
POINT
  5
118
100
AcDbEntity
  8
Defpoints
370
               0
390
0
 62
               0
100
AcDbPoint
 10
-304.73772364073062
 20
765.27741719949199
 30
0.0
  0
POINT
  5
119
100
AcDbEntity
  8
Defpoints
370
               0
390
0
 62
               0
100
AcDbPoint
 10
-375.44840175938538
 20
835.98809531814686
 30
0.0
  0
POINT
  5
11A
100
AcDbEntity
  8
Defpoints
370
               0
390
0
 62
               0
100
AcDbPoint
 10
-304.73772364073062
 20
906.6987734368015
 30
0.0
  0
ENDBLK
  5
11B
100
AcDbEntity
  8
注釈
390
0
100
AcDbBlockEnd
  0
BLOCK
  5
11C
100
AcDbEntity
  8
注釈
390
0
100
AcDbBlockBegin
  2
*D17
 70
               1
 10
0.0
 20
0.0
 30
0.0
  3
*D17
  1

  0
LINE
  5
11D
100
AcDbEntity
  8
0
370
              -2
390
0
  6
Continuous
 62
               0
100
AcDbLine
 10
-456.7656815958378
 20
917.30537515459969
 30
0.0
 11
-509.79869018482873
 21
970.33838374359084
 31
0.0
  0
LINE
  5
11E
100
AcDbEntity
  8
0
370
              -2
390
0
  6
Continuous
 62
               0
100
AcDbLine
 10
-520.40529190262623
 20
853.66576484781058
 30
0.0
 11
-573.43830049161761
 21
906.69877343680196
 31
0.0
  0
LINE
  5
11F
100
AcDbEntity
  8
0
370
              -2
390
0
  6
Continuous
 62
               0
100
AcDbLine
 10
-509.79869018482873
 20
970.33838374359084
 30
0.0
 11
-573.43830049161761
 21
906.69877343680196
 31
0.0
  0
CIRCLE
  5
120
102
{ACAD_REACTORS
330
121
102
}
100
AcDbEntity
  8
0
370
              -2
390
0
  6
Continuous
 62
               0
100
AcDbCircle
 10
-509.79869018482873
 20
970.33838374359084
 30
0.0
 40
1.9998779296875
  0
HATCH
  5
121
100
AcDbEntity
  8
0
370
              -2
390
0
  6
Continuous
 62
               0
100
AcDbHatch
 10
0.0
 20
0.0
 30
0.0
210
0.0
220
0.0
230
1.0
  2
SOLID
 70
               1
 71
               1
 91
        1
 92
        1
 93
        1
 72
               2
 10
-509.79869018482873
 20
970.33838374359084
 40
1.9998779296875
 50
0.0
 51
360.0
 73
               0
 97
        1
330
120
 75
               0
 76
               1
 98
        1
 10
0.0
 20
0.0
  0
CIRCLE
  5
122
102
{ACAD_REACTORS
330
123
102
}
100
AcDbEntity
  8
0
370
              -2
390
0
  6
Continuous
 62
               0
100
AcDbCircle
 10
-573.43830049161761
 20
906.69877343680196
 30
0.0
 40
1.9998779296875
  0
HATCH
  5
123
100
AcDbEntity
  8
0
370
              -2
390
0
  6
Continuous
 62
               0
100
AcDbHatch
 10
0.0
 20
0.0
 30
0.0
210
0.0
220
0.0
230
1.0
  2
SOLID
 70
               1
 71
               1
 91
        1
 92
        1
 93
        1
 72
               2
 10
-573.43830049161761
 20
906.69877343680196
 40
1.9998779296875
 50
0.0
 51
360.0
 73
               0
 97
        1
330
122
 75
               0
 76
               1
 98
        1
 10
0.0
 20
0.0
  0
MTEXT
  5
124
100
AcDbEntity
  8
0
390
0
 62
               0
100
AcDbMText
 10
-576.79890833328284
 20
951.24835128258314
 30
0.0
 40
24.432617187500004
 41
0.0
 71
               1
 72
               1
  1
90
  7
ＭＳ ゴシック
 11
0.7071067811865479
 21
0.7071067811865472
 31
0.0
 73
               1
 44
0.7828267384257843
  0
POINT
  5
125
100
AcDbEntity
  8
Defpoints
370
               0
390
0
 62
               0
100
AcDbPoint
 10
-502.72762237296251
 20
835.98809531814686
 30
0.0
  0
POINT
  5
126
100
AcDbEntity
  8
Defpoints
370
               0
390
0
 62
               0
100
AcDbPoint
 10
-439.08801206617409
 20
899.62770562493597
 30
0.0
  0
POINT
  5
127
100
AcDbEntity
  8
Defpoints
370
               0
390
0
 62
               0
100
AcDbPoint
 10
-509.79869018482873
 20
970.33838374359084
 30
0.0
  0
ENDBLK
  5
128
100
AcDbEntity
  8
注釈
390
0
100
AcDbBlockEnd
  0
BLOCK
  5
129
100
AcDbEntity
  8
注釈
390
0
100
AcDbBlockBegin
  2
*D18
 70
               1
 10
0.0
 20
0.0
 30
0.0
  3
*D18
  1

  0
LINE
  5
12A
100
AcDbEntity
  8
0
370
              -2
390
0
  6
Continuous
 62
               0
100
AcDbLine
 10
-520.40529190262623
 20
853.66576484781058
 30
0.0
 11
-573.43830049161727
 21
906.6987734368015
 31
0.0
  0
LINE
  5
12B
100
AcDbEntity
  8
0
370
              -2
390
0
  6
Continuous
 62
               0
100
AcDbLine
 10
-591.11597002128019
 20
782.95508672915571
 30
0.0
 11
-644.14897861027168
 21
835.98809531814732
 31
0.0
  0
LINE
  5
12C
100
AcDbEntity
  8
0
370
              -2
390
0
  6
Continuous
 62
               0
100
AcDbLine
 10
-573.43830049161727
 20
906.6987734368015
 30
0.0
 11
-644.14897861027168
 21
835.98809531814732
 31
0.0
  0
CIRCLE
  5
12D
102
{ACAD_REACTORS
330
12E
102
}
100
AcDbEntity
  8
0
370
              -2
390
0
  6
Continuous
 62
               0
100
AcDbCircle
 10
-573.43830049161727
 20
906.6987734368015
 30
0.0
 40
1.9998779296875
  0
HATCH
  5
12E
100
AcDbEntity
  8
0
370
              -2
390
0
  6
Continuous
 62
               0
100
AcDbHatch
 10
0.0
 20
0.0
 30
0.0
210
0.0
220
0.0
230
1.0
  2
SOLID
 70
               1
 71
               1
 91
        1
 92
        1
 93
        1
 72
               2
 10
-573.43830049161727
 20
906.6987734368015
 40
1.9998779296875
 50
0.0
 51
360.0
 73
               0
 97
        1
330
12D
 75
               0
 76
               1
 98
        1
 10
0.0
 20
0.0
  0
CIRCLE
  5
12F
102
{ACAD_REACTORS
330
130
102
}
100
AcDbEntity
  8
0
370
              -2
390
0
  6
Continuous
 62
               0
100
AcDbCircle
 10
-644.14897861027168
 20
835.98809531814732
 30
0.0
 40
1.9998779296875
  0
HATCH
  5
130
100
AcDbEntity
  8
0
370
              -2
390
0
  6
Continuous
 62
               0
100
AcDbHatch
 10
0.0
 20
0.0
 30
0.0
210
0.0
220
0.0
230
1.0
  2
SOLID
 70
               1
 71
               1
 91
        1
 92
        1
 93
        1
 72
               2
 10
-644.14897861027168
 20
835.98809531814732
 40
1.9998779296875
 50
0.0
 51
360.0
 73
               0
 97
        1
330
12F
 75
               0
 76
               1
 98
        1
 10
0.0
 20
0.0
  0
MTEXT
  5
131
100
AcDbEntity
  8
0
390
0
 62
               0
100
AcDbMText
 10
-649.58671381115005
 20
878.46054580471537
 30
0.0
 40
24.432617187500004
 41
0.0
 71
               1
 72
               1
  1
100
  7
ＭＳ ゴシック
 11
0.7071067811865476
 21
0.7071067811865475
 31
0.0
 73
               1
 44
0.7828267384257843
  0
POINT
  5
132
100
AcDbEntity
  8
Defpoints
370
               0
390
0
 62
               0
100
AcDbPoint
 10
-573.43830049161647
 20
765.27741719949199
 30
0.0
  0
POINT
  5
133
100
AcDbEntity
  8
Defpoints
370
               0
390
0
 62
               0
100
AcDbPoint
 10
-502.72762237296251
 20
835.98809531814686
 30
0.0
  0
POINT
  5
134
100
AcDbEntity
  8
Defpoints
370
               0
390
0
 62
               0
100
AcDbPoint
 10
-573.43830049161727
 20
906.6987734368015
 30
0.0
  0
ENDBLK
  5
135
100
AcDbEntity
  8
注釈
390
0
100
AcDbBlockEnd
  0
BLOCK
  5
136
100
AcDbEntity
  8
AHS70-0106
390
0
100
AcDbBlockBegin
  2
グループ-1
 70
               0
 10
0.0
 20
0.0
 30
0.0
  3
グループ-1
  1

  0
LINE
  5
137
100
AcDbEntity
  8
0
370
              15
390
0
  6
STYLE_12
 62
               7
100
AcDbLine
 10
174.255404326205
 20
-782.65204758843583
 30
0.0
 11
174.255404326205
 21
-827.66612824325239
 31
0.0
  0
LINE
  5
138
100
AcDbEntity
  8
0
370
              15
390
0
  6
STYLE_12
 62
               7
100
AcDbLine
 10
219.25540432620468
 20
-782.65204758843583
 30
0.0
 11
219.25540432620468
 21
-827.66612824325239
 31
0.0
  0
ENDBLK
  5
139
100
AcDbEntity
  8
AHS70-0106
390
0
100
AcDbBlockEnd
  0
BLOCK
  5
13A
100
AcDbEntity
  8
AHS70-0106
390
0
100
AcDbBlockBegin
  2
グループ-2
 70
               0
 10
0.0
 20
0.0
 30
0.0
  3
グループ-2
  1

  0
LINE
  5
13B
100
AcDbEntity
  8
0
370
              15
390
0
  6
STYLE_12
 62
               7
100
AcDbLine
 10
-572.18943511644181
 20
-782.65204758843583
 30
0.0
 11
-572.18943511644181
 21
-827.66612824325239
 31
0.0
  0
LINE
  5
13C
100
AcDbEntity
  8
0
370
              15
390
0
  6
STYLE_12
 62
               7
100
AcDbLine
 10
-527.1894351164425
 20
-782.65204758843583
 30
0.0
 11
-527.1894351164425
 21
-827.66612824325239
 31
0.0
  0
ENDBLK
  5
13D
100
AcDbEntity
  8
AHS70-0106
390
0
100
AcDbBlockEnd
  0
BLOCK
  5
13E
100
AcDbEntity
  8
AHS70-0106
390
0
100
AcDbBlockBegin
  2
*D21
 70
               1
 10
0.0
 20
0.0
 30
0.0
  3
*D21
  1

  0
LINE
  5
13F
100
AcDbEntity
  8
0
370
              -2
390
0
  6
Continuous
 62
               0
100
AcDbLine
 10
-611.41034253650878
 20
727.30537515459969
 30
0.0
 11
-253.7303495508126
 21
1084.985368140296
 31
0.0
  0
LINE
  5
140
100
AcDbEntity
  8
0
370
              -2
390
0
  6
Continuous
 62
               0
100
AcDbLine
 10
-253.8481918523882
 20
369.74322447047905
 30
0.0
 11
103.83180113330816
 21
727.42321745617551
 31
0.0
  0
LINE
  5
141
100
AcDbEntity
  8
0
370
              -2
390
0
  6
Continuous
 62
               0
100
AcDbLine
 10
-253.7303495508126
 20
1084.985368140296
 30
0.0
 11
103.83180113330816
 21
727.42321745617551
 31
0.0
  0
CIRCLE
  5
142
102
{ACAD_REACTORS
330
143
102
}
100
AcDbEntity
  8
0
370
              -2
390
0
  6
Continuous
 62
               0
100
AcDbCircle
 10
-253.7303495508126
 20
1084.985368140296
 30
0.0
 40
1.9998779296875
  0
HATCH
  5
143
100
AcDbEntity
  8
0
370
              -2
390
0
  6
Continuous
 62
               0
100
AcDbHatch
 10
0.0
 20
0.0
 30
0.0
210
0.0
220
0.0
230
1.0
  2
SOLID
 70
               1
 71
               1
 91
        1
 92
        1
 93
        1
 72
               2
 10
-253.7303495508126
 20
1084.985368140296
 40
1.9998779296875
 50
0.0
 51
360.0
 73
               0
 97
        1
330
142
 75
               0
 76
               1
 98
        1
 10
0.0
 20
0.0
  0
CIRCLE
  5
144
102
{ACAD_REACTORS
330
145
102
}
100
AcDbEntity
  8
0
370
              -2
390
0
  6
Continuous
 62
               0
100
AcDbCircle
 10
103.83180113330816
 20
727.42321745617551
 30
0.0
 40
1.9998779296875
  0
HATCH
  5
145
100
AcDbEntity
  8
0
370
              -2
390
0
  6
Continuous
 62
               0
100
AcDbHatch
 10
0.0
 20
0.0
 30
0.0
210
0.0
220
0.0
230
1.0
  2
SOLID
 70
               1
 71
               1
 91
        1
 92
        1
 93
        1
 72
               2
 10
103.83180113330816
 20
727.42321745617551
 40
1.9998779296875
 50
0.0
 51
360.0
 73
               0
 97
        1
330
144
 75
               0
 76
               1
 98
        1
 10
0.0
 20
0.0
  0
MTEXT
  5
146
100
AcDbEntity
  8
0
390
0
 62
               0
100
AcDbMText
 10
-67.832162781511428
 20
946.99736705844134
 30
0.0
 40
24.432617187500004
 41
0.0
 71
               1
 72
               1
  1
505
  7
ＭＳ ゴシック
 11
0.7071067811865474
 21
-0.7071067811865477
 31
0.0
 73
               1
 44
0.7828267384257843
  0
POINT
  5
147
100
AcDbEntity
  8
Defpoints
370
               0
390
0
 62
               0
100
AcDbPoint
 10
-271.52586138205186
 20
352.06555494081539
 30
0.0
  0
POINT
  5
148
100
AcDbEntity
  8
Defpoints
370
               0
390
0
 62
               0
100
AcDbPoint
 10
-629.0880120661725
 20
709.62770562493597
 30
0.0
  0
POINT
  5
149
100
AcDbEntity
  8
Defpoints
370
               0
390
0
 62
               0
100
AcDbPoint
 10
-253.7303495508126
 20
1084.985368140296
 30
0.0
  0
ENDBLK
  5
14A
100
AcDbEntity
  8
AHS70-0106
390
0
100
AcDbBlockEnd
  0
BLOCK
  5
14B
100
AcDbEntity
  8
AHS70-0106
390
0
100
AcDbBlockBegin
  2
*D22
 70
               1
 10
0.0
 20
0.0
 30
0.0
  3
*D22
  1

  0
LINE
  5
14C
100
AcDbEntity
  8
0
370
              -2
390
0
  6
Continuous
 62
               0
100
AcDbLine
 10
-450.33024926032806
 20
776.23649416454919
 30
0.0
 11
-474.0
 21
748.0
 31
0.0
  0
CIRCLE
  5
14D
102
{ACAD_REACTORS
330
14E
102
}
100
AcDbEntity
  8
0
370
              -2
390
0
  6
Continuous
 62
               0
100
AcDbCircle
 10
-450.33024926032806
 20
776.23649416454919
 30
0.0
 40
1.9998779296875
  0
HATCH
  5
14E
100
AcDbEntity
  8
0
370
              -2
390
0
  6
Continuous
 62
               0
100
AcDbHatch
 10
0.0
 20
0.0
 30
0.0
210
0.0
220
0.0
230
1.0
  2
SOLID
 70
               1
 71
               1
 91
        1
 92
        1
 93
        1
 72
               2
 10
-450.33024926032806
 20
776.23649416454919
 40
1.9998779296875
 50
0.0
 51
360.0
 73
               0
 97
        1
330
14D
 75
               0
 76
               1
 98
        1
 10
0.0
 20
0.0
  0
LINE
  5
14F
100
AcDbEntity
  8
0
370
              -2
390
0
  6
Continuous
 62
               0
100
AcDbLine
 10
-474.0
 20
748.0
 30
0.0
 11
-350.5
 21
748.0
 31
0.0
  0
MTEXT
  5
150
100
AcDbEntity
  8
0
390
0
 62
               0
100
AcDbMText
 10
-414.0
 20
781.87761718749994
 30
0.0
 40
24.432617187500004
 41
0.0
 71
               1
 72
               1
  1
φ35
  7
ＭＳ ゴシック
 73
               1
 44
0.7828267384257843
  0
POINT
  5
151
100
AcDbEntity
  8
Defpoints
370
               0
390
0
 62
               0
100
AcDbPoint
 10
-427.84577487202
 20
803.05902968007149
 30
0.0
  0
POINT
  5
152
100
AcDbEntity
  8
Defpoints
370
               0
390
0
 62
               0
100
AcDbPoint
 10
-450.33024926032806
 20
776.23649416454919
 30
0.0
  0
ENDBLK
  5
153
100
AcDbEntity
  8
AHS70-0106
390
0
100
AcDbBlockEnd
  0
ENDSEC
  0
SECTION
  2
ENTITIES
  0
MTEXT
  5
154
100
AcDbEntity
  8
template
390
0
 62
               7
100
AcDbMText
 10
-967.99999999975921
 20
-1147.4176292337004
 30
0.0
 40
16.288411458333332
 41
0.0
 71
               1
 72
               1
  1
品名
  7
ＭＳ ゴシック
 73
               1
 44
0.7828267384257843
  0
MTEXT
  5
155
100
AcDbEntity
  8
template
390
0
 62
               7
100
AcDbMText
 10
-967.99999999975921
 20
-1232.4176292337004
 30
0.0
 40
16.288411458333332
 41
0.0
 71
               1
 72
               1
  1
仕様
  7
ＭＳ ゴシック
 73
               1
 44
0.7828267384257843
  0
LINE
  5
156
100
AcDbEntity
  8
template
370
               5
390
0
  6
Continuous
 62
               7
100
AcDbLine
 10
974.99999999975876
 20
-1224.0027073587005
 30
0.0
 11
-975.00000000024124
 21
-1224.0027073587005
 31
0.0
  0
LWPOLYLINE
  5
157
100
AcDbEntity
  8
template
370
               5
390
0
  6
Continuous
 62
               7
100
AcDbPolyline
 90
        5
 70
             128
 10
975.00000000024124
 20
1405.9972926412995
 10
-974.99999999975921
 20
1405.9972926412995
 10
-974.99999999975921
 20
-1394.0027073587005
 10
975.00000000024124
 20
-1394.0027073587005
 10
975.00000000024124
 20
1405.9972926412995
  0
LINE
  5
158
100
AcDbEntity
  8
template
370
               5
390
0
  6
Continuous
 62
               7
100
AcDbLine
 10
974.99999999975876
 20
-1139.0027073587005
 30
0.0
 11
-975.00000000024124
 21
-1139.0027073587005
 31
0.0
  0
LINE
  5
159
100
AcDbEntity
  8
template
370
               5
390
0
  6
Continuous
 62
               7
100
AcDbLine
 10
975.00000000024124
 20
-1309.0027073587005
 30
0.0
 11
222.00000000024124
 21
-1309.0027073587005
 31
0.0
  0
MTEXT
  5
15A
100
AcDbEntity
  8
template
390
0
 62
               7
100
AcDbMText
 10
-974.99999999955594
 20
-1405.8565294155574
 30
0.0
 40
21.717881944444446
 41
0.0
 71
               1
 72
               1
  1
120120SH
  7
ＭＳ ゴシック
 73
               1
 44
0.7828267384257843
  0
MTEXT
  5
15B
100
AcDbEntity
  8
template
390
0
 62
               7
100
AcDbMText
 10
251.87140625250089
 20
-1338.9131018320081
 30
0.0
 40
24.432617187500004
 41
0.0
 71
               1
 72
               1
  1
大洋金物株式会社 ティーフォルム事業部
  7
ＭＳ ゴシック
 73
               1
 44
0.7828267384257843
  0
INSERT
  5
15C
100
AcDbEntity
  8
template
390
0
 62
               7
100
AcDbBlockReference
  2
グループ
 10
110.56394852112113
 20
166.37163133147209
 30
0.0
  0
MTEXT
  5
15D
100
AcDbEntity
  8
template
390
0
 62
               7
100
AcDbMText
 10
784.00000000049999
 20
-1261.0000901712006
 30
0.0
 40
24.432617187500004
 41
0.0
 71
               1
 72
               1
  1
1:10
  7
ＭＳ ゴシック
 73
               1
 44
0.7828267384257843
  0
MTEXT
  5
15E
100
AcDbEntity
  8
template
390
0
 62
               7
100
AcDbMText
 10
731.00000000049999
 20
-1232.4176292337004
 30
0.0
 40
16.288411458333332
 41
0.0
 71
               1
 72
               1
  1
縮尺
  7
ＭＳ ゴシック
 73
               1
 44
0.7828267384257843
  0
LINE
  5
15F
100
AcDbEntity
  8
template
370
               5
390
0
  6
Continuous
 62
               7
100
AcDbLine
 10
724.00000000049999
 20
-1309.0027073587005
 30
0.0
 11
724.00000000049999
 21
-1224.0027073587005
 31
0.0
  0
MTEXT
  5
160
100
AcDbEntity
  8
template
390
0
 62
               7
100
AcDbMText
 10
480.00000000049999
 20
-1232.4176292337004
 30
0.0
 40
16.288411458333332
 41
0.0
 71
               1
 72
               1
  1
容量
  7
ＭＳ ゴシック
 73
               1
 44
0.7828267384257843
  0
MTEXT
  5
161
100
AcDbEntity
  8
template
390
0
 62
               7
100
AcDbMText
 10
533.00000000049999
 20
-1261.0000901712006
 30
0.0
 40
24.432617187500004
 41
0.0
 71
               1
 72
               1
  1
10L
  7
ＭＳ ゴシック
 73
               1
 44
0.7828267384257843
  0
LINE
  5
162
100
AcDbEntity
  8
template
370
               5
390
0
  6
Continuous
 62
               7
100
AcDbLine
 10
473.00000000049999
 20
-1309.0027073587005
 30
0.0
 11
473.00000000049999
 21
-1224.0027073587005
 31
0.0
  0
MTEXT
  5
163
100
AcDbEntity
  8
template
390
0
 62
               7
100
AcDbMText
 10
229.00000000049999
 20
-1147.4176292337004
 30
0.0
 40
16.288411458333332
 41
0.0
 71
               1
 72
               1
  1
品番
  7
ＭＳ ゴシック
 73
               1
 44
0.7828267384257843
  0
MTEXT
  5
164
100
AcDbEntity
  8
template
390
0
 62
               7
100
AcDbMText
 10
229.00000000049999
 20
-1232.4176292337004
 30
0.0
 40
16.288411458333332
 41
0.0
 71
               1
 72
               1
  1
重量
  7
ＭＳ ゴシック
 73
               1
 44
0.7828267384257843
  0
MTEXT
  5
165
100
AcDbEntity
  8
template
390
0
 62
               7
100
AcDbMText
 10
282.00000000049999
 20
-1176.0000901712006
 30
0.0
 40
24.432617187500004
 41
0.0
 71
               1
 72
               1
  1
AHS70-0106
  7
ＭＳ ゴシック
 73
               1
 44
0.7828267384257843
  0
MTEXT
  5
166
100
AcDbEntity
  8
template
390
0
 62
               7
100
AcDbMText
 10
282.00000000049999
 20
-1261.0000901712006
 30
0.0
 40
24.432617187500004
 41
0.0
 71
               1
 72
               1
  1
16kg
  7
ＭＳ ゴシック
 73
               1
 44
0.7828267384257843
  0
LINE
  5
167
100
AcDbEntity
  8
template
370
               5
390
0
  6
Continuous
 62
               7
100
AcDbLine
 10
222.00000000049999
 20
-1394.0027073587005
 30
0.0
 11
222.00000000049999
 21
-1139.0027073587005
 31
0.0
  0
MTEXT
  5
168
100
AcDbEntity
  8
template
390
0
 62
               7
100
AcDbMText
 10
-914.99999999975921
 20
-1176.0000901712003
 30
0.0
 40
24.432617187500004
 41
0.0
 71
               1
 72
               1
  1
洗面器 -GALASSIA,Arke-
  7
ＭＳ ゴシック
 73
               1
 44
0.7828267384257843
  0
MTEXT
  5
169
100
AcDbEntity
  8
template
390
0
 62
               7
100
AcDbMText
 10
-914.99999999975921
 20
-1261.0000901712003
 30
0.0
 40
24.432617187500004
 41
0.0
 71
               1
 72
               1
  1
壁掛け,コーナー専用/オーバーフロー付き/壁取付ボルト付属/陶器/ホワイト\P
  7
ＭＳ ゴシック
 73
               1
 44
1.1307497332816883
  0
MTEXT
  5
16A
100
AcDbEntity
  8
注釈
390
0
 62
               7
100
AcDbMText
 10
-301.41776899610767
 20
-297.71322744527748
 30
0.0
 40
24.432617187500004
 41
0.0
 71
               1
 72
               1
  1
壁取付ボルト穴（4ヶ所）\P内２ヶ所で固定
  7
ＭＳ ゴシック
 73
               1
 44
0.7828267384257843
  0
LINE
  5
16B
100
AcDbEntity
  8
注釈
370
               5
390
0
  6
Continuous
 62
               7
100
AcDbLine
 10
-304.73772364073062
 20
-516.29449691178024
 30
0.0
 11
-285.85970677861309
 21
-379.48041625696538
 31
0.0
  0
DIMENSION
  5
16C
100
AcDbEntity
  8
注釈
370
               5
390
0
  6
Continuous
 62
               7
100
AcDbDimension
  2
*D3
 10
-209.06795576879972
 20
179.62770562493392
 30
0.0
 11
-439.08947542585815
 21
179.62770562493392
 31
0.0
 71
               5
 72
               1
 41
1.0
 42
0.0
  3
tfrom線あり
100
AcDbAlignedDimension
 13
-669.1109950829167
 23
459.62770097176963
 33
0.0
 14
-209.06795576879972
 24
459.64776192230818
 34
0.0
100
AcDbRotatedDimension
1001
ACAD
1000
DSTYLE
1002
{
1070
             279
1070
               2
1070
             340
1005
38
1070
             147
1040
5.0
1002
}
  0
DIMENSION
  5
16D
100
AcDbEntity
  8
注釈
370
               5
390
0
  6
Continuous
 62
               7
100
AcDbDimension
  2
*D4
 10
-66.588012066174414
 20
-506.2944969117803
 30
0.0
 11
-66.588012066174414
 21
-471.29449691178075
 31
0.0
 71
               5
 72
               1
 41
1.0
 42
0.0
  3
tfrom線あり
100
AcDbAlignedDimension
 13
-216.26192510965228
 23
-436.29449691178121
 33
0.0
 14
-279.08801206617443
 24
-506.2944969117803
 34
0.0
 50
90.0
100
AcDbRotatedDimension
1001
ACAD
1000
DSTYLE
1002
{
1070
             279
1070
               2
1070
             340
1005
38
1070
             147
1040
5.0
1002
}
  0
DIMENSION
  5
16E
100
AcDbEntity
  8
注釈
370
               5
390
0
  6
Continuous
 62
               7
100
AcDbDimension
  2
*D5
 10
-329.0880120661746
 20
-761.29449691178024
 30
0.0
 11
-439.08801206617363
 21
-761.29449691178024
 31
0.0
 71
               5
 72
               1
 41
1.0
 42
0.0
  3
tfrom線あり
100
AcDbAlignedDimension
 13
-549.08801206617261
 23
-661.29449691178024
 33
0.0
 14
-329.0880120661746
 24
-661.29449691178024
 34
0.0
100
AcDbRotatedDimension
1001
ACAD
1000
DSTYLE
1002
{
1070
             279
1070
               2
1070
             340
1005
38
1070
             147
1040
5.0
1002
}
  0
DIMENSION
  5
16F
100
AcDbEntity
  8
注釈
370
               5
390
0
  6
Continuous
 62
               7
100
AcDbDimension
  2
*D6
 10
797.23182737647426
 20
-436.29449691178121
 30
0.0
 11
797.23182737647426
 21
-341.29449691178166
 31
0.0
 71
               5
 72
               1
 41
1.0
 42
0.0
  3
tfrom線あり
100
AcDbAlignedDimension
 13
697.35682737647426
 23
-626.29449691178024
 33
0.0
 14
697.35682737647426
 24
-436.29449691178121
 34
0.0
 50
90.0
100
AcDbRotatedDimension
1001
ACAD
1000
DSTYLE
1002
{
1070
             279
1070
               2
1070
             340
1005
38
1070
             147
1040
5.0
1002
}
  0
DIMENSION
  5
170
100
AcDbEntity
  8
注釈
370
               5
390
0
  6
Continuous
 62
               7
100
AcDbDimension
  2
*D7
 10
797.10682737647426
 20
-626.29449691178024
 30
0.0
 11
802.10682737647426
 21
-677.48041625696374
 31
0.0
 70
             128
 71
               5
 72
               1
 41
1.0
 42
0.0
  3
tfrom線あり
100
AcDbAlignedDimension
 13
417.35682737647249
 23
-661.29449691178024
 33
0.0
 14
697.35682737647426
 24
-626.29449691178024
 34
0.0
 50
90.0
100
AcDbRotatedDimension
1001
ACAD
1000
DSTYLE
1002
{
1070
             279
1070
               2
1070
             340
1005
38
1070
             174
1070
               0
1070
             147
1040
5.0
1002
}
  0
DIMENSION
  5
171
100
AcDbEntity
  8
注釈
370
               5
390
0
  6
Continuous
 62
               7
100
AcDbDimension
  2
*D8
 10
298.48601951399263
 20
-606.29449691178024
 30
0.0
 11
303.48601951399263
 21
-411.29449691178121
 31
0.0
 70
             128
 71
               5
 72
               1
 41
1.0
 42
0.0
  3
tfrom線あり
100
AcDbAlignedDimension
 13
288.31935284732612
 23
-431.29449691178121
 33
0.0
 14
288.31935284732612
 24
-606.29449691178024
 34
0.0
 50
90.0
100
AcDbRotatedDimension
1001
ACAD
1000
DSTYLE
1002
{
1070
             279
1070
               2
1070
             340
1005
38
1070
               3
1000
<>(深さ)
1070
             174
1070
               0
1070
             147
1040
5.0
1002
}
  0
DIMENSION
  5
172
100
AcDbEntity
  8
注釈
370
               5
390
0
  6
Continuous
 62
               7
100
AcDbDimension
  2
*D9
 10
797.23182737647426
 20
-436.29449691178121
 30
0.0
 11
802.23182737647426
 21
-423.4804162569647
 31
0.0
 70
             128
 71
               5
 72
               1
 41
1.0
 42
0.0
  3
tfrom線あり
100
AcDbAlignedDimension
 13
537.35682737647312
 23
-431.29449691178132
 33
0.0
 14
697.35682737647426
 24
-436.29449691178121
 34
0.0
 50
90.0
100
AcDbRotatedDimension
1001
ACAD
1000
DSTYLE
1002
{
1070
             279
1070
               2
1070
             340
1005
38
1070
             174
1070
               0
1070
             147
1040
5.0
1002
}
  0
DIMENSION
  5
173
100
AcDbEntity
  8
注釈
370
               5
390
0
  6
Continuous
 62
               7
100
AcDbDimension
  2
*D10
 10
847.35682737647312
 20
-431.29449691178132
 30
0.0
 11
847.35682737647312
 21
-546.2944969117807
 31
0.0
 71
               5
 72
               1
 41
1.0
 42
0.0
  3
tfrom線あり
100
AcDbAlignedDimension
 13
417.35682737647249
 23
-661.29449691178024
 33
0.0
 14
537.35682737647312
 24
-431.29449691178132
 34
0.0
 50
90.0
100
AcDbRotatedDimension
1001
ACAD
1000
DSTYLE
1002
{
1070
             279
1070
               2
1070
             340
1005
38
1070
             147
1040
5.0
1002
}
  0
DIMENSION
  5
174
100
AcDbEntity
  8
注釈
370
               5
390
0
  6
Continuous
 62
               7
100
AcDbDimension
  2
*D11
 10
-629.0880120661725
 20
999.62770562493597
 30
0.0
 11
-439.08801206617341
 21
999.62770562493597
 31
0.0
 71
               5
 72
               1
 41
1.0
 42
0.0
  3
tfrom線あり
100
AcDbAlignedDimension
 13
-249.08801206617426
 23
709.62770562493597
 33
0.0
 14
-629.0880120661725
 24
709.62770562493597
 34
0.0
100
AcDbRotatedDimension
1001
ACAD
1000
DSTYLE
1002
{
1070
             279
1070
               2
1070
             340
1005
38
1070
             147
1040
5.0
1002
}
  0
DIMENSION
  5
175
100
AcDbEntity
  8
注釈
370
               5
390
0
  6
Continuous
 62
               7
100
AcDbDimension
  2
*D12
 10
-739.0
 20
899.62770562493597
 30
0.0
 11
-744.0
 21
565.81520394275992
 31
0.0
 70
             128
 71
               5
 72
               1
 41
1.0
 42
0.0
  3
tfrom線あり
100
AcDbAlignedDimension
 13
-414.08801206617443
 23
279.62770562493489
 33
0.0
 14
-439.08801206617409
 24
899.62770562493597
 34
0.0
 50
90.0
100
AcDbRotatedDimension
1001
ACAD
1000
DSTYLE
1002
{
1070
             279
1070
               2
1070
             340
1005
38
1070
             147
1040
5.0
1002
}
  0
DIMENSION
  5
176
100
AcDbEntity
  8
注釈
370
               5
390
0
  6
Continuous
 62
               7
100
AcDbDimension
  2
*D13
 10
697.35682737647426
 20
-331.2944969117811
 30
0.0
 11
642.35682737647403
 21
-331.2944969117811
 31
0.0
 71
               5
 72
               1
 41
1.0
 42
0.0
  3
tfrom線あり
100
AcDbAlignedDimension
 13
587.3568273764738
 23
-446.2944969117811
 33
0.0
 14
697.35682737647426
 24
-446.2944969117811
 34
0.0
100
AcDbRotatedDimension
1001
ACAD
1000
DSTYLE
1002
{
1070
             279
1070
               2
1070
             340
1005
38
1070
             147
1040
5.0
1002
}
  0
DIMENSION
  5
177
100
AcDbEntity
  8
注釈
370
               5
390
0
  6
Continuous
 62
               7
100
AcDbDimension
  2
*D14
 10
697.35682737647426
 20
-761.29449691178024
 30
0.0
 11
502.35682737647357
 21
-761.29449691178024
 31
0.0
 71
               5
 72
               1
 41
1.0
 42
0.0
  3
tfrom線あり
100
AcDbAlignedDimension
 13
307.35682737647289
 23
-661.29449691178024
 33
0.0
 14
697.35682737647426
 24
-636.29449691178024
 34
0.0
100
AcDbRotatedDimension
1001
ACAD
1000
DSTYLE
1002
{
1070
             279
1070
               2
1070
             340
1005
38
1070
             147
1040
5.0
1002
}
  0
DIMENSION
  5
178
100
AcDbEntity
  8
注釈
370
               5
390
0
  6
Continuous
 62
               7
100
AcDbDimension
  2
*D15
 10
-368.37733394751945
 20
970.33838374359084
 30
0.0
 11
-336.55752879412495
 21
938.51857859019628
 31
0.0
 70
               1
 71
               5
 72
               1
 41
1.0
 42
0.0
  3
tfrom線あり
100
AcDbAlignedDimension
 13
-375.44840175938538
 23
835.98809531814686
 33
0.0
 14
-439.08801206617409
 24
899.62770562493597
 34
0.0
 50
44.999999999999986
1001
ACAD
1000
DSTYLE
1002
{
1070
             279
1070
               2
1070
             340
1005
38
1070
             147
1040
5.0
1002
}
  0
DIMENSION
  5
179
100
AcDbEntity
  8
注釈
370
               5
390
0
  6
Continuous
 62
               7
100
AcDbDimension
  2
*D16
 10
-304.73772364073062
 20
906.6987734368015
 30
0.0
 11
-269.38238458140324
 21
871.3434343774743
 31
0.0
 70
               1
 71
               5
 72
               1
 41
1.0
 42
0.0
  3
tfrom線あり
100
AcDbAlignedDimension
 13
-304.73772364073062
 23
765.27741719949199
 33
0.0
 14
-375.44840175938538
 24
835.98809531814686
 34
0.0
 50
45.0
1001
ACAD
1000
DSTYLE
1002
{
1070
             279
1070
               2
1070
             340
1005
38
1070
             147
1040
5.0
1002
}
  0
DIMENSION
  5
17A
100
AcDbEntity
  8
注釈
370
               5
390
0
  6
Continuous
 62
               7
100
AcDbDimension
  2
*D17
 10
-509.79869018482873
 20
970.33838374359084
 30
0.0
 11
-541.61849533822317
 21
938.51857859019628
 31
0.0
 70
               1
 71
               5
 72
               1
 41
1.0
 42
0.0
  3
tfrom線あり
100
AcDbAlignedDimension
 13
-502.72762237296251
 23
835.98809531814686
 33
0.0
 14
-439.08801206617409
 24
899.62770562493597
 34
0.0
 50
44.999999999999986
1001
ACAD
1000
DSTYLE
1002
{
1070
             279
1070
               2
1070
             340
1005
38
1070
             147
1040
5.0
1002
}
  0
DIMENSION
  5
17B
100
AcDbEntity
  8
注釈
370
               5
390
0
  6
Continuous
 62
               7
100
AcDbDimension
  2
*D18
 10
-573.43830049161727
 20
906.6987734368015
 30
0.0
 11
-608.79363955094436
 21
871.34343437747452
 31
0.0
 70
               1
 71
               5
 72
               1
 41
1.0
 42
0.0
  3
tfrom線あり
100
AcDbAlignedDimension
 13
-573.43830049161647
 23
765.27741719949199
 33
0.0
 14
-502.72762237296251
 24
835.98809531814686
 34
0.0
 50
45.0
1001
ACAD
1000
DSTYLE
1002
{
1070
             279
1070
               2
1070
             340
1005
38
1070
             147
1040
5.0
1002
}
  0
CIRCLE
  5
17C
100
AcDbEntity
  8
AHS70-0106
370
              15
390
0
  6
Continuous
 62
               7
100
AcDbCircle
 10
-439.08801206617409
 20
509.64776192230818
 30
0.0
 40
90.048951729771488
  0
CIRCLE
  5
17D
100
AcDbEntity
  8
AHS70-0106
370
              15
390
0
  6
Continuous
 62
               7
100
AcDbCircle
 10
-439.09072519407744
 20
509.64776192230818
 30
0.0
 40
199.99999999999841
  0
CIRCLE
  5
17E
100
AcDbEntity
  8
AHS70-0106
370
              15
390
0
  6
Continuous
 62
               7
100
AcDbCircle
 10
-439.08801206617409
 20
509.64776192230818
 30
0.0
 40
230.02005629737266
  0
CIRCLE
  5
17F
100
AcDbEntity
  8
AHS70-0106
370
              15
390
0
  6
Continuous
 62
               7
100
AcDbCircle
 10
-439.08801206617409
 20
683.50711169956594
 30
0.0
 40
13.914513063495178
  0
CIRCLE
  5
180
100
AcDbEntity
  8
AHS70-0106
370
              15
390
0
  6
Continuous
 62
               7
100
AcDbCircle
 10
-439.08801206617409
 20
509.64776192230818
 30
0.0
 40
20.218292233466741
  0
CIRCLE
  5
181
100
AcDbEntity
  8
AHS70-0106
370
              15
390
0
  6
Continuous
 62
               7
100
AcDbCircle
 10
-439.08801206617409
 20
509.64776192230818
 30
0.0
 40
32.907370602512628
  0
LINE
  5
182
100
AcDbEntity
  8
AHS70-0106
370
              15
390
0
  6
Continuous
 62
               7
100
AcDbLine
 10
-209.08801206617397
 20
-431.29449691178132
 30
0.0
 11
-669.0880120661725
 21
-431.29449691178132
 31
0.0
  0
LINE
  5
183
100
AcDbEntity
  8
AHS70-0106
370
              15
390
0
  6
Continuous
 62
               7
100
AcDbLine
 10
-669.0880120661725
 20
-431.29449691178132
 30
0.0
 11
-549.08801206617261
 21
-661.29449691178024
 31
0.0
  0
LINE
  5
184
100
AcDbEntity
  8
AHS70-0106
370
              15
390
0
  6
Continuous
 62
               7
100
AcDbLine
 10
-209.08801206617397
 20
-431.29449691178132
 30
0.0
 11
-329.0880120661746
 21
-661.29449691178024
 31
0.0
  0
LINE
  5
185
100
AcDbEntity
  8
AHS70-0106
370
              15
390
0
  6
Continuous
 62
               7
100
AcDbLine
 10
-329.0880120661746
 20
-661.29449691178024
 30
0.0
 11
-549.08801206617261
 21
-661.29449691178024
 31
0.0
  0
POLYLINE
  5
186
100
AcDbEntity
  8
AHS70-0106
370
              15
390
0
  6
Continuous
 62
               7
100
AcDb2dPolyline
 66
               1
 10
0.0
 20
0.0
 30
0.0
 70
               1
 75
               5
  0
VERTEX
  5
187
100
AcDbEntity
  8
AHS70-0106
370
              15
390
0
  6
Continuous
 62
               7
100
AcDbVertex
100
AcDb2dVertex
 10
307.31935284732594
 20
-436.29449691178121
 30
0.0
  0
VERTEX
  5
188
100
AcDbEntity
  8
AHS70-0106
370
              15
390
0
  6
Continuous
 62
               7
100
AcDbVertex
100
AcDb2dVertex
 10
697.35682737647426
 20
-436.29449691178121
 30
0.0
  0
VERTEX
  5
189
100
AcDbEntity
  8
AHS70-0106
370
              15
390
0
  6
Continuous
 62
               7
100
AcDbVertex
100
AcDb2dVertex
 10
697.35682737647426
 20
-626.29449691178024
 30
0.0
  0
VERTEX
  5
18A
100
AcDbEntity
  8
AHS70-0106
370
              15
390
0
  6
Continuous
 62
               7
100
AcDbVertex
100
AcDb2dVertex
 10
307.31935284732594
 20
-626.29449691178024
 30
0.0
  0
SEQEND
  5
18B
100
AcDbEntity
  8
AHS70-0106
370
              15
390
0
  6
Continuous
 62
               7
  0
LINE
  5
18C
100
AcDbEntity
  8
AHS70-0106
370
              15
390
0
  6
Continuous
 62
               7
100
AcDbLine
 10
537.35682737647312
 20
-431.29449691178132
 30
0.0
 11
77.356827376473333
 21
-431.29449691178132
 31
0.0
  0
LINE
  5
18D
100
AcDbEntity
  8
AHS70-0106
370
              15
390
0
  6
Continuous
 62
               7
100
AcDbLine
 10
77.356827376473333
 20
-431.29449691178132
 30
0.0
 11
197.3568273764734
 21
-661.29449691178024
 31
0.0
  0
LINE
  5
18E
100
AcDbEntity
  8
AHS70-0106
370
              15
390
0
  6
Continuous
 62
               7
100
AcDbLine
 10
435.61769694168993
 20
-626.29449691178024
 30
0.0
 11
417.35682737647249
 21
-661.29449691178024
 31
0.0
  0
LINE
  5
18F
100
AcDbEntity
  8
AHS70-0106
370
              15
390
0
  6
Continuous
 62
               7
100
AcDbLine
 10
417.35682737647249
 20
-661.29449691178024
 30
0.0
 11
197.3568273764734
 21
-661.29449691178024
 31
0.0
  0
LINE
  5
190
100
AcDbEntity
  8
AHS70-0106
370
              15
390
0
  6
STYLE_12
 62
               7
100
AcDbLine
 10
-284.73772364073051
 20
-506.2944969117803
 30
0.0
 11
-324.73772364073062
 21
-506.2944969117803
 31
0.0
  0
LINE
  5
191
100
AcDbEntity
  8
AHS70-0106
370
              15
390
0
  6
STYLE_12
 62
               7
100
AcDbLine
 10
-304.73772364073062
 20
-526.29449691178024
 30
0.0
 11
-304.73772364073062
 21
-486.29449691178053
 31
0.0
  0
LINE
  5
192
100
AcDbEntity
  8
AHS70-0106
370
              15
390
0
  6
STYLE_12
 62
               7
100
AcDbLine
 10
414.09595781125512
 20
-606.29449691178024
 30
0.0
 11
198.65025039920937
 21
-606.29449691178024
 31
0.0
  0
LINE
  5
193
100
AcDbEntity
  8
AHS70-0106
370
              15
390
0
  6
STYLE_12
 62
               7
100
AcDbLine
 10
107.35682737647336
 20
-431.29449691178132
 30
0.0
 11
198.65025039920937
 21
-606.29449691178024
 31
0.0
  0
LINE
  5
194
100
AcDbEntity
  8
AHS70-0106
370
              15
390
0
  6
STYLE_12
 62
               7
100
AcDbLine
 10
507.35682737647267
 20
-431.29449691178132
 30
0.0
 11
415.64251429274856
 21
-607.10129939802914
 31
0.0
  0
LINE
  5
195
100
AcDbEntity
  8
AHS70-0106
370
              15
390
0
  6
STYLE_12
 62
               7
100
AcDbLine
 10
495.88479879243494
 20
-455.28146576931414
 30
0.0
 11
467.27618153705095
 21
-455.28146576931414
 31
0.0
  0
LINE
  5
196
100
AcDbEntity
  8
AHS70-0106
370
              15
390
0
  6
STYLE_12
 62
               7
100
AcDbLine
 10
467.27618153705095
 20
-455.28146576931414
 30
0.0
 11
467.27618153705095
 21
-508.12492773210312
 31
0.0
  0
LINE
  5
197
100
AcDbEntity
  8
AHS70-0106
370
              15
390
0
  6
STYLE_12
 62
               7
100
AcDbLine
 10
284.81935284732612
 20
-616.28041625696369
 30
0.0
 11
274.81935284732617
 21
-606.28041625696369
 31
0.0
  0
LINE
  5
198
100
AcDbEntity
  8
AHS70-0106
370
              15
390
0
  6
STYLE_12
 62
               7
100
AcDbLine
 10
329.81935284732583
 20
-616.28041625696369
 30
0.0
 11
339.81935284732577
 21
-606.28041625696369
 31
0.0
  0
INSERT
  5
199
100
AcDbEntity
  8
AHS70-0106
390
0
 62
               7
100
AcDbBlockReference
  2
グループ-1
 10
110.56394852112113
 20
166.37163133147209
 30
0.0
  0
LINE
  5
19A
100
AcDbEntity
  8
AHS70-0106
370
              15
390
0
  6
STYLE_12
 62
               7
100
AcDbLine
 10
-629.0880120661725
 20
-436.29449691178121
 30
0.0
 11
-249.08801206617426
 21
-436.29449691178121
 31
0.0
  0
LINE
  5
19B
100
AcDbEntity
  8
AHS70-0106
370
              15
390
0
  6
STYLE_12
 62
               7
100
AcDbLine
 10
-310.82714250095717
 20
-626.29449691178024
 30
0.0
 11
-567.34888163138987
 21
-626.29449691178024
 31
0.0
  0
LINE
  5
19C
100
AcDbEntity
  8
AHS70-0106
370
              15
390
0
  6
Continuous
 62
               7
100
AcDbLine
 10
537.35682737647312
 20
-431.29449691178132
 30
0.0
 11
534.74813172429913
 21
-436.29449691178121
 31
0.0
  0
LINE
  5
19D
100
AcDbEntity
  8
AHS70-0106
370
              15
390
0
  6
STYLE_12
 62
               7
100
AcDbLine
 10
534.74813172429913
 20
-436.29449691178121
 30
0.0
 11
435.61769694168993
 21
-626.29449691178024
 31
0.0
  0
LINE
  5
19E
100
AcDbEntity
  8
AHS70-0106
370
              15
390
0
  6
Continuous
 62
               7
100
AcDbLine
 10
507.35682737647267
 20
-436.29449691178121
 30
0.0
 11
507.35682737647267
 21
-626.29449691178024
 31
0.0
  0
LINE
  5
19F
100
AcDbEntity
  8
AHS70-0106
370
              15
390
0
  6
Continuous
 62
               7
100
AcDbLine
 10
-439.08801206617409
 20
899.62770562493597
 30
0.0
 11
-249.08801206617426
 21
709.62770562493597
 31
0.0
  0
LINE
  5
1A0
100
AcDbEntity
  8
AHS70-0106
370
              15
390
0
  6
Continuous
 62
               7
100
AcDbLine
 10
-439.08801206617409
 20
899.62770562493597
 30
0.0
 11
-629.0880120661725
 21
709.62770562493597
 31
0.0
  0
LINE
  5
1A1
100
AcDbEntity
  8
AHS70-0106
370
              15
390
0
  6
Continuous
 62
               7
100
AcDbLine
 10
-249.08801206617426
 20
709.62770562493597
 30
0.0
 11
-281.50580508467863
 21
677.20991260643166
 31
0.0
  0
LINE
  5
1A2
100
AcDbEntity
  8
AHS70-0106
370
              15
390
0
  6
Continuous
 62
               7
100
AcDbLine
 10
-629.0880120661725
 20
709.62770562493597
 30
0.0
 11
-596.67021904766841
 21
677.20991260643177
 31
0.0
  0
CIRCLE
  5
1A3
100
AcDbEntity
  8
AHS70-0106
370
              15
390
0
  6
Continuous
 62
               7
100
AcDbCircle
 10
-439.08801206617409
 20
789.64776192231034
 30
0.0
 40
17.499999999999773
  0
LINE
  5
1A4
100
AcDbEntity
  8
AHS70-0106
370
               5
390
0
  6
STYLE_12
 62
               7
100
AcDbLine
 10
-389.59053738311627
 20
821.8459596944158
 30
0.0
 11
-361.30626613565443
 21
850.1302309418777
 31
0.0
  0
LINE
  5
1A5
100
AcDbEntity
  8
AHS70-0106
370
               5
390
0
  6
STYLE_12
 62
               7
100
AcDbLine
 10
-318.87985926446152
 20
751.13528157576116
 30
0.0
 11
-290.59558801699961
 21
779.41955282322306
 31
0.0
  0
LINE
  5
1A6
100
AcDbEntity
  8
AHS70-0106
370
               5
390
0
  6
STYLE_12
 62
               7
100
AcDbLine
 10
-488.58548674923179
 20
821.8459596944158
 30
0.0
 11
-516.86975799669324
 21
850.1302309418777
 31
0.0
  0
LINE
  5
1A7
100
AcDbEntity
  8
AHS70-0106
370
               5
390
0
  6
STYLE_12
 62
               7
100
AcDbLine
 10
-559.29616486788552
 20
751.13528157576116
 30
0.0
 11
-587.58043611534742
 21
779.41955282322306
 31
0.0
  0
LINE
  5
1A8
100
AcDbEntity
  8
AHS70-0106
370
              15
390
0
  6
STYLE_12
 62
               7
100
AcDbLine
 10
-355.44840175938538
 20
-506.2944969117803
 30
0.0
 11
-395.44840175938538
 21
-506.2944969117803
 31
0.0
  0
LINE
  5
1A9
100
AcDbEntity
  8
AHS70-0106
370
              15
390
0
  6
STYLE_12
 62
               7
100
AcDbLine
 10
-375.44840175938538
 20
-526.29449691178024
 30
0.0
 11
-375.44840175938538
 21
-486.29449691178053
 31
0.0
  0
LINE
  5
1AA
100
AcDbEntity
  8
AHS70-0106
370
              15
390
0
  6
STYLE_12
 62
               7
100
AcDbLine
 10
-593.43830049161647
 20
-506.2944969117803
 30
0.0
 11
-553.43830049161659
 21
-506.2944969117803
 31
0.0
  0
LINE
  5
1AB
100
AcDbEntity
  8
AHS70-0106
370
              15
390
0
  6
STYLE_12
 62
               7
100
AcDbLine
 10
-573.43830049161647
 20
-526.29449691178024
 30
0.0
 11
-573.43830049161647
 21
-486.29449691178053
 31
0.0
  0
LINE
  5
1AC
100
AcDbEntity
  8
AHS70-0106
370
              15
390
0
  6
STYLE_12
 62
               7
100
AcDbLine
 10
-522.72762237296217
 20
-506.2944969117803
 30
0.0
 11
-482.72762237296274
 21
-506.2944969117803
 31
0.0
  0
LINE
  5
1AD
100
AcDbEntity
  8
AHS70-0106
370
              15
390
0
  6
STYLE_12
 62
               7
100
AcDbLine
 10
-502.72762237296251
 20
-526.29449691178024
 30
0.0
 11
-502.72762237296251
 21
-486.29449691178053
 31
0.0
  0
LINE
  5
1AE
100
AcDbEntity
  8
AHS70-0106
370
              15
390
0
  6
STYLE_12
 62
               7
100
AcDbLine
 10
-629.0880120661725
 20
-507.96116357844704
 30
0.0
 11
-629.0880120661725
 21
-436.29449691178121
 31
0.0
  0
LINE
  5
1AF
100
AcDbEntity
  8
AHS70-0106
370
              15
390
0
  6
STYLE_12
 62
               7
100
AcDbLine
 10
-249.08801206617426
 20
-507.96116357844704
 30
0.0
 11
-249.08801206617426
 21
-436.29449691178121
 31
0.0
  0
LINE
  5
1B0
100
AcDbEntity
  8
AHS70-0106
370
              15
390
0
  6
Continuous
 62
               7
100
AcDbLine
 10
-629.0880120661725
 20
-626.29449691178024
 30
0.0
 11
-629.0880120661725
 21
-507.96116357844704
 31
0.0
  0
LINE
  5
1B1
100
AcDbEntity
  8
AHS70-0106
370
              15
390
0
  6
Continuous
 62
               7
100
AcDbLine
 10
-249.08801206617426
 20
-626.29449691178024
 30
0.0
 11
-310.82714250095717
 21
-626.29449691178024
 31
0.0
  0
LINE
  5
1B2
100
AcDbEntity
  8
AHS70-0106
370
              15
390
0
  6
Continuous
 62
               7
100
AcDbLine
 10
-567.34888163138987
 20
-626.29449691178024
 30
0.0
 11
-629.0880120661725
 21
-626.29449691178024
 31
0.0
  0
LINE
  5
1B3
100
AcDbEntity
  8
AHS70-0106
370
              15
390
0
  6
Continuous
 62
               7
100
AcDbLine
 10
-249.08801206617426
 20
-507.96116357844704
 30
0.0
 11
-249.08801206617426
 21
-626.29449691178024
 31
0.0
  0
CIRCLE
  5
1B4
100
AcDbEntity
  8
AHS70-0106
370
               5
390
0
  6
STYLE_12
 62
               7
100
AcDbCircle
 10
-573.43830049161647
 20
-506.2944969117803
 30
0.0
 40
10.0
  0
CIRCLE
  5
1B5
100
AcDbEntity
  8
AHS70-0106
370
               5
390
0
  6
STYLE_12
 62
               7
100
AcDbCircle
 10
-502.72762237296251
 20
-506.2944969117803
 30
0.0
 40
9.9999999999998863
  0
CIRCLE
  5
1B6
100
AcDbEntity
  8
AHS70-0106
370
               5
390
0
  6
STYLE_12
 62
               7
100
AcDbCircle
 10
-375.44840175938538
 20
-506.2944969117803
 30
0.0
 40
10.0
  0
CIRCLE
  5
1B7
100
AcDbEntity
  8
AHS70-0106
370
               5
390
0
  6
STYLE_12
 62
               7
100
AcDbCircle
 10
-304.73772364073062
 20
-506.2944969117803
 30
0.0
 40
10.000000000000057
  0
LINE
  5
1B8
100
AcDbEntity
  8
AHS70-0106
370
               5
390
0
  6
Continuous
 62
               7
100
AcDbLine
 10
604.85682737647403
 20
-436.29449691178121
 30
0.0
 11
604.85682737647403
 21
-451.2944969117811
 31
0.0
  0
LINE
  5
1B9
100
AcDbEntity
  8
AHS70-0106
370
               5
390
0
  6
Continuous
 62
               7
100
AcDbLine
 10
569.85682737647357
 20
-436.29449691178121
 30
0.0
 11
569.85682737647357
 21
-451.2944969117811
 31
0.0
  0
LINE
  5
1BA
100
AcDbEntity
  8
AHS70-0106
370
              15
390
0
  6
STYLE_12
 62
               7
100
AcDbLine
 10
-330.38143508891045
 20
-606.29449691178024
 30
0.0
 11
-547.79458904343687
 21
-606.29449691178024
 31
0.0
  0
LINE
  5
1BB
100
AcDbEntity
  8
AHS70-0106
370
              15
390
0
  6
STYLE_12
 62
               7
100
AcDbLine
 10
-639.0880120661725
 20
-431.29449691178132
 30
0.0
 11
-547.79458904343687
 21
-606.29449691178024
 31
0.0
  0
LINE
  5
1BC
100
AcDbEntity
  8
AHS70-0106
370
              15
390
0
  6
STYLE_12
 62
               7
100
AcDbLine
 10
-239.0880120661742
 20
-431.29449691178132
 30
0.0
 11
-330.38143508891045
 21
-606.29449691178024
 31
0.0
  0
LINE
  5
1BD
100
AcDbEntity
  8
AHS70-0106
370
              15
390
0
  6
STYLE_12
 62
               7
100
AcDbLine
 10
-461.62548659532069
 20
-616.28041625696369
 30
0.0
 11
-471.62548659532058
 21
-606.28041625696369
 31
0.0
  0
LINE
  5
1BE
100
AcDbEntity
  8
AHS70-0106
370
              15
390
0
  6
STYLE_12
 62
               7
100
AcDbLine
 10
-416.62548659532138
 20
-616.28041625696369
 30
0.0
 11
-406.62548659532149
 21
-606.28041625696369
 31
0.0
  0
INSERT
  5
1BF
100
AcDbEntity
  8
AHS70-0106
390
0
 62
               7
100
AcDbBlockReference
  2
グループ-2
 10
110.56394852112113
 20
166.37163133147209
 30
0.0
  0
DIMENSION
  5
1C0
100
AcDbEntity
  8
AHS70-0106
370
               5
390
0
  6
Continuous
 62
               7
100
AcDbDimension
  2
*D21
 10
-253.7303495508126
 20
1084.985368140296
 30
0.0
 11
-74.949274208752271
 21
906.20429279823566
 31
0.0
 70
               1
 71
               5
 72
               1
 41
1.0
 42
0.0
  1
505
  3
tfrom線あり
100
AcDbAlignedDimension
 13
-271.52586138205186
 23
352.06555494081539
 33
0.0
 14
-629.0880120661725
 24
709.62770562493597
 34
0.0
 50
45.0
1001
ACAD
1000
DSTYLE
1002
{
1070
             279
1070
               2
1070
             340
1005
38
1070
             147
1040
5.0
1002
}
  0
DIMENSION
  5
1C1
100
AcDbEntity
  8
AHS70-0106
370
               5
390
0
  6
Continuous
 62
               7
100
AcDbDimension
  2
*D22
 10
-427.84577487202
 20
803.05902968007149
 30
0.0
 11
-414.0
 21
748.0
 31
0.0
 70
               3
 71
               5
 72
               1
 41
1.0
 42
0.0
  3
tfrom線あり
100
AcDbDiametricDimension
 15
-450.33024926032806
 25
776.23649416454919
 35
0.0
 40
36.845036338465192
1001
ACAD
1000
DSTYLE
1002
{
1070
             289
1070
               0
1070
             342
1005
4D
1070
             340
1005
38
1070
              75
1070
               1
1070
              76
1070
               1
1070
               3
1000

1070
             174
1070
               0
1070
             147
1040
5.0
1002
}
  0
ENDSEC
  0
SECTION
  2
OBJECTS
  0
DICTIONARY
  5
19
100
AcDbDictionary
280
               0
281
               1
  3
ACAD_GROUP
350
1A
  3
ACAD_MLINESTYLE
350
1B
  3
ACAD_LAYOUT
350
1E
  3
ACAD_PLOTSETTINGS
350
22
  3
ACAD_PLOTSTYLENAME
350
1F
  0
DICTIONARY
  5
1A
102
{ACAD_REACTORS
330
19
102
}
100
AcDbDictionary
280
               0
281
               1
  0
DICTIONARY
  5
1B
102
{ACAD_REACTORS
330
19
102
}
100
AcDbDictionary
280
               0
281
               1
  3
Standard
350
1C
  0
MLINESTYLE
  5
1C
102
{ACAD_REACTORS
330
1B
102
}
100
AcDbMlineStyle
  2
Standard
 70
               0
  3

 62
               0
 51
90.0
 52
90.0
 71
               2
 49
0.5
 62
             256
  6
ByLayer
 49
-0.5
 62
             256
  6
ByLayer
  0
ACDBDICTIONARYWDFLT
  5
1F
102
{ACAD_REACTORS
330
19
102
}
100
AcDbDictionary
281
               1
  3
Normal
350
1D
100
AcDbDictionaryWithDefault
340
1D
  0
ACDBPLACEHOLDER
  5
1D
102
{ACAD_REACTORS
330
1F
102
}
  0
LAYOUT
  5
20
102
{ACAD_REACTORS
330
1E
102
}
100
AcDbPlotSettings
  1

  2

  4

  6

 40
0.0
 41
0.0
 42
0.0
 43
0.0
 44
0.0
 45
0.0
 46
0.0
 47
0.0
 48
0.0
 49
0.0
140
0.0
141
0.0
142
1.0
143
1.0
 70
            1024
 72
               0
 73
               0
 74
               0
  7

 75
               0
147
1.0
148
0.0
149
0.0
100
AcDbLayout
  1
Model
 70
               0
 71
               0
 10
0.0
 20
0.0
 11
0.0
 21
0.0
 12
0.0
 22
0.0
 32
0.0
 14
0.0
 24
0.0
 34
0.0
 15
0.0
 25
0.0
 35
0.0
146
0.0
 13
0.0
 23
0.0
 33
0.0
 16
0.0
 26
0.0
 36
0.0
 17
0.0
 27
0.0
 37
0.0
 76
               0
330
A
331
0
345
0
346
0
  0
LAYOUT
  5
21
102
{ACAD_REACTORS
330
1E
102
}
100
AcDbPlotSettings
  1

  2

  4

  6

 40
0.0
 41
0.0
 42
0.0
 43
0.0
 44
0.0
 45
0.0
 46
0.0
 47
0.0
 48
0.0
 49
0.0
140
0.0
141
0.0
142
1.0
143
1.0
 70
               0
 72
               0
 73
               0
 74
               0
  7

 75
               0
147
1.0
148
0.0
149
0.0
100
AcDbLayout
  1
Layout1
 70
               0
 71
               0
 10
0.0
 20
0.0
 11
0.0
 21
0.0
 12
0.0
 22
0.0
 32
0.0
 14
0.0
 24
0.0
 34
0.0
 15
0.0
 25
0.0
 35
0.0
146
0.0
 13
0.0
 23
0.0
 33
0.0
 16
0.0
 26
0.0
 36
0.0
 17
0.0
 27
0.0
 37
0.0
 76
               0
330
B
331
0
345
0
346
0
  0
DICTIONARY
  5
1E
102
{ACAD_REACTORS
330
19
102
}
100
AcDbDictionary
280
               0
281
               1
  3
Layout1
350
21
  3
Model
350
20
  0
DICTIONARY
  5
22
102
{ACAD_REACTORS
330
19
102
}
100
AcDbDictionary
280
               0
281
               1
  0
ENDSEC
  0
EOF
