  0
SECTION
  2
HEADER
  9
$ACADVER
  1
AC1015
  9
$ACADMAINTVER
 70
               6
  9
$DWGCODEPAGE
  3
ANSI_932
  9
$INSBASE
 10
0.0
 20
0.0
 30
0.0
  9
$EXTMIN
 10
-975.00000000024113
 20
-1418.7614075562062
 30
-14.834305555555554
  9
$EXTMAX
 10
975.00000000024124
 20
1418.7614075562062
 30
14.834305555555554
  9
$LIMMIN
 10
0.0
 20
0.0
  9
$LIMMAX
 10
0.0
 20
0.0
  9
$ORTHOMODE
 70
               0
  9
$REGENMODE
 70
               1
  9
$FILLMODE
 70
               1
  9
$QTEXTMODE
 70
               0
  9
$MIRRTEXT
 70
               1
  9
$LTSCALE
 40
50.799999999999997
  9
$ATTMODE
 70
               1
  9
$TEXTSIZE
 40
0.2
  9
$TRACEWID
 40
1.0
  9
$TEXTSTYLE
  7
Standard
  9
$CLAYER
  8
notes
  9
$CELTYPE
  6
Continuous
  9
$CECOLOR
 62
             256
  9
$CELTSCALE
 40
1.0
  9
$DISPSILH
 70
               0
  9
$DIMSCALE
 40
1.0
  9
$DIMASZ
 40
31.75
  9
$DIMEXO
 40
0.0
  9
$DIMDLI
 40
6.9999999999999396
  9
$DIMRND
 40
0.0
  9
$DIMDLE
 40
0.0
  9
$DIMEXE
 40
19.999999999996199
  9
$DIMTP
 40
0.0
  9
$DIMTM
 40
0.0
  9
$DIMTXT
 40
24.432617187500004
  9
$DIMCEN
 40
0.0
  9
$DIMTSZ
 40
0.0
  9
$DIMTOL
 70
               0
  9
$DIMLIM
 70
               0
  9
$DIMTIH
 70
               0
  9
$DIMTOH
 70
               0
  9
$DIMSE1
 70
               0
  9
$DIMSE2
 70
               0
  9
$DIMTAD
 70
               1
  9
$DIMZIN
 70
              11
  9
$DIMBLK
  1
VW_FILLEDARROW
  9
$DIMASO
 70
               1
  9
$DIMSHO
 70
               1
  9
$DIMPOST
  1
<>
  9
$DIMAPOST
  1
[]
  9
$DIMALT
 70
               0
  9
$DIMALTD
 70
               1
  9
$DIMALTF
 40
1.0
  9
$DIMLFAC
 40
1.0
  9
$DIMTOFL
 70
               0
  9
$DIMTVP
 40
0.0
  9
$DIMTIX
 70
               1
  9
$DIMSOXD
 70
               0
  9
$DIMSAH
 70
               0
  9
$DIMBLK1
  1

  9
$DIMBLK2
  1

  9
$DIMSTYLE
  2
JIS
  9
$DIMCLRD
 70
               0
  9
$DIMCLRE
 70
               0
  9
$DIMCLRT
 70
               0
  9
$DIMTFAC
 40
1.0
  9
$DIMGAP
 40
1.00000000000108
  9
$DIMJUST
 70
               0
  9
$DIMSD1
 70
               0
  9
$DIMSD2
 70
               0
  9
$DIMTOLJ
 70
               1
  9
$DIMTZIN
 70
              11
  9
$DIMALTZ
 70
              11
  9
$DIMALTTZ
 70
              11
  9
$DIMUPT
 70
               0
  9
$DIMDEC
 70
               1
  9
$DIMTDEC
 70
               1
  9
$DIMALTU
 70
               2
  9
$DIMALTTD
 70
               2
  9
$DIMTXSTY
  7
ＭＳ ゴシック
  9
$DIMAUNIT
 70
               0
  9
$DIMADEC
 70
               2
  9
$DIMALTRND
 40
0.0
  9
$DIMAZIN
 70
               0
  9
$DIMDSEP
 70
              46
  9
$DIMATFIT
 70
               0
  9
$DIMFRAC
 70
               2
  9
$DIMLDRBLK
  1

  9
$DIMLUNIT
 70
               2
  9
$DIMLWD
 70
              -2
  9
$DIMLWE
 70
              -2
  9
$DIMTMOVE
 70
               0
  9
$LUNITS
 70
               2
  9
$LUPREC
 70
               4
  9
$SKETCHINC
 40
0.1
  9
$FILLETRAD
 40
0.0
  9
$AUNITS
 70
               0
  9
$AUPREC
 70
               0
  9
$MENU
  1
acad
  9
$ELEVATION
 40
0.0
  9
$PELEVATION
 40
0.0
  9
$THICKNESS
 40
0.0
  9
$LIMCHECK
 70
               0
  9
$CHAMFERA
 40
0.0
  9
$CHAMFERB
 40
0.0
  9
$CHAMFERC
 40
0.0
  9
$CHAMFERD
 40
0.0
  9
$SKPOLY
 70
               0
  9
$TDCREATE
 40
2456542.410972222
  9
$TDUCREATE
 40
0.000000000
  9
$TDUPDATE
 40
2456542.410972222
  9
$TDUUPDATE
 40
0.000000000
  9
$TDINDWG
 40
0.0000000000
  9
$TDUSRTIMER
 40
0.0000000000
  9
$USRTIMER
 70
               1
  9
$ANGBASE
 50
0.0
  9
$ANGDIR
 70
               0
  9
$PDMODE
 70
               1
  9
$PDSIZE
 40
-2.0
  9
$PLINEWID
 40
0.0
  9
$SPLFRAME
 70
               0
  9
$SPLINETYPE
 70
               6
  9
$SPLINESEGS
 70
               8
  9
$HANDSEED
  5
16A
  9
$SURFTAB1
 70
               6
  9
$SURFTAB2
 70
               6
  9
$SURFTYPE
 70
               6
  9
$SURFU
 70
               6
  9
$SURFV
 70
               6
  9
$UCSBASE
  2

  9
$UCSNAME
  2

  9
$UCSORG
 10
0.0
 20
0.0
 30
0.0
  9
$UCSXDIR
 10
1.0
 20
0.0
 30
0.0
  9
$UCSYDIR
 10
0.0
 20
1.0
 30
0.0
  9
$UCSORTHOREF
  2

  9
$UCSORTHOVIEW
 70
               0
  9
$UCSORGTOP
 10
0.0
 20
0.0
 30
0.0
  9
$UCSORGBOTTOM
 10
0.0
 20
0.0
 30
0.0
  9
$UCSORGLEFT
 10
0.0
 20
0.0
 30
0.0
  9
$UCSORGRIGHT
 10
0.0
 20
0.0
 30
0.0
  9
$UCSORGFRONT
 10
0.0
 20
0.0
 30
0.0
  9
$UCSORGBACK
 10
0.0
 20
0.0
 30
0.0
  9
$PUCSBASE
  2

  9
$PUCSNAME
  2

  9
$PUCSORG
 10
0.0
 20
0.0
 30
0.0
  9
$PUCSXDIR
 10
1.0
 20
0.0
 30
0.0
  9
$PUCSYDIR
 10
0.0
 20
1.0
 30
0.0
  9
$PUCSORTHOREF
  2

  9
$PUCSORTHOVIEW
 70
               0
  9
$PUCSORGTOP
 10
0.0
 20
0.0
 30
0.0
  9
$PUCSORGBOTTOM
 10
0.0
 20
0.0
 30
0.0
  9
$PUCSORGLEFT
 10
0.0
 20
0.0
 30
0.0
  9
$PUCSORGRIGHT
 10
0.0
 20
0.0
 30
0.0
  9
$PUCSORGFRONT
 10
0.0
 20
0.0
 30
0.0
  9
$PUCSORGBACK
 10
0.0
 20
0.0
 30
0.0
  9
$USERI1
 70
               0
  9
$USERI2
 70
               0
  9
$USERI3
 70
               0
  9
$USERI4
 70
               0
  9
$USERI5
 70
               0
  9
$USERR1
 40
0.0
  9
$USERR2
 40
0.0
  9
$USERR3
 40
0.0
  9
$USERR4
 40
0.0
  9
$USERR5
 40
0.0
  9
$WORLDVIEW
 70
               1
  9
$SHADEDGE
 70
               3
  9
$SHADEDIF
 70
              70
  9
$TILEMODE
 70
               1
  9
$MAXACTVP
 70
              64
  9
$PINSBASE
 10
0.0
 20
0.0
 30
0.0
  9
$PLIMCHECK
 70
               0
  9
$PEXTMIN
 10
1.0000000000000000E+20
 20
1.0000000000000000E+20
 30
1.0000000000000000E+20
  9
$PEXTMAX
 10
-1.0000000000000000E+20
 20
-1.0000000000000000E+20
 30
-1.0000000000000000E+20
  9
$PLIMMIN
 10
0.0
 20
0.0
  9
$PLIMMAX
 10
12.0
 20
9.0
  9
$UNITMODE
 70
               0
  9
$VISRETAIN
 70
               0
  9
$PLINEGEN
 70
               1
  9
$PSLTSCALE
 70
               0
  9
$TREEDEPTH
 70
            3020
  9
$CMLSTYLE
  2
Standard
  9
$CMLJUST
 70
               0
  9
$CMLSCALE
 40
1.0
  9
$PROXYGRAPHICS
 70
               0
  9
$MEASUREMENT
 70
               1
  9
$CELWEIGHT
370
               0
  9
$ENDCAPS
280
               0
  9
$JOINSTYLE
280
               0
  9
$LWDISPLAY
290
               1
  9
$INSUNITS
 70
               4
  9
$HYPERLINKBASE
  1

  9
$STYLESHEET
  1

  9
$XEDIT
290
               1
  9
$CEPSNTYPE
380
               0
  9
$PSTYLEMODE
290
               1
  9
$FINGERPRINTGUID
  2

  9
$VERSIONGUID
  2

  9
$EXTNAMES
290
               1
  9
$PSVPSCALE
 40
0.0
  0
ENDSEC
  0
SECTION
  2
CLASSES
  0
CLASS
  1
LWPOLYLINE
  2
AcDbPolyline
  3
AutoCAD 2000
 90
        0
280
               0
281
               1
  0
CLASS
  1
IMAGE
  2
AcDbRasterImage
  3
ISM
 90
      127
280
               0
281
               1
  0
CLASS
  1
OLE2FRAME
  2
AcDbOle2Frame
  3
AutoCAD 2000
 90
        0
280
               0
281
               1
  0
CLASS
  1
HATCH
  2
AcDbHatch
  3
AutoCAD 2000
 90
        0
280
               0
281
               1
  0
CLASS
  1
DICTIONARYVAR
  2
AcDbDictionaryVar
  3
AutoCAD 2000
 90
        0
280
               0
281
               0
  0
CLASS
  1
RASTERVARIABLES
  2
AcDbRasterVariables
  3
ISM
 90
        0
280
               0
281
               0
  0
CLASS
  1
IMAGEDEF
  2
AcDbRasterImageDef
  3
ISM
 90
        0
280
               0
281
               0
  0
CLASS
  1
IMAGEDEF_REACTOR
  2
AcDbRasterImageDefReactor
  3
ISM
 90
        1
280
               0
281
               0
  0
CLASS
  1
IDBUFFER
  2
AcDbIdBuffer
  3
AutoCAD 2000
 90
        0
280
               0
281
               0
  0
CLASS
  1
SPATIAL_FILTER
  2
AcDbSpatialFilter
  3
AutoCAD 2000
 90
        0
280
               0
281
               0
  0
CLASS
  1
XRECORD
  2
AcDbXrecord
  3
AutoCAD 2000
 90
        0
280
               0
281
               0
  0
CLASS
  1
SORTENTSTABLE
  2
AcDbSortentsTable
  3
AutoCAD 2000
 90
        0
280
               0
281
               0
  0
CLASS
  1
LAYER_INDEX
  2
AcDbLayerIndex
  3
AutoCAD 2000
 90
        0
280
               0
281
               0
  0
CLASS
  1
SPATIAL_INDEX
  2
AcDbSpatialIndex
  3
AutoCAD 2000
 90
        0
280
               0
281
               0
  0
CLASS
  1
OBJECT_PTR
  2
CAseDLPNTableRecord
  3
"ASE-LPNTableRecord"
 90
        1
280
               0
281
               0
  0
CLASS
  1
LAYOUT
  2
AcDbLayout
  3
AutoCAD 2000
 90
        0
280
               0
281
               0
  0
CLASS
  1
PLOTSETTINGS
  2
AcDbPlotSettings
  3
AutoCAD 2000
 90
        0
280
               0
281
               0
  0
CLASS
  1
ACDBDICTIONARYWDFLT
  2
AcDbDictionaryWithDefault
  3
AutoCAD 2000
 90
        0
280
               0
281
               0
  0
CLASS
  1
ACDBPLACEHOLDER
  2
AcDbPlaceHolder
  3
AutoCAD 2000
 90
        0
280
               0
281
               0
  0
ENDSEC
  0
SECTION
  2
TABLES
  0
TABLE
  2
VPORT
  5
7
100
AcDbSymbolTable
 70
               1
  0
VPORT
  5
15
100
AcDbSymbolTableRecord
100
AcDbViewportTableRecord
  2
*ACTIVE
 70
               0
 10
0.0
 20
0.0
 11
1.0
 21
1.0
 12
0.0000000000001137
 22
0.0
 13
0.0
 23
0.0
 14
1.0
 24
1.0
 15
0.0
 25
0.0
 16
0.0
 26
0.0
 36
1.0
 17
0.0
 27
0.0
 37
0.0
 40
2837.5228151124124
 41
0.688564
 42
50.0
 43
0.0
 44
0.0
 50
0.0
 51
0.0
 71
               0
 72
            2000
 73
               1
 74
               1
 75
               0
 76
               0
 77
               0
 78
               0
281
               0
 65
               0
110
0.0
120
0.0
130
0.0
111
1.0
121
0.0
131
0.0
112
0.0
122
1.0
132
0.0
345
0
346
0
 79
               0
146
0.0
  0
ENDTAB
  0
TABLE
  2
LTYPE
  5
4
100
AcDbSymbolTable
 70
              17
  0
LTYPE
  5
11
100
AcDbSymbolTableRecord
100
AcDbLinetypeTableRecord
  2
ByBlock
 70
              64
  3

 72
              65
 73
               0
 40
0.0
  0
LTYPE
  5
12
100
AcDbSymbolTableRecord
100
AcDbLinetypeTableRecord
  2
ByLayer
 70
              64
  3

 72
              65
 73
               0
 40
0.0
  0
LTYPE
  5
13
100
AcDbSymbolTableRecord
100
AcDbLinetypeTableRecord
  2
Continuous
 70
              64
  3
Solid line
 72
              65
 73
               0
 40
0.0
  0
LTYPE
  5
31
100
AcDbSymbolTableRecord
100
AcDbLinetypeTableRecord
  2
STYLE_01
 70
               0
  3

 72
              65
 73
               2
 40
0.2777777777777778
 49
0.2777777777777778
 74
               0
 49
-0.0005
 74
               0
  0
LTYPE
  5
32
100
AcDbSymbolTableRecord
100
AcDbLinetypeTableRecord
  2
STYLE_02
 70
               0
  3

 72
              65
 73
               2
 40
0.6944250000000001
 49
0.48607
 74
               0
 49
-0.2083550000000001
 74
               0
  0
LTYPE
  5
33
100
AcDbSymbolTableRecord
100
AcDbLinetypeTableRecord
  2
STYLE_03
 70
               0
  3

 72
              65
 73
               2
 40
1.25
 49
1.0416400000000001
 74
               0
 49
-0.2083599999999999
 74
               0
  0
LTYPE
  5
34
100
AcDbSymbolTableRecord
100
AcDbLinetypeTableRecord
  2
STYLE_04
 70
               0
  3

 72
              65
 73
               2
 40
1.5277099999999999
 49
1.3194249999999998
 74
               0
 49
-0.208285
 74
               0
  0
LTYPE
  5
35
100
AcDbSymbolTableRecord
100
AcDbLinetypeTableRecord
  2
STYLE_05
 70
               0
  3

 72
              65
 73
               2
 40
0.20828
 49
0.069425
 74
               0
 49
-0.138855
 74
               0
  0
LTYPE
  5
36
100
AcDbSymbolTableRecord
100
AcDbLinetypeTableRecord
  2
STYLE_06
 70
               0
  3

 72
              65
 73
               4
 40
1.0416400000000001
 49
0.625
 74
               0
 49
-0.20828
 74
               0
 49
0.06943
 74
               0
 49
-0.13893
 74
               0
  0
LTYPE
  5
37
100
AcDbSymbolTableRecord
100
AcDbLinetypeTableRecord
  2
STYLE_07
 70
               0
  3

 72
              65
 73
               6
 40
1.875
 49
0.625
 74
               0
 49
-0.20828
 74
               0
 49
0.6250000000000001
 74
               0
 49
-0.2083599999999999
 74
               0
 49
0.06943
 74
               0
 49
-0.1389299999999999
 74
               0
  0
LTYPE
  5
38
100
AcDbSymbolTableRecord
100
AcDbLinetypeTableRecord
  2
STYLE_08
 70
               0
  3

 72
              65
 73
               6
 40
1.25
 49
0.625
 74
               0
 49
-0.20828
 74
               0
 49
0.06943
 74
               0
 49
-0.13893
 74
               0
 49
0.0694299999999999
 74
               0
 49
-0.13893
 74
               0
  0
LTYPE
  5
39
100
AcDbSymbolTableRecord
100
AcDbLinetypeTableRecord
  2
STYLE_09
 70
               0
  3

 72
              65
 73
               4
 40
5.0
 49
3.75
 74
               0
 49
-0.2777849999999998
 74
               0
 49
0.6944300000000003
 74
               0
 49
-0.2777849999999998
 74
               0
  0
LTYPE
  5
3A
100
AcDbSymbolTableRecord
100
AcDbLinetypeTableRecord
  2
STYLE_10
 70
               0
  3

 72
              65
 73
               6
 40
5.9375
 49
3.75
 74
               0
 49
-0.2777849999999998
 74
               0
 49
0.6944300000000003
 74
               0
 49
-0.2777849999999998
 74
               0
 49
0.625
 74
               0
 49
-0.3125
 74
               0
  0
LTYPE
  5
3B
100
AcDbSymbolTableRecord
100
AcDbLinetypeTableRecord
  2
STYLE_11
 70
               0
  3

 72
              65
 73
               2
 40
0.0694444881889764
 49
0.0347222440944882
 74
               0
 49
-0.0347222440944882
 74
               0
  0
LTYPE
  5
3C
100
AcDbSymbolTableRecord
100
AcDbLinetypeTableRecord
  2
STYLE_12
 70
               0
  3

 72
              65
 73
               2
 40
0.3937007874015748
 49
0.1968503937007874
 74
               0
 49
-0.1968503937007874
 74
               0
  0
LTYPE
  5
3D
100
AcDbSymbolTableRecord
100
AcDbLinetypeTableRecord
  2
STYLE_13
 70
               0
  3

 72
              65
 73
               2
 40
0.5905511811023622
 49
0.2952755905511811
 74
               0
 49
-0.2952755905511811
 74
               0
  0
LTYPE
  5
3E
100
AcDbSymbolTableRecord
100
AcDbLinetypeTableRecord
  2
STYLE_14
 70
               0
  3

 72
              65
 73
               2
 40
1.9685039370078738
 49
0.9842519685039369
 74
               0
 49
-0.9842519685039369
 74
               0
  0
ENDTAB
  0
TABLE
  2
LAYER
  5
2
100
AcDbSymbolTable
 70
               5
  0
LAYER
  5
14
100
AcDbSymbolTableRecord
100
AcDbLayerTableRecord
  2
0
 70
               0
 62
               7
  6
Continuous
290
               1
370
              -3
390
1D
  0
LAYER
  5
3F
100
AcDbSymbolTableRecord
100
AcDbLayerTableRecord
  2
Defpoints
 70
               0
 62
               7
  6
Continuous
290
               0
370
              -3
390
1D
  0
LAYER
  5
40
100
AcDbSymbolTableRecord
100
AcDbLayerTableRecord
  2
template
 70
               0
 62
               7
  6
Continuous
290
               1
370
              -3
390
1D
  0
LAYER
  5
41
100
AcDbSymbolTableRecord
100
AcDbLayerTableRecord
  2
notes
 70
               0
 62
               7
  6
Continuous
290
               1
370
              -3
390
1D
  0
LAYER
  5
42
100
AcDbSymbolTableRecord
100
AcDbLayerTableRecord
  2
AKF70-0812
 70
               0
 62
               7
  6
Continuous
290
               1
370
              -3
390
1D
  0
ENDTAB
  0
TABLE
  2
STYLE
  5
3
100
AcDbSymbolTable
 70
               2
  0
STYLE
  5
17
100
AcDbSymbolTableRecord
100
AcDbTextStyleTableRecord
  2
Standard
 70
               0
 40
0.0
 41
1.0
 50
0.0
 71
               0
 42
0.0
  3
txt
  4
BIGFONT.SHX
  0
STYLE
  5
30
100
AcDbSymbolTableRecord
100
AcDbTextStyleTableRecord
  2
ＭＳ ゴシック
 70
               0
 40
0.0
 41
1.0
 50
0.0
 71
               0
 42
0.0
  3

  4
ＭＳ ゴシック
1001
ACAD
1000
ＭＳ ゴシック
1071
        0
  0
ENDTAB
  0
TABLE
  2
VIEW
  5
5
100
AcDbSymbolTable
 70
               0
  0
ENDTAB
  0
TABLE
  2
UCS
  5
6
100
AcDbSymbolTable
 70
               0
  0
ENDTAB
  0
TABLE
  2
APPID
  5
8
100
AcDbSymbolTable
 70
               1
  0
APPID
  5
16
100
AcDbSymbolTableRecord
100
AcDbRegAppTableRecord
  2
ACAD
 70
               0
  0
ENDTAB
  0
TABLE
  2
DIMSTYLE
  5
9
100
AcDbSymbolTable
 70
               3
100
AcDbDimStyleTable
 71
               0
  0
DIMSTYLE
105
18
100
AcDbSymbolTableRecord
100
AcDbDimStyleTableRecord
  2
Standard
 70
               0
  3

  4

 40
1.0
 41
0.18
 42
0.0625
 43
0.38
 44
0.18
 45
0.0
 46
0.0
 47
0.0
 48
0.0
 71
               0
 72
               0
 73
               1
 74
               1
 75
               0
 76
               0
 77
               0
 78
               0
 79
               0
140
0.18
141
0.09
142
0.0
143
25.399999999999999
144
1.0
145
0.0
146
1.0
147
0.09
148
0.0
170
               0
171
               2
172
               0
173
               0
174
               0
175
               0
176
               0
177
               0
178
               0
179
               0
271
               4
272
               4
273
               2
274
               2
275
               0
276
               0
277
               2
278
              46
279
               0
280
               0
281
               0
282
               0
283
               1
284
               0
285
               0
286
               0
288
               0
289
               3
340
17
341
0
342
0
343
0
344
0
371
              -2
372
              -2
  0
DIMSTYLE
105
4B
100
AcDbSymbolTableRecord
100
AcDbDimStyleTableRecord
  2
tfrom線あり
 70
               0
  3
<>
  4
[]
 40
1.0
 41
3.999755859375
 42
24.999999999999996
 43
0.9999999999999999
 44
0.0
 45
0.0
 46
0.0
 47
0.0
 48
0.0
 71
               0
 72
               0
 73
               0
 74
               0
 75
               0
 76
               0
 77
               1
 78
              11
 79
               0
140
24.432617187500004
141
0.0
142
0.0
143
1.0
144
1.0
145
0.0
146
1.0
147
0.4999999999999999
148
0.0
170
               0
171
               1
172
               0
173
               0
174
               1
175
               0
176
               0
177
               0
178
               0
179
               2
271
               1
272
               1
273
               2
274
               2
275
               0
276
               2
277
               2
278
              46
279
               0
280
               0
281
               0
282
               0
283
               1
284
              11
285
              11
286
              11
288
               0
289
               0
340
30
341
43
342
43
343
0
344
0
371
              -2
372
              -2
  0
DIMSTYLE
105
50
100
AcDbSymbolTableRecord
100
AcDbDimStyleTableRecord
  2
JIS
 70
               0
  3
<>
  4
[]
 40
1.0
 41
31.75
 42
0.0
 43
6.9999999999999396
 44
19.999999999996199
 45
0.0
 46
0.0
 47
0.0
 48
0.0
 71
               0
 72
               0
 73
               0
 74
               0
 75
               0
 76
               0
 77
               1
 78
              11
 79
               0
140
24.432617187500004
141
0.0
142
0.0
143
1.0
144
1.0
145
0.0
146
1.0
147
1.00000000000108
148
0.0
170
               0
171
               1
172
               0
173
               0
174
               1
175
               0
176
               0
177
               0
178
               0
179
               2
271
               1
272
               1
273
               2
274
               2
275
               0
276
               2
277
               2
278
              46
279
               0
280
               0
281
               0
282
               0
283
               1
284
              11
285
              11
286
              11
288
               0
289
               0
340
30
341
4C
342
4C
343
0
344
0
371
              -2
372
              -2
  0
ENDTAB
  0
TABLE
  2
BLOCK_RECORD
  5
1
100
AcDbSymbolTable
 70
              15
  0
BLOCK_RECORD
  5
A
100
AcDbSymbolTableRecord
100
AcDbBlockTableRecord
  2
*MODEL_SPACE
340
20
  0
BLOCK_RECORD
  5
B
100
AcDbSymbolTableRecord
100
AcDbBlockTableRecord
  2
*PAPER_SPACE
340
21
  0
BLOCK_RECORD
  5
43
100
AcDbSymbolTableRecord
100
AcDbBlockTableRecord
  2
_DOT
340
0
  0
BLOCK_RECORD
  5
4C
100
AcDbSymbolTableRecord
100
AcDbBlockTableRecord
  2
VW_FILLEDARROW
340
0
  0
BLOCK_RECORD
  5
23
100
AcDbSymbolTableRecord
100
AcDbBlockTableRecord
  2
グループ
340
0
102
{BLKREFS
331
101
102
}
  0
BLOCK_RECORD
  5
24
100
AcDbSymbolTableRecord
100
AcDbBlockTableRecord
  2
*D3
340
0
  0
BLOCK_RECORD
  5
25
100
AcDbSymbolTableRecord
100
AcDbBlockTableRecord
  2
*D4
340
0
  0
BLOCK_RECORD
  5
26
100
AcDbSymbolTableRecord
100
AcDbBlockTableRecord
  2
*D5
340
0
  0
BLOCK_RECORD
  5
27
100
AcDbSymbolTableRecord
100
AcDbBlockTableRecord
  2
*D6
340
0
  0
BLOCK_RECORD
  5
28
100
AcDbSymbolTableRecord
100
AcDbBlockTableRecord
  2
*D7
340
0
  0
BLOCK_RECORD
  5
29
100
AcDbSymbolTableRecord
100
AcDbBlockTableRecord
  2
*D8
340
0
  0
BLOCK_RECORD
  5
2A
100
AcDbSymbolTableRecord
100
AcDbBlockTableRecord
  2
*D9
340
0
  0
BLOCK_RECORD
  5
2B
100
AcDbSymbolTableRecord
100
AcDbBlockTableRecord
  2
*D10
340
0
  0
BLOCK_RECORD
  5
2C
100
AcDbSymbolTableRecord
100
AcDbBlockTableRecord
  2
*D11
340
0
  0
BLOCK_RECORD
  5
2D
100
AcDbSymbolTableRecord
100
AcDbBlockTableRecord
  2
*D12
340
0
  0
BLOCK_RECORD
  5
2E
100
AcDbSymbolTableRecord
100
AcDbBlockTableRecord
  2
*D13
340
0
  0
BLOCK_RECORD
  5
2F
100
AcDbSymbolTableRecord
100
AcDbBlockTableRecord
  2
*D14
340
0
  0
ENDTAB
  0
ENDSEC
  0
SECTION
  2
BLOCKS
  0
BLOCK
  5
D
100
AcDbEntity
  8
0
390
0
100
AcDbBlockBegin
  2
*MODEL_SPACE
 70
               0
 10
0.0
 20
0.0
 30
0.0
  3
*MODEL_SPACE
  1

  0
ENDBLK
  5
E
100
AcDbEntity
  8
0
390
0
100
AcDbBlockEnd
  0
BLOCK
  5
F
100
AcDbEntity
 67
               1
  8
0
390
0
100
AcDbBlockBegin
  2
*PAPER_SPACE
 70
               0
 10
0.0
 20
0.0
 30
0.0
  3
*PAPER_SPACE
  1

  0
ENDBLK
  5
10
100
AcDbEntity
 67
               1
  8
0
390
0
100
AcDbBlockEnd
  0
BLOCK
  5
44
100
AcDbEntity
  8
0
390
0
100
AcDbBlockBegin
  2
_DOT
 70
               0
 10
0.0
 20
0.0
 30
0.0
  3
_DOT
  1

  0
POLYLINE
  5
45
100
AcDbEntity
  8
0
370
              -2
390
0
  6
ByBlock
 62
               0
100
AcDb2dPolyline
 66
               1
 10
0.0
 20
0.0
 30
0.0
 70
               1
 40
0.5
 41
0.5
  0
VERTEX
  5
46
100
AcDbEntity
  8
0
370
              -2
390
0
  6
ByBlock
 62
               0
100
AcDbVertex
100
AcDb2dVertex
 10
-0.25
 20
0.0
 30
0.0
 42
1.0
  0
VERTEX
  5
47
100
AcDbEntity
  8
0
370
              -2
390
0
  6
ByBlock
 62
               0
100
AcDbVertex
100
AcDb2dVertex
 10
0.25
 20
0.0
 30
0.0
 42
1.0
  0
SEQEND
  5
48
100
AcDbEntity
  8
0
390
0
  0
LINE
  5
49
100
AcDbEntity
  8
0
370
              -2
390
0
  6
ByBlock
 62
               0
100
AcDbLine
 10
-0.5
 20
0.0
 30
0.0
 11
-1.0
 21
0.0
 31
0.0
  0
ENDBLK
  5
4A
100
AcDbEntity
  8
0
390
0
100
AcDbBlockEnd
  0
BLOCK
  5
4D
100
AcDbEntity
  8
0
370
              -2
390
0
  6
ByBlock
 62
               0
100
AcDbBlockBegin
  2
VW_FILLEDARROW
 70
               0
 10
0.0
 20
0.0
 30
0.0
  3
VW_FILLEDARROW
  1

  0
SOLID
  5
4E
100
AcDbEntity
  8
0
370
              -2
390
0
 62
               0
100
AcDbTrace
 10
0.0
 20
0.0
 30
0.0
 11
-0.9921874999999999
 21
-0.2658558393652545
 31
0.0
 12
-0.9921874999999999
 22
0.2658558393652548
 32
0.0
 13
-0.9921874999999999
 23
0.2658558393652548
 33
0.0
  0
ENDBLK
  5
4F
100
AcDbEntity
  8
0
390
0
100
AcDbBlockEnd
  0
BLOCK
  5
51
100
AcDbEntity
  8
template
390
0
100
AcDbBlockBegin
  2
グループ
 70
               0
 10
0.0
 20
0.0
 30
0.0
  3
グループ
  1

  0
LWPOLYLINE
  5
52
100
AcDbEntity
  8
0
370
              15
390
0
  6
Continuous
 62
               7
100
AcDbPolyline
 90
        8
 70
             129
 10
777.42659611055103
 20
-1426.7770750215395
 10
777.42659611055103
 20
-1432.7744637151154
 10
767.92539919254784
 20
-1432.7744637151154
 10
767.92539919254784
 20
-1457.2254269786242
 10
759.57002193076448
 20
-1457.2254269786242
 10
759.57002193076448
 20
-1432.7744637151154
 10
750.23706498445506
 20
-1432.7744637151154
 10
750.23706498445506
 20
-1426.7770750215395
  0
LWPOLYLINE
  5
53
100
AcDbEntity
  8
0
370
              15
390
0
  6
Continuous
 62
               7
100
AcDbPolyline
 90
      101
 70
             128
 10
790.1548879411074
 20
-1427.505323514476
 10
790.17023796989383
 20
-1427.5009627577906
 42
-0.0222221607812202
 10
790.46024254656402
 20
-1427.4323382925463
 10
790.47603631055847
 20
-1427.4293348694491
 42
-0.0146883565585511
 10
790.73873901578179
 20
-1427.3873316825
 42
-0.0127458844185538
 10
791.00337798293231
 20
-1427.3597947144276
 10
791.06583306124764
 20
-1427.3549012918393
 42
-0.0198099018567553
 10
791.45668217071795
 20
-1427.3398161344426
 10
791.50849364016801
 20
-1427.3398699101076
 42
-0.014761738276016
 10
792.0031171011467
 20
-1427.3549899353529
 10
792.07580855601657
 20
-1427.3593625422402
 42
-0.0162624549002918
 10
792.46596218548177
 20
-1427.3955954175126
 10
792.58749457674458
 20
-1427.4108819765095
 42
-0.0080020874659319
 10
792.73307360783258
 20
-1427.4315648237775
 10
792.77139307841674
 20
-1427.4376361015868
 42
-0.0053821929674037
 10
792.83987718374271
 20
-1427.4492436254102
 10
792.11347148454377
 20
-1429.6301720811241
 42
0.0108667757393181
 10
792.04615441441706
 20
-1429.616984965905
 10
792.00868639122348
 20
-1429.6104872233097
 42
0.017066320330618
 10
791.86546960430951
 20
-1429.5906576260181
 10
791.79759427162492
 20
-1429.5836104554305
 42
0.0220162375274665
 10
791.51721486377005
 20
-1429.5669280946604
 10
791.43935929671466
 20
-1429.5657287273939
 42
0.0282606915790869
 10
791.10372297313972
 20
-1429.579532004363
 10
791.059809699369
 20
-1429.5838319943664
 42
0.0169677213682268
 10
790.81388520440839
 20
-1429.6163690439184
 42
0.0190576269866585
 10
790.57097724182836
 20
-1429.666515916025
 10
790.56471805371746
 20
-1429.6680588901343
 42
0.0213685642846825
 10
790.31433356923935
 20
-1429.7412591752393
 10
790.30884367432361
 20
-1429.7431221712982
 42
0.023759529759868
 10
790.05534878942547
 20
-1429.8428066931936
 10
790.05024671539502
 20
-1429.8450984686719
 42
0.0261857468823137
 10
789.79807593916303
 20
-1429.9746348060476
 10
789.78764975007687
 20
-1429.9807002805155
 42
0.0272553062022725
 10
789.55121997483991
 20
-1430.1360724864589
 10
789.5164569613305
 20
-1430.1617336345512
 42
0.0325996893174755
 10
789.36630161767891
 20
-1430.2884815075226
 10
789.34259218855118
 20
-1430.3112995360398
 42
0.0138050960643656
 10
789.25070903234553
 20
-1430.4047491975871
 42
0.0125280103802499
 10
789.16386649951414
 20
-1430.5029125241847
 10
789.14018605460353
 20
-1430.5310710223746
 42
0.0205218024741742
 10
789.01508597908855
 20
-1430.6928643366052
 10
788.9926196386026
 20
-1430.7245240664306
 42
0.0163110129586436
 10
788.83690925935139
 20
-1430.9598545015006
 10
788.83418536330043
 20
-1430.964278263486
 42
0.0131897341900452
 10
788.68738484239361
 20
-1431.2174103558525
 10
788.68568474702818
 20
-1431.2205285949863
 42
0.0107895576067714
 10
788.54790804481297
 20
-1431.4867438046304
 10
788.54717515529239
 20
-1431.4882380372678
 42
0.0091371507212281
 10
788.41869520664409
 20
-1431.7627632350245
 10
788.3889495752336
 20
-1431.8294697421861
 42
0.0135418326355103
 10
788.21723563616104
 20
-1432.2444075274573
 10
788.1836308277243
 20
-1432.3322736697451
 42
0.009283454240794
 10
788.01240176780709
 20
-1432.8061721680415
 10
787.9867846400889
 20
-1432.8814132378368
 42
0.0054261043582835
 10
787.8791464917964
 20
-1433.2091772109002
 10
787.86162050561052
 20
-1433.2645653731568
 42
0.0008225090820895
 10
787.79295045378865
 20
-1433.4828341312793
 10
786.80826132185564
 20
-1436.5077254245359
 10
790.0408851619294
 20
-1436.5077254245359
 10
789.53669273207549
 20
-1438.4122037228883
 10
786.2806364500924
 20
-1438.4122037228883
 10
780.45148741773835
 20
-1457.2254267888932
 10
778.62638980742838
 20
-1457.2254267888932
 10
784.46106784292886
 20
-1438.4122037228883
 10
782.05595147388874
 20
-1438.4122037228883
 10
782.56014390374264
 20
-1436.5077254245359
 10
784.98869271469255
 20
-1436.5077254245359
 10
785.84884763288107
 20
-1433.871312423837
 42
-0.0005863560669196
 10
785.88558231103411
 20
-1433.7544860037051
 10
785.96167014474474
 20
-1433.5134937041598
 42
-0.0087522378929357
 10
786.16113828820141
 20
-1432.9182176170139
 10
786.2534025636113
 20
-1432.6580774485108
 42
-0.0077400953830903
 10
786.51133622274631
 20
-1431.9650727709522
 10
786.52710119433016
 20
-1431.9246418875534
 42
-0.0082369946329481
 10
786.77418566493714
 20
-1431.3205628213705
 42
-0.0085725238363922
 10
787.0414317609426
 20
-1430.7251367820777
 10
787.14306136194637
 20
-1430.5087156801005
 42
-0.0168109410596557
 10
787.43000579067723
 20
-1429.9475081539938
 10
787.55584918114516
 20
-1429.7205441209801
 42
-0.0007817726878441
 10
787.6101335311929
 20
-1429.6229998759654
 10
787.61026183720196
 20
-1429.6227701672437
 42
-0.0036626142152747
 10
787.6651497012316
 20
-1429.5261722872604
 42
-0.0080221150651058
 10
787.72227395664163
 20
-1429.4308930525019
 10
787.75297390799949
 20
-1429.3815021033852
 42
-0.0202139325569576
 10
787.88062964780704
 20
-1429.1935205027028
 10
787.93469711299383
 20
-1429.120441638463
 42
-0.024932379180444
 10
788.19385990671276
 20
-1428.8043963963091
 10
788.21799972084011
 20
-1428.7777821233963
 42
-0.0242132121537893
 10
788.55768046238541
 20
-1428.4378986371894
 10
788.6055920351323
 20
-1428.3943895010066
 42
-0.0251017527857335
 10
788.8895737357733
 20
-1428.1613967552412
 10
788.89101921258521
 20
-1428.1603274976635
 42
-0.0130868069041675
 10
789.18927986254437
 20
-1427.9515470291199
 10
789.19084168168638
 20
-1427.9505135888453
 42
-0.029032952638619
 10
789.50195282308039
 20
-1427.7696880872154
 10
789.53179838506821
 20
-1427.7545857043749
 42
-0.0160250190051811
 10
789.79770279883098
 20
-1427.6305695941628
 42
-0.0267600374781469
 10
790.0729788762992
 20
-1427.5298212736143
 10
790.09971479582043
 20
-1427.5216287147884
 42
-0.0049981587648311
 10
790.1548879411074
 20
-1427.505323514476
 42
-0.0049981587648311
  0
LWPOLYLINE
  5
54
100
AcDbEntity
  8
0
370
              15
390
0
  6
Continuous
 62
               7
100
AcDbPolyline
 90
      118
 70
             128
 10
809.96925550555432
 20
-1436.5817087523633
 10
811.8443774300539
 20
-1436.5817087523633
 10
811.00633852445424
 20
-1439.2632752787633
 42
-0.001058722925173
 10
811.03779433999966
 20
-1439.2263707454385
 10
811.09598843065794
 20
-1439.1583884892323
 42
-0.007187474041292
 10
811.24636364875619
 20
-1438.9877477972032
 10
811.38808642201832
 20
-1438.8315116558902
 42
-0.0148118053513366
 10
811.83821571473106
 20
-1438.3638978098772
 10
811.92543804964544
 20
-1438.2785004890115
 42
-0.0086273358687907
 10
812.26098685064142
 20
-1437.961124855007
 10
812.30482056686071
 20
-1437.9210752106799
 42
-0.0103138323117119
 10
812.56284426910076
 20
-1437.6949120733357
 10
812.60861867542144
 20
-1437.6564300260809
 42
-0.0060206748565276
 10
812.78146673953995
 20
-1437.5146353753212
 10
812.78349787043601
 20
-1437.5130096696819
 42
-0.0067069027300433
 10
812.95579068508835
 20
-1437.3788590358949
 10
812.9583394510222
 20
-1437.3769288660137
 42
-0.007618435204722
 10
813.12924471688586
 20
-1437.2515539907758
 42
-0.0089652861676666
 10
813.30420567961369
 20
-1437.1319207304475
 10
813.34055739976293
 20
-1437.1080095169614
 42
-0.015691624593878
 10
813.53651689692549
 20
-1436.9877470304859
 42
-0.0023299011064809
 10
813.73677894085438
 20
-1436.8745690909734
 10
813.75216307328526
 20
-1436.8659690958802
 42
-0.0107669341488799
 10
813.98639989838796
 20
-1436.74156896253
 10
814.00866469946129
 20
-1436.7303522125808
 42
-0.0078058045895045
 10
814.29225481742037
 20
-1436.5929907569393
 10
814.30216190512317
 20
-1436.5883816290739
 42
-0.0181829330470891
 10
814.61247130973936
 20
-1436.4575178879779
 10
814.66652675230489
 20
-1436.437002768035
 42
-0.0208411536031709
 10
815.01561171975561
 20
-1436.3209123055417
 10
815.02996781988406
 20
-1436.3167938605879
 42
-0.0222799817142213
 10
815.3586876138005
 20
-1436.2381522944479
 10
815.36757657703822
 20
-1436.2364402838627
 42
-0.0215509523883294
 10
815.68404754531764
 20
-1436.1895245953283
 10
815.72652950636268
 20
-1436.1850870685378
 42
-0.0182545924870998
 10
815.96063828567173
 20
-1436.1692432431466
 10
816.00003930201331
 20
-1436.1680186980675
 42
-0.0072962856531841
 10
816.15596218170856
 20
-1436.1654493695453
 10
816.18506185228046
 20
-1436.1653945341416
 42
-0.0059227516321019
 10
816.28281135142549
 20
-1436.1663682459321
 10
816.31205356889041
 20
-1436.167006012535
 42
-0.0011833111897632
 10
816.35130485263005
 20
-1436.1679550168453
 10
815.55591825702265
 20
-1438.7066889619443
 42
0.0143932051562449
 10
815.529516874671
 20
-1438.6964899918987
 10
815.52224490225478
 20
-1438.6939187730418
 42
0.0234388603531913
 10
815.4804140363193
 20
-1438.6812995373255
 10
815.47173237341019
 20
-1438.6791185753214
 42
0.0199162742986157
 10
815.41144353933043
 20
-1438.6665018399863
 10
815.39062960152376
 20
-1438.6630046405578
 42
0.0293643550665114
 10
815.28755474276511
 20
-1438.6518545949048
 10
815.2628695620441
 20
-1438.650642977886
 42
0.021460668686339
 10
815.10972864609369
 20
-1438.6497044174685
 10
815.10035673527398
 20
-1438.6500493290127
 42
0.0167564054179445
 10
814.92883654416244
 20
-1438.6621263713812
 10
814.92037675140671
 20
-1438.6630077118079
 42
0.0137677553236367
 10
814.73302343814294
 20
-1438.6877570203512
 10
814.72567169863407
 20
-1438.6889349403195
 42
0.0118497261485998
 10
814.52517393452945
 20
-1438.7259522905092
 10
814.51902392728528
 20
-1438.7272391532288
 42
0.0106421143893488
 10
814.30814303999762
 20
-1438.7760715288043
 10
814.30323423161133
 20
-1438.7773188714887
 42
0.0099746379703106
 10
814.08477576244741
 20
-1438.8374933998039
 10
814.02322772227865
 20
-1438.8557752784341
 42
0.0191613675862191
 10
813.68724325975847
 20
-1438.9697526587227
 10
813.59918348701547
 20
-1439.0034395690457
 42
0.0205274080145933
 10
813.21387671511673
 20
-1439.1692679768717
 10
813.15622743313497
 20
-1439.1969359414441
 42
0.0181256912197014
 10
812.89795049246788
 20
-1439.3326197604219
 10
812.84499510915271
 20
-1439.3629373736374
 42
0.0140709242413587
 10
812.7000401745255
 20
-1439.451432047071
 10
812.67379130590791
 20
-1439.4684888657857
 42
0.008666788439135
 10
812.58486514436447
 20
-1439.5284915336692
 42
0.0036408192020636
 10
812.49743190633853
 20
-1439.5906723914561
 10
812.46220503186225
 20
-1439.6161133373744
 42
0.0052260781285428
 10
812.30597633446803
 20
-1439.7314457240111
 10
812.28976947821172
 20
-1439.7436738346269
 42
0.0050024435891227
 10
812.10376613516894
 20
-1439.8869564028766
 10
812.08844797863787
 20
-1439.8990024253349
 42
0.013613871028561
 10
811.87800671031016
 20
-1440.0739689302502
 10
811.84433883451868
 20
-1440.1035479029624
 42
0.0172815186917893
 10
811.57993529285909
 20
-1440.3525445755829
 10
811.57737294701371
 20
-1440.3551303927329
 42
0.018940385798838
 10
811.32679114843688
 20
-1440.6279356575346
 10
811.29415965489659
 20
-1440.6662795890368
 42
0.0185044199507221
 10
811.10220321591862
 20
-1440.909528170157
 42
0.0088565243897007
 10
810.92374310929404
 20
-1441.1630445903018
 10
810.9145651296418
 20
-1441.1765859700672
 42
0.0157195347225797
 10
810.73134452330646
 20
-1441.4661081793849
 10
810.68526158137922
 20
-1441.5442603763995
 42
0.0095451879778906
 10
810.52017603123898
 20
-1441.8368550187602
 10
810.50902811230981
 20
-1441.8575256908912
 42
0.0100351706258315
 10
810.3769843631502
 20
-1442.114581251383
 42
0.0086935915419744
 10
810.25465321135482
 20
-1442.3764143967912
 10
810.25133246994199
 20
-1442.3838567197593
 42
0.0072580174864642
 10
810.13098601799572
 20
-1442.6644487113451
 10
810.12772438469062
 20
-1442.6723687373601
 42
0.0060005122614263
 10
810.00852371634539
 20
-1442.9719784079718
 10
810.00531273800618
 20
-1442.9803399358702
 42
0.0049017786981135
 10
809.88641257914458
 20
-1443.2992689164851
 10
809.88324677275807
 20
-1443.3080218537048
 42
0.0039415167611104
 10
809.7638104946966
 20
-1443.6465639161324
 10
809.76067939204938
 20
-1443.6556671169942
 42
0.0031035838757139
 10
809.63987460636656
 20
-1444.0141069787373
 10
809.636764561826
 20
-1444.0235276001426
 42
0.0025070747158825
 10
809.51386321051086
 20
-1444.4021748170853
 10
809.47656931408517
 20
-1444.5190664823394
 42
0.0029081910281065
 10
809.28455101627333
 20
-1445.1332301406344
 10
809.24374784775739
 20
-1445.266453382907
 42
0.0009266453734437
 10
808.97533047343177
 20
-1446.1486778428657
 10
808.95444300077907
 20
-1446.2177897221416
 42
-0.0005809993662486
 10
808.67710632021078
 20
-1447.1315978287053
 10
808.61082452194853
 20
-1447.3490827608302
 42
-0.0012018708175422
 10
808.46384021250867
 20
-1447.8272454253856
 10
808.4115203609058
 20
-1447.9960045663711
 42
-0.0002691059590148
 10
808.36795087977487
 20
-1448.1362721865935
 10
805.53499498148528
 20
-1457.2254267888932
 10
803.71700608950675
 20
-1457.2254267888932
 10
809.96925550555432
 20
-1436.5817087523633
  0
SPLINE
  5
55
100
AcDbEntity
  8
0
370
              15
390
0
  6
Continuous
 62
               7
100
AcDbSpline
210
0.0
220
0.0
230
1.0
 70
              13
 71
               2
 72
             782
 73
             779
 74
               0
 42
0.000001
 43
0.000001
 40
0.0
 40
0.0
 40
0.0
 40
1.0
 40
1.0
 40
2.0
 40
2.0
 40
3.0
 40
3.0
 40
4.0
 40
4.0
 40
5.0
 40
5.0
 40
6.0
 40
6.0
 40
7.0
 40
7.0
 40
8.0
 40
8.0
 40
9.0
 40
9.0
 40
10.0
 40
10.0
 40
11.0
 40
11.0
 40
12.0
 40
12.0
 40
13.0
 40
13.0
 40
14.0
 40
14.0
 40
15.0
 40
15.0
 40
16.0
 40
16.0
 40
17.0
 40
17.0
 40
18.0
 40
18.0
 40
19.0
 40
19.0
 40
20.0
 40
20.0
 40
21.0
 40
21.0
 40
22.0
 40
22.0
 40
23.0
 40
23.0
 40
24.0
 40
24.0
 40
25.0
 40
25.0
 40
26.0
 40
26.0
 40
27.0
 40
27.0
 40
28.0
 40
28.0
 40
29.0
 40
29.0
 40
30.0
 40
30.0
 40
31.0
 40
31.0
 40
32.0
 40
32.0
 40
33.0
 40
33.0
 40
34.0
 40
34.0
 40
35.0
 40
35.0
 40
36.0
 40
36.0
 40
37.0
 40
37.0
 40
38.0
 40
38.0
 40
39.0
 40
39.0
 40
40.0
 40
40.0
 40
41.0
 40
41.0
 40
42.0
 40
42.0
 40
43.0
 40
43.0
 40
44.0
 40
44.0
 40
45.0
 40
45.0
 40
46.0
 40
46.0
 40
47.0
 40
47.0
 40
48.0
 40
48.0
 40
49.0
 40
49.0
 40
50.0
 40
50.0
 40
51.0
 40
51.0
 40
52.0
 40
52.0
 40
53.0
 40
53.0
 40
54.0
 40
54.0
 40
55.0
 40
55.0
 40
56.0
 40
56.0
 40
57.0
 40
57.0
 40
58.0
 40
58.0
 40
59.0
 40
59.0
 40
60.0
 40
60.0
 40
61.0
 40
61.0
 40
62.0
 40
62.0
 40
63.0
 40
63.0
 40
64.0
 40
64.0
 40
65.0
 40
65.0
 40
66.0
 40
66.0
 40
67.0
 40
67.0
 40
68.0
 40
68.0
 40
69.0
 40
69.0
 40
70.0
 40
70.0
 40
71.0
 40
71.0
 40
72.0
 40
72.0
 40
73.0
 40
73.0
 40
74.0
 40
74.0
 40
75.0
 40
75.0
 40
76.0
 40
76.0
 40
77.0
 40
77.0
 40
78.0
 40
78.0
 40
79.0
 40
79.0
 40
80.0
 40
80.0
 40
81.0
 40
81.0
 40
82.0
 40
82.0
 40
83.0
 40
83.0
 40
84.0
 40
84.0
 40
85.0
 40
85.0
 40
86.0
 40
86.0
 40
87.0
 40
87.0
 40
88.0
 40
88.0
 40
89.0
 40
89.0
 40
90.0
 40
90.0
 40
91.0
 40
91.0
 40
92.0
 40
92.0
 40
93.0
 40
93.0
 40
94.0
 40
94.0
 40
95.0
 40
95.0
 40
96.0
 40
96.0
 40
97.0
 40
97.0
 40
98.0
 40
98.0
 40
99.0
 40
99.0
 40
100.0
 40
100.0
 40
101.0
 40
101.0
 40
102.0
 40
102.0
 40
103.0
 40
103.0
 40
104.0
 40
104.0
 40
105.0
 40
105.0
 40
106.0
 40
106.0
 40
107.0
 40
107.0
 40
108.0
 40
108.0
 40
109.0
 40
109.0
 40
110.0
 40
110.0
 40
111.0
 40
111.0
 40
112.0
 40
112.0
 40
113.0
 40
113.0
 40
114.0
 40
114.0
 40
115.0
 40
115.0
 40
116.0
 40
116.0
 40
117.0
 40
117.0
 40
118.0
 40
118.0
 40
119.0
 40
119.0
 40
120.0
 40
120.0
 40
121.0
 40
121.0
 40
122.0
 40
122.0
 40
123.0
 40
123.0
 40
124.0
 40
124.0
 40
125.0
 40
125.0
 40
126.0
 40
126.0
 40
127.0
 40
127.0
 40
128.0
 40
128.0
 40
129.0
 40
129.0
 40
130.0
 40
130.0
 40
131.0
 40
131.0
 40
132.0
 40
132.0
 40
133.0
 40
133.0
 40
134.0
 40
134.0
 40
135.0
 40
135.0
 40
136.0
 40
136.0
 40
137.0
 40
137.0
 40
138.0
 40
138.0
 40
139.0
 40
139.0
 40
140.0
 40
140.0
 40
141.0
 40
141.0
 40
142.0
 40
142.0
 40
143.0
 40
143.0
 40
144.0
 40
144.0
 40
145.0
 40
145.0
 40
146.0
 40
146.0
 40
147.0
 40
147.0
 40
148.0
 40
148.0
 40
149.0
 40
149.0
 40
150.0
 40
150.0
 40
151.0
 40
151.0
 40
152.0
 40
152.0
 40
153.0
 40
153.0
 40
154.0
 40
154.0
 40
155.0
 40
155.0
 40
156.0
 40
156.0
 40
157.0
 40
157.0
 40
158.0
 40
158.0
 40
159.0
 40
159.0
 40
160.0
 40
160.0
 40
161.0
 40
161.0
 40
162.0
 40
162.0
 40
163.0
 40
163.0
 40
164.0
 40
164.0
 40
165.0
 40
165.0
 40
166.0
 40
166.0
 40
167.0
 40
167.0
 40
168.0
 40
168.0
 40
169.0
 40
169.0
 40
170.0
 40
170.0
 40
171.0
 40
171.0
 40
172.0
 40
172.0
 40
173.0
 40
173.0
 40
174.0
 40
174.0
 40
175.0
 40
175.0
 40
176.0
 40
176.0
 40
177.0
 40
177.0
 40
178.0
 40
178.0
 40
179.0
 40
179.0
 40
180.0
 40
180.0
 40
181.0
 40
181.0
 40
182.0
 40
182.0
 40
183.0
 40
183.0
 40
184.0
 40
184.0
 40
185.0
 40
185.0
 40
186.0
 40
186.0
 40
187.0
 40
187.0
 40
188.0
 40
188.0
 40
189.0
 40
189.0
 40
190.0
 40
190.0
 40
191.0
 40
191.0
 40
192.0
 40
192.0
 40
193.0
 40
193.0
 40
194.0
 40
194.0
 40
195.0
 40
195.0
 40
196.0
 40
196.0
 40
197.0
 40
197.0
 40
198.0
 40
198.0
 40
199.0
 40
199.0
 40
200.0
 40
200.0
 40
201.0
 40
201.0
 40
202.0
 40
202.0
 40
203.0
 40
203.0
 40
204.0
 40
204.0
 40
205.0
 40
205.0
 40
206.0
 40
206.0
 40
207.0
 40
207.0
 40
208.0
 40
208.0
 40
209.0
 40
209.0
 40
210.0
 40
210.0
 40
211.0
 40
211.0
 40
212.0
 40
212.0
 40
213.0
 40
213.0
 40
214.0
 40
214.0
 40
215.0
 40
215.0
 40
216.0
 40
216.0
 40
217.0
 40
217.0
 40
218.0
 40
218.0
 40
219.0
 40
219.0
 40
220.0
 40
220.0
 40
221.0
 40
221.0
 40
222.0
 40
222.0
 40
223.0
 40
223.0
 40
224.0
 40
224.0
 40
225.0
 40
225.0
 40
226.0
 40
226.0
 40
227.0
 40
227.0
 40
228.0
 40
228.0
 40
229.0
 40
229.0
 40
230.0
 40
230.0
 40
231.0
 40
231.0
 40
232.0
 40
232.0
 40
233.0
 40
233.0
 40
234.0
 40
234.0
 40
235.0
 40
235.0
 40
236.0
 40
236.0
 40
237.0
 40
237.0
 40
238.0
 40
238.0
 40
239.0
 40
239.0
 40
240.0
 40
240.0
 40
241.0
 40
241.0
 40
242.0
 40
242.0
 40
243.0
 40
243.0
 40
244.0
 40
244.0
 40
245.0
 40
245.0
 40
246.0
 40
246.0
 40
247.0
 40
247.0
 40
248.0
 40
248.0
 40
249.0
 40
249.0
 40
250.0
 40
250.0
 40
251.0
 40
251.0
 40
252.0
 40
252.0
 40
253.0
 40
253.0
 40
254.0
 40
254.0
 40
255.0
 40
255.0
 40
256.0
 40
256.0
 40
257.0
 40
257.0
 40
258.0
 40
258.0
 40
259.0
 40
259.0
 40
260.0
 40
260.0
 40
261.0
 40
261.0
 40
262.0
 40
262.0
 40
263.0
 40
263.0
 40
264.0
 40
264.0
 40
265.0
 40
265.0
 40
266.0
 40
266.0
 40
267.0
 40
267.0
 40
268.0
 40
268.0
 40
269.0
 40
269.0
 40
270.0
 40
270.0
 40
271.0
 40
271.0
 40
272.0
 40
272.0
 40
273.0
 40
273.0
 40
274.0
 40
274.0
 40
275.0
 40
275.0
 40
276.0
 40
276.0
 40
277.0
 40
277.0
 40
278.0
 40
278.0
 40
279.0
 40
279.0
 40
280.0
 40
280.0
 40
281.0
 40
281.0
 40
282.0
 40
282.0
 40
283.0
 40
283.0
 40
284.0
 40
284.0
 40
285.0
 40
285.0
 40
286.0
 40
286.0
 40
287.0
 40
287.0
 40
288.0
 40
288.0
 40
289.0
 40
289.0
 40
290.0
 40
290.0
 40
291.0
 40
291.0
 40
292.0
 40
292.0
 40
293.0
 40
293.0
 40
294.0
 40
294.0
 40
295.0
 40
295.0
 40
296.0
 40
296.0
 40
297.0
 40
297.0
 40
298.0
 40
298.0
 40
299.0
 40
299.0
 40
300.0
 40
300.0
 40
301.0
 40
301.0
 40
302.0
 40
302.0
 40
303.0
 40
303.0
 40
304.0
 40
304.0
 40
305.0
 40
305.0
 40
306.0
 40
306.0
 40
307.0
 40
307.0
 40
308.0
 40
308.0
 40
309.0
 40
309.0
 40
310.0
 40
310.0
 40
311.0
 40
311.0
 40
312.0
 40
312.0
 40
313.0
 40
313.0
 40
314.0
 40
314.0
 40
315.0
 40
315.0
 40
316.0
 40
316.0
 40
317.0
 40
317.0
 40
318.0
 40
318.0
 40
319.0
 40
319.0
 40
320.0
 40
320.0
 40
321.0
 40
321.0
 40
322.0
 40
322.0
 40
323.0
 40
323.0
 40
324.0
 40
324.0
 40
325.0
 40
325.0
 40
326.0
 40
326.0
 40
327.0
 40
327.0
 40
328.0
 40
328.0
 40
329.0
 40
329.0
 40
330.0
 40
330.0
 40
331.0
 40
331.0
 40
332.0
 40
332.0
 40
333.0
 40
333.0
 40
334.0
 40
334.0
 40
335.0
 40
335.0
 40
336.0
 40
336.0
 40
337.0
 40
337.0
 40
338.0
 40
338.0
 40
339.0
 40
339.0
 40
340.0
 40
340.0
 40
341.0
 40
341.0
 40
342.0
 40
342.0
 40
343.0
 40
343.0
 40
344.0
 40
344.0
 40
345.0
 40
345.0
 40
346.0
 40
346.0
 40
347.0
 40
347.0
 40
348.0
 40
348.0
 40
349.0
 40
349.0
 40
350.0
 40
350.0
 40
351.0
 40
351.0
 40
352.0
 40
352.0
 40
353.0
 40
353.0
 40
354.0
 40
354.0
 40
355.0
 40
355.0
 40
356.0
 40
356.0
 40
357.0
 40
357.0
 40
358.0
 40
358.0
 40
359.0
 40
359.0
 40
360.0
 40
360.0
 40
361.0
 40
361.0
 40
362.0
 40
362.0
 40
363.0
 40
363.0
 40
364.0
 40
364.0
 40
365.0
 40
365.0
 40
366.0
 40
366.0
 40
367.0
 40
367.0
 40
368.0
 40
368.0
 40
369.0
 40
369.0
 40
370.0
 40
370.0
 40
371.0
 40
371.0
 40
372.0
 40
372.0
 40
373.0
 40
373.0
 40
374.0
 40
374.0
 40
375.0
 40
375.0
 40
376.0
 40
376.0
 40
377.0
 40
377.0
 40
378.0
 40
378.0
 40
379.0
 40
379.0
 40
380.0
 40
380.0
 40
381.0
 40
381.0
 40
382.0
 40
382.0
 40
383.0
 40
383.0
 40
384.0
 40
384.0
 40
385.0
 40
385.0
 40
386.0
 40
386.0
 40
387.0
 40
387.0
 40
388.0
 40
388.0
 40
389.0
 40
389.0
 40
389.0
 10
820.29795995628763
 20
-1436.5707823890009
 30
0.0
 41
1.0
 10
821.11638406500776
 20
-1436.5707823890009
 30
0.0
 41
1.0
 10
821.9348081737279
 20
-1436.5707823890009
 30
0.0
 41
1.0
 10
821.52105443821131
 20
-1437.9134086532506
 30
0.0
 41
1.0
 10
821.10730070269472
 20
-1439.2560349175003
 30
0.0
 41
1.0
 10
821.12564019787362
 20
-1439.2273341445721
 30
0.0
 41
0.9999957264379934
 10
821.14414719469846
 20
-1439.1987410944307
 30
0.0
 41
1.0
 10
821.17457651883319
 20
-1439.1517282160585
 30
0.0
 41
1.0
 10
821.20500584296803
 20
-1439.1047153376865
 30
0.0
 41
1.0
 10
821.28437148807302
 20
-1438.9820965307845
 30
0.0
 41
0.9995394069080964
 10
821.37102987962442
 20
-1438.8645184690436
 30
0.0
 41
1.0
 10
821.40678674188621
 20
-1438.8160035764472
 30
0.0
 41
1.0
 10
821.44254360414811
 20
-1438.7674886838508
 30
0.0
 41
1.0
 10
821.57627027196418
 20
-1438.586048408727
 30
0.0
 41
0.9994460617143474
 10
821.72177075325169
 20
-1438.4139060110779
 30
0.0
 41
1.0
 10
821.72615893422676
 20
-1438.4087143306951
 30
0.0
 41
1.0
 10
821.73054711520183
 20
-1438.4035226503124
 30
0.0
 41
1.0
 10
821.86727123453988
 20
-1438.2417636134282
 30
0.0
 41
0.9994359394934209
 10
822.01454546489083
 20
-1438.0895474122638
 30
0.0
 41
1.0
 10
822.0169288188431
 20
-1438.0870840818916
 30
0.0
 41
1.0
 10
822.01931217279537
 20
-1438.0846207515197
 30
0.0
 41
1.0
 10
822.16181969524052
 20
-1437.9373312111006
 30
0.0
 41
0.9995293688567563
 10
822.31309137622463
 20
-1437.799057998935
 30
0.0
 41
1.0
 10
822.33238513548588
 20
-1437.7814221132858
 30
0.0
 41
1.0
 10
822.35167889474712
 20
-1437.7637862276365
 30
0.0
 41
1.0
 10
822.46436305720556
 20
-1437.6607847867722
 30
0.0
 41
0.9997087614803267
 10
822.58188594616183
 20
-1437.563340505973
 30
0.0
 41
1.0
 10
822.60105201933743
 20
-1437.5474489274648
 30
0.0
 41
1.0
 10
822.62021809251314
 20
-1437.5315573489568
 30
0.0
 41
1.0
 10
822.69940883511379
 20
-1437.4658962251774
 30
0.0
 41
0.9999595338696178
 10
822.77976810597181
 20
-1437.4016704945202
 30
0.0
 41
1.0
 10
822.86012737682063
 20
-1437.3374447638701
 30
0.0
 41
0.9999749417513514
 10
822.9413879111595
 20
-1437.2743632099273
 30
0.0
 41
1.0
 10
822.96237405731711
 20
-1437.2580719226294
 30
0.0
 41
1.0
 10
822.98336020347472
 20
-1437.2417806353317
 30
0.0
 41
1.0
 10
823.06792808878777
 20
-1437.176131625482
 30
0.0
 41
0.9999792037122678
 10
823.15333568857329
 20
-1437.111578843826
 30
0.0
 41
1.0
 10
823.17416051452801
 20
-1437.0958390215355
 30
0.0
 41
1.0
 10
823.19498534048284
 20
-1437.0800991992451
 30
0.0
 41
1.0
 10
823.23874328835996
 20
-1437.0470260621696
 30
0.0
 41
0.9999993374096214
 10
823.28242497448571
 20
-1437.0138522667585
 30
0.0
 41
1.0
 10
823.3261066606251
 20
-1436.9806784713371
 30
0.0
 41
0.9999160953813375
 10
823.37063307154119
 20
-1436.9486474061414
 30
0.0
 41
1.0
 10
823.40345495896429
 20
-1436.9250362505538
 30
0.0
 41
1.0
 10
823.43627684638739
 20
-1436.9014250949663
 30
0.0
 41
1.0
 10
823.54644703214694
 20
-1436.8221717185979
 30
0.0
 41
0.9980964527232876
 10
823.6655360256475
 20
-1436.7570842457419
 30
0.0
 41
1.0
 10
823.70256863257714
 20
-1436.736844266148
 30
0.0
 41
1.0
 10
823.73960123950667
 20
-1436.716604286554
 30
0.0
 41
1.0
 10
823.91892825277796
 20
-1436.6185940358541
 30
0.0
 41
0.9984572810573458
 10
824.1080168191346
 20
-1436.5410717745085
 30
0.0
 41
1.0
 10
824.11166308852967
 20
-1436.5395768821709
 30
0.0
 41
1.0
 10
824.11530935792484
 20
-1436.5380819898332
 30
0.0
 41
1.0
 10
824.29710538549318
 20
-1436.4635495131622
 30
0.0
 41
0.9987838528033888
 10
824.48535804405276
 20
-1436.4072838729965
 30
0.0
 41
1.0
 10
824.48959599325133
 20
-1436.4060172193062
 30
0.0
 41
1.0
 10
824.4938339424499
 20
-1436.404750565616
 30
0.0
 41
1.0
 10
824.673610702612
 20
-1436.3510182328307
 30
0.0
 41
0.9990652816207413
 10
824.85735663432808
 20
-1436.3130145532887
 30
0.0
 41
1.0
 10
824.86254503535929
 20
-1436.3119414501821
 30
0.0
 41
1.0
 10
824.86773343639049
 20
-1436.3108683470757
 30
0.0
 41
1.0
 10
825.04110256604372
 20
-1436.2750108737466
 30
0.0
 41
0.999290993427065
 10
825.21667833250228
 20
-1436.2523004412801
 30
0.0
 41
1.0
 10
825.39225409895971
 20
-1436.2295900088136
 30
0.0
 41
0.9994553539448385
 10
825.56894553205223
 20
-1436.2185107046075
 30
0.0
 41
1.0
 10
825.60437993984897
 20
-1436.2162888165597
 30
0.0
 41
1.0
 10
825.63981434764571
 20
-1436.2140669285118
 30
0.0
 41
1.0
 10
825.80604011421497
 20
-1436.2036438661
 30
0.0
 41
0.9990928098292742
 10
825.97254990611725
 20
-1436.2074035073347
 30
0.0
 41
1.0
 10
826.01111174138907
 20
-1436.2082741988675
 30
0.0
 41
1.0
 10
826.04967357666089
 20
-1436.2091448904005
 30
0.0
 41
1.0
 10
826.13905969801988
 20
-1436.2111631485691
 30
0.0
 41
0.9998382089205001
 10
826.22831538080607
 20
-1436.2163952750971
 30
0.0
 41
1.0
 10
826.22874528702448
 20
-1436.2164204759993
 30
0.0
 41
1.0
 10
826.2291751932429
 20
-1436.2164456769015
 30
0.0
 41
1.0
 10
826.31757106359078
 20
-1436.221627401625
 30
0.0
 41
0.9997558016757875
 10
826.40565164079305
 20
-1436.2307099169916
 30
0.0
 41
1.0
 10
826.40612777922468
 20
-1436.2307590144744
 30
0.0
 41
1.0
 10
826.4066039176563
 20
-1436.2308081119572
 30
0.0
 41
1.0
 10
826.49373221799567
 20
-1436.2397924323584
 30
0.0
 41
0.9996565144181705
 10
826.58027007133603
 20
-1436.2533297390473
 30
0.0
 41
1.0
 10
826.580735996714
 20
-1436.2534026247786
 30
0.0
 41
1.0
 10
826.58120192209196
 20
-1436.25347551051
 30
0.0
 41
1.0
 10
826.66680792467832
 20
-1436.2668670457363
 30
0.0
 41
0.9995321806867001
 10
826.75143500500587
 20
-1436.2854675341655
 30
0.0
 41
1.0
 10
826.75182419957855
 20
-1436.2855530766315
 30
0.0
 41
1.0
 10
826.75221339415123
 20
-1436.2856386190977
 30
0.0
 41
1.0
 10
826.83606208533467
 20
-1436.3040680225949
 30
0.0
 41
0.9993819199219703
 10
826.91840861952994
 20
-1436.3283434058553
 30
0.0
 41
1.0
 10
826.91864705302805
 20
-1436.3284136949646
 30
0.0
 41
1.0
 10
826.91888548652605
 20
-1436.328483984074
 30
0.0
 41
1.0
 10
827.00075515372635
 20
-1436.3526187891161
 30
0.0
 41
0.9992088568506292
 10
827.08044767271429
 20
-1436.3831840249104
 30
0.0
 41
1.0
 10
827.16012866359324
 20
-1436.4137436256437
 30
0.0
 41
0.9990226101773428
 10
827.23679933350047
 20
-1436.4512210572584
 30
0.0
 41
1.0
 10
827.31345847529826
 20
-1436.4886928538112
 30
0.0
 41
0.9988424273971537
 10
827.38616210251053
 20
-1436.5333576290643
 30
0.0
 41
1.0
 10
827.38642981089015
 20
-1436.5335220931365
 30
0.0
 41
1.0
 10
827.38669751926966
 20
-1436.533686557209
 30
0.0
 41
1.0
 10
827.45993656324038
 20
-1436.5786802606062
 30
0.0
 41
0.9986928844491444
 10
827.52819942994995
 20
-1436.6309159948858
 30
0.0
 41
1.0
 10
827.52878072217288
 20
-1436.6313608081136
 30
0.0
 41
1.0
 10
827.52936201439582
 20
-1436.6318056213418
 30
0.0
 41
1.0
 10
827.59878746555171
 20
-1436.684930982078
 30
0.0
 41
0.9986007262279135
 10
827.66221363531884
 20
-1436.7450917517717
 30
0.0
 41
1.0
 10
827.66310805077558
 20
-1436.7459401196063
 30
0.0
 41
1.0
 10
827.66400246623232
 20
-1436.7467884874409
 30
0.0
 41
1.0
 10
827.72921746691316
 20
-1436.8086459928043
 30
0.0
 41
0.9985581491381897
 10
827.78742507861557
 20
-1436.8771384830766
 30
0.0
 41
1.0
 10
827.79668353221109
 20
-1436.8880328407781
 30
0.0
 41
1.0
 10
827.80594198580673
 20
-1436.8989271984797
 30
0.0
 41
1.0
 10
827.88266650469984
 20
-1436.9892084041549
 30
0.0
 41
0.9970460233521674
 10
827.94465840585985
 20
-1437.0901754883375
 30
0.0
 41
1.0
 10
827.9591277709394
 20
-1437.1137419474187
 30
0.0
 41
1.0
 10
827.97359713601884
 20
-1437.1373084064999
 30
0.0
 41
1.0
 10
828.01333383603105
 20
-1437.2020281305313
 30
0.0
 41
0.9988468816635897
 10
828.0466802067823
 20
-1437.2702605829584
 30
0.0
 41
1.0
 10
828.05371622927407
 20
-1437.2846575040965
 30
0.0
 41
1.0
 10
828.06075225176585
 20
-1437.2990544252345
 30
0.0
 41
1.0
 10
828.08002657753389
 20
-1437.3384930353861
 30
0.0
 41
0.9998431189996804
 10
828.09789190502863
 20
-1437.3785895898268
 30
0.0
 41
1.0
 10
828.11575723251906
 20
-1437.4186861442577
 30
0.0
 41
0.9999989989875505
 10
828.13373595594078
 20
-1437.4587319818404
 30
0.0
 41
1.0
 10
828.13990826753752
 20
-1437.4724801986586
 30
0.0
 41
1.0
 10
828.14608057913426
 20
-1437.4862284154765
 30
0.0
 41
1.0
 10
828.17640392574458
 20
-1437.5537706866844
 30
0.0
 41
0.9998790356320505
 10
828.20461180588211
 20
-1437.6222234386212
 30
0.0
 41
1.0
 10
828.21144698716705
 20
-1437.6388105400501
 30
0.0
 41
1.0
 10
828.21828216845199
 20
-1437.6553976414789
 30
0.0
 41
1.0
 10
828.24183983083196
 20
-1437.7125655963639
 30
0.0
 41
0.9998227574560225
 10
828.26322857922094
 20
-1437.7705799046407
 30
0.0
 41
1.0
 10
828.28461732761014
 20
-1437.8285942129185
 30
0.0
 41
0.9996797971042118
 10
828.30304361256822
 20
-1437.8876163320326
 30
0.0
 41
1.0
 10
828.30694741529442
 20
-1437.9001207902033
 30
0.0
 41
1.0
 10
828.3108512180205
 20
-1437.9126252483741
 30
0.0
 41
1.0
 10
828.33708510843144
 20
-1437.9966562838326
 30
0.0
 41
0.9979274938734591
 10
828.35230963191066
 20
-1438.0833606424942
 30
0.0
 41
1.0
 10
828.35453331917131
 20
-1438.0960246433124
 30
0.0
 41
1.0
 10
828.35675700643196
 20
-1438.1086886441306
 30
0.0
 41
1.0
 10
828.36768694613011
 20
-1438.1709351514201
 30
0.0
 41
0.9994985982138127
 10
828.37465511130756
 20
-1438.2337486525648
 30
0.0
 41
1.0
 10
828.38162327648467
 20
-1438.2965621537078
 30
0.0
 41
0.9996372611201611
 10
828.38519914225265
 20
-1438.3596597323917
 30
0.0
 41
1.0
 10
828.38536771974191
 20
-1438.3626343494725
 30
0.0
 41
1.0
 10
828.38553629723117
 20
-1438.3656089665535
 30
0.0
 41
1.0
 10
828.38944931797766
 20
-1438.4346557793979
 30
0.0
 41
0.9997730630735144
 10
828.39041763146554
 20
-1438.5038066034299
 30
0.0
 41
1.0
 10
828.39047473788366
 20
-1438.5078847825737
 30
0.0
 41
1.0
 10
828.39053184430179
 20
-1438.5119629617175
 30
0.0
 41
1.0
 10
828.39161437062614
 20
-1438.5892701440246
 30
0.0
 41
0.9998772614070507
 10
828.39027428389443
 20
-1438.6665732905776
 30
0.0
 41
1.0
 10
828.39018502069553
 20
-1438.6717224544236
 30
0.0
 41
1.0
 10
828.39009575749662
 20
-1438.6768716182696
 30
0.0
 41
1.0
 10
828.38857714436699
 20
-1438.7644730925113
 30
0.0
 41
0.9999415567327759
 10
828.38516483412127
 20
-1438.8520212541825
 30
0.0
 41
1.0
 10
828.38492351344598
 20
-1438.858212713918
 30
0.0
 41
1.0
 10
828.38468219277081
 20
-1438.8644041736536
 30
0.0
 41
1.0
 10
828.38078724117463
 20
-1438.9643352547955
 30
0.0
 41
0.9999716810421961
 10
828.37538865805595
 20
-1439.0641963930293
 30
0.0
 41
1.0
 10
828.37217585926737
 20
-1439.1236256426839
 30
0.0
 41
1.0
 10
828.36896306047879
 20
-1439.1830548923385
 30
0.0
 41
1.0
 10
828.36088915132541
 20
-1439.332403293633
 30
0.0
 41
0.999981912990087
 10
828.35101935970886
 20
-1439.4816437713391
 30
0.0
 41
1.0
 10
828.34114956809196
 20
-1439.6308842490505
 30
0.0
 41
1.0
 10
828.33871024752841
 20
-1439.6680772948998
 30
0.0
 41
1.0
 10
828.36140848138029
 20
-1439.6293362975352
 30
0.0
 41
0.9999982128064646
 10
828.38425304016585
 20
-1439.5906814035263
 30
0.0
 41
1.0
 10
828.41116260002536
 20
-1439.5451481895141
 30
0.0
 41
1.0
 10
828.43807215988488
 20
-1439.4996149755018
 30
0.0
 41
1.0
 10
828.51473583840811
 20
-1439.3698936534363
 30
0.0
 41
0.999860919005791
 10
828.59568315126819
 20
-1439.2428012715093
 30
0.0
 41
1.0
 10
828.62533147275485
 20
-1439.1962515385442
 30
0.0
 41
1.0
 10
828.65497979424151
 20
-1439.1497018055791
 30
0.0
 41
1.0
 10
828.7372520144761
 20
-1439.0205292355879
 30
0.0
 41
0.9999067609733103
 10
828.82302102393658
 20
-1438.8936515461519
 30
0.0
 41
1.0
 10
828.82542572713714
 20
-1438.8900942800974
 30
0.0
 41
1.0
 10
828.82783043033783
 20
-1438.8865370140431
 30
0.0
 41
1.0
 10
828.90879003339785
 20
-1438.7667738567147
 30
0.0
 41
0.9998784952147674
 10
828.99344364308206
 20
-1438.6495926400021
 30
0.0
 41
1.0
 10
829.078097252769
 20
-1438.532411423286
 30
0.0
 41
0.9998532968281904
 10
829.16671487359702
 20
-1438.4181985148089
 30
0.0
 41
1.0
 10
829.18667666258227
 20
-1438.3924711937962
 30
0.0
 41
1.0
 10
829.20663845156753
 20
-1438.3667438727837
 30
0.0
 41
1.0
 10
829.32512250132675
 20
-1438.2140382618145
 30
0.0
 41
0.9991551975795159
 10
829.45574695095081
 20
-1438.0715786997305
 30
0.0
 41
1.0
 10
829.45925656692827
 20
-1438.0677510981086
 30
0.0
 41
1.0
 10
829.46276618290574
 20
-1438.0639234964867
 30
0.0
 41
1.0
 10
829.58637140057169
 20
-1437.9291191376496
 30
0.0
 41
0.9997418144179948
 10
829.71597354027506
 20
-1437.8000697270345
 30
0.0
 41
1.0
 10
829.84557567997558
 20
-1437.6710203164221
 30
0.0
 41
0.9989238204633201
 10
829.98657822822645
 20
-1437.5545353543832
 30
0.0
 41
1.0
 10
830.03182590636561
 20
-1437.5171553627747
 30
0.0
 41
1.0
 10
830.07707358450489
 20
-1437.4797753711662
 30
0.0
 41
1.0
 10
830.21731364172717
 20
-1437.3639203178745
 30
0.0
 41
0.999082508409658
 10
830.36695357433098
 20
-1437.2604913200416
 30
0.0
 41
1.0
 10
830.37699893838885
 20
-1437.2535481069615
 30
0.0
 41
1.0
 10
830.38704430244672
 20
-1437.2466048938813
 30
0.0
 41
1.0
 10
830.51659350693603
 20
-1437.1570623222083
 30
0.0
 41
0.9998164899826612
 10
830.64947771031132
 20
-1437.0725480806923
 30
0.0
 41
1.0
 10
830.66132327083619
 20
-1437.0650143141675
 30
0.0
 41
1.0
 10
830.67316883136095
 20
-1437.0574805476424
 30
0.0
 41
1.0
 10
830.78236191368762
 20
-1436.9880338391758
 30
0.0
 41
0.9997473449130675
 10
830.89456587093684
 20
-1436.9235648813603
 30
0.0
 41
1.0
 10
831.00676982818368
 20
-1436.859095923546
 30
0.0
 41
0.9999327861146796
 10
831.12043843895003
 20
-1436.797245931863
 30
0.0
 41
1.0
 10
831.12099044151046
 20
-1436.7969455731841
 30
0.0
 41
1.0
 10
831.121542444071
 20
-1436.7966452145049
 30
0.0
 41
1.0
 10
831.23631505995547
 20
-1436.7341945054654
 30
0.0
 41
0.9996956420483383
 10
831.35402838579694
 20
-1436.67748103849
 30
0.0
 41
1.0
 10
831.38446879068965
 20
-1436.6628150617601
 30
0.0
 41
1.0
 10
831.41490919558225
 20
-1436.6481490850301
 30
0.0
 41
1.0
 10
831.51788630232602
 20
-1436.598535426587
 30
0.0
 41
0.9998070570176432
 10
831.62273269126661
 20
-1436.5530048396859
 30
0.0
 41
1.0
 10
831.72757908020697
 20
-1436.507474252785
 30
0.0
 41
0.9997827436148175
 10
831.83423201681785
 20
-1436.4663530814728
 30
0.0
 41
1.0
 10
831.85345486644883
 20
-1436.4589415078406
 30
0.0
 41
1.0
 10
831.87267771607992
 20
-1436.4515299342083
 30
0.0
 41
1.0
 10
832.01777635195322
 20
-1436.3955856156315
 30
0.0
 41
0.9988031841976731
 10
832.16764671455837
 20
-1436.3540855514636
 30
0.0
 41
1.0
 10
832.19256396292189
 20
-1436.3471858056569
 30
0.0
 41
1.0
 10
832.21748121128553
 20
-1436.3402860598499
 30
0.0
 41
1.0
 10
832.38475123693195
 20
-1436.2939679174431
 30
0.0
 41
0.9984748040549785
 10
832.55610814557997
 20
-1436.2663736851785
 30
0.0
 41
1.0
 10
832.5608472818285
 20
-1436.2656105246651
 30
0.0
 41
1.0
 10
832.56558641807692
 20
-1436.2648473641516
 30
0.0
 41
1.0
 10
832.72746505422879
 20
-1436.2387794529136
 30
0.0
 41
0.9984436495480158
 10
832.89123979795397
 20
-1436.2309014990949
 30
0.0
 41
1.0
 10
832.91293700608514
 20
-1436.2298578118953
 30
0.0
 41
1.0
 10
832.93463421421632
 20
-1436.2288141246956
 30
0.0
 41
1.0
 10
833.05501454167859
 20
-1436.2230235452762
 30
0.0
 41
0.9987954789335245
 10
833.17538278658856
 20
-1436.2290600730184
 30
0.0
 41
1.0
 10
833.19534757908127
 20
-1436.230061317357
 30
0.0
 41
1.0
 10
833.21531237157399
 20
-1436.2310625616954
 30
0.0
 41
1.0
 10
833.29575103149659
 20
-1436.2350966007605
 30
0.0
 41
0.9997941595876358
 10
833.37595980959247
 20
-1436.2423906666818
 30
0.0
 41
1.0
 10
833.45616858769142
 20
-1436.2496847326036
 30
0.0
 41
0.999858946623678
 10
833.53608713455071
 20
-1436.259668587054
 30
0.0
 41
1.0
 10
833.56849333635455
 20
-1436.2637169439727
 30
0.0
 41
1.0
 10
833.60089953815839
 20
-1436.2677653008914
 30
0.0
 41
1.0
 10
833.74563048862865
 20
-1436.2858458691796
 30
0.0
 41
0.9993495063249406
 10
833.88868173239314
 20
-1436.314311578921
 30
0.0
 41
1.0
 10
833.92161542954932
 20
-1436.3208650421366
 30
0.0
 41
1.0
 10
833.95454912670539
 20
-1436.3274185053524
 30
0.0
 41
1.0
 10
834.06384294990744
 20
-1436.3491668394875
 30
0.0
 41
0.9996788715561183
 10
834.17189452186028
 20
-1436.3764246388496
 30
0.0
 41
1.0
 10
834.1739575243987
 20
-1436.3769450654224
 30
0.0
 41
1.0
 10
834.17602052693724
 20
-1436.3774654919953
 30
0.0
 41
1.0
 10
834.27994609381699
 20
-1436.4036824382126
 30
0.0
 41
0.9995480654492259
 10
834.38210832904622
 20
-1436.4360973948369
 30
0.0
 41
1.0
 10
834.38379797117341
 20
-1436.4366334997503
 30
0.0
 41
1.0
 10
834.38548761330071
 20
-1436.4371696046637
 30
0.0
 41
1.0
 10
834.48427056427442
 20
-1436.468512351461
 30
0.0
 41
0.9993867959456282
 10
834.58061772271856
 20
-1436.5066917207512
 30
0.0
 41
1.0
 10
834.58186067180441
 20
-1436.5071842626478
 30
0.0
 41
1.0
 10
834.58310362089026
 20
-1436.5076768045444
 30
0.0
 41
1.0
 10
834.67696488116178
 20
-1436.5448710900412
 30
0.0
 41
0.9992050256521751
 10
834.76756455619432
 20
-1436.5894249892797
 30
0.0
 41
1.0
 10
834.7682992389075
 20
-1436.589786281741
 30
0.0
 41
1.0
 10
834.7690339216208
 20
-1436.5901475742021
 30
0.0
 41
1.0
 10
834.85816423122742
 20
-1436.6339788885184
 30
0.0
 41
0.9990222350742678
 10
834.94307429262119
 20
-1436.6855121562166
 30
0.0
 41
1.0
 10
834.94325817790343
 20
-1436.6856237591212
 30
0.0
 41
1.0
 10
834.94344206318567
 20
-1436.6857353620258
 30
0.0
 41
1.0
 10
835.02798435401462
 20
-1436.7370454239149
 30
0.0
 41
0.9988642743805167
 10
835.10725888863419
 20
-1436.7961696114403
 30
0.0
 41
1.0
 10
835.18653342325331
 20
-1436.8552937989655
 30
0.0
 41
0.9987681233310116
 10
835.25955720752961
 20
-1436.9219844903666
 30
0.0
 41
1.0
 10
835.25988613549532
 20
-1436.9222848915806
 30
0.0
 41
1.0
 10
835.26021506346103
 20
-1436.9225852927948
 30
0.0
 41
1.0
 10
835.33389670366898
 20
-1436.9898767866243
 30
0.0
 41
0.9987496570898805
 10
835.40049050899597
 20
-1437.0641896007107
 30
0.0
 41
1.0
 10
835.40126267875644
 20
-1437.0650512740685
 30
0.0
 41
1.0
 10
835.40203484851679
 20
-1437.0659129474263
 30
0.0
 41
1.0
 10
835.47017299336392
 20
-1437.1419491082277
 30
0.0
 41
0.998814766982676
 10
835.53059524758896
 20
-1437.2242501150704
 30
0.0
 41
1.0
 10
835.53171457366693
 20
-1437.2257747464232
 30
0.0
 41
1.0
 10
835.53283389974501
 20
-1437.2272993777763
 30
0.0
 41
1.0
 10
835.59549480612566
 20
-1437.3126496473246
 30
0.0
 41
0.9989452636217029
 10
835.6500617190876
 20
-1437.4033883364827
 30
0.0
 41
1.0
 10
835.65141044517293
 20
-1437.4056311175084
 30
0.0
 41
1.0
 10
835.65275917125825
 20
-1437.407873898534
 30
0.0
 41
1.0
 10
835.71002353639039
 20
-1437.5030981497425
 30
0.0
 41
0.9991046436069788
 10
835.75903274971211
 20
-1437.6028225827681
 30
0.0
 41
1.0
 10
835.76049661130241
 20
-1437.6058012628414
 30
0.0
 41
1.0
 10
835.76196047289284
 20
-1437.6087799429147
 30
0.0
 41
1.0
 10
835.81389740939437
 20
-1437.7144617360852
 30
0.0
 41
0.999276383110154
 10
835.85765053794853
 20
-1437.8237857980384
 30
0.0
 41
1.0
 10
835.85912980761236
 20
-1437.8274819855733
 30
0.0
 41
1.0
 10
835.86060907727608
 20
-1437.8311781731081
 30
0.0
 41
1.0
 10
835.90732074515836
 20
-1437.9478946101328
 30
0.0
 41
0.9994163472883446
 10
835.94595377634835
 20
-1438.067528198598
 30
0.0
 41
1.0
 10
835.94719192859463
 20
-1438.0713623423792
 30
0.0
 41
1.0
 10
835.94843008084092
 20
-1438.0751964861604
 30
0.0
 41
1.0
 10
835.98831364185821
 20
-1438.198702547639
 30
0.0
 41
0.999726805589109
 10
836.02238169777036
 20
-1438.3239375795899
 30
0.0
 41
1.0
 10
836.02331187803998
 20
-1438.3273569456992
 30
0.0
 41
1.0
 10
836.02424205830971
 20
-1438.3307763118084
 30
0.0
 41
1.0
 10
836.05644975368284
 20
-1438.4491726115427
 30
0.0
 41
0.9996701319000896
 10
836.082535370453
 20
-1438.569066564804
 30
0.0
 41
1.0
 10
836.1086209872235
 20
-1438.6889605180666
 30
0.0
 41
0.9995785451108843
 10
836.12770456456303
 20
-1438.8101662790973
 30
0.0
 41
1.0
 10
836.13192434673681
 20
-1438.836967433863
 30
0.0
 41
1.0
 10
836.13614412891059
 20
-1438.8637685886288
 30
0.0
 41
1.0
 10
836.16271910484909
 20
-1439.0325545623323
 30
0.0
 41
0.9979925101217118
 10
836.16774469077552
 20
-1439.2033458904239
 30
0.0
 41
1.0
 10
836.16856950320016
 20
-1439.2313766139041
 30
0.0
 41
1.0
 10
836.1693943156248
 20
-1439.2594073373843
 30
0.0
 41
1.0
 10
836.17277027670195
 20
-1439.3741372185139
 30
0.0
 41
0.9995314902262854
 10
836.16912008456336
 20
-1439.4888587022674
 30
0.0
 41
1.0
 10
836.16546989242488
 20
-1439.603580186018
 30
0.0
 41
0.9996245486944294
 10
836.15554079729384
 20
-1439.7179294571415
 30
0.0
 41
1.0
 10
836.15537774929953
 20
-1439.7198072132778
 30
0.0
 41
1.0
 10
836.15521470130523
 20
-1439.7216849694139
 30
0.0
 41
1.0
 10
836.14495951018614
 20
-1439.8397897528041
 30
0.0
 41
0.9997286095001601
 10
836.12921418661517
 20
-1439.9572886616986
 30
0.0
 41
1.0
 10
836.1288206939646
 20
-1439.9602250864027
 30
0.0
 41
1.0
 10
836.12842720131391
 20
-1439.9631615111068
 30
0.0
 41
1.0
 10
836.11189489244293
 20
-1440.0865332694
 30
0.0
 41
0.9998265533968328
 10
836.09077943371017
 20
-1440.2092037441889
 30
0.0
 41
1.0
 10
836.09010289157254
 20
-1440.2131341226989
 30
0.0
 41
1.0
 10
836.08942634943503
 20
-1440.2170645012088
 30
0.0
 41
1.0
 10
836.06695780642758
 20
-1440.3475957330131
 30
0.0
 41
0.9999022530852882
 10
836.04084834181958
 20
-1440.4774477016429
 30
0.0
 41
1.0
 10
836.03986970065353
 20
-1440.4823148440341
 30
0.0
 41
1.0
 10
836.03889105948736
 20
-1440.4871819864252
 30
0.0
 41
1.0
 10
836.01082431254656
 20
-1440.6267682398388
 30
0.0
 41
0.9999524761932828
 10
835.98004134371422
 20
-1440.7657807329917
 30
0.0
 41
1.0
 10
835.97876523653758
 20
-1440.7715434922998
 30
0.0
 41
1.0
 10
835.97748912936083
 20
-1440.7773062516076
 30
0.0
 41
1.0
 10
835.94415394617818
 20
-1440.9278442633631
 30
0.0
 41
0.9999813588725547
 10
835.90898294538124
 20
-1441.0779639760246
 30
0.0
 41
1.0
 10
835.90742901992371
 20
-1441.0845965664512
 30
0.0
 41
1.0
 10
835.9058750944663
 20
-1441.0912291568775
 30
0.0
 41
1.0
 10
835.86759624275669
 20
-1441.2546140503819
 30
0.0
 41
0.9999955237638309
 10
835.82834036477391
 20
-1441.4177669539979
 30
0.0
 41
1.0
 10
835.8160587291411
 20
-1441.4688111445143
 30
0.0
 41
1.0
 10
835.8037770935083
 20
-1441.5198553350308
 30
0.0
 41
1.0
 10
835.73995794425059
 20
-1441.7850966197184
 30
0.0
 41
0.999999360470932
 10
835.67553899709856
 20
-1442.0501928703361
 30
0.0
 41
1.0
 10
835.67082016154768
 20
-1442.0696117783921
 30
0.0
 41
1.0
 10
835.66610132599692
 20
-1442.089030686448
 30
0.0
 41
1.0
 10
835.59224470773449
 20
-1442.3929647532141
 30
0.0
 41
0.9999659914725437
 10
835.51338511184724
 20
-1442.6956392997804
 30
0.0
 41
1.0
 10
835.50843242291842
 20
-1442.7146484369559
 30
0.0
 41
1.0
 10
835.50347973398959
 20
-1442.7336575741313
 30
0.0
 41
1.0
 10
835.4147147602464
 20
-1443.0743503950425
 30
0.0
 41
0.9999441976023132
 10
835.31877172728434
 20
-1443.4130918203366
 30
0.0
 41
1.0
 10
835.302071208857
 20
-1443.4720555328709
 30
0.0
 41
1.0
 10
835.28537069042966
 20
-1443.5310192454049
 30
0.0
 41
1.0
 10
835.15602662061406
 20
-1443.9876880957627
 30
0.0
 41
0.9999625120733549
 10
835.01879385329357
 20
-1444.4420486297493
 30
0.0
 41
1.0
 10
834.98300391020871
 20
-1444.5605446563823
 30
0.0
 41
1.0
 10
834.94721396712396
 20
-1444.6790406830153
 30
0.0
 41
1.0
 10
834.8726937630845
 20
-1444.9257677611122
 30
0.0
 41
0.999979338631003
 10
834.79500773994744
 20
-1445.1715164003474
 30
0.0
 41
1.0
 10
834.71732171681003
 20
-1445.4172650395835
 30
0.0
 41
1.0
 10
834.706542157939
 20
-1445.4512829439582
 30
0.0
 41
1.0
 10
832.85616910466968
 20
-1451.3383548664256
 30
0.0
 41
1.0
 10
831.00579605140035
 20
-1457.2254267888932
 30
0.0
 41
1.0
 10
830.04453936137713
 20
-1457.2254267888932
 30
0.0
 41
1.0
 10
829.08328267135391
 20
-1457.2254267888932
 30
0.0
 41
1.0
 10
830.70222745003218
 20
-1452.0773982871037
 30
0.0
 41
1.0
 10
832.32117222871045
 20
-1446.9293697853143
 30
0.0
 41
1.0
 10
832.36633805187762
 20
-1446.7853385630674
 30
0.0
 41
1.0
 10
832.41150387504467
 20
-1446.6413073408203
 30
0.0
 41
1.0
 10
832.58180829241223
 20
-1446.0982163116419
 30
0.0
 41
0.999991165789035
 10
832.74754110410174
 20
-1445.5537127802484
 30
0.0
 41
1.0
 10
832.77723704759762
 20
-1445.456148840213
 30
0.0
 41
1.0
 10
832.8069329910935
 20
-1445.3585849001777
 30
0.0
 41
1.0
 10
832.91327391577761
 20
-1445.0092092488994
 30
0.0
 41
0.9999952428128779
 10
833.01745750510725
 20
-1444.6591842245352
 30
0.0
 41
1.0
 10
833.02251697543625
 20
-1444.6421859502721
 30
0.0
 41
1.0
 10
833.02757644576513
 20
-1444.6251876760086
 30
0.0
 41
1.0
 10
833.12164109442631
 20
-1444.3091592002061
 30
0.0
 41
0.9999931687524144
 10
833.21336693230603
 20
-1443.9924439869151
 30
0.0
 41
1.0
 10
833.21830219676622
 20
-1443.9754032776418
 30
0.0
 41
1.0
 10
833.22323746122629
 20
-1443.9583625683686
 30
0.0
 41
1.0
 10
833.30509277017734
 20
-1443.6757287736527
 30
0.0
 41
0.9999893840812376
 10
833.38433999663619
 20
-1443.392352644398
 30
0.0
 41
1.0
 10
833.46358722309367
 20
-1443.1089765151485
 30
0.0
 41
0.9999833980060479
 10
833.53956346383916
 20
-1442.8247059321063
 30
0.0
 41
1.0
 10
833.54856740055834
 20
-1442.7910170536395
 30
0.0
 41
1.0
 10
833.55757133727752
 20
-1442.7573281751727
 30
0.0
 41
1.0
 10
833.62653588614648
 20
-1442.4992923428672
 30
0.0
 41
0.9999233658067044
 10
833.68909085736675
 20
-1442.239628184145
 30
0.0
 41
1.0
 10
833.75164582858713
 20
-1441.9799640254225
 30
0.0
 41
1.0
 10
833.79112924744447
 20
-1441.8161573609964
 30
0.0
 41
1.0
 10
833.79610785141722
 20
-1441.7955023991449
 30
0.0
 41
1.0
 10
833.80108645538985
 20
-1441.7748474372934
 30
0.0
 41
1.0
 10
833.83061266629534
 20
-1441.6523506965973
 30
0.0
 41
0.9999868670842628
 10
833.85888175029811
 20
-1441.5295577509248
 30
0.0
 41
1.0
 10
833.86277923745683
 20
-1441.5126281635039
 30
0.0
 41
1.0
 10
833.86667672461544
 20
-1441.495698576083
 30
0.0
 41
1.0
 10
833.88715083429645
 20
-1441.4067648052701
 30
0.0
 41
0.9999778173348417
 10
833.90643843241003
 20
-1441.3175661880489
 30
0.0
 41
1.0
 10
833.92572603052781
 20
-1441.2283675708086
 30
0.0
 41
0.9999602692863556
 10
833.94342038916136
 20
-1441.1388392823669
 30
0.0
 41
1.0
 10
833.94662422123645
 20
-1441.1226288274938
 30
0.0
 41
1.0
 10
833.94982805331153
 20
-1441.1064183726207
 30
0.0
 41
1.0
 10
833.97393007609696
 20
-1440.9844691744256
 30
0.0
 41
0.9995617985320418
 10
833.99077342331532
 20
-1440.8613074267225
 30
0.0
 41
1.0
 10
833.99323791322195
 20
-1440.843286609354
 30
0.0
 41
1.0
 10
833.99570240312846
 20
-1440.8252657919857
 30
0.0
 41
1.0
 10
834.01598566417658
 20
-1440.6769507422839
 30
0.0
 41
0.9991121410640109
 10
834.02371101776487
 20
-1440.5274546434784
 30
0.0
 41
1.0
 10
834.02462980778955
 20
-1440.5096748069002
 30
0.0
 41
1.0
 10
834.02554859781424
 20
-1440.4918949703219
 30
0.0
 41
1.0
 10
834.03143637135327
 20
-1440.3779585446703
 30
0.0
 41
0.9989792494905475
 10
834.02701727923602
 20
-1440.2639557087737
 30
0.0
 41
1.0
 10
834.0263693073673
 20
-1440.2472394628458
 30
0.0
 41
1.0
 10
834.0257213354987
 20
-1440.2305232169178
 30
0.0
 41
1.0
 10
834.02259818711866
 20
-1440.1499528728718
 30
0.0
 41
0.9997820295393793
 10
834.01611418974323
 20
-1440.0695831511314
 30
0.0
 41
1.0
 10
834.00963019236769
 20
-1439.9892134293887
 30
0.0
 41
0.9998335105973226
 10
834.00021799685533
 20
-1439.9091338129342
 30
0.0
 41
1.0
 10
833.99862307217904
 20
-1439.8955640824527
 30
0.0
 41
1.0
 10
833.99702814750287
 20
-1439.8819943519711
 30
0.0
 41
1.0
 10
833.98442610263794
 20
-1439.7747752745531
 30
0.0
 41
0.9996876457880216
 10
833.96648218984024
 20
-1439.6683198468395
 30
0.0
 41
1.0
 10
833.96425052669497
 20
-1439.655080111598
 30
0.0
 41
1.0
 10
833.96201886354982
 20
-1439.6418403763564
 30
0.0
 41
1.0
 10
833.94822304212892
 20
-1439.5599942323975
 30
0.0
 41
0.999554749649369
 10
833.92956972023592
 20
-1439.4791167352059
 30
0.0
 41
1.0
 10
833.92919576336431
 20
-1439.4774953244994
 30
0.0
 41
1.0
 10
833.92882180649281
 20
-1439.4758739137928
 30
0.0
 41
1.0
 10
833.91091639834303
 20
-1439.3982392380155
 30
0.0
 41
0.9994899427177221
 10
833.88809148966391
 20
-1439.3219059551802
 30
0.0
 41
1.0
 10
833.88763296292325
 20
-1439.320372505392
 30
0.0
 41
1.0
 10
833.88717443618259
 20
-1439.3188390556038
 30
0.0
 41
1.0
 10
833.86526658098512
 20
-1439.2455726723467
 30
0.0
 41
0.9993784877590275
 10
833.83825094587826
 20
-1439.1740319671869
 30
0.0
 41
1.0
 10
833.837719254901
 20
-1439.1726239844654
 30
0.0
 41
1.0
 10
833.83718756392375
 20
-1439.1712160017439
 30
0.0
 41
1.0
 10
833.81123531077117
 20
-1439.1024912620264
 30
0.0
 41
0.9992430832254253
 10
833.78001877561235
 20
-1439.0359921099596
 30
0.0
 41
1.0
 10
833.77943665955604
 20
-1439.0347520548428
 30
0.0
 41
1.0
 10
833.77885454349962
 20
-1439.033511999726
 30
0.0
 41
1.0
 10
833.74880224045364
 20
-1438.9694929578927
 30
0.0
 41
0.9990789632799046
 10
833.71337161367626
 20
-1438.9082863461417
 30
0.0
 41
1.0
 10
833.71277590749423
 20
-1438.9072572602822
 30
0.0
 41
1.0
 10
833.71218020131209
 20
-1438.9062281744229
 30
0.0
 41
1.0
 10
833.67794098689967
 20
-1438.8470797343925
 30
0.0
 41
0.9988874801121824
 10
833.63828171086732
 20
-1438.7914200219743
 30
0.0
 41
1.0
 10
833.63772618480345
 20
-1438.7906403703
 30
0.0
 41
1.0
 10
833.63717065873959
 20
-1438.789860718626
 30
0.0
 41
1.0
 10
833.59862243483553
 20
-1438.7357603095568
 30
0.0
 41
0.9986762060693837
 10
833.55471996355925
 20
-1438.6859065951171
 30
0.0
 41
1.0
 10
833.55427600322719
 20
-1438.6854024533006
 30
0.0
 41
1.0
 10
833.55383204289524
 20
-1438.6848983114842
 30
0.0
 41
1.0
 10
833.51081749228274
 20
-1438.6360528806777
 30
0.0
 41
0.9984621642488105
 10
833.46265993550526
 20
-1438.5922695802069
 30
0.0
 41
1.0
 10
833.46241330098837
 20
-1438.592045348043
 30
0.0
 41
1.0
 10
833.4621666664716
 20
-1438.5918211158794
 30
0.0
 41
1.0
 10
833.41450237872687
 20
-1438.5484862797355
 30
0.0
 41
0.9982724693852046
 10
833.36208374688579
 20
-1438.5110419292182
 30
0.0
 41
1.0
 10
833.30966511504505
 20
-1438.4735975787009
 30
0.0
 41
0.9981399180159353
 10
833.25307905165164
 20
-1438.4428110592573
 30
0.0
 41
1.0
 10
833.25303338957292
 20
-1438.4427862161001
 30
0.0
 41
1.0
 10
833.25298772749409
 20
-1438.4427613729426
 30
0.0
 41
1.0
 10
833.19631033994256
 20
-1438.4119251671841
 30
0.0
 41
0.9980927086836022
 10
833.13626498887459
 20
-1438.3883083583312
 30
0.0
 41
1.0
 10
833.13582481916444
 20
-1438.3881352324568
 30
0.0
 41
1.0
 10
833.13538464945429
 20
-1438.3879621065823
 30
0.0
 41
1.0
 10
833.0744589589649
 20
-1438.3639990459799
 30
0.0
 41
0.9981411356561512
 10
833.01107043756633
 20
-1438.3476264044746
 30
0.0
 41
1.0
 10
833.01018832086424
 20
-1438.3473985622691
 30
0.0
 41
1.0
 10
833.00930620416227
 20
-1438.3471707200633
 30
0.0
 41
1.0
 10
832.94415344935965
 20
-1438.3303423941468
 30
0.0
 41
0.9983031812934958
 10
832.87748602036424
 20
-1438.3212030329705
 30
0.0
 41
1.0
 10
832.86861499496172
 20
-1438.3199869142993
 30
0.0
 41
1.0
 10
832.85974396955908
 20
-1438.3187707956281
 30
0.0
 41
1.0
 10
832.80539432705416
 20
-1438.3113200656371
 30
0.0
 41
0.9983887708265281
 10
832.75055047776016
 20
-1438.3100753920035
 30
0.0
 41
1.0
 10
832.74248707254617
 20
-1438.3098923941288
 30
0.0
 41
1.0
 10
832.73442366733218
 20
-1438.309709396254
 30
0.0
 41
1.0
 10
832.69570662847082
 20
-1438.3088307183702
 30
0.0
 41
0.9998869563080957
 10
832.65698067526466
 20
-1438.3091165877299
 30
0.0
 41
1.0
 10
832.61825472204009
 20
-1438.3094024570898
 30
0.0
 41
0.9999972320169482
 10
832.57953054280631
 20
-1438.3098705566192
 30
0.0
 41
1.0
 10
832.56017752624882
 20
-1438.3101044967084
 30
0.0
 41
1.0
 10
832.54082450969133
 20
-1438.3103384367973
 30
0.0
 41
1.0
 10
832.46339429732359
 20
-1438.3112744165053
 30
0.0
 41
0.999730494508706
 10
832.38609099108874
 20
-1438.3158035102911
 30
0.0
 41
1.0
 10
832.37704134938167
 20
-1438.3163337162812
 30
0.0
 41
1.0
 10
832.36799170767461
 20
-1438.3168639222713
 30
0.0
 41
1.0
 10
832.2725891180271
 20
-1438.3224534280371
 30
0.0
 41
0.9997888306414748
 10
832.17749678218354
 20
-1438.3319583925263
 30
0.0
 41
1.0
 10
832.16877572061185
 20
-1438.3328301071583
 30
0.0
 41
1.0
 10
832.16005465904016
 20
-1438.3337018217903
 30
0.0
 41
1.0
 10
832.04752020005117
 20
-1438.3449502155438
 30
0.0
 41
0.9984170238191188
 10
831.93696105269851
 20
-1438.3687662974799
 30
0.0
 41
1.0
 10
831.9005799217133
 20
-1438.3766033332859
 30
0.0
 41
1.0
 10
831.8641987907281
 20
-1438.3844403690916
 30
0.0
 41
1.0
 10
831.74900772230626
 20
-1438.4092542356013
 30
0.0
 41
0.9976592854198998
 10
831.63827955590148
 20
-1438.4495529127485
 30
0.0
 41
1.0
 10
831.52755138949601
 20
-1438.489851589896
 30
0.0
 41
0.9993255074353058
 10
831.42007959070565
 20
-1438.538168488388
 30
0.0
 41
1.0
 10
831.41545441178232
 20
-1438.5402478645879
 30
0.0
 41
1.0
 10
831.4108292328591
 20
-1438.5423272407875
 30
0.0
 41
1.0
 10
831.29410707622105
 20
-1438.5948028916796
 30
0.0
 41
0.9976475078274276
 10
831.18565973191028
 20
-1438.6627508813385
 30
0.0
 41
1.0
 10
831.16731733777419
 20
-1438.6742433601539
 30
0.0
 41
1.0
 10
831.14897494363822
 20
-1438.6857358389691
 30
0.0
 41
1.0
 10
831.06477275208749
 20
-1438.7384929597365
 30
0.0
 41
0.9995131336406579
 10
830.98402503713203
 20
-1438.7963991716886
 30
0.0
 41
1.0
 10
830.90327732217725
 20
-1438.8543053836397
 30
0.0
 41
0.9995810107605982
 10
830.82601567444908
 20
-1438.9167870661054
 30
0.0
 41
1.0
 10
830.82304564323749
 20
-1438.9191889375711
 30
0.0
 41
1.0
 10
830.82007561202579
 20
-1438.9215908090368
 30
0.0
 41
1.0
 10
830.73687390187774
 20
-1438.9888762344312
 30
0.0
 41
0.9996617837954378
 10
830.65728321474489
 20
-1439.0603966899889
 30
0.0
 41
1.0
 10
830.64515246386259
 20
-1439.0712974229843
 30
0.0
 41
1.0
 10
830.63302171298028
 20
-1439.0821981559798
 30
0.0
 41
1.0
 10
830.56474618558514
 20
-1439.1435507714511
 30
0.0
 41
0.999726775005324
 10
830.49941267730662
 20
-1439.2080273079714
 30
0.0
 41
1.0
 10
830.43407916902993
 20
-1439.2725038444898
 30
0.0
 41
0.9999667288960217
 10
830.36980622588942
 20
-1439.3380376513778
 30
0.0
 41
1.0
 10
830.30097877810761
 20
-1439.4082153101429
 30
0.0
 41
1.0
 10
830.23215133032579
 20
-1439.4783929689079
 30
0.0
 41
1.0
 10
830.03022349162825
 20
-1439.6842820933193
 30
0.0
 41
0.9988205335175155
 10
829.84921787464793
 20
-1439.9087863253808
 30
0.0
 41
1.0
 10
829.81857790974391
 20
-1439.9467895758098
 30
0.0
 41
1.0
 10
829.78793794483988
 20
-1439.9847928262391
 30
0.0
 41
1.0
 10
829.54565239805333
 20
-1440.2853035591565
 30
0.0
 41
0.9997077826754938
 10
829.31817444695059
 20
-1440.5971733533695
 30
0.0
 41
1.0
 10
829.31645103181779
 20
-1440.5995361367522
 30
0.0
 41
1.0
 10
829.31472761668499
 20
-1440.601898920135
 30
0.0
 41
1.0
 10
829.08380283531915
 20
-1440.9184942811103
 30
0.0
 41
0.9989147567078969
 10
828.88333933243439
 20
-1441.255203742297
 30
0.0
 41
1.0
 10
828.85859818712731
 20
-1441.2967603228497
 30
0.0
 41
1.0
 10
828.83385704182024
 20
-1441.3383169034023
 30
0.0
 41
1.0
 10
828.67864574318423
 20
-1441.5990182878525
 30
0.0
 41
0.9997476598182477
 10
828.53530075567448
 20
-1441.8664280364353
 30
0.0
 41
1.0
 10
828.39195576816496
 20
-1442.1338377850175
 30
0.0
 41
0.9996258967110432
 10
828.26344751623367
 20
-1442.4086857216409
 30
0.0
 41
1.0
 10
828.25024760678446
 20
-1442.4369171217354
 30
0.0
 41
1.0
 10
828.23704769733524
 20
-1442.4651485218301
 30
0.0
 41
1.0
 10
828.09683897633511
 20
-1442.7650209197841
 30
0.0
 41
0.9998735413943912
 10
827.9662376296136
 20
-1443.0692005192541
 30
0.0
 41
1.0
 10
827.96279480155272
 20
-1443.0772191047195
 30
0.0
 41
1.0
 10
827.95935197349195
 20
-1443.0852376901848
 30
0.0
 41
1.0
 10
827.83563628289505
 20
-1443.3733801187173
 30
0.0
 41
0.9999377418858135
 10
827.71838148071845
 20
-1443.664211586397
 30
0.0
 41
1.0
 10
827.60112667854378
 20
-1443.9550430540717
 30
0.0
 41
0.9999508299502788
 10
827.48966273516805
 20
-1444.2481427308883
 30
0.0
 41
1.0
 10
827.48658196650445
 20
-1444.2562437568549
 30
0.0
 41
1.0
 10
827.48350119784084
 20
-1444.2643447828218
 30
0.0
 41
1.0
 10
827.36587571713608
 20
-1444.5736465115774
 30
0.0
 41
0.9999609228435916
 10
827.25373711426278
 20
-1444.884979527591
 30
0.0
 41
1.0
 10
827.25078110391405
 20
-1444.8931863679982
 30
0.0
 41
1.0
 10
827.24782509356521
 20
-1444.9013932084054
 30
0.0
 41
1.0
 10
827.12977446999525
 20
-1445.2291399052306
 30
0.0
 41
0.999967460740557
 10
827.01702694392918
 20
-1445.5587485252195
 30
0.0
 41
1.0
 10
826.96562855336174
 20
-1445.7090077209259
 30
0.0
 41
1.0
 10
826.9142301627943
 20
-1445.8592669166326
 30
0.0
 41
1.0
 10
826.79821955603859
 20
-1446.1984148991296
 30
0.0
 41
0.999928753231045
 10
826.69033815207047
 20
-1446.5402356380978
 30
0.0
 41
1.0
 10
826.6438608959445
 20
-1446.6874981824271
 30
0.0
 41
1.0
 10
826.59738363981842
 20
-1446.8347607267565
 30
0.0
 41
1.0
 10
826.58245674808245
 20
-1446.8820563771285
 30
0.0
 41
0.9999998224321172
 10
826.56758623936901
 20
-1446.9293697853143
 30
0.0
 41
1.0
 10
824.94693010257367
 20
-1452.0773982871037
 30
0.0
 41
1.0
 10
823.32627396577834
 20
-1457.2254267888932
 30
0.0
 41
1.0
 10
822.4209655218873
 20
-1457.2254267888932
 30
0.0
 41
1.0
 10
821.51565707799625
 20
-1457.2254267888932
 30
0.0
 41
1.0
 10
823.36774148938218
 20
-1451.3383548664256
 30
0.0
 41
1.0
 10
825.21982590076811
 20
-1445.4512829439582
 30
0.0
 41
1.0
 10
825.2299476590714
 20
-1445.4192397305085
 30
0.0
 41
1.0
 10
825.30255532792114
 20
-1445.1889401886826
 30
0.0
 41
1.0
 10
825.37516299677009
 20
-1444.9586406468593
 30
0.0
 41
0.9999825681966972
 10
825.44504603598091
 20
-1444.7274997517966
 30
0.0
 41
1.0
 10
825.49333709814391
 20
-1444.5677751682931
 30
0.0
 41
1.0
 10
825.54162816030703
 20
-1444.4080505847896
 30
0.0
 41
1.0
 10
825.63878051361962
 20
-1444.0867153630295
 30
0.0
 41
0.9999672528961449
 10
825.73071931924312
 20
-1443.763849817442
 30
0.0
 41
1.0
 10
825.73350820290671
 20
-1443.754055972074
 30
0.0
 41
1.0
 10
825.73629708657018
 20
-1443.744262126706
 30
0.0
 41
1.0
 10
825.82265812485753
 20
-1443.4409842718869
 30
0.0
 41
0.9999899749128176
 10
825.90629973440116
 20
-1443.136945183403
 30
0.0
 41
1.0
 10
825.91640565341913
 20
-1443.1002099457228
 30
0.0
 41
1.0
 10
825.92651157243722
 20
-1443.0634747080426
 30
0.0
 41
1.0
 10
825.98994134393706
 20
-1442.8329060949463
 30
0.0
 41
0.9999214200504895
 10
826.04757077231341
 20
-1442.6008197527412
 30
0.0
 41
1.0
 10
826.06033662449067
 20
-1442.5494088673581
 30
0.0
 41
1.0
 10
826.07310247666805
 20
-1442.4979979819748
 30
0.0
 41
1.0
 10
826.10520020068498
 20
-1442.3687334105562
 30
0.0
 41
0.9999828681668809
 10
826.13578245268639
 20
-1442.2391019360646
 30
0.0
 41
1.0
 10
826.16636470468177
 20
-1442.109470461598
 30
0.0
 41
0.9999389844480605
 10
826.194075693473
 20
-1441.9791950056886
 30
0.0
 41
1.0
 10
826.20121343719234
 20
-1441.9456389018555
 30
0.0
 41
1.0
 10
826.20835118091156
 20
-1441.9120827980223
 30
0.0
 41
1.0
 10
826.25033765714136
 20
-1441.7146951344466
 30
0.0
 41
0.9998933699438999
 10
826.28654192154374
 20
-1441.5161655266872
 30
0.0
 41
1.0
 10
826.28791474675995
 20
-1441.5086375059914
 30
0.0
 41
1.0
 10
826.28928757197616
 20
-1441.5011094852955
 30
0.0
 41
1.0
 10
826.3282374868113
 20
-1441.2875238361426
 30
0.0
 41
0.999685030519306
 10
826.35642116306963
 20
-1441.0722528307092
 30
0.0
 41
1.0
 10
826.35841619643907
 20
-1441.0570144765857
 30
0.0
 41
1.0
 10
826.36041122980862
 20
-1441.0417761224624
 30
0.0
 41
1.0
 10
826.38781909226782
 20
-1440.8324308953079
 30
0.0
 41
0.9994697936706661
 10
826.40154365148726
 20
-1440.621745699978
 30
0.0
 41
1.0
 10
826.40202072073703
 20
-1440.6144222277658
 30
0.0
 41
1.0
 10
826.40249778998668
 20
-1440.6070987555538
 30
0.0
 41
1.0
 10
826.4152682107067
 20
-1440.4110605046476
 30
0.0
 41
0.9991804893136959
 10
826.41213989443384
 20
-1440.2146316546737
 30
0.0
 41
1.0
 10
826.41205601561182
 20
-1440.2093648532627
 30
0.0
 41
1.0
 10
826.4119721367897
 20
-1440.2040980518516
 30
0.0
 41
1.0
 10
826.40901157816074
 20
-1440.0182028047032
 30
0.0
 41
0.9988448329322895
 10
826.38822003253733
 20
-1439.8334502148668
 30
0.0
 41
1.0
 10
826.3866259588342
 20
-1439.8192853590951
 30
0.0
 41
1.0
 10
826.38503188513118
 20
-1439.8051205033235
 30
0.0
 41
1.0
 10
826.36742848691358
 20
-1439.6486976250321
 30
0.0
 41
0.9985503209458099
 10
826.33311221461406
 20
-1439.4950734409442
 30
0.0
 41
1.0
 10
826.32552622254298
 20
-1439.4611131135443
 30
0.0
 41
1.0
 10
826.31794023047178
 20
-1439.4271527861447
 30
0.0
 41
1.0
 10
826.2987959423142
 20
-1439.3414492568543
 30
0.0
 41
0.9991036781370074
 10
826.27247108066319
 20
-1439.25767216953
 30
0.0
 41
1.0
 10
826.26848885520735
 20
-1439.2449990070199
 30
0.0
 41
1.0
 10
826.26450662975151
 20
-1439.2323258445097
 30
0.0
 41
1.0
 10
826.24614621901208
 20
-1439.173895082205
 30
0.0
 41
0.9998874504369486
 10
826.22604101133345
 20
-1439.1160414799817
 30
0.0
 41
1.0
 10
826.20593580365494
 20
-1439.0581878777587
 30
0.0
 41
0.9994041637544834
 10
826.18188719071964
 20
-1439.001859173866
 30
0.0
 41
1.0
 10
826.17769040649591
 20
-1438.9920291093847
 30
0.0
 41
1.0
 10
826.17349362227219
 20
-1438.9821990449034
 30
0.0
 41
1.0
 10
826.14561479127781
 20
-1438.9168988789356
 30
0.0
 41
0.9991846840700293
 10
826.11255843458537
 20
-1438.8540608476574
 30
0.0
 41
1.0
 10
826.11142182819049
 20
-1438.8519002312032
 30
0.0
 41
1.0
 10
826.11028522179572
 20
-1438.8497396147488
 30
0.0
 41
1.0
 10
826.07950207789213
 20
-1438.7912228163766
 30
0.0
 41
0.9989253167921924
 10
826.04343265383739
 20
-1438.735807887987
 30
0.0
 41
1.0
 10
826.04237852916344
 20
-1438.7341883932249
 30
0.0
 41
1.0
 10
826.04132440448939
 20
-1438.7325688984631
 30
0.0
 41
1.0
 10
826.0073632297831
 20
-1438.6803929595978
 30
0.0
 41
0.9986467172837009
 10
825.96816607714516
 20
-1438.6320269259672
 30
0.0
 41
1.0
 10
825.96729194844443
 20
-1438.6309483236892
 30
0.0
 41
1.0
 10
825.9664178197437
 20
-1438.6298697214108
 30
0.0
 41
1.0
 10
825.92896892450767
 20
-1438.5836608923373
 30
0.0
 41
0.9984001104266225
 10
825.88654219399029
 20
-1438.5419757849686
 30
0.0
 41
1.0
 10
825.88595505588046
 20
-1438.5413989100869
 30
0.0
 41
1.0
 10
825.88536791777051
 20
-1438.5408220352051
 30
0.0
 41
1.0
 10
825.84411546347292
 20
-1438.5002906775999
 30
0.0
 41
0.9982442159083582
 10
825.79835936213738
 20
-1438.4649221163397
 30
0.0
 41
1.0
 10
825.798144566676
 20
-1438.4647560836968
 30
0.0
 41
1.0
 10
825.79792977121474
 20
-1438.4645900510538
 30
0.0
 41
1.0
 10
825.75260326080183
 20
-1438.4295535550793
 30
0.0
 41
0.9982450060835192
 10
825.70345228173016
 20
-1438.4001217720461
 30
0.0
 41
1.0
 10
825.6543013026585
 20
-1438.3706899890124
 30
0.0
 41
0.9983922639634586
 10
825.60213499649444
 20
-1438.3470103543586
 30
0.0
 41
1.0
 10
825.60190811916959
 20
-1438.3469073688771
 30
0.0
 41
1.0
 10
825.60168124184463
 20
-1438.3468043833955
 30
0.0
 41
1.0
 10
825.54906118103088
 20
-1438.3229187777786
 30
0.0
 41
0.9986517147150699
 10
825.49424820816375
 20
-1438.304617658657
 30
0.0
 41
1.0
 10
825.49357028673558
 20
-1438.3043913122256
 30
0.0
 41
1.0
 10
825.49289236530728
 20
-1438.3041649657939
 30
0.0
 41
1.0
 10
825.43672354958278
 20
-1438.285411153809
 30
0.0
 41
0.9989435598956108
 10
825.37907016242912
 20
-1438.271893451574
 30
0.0
 41
1.0
 10
825.37799004284898
 20
-1438.2716402013214
 30
0.0
 41
1.0
 10
825.37690992326895
 20
-1438.2713869510687
 30
0.0
 41
1.0
 10
825.31709629695547
 20
-1438.2573627483284
 30
0.0
 41
0.9992249241239609
 10
825.25636478805961
 20
-1438.2480874056137
 30
0.0
 41
1.0
 10
825.25495109976714
 20
-1438.2478714972056
 30
0.0
 41
1.0
 10
825.25353741147467
 20
-1438.2476555887974
 30
0.0
 41
1.0
 10
825.18997852599477
 20
-1438.2379484292665
 30
0.0
 41
0.9994396597833826
 10
825.12591258945713
 20
-1438.2325155069207
 30
0.0
 41
1.0
 10
825.10677192197977
 20
-1438.230892339202
 30
0.0
 41
1.0
 10
825.08763125450253
 20
-1438.2292691714833
 30
0.0
 41
1.0
 10
824.98528398301028
 20
-1438.2205899137005
 30
0.0
 41
0.9987693403121644
 10
824.88258035942317
 20
-1438.2220929771531
 30
0.0
 41
1.0
 10
824.87232602519566
 20
-1438.2222430489273
 30
0.0
 41
1.0
 10
824.86207169096804
 20
-1438.2223931207016
 30
0.0
 41
1.0
 10
824.75251592478935
 20
-1438.2239964649889
 30
0.0
 41
0.9989753644966473
 10
824.64355392477307
 20
-1438.235499471914
 30
0.0
 41
1.0
 10
824.5345919247568
 20
-1438.2470024788392
 30
0.0
 41
0.9983190067306108
 10
824.42769311379209
 20
-1438.271037470626
 30
0.0
 41
1.0
 10
824.41879216218513
 20
-1438.2730387491888
 30
0.0
 41
1.0
 10
824.40989121057817
 20
-1438.2750400277514
 30
0.0
 41
1.0
 10
824.28519049640101
 20
-1438.3030775766633
 30
0.0
 41
0.9985539388303558
 10
824.16422074272373
 20
-1438.3443412527085
 30
0.0
 41
1.0
 10
824.16187531176251
 20
-1438.3451412965246
 30
0.0
 41
1.0
 10
824.15952988080141
 20
-1438.3459413403407
 30
0.0
 41
1.0
 10
824.03386926520318
 20
-1438.388805104018
 30
0.0
 41
0.9988468746494261
 10
823.91289892290251
 20
-1438.4435231890805
 30
0.0
 41
1.0
 10
823.90971610091378
 20
-1438.4449628636403
 30
0.0
 41
1.0
 10
823.90653327892494
 20
-1438.4464025382003
 30
0.0
 41
1.0
 10
823.77919729264534
 20
-1438.5039999723833
 30
0.0
 41
0.9991322885918536
 10
823.65709670858621
 20
-1438.5719953045668
 30
0.0
 41
1.0
 10
823.63949469754243
 20
-1438.5817975065565
 30
0.0
 41
1.0
 10
823.62189268649877
 20
-1438.5915997085463
 30
0.0
 41
1.0
 10
823.51971600544459
 20
-1438.6484998243254
 30
0.0
 41
0.9993860037849387
 10
823.42177500137211
 20
-1438.7124158399133
 30
0.0
 41
1.0
 10
823.41615668852182
 20
-1438.7160823346069
 30
0.0
 41
1.0
 10
823.41053837567165
 20
-1438.7197488293004
 30
0.0
 41
1.0
 10
823.32383399730247
 20
-1438.7763318554992
 30
0.0
 41
0.9998821494954255
 10
823.23890762148574
 20
-1438.8355500855787
 30
0.0
 41
1.0
 10
823.15398124567719
 20
-1438.8947683156523
 30
0.0
 41
0.9997976482743292
 10
823.07150561527772
 20
-1438.9573547236907
 30
0.0
 41
1.0
 10
823.05686935046856
 20
-1438.9684614134737
 30
0.0
 41
1.0
 10
823.0422330856594
 20
-1438.9795681032567
 30
0.0
 41
1.0
 10
822.93048492564435
 20
-1439.0643678908593
 30
0.0
 41
0.9998091630799206
 10
822.8221346476156
 20
-1439.153468241562
 30
0.0
 41
1.0
 10
822.80912889513968
 20
-1439.1641633420068
 30
0.0
 41
1.0
 10
822.79612314266376
 20
-1439.1748584424518
 30
0.0
 41
1.0
 10
822.66176135968158
 20
-1439.2853489940451
 30
0.0
 41
0.9995035112316847
 10
822.53462548191987
 20
-1439.4040828110585
 30
0.0
 41
1.0
 10
822.52497817153221
 20
-1439.4130925572167
 30
0.0
 41
1.0
 10
822.51533086114443
 20
-1439.4221023033751
 30
0.0
 41
1.0
 10
822.39190779837895
 20
-1439.5373686751311
 30
0.0
 41
0.9994630424299467
 10
822.2762993925943
 20
-1439.6604714183668
 30
0.0
 41
1.0
 10
822.27261655382131
 20
-1439.6643929978814
 30
0.0
 41
1.0
 10
822.26893371504832
 20
-1439.6683145773961
 30
0.0
 41
1.0
 10
822.16069098680896
 20
-1439.7835741616034
 30
0.0
 41
0.9995160693748921
 10
822.05982495727847
 20
-1439.9053415794747
 30
0.0
 41
1.0
 10
822.05789123719705
 20
-1439.9076760036837
 30
0.0
 41
1.0
 10
822.05595751711553
 20
-1439.9100104278928
 30
0.0
 41
1.0
 10
821.95895892774638
 20
-1440.0271089973476
 30
0.0
 41
0.9996561470515075
 10
821.86823270908064
 20
-1440.1491317597963
 30
0.0
 41
1.0
 10
821.86207504318008
 20
-1440.1574135488368
 30
0.0
 41
1.0
 10
821.85591737727952
 20
-1440.1656953378772
 30
0.0
 41
1.0
 10
821.7775064904157
 20
-1440.2711545222442
 30
0.0
 41
0.9998349055172305
 10
821.70297920848236
 20
-1440.379393105909
 30
0.0
 41
1.0
 10
821.62845192655072
 20
-1440.4876316895713
 30
0.0
 41
0.999972810955677
 10
821.55552903063608
 20
-1440.5969576151333
 30
0.0
 41
1.0
 10
821.55421381522638
 20
-1440.5989293846328
 30
0.0
 41
1.0
 10
821.55289859981656
 20
-1440.6009011541325
 30
0.0
 41
1.0
 10
821.47734527308512
 20
-1440.7141706186896
 30
0.0
 41
0.999997214745221
 10
821.40232746271556
 20
-1440.8277954615185
 30
0.0
 41
1.0
 10
821.39735592008981
 20
-1440.835325549996
 30
0.0
 41
1.0
 10
821.39238437746405
 20
-1440.8428556384733
 30
0.0
 41
1.0
 10
821.30742348184322
 20
-1440.9715406582566
 30
0.0
 41
0.999937197900589
 10
821.22536813244301
 20
-1441.1020975720278
 30
0.0
 41
1.0
 10
821.22185924807991
 20
-1441.1076805000948
 30
0.0
 41
1.0
 10
821.21835036371692
 20
-1441.1132634281619
 30
0.0
 41
1.0
 10
821.12927724558904
 20
-1441.2549861980699
 30
0.0
 41
0.9998272025611347
 10
821.04553385470706
 20
-1441.3999220748121
 30
0.0
 41
1.0
 10
821.03031868268283
 20
-1441.4262551892693
 30
0.0
 41
1.0
 10
821.01510351065861
 20
-1441.4525883037263
 30
0.0
 41
1.0
 10
820.90092977572783
 20
-1441.6501904093832
 30
0.0
 41
0.9995217214838259
 10
820.79919008617026
 20
-1441.8544727372494
 30
0.0
 41
1.0
 10
820.79154652353679
 20
-1441.869820186949
 30
0.0
 41
1.0
 10
820.78390296090333
 20
-1441.8851676366487
 30
0.0
 41
1.0
 10
820.69699766831479
 20
-1442.0596640947281
 30
0.0
 41
0.9998269762608
 10
820.61664320204079
 20
-1442.2372723814549
 30
0.0
 41
1.0
 10
820.53628873576622
 20
-1442.4148806681835
 30
0.0
 41
0.9998944747387447
 10
820.46112794120222
 20
-1442.5947483938119
 30
0.0
 41
1.0
 10
820.45617427161574
 20
-1442.6066030487182
 30
0.0
 41
1.0
 10
820.45122060202925
 20
-1442.6184577036245
 30
0.0
 41
1.0
 10
820.37057354147487
 20
-1442.811454643647
 30
0.0
 41
0.9999506734412954
 10
820.29377601256499
 20
-1443.0060154485177
 30
0.0
 41
1.0
 10
820.2791760472951
 20
-1443.0430033703212
 30
0.0
 41
1.0
 10
820.26457608202509
 20
-1443.0799912921248
 30
0.0
 41
1.0
 10
820.21697848365534
 20
-1443.2005762533895
 30
0.0
 41
0.99999123939017
 10
820.17039203963907
 20
-1443.3215554560697
 30
0.0
 41
1.0
 10
820.1238055956195
 20
-1443.4425346587582
 30
0.0
 41
0.9999927113954833
 10
820.07814430123881
 20
-1443.5638660662241
 30
0.0
 41
1.0
 10
820.06417586983298
 20
-1443.6009830482449
 30
0.0
 41
1.0
 10
820.05020743842704
 20
-1443.6381000302654
 30
0.0
 41
1.0
 10
819.97660928123639
 20
-1443.8336654017678
 30
0.0
 41
0.9999487550949151
 10
819.90698565626758
 20
-1444.0306807669419
 30
0.0
 41
1.0
 10
819.88339204632621
 20
-1444.0974440772475
 30
0.0
 41
1.0
 10
819.85979843638472
 20
-1444.1642073875532
 30
0.0
 41
1.0
 10
819.76511280201794
 20
-1444.4321412223669
 30
0.0
 41
0.9999808436942277
 10
819.67375121337966
 20
-1444.7012266536226
 30
0.0
 41
1.0
 10
819.58238962473115
 20
-1444.9703120849081
 30
0.0
 41
0.9999873932891551
 10
819.49373491601341
 20
-1445.2403014399206
 30
0.0
 41
1.0
 10
819.47364255914727
 20
-1445.3014907726633
 30
0.0
 41
1.0
 10
819.45355020228124
 20
-1445.3626801054063
 30
0.0
 41
1.0
 10
819.32471077982609
 20
-1445.7550481259198
 30
0.0
 41
0.9999794883025546
 10
819.20090799486854
 20
-1446.1490343321959
 30
0.0
 41
1.0
 10
819.18975573543889
 20
-1446.1845249424082
 30
0.0
 41
1.0
 10
819.17860347600913
 20
-1446.2200155526202
 30
0.0
 41
1.0
 10
819.03604531209965
 20
-1446.6736883047452
 30
0.0
 41
0.9999982761708779
 10
818.89517287207889
 20
-1447.1278873268866
 30
0.0
 41
1.0
 10
817.30703253950617
 20
-1452.1766570578898
 30
0.0
 41
1.0
 10
815.71889220693345
 20
-1457.2254267888932
 30
0.0
 41
1.0
 10
814.77014159545718
 20
-1457.2254267888932
 30
0.0
 41
1.0
 10
813.8213909839809
 20
-1457.2254267888932
 30
0.0
 41
1.0
 10
817.05967547013427
 20
-1446.898104588947
 30
0.0
 41
1.0
 10
820.29795995628763
 20
-1436.5707823890009
 30
0.0
 41
1.0
  0
LWPOLYLINE
  5
56
100
AcDbEntity
  8
0
370
              15
390
0
  6
Continuous
 62
               7
100
AcDbPolyline
 90
      232
 70
             128
 10
794.59441418246013
 20
-1437.6551252205161
 42
0.0004370800664494
 10
794.54153700837048
 20
-1437.7237918597955
 10
794.50225277726111
 20
-1437.7748989726688
 42
0.0030481992174328
 10
794.37191406012892
 20
-1437.9466206650304
 10
794.33340238839116
 20
-1437.9980074488012
 42
0.0042058245766623
 10
794.12941733770788
 20
-1438.2750131938933
 10
794.07701221522063
 20
-1438.3474460406555
 42
0.0120948898736763
 10
793.78096829845663
 20
-1438.7781956452088
 10
793.68477579933517
 20
-1438.9256763804328
 42
0.0141601263951461
 10
793.38113175241494
 20
-1439.421345717165
 10
793.34159448498963
 20
-1439.4901896845956
 42
0.0071131081299242
 10
793.13632216175063
 20
-1439.8596924834349
 42
0.0068458791002768
 10
792.94144263490773
 20
-1440.2347840469106
 10
792.93463077244985
 20
-1440.2483457606345
 42
0.0064120880291193
 10
792.73648852240115
 20
-1440.6557702355628
 10
792.72895383688854
 20
-1440.6717820922747
 42
0.0058857236447646
 10
792.52619844502124
 20
-1441.1161582033001
 10
792.518023518723
 20
-1441.1346483569437
 42
0.0053189741895478
 10
792.30931920605383
 20
-1441.620611830866
 10
792.30057140037422
 20
-1441.6415937090578
 42
0.0047503650421472
 10
792.08459767421903
 20
-1442.173793142279
 10
792.07532942587557
 20
-1442.1972695183754
 42
0.0042071762170582
 10
791.85078204214994
 20
-1442.7803631124395
 10
791.84103263979921
 20
-1442.8063292873148
 42
0.0036680086483993
 10
791.60657799648186
 20
-1443.4449646718597
 10
791.596370216639
 20
-1443.4734132061903
 42
0.0032573142628041
 10
791.35073793067113
 20
-1444.1722658659464
 10
791.28208740983155
 20
-1444.3717289499966
 42
0.0026133366647465
 10
790.93364221107356
 20
-1445.4015922336687
 10
790.87038542357391
 20
-1445.5918230690584
 42
0.0020592950741384
 10
790.65652235460573
 20
-1446.2439267216748
 10
790.6534705634391
 20
-1446.2533632100956
 42
0.0025609928534686
 10
790.45165006195691
 20
-1446.8885084324504
 10
790.44905869482955
 20
-1446.8968107733931
 42
0.0031362356241535
 10
790.25956790915336
 20
-1447.5175736295705
 10
790.25743686623048
 20
-1447.5247149357663
 42
0.0037229918027476
 10
790.08063647929964
 20
-1448.1337002377559
 10
790.07895789010092
 20
-1448.1396471279031
 42
0.0043077623705188
 10
789.91521708802804
 20
-1448.7394658596991
 42
0.0047654161828306
 10
789.76238836550965
 20
-1449.3421519486114
 10
789.72792375667302
 20
-1449.4837137257514
 42
0.011296936844656
 10
789.53205939852774
 20
-1450.3754058863847
 10
789.50405300943282
 20
-1450.5182339324733
 42
0.0130056762571964
 10
789.30321576578615
 20
-1451.7051750041182
 10
789.28267601563891
 20
-1451.8492531175964
 42
0.013872153214478
 10
789.17897301110122
 20
-1452.756082603421
 10
789.15967752319307
 20
-1452.9795803253492
 42
0.0071254697010589
 10
789.12633087727079
 20
-1453.4427673341934
 10
789.12136990310796
 20
-1453.5287713287462
 42
0.0028881799199978
 10
789.10623160981766
 20
-1453.8205130385959
 42
0.0060297297133788
 10
789.09629941004198
 20
-1454.1124619747122
 10
789.09523712837483
 20
-1454.1608543466466
 42
0.0229523164162847
 10
789.10296815616073
 20
-1454.4836091929274
 10
789.10719392968167
 20
-1454.5440127269501
 42
0.0123673300670824
 10
789.12627257619954
 20
-1454.7451334521184
 42
0.0128577674476197
 10
789.15546796660567
 20
-1454.9450313020454
 10
789.16259383999261
 20
-1454.9863601166421
 42
0.0285717853771465
 10
789.22708784168822
 20
-1455.2644762679556
 10
789.2407563653544
 20
-1455.3111310374322
 42
0.0316283099155085
 10
789.35656694526904
 20
-1455.6301455392586
 10
789.35961563702472
 20
-1455.6371319115842
 42
0.0338984824238168
 10
789.50904734799167
 20
-1455.9246978757733
 10
789.51135607736114
 20
-1455.9284889050487
 42
0.0350228718354555
 10
789.69371636803487
 20
-1456.1855408897261
 10
789.6946016198109
 20
-1456.1866199674914
 42
0.0347476747530267
 10
789.90902630705011
 20
-1456.4138050147103
 42
0.0331337701912379
 10
790.15226963279645
 20
-1456.6099336767873
 10
790.15336973131286
 20
-1456.61070637996
 42
0.0305233319081984
 10
790.42191442688716
 20
-1456.775834550052
 10
790.42514447138763
 20
-1456.7775585619142
 42
0.0273744481149667
 10
790.71769818296013
 20
-1456.9136967058039
 10
790.72280271809939
 20
-1456.9157402902742
 42
0.0240964406196672
 10
791.0382797937458
 20
-1457.0247240165559
 10
791.04486312295501
 20
-1457.0266487562308
 42
0.0209636179810325
 10
791.38226327560824
 20
-1457.1101169041629
 10
791.38989573605647
 20
-1457.1116688171642
 42
0.0181388704695341
 10
791.74821812805919
 20
-1457.1710849103786
 10
791.75649897643314
 20
-1457.1721510941952
 42
0.0156086547583167
 10
792.13468634061746
 20
-1457.2088872807717
 10
792.17788159295117
 20
-1457.211725783251
 42
0.0137148329020939
 10
792.5055547382475
 20
-1457.2242460385023
 10
792.55149092819204
 20
-1457.2247404716175
 42
0.0051057823888323
 10
792.78763651476572
 20
-1457.2248707260264
 42
0.0052256693312203
 10
793.02373379854919
 20
-1457.2201219015624
 10
793.09396058229402
 20
-1457.2179749355482
 42
0.0161507179050181
 10
793.46969766039672
 20
-1457.1943245652215
 10
793.48971062076851
 20
-1457.1924143699341
 42
0.0101216737834016
 10
793.90373784225721
 20
-1457.1444214395688
 10
793.93779113168591
 20
-1457.139773742759
 42
0.0245291776398631
 10
794.41458078723963
 20
-1457.0506986646822
 10
794.49940410275644
 20
-1457.030502744338
 42
0.0143509212552441
 10
794.85603520670031
 20
-1456.9346981105582
 42
0.0156557857039767
 10
795.20625127143251
 20
-1456.8176868947376
 10
795.21375248592233
 20
-1456.8149167329852
 42
0.017013733362937
 10
795.57034848160652
 20
-1456.6692591181127
 10
795.57745240401107
 20
-1456.6660712825503
 42
0.0183105364407995
 10
795.93680207217255
 20
-1456.4887362407285
 10
795.9437488368161
 20
-1456.4849858058537
 42
0.0194899958153803
 10
796.30222957780256
 20
-1456.2730068239616
 10
796.30924345713709
 20
-1456.268481481668
 42
0.0204869852955035
 10
796.66325775923258
 20
-1456.018961466581
 10
796.67052336781796
 20
-1456.0133814012338
 42
0.0212516938554569
 10
797.01651329892468
 20
-1455.7234774043404
 10
797.06302999300237
 20
-1455.681010094245
 42
0.0215248918258838
 10
797.32305616188921
 20
-1455.4222458152512
 10
797.36808589626855
 20
-1455.3734016939027
 42
0.0114578554954388
 10
797.52287804994683
 20
-1455.1975787604429
 10
797.53407258593325
 20
-1455.1842599968977
 42
0.006153130513843
 10
797.66054723192781
 20
-1455.0299704635918
 42
0.0006325587118435
 10
797.78492571610502
 20
-1454.8739670878845
 10
797.80796585113137
 20
-1454.8449935672568
 42
0.0041897761563995
 10
797.97642125512175
 20
-1454.6294741911724
 10
798.03488337499641
 20
-1454.5533728442097
 42
0.0092993880036514
 10
798.31149530222183
 20
-1454.1790940803232
 10
798.39388979541945
 20
-1454.0631570767564
 42
0.0159321727085537
 10
798.74049627806141
 20
-1453.5409828560012
 10
798.78485241344697
 20
-1453.4693032917569
 42
0.0085547317020466
 10
799.0193641787763
 20
-1453.0754283425265
 42
0.0084601156888729
 10
799.24034035621946
 20
-1452.673801493492
 10
799.24845583004856
 20
-1452.6584418112213
 42
0.0081429654285291
 10
799.47170510048761
 20
-1452.2187202986775
 10
799.48056526467019
 20
-1452.2005414566611
 42
0.0076574581332194
 10
799.70697277523948
 20
-1451.7173585814026
 10
799.71645241596059
 20
-1451.6962941031052
 42
0.0070682724201052
 10
799.94689732377026
 20
-1451.1642567983167
 10
799.95688760774908
 20
-1451.1402676093121
 42
0.0064559514449737
 10
800.19222081593227
 20
-1450.5539553427891
 10
800.20263017409559
 20
-1450.5270204173512
 42
0.0058311413903756
 10
800.44367691085893
 20
-1449.8809883229651
 10
800.45443198824557
 20
-1449.8511039818068
 42
0.0052312425817823
 10
800.70201326628785
 20
-1449.1399015679685
 10
800.71305710266631
 20
-1449.1070748559027
 42
0.0046680544795682
 10
800.96798553039855
 20
-1448.3252485401551
 10
801.00997768044272
 20
-1448.1922653028612
 42
0.0041666856442892
 10
801.2132636928394
 20
-1447.5292965278502
 10
801.2509261335116
 20
-1447.4027154201683
 42
0.0015170975156406
 10
801.37211271191643
 20
-1446.9908470687028
 42
-0.0004887993116176
 10
801.49245248498914
 20
-1446.5787286568334
 10
801.56892974253458
 20
-1446.3177712707197
 42
0.0002583378927313
 10
801.84214431265866
 20
-1445.3837145673356
 10
801.92391716216343
 20
-1445.1036153079983
 42
0.0006636169671002
 10
802.11778492218684
 20
-1444.4362623843706
 10
802.12288157654655
 20
-1444.4186308014469
 42
0.001058913132359
 10
802.3043302774505
 20
-1443.7858994584417
 10
802.30931234793502
 20
-1443.7683865514073
 42
0.0015655524459444
 10
802.47758255511383
 20
-1443.1697698722207
 10
802.48241275552323
 20
-1443.1523777133052
 42
0.0021640440475843
 10
802.63670272751494
 20
-1442.5873506952667
 10
802.64133694695067
 20
-1442.5700859652513
 42
0.0028763871855452
 10
802.78085266499772
 20
-1442.0381180144259
 10
802.78523852916726
 20
-1442.0209940362622
 42
0.0037310511943799
 10
802.90919522100182
 20
-1441.5215464422477
 10
802.91327044129059
 20
-1441.504586171003
 42
0.0047652197773721
 10
803.02089434179936
 20
-1441.037108402697
 10
803.02458494112341
 20
-1441.0203488475438
 42
0.0060276699301251
 10
803.11511504027624
 20
-1440.5842730524028
 10
803.11833373056504
 20
-1440.5677718380953
 42
0.0075824337757722
 10
803.19102303998068
 20
-1440.1625046736674
 10
803.19366841736166
 20
-1440.1463497262123
 42
0.0095130624603787
 10
803.24778365299233
 20
-1439.7712603731452
 10
803.25476987687534
 20
-1439.7153268150259
 42
0.0121054653235919
 10
803.28136120745296
 20
-1439.4504309865547
 10
803.28222769721128
 20
-1439.4390275436413
 42
0.0069050827381172
 10
803.29731651524992
 20
-1439.1960863167815
 10
803.29845181491851
 20
-1439.172560059734
 42
0.0169063976705369
 10
803.30127909389864
 20
-1438.976367332436
 10
803.30010844236745
 20
-1438.916031571086
 42
0.0052007732860582
 10
803.29785499377465
 20
-1438.8404381809346
 42
0.0054038123300128
 10
803.27789148193426
 20
-1438.7204198849158
 10
803.27280562606541
 20
-1438.6917613983435
 42
0.0112050460468351
 10
803.23742126400737
 20
-1438.515434960007
 10
803.21959630196613
 20
-1438.4358933732838
 42
0.0240764468005781
 10
803.1286989358199
 20
-1438.1056563377826
 10
803.11014017300636
 20
-1438.0490361727882
 42
0.0256812331837827
 10
802.96677725281722
 20
-1437.6773119665313
 10
802.96136782699637
 20
-1437.6651806315429
 42
0.0268360501221565
 10
802.7919405861461
 20
-1437.3341874975206
 10
802.78640417851045
 20
-1437.3246678272073
 42
0.0274670231733792
 10
802.59420320209745
 20
-1437.0323804522909
 10
802.58882190213455
 20
-1437.0251013047491
 42
0.02750359670965
 10
802.37724902257276
 20
-1436.7695854144456
 10
802.37217952160654
 20
-1436.7641063268154
 42
0.0269557673523255
 10
802.14477597816665
 20
-1436.543464040853
 10
802.1400329203841
 20
-1436.5393340863923
 42
0.0259124802209033
 10
801.90047808895349
 20
-1436.3516435592396
 10
801.89594724377127
 20
-1436.3484580569091
 42
0.0245162153007451
 10
801.64803089067698
 20
-1436.1917250477991
 10
801.643504344353
 20
-1436.1891648505984
 42
0.022928258884468
 10
801.3910847875253
 20
-1436.0612966580993
 10
801.38630429368948
 20
-1436.0591443583378
 42
0.0212984135701294
 10
801.13326634122666
 20
-1435.957945441095
 10
801.12796205625352
 20
-1435.9560818783339
 42
0.0197555462349662
 10
800.87818371853416
 20
-1435.8792664603702
 42
0.0183511896791599
 10
800.62325499306803
 20
-1435.821683553404
 10
800.53688979634956
 20
-1435.8054807630199
 42
0.0338057877144589
 10
800.25138244708762
 20
-1435.7716723578792
 10
800.16037704203609
 20
-1435.7670927026172
 42
0.0091990524494671
 10
800.05452993341157
 20
-1435.7637168466958
 42
0.0028333980788454
 10
799.94861601741843
 20
-1435.7628887391793
 10
799.94770056436926
 20
-1435.7628867693552
 42
-0.0023619827800133
 10
799.83995454925093
 20
-1435.7621459282764
 10
799.80354937908749
 20
-1435.7617236218134
 42
0.0008824598478693
 10
799.62299338919479
 20
-1435.759947843575
 10
799.57913195683193
 20
-1435.7595938820496
 42
0.0038132665763961
 10
799.31084906096089
 20
-1435.7594749459829
 10
799.29431540615985
 20
-1435.7595937121266
 42
0.0060665569338943
 10
798.99303491454884
 20
-1435.765414011548
 10
798.97878458254297
 20
-1435.765862319515
 42
0.0080356953334329
 10
798.64932586621512
 20
-1435.7815300415812
 10
798.63725585111649
 20
-1435.7822986245224
 42
0.0098996399106373
 10
798.28449276646677
 20
-1435.8117838537205
 10
798.27444705709092
 20
-1435.8128241499187
 42
0.0117740981368936
 10
797.90329019874082
 20
-1435.8601163974488
 10
797.89506750225962
 20
-1435.8613615140193
 42
0.013743521513844
 10
797.51047868277089
 20
-1435.930458487582
 10
797.50382164365135
 20
-1435.9318443838147
 42
0.0158359869387059
 10
797.11082454984671
 20
-1436.0267364722959
 10
797.1054113629815
 20
-1436.0282264131658
 42
0.0180554124030385
 10
796.70909631836844
 20
-1436.1528644294049
 10
796.70453953028562
 20
-1436.154480465671
 42
0.0203657431281904
 10
796.31006201247578
 20
-1436.3127408071857
 10
796.30591847346693
 20
-1436.3146024286284
 42
0.0226819684655017
 10
795.91848241726336
 20
-1436.5102450072995
 10
795.91428262624515
 20
-1436.5126105992194
 42
0.0248634984606825
 10
795.53910068506207
 20
-1436.7492372451679
 10
795.49090575628043
 20
-1436.7830942869921
 42
0.0267044190886842
 10
795.21661305936357
 20
-1436.9985346628605
 42
0.0139303002206184
 10
794.96044589341818
 20
-1437.2357735037788
 10
794.95559250770373
 20
-1437.2405261666324
 42
0.0283460963438474
 10
794.71151991348052
 20
-1437.508256827073
 10
794.67185140832032
 20
-1437.5570584045506
 42
0.0070695364811972
 10
794.59441418246013
 20
-1437.6551252205161
 42
0.0070695364811972
  0
LWPOLYLINE
  5
57
100
AcDbEntity
  8
0
370
              15
390
0
  6
Continuous
 62
               7
100
AcDbPolyline
 90
      226
 70
             128
 10
791.06559374521373
 20
-1453.3767140267
 42
-0.0026277636637451
 10
791.0655158614137
 20
-1453.3099421009767
 10
791.06573321964595
 20
-1453.256786883514
 42
-0.0088680296727812
 10
791.06950983593924
 20
-1453.0837711011079
 10
791.07185619505151
 20
-1453.0244910756574
 42
-0.0077381705620886
 10
791.08790230581508
 20
-1452.7332305798493
 10
791.08877021698743
 20
-1452.7209423461741
 42
-0.0068872530535784
 10
791.11540229673562
 20
-1452.4057205941047
 10
791.11660652092166
 20
-1452.3934796150861
 42
-0.0062130021484181
 10
791.15420023774971
 20
-1452.0546099238463
 10
791.15570414128467
 20
-1452.0424360519312
 42
-0.0056726929672715
 10
791.20462600078667
 20
-1451.6802408298199
 10
791.20639944643142
 20
-1451.6681470295725
 42
-0.0052341884492673
 10
791.26701003269216
 20
-1451.2829537740508
 10
791.26902802146822
 20
-1451.2709488440621
 42
-0.0049768450161284
 10
791.34176670289639
 20
-1450.8631042766194
 10
791.36601571761628
 20
-1450.7345562936234
 42
-0.0089029805625024
 10
791.50309656941215
 20
-1450.0727808461957
 10
791.53584194472944
 20
-1449.9277494156777
 42
-0.0080318257101009
 10
791.76539055907006
 20
-1448.982039783825
 10
791.77737548551852
 20
-1448.935909148634
 42
-0.0074265721318029
 10
792.06138702437022
 20
-1447.9058445702478
 10
792.08126656748539
 20
-1447.8377105096636
 42
-0.0069711922701956
 10
792.40857114599191
 20
-1446.7714427693359
 10
792.46852309309759
 20
-1446.5854214109645
 42
-0.0052070422894331
 10
792.69794831835668
 20
-1445.898149333934
 10
792.71522951051452
 20
-1445.8481220533583
 42
-0.000916700444915
 10
792.91832139781843
 20
-1445.2636662051627
 42
-0.0025162726940098
 10
793.1254190280888
 20
-1444.6806249409783
 10
793.16264363987989
 20
-1444.5774753951127
 42
-0.0028212681461542
 10
793.41081955884908
 20
-1443.901744762924
 10
793.42065032160838
 20
-1443.8754373182239
 42
-0.0031964916821675
 10
793.65694257926214
 20
-1443.2552325561201
 10
793.66657703326291
 20
-1443.230422565972
 42
-0.0036281836451602
 10
793.89168299436244
 20
-1442.6629818850838
 10
793.90112140451379
 20
-1442.6396844535961
 42
-0.0041269166832648
 10
794.11573910117897
 20
-1442.1222435576026
 10
794.14837205760398
 20
-1442.0453651112316
 42
-0.0047472213057105
 10
794.30541686315325
 20
-1441.6849436433581
 10
794.31231094434418
 20
-1441.6695230460648
 42
-0.0025651659999291
 10
794.46066897821163
 20
-1441.3421949902777
 42
-0.0057144634993068
 10
794.61441867199335
 20
-1441.0173853168942
 10
794.64244937738181
 20
-1440.9598769345262
 42
-0.0065388068371801
 10
794.82591640512408
 20
-1440.595644437856
 10
794.83437486089929
 20
-1440.5793848584926
 42
-0.0074510843029417
 10
795.01055710678054
 20
-1440.2526965773636
 10
795.01873677730669
 20
-1440.2380558001037
 42
-0.0084648979858731
 10
795.1883706304119
 20
-1439.9461467891338
 10
795.19622675690084
 20
-1439.9331397974813
 42
-0.0095638542804041
 10
795.36006220449406
 20
-1439.6732509255044
 10
795.36753714816723
 20
-1439.6618815640468
 42
-0.0107191626806189
 10
795.52633872855324
 20
-1439.431270329505
 10
795.53335546228129
 20
-1439.4215342371444
 42
-0.0118458573906038
 10
795.68790356079683
 20
-1439.2174620418295
 42
-0.012918451818454
 10
795.85235618440424
 20
-1439.0213015256525
 10
795.88250095676176
 20
-1438.9871754467592
 42
-0.0217742579632143
 10
796.05911327909678
 20
-1438.8039686765096
 10
796.06985882354331
 20
-1438.7937518433198
 42
-0.0097266568662174
 10
796.23591644241276
 20
-1438.6419042688692
 42
-0.0187720905717208
 10
796.41026401830345
 20
-1438.4998354154793
 10
796.44097000897489
 20
-1438.4766763330849
 42
-0.0179428207519249
 10
796.67339072897255
 20
-1438.3141241559722
 10
796.67704305589143
 20
-1438.3117602210825
 42
-0.01700478776971
 10
796.91280669341893
 20
-1438.1702997069328
 10
796.91658968216768
 20
-1438.1682014018954
 42
-0.0160190788358234
 10
797.1534982298009
 20
-1438.0465500999085
 42
-0.0151102861490858
 10
797.39753001224892
 20
-1437.9398673238534
 10
797.44991651445923
 20
-1437.9188271909593
 42
-0.0271945441886573
 10
797.80857907351754
 20
-1437.7969623802533
 10
797.87764387400921
 20
-1437.777612838986
 42
-0.0237596594022337
 10
798.29344072102811
 20
-1437.6821621270055
 10
798.36150357476151
 20
-1437.6699074388782
 42
-0.021371544055242
 10
798.64737850620384
 20
-1437.6309604073688
 10
798.7075256724188
 20
-1437.6253706926682
 42
-0.0101465655825997
 10
798.87501820441582
 20
-1437.6132271494039
 10
798.88435859062406
 20
-1437.6127402344061
 42
-0.0100375910878292
 10
799.03351269117672
 20
-1437.6079644164813
 10
799.04377196085386
 20
-1437.6078419774669
 42
-0.0103625633383599
 10
799.17247995551213
 20
-1437.6089734109935
 10
799.19474560677747
 20
-1437.6096307694584
 42
-0.011568925024671
 10
799.2787963443069
 20
-1437.6140602757037
 42
-0.0072438037436445
 10
799.36263462374632
 20
-1437.6216494754528
 10
799.37943513321886
 20
-1437.6234160181771
 42
-0.0217917313131455
 10
799.4960048965354
 20
-1437.6408359108987
 10
799.56160498710165
 20
-1437.653582519313
 42
-0.033294355674985
 10
799.7659971521274
 20
-1437.7076228106198
 10
799.79616972068106
 20
-1437.7177908877395
 42
-0.0184824084806156
 10
799.93467477714296
 20
-1437.7702419031248
 42
-0.0198002050694383
 10
800.06874911764464
 20
-1437.8331259633253
 10
800.070635755019
 20
-1437.8341037502039
 42
-0.0212242342967428
 10
800.20277469742109
 20
-1437.9098664889971
 10
800.20458999296432
 20
-1437.9110122912052
 42
-0.0226090605793421
 10
800.33309389418628
 20
-1438.0004919347698
 10
800.33493833592354
 20
-1438.0019041877572
 42
-0.0238457052225958
 10
800.45812041721706
 20
-1438.1059000836199
 10
800.46007314577571
 20
-1438.1077149613857
 42
-0.0248160564149642
 10
800.57627465307667
 20
-1438.2269895625946
 10
800.5783782864786
 20
-1438.2293748962989
 42
-0.0254109591445964
 10
800.6859835043457
 20
-1438.3646632822647
 10
800.68823152625862
 20
-1438.3678048306638
 42
-0.0255528488280131
 10
800.78567820505577
 20
-1438.5198318848986
 10
800.78800930497175
 20
-1438.5239134965059
 42
-0.0252146793220876
 10
800.8737903309808
 20
-1438.6934157425026
 10
800.87609257013844
 20
-1438.6985978244156
 42
-0.0244265635950053
 10
800.94874726389992
 20
-1438.8863443964622
 10
800.95799366536846
 20
-1438.9142098148006
 42
-0.0231319612905388
 10
801.00391644436024
 20
-1439.0775108616017
 42
-0.0112130424351683
 10
801.03855246689864
 20
-1439.2437144617902
 10
801.03975499201113
 20
-1439.2502110486776
 42
-0.0210527881246651
 10
801.06544146738213
 20
-1439.4312666941191
 10
801.06895206220395
 20
-1439.4666722426662
 42
-0.0190029892420355
 10
801.08439353574829
 20
-1439.7202080889383
 10
801.08520351219238
 20
-1439.7556837033076
 42
-0.0137974553667754
 10
801.08365465935719
 20
-1440.0807151100275
 10
801.0828092044012
 20
-1440.1068338546374
 42
-0.0081336634215456
 10
801.06794986917873
 20
-1440.412181322233
 42
-0.0073526923573225
 10
801.04364133580452
 20
-1440.7169295665146
 10
801.04237991202137
 20
-1440.7302662411842
 42
-0.0066886138690251
 10
801.00664432597432
 20
-1441.0608522846858
 10
801.00498723650492
 20
-1441.0744739036727
 42
-0.0061359187357598
 10
800.95713663445554
 20
-1441.4312378837619
 10
800.95509913338117
 20
-1441.4451326866019
 42
-0.0056698610062604
 10
800.89444880261271
 20
-1441.8284112554477
 10
800.89204336929095
 20
-1441.8425703746707
 42
-0.0052721077274851
 10
800.81791116849331
 20
-1442.2526977143386
 10
800.81514801964965
 20
-1442.2671143497346
 42
-0.0049289272182951
 10
800.72685390154948
 20
-1442.7044228608584
 10
800.72374140686713
 20
-1442.7190917136729
 42
-0.0047415956707781
 10
800.62050341533484
 20
-1443.1838884710833
 10
800.58573520497509
 20
-1443.3336955664668
 42
-0.0084404470905953
 10
800.39571876140565
 20
-1444.0939195909893
 10
800.3895920734177
 20
-1444.1167837151513
 42
-0.0039635940259235
 10
800.16813838913095
 20
-1444.9177725794079
 10
800.15476159395405
 20
-1444.9647041959906
 42
-0.0072475040836303
 10
799.88731470609071
 20
-1445.8539239123818
 10
799.81710237926245
 20
-1446.0756642623567
 42
-0.005134545882964
 10
799.53034300720481
 20
-1446.9499894501639
 10
799.50881674044842
 20
-1447.0134157172608
 42
-0.0019150016602613
 10
799.25328333357049
 20
-1447.7569648375199
 10
799.24681572917632
 20
-1447.7755523024355
 42
-0.0021524362753816
 10
798.99833767811026
 20
-1448.4798781241493
 10
798.98912725741991
 20
-1448.5056317024339
 42
-0.0024331286818845
 10
798.75287199837783
 20
-1449.1562310105692
 10
798.74382404582832
 20
-1449.1807743169209
 42
-0.0027449721788222
 10
798.51920947499218
 20
-1449.7799041958478
 10
798.51031946760224
 20
-1449.8032267856941
 42
-0.0031083229769762
 10
798.2967769809901
 20
-1450.3531508232797
 10
798.28804084931403
 20
-1450.3752405391388
 42
-0.0035311343283229
 10
798.08499966372244
 20
-1450.8782236648676
 10
798.07641432457569
 20
-1450.8990663883758
 42
-0.0040245640942498
 10
797.88330252078038
 20
-1451.3573757109702
 10
797.87486640718146
 20
-1451.3769550790328
 42
-0.0046015135856529
 10
797.6911101140139
 20
-1451.7928601086846
 10
797.68282393618836
 20
-1451.8111572481307
 42
-0.005276863827259
 10
797.50784641722987
 20
-1452.186930132407
 10
797.49971420659767
 20
-1452.2039234709612
 42
-0.0060672675635294
 10
797.33293459383697
 20
-1452.5418390940645
 10
797.32496511336035
 20
-1452.5575043530523
 42
-0.0069904648871276
 10
797.16579671935403
 20
-1452.8598401597255
 10
797.158005319739
 20
-1452.8741507089605
 42
-0.0080637022767396
 10
797.00585345939714
 20
-1453.1431860121058
 10
796.99826442676783
 20
-1453.1561138777033
 42
-0.0093006455663401
 10
796.85252375023435
 20
-1453.3941282762098
 10
796.8451730834912
 20
-1453.4056462453823
 42
-0.0107060778054337
 10
796.7052245400522
 20
-1453.6149165627619
 10
796.69816277177529
 20
-1453.6250021053238
 42
-0.0122723111409366
 10
796.56336905357455
 20
-1453.8077954348169
 10
796.56304283001884
 20
-1453.8082158226287
 42
-0.0141836319628192
 10
796.41946122704655
 20
-1453.982785580456
 10
796.41251347139564
 20
-1453.9907605807196
 42
-0.0175957477197721
 10
796.27260730335991
 20
-1454.1403814691255
 42
-0.0080466359682753
 10
796.12514353834058
 20
-1454.2827039972667
 10
796.07910899381238
 20
-1454.3257244353679
 42
-0.0269600260388716
 10
795.82582874782793
 20
-1454.5380476938783
 10
795.75926161153552
 20
-1454.5879991084985
 42
-0.0178362839756057
 10
795.51931712187627
 20
-1454.7550170347533
 10
795.51207215087504
 20
-1454.7596855469587
 42
-0.01746507326481
 10
795.27573595343472
 20
-1454.9005465119174
 42
-0.0169240130166222
 10
795.03026970757765
 20
-1455.0248387716945
 10
794.98428355201929
 20
-1455.046200727262
 42
-0.0318883036840456
 10
794.63393269639744
 20
-1455.1825390367726
 10
794.56556716123373
 20
-1455.2042396572479
 42
-0.0284435909898264
 10
794.18951703494338
 20
-1455.3004570927224
 10
794.15435887444914
 20
-1455.3073506885501
 42
-0.0243909341013724
 10
793.84091541352575
 20
-1455.3530717195808
 10
793.79063468675156
 20
-1455.3579172664827
 42
-0.0196639292930431
 10
793.57503910922753
 20
-1455.370165551996
 10
793.52321503806081
 20
-1455.3710688127328
 42
-0.01005015106809
 10
793.41079175639982
 20
-1455.3707684143797
 10
793.3791318950955
 20
-1455.3700473424954
 42
-0.0019752031141078
 10
793.33003955837432
 20
-1455.3687351822846
 10
793.32727925513689
 20
-1455.3686504904579
 42
0.0065378752011095
 10
793.2837026803976
 20
-1455.3678835992434
 42
-0.0167974694624195
 10
793.24017185746266
 20
-1455.3662237007172
 10
793.23609251820369
 20
-1455.3659306898226
 42
-0.0081283276289361
 10
793.18453272046997
 20
-1455.3613836961849
 10
793.17279314658651
 20
-1455.3601557786062
 42
-0.0126703440170183
 10
793.0980748507875
 20
-1455.3504209875339
 10
793.07528698311614
 20
-1455.3468627316195
 42
-0.0117852088441112
 10
792.95574799728809
 20
-1455.3252997364632
 10
792.90036754552068
 20
-1455.3139561962278
 42
-0.0251774592295792
 10
792.67352350651311
 20
-1455.2554581867948
 10
792.62880431666224
 20
-1455.2414913674595
 42
-0.0146525199894771
 10
792.44241132912327
 20
-1455.1772248402613
 42
-0.0166929435857718
 10
792.26043367299758
 20
-1455.1014177072072
 10
792.25577704172326
 20
-1455.0992928065928
 42
-0.0191684358434962
 10
792.07059341047318
 20
-1455.0060567228024
 10
792.06726082471721
 20
-1455.0042154752496
 42
-0.0221181781805601
 10
791.8839505208166
 20
-1454.8920819768796
 10
791.8816007168067
 20
-1454.8904976788876
 42
-0.0254984685386585
 10
791.7053105664213
 20
-1454.7580865289181
 10
791.68282841872042
 20
-1454.7393342199828
 42
-0.0292492648807957
 10
791.55805947987631
 20
-1454.6222414203387
 42
-0.0159048957509749
 10
791.44421948242689
 20
-1454.49422142874
 10
791.44290069184706
 20
-1454.4926398157195
 42
-0.0343813379558709
 10
791.34026343022094
 20
-1454.3507684899503
 10
791.30877189885962
 20
-1454.3002650978556
 42
-0.0369117275706824
 10
791.22287939696241
 20
-1454.1367878569076
 42
-0.0191751379916261
 10
791.1556860114066
 20
-1453.9643832509046
 10
791.15392268764606
 20
-1453.9592899062268
 42
-0.0378178042220238
 10
791.1041279688618
 20
-1453.7703491301459
 10
791.09813267313154
 20
-1453.7377885119492
 42
-0.0184846046484806
 10
791.07741547383682
 20
-1453.5960356914036
 42
-0.0179866351315947
 10
791.06708246876326
 20
-1453.4531448783182
 10
791.06702602631765
 20
-1453.4515871917099
 42
-0.0085497186139201
 10
791.06559374521373
 20
-1453.3767140267
 42
-0.0085497186139201
  0
ENDBLK
  5
58
100
AcDbEntity
  8
template
390
0
100
AcDbBlockEnd
  0
BLOCK
  5
59
100
AcDbEntity
  8
notes
390
0
100
AcDbBlockBegin
  2
*D3
 70
               1
 10
0.0
 20
0.0
 30
0.0
  3
*D3
  1

  0
LINE
  5
5A
100
AcDbEntity
  8
0
370
              -2
390
0
  6
Continuous
 62
               0
100
AcDbLine
 10
240.20714212686823
 20
-663.11794579511229
 30
0.0
 11
240.20714212686823
 21
-748.07327573085695
 31
0.0
  0
LINE
  5
5B
100
AcDbEntity
  8
0
370
              -2
390
0
  6
Continuous
 62
               0
100
AcDbLine
 10
520.20714212686823
 20
-663.11794579511229
 30
0.0
 11
520.20714212686823
 21
-748.07327573085695
 31
0.0
  0
LINE
  5
5C
100
AcDbEntity
  8
0
370
              -2
390
0
  6
Continuous
 62
               0
100
AcDbLine
 10
240.20714212686823
 20
-748.07327573085695
 30
0.0
 11
520.20714212686823
 21
-748.07327573085695
 31
0.0
  0
CIRCLE
  5
5D
102
{ACAD_REACTORS
330
5E
102
}
100
AcDbEntity
  8
0
370
              -2
390
0
  6
Continuous
 62
               0
100
AcDbCircle
 10
240.20714212686823
 20
-748.07327573085695
 30
0.0
 40
1.9998779296875
  0
HATCH
  5
5E
100
AcDbEntity
  8
0
370
              -2
390
0
  6
Continuous
 62
               0
100
AcDbHatch
 10
0.0
 20
0.0
 30
0.0
210
0.0
220
0.0
230
1.0
  2
SOLID
 70
               1
 71
               1
 91
        1
 92
        1
 93
        1
 72
               2
 10
240.20714212686823
 20
-748.07327573085695
 40
1.9998779296875
 50
0.0
 51
360.0
 73
               0
 97
        1
330
5D
 75
               0
 76
               1
 98
        1
 10
0.0
 20
0.0
  0
CIRCLE
  5
5F
102
{ACAD_REACTORS
330
60
102
}
100
AcDbEntity
  8
0
370
              -2
390
0
  6
Continuous
 62
               0
100
AcDbCircle
 10
520.20714212686823
 20
-748.07327573085695
 30
0.0
 40
1.9998779296875
  0
HATCH
  5
60
100
AcDbEntity
  8
0
370
              -2
390
0
  6
Continuous
 62
               0
100
AcDbHatch
 10
0.0
 20
0.0
 30
0.0
210
0.0
220
0.0
230
1.0
  2
SOLID
 70
               1
 71
               1
 91
        1
 92
        1
 93
        1
 72
               2
 10
520.20714212686823
 20
-748.07327573085695
 40
1.9998779296875
 50
0.0
 51
360.0
 73
               0
 97
        1
330
5F
 75
               0
 76
               1
 98
        1
 10
0.0
 20
0.0
  0
MTEXT
  5
61
100
AcDbEntity
  8
0
390
0
 62
               0
100
AcDbMText
 10
356.3946404446927
 20
-714.19565854335679
 30
0.0
 40
24.432617187500004
 41
0.0
 71
               1
 72
               1
  1
280
  7
ＭＳ ゴシック
 73
               1
 44
0.7828267384257843
  0
POINT
  5
62
100
AcDbEntity
  8
Defpoints
370
               0
390
0
 62
               0
100
AcDbPoint
 10
520.20714212686823
 20
-638.11794579511229
 30
0.0
  0
POINT
  5
63
100
AcDbEntity
  8
Defpoints
370
               0
390
0
 62
               0
100
AcDbPoint
 10
240.20714212686823
 20
-638.11794579511229
 30
0.0
  0
POINT
  5
64
100
AcDbEntity
  8
Defpoints
370
               0
390
0
 62
               0
100
AcDbPoint
 10
240.20714212686823
 20
-748.07327573085695
 30
0.0
  0
ENDBLK
  5
65
100
AcDbEntity
  8
notes
390
0
100
AcDbBlockEnd
  0
BLOCK
  5
66
100
AcDbEntity
  8
notes
390
0
100
AcDbBlockBegin
  2
*D4
 70
               1
 10
0.0
 20
0.0
 30
0.0
  3
*D4
  1

  0
LINE
  5
67
100
AcDbEntity
  8
0
370
              -2
390
0
  6
Continuous
 62
               0
100
AcDbLine
 10
-802.29686125146634
 20
-663.10425613392272
 30
0.0
 11
-802.29686125146634
 21
-748.07327573085695
 31
0.0
  0
LINE
  5
68
100
AcDbEntity
  8
0
370
              -2
390
0
  6
Continuous
 62
               0
100
AcDbLine
 10
-267.29686125146634
 20
-663.10425613392272
 30
0.0
 11
-267.29686125146634
 21
-748.07327573085695
 31
0.0
  0
LINE
  5
69
100
AcDbEntity
  8
0
370
              -2
390
0
  6
Continuous
 62
               0
100
AcDbLine
 10
-802.29686125146634
 20
-748.07327573085695
 30
0.0
 11
-267.29686125146634
 21
-748.07327573085695
 31
0.0
  0
CIRCLE
  5
6A
102
{ACAD_REACTORS
330
6B
102
}
100
AcDbEntity
  8
0
370
              -2
390
0
  6
Continuous
 62
               0
100
AcDbCircle
 10
-802.29686125146634
 20
-748.07327573085695
 30
0.0
 40
1.9998779296875
  0
HATCH
  5
6B
100
AcDbEntity
  8
0
370
              -2
390
0
  6
Continuous
 62
               0
100
AcDbHatch
 10
0.0
 20
0.0
 30
0.0
210
0.0
220
0.0
230
1.0
  2
SOLID
 70
               1
 71
               1
 91
        1
 92
        1
 93
        1
 72
               2
 10
-802.29686125146634
 20
-748.07327573085695
 40
1.9998779296875
 50
0.0
 51
360.0
 73
               0
 97
        1
330
6A
 75
               0
 76
               1
 98
        1
 10
0.0
 20
0.0
  0
CIRCLE
  5
6C
102
{ACAD_REACTORS
330
6D
102
}
100
AcDbEntity
  8
0
370
              -2
390
0
  6
Continuous
 62
               0
100
AcDbCircle
 10
-267.29686125146634
 20
-748.07327573085695
 30
0.0
 40
1.9998779296875
  0
HATCH
  5
6D
100
AcDbEntity
  8
0
370
              -2
390
0
  6
Continuous
 62
               0
100
AcDbHatch
 10
0.0
 20
0.0
 30
0.0
210
0.0
220
0.0
230
1.0
  2
SOLID
 70
               1
 71
               1
 91
        1
 92
        1
 93
        1
 72
               2
 10
-267.29686125146634
 20
-748.07327573085695
 40
1.9998779296875
 50
0.0
 51
360.0
 73
               0
 97
        1
330
6C
 75
               0
 76
               1
 98
        1
 10
0.0
 20
0.0
  0
MTEXT
  5
6E
100
AcDbEntity
  8
0
390
0
 62
               0
100
AcDbMText
 10
-558.60936293364182
 20
-714.19565854335679
 30
0.0
 40
24.432617187500004
 41
0.0
 71
               1
 72
               1
  1
535
  7
ＭＳ ゴシック
 73
               1
 44
0.7828267384257843
  0
POINT
  5
6F
100
AcDbEntity
  8
Defpoints
370
               0
390
0
 62
               0
100
AcDbPoint
 10
-267.29686125146634
 20
-638.10425613392272
 30
0.0
  0
POINT
  5
70
100
AcDbEntity
  8
Defpoints
370
               0
390
0
 62
               0
100
AcDbPoint
 10
-802.29686125146634
 20
-638.10425613392272
 30
0.0
  0
POINT
  5
71
100
AcDbEntity
  8
Defpoints
370
               0
390
0
 62
               0
100
AcDbPoint
 10
-802.29686125146634
 20
-748.07327573085695
 30
0.0
  0
ENDBLK
  5
72
100
AcDbEntity
  8
notes
390
0
100
AcDbBlockEnd
  0
BLOCK
  5
73
100
AcDbEntity
  8
notes
390
0
100
AcDbBlockBegin
  2
*D5
 70
               1
 10
0.0
 20
0.0
 30
0.0
  3
*D5
  1

  0
LINE
  5
74
100
AcDbEntity
  8
0
370
              -2
390
0
  6
Continuous
 62
               0
100
AcDbLine
 10
122.75000000050012
 20
402.93640755620623
 30
0.0
 11
122.75000000050012
 21
270.4243623662299
 31
0.0
  0
LINE
  5
75
100
AcDbEntity
  8
0
370
              -2
390
0
  6
Continuous
 62
               0
100
AcDbLine
 10
637.75000000049999
 20
402.93640755620623
 30
0.0
 11
637.75000000049999
 21
270.4243623662299
 31
0.0
  0
LINE
  5
76
100
AcDbEntity
  8
0
370
              -2
390
0
  6
Continuous
 62
               0
100
AcDbLine
 10
122.75000000050012
 20
270.4243623662299
 30
0.0
 11
637.75000000049999
 21
270.4243623662299
 31
0.0
  0
CIRCLE
  5
77
102
{ACAD_REACTORS
330
78
102
}
100
AcDbEntity
  8
0
370
              -2
390
0
  6
Continuous
 62
               0
100
AcDbCircle
 10
122.75000000050012
 20
270.4243623662299
 30
0.0
 40
1.9998779296875
  0
HATCH
  5
78
100
AcDbEntity
  8
0
370
              -2
390
0
  6
Continuous
 62
               0
100
AcDbHatch
 10
0.0
 20
0.0
 30
0.0
210
0.0
220
0.0
230
1.0
  2
SOLID
 70
               1
 71
               1
 91
        1
 92
        1
 93
        1
 72
               2
 10
122.75000000050012
 20
270.4243623662299
 40
1.9998779296875
 50
0.0
 51
360.0
 73
               0
 97
        1
330
77
 75
               0
 76
               1
 98
        1
 10
0.0
 20
0.0
  0
CIRCLE
  5
79
102
{ACAD_REACTORS
330
7A
102
}
100
AcDbEntity
  8
0
370
              -2
390
0
  6
Continuous
 62
               0
100
AcDbCircle
 10
637.75000000049999
 20
270.4243623662299
 30
0.0
 40
1.9998779296875
  0
HATCH
  5
7A
100
AcDbEntity
  8
0
370
              -2
390
0
  6
Continuous
 62
               0
100
AcDbHatch
 10
0.0
 20
0.0
 30
0.0
210
0.0
220
0.0
230
1.0
  2
SOLID
 70
               1
 71
               1
 91
        1
 92
        1
 93
        1
 72
               2
 10
637.75000000049999
 20
270.4243623662299
 40
1.9998779296875
 50
0.0
 51
360.0
 73
               0
 97
        1
330
79
 75
               0
 76
               1
 98
        1
 10
0.0
 20
0.0
  0
MTEXT
  5
7B
100
AcDbEntity
  8
0
390
0
 62
               0
100
AcDbMText
 10
356.43749831832451
 20
304.30197955372989
 30
0.0
 40
24.432617187500004
 41
0.0
 71
               1
 72
               1
  1
515
  7
ＭＳ ゴシック
 73
               1
 44
0.7828267384257843
  0
POINT
  5
7C
100
AcDbEntity
  8
Defpoints
370
               0
390
0
 62
               0
100
AcDbPoint
 10
637.75000000049999
 20
427.93640755620623
 30
0.0
  0
POINT
  5
7D
100
AcDbEntity
  8
Defpoints
370
               0
390
0
 62
               0
100
AcDbPoint
 10
122.75000000050012
 20
427.93640755620623
 30
0.0
  0
POINT
  5
7E
100
AcDbEntity
  8
Defpoints
370
               0
390
0
 62
               0
100
AcDbPoint
 10
122.75000000050012
 20
270.4243623662299
 30
0.0
  0
ENDBLK
  5
7F
100
AcDbEntity
  8
notes
390
0
100
AcDbBlockEnd
  0
BLOCK
  5
80
100
AcDbEntity
  8
notes
390
0
100
AcDbBlockBegin
  2
*D6
 70
               1
 10
0.0
 20
0.0
 30
0.0
  3
*D6
  1

  0
LINE
  5
81
100
AcDbEntity
  8
0
370
              -2
390
0
  6
Continuous
 62
               0
100
AcDbLine
 10
647.75000000049999
 20
412.93640755620623
 30
0.0
 11
780.20714212686789
 21
412.93640755620623
 31
0.0
  0
LINE
  5
82
100
AcDbEntity
  8
0
370
              -2
390
0
  6
Continuous
 62
               0
100
AcDbLine
 10
647.75000000049999
 20
727.93640755620618
 30
0.0
 11
780.20714212686789
 21
727.93640755620618
 31
0.0
  0
LINE
  5
83
100
AcDbEntity
  8
0
370
              -2
390
0
  6
Continuous
 62
               0
100
AcDbLine
 10
780.20714212686789
 20
412.93640755620623
 30
0.0
 11
780.20714212686789
 21
727.93640755620618
 31
0.0
  0
CIRCLE
  5
84
102
{ACAD_REACTORS
330
85
102
}
100
AcDbEntity
  8
0
370
              -2
390
0
  6
Continuous
 62
               0
100
AcDbCircle
 10
780.20714212686789
 20
412.93640755620623
 30
0.0
 40
1.9998779296875
  0
HATCH
  5
85
100
AcDbEntity
  8
0
370
              -2
390
0
  6
Continuous
 62
               0
100
AcDbHatch
 10
0.0
 20
0.0
 30
0.0
210
0.0
220
0.0
230
1.0
  2
SOLID
 70
               1
 71
               1
 91
        1
 92
        1
 93
        1
 72
               2
 10
780.20714212686789
 20
412.93640755620623
 40
1.9998779296875
 50
0.0
 51
360.0
 73
               0
 97
        1
330
84
 75
               0
 76
               1
 98
        1
 10
0.0
 20
0.0
  0
CIRCLE
  5
86
102
{ACAD_REACTORS
330
87
102
}
100
AcDbEntity
  8
0
370
              -2
390
0
  6
Continuous
 62
               0
100
AcDbCircle
 10
780.20714212686789
 20
727.93640755620618
 30
0.0
 40
1.9998779296875
  0
HATCH
  5
87
100
AcDbEntity
  8
0
370
              -2
390
0
  6
Continuous
 62
               0
100
AcDbHatch
 10
0.0
 20
0.0
 30
0.0
210
0.0
220
0.0
230
1.0
  2
SOLID
 70
               1
 71
               1
 91
        1
 92
        1
 93
        1
 72
               2
 10
780.20714212686789
 20
727.93640755620618
 40
1.9998779296875
 50
0.0
 51
360.0
 73
               0
 97
        1
330
86
 75
               0
 76
               1
 98
        1
 10
0.0
 20
0.0
  0
MTEXT
  5
88
100
AcDbEntity
  8
0
390
0
 62
               0
100
AcDbMText
 10
746.32952493936784
 20
546.6239058740307
 30
0.0
 40
24.432617187500004
 41
0.0
 71
               1
 72
               1
  1
315
  7
ＭＳ ゴシック
 11
0.0
 21
1.0
 31
0.0
 73
               1
 44
0.7828267384257843
  0
POINT
  5
89
100
AcDbEntity
  8
Defpoints
370
               0
390
0
 62
               0
100
AcDbPoint
 10
622.75000000049999
 20
727.93640755620618
 30
0.0
  0
POINT
  5
8A
100
AcDbEntity
  8
Defpoints
370
               0
390
0
 62
               0
100
AcDbPoint
 10
622.75000000049999
 20
412.93640755620623
 30
0.0
  0
POINT
  5
8B
100
AcDbEntity
  8
Defpoints
370
               0
390
0
 62
               0
100
AcDbPoint
 10
780.20714212686789
 20
412.93640755620623
 30
0.0
  0
ENDBLK
  5
8C
100
AcDbEntity
  8
notes
390
0
100
AcDbBlockEnd
  0
BLOCK
  5
8D
100
AcDbEntity
  8
notes
390
0
100
AcDbBlockBegin
  2
*D7
 70
               1
 10
0.0
 20
0.0
 30
0.0
  3
*D7
  1

  0
LINE
  5
8E
100
AcDbEntity
  8
0
370
              -2
390
0
  6
Continuous
 62
               0
100
AcDbLine
 10
-834.79586563030819
 20
769.42436236623007
 30
0.0
 11
-834.79586563030819
 21
870.42436236623007
 31
0.0
  0
LINE
  5
8F
100
AcDbEntity
  8
0
370
              -2
390
0
  6
Continuous
 62
               0
100
AcDbLine
 10
-234.79586563030819
 20
769.42436236623007
 30
0.0
 11
-234.79586563030819
 21
870.42436236623007
 31
0.0
  0
LINE
  5
90
100
AcDbEntity
  8
0
370
              -2
390
0
  6
Continuous
 62
               0
100
AcDbLine
 10
-834.79586563030819
 20
870.42436236623007
 30
0.0
 11
-234.79586563030819
 21
870.42436236623007
 31
0.0
  0
CIRCLE
  5
91
102
{ACAD_REACTORS
330
92
102
}
100
AcDbEntity
  8
0
370
              -2
390
0
  6
Continuous
 62
               0
100
AcDbCircle
 10
-834.79586563030819
 20
870.42436236623007
 30
0.0
 40
1.9998779296875
  0
HATCH
  5
92
100
AcDbEntity
  8
0
370
              -2
390
0
  6
Continuous
 62
               0
100
AcDbHatch
 10
0.0
 20
0.0
 30
0.0
210
0.0
220
0.0
230
1.0
  2
SOLID
 70
               1
 71
               1
 91
        1
 92
        1
 93
        1
 72
               2
 10
-834.79586563030819
 20
870.42436236623007
 40
1.9998779296875
 50
0.0
 51
360.0
 73
               0
 97
        1
330
91
 75
               0
 76
               1
 98
        1
 10
0.0
 20
0.0
  0
CIRCLE
  5
93
102
{ACAD_REACTORS
330
94
102
}
100
AcDbEntity
  8
0
370
              -2
390
0
  6
Continuous
 62
               0
100
AcDbCircle
 10
-234.79586563030819
 20
870.42436236623007
 30
0.0
 40
1.9998779296875
  0
HATCH
  5
94
100
AcDbEntity
  8
0
370
              -2
390
0
  6
Continuous
 62
               0
100
AcDbHatch
 10
0.0
 20
0.0
 30
0.0
210
0.0
220
0.0
230
1.0
  2
SOLID
 70
               1
 71
               1
 91
        1
 92
        1
 93
        1
 72
               2
 10
-234.79586563030819
 20
870.42436236623007
 40
1.9998779296875
 50
0.0
 51
360.0
 73
               0
 97
        1
330
93
 75
               0
 76
               1
 98
        1
 10
0.0
 20
0.0
  0
MTEXT
  5
95
100
AcDbEntity
  8
0
390
0
 62
               0
100
AcDbMText
 10
-558.60836731248367
 20
904.30197955373001
 30
0.0
 40
24.432617187500004
 41
0.0
 71
               1
 72
               1
  1
600
  7
ＭＳ ゴシック
 73
               1
 44
0.7828267384257843
  0
POINT
  5
96
100
AcDbEntity
  8
Defpoints
370
               0
390
0
 62
               0
100
AcDbPoint
 10
-234.79586563030819
 20
744.42436236623007
 30
0.0
  0
POINT
  5
97
100
AcDbEntity
  8
Defpoints
370
               0
390
0
 62
               0
100
AcDbPoint
 10
-834.79586563030819
 20
744.42436236623007
 30
0.0
  0
POINT
  5
98
100
AcDbEntity
  8
Defpoints
370
               0
390
0
 62
               0
100
AcDbPoint
 10
-834.79586563030819
 20
870.42436236623007
 30
0.0
  0
ENDBLK
  5
99
100
AcDbEntity
  8
notes
390
0
100
AcDbBlockEnd
  0
BLOCK
  5
9A
100
AcDbEntity
  8
notes
390
0
100
AcDbBlockBegin
  2
*D8
 70
               1
 10
0.0
 20
0.0
 30
0.0
  3
*D8
  1

  0
LINE
  5
9B
100
AcDbEntity
  8
0
370
              -2
390
0
  6
Continuous
 62
               0
100
AcDbLine
 10
-235.79586563030819
 20
770.42436236623007
 30
0.0
 11
-134.79586563030819
 21
770.42436236623007
 31
0.0
  0
LINE
  5
9C
100
AcDbEntity
  8
0
370
              -2
390
0
  6
Continuous
 62
               0
100
AcDbLine
 10
-235.79586563030819
 20
370.42436236623001
 30
0.0
 11
-134.79586563030819
 21
370.42436236623001
 31
0.0
  0
LINE
  5
9D
100
AcDbEntity
  8
0
370
              -2
390
0
  6
Continuous
 62
               0
100
AcDbLine
 10
-134.79586563030819
 20
770.42436236623007
 30
0.0
 11
-134.79586563030819
 21
370.42436236623001
 31
0.0
  0
CIRCLE
  5
9E
102
{ACAD_REACTORS
330
9F
102
}
100
AcDbEntity
  8
0
370
              -2
390
0
  6
Continuous
 62
               0
100
AcDbCircle
 10
-134.79586563030819
 20
770.42436236623007
 30
0.0
 40
1.9998779296875
  0
HATCH
  5
9F
100
AcDbEntity
  8
0
370
              -2
390
0
  6
Continuous
 62
               0
100
AcDbHatch
 10
0.0
 20
0.0
 30
0.0
210
0.0
220
0.0
230
1.0
  2
SOLID
 70
               1
 71
               1
 91
        1
 92
        1
 93
        1
 72
               2
 10
-134.79586563030819
 20
770.42436236623007
 40
1.9998779296875
 50
0.0
 51
360.0
 73
               0
 97
        1
330
9E
 75
               0
 76
               1
 98
        1
 10
0.0
 20
0.0
  0
CIRCLE
  5
A0
102
{ACAD_REACTORS
330
A1
102
}
100
AcDbEntity
  8
0
370
              -2
390
0
  6
Continuous
 62
               0
100
AcDbCircle
 10
-134.79586563030819
 20
370.42436236623001
 30
0.0
 40
1.9998779296875
  0
HATCH
  5
A1
100
AcDbEntity
  8
0
370
              -2
390
0
  6
Continuous
 62
               0
100
AcDbHatch
 10
0.0
 20
0.0
 30
0.0
210
0.0
220
0.0
230
1.0
  2
SOLID
 70
               1
 71
               1
 91
        1
 92
        1
 93
        1
 72
               2
 10
-134.79586563030819
 20
370.42436236623001
 40
1.9998779296875
 50
0.0
 51
360.0
 73
               0
 97
        1
330
A0
 75
               0
 76
               1
 98
        1
 10
0.0
 20
0.0
  0
MTEXT
  5
A2
100
AcDbEntity
  8
0
390
0
 62
               0
100
AcDbMText
 10
-168.67348281780818
 20
546.61186068405448
 30
0.0
 40
24.432617187500004
 41
0.0
 71
               1
 72
               1
  1
400
  7
ＭＳ ゴシック
 11
0.0
 21
1.0
 31
0.0
 73
               1
 44
0.7828267384257843
  0
POINT
  5
A3
100
AcDbEntity
  8
Defpoints
370
               0
390
0
 62
               0
100
AcDbPoint
 10
-260.79586563030819
 20
370.42436236623001
 30
0.0
  0
POINT
  5
A4
100
AcDbEntity
  8
Defpoints
370
               0
390
0
 62
               0
100
AcDbPoint
 10
-260.79586563030819
 20
770.42436236623007
 30
0.0
  0
POINT
  5
A5
100
AcDbEntity
  8
Defpoints
370
               0
390
0
 62
               0
100
AcDbPoint
 10
-134.79586563030819
 20
770.42436236623007
 30
0.0
  0
ENDBLK
  5
A6
100
AcDbEntity
  8
notes
390
0
100
AcDbBlockEnd
  0
BLOCK
  5
A7
100
AcDbEntity
  8
notes
390
0
100
AcDbBlockBegin
  2
*D9
 70
               1
 10
0.0
 20
0.0
 30
0.0
  3
*D9
  1

  0
LINE
  5
A8
100
AcDbEntity
  8
0
370
              -2
390
0
  6
Continuous
 62
               0
100
AcDbLine
 10
-269.79586563030819
 20
345.42436236623001
 30
0.0
 11
-269.79586563030819
 21
270.42436236623001
 31
0.0
  0
LINE
  5
A9
100
AcDbEntity
  8
0
370
              -2
390
0
  6
Continuous
 62
               0
100
AcDbLine
 10
-799.79586563030819
 20
345.42436236623001
 30
0.0
 11
-799.79586563030819
 21
270.42436236623001
 31
0.0
  0
LINE
  5
AA
100
AcDbEntity
  8
0
370
              -2
390
0
  6
Continuous
 62
               0
100
AcDbLine
 10
-269.79586563030819
 20
270.42436236623001
 30
0.0
 11
-799.79586563030819
 21
270.42436236623001
 31
0.0
  0
CIRCLE
  5
AB
102
{ACAD_REACTORS
330
AC
102
}
100
AcDbEntity
  8
0
370
              -2
390
0
  6
Continuous
 62
               0
100
AcDbCircle
 10
-269.79586563030819
 20
270.42436236623001
 30
0.0
 40
1.9998779296875
  0
HATCH
  5
AC
100
AcDbEntity
  8
0
370
              -2
390
0
  6
Continuous
 62
               0
100
AcDbHatch
 10
0.0
 20
0.0
 30
0.0
210
0.0
220
0.0
230
1.0
  2
SOLID
 70
               1
 71
               1
 91
        1
 92
        1
 93
        1
 72
               2
 10
-269.79586563030819
 20
270.42436236623001
 40
1.9998779296875
 50
0.0
 51
360.0
 73
               0
 97
        1
330
AB
 75
               0
 76
               1
 98
        1
 10
0.0
 20
0.0
  0
CIRCLE
  5
AD
102
{ACAD_REACTORS
330
AE
102
}
100
AcDbEntity
  8
0
370
              -2
390
0
  6
Continuous
 62
               0
100
AcDbCircle
 10
-799.79586563030819
 20
270.42436236623001
 30
0.0
 40
1.9998779296875
  0
HATCH
  5
AE
100
AcDbEntity
  8
0
370
              -2
390
0
  6
Continuous
 62
               0
100
AcDbHatch
 10
0.0
 20
0.0
 30
0.0
210
0.0
220
0.0
230
1.0
  2
SOLID
 70
               1
 71
               1
 91
        1
 92
        1
 93
        1
 72
               2
 10
-799.79586563030819
 20
270.42436236623001
 40
1.9998779296875
 50
0.0
 51
360.0
 73
               0
 97
        1
330
AD
 75
               0
 76
               1
 98
        1
 10
0.0
 20
0.0
  0
MTEXT
  5
AF
100
AcDbEntity
  8
0
390
0
 62
               0
100
AcDbMText
 10
-558.60836731248367
 20
304.30197955373001
 30
0.0
 40
24.432617187500004
 41
0.0
 71
               1
 72
               1
  1
530
  7
ＭＳ ゴシック
 73
               1
 44
0.7828267384257843
  0
POINT
  5
B0
100
AcDbEntity
  8
Defpoints
370
               0
390
0
 62
               0
100
AcDbPoint
 10
-799.79586563030819
 20
370.42436236623001
 30
0.0
  0
POINT
  5
B1
100
AcDbEntity
  8
Defpoints
370
               0
390
0
 62
               0
100
AcDbPoint
 10
-269.79586563030819
 20
370.42436236623001
 30
0.0
  0
POINT
  5
B2
100
AcDbEntity
  8
Defpoints
370
               0
390
0
 62
               0
100
AcDbPoint
 10
-269.79586563030819
 20
270.42436236623001
 30
0.0
  0
ENDBLK
  5
B3
100
AcDbEntity
  8
notes
390
0
100
AcDbBlockEnd
  0
BLOCK
  5
B4
100
AcDbEntity
  8
notes
390
0
100
AcDbBlockBegin
  2
*D10
 70
               1
 10
0.0
 20
0.0
 30
0.0
  3
*D10
  1

  0
LINE
  5
B5
100
AcDbEntity
  8
0
370
              -2
390
0
  6
Continuous
 62
               0
100
AcDbLine
 10
-213.60484653623473
 20
-448.10327795975439
 30
0.0
 11
-134.90051888580382
 21
-448.10327795975439
 31
0.0
  0
LINE
  5
B6
100
AcDbEntity
  8
0
370
              -2
390
0
  6
Continuous
 62
               0
100
AcDbLine
 10
-482.18003097353187
 20
-648.06902618355662
 30
0.0
 11
-134.90051888580382
 21
-648.06902618355662
 31
0.0
  0
LINE
  5
B7
100
AcDbEntity
  8
0
370
              -2
390
0
  6
Continuous
 62
               0
100
AcDbLine
 10
-134.90051888580382
 20
-448.10327795975439
 30
0.0
 11
-134.90051888580382
 21
-648.06902618355662
 31
0.0
  0
CIRCLE
  5
B8
102
{ACAD_REACTORS
330
B9
102
}
100
AcDbEntity
  8
0
370
              -2
390
0
  6
Continuous
 62
               0
100
AcDbCircle
 10
-134.90051888580382
 20
-448.10327795975439
 30
0.0
 40
1.9998779296875
  0
HATCH
  5
B9
100
AcDbEntity
  8
0
370
              -2
390
0
  6
Continuous
 62
               0
100
AcDbHatch
 10
0.0
 20
0.0
 30
0.0
210
0.0
220
0.0
230
1.0
  2
SOLID
 70
               1
 71
               1
 91
        1
 92
        1
 93
        1
 72
               2
 10
-134.90051888580382
 20
-448.10327795975439
 40
1.9998779296875
 50
0.0
 51
360.0
 73
               0
 97
        1
330
B8
 75
               0
 76
               1
 98
        1
 10
0.0
 20
0.0
  0
CIRCLE
  5
BA
102
{ACAD_REACTORS
330
BB
102
}
100
AcDbEntity
  8
0
370
              -2
390
0
  6
Continuous
 62
               0
100
AcDbCircle
 10
-134.90051888580382
 20
-648.06902618355662
 30
0.0
 40
1.9998779296875
  0
HATCH
  5
BB
100
AcDbEntity
  8
0
370
              -2
390
0
  6
Continuous
 62
               0
100
AcDbHatch
 10
0.0
 20
0.0
 30
0.0
210
0.0
220
0.0
230
1.0
  2
SOLID
 70
               1
 71
               1
 91
        1
 92
        1
 93
        1
 72
               2
 10
-134.90051888580382
 20
-648.06902618355662
 40
1.9998779296875
 50
0.0
 51
360.0
 73
               0
 97
        1
330
BA
 75
               0
 76
               1
 98
        1
 10
0.0
 20
0.0
  0
MTEXT
  5
BC
100
AcDbEntity
  8
0
390
0
 62
               0
100
AcDbMText
 10
-168.77813607330381
 20
-571.89865375383101
 30
0.0
 40
24.432617187500004
 41
0.0
 71
               1
 72
               1
  1
200
  7
ＭＳ ゴシック
 11
0.0
 21
1.0
 31
0.0
 73
               1
 44
0.7828267384257843
  0
POINT
  5
BD
100
AcDbEntity
  8
Defpoints
370
               0
390
0
 62
               0
100
AcDbPoint
 10
-507.18003097353187
 20
-648.06902618355662
 30
0.0
  0
POINT
  5
BE
100
AcDbEntity
  8
Defpoints
370
               0
390
0
 62
               0
100
AcDbPoint
 10
-238.60484653623473
 20
-448.10327795975439
 30
0.0
  0
POINT
  5
BF
100
AcDbEntity
  8
Defpoints
370
               0
390
0
 62
               0
100
AcDbPoint
 10
-134.90051888580382
 20
-448.10327795975439
 30
0.0
  0
ENDBLK
  5
C0
100
AcDbEntity
  8
notes
390
0
100
AcDbBlockEnd
  0
BLOCK
  5
C1
100
AcDbEntity
  8
notes
390
0
100
AcDbBlockBegin
  2
*D11
 70
               1
 10
0.0
 20
0.0
 30
0.0
  3
*D11
  1

  0
LINE
  5
C2
100
AcDbEntity
  8
0
370
              -2
390
0
  6
Continuous
 62
               0
100
AcDbLine
 10
404.90420516071651
 20
-618.11910102190268
 30
0.0
 11
390.30967064317463
 21
-618.11910102190268
 31
0.0
  0
LINE
  5
C3
100
AcDbEntity
  8
0
370
              -2
390
0
  6
Continuous
 62
               0
100
AcDbLine
 10
404.85737116790267
 20
-448.10752750705473
 30
0.0
 11
390.30967064317463
 21
-448.10752750705473
 31
0.0
  0
LINE
  5
C4
100
AcDbEntity
  8
0
370
              -2
390
0
  6
Continuous
 62
               0
100
AcDbLine
 10
390.30967064317463
 20
-448.10752750705473
 30
0.0
 11
390.30967064317463
 21
-267.48859244379372
 31
0.0
  0
LINE
  5
C5
100
AcDbEntity
  8
0
370
              -2
390
0
  6
Continuous
 62
               0
100
AcDbLine
 10
390.30967064317463
 20
-618.11910102190268
 30
0.0
 11
390.30967064317463
 21
-448.10752750705473
 31
0.0
  0
CIRCLE
  5
C6
102
{ACAD_REACTORS
330
C7
102
}
100
AcDbEntity
  8
0
370
              -2
390
0
  6
Continuous
 62
               0
100
AcDbCircle
 10
390.30967064317463
 20
-618.11910102190268
 30
0.0
 40
1.9998779296875
  0
HATCH
  5
C7
100
AcDbEntity
  8
0
370
              -2
390
0
  6
Continuous
 62
               0
100
AcDbHatch
 10
0.0
 20
0.0
 30
0.0
210
0.0
220
0.0
230
1.0
  2
SOLID
 70
               1
 71
               1
 91
        1
 92
        1
 93
        1
 72
               2
 10
390.30967064317463
 20
-618.11910102190268
 40
1.9998779296875
 50
0.0
 51
360.0
 73
               0
 97
        1
330
C6
 75
               0
 76
               1
 98
        1
 10
0.0
 20
0.0
  0
CIRCLE
  5
C8
102
{ACAD_REACTORS
330
C9
102
}
100
AcDbEntity
  8
0
370
              -2
390
0
  6
Continuous
 62
               0
100
AcDbCircle
 10
390.30967064317463
 20
-448.10752750705473
 30
0.0
 40
1.9998779296875
  0
HATCH
  5
C9
100
AcDbEntity
  8
0
370
              -2
390
0
  6
Continuous
 62
               0
100
AcDbHatch
 10
0.0
 20
0.0
 30
0.0
210
0.0
220
0.0
230
1.0
  2
SOLID
 70
               1
 71
               1
 91
        1
 92
        1
 93
        1
 72
               2
 10
390.30967064317463
 20
-448.10752750705473
 40
1.9998779296875
 50
0.0
 51
360.0
 73
               0
 97
        1
330
C8
 75
               0
 76
               1
 98
        1
 10
0.0
 20
0.0
  0
MTEXT
  5
CA
100
AcDbEntity
  8
0
390
0
 62
               0
100
AcDbMText
 10
356.43205345567463
 20
-410.36359244379372
 30
0.0
 40
24.432617187500004
 41
0.0
 71
               1
 72
               1
  1
160(深さ)
  7
ＭＳ ゴシック
 11
0.0
 21
1.0
 31
0.0
 73
               1
 44
0.7828267384257843
  0
POINT
  5
CB
100
AcDbEntity
  8
Defpoints
370
               0
390
0
 62
               0
100
AcDbPoint
 10
429.85737116790267
 20
-448.10752750705473
 30
0.0
  0
POINT
  5
CC
100
AcDbEntity
  8
Defpoints
370
               0
390
0
 62
               0
100
AcDbPoint
 10
429.90420516071651
 20
-618.11910102190268
 30
0.0
  0
POINT
  5
CD
100
AcDbEntity
  8
Defpoints
370
               0
390
0
 62
               0
100
AcDbPoint
 10
390.30967064317463
 20
-618.11910102190268
 30
0.0
  0
ENDBLK
  5
CE
100
AcDbEntity
  8
notes
390
0
100
AcDbBlockEnd
  0
BLOCK
  5
CF
100
AcDbEntity
  8
notes
390
0
100
AcDbBlockBegin
  2
*D12
 70
               1
 10
0.0
 20
0.0
 30
0.0
  3
*D12
  1

  0
LINE
  5
D0
100
AcDbEntity
  8
0
370
              -2
390
0
  6
Continuous
 62
               0
100
AcDbLine
 10
547.33051811255689
 20
-638.11794579511229
 30
0.0
 11
680.20954134264127
 21
-638.11794579511229
 31
0.0
  0
LINE
  5
D1
100
AcDbEntity
  8
0
370
              -2
390
0
  6
Continuous
 62
               0
100
AcDbLine
 10
601.41604363658814
 20
-448.10752750705473
 30
0.0
 11
680.20954134264127
 21
-448.10752750705473
 31
0.0
  0
LINE
  5
D2
100
AcDbEntity
  8
0
370
              -2
390
0
  6
Continuous
 62
               0
100
AcDbLine
 10
680.20954134264127
 20
-638.11794579511229
 30
0.0
 11
680.20954134264127
 21
-448.10752750705473
 31
0.0
  0
CIRCLE
  5
D3
102
{ACAD_REACTORS
330
D4
102
}
100
AcDbEntity
  8
0
370
              -2
390
0
  6
Continuous
 62
               0
100
AcDbCircle
 10
680.20954134264127
 20
-638.11794579511229
 30
0.0
 40
1.9998779296875
  0
HATCH
  5
D4
100
AcDbEntity
  8
0
370
              -2
390
0
  6
Continuous
 62
               0
100
AcDbHatch
 10
0.0
 20
0.0
 30
0.0
210
0.0
220
0.0
230
1.0
  2
SOLID
 70
               1
 71
               1
 91
        1
 92
        1
 93
        1
 72
               2
 10
680.20954134264127
 20
-638.11794579511229
 40
1.9998779296875
 50
0.0
 51
360.0
 73
               0
 97
        1
330
D3
 75
               0
 76
               1
 98
        1
 10
0.0
 20
0.0
  0
CIRCLE
  5
D5
102
{ACAD_REACTORS
330
D6
102
}
100
AcDbEntity
  8
0
370
              -2
390
0
  6
Continuous
 62
               0
100
AcDbCircle
 10
680.20954134264127
 20
-448.10752750705473
 30
0.0
 40
1.9998779296875
  0
HATCH
  5
D6
100
AcDbEntity
  8
0
370
              -2
390
0
  6
Continuous
 62
               0
100
AcDbHatch
 10
0.0
 20
0.0
 30
0.0
210
0.0
220
0.0
230
1.0
  2
SOLID
 70
               1
 71
               1
 91
        1
 92
        1
 93
        1
 72
               2
 10
680.20954134264127
 20
-448.10752750705473
 40
1.9998779296875
 50
0.0
 51
360.0
 73
               0
 97
        1
330
D5
 75
               0
 76
               1
 98
        1
 10
0.0
 20
0.0
  0
MTEXT
  5
D7
100
AcDbEntity
  8
0
390
0
 62
               0
100
AcDbMText
 10
646.33192415514122
 20
-566.9252383332589
 30
0.0
 40
24.432617187500004
 41
0.0
 71
               1
 72
               1
  1
190
  7
ＭＳ ゴシック
 11
0.0
 21
1.0
 31
0.0
 73
               1
 44
0.7828267384257843
  0
POINT
  5
D8
100
AcDbEntity
  8
Defpoints
370
               0
390
0
 62
               0
100
AcDbPoint
 10
576.41604363658814
 20
-448.10752750705473
 30
0.0
  0
POINT
  5
D9
100
AcDbEntity
  8
Defpoints
370
               0
390
0
 62
               0
100
AcDbPoint
 10
522.33051811255689
 20
-638.11794579511229
 30
0.0
  0
POINT
  5
DA
100
AcDbEntity
  8
Defpoints
370
               0
390
0
 62
               0
100
AcDbPoint
 10
680.20954134264127
 20
-638.11794579511229
 30
0.0
  0
ENDBLK
  5
DB
100
AcDbEntity
  8
notes
390
0
100
AcDbBlockEnd
  0
BLOCK
  5
DC
100
AcDbEntity
  8
notes
390
0
100
AcDbBlockBegin
  2
*D13
 70
               1
 10
0.0
 20
0.0
 30
0.0
  3
*D13
  1

  0
LINE
  5
DD
100
AcDbEntity
  8
0
370
              -2
390
0
  6
Continuous
 62
               0
100
AcDbLine
 10
547.33051811255689
 20
-638.11794579511229
 30
0.0
 11
680.20954134264127
 21
-638.11794579511229
 31
0.0
  0
LINE
  5
DE
100
AcDbEntity
  8
0
370
              -2
390
0
  6
Continuous
 62
               0
100
AcDbLine
 10
435.47804719784369
 20
-648.09231148955541
 30
0.0
 11
680.20954134264127
 21
-648.09231148955541
 31
0.0
  0
LINE
  5
DF
100
AcDbEntity
  8
0
370
              -2
390
0
  6
Continuous
 62
               0
100
AcDbLine
 10
680.20954134264127
 20
-648.09231148955541
 30
0.0
 11
680.20954134264127
 21
-692.11359244379378
 31
0.0
  0
LINE
  5
E0
100
AcDbEntity
  8
0
370
              -2
390
0
  6
Continuous
 62
               0
100
AcDbLine
 10
680.20954134264127
 20
-638.11794579511229
 30
0.0
 11
680.20954134264127
 21
-648.09231148955541
 31
0.0
  0
CIRCLE
  5
E1
102
{ACAD_REACTORS
330
E2
102
}
100
AcDbEntity
  8
0
370
              -2
390
0
  6
Continuous
 62
               0
100
AcDbCircle
 10
680.20954134264127
 20
-638.11794579511229
 30
0.0
 40
1.9998779296875
  0
HATCH
  5
E2
100
AcDbEntity
  8
0
370
              -2
390
0
  6
Continuous
 62
               0
100
AcDbHatch
 10
0.0
 20
0.0
 30
0.0
210
0.0
220
0.0
230
1.0
  2
SOLID
 70
               1
 71
               1
 91
        1
 92
        1
 93
        1
 72
               2
 10
680.20954134264127
 20
-638.11794579511229
 40
1.9998779296875
 50
0.0
 51
360.0
 73
               0
 97
        1
330
E1
 75
               0
 76
               1
 98
        1
 10
0.0
 20
0.0
  0
CIRCLE
  5
E3
102
{ACAD_REACTORS
330
E4
102
}
100
AcDbEntity
  8
0
370
              -2
390
0
  6
Continuous
 62
               0
100
AcDbCircle
 10
680.20954134264127
 20
-648.09231148955541
 30
0.0
 40
1.9998779296875
  0
HATCH
  5
E4
100
AcDbEntity
  8
0
370
              -2
390
0
  6
Continuous
 62
               0
100
AcDbHatch
 10
0.0
 20
0.0
 30
0.0
210
0.0
220
0.0
230
1.0
  2
SOLID
 70
               1
 71
               1
 91
        1
 92
        1
 93
        1
 72
               2
 10
680.20954134264127
 20
-648.09231148955541
 40
1.9998779296875
 50
0.0
 51
360.0
 73
               0
 97
        1
330
E3
 75
               0
 76
               1
 98
        1
 10
0.0
 20
0.0
  0
MTEXT
  5
E5
100
AcDbEntity
  8
0
390
0
 62
               0
100
AcDbMText
 10
646.33192415514122
 20
-692.11359244379378
 30
0.0
 40
24.432617187500004
 41
0.0
 71
               1
 72
               1
  1
10
  7
ＭＳ ゴシック
 11
0.0
 21
1.0
 31
0.0
 73
               1
 44
0.7828267384257843
  0
POINT
  5
E6
100
AcDbEntity
  8
Defpoints
370
               0
390
0
 62
               0
100
AcDbPoint
 10
410.47804719784369
 20
-648.09231148955541
 30
0.0
  0
POINT
  5
E7
100
AcDbEntity
  8
Defpoints
370
               0
390
0
 62
               0
100
AcDbPoint
 10
522.33051811255689
 20
-638.11794579511229
 30
0.0
  0
POINT
  5
E8
100
AcDbEntity
  8
Defpoints
370
               0
390
0
 62
               0
100
AcDbPoint
 10
680.20954134264127
 20
-638.11794579511229
 30
0.0
  0
ENDBLK
  5
E9
100
AcDbEntity
  8
notes
390
0
100
AcDbBlockEnd
  0
BLOCK
  5
EA
100
AcDbEntity
  8
notes
390
0
100
AcDbBlockBegin
  2
*D14
 70
               1
 10
0.0
 20
0.0
 30
0.0
  3
*D14
  1

  0
LINE
  5
EB
100
AcDbEntity
  8
0
370
              -2
390
0
  6
Continuous
 62
               0
100
AcDbLine
 10
-859.48633078763851
 20
740.42436236623007
 30
0.0
 11
-918.00000000000011
 21
740.42436236623007
 31
0.0
  0
LINE
  5
EC
100
AcDbEntity
  8
0
370
              -2
390
0
  6
Continuous
 62
               0
100
AcDbLine
 10
-859.48633078763885
 20
400.42436236623001
 30
0.0
 11
-918.00000000000011
 21
400.42436236623001
 31
0.0
  0
LINE
  5
ED
100
AcDbEntity
  8
0
370
              -2
390
0
  6
Continuous
 62
               0
100
AcDbLine
 10
-918.00000000000011
 20
740.42436236623007
 30
0.0
 11
-918.00000000000011
 21
400.42436236623001
 31
0.0
  0
CIRCLE
  5
EE
102
{ACAD_REACTORS
330
EF
102
}
100
AcDbEntity
  8
0
370
              -2
390
0
  6
Continuous
 62
               0
100
AcDbCircle
 10
-918.00000000000011
 20
740.42436236623007
 30
0.0
 40
1.9998779296875
  0
HATCH
  5
EF
100
AcDbEntity
  8
0
370
              -2
390
0
  6
Continuous
 62
               0
100
AcDbHatch
 10
0.0
 20
0.0
 30
0.0
210
0.0
220
0.0
230
1.0
  2
SOLID
 70
               1
 71
               1
 91
        1
 92
        1
 93
        1
 72
               2
 10
-918.00000000000011
 20
740.42436236623007
 40
1.9998779296875
 50
0.0
 51
360.0
 73
               0
 97
        1
330
EE
 75
               0
 76
               1
 98
        1
 10
0.0
 20
0.0
  0
CIRCLE
  5
F0
102
{ACAD_REACTORS
330
F1
102
}
100
AcDbEntity
  8
0
370
              -2
390
0
  6
Continuous
 62
               0
100
AcDbCircle
 10
-918.00000000000011
 20
400.42436236623001
 30
0.0
 40
1.9998779296875
  0
HATCH
  5
F1
100
AcDbEntity
  8
0
370
              -2
390
0
  6
Continuous
 62
               0
100
AcDbHatch
 10
0.0
 20
0.0
 30
0.0
210
0.0
220
0.0
230
1.0
  2
SOLID
 70
               1
 71
               1
 91
        1
 92
        1
 93
        1
 72
               2
 10
-918.00000000000011
 20
400.42436236623001
 40
1.9998779296875
 50
0.0
 51
360.0
 73
               0
 97
        1
330
F0
 75
               0
 76
               1
 98
        1
 10
0.0
 20
0.0
  0
MTEXT
  5
F2
100
AcDbEntity
  8
0
390
0
 62
               0
100
AcDbMText
 10
-951.87761718750005
 20
546.61186068405448
 30
0.0
 40
24.432617187500004
 41
0.0
 71
               1
 72
               1
  1
340
  7
ＭＳ ゴシック
 11
0.0
 21
1.0
 31
0.0
 73
               1
 44
0.7828267384257843
  0
POINT
  5
F3
100
AcDbEntity
  8
Defpoints
370
               0
390
0
 62
               0
100
AcDbPoint
 10
-834.48633078763885
 20
400.42436236623001
 30
0.0
  0
POINT
  5
F4
100
AcDbEntity
  8
Defpoints
370
               0
390
0
 62
               0
100
AcDbPoint
 10
-834.48633078763851
 20
740.42436236623007
 30
0.0
  0
POINT
  5
F5
100
AcDbEntity
  8
Defpoints
370
               0
390
0
 62
               0
100
AcDbPoint
 10
-918.00000000000011
 20
740.42436236623007
 30
0.0
  0
ENDBLK
  5
F6
100
AcDbEntity
  8
notes
390
0
100
AcDbBlockEnd
  0
ENDSEC
  0
SECTION
  2
ENTITIES
  0
MTEXT
  5
F7
100
AcDbEntity
  8
template
390
0
 62
               7
100
AcDbMText
 10
-967.9999999997591
 20
-1134.6535143187937
 30
0.0
 40
16.288411458333332
 41
0.0
 71
               1
 72
               1
  1
品名
  7
ＭＳ ゴシック
 73
               1
 44
0.7828267384257843
  0
MTEXT
  5
F8
100
AcDbEntity
  8
template
390
0
 62
               7
100
AcDbMText
 10
-967.9999999997591
 20
-1219.6535143187937
 30
0.0
 40
16.288411458333332
 41
0.0
 71
               1
 72
               1
  1
仕様
  7
ＭＳ ゴシック
 73
               1
 44
0.7828267384257843
  0
MTEXT
  5
F9
100
AcDbEntity
  8
template
390
0
 62
               7
100
AcDbMText
 10
-914.9999999997591
 20
-1163.2359752562938
 30
0.0
 40
24.432617187500004
 41
0.0
 71
               1
 72
               1
  1
洗面器 -GLOBO-
  7
ＭＳ ゴシック
 73
               1
 44
0.7828267384257843
  0
LINE
  5
FA
100
AcDbEntity
  8
template
370
               5
390
0
  6
Continuous
 62
               7
100
AcDbLine
 10
974.99999999975876
 20
-1211.2385924437938
 30
0.0
 11
-975.00000000024113
 21
-1211.2385924437938
 31
0.0
  0
LWPOLYLINE
  5
FB
100
AcDbEntity
  8
template
370
               5
390
0
  6
Continuous
 62
               7
100
AcDbPolyline
 90
        5
 70
             128
 10
975.00000000024124
 20
1418.7614075562062
 10
-974.9999999997591
 20
1418.7614075562062
 10
-974.9999999997591
 20
-1381.2385924437938
 10
975.00000000024124
 20
-1381.2385924437938
 10
975.00000000024124
 20
1418.7614075562062
  0
LINE
  5
FC
100
AcDbEntity
  8
template
370
               5
390
0
  6
Continuous
 62
               7
100
AcDbLine
 10
974.99999999975876
 20
-1126.2385924437938
 30
0.0
 11
-975.00000000024113
 21
-1126.2385924437938
 31
0.0
  0
LINE
  5
FD
100
AcDbEntity
  8
template
370
               5
390
0
  6
Continuous
 62
               7
100
AcDbLine
 10
975.00000000024124
 20
-1296.2385924437938
 30
0.0
 11
222.00000000024136
 21
-1296.2385924437938
 31
0.0
  0
MTEXT
  5
FE
100
AcDbEntity
  8
template
390
0
 62
               7
100
AcDbMText
 10
-914.9999999997591
 20
-1248.2359752562938
 30
0.0
 40
24.432617187500004
 41
0.0
 71
               1
 72
               1
  1
アンダーカウンター/オーバーフロー付き/カウンター固定金具付属/\P陶器/ホワイト
  7
ＭＳ ゴシック
 73
               1
 44
1.1307497332816883
  0
MTEXT
  5
FF
100
AcDbEntity
  8
template
390
0
 62
               7
100
AcDbMText
 10
-974.99999999955583
 20
-1393.0924145006506
 30
0.0
 40
21.717881944444446
 41
0.0
 71
               1
 72
               1
  1
100712SH
  7
ＭＳ ゴシック
 73
               1
 44
0.7828267384257843
  0
MTEXT
  5
100
100
AcDbEntity
  8
template
390
0
 62
               7
100
AcDbMText
 10
251.87140625250129
 20
-1326.1489869171014
 30
0.0
 40
24.432617187500004
 41
0.0
 71
               1
 72
               1
  1
大洋金物株式会社 ティーフォルム事業部
  7
ＭＳ ゴシック
 73
               1
 44
0.7828267384257843
  0
INSERT
  5
101
100
AcDbEntity
  8
template
390
0
 62
               7
100
AcDbBlockReference
  2
グループ
 10
110.00191169252402
 20
105.05146891276041
 30
0.0
  0
MTEXT
  5
102
100
AcDbEntity
  8
template
390
0
 62
               7
100
AcDbMText
 10
784.00000000049999
 20
-1248.2359752562938
 30
0.0
 40
24.432617187500004
 41
0.0
 71
               1
 72
               1
  1
1:10
  7
ＭＳ ゴシック
 73
               1
 44
0.7828267384257843
  0
MTEXT
  5
103
100
AcDbEntity
  8
template
390
0
 62
               7
100
AcDbMText
 10
731.00000000049999
 20
-1219.6535143187937
 30
0.0
 40
16.288411458333332
 41
0.0
 71
               1
 72
               1
  1
縮尺
  7
ＭＳ ゴシック
 73
               1
 44
0.7828267384257843
  0
LINE
  5
104
100
AcDbEntity
  8
template
370
               5
390
0
  6
Continuous
 62
               7
100
AcDbLine
 10
724.00000000049999
 20
-1296.2385924437938
 30
0.0
 11
724.00000000049999
 21
-1211.2385924437938
 31
0.0
  0
MTEXT
  5
105
100
AcDbEntity
  8
template
390
0
 62
               7
100
AcDbMText
 10
480.00000000050011
 20
-1219.6535143187937
 30
0.0
 40
16.288411458333332
 41
0.0
 71
               1
 72
               1
  1
容量
  7
ＭＳ ゴシック
 73
               1
 44
0.7828267384257843
  0
MTEXT
  5
106
100
AcDbEntity
  8
template
390
0
 62
               7
100
AcDbMText
 10
533.00000000050011
 20
-1248.2359752562938
 30
0.0
 40
24.432617187500004
 41
0.0
 71
               1
 72
               1
  1
17L
  7
ＭＳ ゴシック
 73
               1
 44
0.7828267384257843
  0
LINE
  5
107
100
AcDbEntity
  8
template
370
               5
390
0
  6
Continuous
 62
               7
100
AcDbLine
 10
473.00000000050011
 20
-1296.2385924437938
 30
0.0
 11
473.00000000050011
 21
-1211.2385924437938
 31
0.0
  0
MTEXT
  5
108
100
AcDbEntity
  8
template
390
0
 62
               7
100
AcDbMText
 10
229.00000000050011
 20
-1134.6535143187937
 30
0.0
 40
16.288411458333332
 41
0.0
 71
               1
 72
               1
  1
品番
  7
ＭＳ ゴシック
 73
               1
 44
0.7828267384257843
  0
MTEXT
  5
109
100
AcDbEntity
  8
template
390
0
 62
               7
100
AcDbMText
 10
229.00000000050011
 20
-1219.6535143187937
 30
0.0
 40
16.288411458333332
 41
0.0
 71
               1
 72
               1
  1
重量
  7
ＭＳ ゴシック
 73
               1
 44
0.7828267384257843
  0
MTEXT
  5
10A
100
AcDbEntity
  8
template
390
0
 62
               7
100
AcDbMText
 10
282.00000000050011
 20
-1163.2359752562938
 30
0.0
 40
24.432617187500004
 41
0.0
 71
               1
 72
               1
  1
AKF70-0812
  7
ＭＳ ゴシック
 73
               1
 44
0.7828267384257843
  0
MTEXT
  5
10B
100
AcDbEntity
  8
template
390
0
 62
               7
100
AcDbMText
 10
282.00000000050011
 20
-1248.2359752562938
 30
0.0
 40
24.432617187500004
 41
0.0
 71
               1
 72
               1
  1
18kg
  7
ＭＳ ゴシック
 73
               1
 44
0.7828267384257843
  0
LINE
  5
10C
100
AcDbEntity
  8
template
370
               5
390
0
  6
Continuous
 62
               7
100
AcDbLine
 10
222.00000000050011
 20
-1381.2385924437938
 30
0.0
 11
222.00000000050011
 21
-1126.2385924437938
 31
0.0
  0
MTEXT
  5
10D
100
AcDbEntity
  8
notes
390
0
 62
               7
100
AcDbMText
 10
27.85538476101091
 20
121.33812621047078
 30
0.0
 40
24.432617187500004
 41
782.5
 71
               1
 72
               1
  1
※陶器製品には寸法公差があります。\P  洗面器の収め方をご確認の上、必ず現物を合わせて\P  カウンターの切込を行ってください。
  7
ＭＳ ゴシック
 73
               1
 44
1.0437689845677123
  0
MTEXT
  5
10E
100
AcDbEntity
  8
notes
390
0
 62
               7
100
AcDbMText
 10
243.65017770088605
 20
993.1937719682453
 30
0.0
 40
24.432617187500004
 41
0.0
 71
               1
 72
               1
  1
カウンター切込寸法
  7
ＭＳ ゴシック
 73
               1
 44
0.7828267384257843
  0
DIMENSION
  5
10F
100
AcDbEntity
  8
notes
370
               5
390
0
  6
Continuous
 62
               7
100
AcDbDimension
  2
*D3
 10
240.20714212686823
 20
-748.07327573085695
 30
0.0
 11
380.20714212686823
 21
-748.07327573085695
 31
0.0
 71
               5
 72
               1
 41
1.0
 42
0.0
  3
tfrom線あり
100
AcDbAlignedDimension
 13
520.20714212686823
 23
-638.11794579511229
 33
0.0
 14
240.20714212686823
 24
-638.11794579511229
 34
0.0
100
AcDbRotatedDimension
1001
ACAD
1000
DSTYLE
1002
{
1070
             279
1070
               2
1070
             340
1005
30
1070
             147
1040
5.0
1002
}
  0
DIMENSION
  5
110
100
AcDbEntity
  8
notes
370
               5
390
0
  6
Continuous
 62
               7
100
AcDbDimension
  2
*D4
 10
-802.29686125146634
 20
-748.07327573085695
 30
0.0
 11
-534.79686125146634
 21
-748.07327573085695
 31
0.0
 71
               5
 72
               1
 41
1.0
 42
0.0
  3
tfrom線あり
100
AcDbAlignedDimension
 13
-267.29686125146634
 23
-638.10425613392272
 33
0.0
 14
-802.29686125146634
 24
-638.10425613392272
 34
0.0
100
AcDbRotatedDimension
1001
ACAD
1000
DSTYLE
1002
{
1070
             279
1070
               2
1070
             340
1005
30
1070
             147
1040
5.0
1002
}
  0
DIMENSION
  5
111
100
AcDbEntity
  8
notes
370
               5
390
0
  6
Continuous
 62
               7
100
AcDbDimension
  2
*D5
 10
122.75000000050012
 20
270.4243623662299
 30
0.0
 11
380.25000000050005
 21
270.4243623662299
 31
0.0
 71
               5
 72
               1
 41
1.0
 42
0.0
  3
tfrom線あり
100
AcDbAlignedDimension
 13
637.75000000049999
 23
427.93640755620623
 33
0.0
 14
122.75000000050012
 24
427.93640755620623
 34
0.0
100
AcDbRotatedDimension
1001
ACAD
1000
DSTYLE
1002
{
1070
             279
1070
               2
1070
             340
1005
30
1070
             147
1040
5.0
1002
}
  0
DIMENSION
  5
112
100
AcDbEntity
  8
notes
370
               5
390
0
  6
Continuous
 62
               7
100
AcDbDimension
  2
*D6
 10
780.20714212686789
 20
412.93640755620623
 30
0.0
 11
780.20714212686789
 21
570.43640755620618
 31
0.0
 71
               5
 72
               1
 41
1.0
 42
0.0
  3
tfrom線あり
100
AcDbAlignedDimension
 13
622.75000000049999
 23
727.93640755620618
 33
0.0
 14
622.75000000049999
 24
412.93640755620623
 34
0.0
 50
90.0
100
AcDbRotatedDimension
1001
ACAD
1000
DSTYLE
1002
{
1070
             279
1070
               2
1070
             340
1005
30
1070
             147
1040
5.0
1002
}
  0
DIMENSION
  5
113
100
AcDbEntity
  8
notes
370
               5
390
0
  6
Continuous
 62
               7
100
AcDbDimension
  2
*D7
 10
-834.79586563030819
 20
870.42436236623007
 30
0.0
 11
-534.79586563030819
 21
870.42436236623007
 31
0.0
 71
               5
 72
               1
 41
1.0
 42
0.0
  3
tfrom線あり
100
AcDbAlignedDimension
 13
-234.79586563030819
 23
744.42436236623007
 33
0.0
 14
-834.79586563030819
 24
744.42436236623007
 34
0.0
100
AcDbRotatedDimension
1001
ACAD
1000
DSTYLE
1002
{
1070
             279
1070
               2
1070
             340
1005
30
1070
             147
1040
5.0
1002
}
  0
DIMENSION
  5
114
100
AcDbEntity
  8
notes
370
               5
390
0
  6
Continuous
 62
               7
100
AcDbDimension
  2
*D8
 10
-134.79586563030819
 20
770.42436236623007
 30
0.0
 11
-134.79586563030819
 21
570.42436236623007
 31
0.0
 71
               5
 72
               1
 41
1.0
 42
0.0
  3
tfrom線あり
100
AcDbAlignedDimension
 13
-260.79586563030819
 23
370.42436236623001
 33
0.0
 14
-260.79586563030819
 24
770.42436236623007
 34
0.0
 50
90.0
100
AcDbRotatedDimension
1001
ACAD
1000
DSTYLE
1002
{
1070
             279
1070
               2
1070
             340
1005
30
1070
             147
1040
5.0
1002
}
  0
DIMENSION
  5
115
100
AcDbEntity
  8
notes
370
               5
390
0
  6
Continuous
 62
               7
100
AcDbDimension
  2
*D9
 10
-269.79586563030819
 20
270.42436236623001
 30
0.0
 11
-534.79586563030819
 21
270.42436236623001
 31
0.0
 71
               5
 72
               1
 41
1.0
 42
0.0
  3
tfrom線あり
100
AcDbAlignedDimension
 13
-799.79586563030819
 23
370.42436236623001
 33
0.0
 14
-269.79586563030819
 24
370.42436236623001
 34
0.0
100
AcDbRotatedDimension
1001
ACAD
1000
DSTYLE
1002
{
1070
             279
1070
               2
1070
             340
1005
30
1070
             147
1040
5.0
1002
}
  0
DIMENSION
  5
116
100
AcDbEntity
  8
notes
370
               5
390
0
  6
Continuous
 62
               7
100
AcDbDimension
  2
*D10
 10
-134.90051888580382
 20
-448.10327795975439
 30
0.0
 11
-134.90051888580382
 21
-548.08615207165553
 31
0.0
 71
               5
 72
               1
 41
1.0
 42
0.0
  3
tfrom線あり
100
AcDbAlignedDimension
 13
-507.18003097353187
 23
-648.06902618355662
 33
0.0
 14
-238.60484653623473
 24
-448.10327795975439
 34
0.0
 50
90.0
100
AcDbRotatedDimension
1001
ACAD
1000
DSTYLE
1002
{
1070
             279
1070
               2
1070
             340
1005
30
1070
             147
1040
5.0
1002
}
  0
DIMENSION
  5
117
100
AcDbEntity
  8
notes
370
               5
390
0
  6
Continuous
 62
               7
100
AcDbDimension
  2
*D11
 10
390.30967064317463
 20
-618.11910102190268
 30
0.0
 11
385.30967064317463
 21
-410.36359244379372
 31
0.0
 70
             128
 71
               5
 72
               1
 41
1.0
 42
0.0
  1
160(深さ)
  3
tfrom線あり
100
AcDbAlignedDimension
 13
429.85737116790267
 23
-448.10752750705473
 33
0.0
 14
429.90420516071651
 24
-618.11910102190268
 34
0.0
 50
90.0
100
AcDbRotatedDimension
1001
ACAD
1000
DSTYLE
1002
{
1070
             279
1070
               2
1070
             340
1005
30
1070
             174
1070
               0
1070
             147
1040
5.0
1002
}
  0
DIMENSION
  5
118
100
AcDbEntity
  8
notes
370
               5
390
0
  6
Continuous
 62
               7
100
AcDbDimension
  2
*D12
 10
680.20954134264127
 20
-638.11794579511229
 30
0.0
 11
680.20954134264127
 21
-543.11273665108342
 31
0.0
 71
               5
 72
               1
 41
1.0
 42
0.0
  3
tfrom線あり
100
AcDbAlignedDimension
 13
576.41604363658814
 23
-448.10752750705473
 33
0.0
 14
522.33051811255689
 24
-638.11794579511229
 34
0.0
 50
90.0
100
AcDbRotatedDimension
1001
ACAD
1000
DSTYLE
1002
{
1070
             279
1070
               2
1070
             340
1005
30
1070
             147
1040
5.0
1002
}
  0
DIMENSION
  5
119
100
AcDbEntity
  8
notes
370
               5
390
0
  6
Continuous
 62
               7
100
AcDbDimension
  2
*D13
 10
680.20954134264127
 20
-638.11794579511229
 30
0.0
 11
685.20954134264127
 21
-660.36359244379378
 31
0.0
 70
             128
 71
               5
 72
               1
 41
1.0
 42
0.0
  3
tfrom線あり
100
AcDbAlignedDimension
 13
410.47804719784369
 23
-648.09231148955541
 33
0.0
 14
522.33051811255689
 24
-638.11794579511229
 34
0.0
 50
90.0
100
AcDbRotatedDimension
1001
ACAD
1000
DSTYLE
1002
{
1070
             279
1070
               2
1070
             340
1005
30
1070
             174
1070
               0
1070
             147
1040
5.0
1002
}
  0
DIMENSION
  5
11A
100
AcDbEntity
  8
notes
370
               5
390
0
  6
Continuous
 62
               7
100
AcDbDimension
  2
*D14
 10
-918.00000000000011
 20
740.42436236623007
 30
0.0
 11
-918.00000000000011
 21
570.42436236623007
 31
0.0
 71
               5
 72
               1
 41
1.0
 42
0.0
  3
tfrom線あり
100
AcDbAlignedDimension
 13
-834.48633078763885
 23
400.42436236623001
 33
0.0
 14
-834.48633078763851
 24
740.42436236623007
 34
0.0
 50
90.0
100
AcDbRotatedDimension
1001
ACAD
1000
DSTYLE
1002
{
1070
             279
1070
               2
1070
             340
1005
30
1070
             147
1040
5.0
1002
}
  0
ARC
  5
11B
100
AcDbEntity
  8
notes
370
              15
390
0
  6
STYLE_12
 62
               7
100
AcDbCircle
 10
475.77000863718411
 20
-603.7968349917769
 30
0.0
 40
14.299999999999919
100
AcDbArc
 50
273.99176117127149
 51
315.59388070874888
  0
ARC
  5
11C
100
AcDbEntity
  8
notes
370
              15
390
0
  6
STYLE_12
 62
               7
100
AcDbCircle
 10
402.96907382446989
 20
-535.00876054252558
 30
0.0
 40
114.30591421482363
100
AcDbArc
 50
316.42300403896797
 51
324.8973577551443
  0
LINE
  5
11D
100
AcDbEntity
  8
notes
370
              15
390
0
  6
STYLE_12
 62
               7
100
AcDbLine
 10
496.48539410496289
 20
-600.73957421224122
 30
0.0
 11
533.05787397464508
 21
-460.75984151712822
 31
0.0
  0
ARC
  5
11E
100
AcDbEntity
  8
notes
370
              15
390
0
  6
STYLE_12
 62
               7
100
AcDbCircle
 10
-746.34284106097459
 20
-603.7922453724259
 30
0.0
 40
14.299999999999873
100
AcDbArc
 50
224.40611929125106
 51
266.00823882872845
  0
ARC
  5
11F
100
AcDbEntity
  8
notes
370
              15
390
0
  6
STYLE_12
 62
               7
100
AcDbCircle
 10
-673.74996277171579
 20
-535.00417092317457
 30
0.0
 40
114.30591421482367
100
AcDbArc
 50
211.91446260869265
 51
223.57699596103197
  0
LINE
  5
120
100
AcDbEntity
  8
notes
370
              15
390
0
  6
STYLE_12
 62
               7
100
AcDbLine
 10
-770.77719748527272
 20
-595.43229143280951
 30
0.0
 11
-787.63070630475443
 21
-460.75559196982789
 31
0.0
  0
ARC
  5
121
100
AcDbEntity
  8
AKF70-0812
370
               5
390
0
  6
Continuous
 62
               7
100
AcDbCircle
 10
243.40504470919848
 20
-634.11794579511229
 30
0.0
 40
4.0000000000000249
100
AcDbArc
 50
192.71703102911042
 51
270.0
  0
ARC
  5
122
100
AcDbEntity
  8
AKF70-0812
370
               5
390
0
  6
Continuous
 62
               7
100
AcDbCircle
 10
517.00923954453754
 20
-634.11794579511229
 30
0.0
 40
4.0
100
AcDbArc
 50
270.0
 51
347.28296897088961
  0
ARC
  5
123
100
AcDbEntity
  8
AKF70-0812
370
               5
390
0
  6
Continuous
 62
               7
100
AcDbCircle
 10
-798.57287735802822
 20
-634.10425613392272
 30
0.0
 40
4.0000000000001164
100
AcDbArc
 50
184.09318085031057
 51
270.0
  0
ARC
  5
124
100
AcDbEntity
  8
AKF70-0812
370
               5
390
0
  6
Continuous
 62
               7
100
AcDbCircle
 10
-271.02084514490423
 20
-634.10425613392272
 30
0.0
 40
4.0000000000001137
100
AcDbArc
 50
270.0
 51
355.90681914968764
  0
LWPOLYLINE
  5
125
100
AcDbEntity
  8
AKF70-0812
370
              15
390
0
  6
Continuous
 62
               7
100
AcDbPolyline
 90
        8
 70
             129
 10
-834.79586563030819
 20
744.42436236623007
 42
-0.414213562373095
 10
-808.79586563030819
 20
770.42436236623007
 10
-260.79586563030819
 20
770.42436236623007
 42
-0.414213562373095
 10
-234.79586563030819
 20
744.42436236623007
 10
-234.79586563030819
 20
396.42436236623001
 42
-0.414213562373095
 10
-260.79586563030819
 20
370.42436236623001
 10
-808.79586563030819
 20
370.42436236623001
 42
-0.4142135623730963
 10
-834.79586563030819
 20
396.42436236623001
  0
LWPOLYLINE
  5
126
100
AcDbEntity
  8
AKF70-0812
370
              15
390
0
  6
Continuous
 62
               7
100
AcDbPolyline
 90
        8
 70
             129
 10
-799.79586563030819
 20
710.42436236623007
 42
-0.414213562373095
 10
-769.79586563030819
 20
740.42436236623007
 10
-299.79586563030819
 20
740.42436236623007
 42
-0.414213562373095
 10
-269.79586563030819
 20
710.42436236623007
 10
-269.79586563030819
 20
430.42436236623001
 42
-0.414213562373095
 10
-299.79586563030819
 20
400.42436236623001
 10
-769.79586563030819
 20
400.42436236623001
 42
-0.4142135623730961
 10
-799.79586563030819
 20
430.42436236623001
  0
SPLINE
  5
127
100
AcDbEntity
  8
AKF70-0812
370
              15
390
0
  6
Continuous
 62
               7
100
AcDbSpline
210
0.0
220
0.0
230
1.0
 70
               8
 71
               2
 72
              36
 73
              33
 74
               0
 42
0.000001
 43
0.000001
 40
0.0
 40
0.0
 40
0.0
 40
1.0
 40
2.0
 40
3.0
 40
4.0
 40
5.0
 40
6.0
 40
7.0
 40
7.0
 40
8.0
 40
9.0
 40
10.0
 40
11.0
 40
12.0
 40
13.0
 40
14.0
 40
14.0
 40
15.0
 40
16.0
 40
17.0
 40
18.0
 40
19.0
 40
20.0
 40
21.0
 40
21.0
 40
22.0
 40
23.0
 40
24.0
 40
25.0
 40
26.0
 40
27.0
 40
28.0
 40
28.0
 40
28.0
 10
-552.07726543395427
 20
712.53055935609473
 30
0.0
 10
-552.06166778979753
 20
711.84869285091304
 30
0.0
 10
-551.36164393952765
 20
710.69365710415696
 30
0.0
 10
-550.20776894345283
 20
709.68317700263242
 30
0.0
 10
-548.53907343867911
 20
708.74415655762118
 30
0.0
 10
-546.40320819394435
 20
707.91986500821417
 30
0.0
 10
-542.50756023154088
 20
706.89704709781813
 30
0.0
 10
-537.2687272882805
 20
706.35246492600845
 30
0.0
 10
-534.79520432545621
 20
706.35414153073521
 30
0.0
 10
-532.32098468602533
 20
706.35237959053939
 30
0.0
 10
-527.07796567877347
 20
706.88918917518095
 30
0.0
 10
-523.18619659123135
 20
707.92036820221028
 30
0.0
 10
-521.04939160449374
 20
708.74441003241191
 30
0.0
 10
-519.37901976244859
 20
709.68359187175884
 30
0.0
 10
-518.22331095091806
 20
710.69623604969433
 30
0.0
 10
-517.52578519655879
 20
711.85724883575995
 30
0.0
 10
-517.5144658266039
 20
712.53425697926855
 30
0.0
 10
-517.53006337979662
 20
713.21612347012729
 30
0.0
 10
-518.23008708993905
 20
714.37115924134423
 30
0.0
 10
-519.38396196409087
 20
715.38163936474621
 30
0.0
 10
-521.05265735383489
 20
716.32065983681287
 30
0.0
 10
-523.18852249630015
 20
717.14495141986094
 30
0.0
 10
-527.08417034664865
 20
718.16776939413603
 30
0.0
 10
-532.32300321400101
 20
718.71235164671134
 30
0.0
 10
-534.79652616259125
 20
718.7106750809005
 30
0.0
 10
-537.27074581623913
 20
718.71243705980055
 30
0.0
 10
-542.51376489884512
 20
718.17562755506674
 30
0.0
 10
-546.40553409885922
 20
717.14444859277091
 30
0.0
 10
-548.54233918768603
 20
716.3204067961849
 30
0.0
 10
-550.21271114449235
 20
715.38122498409462
 30
0.0
 10
-551.36842007811208
 20
714.36858082886897
 30
0.0
 10
-552.06594597515357
 20
713.20756806770214
 30
0.0
 10
-552.0772654340127
 20
712.53055990847474
 30
0.0
  0
LINE
  5
128
100
AcDbEntity
  8
AKF70-0812
370
              15
390
0
  6
STYLE_12
 62
               7
100
AcDbLine
 10
283.64880930739707
 20
-618.06214420074025
 30
0.0
 11
342.08292841762602
 21
-618.12228752626106
 31
0.0
  0
LINE
  5
129
100
AcDbEntity
  8
AKF70-0812
370
              15
390
0
  6
STYLE_12
 62
               7
100
AcDbLine
 10
342.08292841762602
 20
-618.12228752626106
 30
0.0
 11
356.02895495408745
 21
-628.51173903471226
 31
0.0
  0
LINE
  5
12A
100
AcDbEntity
  8
AKF70-0812
370
              15
390
0
  6
STYLE_12
 62
               7
100
AcDbLine
 10
356.02895495408745
 20
-628.51173903471226
 30
0.0
 11
356.02617788870145
 21
-644.48800373527388
 31
0.0
  0
LINE
  5
12B
100
AcDbEntity
  8
AKF70-0812
370
              15
390
0
  6
Continuous
 62
               7
100
AcDbLine
 10
348.77128027721744
 20
-638.11649842154748
 30
0.0
 11
348.77128027721744
 21
-644.42833868242087
 31
0.0
  0
ARC
  5
12C
100
AcDbEntity
  8
AKF70-0812
370
              15
390
0
  6
Continuous
 62
               7
100
AcDbCircle
 10
352.39872908295899
 20
-644.45088987667896
 30
0.0
 40
3.627448805741551
100
AcDbArc
 50
180.0
 51
0.0
  0
ARC
  5
12D
100
AcDbEntity
  8
AKF70-0812
370
              15
390
0
  6
STYLE_12
 62
               7
100
AcDbCircle
 10
284.64427561655236
 20
-603.7968349917769
 30
0.0
 40
14.299999999999873
100
AcDbArc
 50
224.40611929125106
 51
266.00823882872845
  0
ARC
  5
12E
100
AcDbEntity
  8
AKF70-0812
370
              15
390
0
  6
STYLE_12
 62
               7
100
AcDbCircle
 10
357.44521042926658
 20
-535.00876054252558
 30
0.0
 40
114.30591421482363
100
AcDbArc
 50
215.10264224485573
 51
223.57699596103197
  0
LINE
  5
12F
100
AcDbEntity
  8
AKF70-0812
370
              15
390
0
  6
STYLE_12
 62
               7
100
AcDbLine
 10
263.92889014877363
 20
-600.73957421224122
 30
0.0
 11
227.35641027909139
 21
-460.75984151712822
 31
0.0
  0
LINE
  5
130
100
AcDbEntity
  8
AKF70-0812
370
              15
390
0
  6
Continuous
 62
               7
100
AcDbLine
 10
203.9214663690999
 20
-448.10752750705473
 30
0.0
 11
183.99824061714742
 21
-448.10752750705473
 31
0.0
  0
ARC
  5
131
100
AcDbEntity
  8
AKF70-0812
370
              15
390
0
  6
STYLE_12
 62
               7
100
AcDbCircle
 10
202.90534708179337
 20
-477.93861584271593
 30
0.0
 40
29.882516273027168
100
AcDbArc
 50
35.091025958017646
 51
86.438368996515734
  0
ARC
  5
132
100
AcDbEntity
  8
AKF70-0812
370
              15
390
0
  6
Continuous
 62
               7
100
AcDbCircle
 10
184.26376949625399
 20
-452.17289974531121
 30
0.0
 40
4.0740344894497573
100
AcDbArc
 50
93.736953092431605
 51
254.96811680223129
  0
LINE
  5
133
100
AcDbEntity
  8
AKF70-0812
370
              15
390
0
  6
Continuous
 62
               7
100
AcDbLine
 10
183.31030989375256
 20
-456.13379254967043
 30
0.0
 11
199.91379629240862
 21
-459.56975028754226
 31
0.0
  0
LINE
  5
134
100
AcDbEntity
  8
AKF70-0812
370
              15
390
0
  6
Continuous
 62
               7
100
AcDbLine
 10
199.91379629240862
 20
-459.56975028754226
 30
0.0
 11
239.50316810076754
 21
-634.99849047460316
 31
0.0
  0
LINE
  5
135
100
AcDbEntity
  8
AKF70-0812
370
              15
390
0
  6
Continuous
 62
               7
100
AcDbLine
 10
243.40504470919848
 20
-638.11794579511229
 30
0.0
 11
517.00923954453754
 21
-638.11794579511229
 31
0.0
  0
LINE
  5
136
100
AcDbEntity
  8
AKF70-0812
370
              15
390
0
  6
STYLE_12
 62
               7
100
AcDbLine
 10
476.7654749463394
 20
-618.06214420074025
 30
0.0
 11
418.33690996688244
 21
-618.12228752626106
 31
0.0
  0
LINE
  5
137
100
AcDbEntity
  8
AKF70-0812
370
              15
390
0
  6
STYLE_12
 62
               7
100
AcDbLine
 10
418.33690996688244
 20
-618.12228752626106
 30
0.0
 11
404.39088343042101
 21
-628.51173903471226
 31
0.0
  0
LINE
  5
138
100
AcDbEntity
  8
AKF70-0812
370
              15
390
0
  6
STYLE_12
 62
               7
100
AcDbLine
 10
404.39088343042101
 20
-628.51173903471226
 30
0.0
 11
404.38810636503501
 21
-644.48800373527388
 31
0.0
  0
LINE
  5
139
100
AcDbEntity
  8
AKF70-0812
370
              15
390
0
  6
Continuous
 62
               7
100
AcDbLine
 10
411.64300397651903
 20
-638.11721506817184
 30
0.0
 11
411.64300397651903
 21
-644.42833868242087
 31
0.0
  0
ARC
  5
13A
100
AcDbEntity
  8
AKF70-0812
370
              15
390
0
  6
Continuous
 62
               7
100
AcDbCircle
 10
408.01555517077657
 20
-644.45088987667896
 30
0.0
 40
3.627448805741551
100
AcDbArc
 50
180.0
 51
0.0
  0
LINE
  5
13B
100
AcDbEntity
  8
AKF70-0812
370
              15
390
0
  6
Continuous
 62
               7
100
AcDbLine
 10
556.49281788463566
 20
-448.10752750705473
 30
0.0
 11
576.41604363658814
 21
-448.10752750705473
 31
0.0
  0
ARC
  5
13C
100
AcDbEntity
  8
AKF70-0812
370
              15
390
0
  6
STYLE_12
 62
               7
100
AcDbCircle
 10
557.50893717194219
 20
-477.93861584271593
 30
0.0
 40
29.882516273026457
100
AcDbArc
 50
93.561631003484266
 51
144.90897404198134
  0
ARC
  5
13D
100
AcDbEntity
  8
AKF70-0812
370
              15
390
0
  6
Continuous
 62
               7
100
AcDbCircle
 10
576.15051475748248
 20
-452.17289974531121
 30
0.0
 40
4.0740344894487359
100
AcDbArc
 50
285.03188319776871
 51
86.263046907581199
  0
LINE
  5
13E
100
AcDbEntity
  8
AKF70-0812
370
              15
390
0
  6
Continuous
 62
               7
100
AcDbLine
 10
577.103974359983
 20
-456.13379254967043
 30
0.0
 11
560.50048796132694
 21
-459.56975028754226
 31
0.0
  0
LINE
  5
13F
100
AcDbEntity
  8
AKF70-0812
370
              15
390
0
  6
Continuous
 62
               7
100
AcDbLine
 10
560.50048796132694
 20
-459.56975028754226
 30
0.0
 11
520.91111615296848
 21
-634.99849047460316
 31
0.0
  0
LINE
  5
140
100
AcDbEntity
  8
AKF70-0812
370
              15
390
0
  6
Continuous
 62
               7
100
AcDbLine
 10
410.47804719784369
 20
-648.09231148955541
 30
0.0
 11
482.40321253936042
 21
-640.52373076486583
 31
0.0
  0
ARC
  5
141
100
AcDbEntity
  8
AKF70-0812
370
              15
390
0
  6
Continuous
 62
               7
100
AcDbCircle
 10
474.09046402087176
 20
-606.00993394966258
 30
0.0
 40
35.470054666200923
100
AcDbArc
 50
283.15718351313978
 51
294.89946564425327
  0
LINE
  5
142
100
AcDbEntity
  8
AKF70-0812
370
              15
390
0
  6
STYLE_12
 62
               7
100
AcDbLine
 10
344.15115411326303
 20
-619.6621814242576
 30
0.0
 11
416.26987099496716
 21
-619.6621814242576
 31
0.0
  0
LINE
  5
143
100
AcDbEntity
  8
AKF70-0812
370
              15
390
0
  6
STYLE_12
 62
               7
100
AcDbLine
 10
356.02895495408745
 20
-629.35900283214551
 30
0.0
 11
404.39088343042101
 21
-629.35900283214551
 31
0.0
  0
LINE
  5
144
100
AcDbEntity
  8
AKF70-0812
370
              15
390
0
  6
Continuous
 62
               7
100
AcDbLine
 10
203.9214663690999
 20
-448.10752750705473
 30
0.0
 11
556.49281788463566
 21
-448.10752750705473
 31
0.0
  0
LINE
  5
145
100
AcDbEntity
  8
AKF70-0812
370
              15
390
0
  6
Continuous
 62
               7
100
AcDbLine
 10
352.20714212686823
 20
-648.07327573085695
 30
0.0
 11
407.82396821294867
 21
-648.07327573085695
 31
0.0
  0
CIRCLE
  5
146
100
AcDbEntity
  8
AKF70-0812
370
              15
390
0
  6
Continuous
 62
               7
100
AcDbCircle
 10
-534.79586563030819
 20
570.42436236623007
 30
0.0
 40
23.000000000000384
  0
CIRCLE
  5
147
100
AcDbEntity
  8
AKF70-0812
370
              15
390
0
  6
Continuous
 62
               7
100
AcDbCircle
 10
-534.79586563030819
 20
570.42436236623007
 30
0.0
 40
37.500000000000227
  0
LINE
  5
148
100
AcDbEntity
  8
AKF70-0812
370
              15
390
0
  6
Continuous
 62
               7
100
AcDbLine
 10
-811.06565021474546
 20
-448.10327795975439
 30
0.0
 11
-830.98887596669795
 21
-448.10327795975439
 31
0.0
  0
ARC
  5
149
100
AcDbEntity
  8
AKF70-0812
370
              15
390
0
  6
STYLE_12
 62
               7
100
AcDbCircle
 10
-812.081769502052
 20
-477.9343662954156
 30
0.0
 40
29.882516273026795
100
AcDbArc
 50
35.09102595801815
 51
86.438368996515734
  0
ARC
  5
14A
100
AcDbEntity
  8
AKF70-0812
370
              15
390
0
  6
Continuous
 62
               7
100
AcDbCircle
 10
-830.72334708759183
 20
-452.16865019801088
 30
0.0
 40
4.074034489449728
100
AcDbArc
 50
93.736953092425239
 51
254.96811680223129
  0
LINE
  5
14B
100
AcDbEntity
  8
AKF70-0812
370
              15
390
0
  6
Continuous
 62
               7
100
AcDbLine
 10
-831.6768066900928
 20
-456.1295430023701
 30
0.0
 11
-815.07332029143674
 21
-459.56550074024193
 31
0.0
  0
LINE
  5
14C
100
AcDbEntity
  8
AKF70-0812
370
              15
390
0
  6
Continuous
 62
               7
100
AcDbLine
 10
-815.07332029143674
 20
-459.56550074024193
 30
0.0
 11
-802.56267449902964
 21
-634.38977106112952
 31
0.0
  0
LINE
  5
14D
100
AcDbEntity
  8
AKF70-0812
370
              15
390
0
  6
Continuous
 62
               7
100
AcDbLine
 10
-798.57287735802822
 20
-638.10425613392272
 30
0.0
 11
-271.02084514490423
 21
-638.10425613392272
 31
0.0
  0
LINE
  5
14E
100
AcDbEntity
  8
AKF70-0812
370
              15
390
0
  6
Continuous
 62
               7
100
AcDbLine
 10
-811.06565021474546
 20
-448.10327795975439
 30
0.0
 11
-259.36831950615681
 21
-448.1095665105758
 31
0.0
  0
ARC
  5
14F
100
AcDbEntity
  8
AKF70-0812
370
              15
390
0
  6
STYLE_12
 62
               7
100
AcDbCircle
 10
-323.25088144195809
 20
-603.7922453724259
 30
0.0
 40
14.299999999999919
100
AcDbArc
 50
273.99176117127149
 51
315.59388070874888
  0
ARC
  5
150
100
AcDbEntity
  8
AKF70-0812
370
              15
390
0
  6
STYLE_12
 62
               7
100
AcDbCircle
 10
-395.84375973121689
 20
-535.00417092317457
 30
0.0
 40
114.30591421482363
100
AcDbArc
 50
316.42300403896797
 51
328.08553739130735
  0
LINE
  5
151
100
AcDbEntity
  8
AKF70-0812
370
              15
390
0
  6
STYLE_12
 62
               7
100
AcDbLine
 10
-298.81652501765996
 20
-595.43229143280951
 30
0.0
 11
-281.96301619817825
 21
-460.75559196982789
 31
0.0
  0
LINE
  5
152
100
AcDbEntity
  8
AKF70-0812
370
              15
390
0
  6
Continuous
 62
               7
100
AcDbLine
 10
-258.52807228818722
 20
-448.10327795975439
 30
0.0
 11
-238.60484653623473
 21
-448.10327795975439
 31
0.0
  0
ARC
  5
153
100
AcDbEntity
  8
AKF70-0812
370
              15
390
0
  6
STYLE_12
 62
               7
100
AcDbCircle
 10
-257.51195300088068
 20
-477.9343662954156
 30
0.0
 40
29.882516273026457
100
AcDbArc
 50
93.561631003484266
 51
144.90897404198185
  0
ARC
  5
154
100
AcDbEntity
  8
AKF70-0812
370
              15
390
0
  6
Continuous
 62
               7
100
AcDbCircle
 10
-238.87037541534085
 20
-452.16865019801088
 30
0.0
 40
4.0740344894487359
100
AcDbArc
 50
285.03188319776871
 51
86.263046907574804
  0
LINE
  5
155
100
AcDbEntity
  8
AKF70-0812
370
              15
390
0
  6
Continuous
 62
               7
100
AcDbLine
 10
-237.91691581283987
 20
-456.1295430023701
 30
0.0
 11
-254.52040221149593
 21
-459.56550074024193
 31
0.0
  0
LINE
  5
156
100
AcDbEntity
  8
AKF70-0812
370
              15
390
0
  6
Continuous
 62
               7
100
AcDbLine
 10
-254.52040221149593
 20
-459.56550074024193
 30
0.0
 11
-267.03104800390304
 21
-634.38977106112952
 31
0.0
  0
LINE
  5
157
100
AcDbEntity
  8
AKF70-0812
370
              15
390
0
  6
STYLE_12
 62
               7
100
AcDbLine
 10
-745.86044894902614
 20
-618.08410661757057
 30
0.0
 11
-572.92662480594538
 21
-618.11769790691005
 31
0.0
  0
LINE
  5
158
100
AcDbEntity
  8
AKF70-0812
370
              15
390
0
  6
STYLE_12
 62
               7
100
AcDbLine
 10
-572.92662480594538
 20
-618.11769790691005
 30
0.0
 11
-558.98059826948395
 21
-628.50714941536125
 31
0.0
  0
LINE
  5
159
100
AcDbEntity
  8
AKF70-0812
370
              15
390
0
  6
STYLE_12
 62
               7
100
AcDbLine
 10
-558.98059826948395
 20
-628.50714941536125
 30
0.0
 11
-558.97782129777909
 21
-644.48375418797355
 31
0.0
  0
LINE
  5
15A
100
AcDbEntity
  8
AKF70-0812
370
              15
390
0
  6
Continuous
 62
               7
100
AcDbLine
 10
-566.2327189092631
 20
-638.10425613392272
 30
0.0
 11
-566.2327189092631
 21
-644.42408913512054
 31
0.0
  0
ARC
  5
15B
100
AcDbEntity
  8
AKF70-0812
370
              15
390
0
  6
Continuous
 62
               7
100
AcDbCircle
 10
-562.60527010352109
 20
-644.44664032937862
 30
0.0
 40
3.6274488057420058
100
AcDbArc
 50
180.0
 51
0.0
  0
LINE
  5
15C
100
AcDbEntity
  8
AKF70-0812
370
              15
390
0
  6
STYLE_12
 62
               7
100
AcDbLine
 10
-322.2554151328028
 20
-618.05755458138924
 30
0.0
 11
-496.67264325668896
 21
-618.11769790691005
 31
0.0
  0
LINE
  5
15D
100
AcDbEntity
  8
AKF70-0812
370
              15
390
0
  6
STYLE_12
 62
               7
100
AcDbLine
 10
-496.67264325668896
 20
-618.11769790691005
 30
0.0
 11
-510.61866979315039
 21
-628.50714941536125
 31
0.0
  0
LINE
  5
15E
100
AcDbEntity
  8
AKF70-0812
370
              15
390
0
  6
STYLE_12
 62
               7
100
AcDbLine
 10
-510.61866979315039
 20
-628.50714941536125
 30
0.0
 11
-510.61589282144553
 21
-644.48375418797355
 31
0.0
  0
LINE
  5
15F
100
AcDbEntity
  8
AKF70-0812
370
              15
390
0
  6
Continuous
 62
               7
100
AcDbLine
 10
-503.36099520996152
 20
-638.10425613392272
 30
0.0
 11
-503.36099520996152
 21
-644.42408913512054
 31
0.0
  0
ARC
  5
160
100
AcDbEntity
  8
AKF70-0812
370
              15
390
0
  6
Continuous
 62
               7
100
AcDbCircle
 10
-506.98844401570352
 20
-644.44664032937862
 30
0.0
 40
3.6274488057420058
100
AcDbArc
 50
180.0
 51
0.0
  0
LINE
  5
161
100
AcDbEntity
  8
AKF70-0812
370
              15
390
0
  6
STYLE_12
 62
               7
100
AcDbLine
 10
-570.85839911030837
 20
-619.65759180490659
 30
0.0
 11
-498.73968222860447
 21
-619.65759180490659
 31
0.0
  0
LINE
  5
162
100
AcDbEntity
  8
AKF70-0812
370
              15
390
0
  6
STYLE_12
 62
               7
100
AcDbLine
 10
-558.98059826948395
 20
-629.3544132127945
 30
0.0
 11
-510.61866979315039
 21
-629.3544132127945
 31
0.0
  0
LINE
  5
163
100
AcDbEntity
  8
AKF70-0812
370
              15
390
0
  6
Continuous
 62
               7
100
AcDbLine
 10
-562.79685705961231
 20
-648.06902618355662
 30
0.0
 11
-507.18003097353187
 21
-648.06902618355662
 31
0.0
  0
LWPOLYLINE
  5
164
100
AcDbEntity
  8
AKF70-0812
370
               5
390
0
  6
STYLE_12
 62
               7
100
AcDbPolyline
 90
        8
 70
             129
 10
80.207142126868249
 20
744.42436236623007
 42
-0.414213562373095
 10
106.20714212686825
 20
770.42436236623007
 10
654.20714212686812
 20
770.42436236623007
 42
-0.414213562373095
 10
680.20714212686812
 20
744.42436236623007
 10
680.20714212686812
 20
396.42436236622996
 42
-0.4142135623730944
 10
654.20714212686812
 20
370.42436236622996
 10
106.20714212686825
 20
370.42436236622996
 42
-0.414213562373095
 10
80.207142126868249
 20
396.42436236622996
  0
LWPOLYLINE
  5
165
100
AcDbEntity
  8
AKF70-0812
370
               5
390
0
  6
STYLE_12
 62
               7
100
AcDbPolyline
 90
        8
 70
             129
 10
115.20714212686825
 20
710.42436236623007
 42
-0.414213562373095
 10
145.20714212686823
 20
740.42436236623007
 10
615.20714212686812
 20
740.42436236623007
 42
-0.414213562373095
 10
645.20714212686812
 20
710.42436236623007
 10
645.20714212686812
 20
430.42436236622996
 42
-0.4142135623730945
 10
615.20714212686812
 20
400.42436236622996
 10
145.20714212686823
 20
400.42436236622996
 42
-0.414213562373095
 10
115.20714212686825
 20
430.42436236622996
  0
SPLINE
  5
166
100
AcDbEntity
  8
AKF70-0812
370
               5
390
0
  6
STYLE_12
 62
               7
100
AcDbSpline
210
0.0
220
0.0
230
1.0
 70
               8
 71
               2
 72
              36
 73
              33
 74
               0
 42
0.000001
 43
0.000001
 40
0.0
 40
0.0
 40
0.0
 40
1.0
 40
2.0
 40
3.0
 40
4.0
 40
5.0
 40
6.0
 40
7.0
 40
7.0
 40
8.0
 40
9.0
 40
10.0
 40
11.0
 40
12.0
 40
13.0
 40
14.0
 40
14.0
 40
15.0
 40
16.0
 40
17.0
 40
18.0
 40
19.0
 40
20.0
 40
21.0
 40
21.0
 40
22.0
 40
23.0
 40
24.0
 40
25.0
 40
26.0
 40
27.0
 40
28.0
 40
28.0
 40
28.0
 10
362.92574232322193
 20
712.53055935609473
 30
0.0
 10
362.94133996737844
 20
711.84869285091304
 30
0.0
 10
363.64136381764854
 20
710.69365710415696
 30
0.0
 10
364.79523881372359
 20
709.68317700263242
 30
0.0
 10
366.46393431849708
 20
708.74415655762118
 30
0.0
 10
368.59979956323184
 20
707.91986500821417
 30
0.0
 10
372.49544752563531
 20
706.89704709781813
 30
0.0
 10
377.73428046889592
 20
706.35246492600845
 30
0.0
 10
380.20780343171998
 20
706.35414153073521
 30
0.0
 10
382.68202307115087
 20
706.35237959053939
 30
0.0
 10
387.92504207840273
 20
706.88918917518095
 30
0.0
 10
391.81681116594507
 20
707.92036820221028
 30
0.0
 10
393.95361615268246
 20
708.74441003241191
 30
0.0
 10
395.62398799472783
 20
709.68359187175884
 30
0.0
 10
396.77969680625836
 20
710.69623604969433
 30
0.0
 10
397.47722256061741
 20
711.85724883575995
 30
0.0
 10
397.4885419305723
 20
712.53425697926855
 30
0.0
 10
397.47294437737935
 20
713.21612347012729
 30
0.0
 10
396.77292066723737
 20
714.37115924134423
 30
0.0
 10
395.61904579308509
 20
715.38163936474621
 30
0.0
 10
393.9503504033413
 20
716.32065983681287
 30
0.0
 10
391.81448526087604
 20
717.14495141986094
 30
0.0
 10
387.91883741052777
 20
718.16776939413603
 30
0.0
 10
382.68000454317541
 20
718.71235164671134
 30
0.0
 10
380.20648159458494
 20
718.7106750809005
 30
0.0
 10
377.73226194093684
 20
718.71243705980055
 30
0.0
 10
372.48924285833107
 20
718.17562755506674
 30
0.0
 10
368.59747365831697
 20
717.14444859277091
 30
0.0
 10
366.46066856949017
 20
716.3204067961849
 30
0.0
 10
364.79029661268385
 20
715.38122498409462
 30
0.0
 10
363.63458767906411
 20
714.36858082886897
 30
0.0
 10
362.93706178202262
 20
713.20756806770214
 30
0.0
 10
362.92574232316372
 20
712.53055990847474
 30
0.0
  0
CIRCLE
  5
167
100
AcDbEntity
  8
AKF70-0812
370
               5
390
0
  6
STYLE_12
 62
               7
100
AcDbCircle
 10
380.20714212686823
 20
570.42436236622984
 30
0.0
 40
23.000000000000409
  0
CIRCLE
  5
168
100
AcDbEntity
  8
AKF70-0812
370
               5
390
0
  6
STYLE_12
 62
               7
100
AcDbCircle
 10
380.20714212686823
 20
570.42436236622984
 30
0.0
 40
37.500000000000242
  0
LWPOLYLINE
  5
169
100
AcDbEntity
  8
AKF70-0812
370
              15
390
0
  6
Continuous
 62
               7
100
AcDbPolyline
 90
        8
 70
             129
 10
122.75000000050012
 20
712.93640755620618
 42
-0.414213562373095
 10
137.75000000050011
 20
727.93640755620618
 10
622.75000000049999
 20
727.93640755620618
 42
-0.414213562373095
 10
637.75000000049999
 20
712.93640755620618
 10
637.75000000049999
 20
427.93640755620623
 42
-0.414213562373095
 10
622.75000000049999
 20
412.93640755620623
 10
137.75000000050011
 20
412.93640755620623
 42
-0.414213562373095
 10
122.75000000050012
 20
427.93640755620623
  0
ENDSEC
  0
SECTION
  2
OBJECTS
  0
DICTIONARY
  5
19
100
AcDbDictionary
280
               0
281
               1
  3
ACAD_GROUP
350
1A
  3
ACAD_MLINESTYLE
350
1B
  3
ACAD_LAYOUT
350
1E
  3
ACAD_PLOTSETTINGS
350
22
  3
ACAD_PLOTSTYLENAME
350
1F
  0
DICTIONARY
  5
1A
102
{ACAD_REACTORS
330
19
102
}
100
AcDbDictionary
280
               0
281
               1
  0
DICTIONARY
  5
1B
102
{ACAD_REACTORS
330
19
102
}
100
AcDbDictionary
280
               0
281
               1
  3
Standard
350
1C
  0
MLINESTYLE
  5
1C
102
{ACAD_REACTORS
330
1B
102
}
100
AcDbMlineStyle
  2
Standard
 70
               0
  3

 62
               0
 51
90.0
 52
90.0
 71
               2
 49
0.5
 62
             256
  6
ByLayer
 49
-0.5
 62
             256
  6
ByLayer
  0
ACDBDICTIONARYWDFLT
  5
1F
102
{ACAD_REACTORS
330
19
102
}
100
AcDbDictionary
281
               1
  3
Normal
350
1D
100
AcDbDictionaryWithDefault
340
1D
  0
ACDBPLACEHOLDER
  5
1D
102
{ACAD_REACTORS
330
1F
102
}
  0
LAYOUT
  5
20
102
{ACAD_REACTORS
330
1E
102
}
100
AcDbPlotSettings
  1

  2

  4

  6

 40
0.0
 41
0.0
 42
0.0
 43
0.0
 44
0.0
 45
0.0
 46
0.0
 47
0.0
 48
0.0
 49
0.0
140
0.0
141
0.0
142
1.0
143
1.0
 70
            1024
 72
               0
 73
               0
 74
               0
  7

 75
               0
147
1.0
148
0.0
149
0.0
100
AcDbLayout
  1
Model
 70
               0
 71
               0
 10
0.0
 20
0.0
 11
0.0
 21
0.0
 12
0.0
 22
0.0
 32
0.0
 14
0.0
 24
0.0
 34
0.0
 15
0.0
 25
0.0
 35
0.0
146
0.0
 13
0.0
 23
0.0
 33
0.0
 16
0.0
 26
0.0
 36
0.0
 17
0.0
 27
0.0
 37
0.0
 76
               0
330
A
331
0
345
0
346
0
  0
LAYOUT
  5
21
102
{ACAD_REACTORS
330
1E
102
}
100
AcDbPlotSettings
  1

  2

  4

  6

 40
0.0
 41
0.0
 42
0.0
 43
0.0
 44
0.0
 45
0.0
 46
0.0
 47
0.0
 48
0.0
 49
0.0
140
0.0
141
0.0
142
1.0
143
1.0
 70
               0
 72
               0
 73
               0
 74
               0
  7

 75
               0
147
1.0
148
0.0
149
0.0
100
AcDbLayout
  1
Layout1
 70
               0
 71
               0
 10
0.0
 20
0.0
 11
0.0
 21
0.0
 12
0.0
 22
0.0
 32
0.0
 14
0.0
 24
0.0
 34
0.0
 15
0.0
 25
0.0
 35
0.0
146
0.0
 13
0.0
 23
0.0
 33
0.0
 16
0.0
 26
0.0
 36
0.0
 17
0.0
 27
0.0
 37
0.0
 76
               0
330
B
331
0
345
0
346
0
  0
DICTIONARY
  5
1E
102
{ACAD_REACTORS
330
19
102
}
100
AcDbDictionary
280
               0
281
               1
  3
Layout1
350
21
  3
Model
350
20
  0
DICTIONARY
  5
22
102
{ACAD_REACTORS
330
19
102
}
100
AcDbDictionary
280
               0
281
               1
  0
ENDSEC
  0
EOF
