  0
SECTION
  2
HEADER
  9
$ACADVER
  1
AC1015
  9
$ACADMAINTVER
 70
               6
  9
$DWGCODEPAGE
  3
ANSI_932
  9
$INSBASE
 10
0.0
 20
0.0
 30
0.0
  9
$EXTMIN
 10
-975.00000000024124
 20
-1431.5255224711127
 30
-14.834305555555552
  9
$EXTMAX
 10
975.00000000024124
 20
1405.9972926412995
 30
14.834305555555552
  9
$LIMMIN
 10
0.0
 20
0.0
  9
$LIMMAX
 10
0.0
 20
0.0
  9
$ORTHOMODE
 70
               0
  9
$REGENMODE
 70
               1
  9
$FILLMODE
 70
               1
  9
$QTEXTMODE
 70
               0
  9
$MIRRTEXT
 70
               1
  9
$LTSCALE
 40
25.399999999999999
  9
$ATTMODE
 70
               1
  9
$TEXTSIZE
 40
0.2
  9
$TRACEWID
 40
1.0
  9
$TEXTSTYLE
  7
Standard
  9
$CLAYER
  8
template
  9
$CELTYPE
  6
Continuous
  9
$CECOLOR
 62
             256
  9
$CELTSCALE
 40
1.0
  9
$DISPSILH
 70
               0
  9
$DIMSCALE
 40
1.0
  9
$DIMASZ
 40
31.75
  9
$DIMEXO
 40
0.0
  9
$DIMDLI
 40
6.9999999999999396
  9
$DIMRND
 40
0.0
  9
$DIMDLE
 40
0.0
  9
$DIMEXE
 40
19.999999999996199
  9
$DIMTP
 40
0.0
  9
$DIMTM
 40
0.0
  9
$DIMTXT
 40
24.432617187500004
  9
$DIMCEN
 40
0.0
  9
$DIMTSZ
 40
0.0
  9
$DIMTOL
 70
               0
  9
$DIMLIM
 70
               0
  9
$DIMTIH
 70
               0
  9
$DIMTOH
 70
               0
  9
$DIMSE1
 70
               0
  9
$DIMSE2
 70
               0
  9
$DIMTAD
 70
               1
  9
$DIMZIN
 70
              11
  9
$DIMBLK
  1
VW_FILLEDARROW
  9
$DIMASO
 70
               1
  9
$DIMSHO
 70
               1
  9
$DIMPOST
  1
<>
  9
$DIMAPOST
  1
[]
  9
$DIMALT
 70
               0
  9
$DIMALTD
 70
               1
  9
$DIMALTF
 40
1.0
  9
$DIMLFAC
 40
1.0
  9
$DIMTOFL
 70
               0
  9
$DIMTVP
 40
0.0
  9
$DIMTIX
 70
               1
  9
$DIMSOXD
 70
               0
  9
$DIMSAH
 70
               0
  9
$DIMBLK1
  1

  9
$DIMBLK2
  1

  9
$DIMSTYLE
  2
JIS
  9
$DIMCLRD
 70
               0
  9
$DIMCLRE
 70
               0
  9
$DIMCLRT
 70
               0
  9
$DIMTFAC
 40
1.0
  9
$DIMGAP
 40
1.00000000000108
  9
$DIMJUST
 70
               0
  9
$DIMSD1
 70
               0
  9
$DIMSD2
 70
               0
  9
$DIMTOLJ
 70
               1
  9
$DIMTZIN
 70
              11
  9
$DIMALTZ
 70
              11
  9
$DIMALTTZ
 70
              11
  9
$DIMUPT
 70
               0
  9
$DIMDEC
 70
               1
  9
$DIMTDEC
 70
               1
  9
$DIMALTU
 70
               2
  9
$DIMALTTD
 70
               2
  9
$DIMTXSTY
  7
ＭＳ ゴシック
  9
$DIMAUNIT
 70
               0
  9
$DIMADEC
 70
               2
  9
$DIMALTRND
 40
0.0
  9
$DIMAZIN
 70
               0
  9
$DIMDSEP
 70
              46
  9
$DIMATFIT
 70
               0
  9
$DIMFRAC
 70
               2
  9
$DIMLDRBLK
  1

  9
$DIMLUNIT
 70
               2
  9
$DIMLWD
 70
              -2
  9
$DIMLWE
 70
              -2
  9
$DIMTMOVE
 70
               0
  9
$LUNITS
 70
               2
  9
$LUPREC
 70
               4
  9
$SKETCHINC
 40
0.1
  9
$FILLETRAD
 40
0.0
  9
$AUNITS
 70
               0
  9
$AUPREC
 70
               0
  9
$MENU
  1
acad
  9
$ELEVATION
 40
0.0
  9
$PELEVATION
 40
0.0
  9
$THICKNESS
 40
0.0
  9
$LIMCHECK
 70
               0
  9
$CHAMFERA
 40
0.0
  9
$CHAMFERB
 40
0.0
  9
$CHAMFERC
 40
0.0
  9
$CHAMFERD
 40
0.0
  9
$SKPOLY
 70
               0
  9
$TDCREATE
 40
2455695.729178241
  9
$TDUCREATE
 40
0.000000000
  9
$TDUPDATE
 40
2455695.729178241
  9
$TDUUPDATE
 40
0.000000000
  9
$TDINDWG
 40
0.0000000000
  9
$TDUSRTIMER
 40
0.0000000000
  9
$USRTIMER
 70
               1
  9
$ANGBASE
 50
0.0
  9
$ANGDIR
 70
               0
  9
$PDMODE
 70
               1
  9
$PDSIZE
 40
-2.0
  9
$PLINEWID
 40
0.0
  9
$SPLFRAME
 70
               0
  9
$SPLINETYPE
 70
               6
  9
$SPLINESEGS
 70
               8
  9
$HANDSEED
  5
1AB
  9
$SURFTAB1
 70
               6
  9
$SURFTAB2
 70
               6
  9
$SURFTYPE
 70
               6
  9
$SURFU
 70
               6
  9
$SURFV
 70
               6
  9
$UCSBASE
  2

  9
$UCSNAME
  2

  9
$UCSORG
 10
0.0
 20
0.0
 30
0.0
  9
$UCSXDIR
 10
1.0
 20
0.0
 30
0.0
  9
$UCSYDIR
 10
0.0
 20
1.0
 30
0.0
  9
$UCSORTHOREF
  2

  9
$UCSORTHOVIEW
 70
               0
  9
$UCSORGTOP
 10
0.0
 20
0.0
 30
0.0
  9
$UCSORGBOTTOM
 10
0.0
 20
0.0
 30
0.0
  9
$UCSORGLEFT
 10
0.0
 20
0.0
 30
0.0
  9
$UCSORGRIGHT
 10
0.0
 20
0.0
 30
0.0
  9
$UCSORGFRONT
 10
0.0
 20
0.0
 30
0.0
  9
$UCSORGBACK
 10
0.0
 20
0.0
 30
0.0
  9
$PUCSBASE
  2

  9
$PUCSNAME
  2

  9
$PUCSORG
 10
0.0
 20
0.0
 30
0.0
  9
$PUCSXDIR
 10
1.0
 20
0.0
 30
0.0
  9
$PUCSYDIR
 10
0.0
 20
1.0
 30
0.0
  9
$PUCSORTHOREF
  2

  9
$PUCSORTHOVIEW
 70
               0
  9
$PUCSORGTOP
 10
0.0
 20
0.0
 30
0.0
  9
$PUCSORGBOTTOM
 10
0.0
 20
0.0
 30
0.0
  9
$PUCSORGLEFT
 10
0.0
 20
0.0
 30
0.0
  9
$PUCSORGRIGHT
 10
0.0
 20
0.0
 30
0.0
  9
$PUCSORGFRONT
 10
0.0
 20
0.0
 30
0.0
  9
$PUCSORGBACK
 10
0.0
 20
0.0
 30
0.0
  9
$USERI1
 70
               0
  9
$USERI2
 70
               0
  9
$USERI3
 70
               0
  9
$USERI4
 70
               0
  9
$USERI5
 70
               0
  9
$USERR1
 40
0.0
  9
$USERR2
 40
0.0
  9
$USERR3
 40
0.0
  9
$USERR4
 40
0.0
  9
$USERR5
 40
0.0
  9
$WORLDVIEW
 70
               1
  9
$SHADEDGE
 70
               3
  9
$SHADEDIF
 70
              70
  9
$TILEMODE
 70
               1
  9
$MAXACTVP
 70
              64
  9
$PINSBASE
 10
0.0
 20
0.0
 30
0.0
  9
$PLIMCHECK
 70
               0
  9
$PEXTMIN
 10
1.0000000000000000E+20
 20
1.0000000000000000E+20
 30
1.0000000000000000E+20
  9
$PEXTMAX
 10
-1.0000000000000000E+20
 20
-1.0000000000000000E+20
 30
-1.0000000000000000E+20
  9
$PLIMMIN
 10
0.0
 20
0.0
  9
$PLIMMAX
 10
12.0
 20
9.0
  9
$UNITMODE
 70
               0
  9
$VISRETAIN
 70
               0
  9
$PLINEGEN
 70
               1
  9
$PSLTSCALE
 70
               0
  9
$TREEDEPTH
 70
            3020
  9
$CMLSTYLE
  2
Standard
  9
$CMLJUST
 70
               0
  9
$CMLSCALE
 40
1.0
  9
$PROXYGRAPHICS
 70
               0
  9
$MEASUREMENT
 70
               1
  9
$CELWEIGHT
370
               0
  9
$ENDCAPS
280
               0
  9
$JOINSTYLE
280
               0
  9
$LWDISPLAY
290
               1
  9
$INSUNITS
 70
               4
  9
$HYPERLINKBASE
  1

  9
$STYLESHEET
  1

  9
$XEDIT
290
               1
  9
$CEPSNTYPE
380
               0
  9
$PSTYLEMODE
290
               1
  9
$FINGERPRINTGUID
  2

  9
$VERSIONGUID
  2

  9
$EXTNAMES
290
               1
  9
$PSVPSCALE
 40
0.0
  0
ENDSEC
  0
SECTION
  2
CLASSES
  0
CLASS
  1
LWPOLYLINE
  2
AcDbPolyline
  3
AutoCAD 2000
 90
        0
280
               0
281
               1
  0
CLASS
  1
IMAGE
  2
AcDbRasterImage
  3
ISM
 90
      127
280
               0
281
               1
  0
CLASS
  1
OLE2FRAME
  2
AcDbOle2Frame
  3
AutoCAD 2000
 90
        0
280
               0
281
               1
  0
CLASS
  1
HATCH
  2
AcDbHatch
  3
AutoCAD 2000
 90
        0
280
               0
281
               1
  0
CLASS
  1
DICTIONARYVAR
  2
AcDbDictionaryVar
  3
AutoCAD 2000
 90
        0
280
               0
281
               0
  0
CLASS
  1
RASTERVARIABLES
  2
AcDbRasterVariables
  3
ISM
 90
        0
280
               0
281
               0
  0
CLASS
  1
IMAGEDEF
  2
AcDbRasterImageDef
  3
ISM
 90
        0
280
               0
281
               0
  0
CLASS
  1
IMAGEDEF_REACTOR
  2
AcDbRasterImageDefReactor
  3
ISM
 90
        1
280
               0
281
               0
  0
CLASS
  1
IDBUFFER
  2
AcDbIdBuffer
  3
AutoCAD 2000
 90
        0
280
               0
281
               0
  0
CLASS
  1
SPATIAL_FILTER
  2
AcDbSpatialFilter
  3
AutoCAD 2000
 90
        0
280
               0
281
               0
  0
CLASS
  1
XRECORD
  2
AcDbXrecord
  3
AutoCAD 2000
 90
        0
280
               0
281
               0
  0
CLASS
  1
SORTENTSTABLE
  2
AcDbSortentsTable
  3
AutoCAD 2000
 90
        0
280
               0
281
               0
  0
CLASS
  1
LAYER_INDEX
  2
AcDbLayerIndex
  3
AutoCAD 2000
 90
        0
280
               0
281
               0
  0
CLASS
  1
SPATIAL_INDEX
  2
AcDbSpatialIndex
  3
AutoCAD 2000
 90
        0
280
               0
281
               0
  0
CLASS
  1
OBJECT_PTR
  2
CAseDLPNTableRecord
  3
"ASE-LPNTableRecord"
 90
        1
280
               0
281
               0
  0
CLASS
  1
LAYOUT
  2
AcDbLayout
  3
AutoCAD 2000
 90
        0
280
               0
281
               0
  0
CLASS
  1
PLOTSETTINGS
  2
AcDbPlotSettings
  3
AutoCAD 2000
 90
        0
280
               0
281
               0
  0
CLASS
  1
ACDBDICTIONARYWDFLT
  2
AcDbDictionaryWithDefault
  3
AutoCAD 2000
 90
        0
280
               0
281
               0
  0
CLASS
  1
ACDBPLACEHOLDER
  2
AcDbPlaceHolder
  3
AutoCAD 2000
 90
        0
280
               0
281
               0
  0
ENDSEC
  0
SECTION
  2
TABLES
  0
TABLE
  2
VPORT
  5
7
100
AcDbSymbolTable
 70
               1
  0
VPORT
  5
15
100
AcDbSymbolTableRecord
100
AcDbViewportTableRecord
  2
*ACTIVE
 70
               0
 10
0.0
 20
0.0
 11
1.0
 21
1.0
 12
0.0
 22
-12.764114914906713
 13
0.0
 23
0.0
 14
1.0
 24
1.0
 15
0.0
 25
0.0
 16
0.0
 26
0.0
 36
1.0
 17
0.0
 27
0.0
 37
0.0
 40
2837.522815112412
 41
0.688564
 42
50.0
 43
0.0
 44
0.0
 50
0.0
 51
0.0
 71
               0
 72
            2000
 73
               1
 74
               1
 75
               0
 76
               0
 77
               0
 78
               0
281
               0
 65
               0
110
0.0
120
0.0
130
0.0
111
1.0
121
0.0
131
0.0
112
0.0
122
1.0
132
0.0
345
0
346
0
 79
               0
146
0.0
  0
ENDTAB
  0
TABLE
  2
LTYPE
  5
4
100
AcDbSymbolTable
 70
              16
  0
LTYPE
  5
11
100
AcDbSymbolTableRecord
100
AcDbLinetypeTableRecord
  2
ByBlock
 70
              64
  3

 72
              65
 73
               0
 40
0.0
  0
LTYPE
  5
12
100
AcDbSymbolTableRecord
100
AcDbLinetypeTableRecord
  2
ByLayer
 70
              64
  3

 72
              65
 73
               0
 40
0.0
  0
LTYPE
  5
13
100
AcDbSymbolTableRecord
100
AcDbLinetypeTableRecord
  2
Continuous
 70
              64
  3
Solid line
 72
              65
 73
               0
 40
0.0
  0
LTYPE
  5
33
100
AcDbSymbolTableRecord
100
AcDbLinetypeTableRecord
  2
STYLE_01
 70
               0
  3

 72
              65
 73
               4
 40
0.078740157480315
 49
0.0492125984251968
 74
               0
 49
-0.0098425196850394
 74
               0
 49
0.0098425196850394
 74
               0
 49
-0.0098425196850394
 74
               0
  0
LTYPE
  5
34
100
AcDbSymbolTableRecord
100
AcDbLinetypeTableRecord
  2
STYLE_02
 70
               0
  3

 72
              65
 73
               2
 40
0.0590551181102362
 49
0.0393700787401574
 74
               0
 49
-0.0196850393700788
 74
               0
  0
LTYPE
  5
35
100
AcDbSymbolTableRecord
100
AcDbLinetypeTableRecord
  2
STYLE_03
 70
               0
  3

 72
              65
 73
               2
 40
0.7499999999999998
 49
0.5
 74
               0
 49
-0.2499999999999998
 74
               0
  0
LTYPE
  5
36
100
AcDbSymbolTableRecord
100
AcDbLinetypeTableRecord
  2
STYLE_04
 70
               0
  3

 72
              65
 73
               4
 40
0.078740157480315
 49
0.0492125984251968
 74
               0
 49
-0.0098425196850394
 74
               0
 49
0.0098425196850394
 74
               0
 49
-0.0098425196850394
 74
               0
  0
LTYPE
  5
37
100
AcDbSymbolTableRecord
100
AcDbLinetypeTableRecord
  2
STYLE_05
 70
               0
  3

 72
              65
 73
               2
 40
0.41656
 49
0.13885
 74
               0
 49
-0.27771
 74
               0
  0
LTYPE
  5
38
100
AcDbSymbolTableRecord
100
AcDbLinetypeTableRecord
  2
STYLE_06
 70
               0
  3

 72
              65
 73
               4
 40
2.0832800000000002
 49
1.25
 74
               0
 49
-0.41656
 74
               0
 49
0.1388600000000001
 74
               0
 49
-0.2778600000000001
 74
               0
  0
LTYPE
  5
39
100
AcDbSymbolTableRecord
100
AcDbLinetypeTableRecord
  2
STYLE_07
 70
               0
  3

 72
              65
 73
               6
 40
3.75
 49
1.25
 74
               0
 49
-0.41656
 74
               0
 49
1.2500000000000002
 74
               0
 49
-0.4167199999999999
 74
               0
 49
0.1388600000000001
 74
               0
 49
-0.2778599999999998
 74
               0
  0
LTYPE
  5
3A
100
AcDbSymbolTableRecord
100
AcDbLinetypeTableRecord
  2
STYLE_08
 70
               0
  3

 72
              65
 73
               6
 40
2.5
 49
1.25
 74
               0
 49
-0.41656
 74
               0
 49
0.1388600000000001
 74
               0
 49
-0.2778600000000001
 74
               0
 49
0.1388599999999998
 74
               0
 49
-0.2778600000000001
 74
               0
  0
LTYPE
  5
3B
100
AcDbSymbolTableRecord
100
AcDbLinetypeTableRecord
  2
STYLE_09
 70
               0
  3

 72
              65
 73
               4
 40
10.0
 49
7.5
 74
               0
 49
-0.5555699999999997
 74
               0
 49
1.3888600000000006
 74
               0
 49
-0.5555699999999997
 74
               0
  0
LTYPE
  5
3C
100
AcDbSymbolTableRecord
100
AcDbLinetypeTableRecord
  2
STYLE_10
 70
               0
  3

 72
              65
 73
               6
 40
11.875
 49
7.5
 74
               0
 49
-0.5555699999999997
 74
               0
 49
1.3888600000000006
 74
               0
 49
-0.5555699999999997
 74
               0
 49
1.25
 74
               0
 49
-0.625
 74
               0
  0
LTYPE
  5
3D
100
AcDbSymbolTableRecord
100
AcDbLinetypeTableRecord
  2
STYLE_11
 70
               0
  3

 72
              65
 73
               2
 40
0.1388889763779528
 49
0.0694444881889764
 74
               0
 49
-0.0694444881889764
 74
               0
  0
LTYPE
  5
3E
100
AcDbSymbolTableRecord
100
AcDbLinetypeTableRecord
  2
STYLE_12
 70
               0
  3

 72
              65
 73
               2
 40
0.3472222222222222
 49
0.2083333333333333
 74
               0
 49
-0.1388888888888889
 74
               0
  0
LTYPE
  5
3F
100
AcDbSymbolTableRecord
100
AcDbLinetypeTableRecord
  2
STYLE_13
 70
               0
  3

 72
              65
 73
               2
 40
0.7874015748031495
 49
0.3937007874015748
 74
               0
 49
-0.3937007874015748
 74
               0
  0
ENDTAB
  0
TABLE
  2
LAYER
  5
2
100
AcDbSymbolTable
 70
               5
  0
LAYER
  5
14
100
AcDbSymbolTableRecord
100
AcDbLayerTableRecord
  2
0
 70
               0
 62
               7
  6
Continuous
290
               1
370
              -3
390
1D
  0
LAYER
  5
40
100
AcDbSymbolTableRecord
100
AcDbLayerTableRecord
  2
Defpoints
 70
               0
 62
               7
  6
Continuous
290
               0
370
              -3
390
1D
  0
LAYER
  5
41
100
AcDbSymbolTableRecord
100
AcDbLayerTableRecord
  2
template
 70
               0
 62
               7
  6
Continuous
290
               1
370
              -3
390
1D
  0
LAYER
  5
42
100
AcDbSymbolTableRecord
100
AcDbLayerTableRecord
  2
notes
 70
               0
 62
               7
  6
Continuous
290
               1
370
              -3
390
1D
  0
LAYER
  5
43
100
AcDbSymbolTableRecord
100
AcDbLayerTableRecord
  2
ARJ70-0011
 70
               0
 62
               7
  6
Continuous
290
               1
370
              -3
390
1D
  0
ENDTAB
  0
TABLE
  2
STYLE
  5
3
100
AcDbSymbolTable
 70
               2
  0
STYLE
  5
17
100
AcDbSymbolTableRecord
100
AcDbTextStyleTableRecord
  2
Standard
 70
               0
 40
0.0
 41
1.0
 50
0.0
 71
               0
 42
0.0
  3
txt
  4
BIGFONT.SHX
  0
STYLE
  5
32
100
AcDbSymbolTableRecord
100
AcDbTextStyleTableRecord
  2
ＭＳ ゴシック
 70
               0
 40
0.0
 41
1.0
 50
0.0
 71
               0
 42
0.0
  3

  4
ＭＳ ゴシック
1001
ACAD
1000
ＭＳ ゴシック
1071
        0
  0
ENDTAB
  0
TABLE
  2
VIEW
  5
5
100
AcDbSymbolTable
 70
               0
  0
ENDTAB
  0
TABLE
  2
UCS
  5
6
100
AcDbSymbolTable
 70
               0
  0
ENDTAB
  0
TABLE
  2
APPID
  5
8
100
AcDbSymbolTable
 70
               1
  0
APPID
  5
16
100
AcDbSymbolTableRecord
100
AcDbRegAppTableRecord
  2
ACAD
 70
               0
  0
ENDTAB
  0
TABLE
  2
DIMSTYLE
  5
9
100
AcDbSymbolTable
 70
               3
100
AcDbDimStyleTable
 71
               0
  0
DIMSTYLE
105
18
100
AcDbSymbolTableRecord
100
AcDbDimStyleTableRecord
  2
Standard
 70
               0
  3

  4

 40
1.0
 41
0.18
 42
0.0625
 43
0.38
 44
0.18
 45
0.0
 46
0.0
 47
0.0
 48
0.0
 71
               0
 72
               0
 73
               1
 74
               1
 75
               0
 76
               0
 77
               0
 78
               0
 79
               0
140
0.18
141
0.09
142
0.0
143
25.399999999999999
144
1.0
145
0.0
146
1.0
147
0.09
148
0.0
170
               0
171
               2
172
               0
173
               0
174
               0
175
               0
176
               0
177
               0
178
               0
179
               0
271
               4
272
               4
273
               2
274
               2
275
               0
276
               0
277
               2
278
              46
279
               0
280
               0
281
               0
282
               0
283
               1
284
               0
285
               0
286
               0
288
               0
289
               3
340
17
341
0
342
0
343
0
344
0
371
              -2
372
              -2
  0
DIMSTYLE
105
4C
100
AcDbSymbolTableRecord
100
AcDbDimStyleTableRecord
  2
tform線あり
 70
               0
  3
<>
  4
[]
 40
1.0
 41
3.999755859375
 42
24.999999999999996
 43
0.9999999999999999
 44
0.0
 45
0.0
 46
0.0
 47
0.0
 48
0.0
 71
               0
 72
               0
 73
               0
 74
               0
 75
               0
 76
               0
 77
               1
 78
              11
 79
               0
140
24.432617187500004
141
0.0
142
0.0
143
1.0
144
1.0
145
0.0
146
1.0
147
0.4999999999999999
148
0.0
170
               0
171
               1
172
               0
173
               0
174
               1
175
               0
176
               0
177
               0
178
               0
179
               2
271
               1
272
               1
273
               2
274
               2
275
               0
276
               2
277
               2
278
              46
279
               0
280
               0
281
               0
282
               0
283
               1
284
              11
285
              11
286
              11
288
               0
289
               0
340
32
341
44
342
44
343
0
344
0
371
              -2
372
              -2
  0
DIMSTYLE
105
51
100
AcDbSymbolTableRecord
100
AcDbDimStyleTableRecord
  2
JIS
 70
               0
  3
<>
  4
[]
 40
1.0
 41
31.75
 42
0.0
 43
6.9999999999999396
 44
19.999999999996199
 45
0.0
 46
0.0
 47
0.0
 48
0.0
 71
               0
 72
               0
 73
               0
 74
               0
 75
               0
 76
               0
 77
               1
 78
              11
 79
               0
140
24.432617187500004
141
0.0
142
0.0
143
1.0
144
1.0
145
0.0
146
1.0
147
1.00000000000108
148
0.0
170
               0
171
               1
172
               0
173
               0
174
               1
175
               0
176
               0
177
               0
178
               0
179
               2
271
               1
272
               1
273
               2
274
               2
275
               0
276
               2
277
               2
278
              46
279
               0
280
               0
281
               0
282
               0
283
               1
284
              11
285
              11
286
              11
288
               0
289
               0
340
32
341
4D
342
4D
343
0
344
0
371
              -2
372
              -2
  0
ENDTAB
  0
TABLE
  2
BLOCK_RECORD
  5
1
100
AcDbSymbolTable
 70
              17
  0
BLOCK_RECORD
  5
A
100
AcDbSymbolTableRecord
100
AcDbBlockTableRecord
  2
*MODEL_SPACE
340
20
  0
BLOCK_RECORD
  5
B
100
AcDbSymbolTableRecord
100
AcDbBlockTableRecord
  2
*PAPER_SPACE
340
21
  0
BLOCK_RECORD
  5
44
100
AcDbSymbolTableRecord
100
AcDbBlockTableRecord
  2
_DOT
340
0
  0
BLOCK_RECORD
  5
4D
100
AcDbSymbolTableRecord
100
AcDbBlockTableRecord
  2
VW_FILLEDARROW
340
0
  0
BLOCK_RECORD
  5
23
100
AcDbSymbolTableRecord
100
AcDbBlockTableRecord
  2
グループ
340
0
102
{BLKREFS
331
119
102
}
  0
BLOCK_RECORD
  5
24
100
AcDbSymbolTableRecord
100
AcDbBlockTableRecord
  2
*D3
340
0
  0
BLOCK_RECORD
  5
25
100
AcDbSymbolTableRecord
100
AcDbBlockTableRecord
  2
*D4
340
0
  0
BLOCK_RECORD
  5
26
100
AcDbSymbolTableRecord
100
AcDbBlockTableRecord
  2
*D5
340
0
  0
BLOCK_RECORD
  5
27
100
AcDbSymbolTableRecord
100
AcDbBlockTableRecord
  2
*D6
340
0
  0
BLOCK_RECORD
  5
28
100
AcDbSymbolTableRecord
100
AcDbBlockTableRecord
  2
*D7
340
0
  0
BLOCK_RECORD
  5
29
100
AcDbSymbolTableRecord
100
AcDbBlockTableRecord
  2
*D8
340
0
  0
BLOCK_RECORD
  5
2A
100
AcDbSymbolTableRecord
100
AcDbBlockTableRecord
  2
*D9
340
0
  0
BLOCK_RECORD
  5
2B
100
AcDbSymbolTableRecord
100
AcDbBlockTableRecord
  2
*D10
340
0
  0
BLOCK_RECORD
  5
2C
100
AcDbSymbolTableRecord
100
AcDbBlockTableRecord
  2
*D11
340
0
  0
BLOCK_RECORD
  5
2D
100
AcDbSymbolTableRecord
100
AcDbBlockTableRecord
  2
*D12
340
0
  0
BLOCK_RECORD
  5
2E
100
AcDbSymbolTableRecord
100
AcDbBlockTableRecord
  2
*D13
340
0
  0
BLOCK_RECORD
  5
2F
100
AcDbSymbolTableRecord
100
AcDbBlockTableRecord
  2
*D14
340
0
  0
BLOCK_RECORD
  5
30
100
AcDbSymbolTableRecord
100
AcDbBlockTableRecord
  2
*D15
340
0
  0
BLOCK_RECORD
  5
31
100
AcDbSymbolTableRecord
100
AcDbBlockTableRecord
  2
*D16
340
0
  0
ENDTAB
  0
ENDSEC
  0
SECTION
  2
BLOCKS
  0
BLOCK
  5
D
100
AcDbEntity
  8
0
390
0
100
AcDbBlockBegin
  2
*MODEL_SPACE
 70
               0
 10
0.0
 20
0.0
 30
0.0
  3
*MODEL_SPACE
  1

  0
ENDBLK
  5
E
100
AcDbEntity
  8
0
390
0
100
AcDbBlockEnd
  0
BLOCK
  5
F
100
AcDbEntity
 67
               1
  8
0
390
0
100
AcDbBlockBegin
  2
*PAPER_SPACE
 70
               0
 10
0.0
 20
0.0
 30
0.0
  3
*PAPER_SPACE
  1

  0
ENDBLK
  5
10
100
AcDbEntity
 67
               1
  8
0
390
0
100
AcDbBlockEnd
  0
BLOCK
  5
45
100
AcDbEntity
  8
0
390
0
100
AcDbBlockBegin
  2
_DOT
 70
               0
 10
0.0
 20
0.0
 30
0.0
  3
_DOT
  1

  0
POLYLINE
  5
46
100
AcDbEntity
  8
0
370
              -2
390
0
  6
ByBlock
 62
               0
100
AcDb2dPolyline
 66
               1
 10
0.0
 20
0.0
 30
0.0
 70
               1
 40
0.5
 41
0.5
  0
VERTEX
  5
47
100
AcDbEntity
  8
0
370
              -2
390
0
  6
ByBlock
 62
               0
100
AcDbVertex
100
AcDb2dVertex
 10
-0.25
 20
0.0
 30
0.0
 42
1.0
  0
VERTEX
  5
48
100
AcDbEntity
  8
0
370
              -2
390
0
  6
ByBlock
 62
               0
100
AcDbVertex
100
AcDb2dVertex
 10
0.25
 20
0.0
 30
0.0
 42
1.0
  0
SEQEND
  5
49
100
AcDbEntity
  8
0
390
0
  0
LINE
  5
4A
100
AcDbEntity
  8
0
370
              -2
390
0
  6
ByBlock
 62
               0
100
AcDbLine
 10
-0.5
 20
0.0
 30
0.0
 11
-1.0
 21
0.0
 31
0.0
  0
ENDBLK
  5
4B
100
AcDbEntity
  8
0
390
0
100
AcDbBlockEnd
  0
BLOCK
  5
4E
100
AcDbEntity
  8
0
370
              -2
390
0
  6
ByBlock
 62
               0
100
AcDbBlockBegin
  2
VW_FILLEDARROW
 70
               0
 10
0.0
 20
0.0
 30
0.0
  3
VW_FILLEDARROW
  1

  0
SOLID
  5
4F
100
AcDbEntity
  8
0
370
              -2
390
0
 62
               0
100
AcDbTrace
 10
0.0
 20
0.0
 30
0.0
 11
-0.9921874999999999
 21
-0.2658558393652545
 31
0.0
 12
-0.9921874999999999
 22
0.2658558393652548
 32
0.0
 13
-0.9921874999999999
 23
0.2658558393652548
 33
0.0
  0
ENDBLK
  5
50
100
AcDbEntity
  8
0
390
0
100
AcDbBlockEnd
  0
BLOCK
  5
52
100
AcDbEntity
  8
template
390
0
100
AcDbBlockBegin
  2
グループ
 70
               0
 10
0.0
 20
0.0
 30
0.0
  3
グループ
  1

  0
LWPOLYLINE
  5
53
100
AcDbEntity
  8
0
370
              15
390
0
  6
Continuous
 62
               7
100
AcDbPolyline
 90
        8
 70
             129
 10
-680.53339132578799
 20
-2412.0039136958562
 10
-680.53339132578799
 20
-2418.0013023894321
 10
-690.03458824379129
 20
-2418.0013023894321
 10
-690.03458824379129
 20
-2442.4522656529407
 10
-698.38996550557408
 20
-2442.4522656529407
 10
-698.38996550557408
 20
-2418.0013023894321
 10
-707.72292245188351
 20
-2418.0013023894321
 10
-707.72292245188351
 20
-2412.0039136958562
  0
LWPOLYLINE
  5
54
100
AcDbEntity
  8
0
370
              15
390
0
  6
Continuous
 62
               7
100
AcDbPolyline
 90
      101
 70
             128
 10
-667.80509949523105
 20
-2412.7321621887927
 10
-667.78974946644405
 20
-2412.7278014321068
 42
-0.0222221607808288
 10
-667.499744889775
 20
-2412.659176966863
 10
-667.48395112578226
 20
-2412.6561735437663
 42
-0.0146883565584929
 10
-667.22124842055723
 20
-2412.6141703568164
 42
-0.0127458844181768
 10
-666.95660945339887
 20
-2412.5866333887438
 10
-666.89415437509138
 20
-2412.581739966156
 42
-0.0198099018571191
 10
-666.50330526562834
 20
-2412.5666548087593
 10
-666.45149379617078
 20
-2412.5667085844243
 42
-0.0147617382755248
 10
-665.95687033519141
 20
-2412.5818286096696
 10
-665.88417888033291
 20
-2412.5862012165562
 42
-0.0162624549012037
 10
-665.49402525085702
 20
-2412.6224340918293
 10
-665.37249285957841
 20
-2412.6377206508287
 42
-0.0080020874654618
 10
-665.22691382850621
 20
-2412.6584034980942
 10
-665.18859435789477
 20
-2412.6644747759078
 42
-0.0053821929665952
 10
-665.12011025259642
 20
-2412.6760822997267
 10
-665.84651595179503
 20
-2414.8570107554406
 42
0.0108667757383809
 10
-665.91383302192196
 20
-2414.8438236402212
 10
-665.95130104511531
 20
-2414.8373258976262
 42
0.0170663203319361
 10
-666.09451783202644
 20
-2414.8174963003353
 10
-666.16239316471388
 20
-2414.8104491297472
 42
0.0220162375267471
 10
-666.44277257256851
 20
-2414.7937667689771
 10
-666.52062813962311
 20
-2414.7925674017106
 42
0.0282606915782528
 10
-666.85626446319918
 20
-2414.8063706786797
 10
-666.90017773697457
 20
-2414.8106706686835
 42
0.0169677213685568
 10
-667.1461022319304
 20
-2414.8432077182351
 42
0.0190576269873896
 10
-667.38901019451862
 20
-2414.8933545903433
 10
-667.39526938262134
 20
-2414.8948975644507
 42
0.0213685642847977
 10
-667.64565386709751
 20
-2414.9680978495553
 10
-667.65114376201529
 20
-2414.9699608456149
 42
0.0237595297600647
 10
-667.90463864691151
 20
-2415.0696453675096
 10
-667.90974072094366
 20
-2415.0719371429886
 42
0.0261857468817228
 10
-668.16191149717474
 20
-2415.2014734803633
 10
-668.17233768626136
 20
-2415.2075389548318
 42
0.0272553062021703
 10
-668.40876746149911
 20
-2415.3629111607761
 10
-668.44353047500636
 20
-2415.3885723088665
 42
0.0325996893167615
 10
-668.59368581866011
 20
-2415.5153201818393
 10
-668.61739524778341
 20
-2415.5381382103524
 42
0.0138050960645709
 10
-668.70927840399327
 20
-2415.6315878719038
 42
0.0125280103793376
 10
-668.79612093682522
 20
-2415.7297511985021
 10
-668.81980138173515
 20
-2415.7579096966911
 42
0.0205218024737295
 10
-668.94490145725001
 20
-2415.9197030109221
 10
-668.96736779773596
 20
-2415.9513627407473
 42
0.0163110129584707
 10
-669.12307817698672
 20
-2416.1866931758163
 10
-669.12580207303824
 20
-2416.1911169378027
 42
0.0131897341892092
 10
-669.27260259394393
 20
-2416.4442490301667
 10
-669.27430268931062
 20
-2416.447367269303
 42
0.0107895576071781
 10
-669.41207939152082
 20
-2416.713582478937
 10
-669.4128122810464
 20
-2416.7150767115845
 42
0.0091371507222346
 10
-669.54129222969459
 20
-2416.9896019093412
 10
-669.5710378611052
 20
-2417.0563084165033
 42
0.01354183263594
 10
-669.74275180017605
 20
-2417.4712462017701
 10
-669.7763566086112
 20
-2417.5591123440531
 42
0.0092834542411402
 10
-669.94758566853193
 20
-2418.0330108423586
 10
-669.97320279624614
 20
-2418.1082519121419
 42
0.0054261043582988
 10
-670.08084094454262
 20
-2418.4360158852169
 10
-670.09836693072589
 20
-2418.4914040474655
 42
0.0008225090831019
 10
-670.16703698255003
 20
-2418.7096728055958
 10
-671.15172611448349
 20
-2421.7345640988524
 10
-667.91910227440962
 20
-2421.7345640988524
 10
-668.42329470426307
 20
-2423.6390423972052
 10
-671.67935098624639
 20
-2423.6390423972052
 10
-677.50850001860022
 20
-2442.4522654632101
 10
-679.33359762891052
 20
-2442.4522654632101
 10
-673.4989195934096
 20
-2423.6390423972052
 10
-675.90403596244994
 20
-2423.6390423972052
 10
-675.39984353259649
 20
-2421.7345640988524
 10
-672.97129472164647
 20
-2421.7345640988524
 10
-672.11113980345783
 20
-2419.0981510981537
 42
-0.0005863560627778
 10
-672.07440512527398
 20
-2418.9813246779245
 10
-671.99831729159393
 20
-2418.7403323784765
 42
-0.0087522378924107
 10
-671.79884914813795
 20
-2418.1450562913324
 10
-671.70658487272271
 20
-2417.884916122814
 42
-0.0077400953825505
 10
-671.44865121359248
 20
-2417.1919114452685
 10
-671.43288624201432
 20
-2417.1514805618845
 42
-0.0082369946332085
 10
-671.18580177140166
 20
-2416.5474014956872
 42
-0.0085725238365055
 10
-670.9185556753996
 20
-2415.9519754564017
 10
-670.81692607439174
 20
-2415.7355543544154
 42
-0.016810941059533
 10
-670.52998164566134
 20
-2415.1743468283103
 10
-670.40413825523899
 20
-2414.9473827953789
 42
-0.0007817726849861
 10
-670.34985390514566
 20
-2414.8498385502817
 10
-670.3497255991299
 20
-2414.8496088415482
 42
-0.0036626142151762
 10
-670.29483773510719
 20
-2414.7530109615768
 42
-0.0080221150684481
 10
-670.2377134797016
 20
-2414.6577317268261
 10
-670.2070135283393
 20
-2414.6083407777019
 42
-0.0202139325570945
 10
-670.07935778853164
 20
-2414.4203591770192
 10
-670.02529032334496
 20
-2414.3472803127797
 42
-0.0249323791798386
 10
-669.76612752962751
 20
-2414.0312350706272
 10
-669.74198771549879
 20
-2414.004620797713
 42
-0.0242132121531622
 10
-669.40230697395521
 20
-2413.6647373115075
 10
-669.35439540120865
 20
-2413.6212281753251
 42
-0.025101752786176
 10
-669.0704137005655
 20
-2413.3882354295579
 10
-669.06896822374733
 20
-2413.3871661719754
 42
-0.0130868069036284
 10
-668.77070757379443
 20
-2413.1783857034366
 10
-668.76914575465378
 20
-2413.1773522631629
 42
-0.0290329526385775
 10
-668.45803461325841
 20
-2412.9965267615326
 10
-668.42818905127001
 20
-2412.9814243786918
 42
-0.016025019004527
 10
-668.16228463750758
 20
-2412.857408268479
 42
-0.02676003747747
 10
-667.8870085600347
 20
-2412.7566599479292
 10
-667.86027264051802
 20
-2412.7484673891049
 42
-0.004998158768895
 10
-667.80509949523105
 20
-2412.7321621887927
 42
-0.004998158768895
  0
LWPOLYLINE
  5
55
100
AcDbEntity
  8
0
370
              15
390
0
  6
Continuous
 62
               7
100
AcDbPolyline
 90
      118
 70
             128
 10
-647.99073193078414
 20
-2421.80854742668
 10
-646.11561000628467
 20
-2421.80854742668
 10
-646.95364891188456
 20
-2424.4901139530803
 42
-0.0010587229245045
 10
-646.92219309631014
 20
-2424.4532094197216
 10
-646.86399900568063
 20
-2424.3852271635487
 42
-0.0071874740411182
 10
-646.71362378758727
 20
-2424.2145864715253
 10
-646.57190101432036
 20
-2424.0583503302068
 42
-0.0148118053512307
 10
-646.12177172160568
 20
-2423.5907364841919
 10
-646.03454938670711
 20
-2423.5053391633414
 42
-0.008627335868818
 10
-645.69900058569738
 20
-2423.1879635293235
 10
-645.65516686947194
 20
-2423.1479138849909
 42
-0.0103138323113653
 10
-645.39714316723803
 20
-2422.9217507476524
 10
-645.35136876091531
 20
-2422.883268700396
 42
-0.006020674858267
 10
-645.17852069679873
 20
-2422.7414740496379
 10
-645.17648956592495
 20
-2422.7398483440165
 42
-0.006706902731343
 10
-645.00419675125022
 20
-2422.6056977102116
 10
-645.00164798532523
 20
-2422.6037675403372
 42
-0.0076184352047138
 10
-644.83074271945293
 20
-2422.4783926650925
 42
-0.0089652861686405
 10
-644.65578175672022
 20
-2422.3587594047608
 10
-644.61943003657052
 20
-2422.3348481912749
 42
-0.0156916245941794
 10
-644.4234705394133
 20
-2422.2145857048026
 42
-0.0023299011052241
 10
-644.22320849541552
 20
-2422.1014077652517
 10
-644.20782436305365
 20
-2422.0928077701969
 42
-0.010766934148669
 10
-643.97358753795129
 20
-2421.9684076368467
 10
-643.9513227368775
 20
-2421.9571908868975
 42
-0.0078058045891329
 10
-643.66773261892615
 20
-2421.8198294312597
 10
-643.65782553121562
 20
-2421.8152203033906
 42
-0.0181829330476978
 10
-643.34751612660421
 20
-2421.6843565622962
 10
-643.29346068403004
 20
-2421.6638414423501
 42
-0.0208411536032493
 10
-642.94437571658295
 20
-2421.5477509798584
 10
-642.93001961645928
 20
-2421.543632534906
 42
-0.0222799817137773
 10
-642.60129982253829
 20
-2421.4649909687641
 10
-642.59241085929398
 20
-2421.4632789581779
 42
-0.0215509523881807
 10
-642.27593989102138
 20
-2421.416363269645
 10
-642.23345792997407
 20
-2421.4119257428542
 42
-0.0182545924874424
 10
-641.99934915066729
 20
-2421.3960819174636
 10
-641.95994813432708
 20
-2421.3948573723846
 42
-0.0072962856552968
 10
-641.80402525463023
 20
-2421.3922880438622
 10
-641.77492558403969
 20
-2421.3922332084585
 42
-0.0059227516323175
 10
-641.6771760849133
 20
-2421.3932069202488
 10
-641.6479338675673
 20
-2421.3938446868492
 42
-0.0011833111861451
 10
-641.60868258370897
 20
-2421.3947936911618
 10
-642.40406917931614
 20
-2423.9335276362608
 42
0.0143932051543327
 10
-642.43047056166267
 20
-2423.9233286662175
 10
-642.43774253408401
 20
-2423.9207574473585
 42
0.0234388603611765
 10
-642.47957340002256
 20
-2423.9081382116415
 10
-642.48825506292883
 20
-2423.905957249638
 42
0.0199162742953285
 10
-642.54854389700904
 20
-2423.893340514303
 10
-642.56935783481504
 20
-2423.8898433148747
 42
0.0293643550671212
 10
-642.67243269357527
 20
-2423.8786932692215
 10
-642.69711787429446
 20
-2423.8774816522027
 42
0.0214606686861245
 10
-642.85025879023692
 20
-2423.8765430917847
 10
-642.85963070106493
 20
-2423.8768880033294
 42
0.0167564054181874
 10
-643.03115089218488
 20
-2423.8889650456986
 10
-643.03961068493231
 20
-2423.8898463861246
 42
0.0137677553255665
 10
-643.22696399819586
 20
-2423.9145956946682
 10
-643.23431573770495
 20
-2423.9157736146362
 42
0.011849726146436
 10
-643.43481350179684
 20
-2423.9527909648232
 10
-643.44096350905352
 20
-2423.9540778275455
 42
0.0106421143891016
 10
-643.65184439633413
 20
-2424.002910203119
 10
-643.65675320472758
 20
-2424.0041575458054
 42
0.0099746379698924
 10
-643.87521167388786
 20
-2424.0643320741196
 10
-643.93675971406037
 20
-2424.0826139527508
 42
0.0191613675863497
 10
-644.27274417657782
 20
-2424.1965913330382
 10
-644.36080394932026
 20
-2424.2302782433612
 42
0.0205274080141521
 10
-644.74611072122207
 20
-2424.3961066511883
 10
-644.80376000320246
 20
-2424.4237746157601
 42
0.0181256912199299
 10
-645.06203694387102
 20
-2424.5594584347386
 10
-645.11499232718802
 20
-2424.5897760479552
 42
0.0140709242404956
 10
-645.25994726181329
 20
-2424.6782707213879
 10
-645.28619613042929
 20
-2424.6953275401015
 42
0.0086667884382813
 10
-645.37512229197432
 20
-2424.7553302079859
 42
0.0036408192029117
 10
-645.46255553001686
 20
-2424.8175110657849
 10
-645.49778240447631
 20
-2424.8429520116911
 42
0.0052260781260702
 10
-645.65401110186019
 20
-2424.9582843983198
 10
-645.67021795812707
 20
-2424.9705125089436
 42
0.0050024435883764
 10
-645.85622130117179
 20
-2425.1137950771945
 10
-645.87153945770103
 20
-2425.1258410996516
 42
0.0136138710276923
 10
-646.08198072602715
 20
-2425.3008076045658
 10
-646.11564860181988
 20
-2425.3303865772791
 42
0.0172815186919152
 10
-646.38005214348459
 20
-2425.5793832499048
 10
-646.38261448932508
 20
-2425.5819690670496
 42
0.0189403857987926
 10
-646.63319628790452
 20
-2425.8547743318545
 10
-646.66582778144118
 20
-2425.8931182633523
 42
0.0185044199498021
 10
-646.85778422042017
 20
-2426.1363668444737
 42
0.0088565243894445
 10
-647.0362443270468
 20
-2426.3898832646214
 10
-647.04542230669711
 20
-2426.4034246443839
 42
0.0157195347232752
 10
-647.22864291303244
 20
-2426.6929468537019
 10
-647.27472585496093
 20
-2426.7710990507189
 42
0.0095451879773728
 10
-647.4398114050997
 20
-2427.0636936930769
 10
-647.45095932403001
 20
-2427.0843643652101
 42
0.0100351706261719
 10
-647.58300307318859
 20
-2427.3414199256995
 42
0.0086935915423425
 10
-647.70533422498397
 20
-2427.6032530711072
 10
-647.70865496639715
 20
-2427.6106953940762
 42
0.0072580174865761
 10
-647.82900141834284
 20
-2427.8912873856607
 10
-647.8322630516484
 20
-2427.8992074116768
 42
0.0060005122611152
 10
-647.95146371999249
 20
-2428.1988170822856
 10
-647.95467469833272
 20
-2428.2071786101869
 42
0.004901778697853
 10
-648.0735748571924
 20
-2428.526107590797
 10
-648.07674066358061
 20
-2428.5348605280215
 42
0.0039415167601227
 10
-648.19617694163526
 20
-2428.8734025904291
 10
-648.19930804428941
 20
-2428.8825057913109
 42
0.0031035838766619
 10
-648.32011282997939
 20
-2429.240945653075
 10
-648.32322287451291
 20
-2429.2503662744593
 42
0.0025070747149442
 10
-648.44612422582634
 20
-2429.6290134913975
 10
-648.48341812225362
 20
-2429.7459051566561
 42
0.0029081910287889
 10
-648.67543642006649
 20
-2430.360068814954
 10
-648.71623958858152
 20
-2430.4932920572237
 42
0.0009266453732041
 10
-648.98465696289281
 20
-2431.375516517136
 10
-649.00554443553722
 20
-2431.4446283963844
 42
-0.0005809993666069
 10
-649.28288111612801
 20
-2432.3584365030219
 10
-649.34916291440152
 20
-2432.5759214351833
 42
-0.001201870816503
 10
-649.49614722383012
 20
-2433.0540840997028
 10
-649.54846707537786
 20
-2433.2228432405109
 42
-0.0002691059606393
 10
-649.59203655656427
 20
-2433.3631108609102
 10
-652.42499245485351
 20
-2442.4522654632101
 10
-654.24298134683204
 20
-2442.4522654632101
 10
-647.99073193078414
 20
-2421.80854742668
  0
SPLINE
  5
56
100
AcDbEntity
  8
0
370
              15
390
0
  6
Continuous
 62
               7
100
AcDbSpline
210
0.0
220
0.0
230
1.0
 70
              13
 71
               2
 72
             782
 73
             779
 74
               0
 42
0.000001
 43
0.000001
 40
0.0
 40
0.0
 40
0.0
 40
1.0
 40
1.0
 40
2.0
 40
2.0
 40
3.0
 40
3.0
 40
4.0
 40
4.0
 40
5.0
 40
5.0
 40
6.0
 40
6.0
 40
7.0
 40
7.0
 40
8.0
 40
8.0
 40
9.0
 40
9.0
 40
10.0
 40
10.0
 40
11.0
 40
11.0
 40
12.0
 40
12.0
 40
13.0
 40
13.0
 40
14.0
 40
14.0
 40
15.0
 40
15.0
 40
16.0
 40
16.0
 40
17.0
 40
17.0
 40
18.0
 40
18.0
 40
19.0
 40
19.0
 40
20.0
 40
20.0
 40
21.0
 40
21.0
 40
22.0
 40
22.0
 40
23.0
 40
23.0
 40
24.0
 40
24.0
 40
25.0
 40
25.0
 40
26.0
 40
26.0
 40
27.0
 40
27.0
 40
28.0
 40
28.0
 40
29.0
 40
29.0
 40
30.0
 40
30.0
 40
31.0
 40
31.0
 40
32.0
 40
32.0
 40
33.0
 40
33.0
 40
34.0
 40
34.0
 40
35.0
 40
35.0
 40
36.0
 40
36.0
 40
37.0
 40
37.0
 40
38.0
 40
38.0
 40
39.0
 40
39.0
 40
40.0
 40
40.0
 40
41.0
 40
41.0
 40
42.0
 40
42.0
 40
43.0
 40
43.0
 40
44.0
 40
44.0
 40
45.0
 40
45.0
 40
46.0
 40
46.0
 40
47.0
 40
47.0
 40
48.0
 40
48.0
 40
49.0
 40
49.0
 40
50.0
 40
50.0
 40
51.0
 40
51.0
 40
52.0
 40
52.0
 40
53.0
 40
53.0
 40
54.0
 40
54.0
 40
55.0
 40
55.0
 40
56.0
 40
56.0
 40
57.0
 40
57.0
 40
58.0
 40
58.0
 40
59.0
 40
59.0
 40
60.0
 40
60.0
 40
61.0
 40
61.0
 40
62.0
 40
62.0
 40
63.0
 40
63.0
 40
64.0
 40
64.0
 40
65.0
 40
65.0
 40
66.0
 40
66.0
 40
67.0
 40
67.0
 40
68.0
 40
68.0
 40
69.0
 40
69.0
 40
70.0
 40
70.0
 40
71.0
 40
71.0
 40
72.0
 40
72.0
 40
73.0
 40
73.0
 40
74.0
 40
74.0
 40
75.0
 40
75.0
 40
76.0
 40
76.0
 40
77.0
 40
77.0
 40
78.0
 40
78.0
 40
79.0
 40
79.0
 40
80.0
 40
80.0
 40
81.0
 40
81.0
 40
82.0
 40
82.0
 40
83.0
 40
83.0
 40
84.0
 40
84.0
 40
85.0
 40
85.0
 40
86.0
 40
86.0
 40
87.0
 40
87.0
 40
88.0
 40
88.0
 40
89.0
 40
89.0
 40
90.0
 40
90.0
 40
91.0
 40
91.0
 40
92.0
 40
92.0
 40
93.0
 40
93.0
 40
94.0
 40
94.0
 40
95.0
 40
95.0
 40
96.0
 40
96.0
 40
97.0
 40
97.0
 40
98.0
 40
98.0
 40
99.0
 40
99.0
 40
100.0
 40
100.0
 40
101.0
 40
101.0
 40
102.0
 40
102.0
 40
103.0
 40
103.0
 40
104.0
 40
104.0
 40
105.0
 40
105.0
 40
106.0
 40
106.0
 40
107.0
 40
107.0
 40
108.0
 40
108.0
 40
109.0
 40
109.0
 40
110.0
 40
110.0
 40
111.0
 40
111.0
 40
112.0
 40
112.0
 40
113.0
 40
113.0
 40
114.0
 40
114.0
 40
115.0
 40
115.0
 40
116.0
 40
116.0
 40
117.0
 40
117.0
 40
118.0
 40
118.0
 40
119.0
 40
119.0
 40
120.0
 40
120.0
 40
121.0
 40
121.0
 40
122.0
 40
122.0
 40
123.0
 40
123.0
 40
124.0
 40
124.0
 40
125.0
 40
125.0
 40
126.0
 40
126.0
 40
127.0
 40
127.0
 40
128.0
 40
128.0
 40
129.0
 40
129.0
 40
130.0
 40
130.0
 40
131.0
 40
131.0
 40
132.0
 40
132.0
 40
133.0
 40
133.0
 40
134.0
 40
134.0
 40
135.0
 40
135.0
 40
136.0
 40
136.0
 40
137.0
 40
137.0
 40
138.0
 40
138.0
 40
139.0
 40
139.0
 40
140.0
 40
140.0
 40
141.0
 40
141.0
 40
142.0
 40
142.0
 40
143.0
 40
143.0
 40
144.0
 40
144.0
 40
145.0
 40
145.0
 40
146.0
 40
146.0
 40
147.0
 40
147.0
 40
148.0
 40
148.0
 40
149.0
 40
149.0
 40
150.0
 40
150.0
 40
151.0
 40
151.0
 40
152.0
 40
152.0
 40
153.0
 40
153.0
 40
154.0
 40
154.0
 40
155.0
 40
155.0
 40
156.0
 40
156.0
 40
157.0
 40
157.0
 40
158.0
 40
158.0
 40
159.0
 40
159.0
 40
160.0
 40
160.0
 40
161.0
 40
161.0
 40
162.0
 40
162.0
 40
163.0
 40
163.0
 40
164.0
 40
164.0
 40
165.0
 40
165.0
 40
166.0
 40
166.0
 40
167.0
 40
167.0
 40
168.0
 40
168.0
 40
169.0
 40
169.0
 40
170.0
 40
170.0
 40
171.0
 40
171.0
 40
172.0
 40
172.0
 40
173.0
 40
173.0
 40
174.0
 40
174.0
 40
175.0
 40
175.0
 40
176.0
 40
176.0
 40
177.0
 40
177.0
 40
178.0
 40
178.0
 40
179.0
 40
179.0
 40
180.0
 40
180.0
 40
181.0
 40
181.0
 40
182.0
 40
182.0
 40
183.0
 40
183.0
 40
184.0
 40
184.0
 40
185.0
 40
185.0
 40
186.0
 40
186.0
 40
187.0
 40
187.0
 40
188.0
 40
188.0
 40
189.0
 40
189.0
 40
190.0
 40
190.0
 40
191.0
 40
191.0
 40
192.0
 40
192.0
 40
193.0
 40
193.0
 40
194.0
 40
194.0
 40
195.0
 40
195.0
 40
196.0
 40
196.0
 40
197.0
 40
197.0
 40
198.0
 40
198.0
 40
199.0
 40
199.0
 40
200.0
 40
200.0
 40
201.0
 40
201.0
 40
202.0
 40
202.0
 40
203.0
 40
203.0
 40
204.0
 40
204.0
 40
205.0
 40
205.0
 40
206.0
 40
206.0
 40
207.0
 40
207.0
 40
208.0
 40
208.0
 40
209.0
 40
209.0
 40
210.0
 40
210.0
 40
211.0
 40
211.0
 40
212.0
 40
212.0
 40
213.0
 40
213.0
 40
214.0
 40
214.0
 40
215.0
 40
215.0
 40
216.0
 40
216.0
 40
217.0
 40
217.0
 40
218.0
 40
218.0
 40
219.0
 40
219.0
 40
220.0
 40
220.0
 40
221.0
 40
221.0
 40
222.0
 40
222.0
 40
223.0
 40
223.0
 40
224.0
 40
224.0
 40
225.0
 40
225.0
 40
226.0
 40
226.0
 40
227.0
 40
227.0
 40
228.0
 40
228.0
 40
229.0
 40
229.0
 40
230.0
 40
230.0
 40
231.0
 40
231.0
 40
232.0
 40
232.0
 40
233.0
 40
233.0
 40
234.0
 40
234.0
 40
235.0
 40
235.0
 40
236.0
 40
236.0
 40
237.0
 40
237.0
 40
238.0
 40
238.0
 40
239.0
 40
239.0
 40
240.0
 40
240.0
 40
241.0
 40
241.0
 40
242.0
 40
242.0
 40
243.0
 40
243.0
 40
244.0
 40
244.0
 40
245.0
 40
245.0
 40
246.0
 40
246.0
 40
247.0
 40
247.0
 40
248.0
 40
248.0
 40
249.0
 40
249.0
 40
250.0
 40
250.0
 40
251.0
 40
251.0
 40
252.0
 40
252.0
 40
253.0
 40
253.0
 40
254.0
 40
254.0
 40
255.0
 40
255.0
 40
256.0
 40
256.0
 40
257.0
 40
257.0
 40
258.0
 40
258.0
 40
259.0
 40
259.0
 40
260.0
 40
260.0
 40
261.0
 40
261.0
 40
262.0
 40
262.0
 40
263.0
 40
263.0
 40
264.0
 40
264.0
 40
265.0
 40
265.0
 40
266.0
 40
266.0
 40
267.0
 40
267.0
 40
268.0
 40
268.0
 40
269.0
 40
269.0
 40
270.0
 40
270.0
 40
271.0
 40
271.0
 40
272.0
 40
272.0
 40
273.0
 40
273.0
 40
274.0
 40
274.0
 40
275.0
 40
275.0
 40
276.0
 40
276.0
 40
277.0
 40
277.0
 40
278.0
 40
278.0
 40
279.0
 40
279.0
 40
280.0
 40
280.0
 40
281.0
 40
281.0
 40
282.0
 40
282.0
 40
283.0
 40
283.0
 40
284.0
 40
284.0
 40
285.0
 40
285.0
 40
286.0
 40
286.0
 40
287.0
 40
287.0
 40
288.0
 40
288.0
 40
289.0
 40
289.0
 40
290.0
 40
290.0
 40
291.0
 40
291.0
 40
292.0
 40
292.0
 40
293.0
 40
293.0
 40
294.0
 40
294.0
 40
295.0
 40
295.0
 40
296.0
 40
296.0
 40
297.0
 40
297.0
 40
298.0
 40
298.0
 40
299.0
 40
299.0
 40
300.0
 40
300.0
 40
301.0
 40
301.0
 40
302.0
 40
302.0
 40
303.0
 40
303.0
 40
304.0
 40
304.0
 40
305.0
 40
305.0
 40
306.0
 40
306.0
 40
307.0
 40
307.0
 40
308.0
 40
308.0
 40
309.0
 40
309.0
 40
310.0
 40
310.0
 40
311.0
 40
311.0
 40
312.0
 40
312.0
 40
313.0
 40
313.0
 40
314.0
 40
314.0
 40
315.0
 40
315.0
 40
316.0
 40
316.0
 40
317.0
 40
317.0
 40
318.0
 40
318.0
 40
319.0
 40
319.0
 40
320.0
 40
320.0
 40
321.0
 40
321.0
 40
322.0
 40
322.0
 40
323.0
 40
323.0
 40
324.0
 40
324.0
 40
325.0
 40
325.0
 40
326.0
 40
326.0
 40
327.0
 40
327.0
 40
328.0
 40
328.0
 40
329.0
 40
329.0
 40
330.0
 40
330.0
 40
331.0
 40
331.0
 40
332.0
 40
332.0
 40
333.0
 40
333.0
 40
334.0
 40
334.0
 40
335.0
 40
335.0
 40
336.0
 40
336.0
 40
337.0
 40
337.0
 40
338.0
 40
338.0
 40
339.0
 40
339.0
 40
340.0
 40
340.0
 40
341.0
 40
341.0
 40
342.0
 40
342.0
 40
343.0
 40
343.0
 40
344.0
 40
344.0
 40
345.0
 40
345.0
 40
346.0
 40
346.0
 40
347.0
 40
347.0
 40
348.0
 40
348.0
 40
349.0
 40
349.0
 40
350.0
 40
350.0
 40
351.0
 40
351.0
 40
352.0
 40
352.0
 40
353.0
 40
353.0
 40
354.0
 40
354.0
 40
355.0
 40
355.0
 40
356.0
 40
356.0
 40
357.0
 40
357.0
 40
358.0
 40
358.0
 40
359.0
 40
359.0
 40
360.0
 40
360.0
 40
361.0
 40
361.0
 40
362.0
 40
362.0
 40
363.0
 40
363.0
 40
364.0
 40
364.0
 40
365.0
 40
365.0
 40
366.0
 40
366.0
 40
367.0
 40
367.0
 40
368.0
 40
368.0
 40
369.0
 40
369.0
 40
370.0
 40
370.0
 40
371.0
 40
371.0
 40
372.0
 40
372.0
 40
373.0
 40
373.0
 40
374.0
 40
374.0
 40
375.0
 40
375.0
 40
376.0
 40
376.0
 40
377.0
 40
377.0
 40
378.0
 40
378.0
 40
379.0
 40
379.0
 40
380.0
 40
380.0
 40
381.0
 40
381.0
 40
382.0
 40
382.0
 40
383.0
 40
383.0
 40
384.0
 40
384.0
 40
385.0
 40
385.0
 40
386.0
 40
386.0
 40
387.0
 40
387.0
 40
388.0
 40
388.0
 40
389.0
 40
389.0
 40
389.0
 10
-637.66202748005151
 20
-2421.7976210633178
 30
0.0
 41
1.0
 10
-636.84360337133103
 20
-2421.7976210633178
 30
0.0
 41
1.0
 10
-636.02517926261055
 20
-2421.7976210633178
 30
0.0
 41
1.0
 10
-636.43893299812726
 20
-2423.1402473275675
 30
0.0
 41
1.0
 10
-636.85268673364408
 20
-2424.4828735918172
 30
0.0
 41
1.0
 10
-636.83434723846585
 20
-2424.4541728188897
 30
0.0
 41
0.999995726443789
 10
-636.81584024164169
 20
-2424.4255797687488
 30
0.0
 41
1.0
 10
-636.78541091750617
 20
-2424.3785668903756
 30
0.0
 41
1.0
 10
-636.75498159337076
 20
-2424.3315540120029
 30
0.0
 41
1.0
 10
-636.67561594826566
 20
-2424.2089352051012
 30
0.0
 41
0.9995394069081219
 10
-636.58895755671244
 20
-2424.091357143358
 30
0.0
 41
1.0
 10
-636.55320069445327
 20
-2424.0428422507653
 30
0.0
 41
1.0
 10
-636.51744383219409
 20
-2423.9943273581725
 30
0.0
 41
1.0
 10
-636.38371716437473
 20
-2423.8128870830437
 30
0.0
 41
0.9994460617143066
 10
-636.2382166830871
 20
-2423.6407446853946
 30
0.0
 41
1.0
 10
-636.23382850211101
 20
-2423.6355530050105
 30
0.0
 41
1.0
 10
-636.22944032113492
 20
-2423.6303613246268
 30
0.0
 41
1.0
 10
-636.09271620179652
 20
-2423.4686022877418
 30
0.0
 41
0.9994359394934216
 10
-635.94544197144774
 20
-2423.3163860865802
 30
0.0
 41
1.0
 10
-635.94305861749376
 20
-2423.3139227562065
 30
0.0
 41
1.0
 10
-635.94067526353979
 20
-2423.3114594258327
 30
0.0
 41
1.0
 10
-635.7981677410985
 20
-2423.1641698854173
 30
0.0
 41
0.9995293688567485
 10
-635.64689606011416
 20
-2423.0258966732517
 30
0.0
 41
1.0
 10
-635.62760230085132
 20
-2423.0082607876011
 30
0.0
 41
1.0
 10
-635.60830854158837
 20
-2422.99062490195
 30
0.0
 41
1.0
 10
-635.49562437913028
 20
-2422.8876234610862
 30
0.0
 41
0.9997087614803871
 10
-635.37810149017696
 20
-2422.7901791802897
 30
0.0
 41
1.0
 10
-635.35893541699852
 20
-2422.7742876017792
 30
0.0
 41
1.0
 10
-635.33976934382019
 20
-2422.7583960232691
 30
0.0
 41
1.0
 10
-635.2605786012158
 20
-2422.6927348994868
 30
0.0
 41
0.9999595338694709
 10
-635.18021933036675
 20
-2422.6285091688369
 30
0.0
 41
1.0
 10
-635.0998600595135
 20
-2422.5642834381833
 30
0.0
 41
0.9999749417504329
 10
-635.0185995251702
 20
-2422.5012018842367
 30
0.0
 41
1.0
 10
-634.99761337899497
 20
-2422.4849105969251
 30
0.0
 41
1.0
 10
-634.97662723281974
 20
-2422.4686193096136
 30
0.0
 41
1.0
 10
-634.89205934752022
 20
-2422.402970299775
 30
0.0
 41
0.9999792037124945
 10
-634.80665174776573
 20
-2422.3384175181427
 30
0.0
 41
1.0
 10
-634.78582692182863
 20
-2422.3226776958654
 30
0.0
 41
1.0
 10
-634.76500209589142
 20
-2422.3069378735886
 30
0.0
 41
1.0
 10
-634.72124414795064
 20
-2422.2738647364649
 30
0.0
 41
0.9999993373709261
 10
-634.67756246185309
 20
-2422.2406909410752
 30
0.0
 41
1.0
 10
-634.63388077570551
 20
-2422.2075171456481
 30
0.0
 41
0.9999160953817174
 10
-634.5893543647901
 20
-2422.1754860804531
 30
0.0
 41
1.0
 10
-634.55653247737064
 20
-2422.151874924868
 30
0.0
 41
1.0
 10
-634.52371058995129
 20
-2422.128263769283
 30
0.0
 41
1.0
 10
-634.4135404041931
 20
-2422.0490103929151
 30
0.0
 41
0.9980964527230894
 10
-634.29445141069084
 20
-2421.9839229200584
 30
0.0
 41
1.0
 10
-634.25741880376427
 20
-2421.9636829404662
 30
0.0
 41
1.0
 10
-634.22038619683781
 20
-2421.9434429608737
 30
0.0
 41
1.0
 10
-634.04105918356458
 20
-2421.8454327101726
 30
0.0
 41
0.9984572810573117
 10
-633.85197061720396
 20
-2421.7679104488252
 30
0.0
 41
1.0
 10
-633.84832434781129
 20
-2421.7664155564885
 30
0.0
 41
1.0
 10
-633.84467807841861
 20
-2421.7649206641518
 30
0.0
 41
1.0
 10
-633.66288205084913
 20
-2421.69038818748
 30
0.0
 41
0.998783852803358
 10
-633.47462939228581
 20
-2421.6341225473129
 30
0.0
 41
1.0
 10
-633.47039144308735
 20
-2421.6328558936229
 30
0.0
 41
1.0
 10
-633.4661534938889
 20
-2421.6315892399325
 30
0.0
 41
1.0
 10
-633.2863767337268
 20
-2421.5778569071472
 30
0.0
 41
0.9990652816206908
 10
-633.10263080201071
 20
-2421.5398532276054
 30
0.0
 41
1.0
 10
-633.09744240097825
 20
-2421.5387801244988
 30
0.0
 41
1.0
 10
-633.0922539999458
 20
-2421.5377070213917
 30
0.0
 41
1.0
 10
-632.91888487029428
 20
-2421.5018495480635
 30
0.0
 41
0.9992909934271146
 10
-632.74330910383651
 20
-2421.4791391155968
 30
0.0
 41
1.0
 10
-632.56773333737897
 20
-2421.4564286831301
 30
0.0
 41
0.9994553539448265
 10
-632.39104190428623
 20
-2421.4453493789242
 30
0.0
 41
1.0
 10
-632.35560749648721
 20
-2421.4431274908761
 30
0.0
 41
1.0
 10
-632.32017308868808
 20
-2421.440905602828
 30
0.0
 41
1.0
 10
-632.15394732212155
 20
-2421.430482540417
 30
0.0
 41
0.9990928098293771
 10
-631.98743753022177
 20
-2421.4342421816514
 30
0.0
 41
1.0
 10
-631.9488756949462
 20
-2421.4351128731842
 30
0.0
 41
1.0
 10
-631.91031385967062
 20
-2421.4359835647174
 30
0.0
 41
1.0
 10
-631.82092773831516
 20
-2421.4380018228862
 30
0.0
 41
0.9998382089205871
 10
-631.73167205553295
 20
-2421.4432339494138
 30
0.0
 41
1.0
 10
-631.73124214931397
 20
-2421.443259150316
 30
0.0
 41
1.0
 10
-631.73081224309499
 20
-2421.4432843512182
 30
0.0
 41
1.0
 10
-631.64241637274813
 20
-2421.4484660759417
 30
0.0
 41
0.9997558016758724
 10
-631.55433579554597
 20
-2421.4575485913083
 30
0.0
 41
1.0
 10
-631.55385965711685
 20
-2421.4575976887909
 30
0.0
 41
1.0
 10
-631.55338351868772
 20
-2421.4576467862735
 30
0.0
 41
1.0
 10
-631.46625521834574
 20
-2421.4666311066749
 30
0.0
 41
0.9996565144181603
 10
-631.37971736500299
 20
-2421.480168413364
 30
0.0
 41
1.0
 10
-631.37925143962457
 20
-2421.4802412990957
 30
0.0
 41
1.0
 10
-631.37878551424626
 20
-2421.480314184827
 30
0.0
 41
1.0
 10
-631.29317951166081
 20
-2421.4937057200532
 30
0.0
 41
0.9995321806867963
 10
-631.20855243133303
 20
-2421.5123062084822
 30
0.0
 41
1.0
 10
-631.20816323676263
 20
-2421.5123917509477
 30
0.0
 41
1.0
 10
-631.20777404219234
 20
-2421.5124772934132
 30
0.0
 41
1.0
 10
-631.12392535100651
 20
-2421.5309066969107
 30
0.0
 41
0.9993819199218831
 10
-631.04157881680885
 20
-2421.555182080172
 30
0.0
 41
1.0
 10
-631.04134038331313
 20
-2421.5552523692804
 30
0.0
 41
1.0
 10
-631.0411019498174
 20
-2421.5553226583893
 30
0.0
 41
1.0
 10
-630.95923228261438
 20
-2421.5794574634319
 30
0.0
 41
0.9992088568505834
 10
-630.87953976362439
 20
-2421.6100226992271
 30
0.0
 41
1.0
 10
-630.79985877274532
 20
-2421.6405822999604
 30
0.0
 41
0.9990226101773526
 10
-630.72318810283821
 20
-2421.6780597315746
 30
0.0
 41
1.0
 10
-630.64652896103939
 20
-2421.7155315281288
 30
0.0
 41
0.9988424273972849
 10
-630.57382533382668
 20
-2421.7601963033821
 30
0.0
 41
1.0
 10
-630.57355762544785
 20
-2421.7603607674541
 30
0.0
 41
1.0
 10
-630.57328991706913
 20
-2421.7605252315261
 30
0.0
 41
1.0
 10
-630.50005087309728
 20
-2421.8055189349243
 30
0.0
 41
0.9986928844492208
 10
-630.43178800638736
 20
-2421.8577546692036
 30
0.0
 41
1.0
 10
-630.43120671416523
 20
-2421.8581994824308
 30
0.0
 41
1.0
 10
-630.43062542194298
 20
-2421.8586442956585
 30
0.0
 41
1.0
 10
-630.36119997078765
 20
-2421.911769656394
 30
0.0
 41
0.998600726227738
 10
-630.29777380102189
 20
-2421.9719304260866
 30
0.0
 41
1.0
 10
-630.29687938556413
 20
-2421.9727787939219
 30
0.0
 41
1.0
 10
-630.29598497010647
 20
-2421.9736271617576
 30
0.0
 41
1.0
 10
-630.23076996942643
 20
-2422.0354846671203
 30
0.0
 41
0.9985581491382677
 10
-630.17256235772334
 20
-2422.1039771573933
 30
0.0
 41
1.0
 10
-630.1633039041277
 20
-2422.1148715150948
 30
0.0
 41
1.0
 10
-630.15404545053207
 20
-2422.1257658727964
 30
0.0
 41
1.0
 10
-630.07732093163781
 20
-2422.2160470784729
 30
0.0
 41
0.9970460233520823
 10
-630.0153290304786
 20
-2422.3170141626547
 30
0.0
 41
1.0
 10
-630.00085966539814
 20
-2422.340580621737
 30
0.0
 41
1.0
 10
-629.98639030031779
 20
-2422.3641470808197
 30
0.0
 41
1.0
 10
-629.94665360030672
 20
-2422.4288668048503
 30
0.0
 41
0.9988468816638554
 10
-629.91330722955649
 20
-2422.4970992572748
 30
0.0
 41
1.0
 10
-629.9062712070679
 20
-2422.5114961784066
 30
0.0
 41
1.0
 10
-629.8992351845792
 20
-2422.5258930995378
 30
0.0
 41
1.0
 10
-629.87996085880673
 20
-2422.5653317096985
 30
0.0
 41
0.9998431189998808
 10
-629.86209553130993
 20
-2422.6054282641435
 30
0.0
 41
1.0
 10
-629.84423020378233
 20
-2422.6455248186576
 30
0.0
 41
0.9999989990073035
 10
-629.82625148038301
 20
-2422.6855706561905
 30
0.0
 41
1.0
 10
-629.82007916879377
 20
-2422.6993188729921
 30
0.0
 41
1.0
 10
-629.81390685720453
 20
-2422.7130670897932
 30
0.0
 41
1.0
 10
-629.78358351059546
 20
-2422.7806093609984
 30
0.0
 41
0.9998790356320154
 10
-629.75537563045657
 20
-2422.8490621129386
 30
0.0
 41
1.0
 10
-629.74854044916992
 20
-2422.8656492143718
 30
0.0
 41
1.0
 10
-629.74170526788339
 20
-2422.8822363158047
 30
0.0
 41
1.0
 10
-629.71814760550535
 20
-2422.9394042706845
 30
0.0
 41
0.9998227574560005
 10
-629.69675885711786
 20
-2422.9974185789574
 30
0.0
 41
1.0
 10
-629.67537010873002
 20
-2423.0554328872308
 30
0.0
 41
0.999679797104122
 10
-629.65694382377205
 20
-2423.1144550063445
 30
0.0
 41
1.0
 10
-629.65304002104517
 20
-2423.1269594645178
 30
0.0
 41
1.0
 10
-629.64913621831829
 20
-2423.139463922691
 30
0.0
 41
1.0
 10
-629.6229023279077
 20
-2423.223494958148
 30
0.0
 41
0.9979274938734492
 10
-629.60767780442848
 20
-2423.3101993168093
 30
0.0
 41
1.0
 10
-629.6054541171676
 20
-2423.3228633176286
 30
0.0
 41
1.0
 10
-629.60323042990672
 20
-2423.3355273184479
 30
0.0
 41
1.0
 10
-629.59230049020755
 20
-2423.3977738257427
 30
0.0
 41
0.9994985982135812
 10
-629.58533232503123
 20
-2423.460587326882
 30
0.0
 41
1.0
 10
-629.578364159854
 20
-2423.5234008280249
 30
0.0
 41
0.9996372611200634
 10
-629.57478829408637
 20
-2423.5864984067089
 30
0.0
 41
1.0
 10
-629.57461971659711
 20
-2423.5894730237897
 30
0.0
 41
1.0
 10
-629.57445113910785
 20
-2423.5924476408704
 30
0.0
 41
1.0
 10
-629.57053811836147
 20
-2423.6614944537155
 30
0.0
 41
0.999773063073636
 10
-629.56956980487337
 20
-2423.730645277753
 30
0.0
 41
1.0
 10
-629.56951269845536
 20
-2423.7347234568933
 30
0.0
 41
1.0
 10
-629.56945559203723
 20
-2423.7388016360342
 30
0.0
 41
1.0
 10
-629.56837306571299
 20
-2423.8161088183556
 30
0.0
 41
0.9998772614069217
 10
-629.56971315244482
 20
-2423.8934119649225
 30
0.0
 41
1.0
 10
-629.56980241564349
 20
-2423.8985611287544
 30
0.0
 41
1.0
 10
-629.56989167884217
 20
-2423.9037102925863
 30
0.0
 41
1.0
 10
-629.57141029197112
 20
-2423.9913117668116
 30
0.0
 41
0.9999415567324892
 10
-629.57482260221741
 20
-2424.0788599284983
 30
0.0
 41
1.0
 10
-629.5750639228927
 20
-2424.0850513882342
 30
0.0
 41
1.0
 10
-629.57530524356798
 20
-2424.0912428479705
 30
0.0
 41
1.0
 10
-629.57920019516428
 20
-2424.1911739291168
 30
0.0
 41
0.9999716810419955
 10
-629.58459877828273
 20
-2424.2910350673415
 30
0.0
 41
1.0
 10
-629.5878115770721
 20
-2424.3504643170099
 30
0.0
 41
1.0
 10
-629.59102437586148
 20
-2424.409893566678
 30
0.0
 41
1.0
 10
-629.59909828501236
 20
-2424.5592419679333
 30
0.0
 41
0.9999819129889832
 10
-629.60896807662994
 20
-2424.7084824456556
 30
0.0
 41
1.0
 10
-629.61883786824649
 20
-2424.857722923367
 30
0.0
 41
1.0
 10
-629.62127718881038
 20
-2424.8949159692165
 30
0.0
 41
1.0
 10
-629.59857895497771
 20
-2424.8561749718838
 30
0.0
 41
0.9999982128037053
 10
-629.57573439621137
 20
-2424.8175200779074
 30
0.0
 41
1.0
 10
-629.54882483633287
 20
-2424.7719868638628
 30
0.0
 41
1.0
 10
-629.52191527645425
 20
-2424.7264536498183
 30
0.0
 41
1.0
 10
-629.44525159793011
 20
-2424.5967323277514
 30
0.0
 41
0.9998609190058475
 10
-629.3643042850656
 20
-2424.469639945818
 30
0.0
 41
1.0
 10
-629.33465596358315
 20
-2424.4230902128597
 30
0.0
 41
1.0
 10
-629.3050076421008
 20
-2424.3765404799015
 30
0.0
 41
1.0
 10
-629.22273542186633
 20
-2424.2473679099103
 30
0.0
 41
0.999906760973154
 10
-629.13696641240199
 20
-2424.120490220469
 30
0.0
 41
1.0
 10
-629.13456170920119
 20
-2424.1169329544146
 30
0.0
 41
1.0
 10
-629.1321570060004
 20
-2424.1133756883596
 30
0.0
 41
1.0
 10
-629.05119740294049
 20
-2423.993612531031
 30
0.0
 41
0.9998784952148057
 10
-628.96654379325662
 20
-2423.8764313143188
 30
0.0
 41
1.0
 10
-628.88189018357207
 20
-2423.7592500976057
 30
0.0
 41
0.9998532968282812
 10
-628.79327256275258
 20
-2423.6450371891392
 30
0.0
 41
1.0
 10
-628.77331077376152
 20
-2423.6193098681197
 30
0.0
 41
1.0
 10
-628.75334898477058
 20
-2423.5935825470997
 30
0.0
 41
1.0
 10
-628.63486493501171
 20
-2423.4408769361307
 30
0.0
 41
0.9991551975795253
 10
-628.50424048538798
 20
-2423.2984173740469
 30
0.0
 41
1.0
 10
-628.50073086940802
 20
-2423.2945897724221
 30
0.0
 41
1.0
 10
-628.49722125342794
 20
-2423.2907621707977
 30
0.0
 41
1.0
 10
-628.37361603576574
 20
-2423.1559578119645
 30
0.0
 41
0.9997418144180448
 10
-628.24401389606396
 20
-2423.0269084013512
 30
0.0
 41
1.0
 10
-628.1144117563648
 20
-2422.8978589907401
 30
0.0
 41
0.9989238204633208
 10
-627.9734092081145
 20
-2422.7813740287015
 30
0.0
 41
1.0
 10
-627.92816152997489
 20
-2422.7439940370928
 30
0.0
 41
1.0
 10
-627.88291385183538
 20
-2422.706614045484
 30
0.0
 41
1.0
 10
-627.7426737946131
 20
-2422.5907589921926
 30
0.0
 41
0.9990825084097017
 10
-627.59303386200781
 20
-2422.4873299943583
 30
0.0
 41
1.0
 10
-627.58298849794733
 20
-2422.4803867812761
 30
0.0
 41
1.0
 10
-627.57294313388672
 20
-2422.4734435681944
 30
0.0
 41
1.0
 10
-627.44339392940037
 20
-2422.3839009965232
 30
0.0
 41
0.9998164899827272
 10
-627.31050972602759
 20
-2422.2993867550094
 30
0.0
 41
1.0
 10
-627.29866416550067
 20
-2422.2918529884832
 30
0.0
 41
1.0
 10
-627.28681860497386
 20
-2422.284319221957
 30
0.0
 41
1.0
 10
-627.17762552265015
 20
-2422.2148725134925
 30
0.0
 41
0.9997473449131296
 10
-627.06542156540195
 20
-2422.1504035556773
 30
0.0
 41
1.0
 10
-626.95321760814988
 20
-2422.0859345978602
 30
0.0
 41
0.999932786114303
 10
-626.83954899739092
 20
-2422.0240846061811
 30
0.0
 41
1.0
 10
-626.83899699482924
 20
-2422.0237842475017
 30
0.0
 41
1.0
 10
-626.83844499226757
 20
-2422.0234838888218
 30
0.0
 41
1.0
 10
-626.72367237638377
 20
-2421.9610331797826
 30
0.0
 41
0.9996956420483084
 10
-626.6059590505464
 20
-2421.9043197128094
 30
0.0
 41
1.0
 10
-626.57551864565437
 20
-2421.8896537360797
 30
0.0
 41
1.0
 10
-626.54507824076234
 20
-2421.87498775935
 30
0.0
 41
1.0
 10
-626.4421011340138
 20
-2421.8253741009039
 30
0.0
 41
0.9998070570176857
 10
-626.3372547450723
 20
-2421.779843514003
 30
0.0
 41
1.0
 10
-626.23240835613581
 20
-2421.7343129271035
 30
0.0
 41
0.9997827436147762
 10
-626.12575541952856
 20
-2421.6931917557927
 30
0.0
 41
1.0
 10
-626.1065325698936
 20
-2421.6857801821589
 30
0.0
 41
1.0
 10
-626.08730972025865
 20
-2421.678368608525
 30
0.0
 41
1.0
 10
-625.94221108438512
 20
-2421.622424289948
 30
0.0
 41
0.9988031841976374
 10
-625.79234072178019
 20
-2421.5809242257801
 30
0.0
 41
1.0
 10
-625.76742347341678
 20
-2421.5740244799731
 30
0.0
 41
1.0
 10
-625.74250622505349
 20
-2421.5671247341661
 30
0.0
 41
1.0
 10
-625.57523619940639
 20
-2421.52080659176
 30
0.0
 41
0.9984748040550386
 10
-625.40387929075871
 20
-2421.4932123594954
 30
0.0
 41
1.0
 10
-625.39914015451359
 20
-2421.4924491989823
 30
0.0
 41
1.0
 10
-625.39440101826835
 20
-2421.4916860384697
 30
0.0
 41
1.0
 10
-625.23252238211387
 20
-2421.4656181272303
 30
0.0
 41
0.9984436495479131
 10
-625.06874763838505
 20
-2421.4577401734114
 30
0.0
 41
1.0
 10
-625.04705043025422
 20
-2421.4566964862115
 30
0.0
 41
1.0
 10
-625.02535322212339
 20
-2421.4556527990121
 30
0.0
 41
1.0
 10
-624.90497289466077
 20
-2421.4498622195929
 30
0.0
 41
0.9987954789335692
 10
-624.78460464975046
 20
-2421.4558987473351
 30
0.0
 41
1.0
 10
-624.76463985725968
 20
-2421.4568999916737
 30
0.0
 41
1.0
 10
-624.74467506476878
 20
-2421.4579012360118
 30
0.0
 41
1.0
 10
-624.66423640484379
 20
-2421.4619352750769
 30
0.0
 41
0.9997941595877236
 10
-624.58402762674621
 20
-2421.4692293409985
 30
0.0
 41
1.0
 10
-624.50381884864476
 20
-2421.4765234069205
 30
0.0
 41
0.999858946623852
 10
-624.42390030178433
 20
-2421.4865072613711
 30
0.0
 41
1.0
 10
-624.39149409998231
 20
-2421.4905556182894
 30
0.0
 41
1.0
 10
-624.35908789818029
 20
-2421.4946039752081
 30
0.0
 41
1.0
 10
-624.21435694771128
 20
-2421.5126845434961
 30
0.0
 41
0.9993495063248907
 10
-624.07130570394895
 20
-2421.5411502532374
 30
0.0
 41
1.0
 10
-624.03837200679448
 20
-2421.5477037164528
 30
0.0
 41
1.0
 10
-624.00543830964
 20
-2421.5542571796677
 30
0.0
 41
1.0
 10
-623.89614448643499
 20
-2421.5760055138035
 30
0.0
 41
0.9996788715561491
 10
-623.78809291447817
 20
-2421.6032633131663
 30
0.0
 41
1.0
 10
-623.78602991194066
 20
-2421.6037837397389
 30
0.0
 41
1.0
 10
-623.78396690940326
 20
-2421.6043041663115
 30
0.0
 41
1.0
 10
-623.68004134252419
 20
-2421.6305211125282
 30
0.0
 41
0.9995480654491896
 10
-623.57787910729235
 20
-2421.6629360691536
 30
0.0
 41
1.0
 10
-623.57618946516254
 20
-2421.6634721740675
 30
0.0
 41
1.0
 10
-623.57449982303274
 20
-2421.6640082789818
 30
0.0
 41
1.0
 10
-623.47571687206175
 20
-2421.6953510257786
 30
0.0
 41
0.9993867959457493
 10
-623.37936971362035
 20
-2421.7335303950676
 30
0.0
 41
1.0
 10
-623.3781267645395
 20
-2421.7340229369624
 30
0.0
 41
1.0
 10
-623.37688381545854
 20
-2421.7345154788572
 30
0.0
 41
1.0
 10
-623.28302255518099
 20
-2421.7717097643563
 30
0.0
 41
0.9992050256521999
 10
-623.19242288014448
 20
-2421.8162636635961
 30
0.0
 41
1.0
 10
-623.19168819743277
 20
-2421.8166249560563
 30
0.0
 41
1.0
 10
-623.19095351472117
 20
-2421.816986248517
 30
0.0
 41
1.0
 10
-623.1018232051116
 20
-2421.8608175628347
 30
0.0
 41
0.9990222350742259
 10
-623.01691314371737
 20
-2421.9123508305333
 30
0.0
 41
1.0
 10
-623.01672925843616
 20
-2421.9124624334372
 30
0.0
 41
1.0
 10
-623.01654537315494
 20
-2421.9125740363411
 30
0.0
 41
1.0
 10
-622.93200308232599
 20
-2421.9638840982298
 30
0.0
 41
0.9988642743803875
 10
-622.85272854770483
 20
-2422.023008285757
 30
0.0
 41
1.0
 10
-622.77345401308617
 20
-2422.0821324732824
 30
0.0
 41
0.9987681233312633
 10
-622.70043022880839
 20
-2422.148823164684
 30
0.0
 41
1.0
 10
-622.70010130084324
 20
-2422.1491235658978
 30
0.0
 41
1.0
 10
-622.69977237287799
 20
-2422.1494239671115
 30
0.0
 41
1.0
 10
-622.62609073267083
 20
-2422.2167154609397
 30
0.0
 41
0.9987496570896919
 10
-622.55949692734657
 20
-2422.2910282750236
 30
0.0
 41
1.0
 10
-622.5587247575844
 20
-2422.2918899483834
 30
0.0
 41
1.0
 10
-622.55795258782223
 20
-2422.2927516217433
 30
0.0
 41
1.0
 10
-622.48981444297522
 20
-2422.3687877825441
 30
0.0
 41
0.9988147669826009
 10
-622.42939218875131
 20
-2422.4510887893853
 30
0.0
 41
1.0
 10
-622.42827286267243
 20
-2422.452613420739
 30
0.0
 41
1.0
 10
-622.42715353659366
 20
-2422.4541380520932
 30
0.0
 41
1.0
 10
-622.36449263021291
 20
-2422.5394883216409
 30
0.0
 41
0.9989452636215852
 10
-622.30992571725312
 20
-2422.6302270107963
 30
0.0
 41
1.0
 10
-622.30857699116677
 20
-2422.6324697918235
 30
0.0
 41
1.0
 10
-622.30722826508054
 20
-2422.6347125728507
 30
0.0
 41
1.0
 10
-622.24996389994817
 20
-2422.7299368240601
 30
0.0
 41
0.999104643606996
 10
-622.20095468662578
 20
-2422.8296612570871
 30
0.0
 41
1.0
 10
-622.19949082503604
 20
-2422.832639937159
 30
0.0
 41
1.0
 10
-622.19802696344618
 20
-2422.8356186172314
 30
0.0
 41
1.0
 10
-622.14609002694408
 20
-2422.9413004104031
 30
0.0
 41
0.9992763831101387
 10
-622.10233689838935
 20
-2423.0506244723574
 30
0.0
 41
1.0
 10
-622.10085762872609
 20
-2423.0543206598913
 30
0.0
 41
1.0
 10
-622.09937835906271
 20
-2423.0580168474248
 30
0.0
 41
1.0
 10
-622.05266669118021
 20
-2423.1747332844498
 30
0.0
 41
0.9994163472883471
 10
-622.01403365998999
 20
-2423.2943668729154
 30
0.0
 41
1.0
 10
-622.01279550774416
 20
-2423.2982010166952
 30
0.0
 41
1.0
 10
-622.01155735549844
 20
-2423.302035160475
 30
0.0
 41
1.0
 10
-621.97167379448138
 20
-2423.4255412219522
 30
0.0
 41
0.9997268055890066
 10
-621.93760573856844
 20
-2423.5507762539064
 30
0.0
 41
1.0
 10
-621.93667555829938
 20
-2423.5541956200132
 30
0.0
 41
1.0
 10
-621.93574537803033
 20
-2423.5576149861204
 30
0.0
 41
1.0
 10
-621.90353768265618
 20
-2423.6760112858592
 30
0.0
 41
0.9996701319000748
 10
-621.87745206588602
 20
-2423.7959052391207
 30
0.0
 41
1.0
 10
-621.85136644911483
 20
-2423.9157991923889
 30
0.0
 41
0.9995785451109602
 10
-621.83228287177553
 20
-2424.0370049534176
 30
0.0
 41
1.0
 10
-621.82806308960221
 20
-2424.06380610818
 30
0.0
 41
1.0
 10
-621.82384330742877
 20
-2424.0906072629427
 30
0.0
 41
1.0
 10
-621.79726833148982
 20
-2424.2593932366499
 30
0.0
 41
0.9979925101217216
 10
-621.79224274556339
 20
-2424.4301845647406
 30
0.0
 41
1.0
 10
-621.79141793313863
 20
-2424.4582152882276
 30
0.0
 41
1.0
 10
-621.79059312071388
 20
-2424.4862460117147
 30
0.0
 41
1.0
 10
-621.78721715963707
 20
-2424.6009758928376
 30
0.0
 41
0.9995314902263067
 10
-621.79086735177555
 20
-2424.7156973765841
 30
0.0
 41
1.0
 10
-621.79451754391346
 20
-2424.8304188603302
 30
0.0
 41
0.9996245486943264
 10
-621.80444663904461
 20
-2424.9447681314573
 30
0.0
 41
1.0
 10
-621.80460968703892
 20
-2424.9466458875941
 30
0.0
 41
1.0
 10
-621.80477273503334
 20
-2424.9485236437304
 30
0.0
 41
1.0
 10
-621.81502792615322
 20
-2425.0666284271283
 30
0.0
 41
0.999728609500169
 10
-621.8307732497243
 20
-2425.184127336021
 30
0.0
 41
1.0
 10
-621.83116674237453
 20
-2425.1870637607226
 30
0.0
 41
1.0
 10
-621.83156023502488
 20
-2425.1900001854237
 30
0.0
 41
1.0
 10
-621.84809254389813
 20
-2425.3133719437292
 30
0.0
 41
0.9998265533969081
 10
-621.8692080026301
 20
-2425.4360424185129
 30
0.0
 41
1.0
 10
-621.86988454476705
 20
-2425.4399727970194
 30
0.0
 41
1.0
 10
-621.87056108690399
 20
-2425.4439031755255
 30
0.0
 41
1.0
 10
-621.89302962991121
 20
-2425.57443440733
 30
0.0
 41
0.999902253085588
 10
-621.91913909452092
 20
-2425.7042863759675
 30
0.0
 41
1.0
 10
-621.92011773568629
 20
-2425.7091535183545
 30
0.0
 41
1.0
 10
-621.92109637685155
 20
-2425.7140206607419
 30
0.0
 41
1.0
 10
-621.94916312379223
 20
-2425.8536069141551
 30
0.0
 41
0.9999524761938706
 10
-621.97994609262662
 20
-2425.9926194073178
 30
0.0
 41
1.0
 10
-621.98122219980223
 20
-2425.998382166621
 30
0.0
 41
1.0
 10
-621.98249830697796
 20
-2426.0041449259243
 30
0.0
 41
1.0
 10
-622.01583349016414
 20
-2426.1546829376957
 30
0.0
 41
0.9999813588733161
 10
-622.05100449095687
 20
-2426.3048026503384
 30
0.0
 41
1.0
 10
-622.05255841641474
 20
-2426.3114352407665
 30
0.0
 41
1.0
 10
-622.0541123418725
 20
-2426.3180678311942
 30
0.0
 41
1.0
 10
-622.09239119358654
 20
-2426.4814527247163
 30
0.0
 41
0.9999955237662741
 10
-622.13164707156454
 20
-2426.6446056283121
 30
0.0
 41
1.0
 10
-622.14392870719757
 20
-2426.6956498188297
 30
0.0
 41
1.0
 10
-622.15621034283072
 20
-2426.7466940093473
 30
0.0
 41
1.0
 10
-622.22002949209559
 20
-2427.0119352940646
 30
0.0
 41
0.9999993604611037
 10
-622.28444843926002
 20
-2427.2770315447337
 30
0.0
 41
1.0
 10
-622.289167274801
 20
-2427.296450452749
 30
0.0
 41
1.0
 10
-622.29388611034199
 20
-2427.3158693607647
 30
0.0
 41
1.0
 10
-622.36774272860043
 20
-2427.6198034275158
 30
0.0
 41
0.999965991472532
 10
-622.44660232449007
 20
-2427.9224779740925
 30
0.0
 41
1.0
 10
-622.45155501341947
 20
-2427.9414871112704
 30
0.0
 41
1.0
 10
-622.45650770234897
 20
-2427.9604962484482
 30
0.0
 41
1.0
 10
-622.54527267609114
 20
-2428.3011890693556
 30
0.0
 41
0.9999441976024213
 10
-622.64121570905741
 20
-2428.6399304946649
 30
0.0
 41
1.0
 10
-622.65791622748316
 20
-2428.698894207193
 30
0.0
 41
1.0
 10
-622.67461674590891
 20
-2428.7578579197216
 30
0.0
 41
1.0
 10
-622.80396081572496
 20
-2429.2145267700798
 30
0.0
 41
0.9999625120734864
 10
-622.9411935830459
 20
-2429.6688873040675
 30
0.0
 41
1.0
 10
-622.97698352612895
 20
-2429.7873833306949
 30
0.0
 41
1.0
 10
-623.01277346921199
 20
-2429.9058793573226
 30
0.0
 41
1.0
 10
-623.08729367325532
 20
-2430.1526064354321
 30
0.0
 41
0.9999793386309831
 10
-623.16497969639158
 20
-2430.3983550746643
 30
0.0
 41
1.0
 10
-623.2426657195291
 20
-2430.6441037139002
 30
0.0
 41
1.0
 10
-623.25344527839979
 20
-2430.6781216182749
 30
0.0
 41
1.0
 10
-625.10381833166889
 20
-2436.5651935407423
 30
0.0
 41
1.0
 10
-626.9541913849381
 20
-2442.4522654632101
 30
0.0
 41
1.0
 10
-627.91544807496166
 20
-2442.4522654632101
 30
0.0
 41
1.0
 10
-628.87670476498522
 20
-2442.4522654632101
 30
0.0
 41
1.0
 10
-627.25775998630684
 20
-2437.3042369614204
 30
0.0
 41
1.0
 10
-625.63881520762834
 20
-2432.1562084596308
 30
0.0
 41
1.0
 10
-625.59364938445231
 20
-2432.0121772373554
 30
0.0
 41
1.0
 10
-625.54848356127627
 20
-2431.8681460150801
 30
0.0
 41
1.0
 10
-625.37817914391576
 20
-2431.325054985924
 30
0.0
 41
0.9999911657913285
 10
-625.21244633223682
 20
-2430.7805514545653
 30
0.0
 41
1.0
 10
-625.18275038874185
 20
-2430.6829875145327
 30
0.0
 41
1.0
 10
-625.15305444524688
 20
-2430.5854235745001
 30
0.0
 41
1.0
 10
-625.04671352057335
 20
-2430.2360479232566
 30
0.0
 41
0.9999952428131768
 10
-624.94252993123155
 20
-2429.8860228988515
 30
0.0
 41
1.0
 10
-624.93747046089675
 20
-2429.8690246245687
 30
0.0
 41
1.0
 10
-624.93241099056195
 20
-2429.8520263502855
 30
0.0
 41
1.0
 10
-624.83834634191101
 20
-2429.5359978745164
 30
0.0
 41
0.999993168752531
 10
-624.74662050403299
 20
-2429.2192826612318
 30
0.0
 41
1.0
 10
-624.74168523957633
 20
-2429.2022419519708
 30
0.0
 41
1.0
 10
-624.73674997511966
 20
-2429.1852012427098
 30
0.0
 41
1.0
 10
-624.65489466616555
 20
-2428.9025674479826
 30
0.0
 41
0.9999893840808788
 10
-624.57564743970249
 20
-2428.6191913187149
 30
0.0
 41
1.0
 10
-624.49640021324024
 20
-2428.3358151894481
 30
0.0
 41
0.9999833980067204
 10
-624.42042397250509
 20
-2428.0515446064446
 30
0.0
 41
1.0
 10
-624.41142003578136
 20
-2428.0178557279605
 30
0.0
 41
1.0
 10
-624.40241609905763
 20
-2427.9841668494764
 30
0.0
 41
1.0
 10
-624.33345155019185
 20
-2427.7261310171816
 30
0.0
 41
0.9999233658067719
 10
-624.27089657897216
 20
-2427.4664668584619
 30
0.0
 41
1.0
 10
-624.20834160775189
 20
-2427.2068026997395
 30
0.0
 41
1.0
 10
-624.16885818889432
 20
-2427.0429960353131
 30
0.0
 41
1.0
 10
-624.16387958491578
 20
-2427.0223410734379
 30
0.0
 41
1.0
 10
-624.15890098093735
 20
-2427.0016861115623
 30
0.0
 41
1.0
 10
-624.12937477003993
 20
-2426.8791893709003
 30
0.0
 41
0.9999868670852102
 10
-624.10110568604057
 20
-2426.7563964252413
 30
0.0
 41
1.0
 10
-624.09720819888241
 20
-2426.7394668378224
 30
0.0
 41
1.0
 10
-624.09331071172426
 20
-2426.7225372504035
 30
0.0
 41
1.0
 10
-624.07283660204268
 20
-2426.6336034795886
 30
0.0
 41
0.999977817334719
 10
-624.05354900392899
 20
-2426.5444048623654
 30
0.0
 41
1.0
 10
-624.03426140581269
 20
-2426.4552062451316
 30
0.0
 41
0.9999602692860528
 10
-624.01656704718039
 20
-2426.3656779566968
 30
0.0
 41
1.0
 10
-624.01336321510394
 20
-2426.3494675018173
 30
0.0
 41
1.0
 10
-624.01015938302749
 20
-2426.3332570469374
 30
0.0
 41
1.0
 10
-623.98605736024172
 20
-2426.2113078487409
 30
0.0
 41
0.9995617985320867
 10
-623.96921401302302
 20
-2426.0881461010358
 30
0.0
 41
1.0
 10
-623.96674952311662
 20
-2426.0701252836689
 30
0.0
 41
1.0
 10
-623.96428503321022
 20
-2426.0521044663014
 30
0.0
 41
1.0
 10
-623.94400177216187
 20
-2425.903789416599
 30
0.0
 41
0.9991121410640022
 10
-623.9362764185737
 20
-2425.7542933177951
 30
0.0
 41
1.0
 10
-623.93535762854913
 20
-2425.7365134812198
 30
0.0
 41
1.0
 10
-623.93443883852467
 20
-2425.718733644645
 30
0.0
 41
1.0
 10
-623.92855106498564
 20
-2425.6047972189908
 30
0.0
 41
0.9989792494906277
 10
-623.93297015710277
 20
-2425.4907943830904
 30
0.0
 41
1.0
 10
-623.93361812897137
 20
-2425.4740781371638
 30
0.0
 41
1.0
 10
-623.93426610084009
 20
-2425.4573618912368
 30
0.0
 41
1.0
 10
-623.9373892492199
 20
-2425.3767915471949
 30
0.0
 41
0.9997820295394222
 10
-623.94387324659579
 20
-2425.2964218254483
 30
0.0
 41
1.0
 10
-623.95035724397178
 20
-2425.2160521036999
 30
0.0
 41
0.9998335105972536
 10
-623.95976943948347
 20
-2425.1359724872514
 30
0.0
 41
1.0
 10
-623.96136436415964
 20
-2425.1224027567696
 30
0.0
 41
1.0
 10
-623.96295928883592
 20
-2425.1088330262878
 30
0.0
 41
1.0
 10
-623.97556133370028
 20
-2425.0016139488703
 30
0.0
 41
0.9996876457878577
 10
-623.99350524649833
 20
-2424.8951585211571
 30
0.0
 41
1.0
 10
-623.99573690964405
 20
-2424.8819187859131
 30
0.0
 41
1.0
 10
-623.99796857278977
 20
-2424.868679050669
 30
0.0
 41
1.0
 10
-624.01176439421022
 20
-2424.7868329067137
 30
0.0
 41
0.9995547496494689
 10
-624.03041771610287
 20
-2424.7059554095226
 30
0.0
 41
1.0
 10
-624.03079167297369
 20
-2424.704333998819
 30
0.0
 41
1.0
 10
-624.03116562984462
 20
-2424.7027125881154
 30
0.0
 41
1.0
 10
-624.04907103799542
 20
-2424.6250779123316
 30
0.0
 41
0.9994899427175416
 10
-624.07189594667489
 20
-2424.5487446294969
 30
0.0
 41
1.0
 10
-624.07235447341645
 20
-2424.5472111797053
 30
0.0
 41
1.0
 10
-624.07281300015802
 20
-2424.5456777299141
 30
0.0
 41
1.0
 10
-624.09472085535435
 20
-2424.4724113466627
 30
0.0
 41
0.9993784877592167
 10
-624.12173649046076
 20
-2424.4008706415034
 30
0.0
 41
1.0
 10
-624.12226818143711
 20
-2424.3994626587846
 30
0.0
 41
1.0
 10
-624.12279987241345
 20
-2424.3980546760654
 30
0.0
 41
1.0
 10
-624.14875212556581
 20
-2424.3293299363481
 30
0.0
 41
0.9992430832254597
 10
-624.17996866072667
 20
-2424.262830784276
 30
0.0
 41
1.0
 10
-624.18055077678378
 20
-2424.2615907291579
 30
0.0
 41
1.0
 10
-624.18113289284076
 20
-2424.2603506740397
 30
0.0
 41
1.0
 10
-624.2111851958864
 20
-2424.1963316322076
 30
0.0
 41
0.9990789632799866
 10
-624.24661582266276
 20
-2424.1351250204584
 30
0.0
 41
1.0
 10
-624.24721152884433
 20
-2424.1340959345998
 30
0.0
 41
1.0
 10
-624.2478072350259
 20
-2424.1330668487412
 30
0.0
 41
1.0
 10
-624.28204644943901
 20
-2424.0739184087092
 30
0.0
 41
0.9988874801120838
 10
-624.32170572547147
 20
-2424.018258696291
 30
0.0
 41
1.0
 10
-624.32226125153556
 20
-2424.0174790446163
 30
0.0
 41
1.0
 10
-624.32281677759977
 20
-2424.016699392942
 30
0.0
 41
1.0
 10
-624.36136500150303
 20
-2423.9625989838742
 30
0.0
 41
0.9986762060695232
 10
-624.40526747277977
 20
-2423.9127452694338
 30
0.0
 41
1.0
 10
-624.40571143311149
 20
-2423.9122411276176
 30
0.0
 41
1.0
 10
-624.4061553934431
 20
-2423.9117369858018
 30
0.0
 41
1.0
 10
-624.44916994405594
 20
-2423.8628915549948
 30
0.0
 41
0.998462164248955
 10
-624.49732750083376
 20
-2423.8191082545236
 30
0.0
 41
1.0
 10
-624.49757413535042
 20
-2423.8188840223602
 30
0.0
 41
1.0
 10
-624.49782076986708
 20
-2423.8186597901963
 30
0.0
 41
1.0
 10
-624.54548505761136
 20
-2423.7753249540524
 30
0.0
 41
0.9982724693849717
 10
-624.59790368945301
 20
-2423.7378806035349
 30
0.0
 41
1.0
 10
-624.65032232129533
 20
-2423.7004362530161
 30
0.0
 41
0.9981399180155165
 10
-624.7069083846892
 20
-2423.6696497335729
 30
0.0
 41
1.0
 10
-624.7069540467669
 20
-2423.6696248904163
 30
0.0
 41
1.0
 10
-624.70699970884471
 20
-2423.6696000472593
 30
0.0
 41
1.0
 10
-624.76367709639453
 20
-2423.6387638415022
 30
0.0
 41
0.9980927086837315
 10
-624.82372244746114
 20
-2423.6151470326495
 30
0.0
 41
1.0
 10
-624.82416261717299
 20
-2423.6149739067741
 30
0.0
 41
1.0
 10
-624.82460278688472
 20
-2423.6148007808993
 30
0.0
 41
1.0
 10
-624.88552847737321
 20
-2423.5908377202973
 30
0.0
 41
0.9981411356563253
 10
-624.94891699877007
 20
-2423.5744650787919
 30
0.0
 41
1.0
 10
-624.94979911547341
 20
-2423.5742372365858
 30
0.0
 41
1.0
 10
-624.95068123217675
 20
-2423.57400939438
 30
0.0
 41
1.0
 10
-625.01583398697608
 20
-2423.5571810684642
 30
0.0
 41
0.9983031812935884
 10
-625.08250141596795
 20
-2423.5480417072877
 30
0.0
 41
1.0
 10
-625.09137244137821
 20
-2423.5468255886153
 30
0.0
 41
1.0
 10
-625.10024346678847
 20
-2423.5456094699434
 30
0.0
 41
1.0
 10
-625.15459310928907
 20
-2423.5381587399529
 30
0.0
 41
0.9983887708260588
 10
-625.20943695857852
 20
-2423.5369140663202
 30
0.0
 41
1.0
 10
-625.2175003637941
 20
-2423.5367310684451
 30
0.0
 41
1.0
 10
-625.22556376900968
 20
-2423.5365480705705
 30
0.0
 41
1.0
 10
-625.26428080786945
 20
-2423.5356693926869
 30
0.0
 41
0.9998869563079247
 10
-625.30300676107402
 20
-2423.5359552620466
 30
0.0
 41
1.0
 10
-625.34173271423742
 20
-2423.5362411314059
 30
0.0
 41
0.9999972320172694
 10
-625.380456893408
 20
-2423.5367092309343
 30
0.0
 41
1.0
 10
-625.39980991002767
 20
-2423.5369431710242
 30
0.0
 41
1.0
 10
-625.41916292664746
 20
-2423.537177111114
 30
0.0
 41
1.0
 10
-625.49659313901839
 20
-2423.5381130908218
 30
0.0
 41
0.9997304945085961
 10
-625.57389644525597
 20
-2423.5426421846078
 30
0.0
 41
1.0
 10
-625.58294608696019
 20
-2423.5431723905976
 30
0.0
 41
1.0
 10
-625.5919957286643
 20
-2423.5437025965875
 30
0.0
 41
1.0
 10
-625.68739831830135
 20
-2423.5492921023533
 30
0.0
 41
0.9997888306415038
 10
-625.78249065413468
 20
-2423.5587970668412
 30
0.0
 41
1.0
 10
-625.7912117157166
 20
-2423.5596687814741
 30
0.0
 41
1.0
 10
-625.79993277729852
 20
-2423.560540496107
 30
0.0
 41
1.0
 10
-625.91246723628876
 20
-2423.5717888898607
 30
0.0
 41
0.9984170238190663
 10
-626.02302638364188
 20
-2423.5956049717975
 30
0.0
 41
1.0
 10
-626.05940751462572
 20
-2423.603442007603
 30
0.0
 41
1.0
 10
-626.09578864560967
 20
-2423.6112790434086
 30
0.0
 41
1.0
 10
-626.21097971403196
 20
-2423.6360929099183
 30
0.0
 41
0.9976592854199651
 10
-626.32170788043732
 20
-2423.6763915870652
 30
0.0
 41
1.0
 10
-626.43243604684471
 20
-2423.7166902642134
 30
0.0
 41
0.9993255074352074
 10
-626.53990784563553
 20
-2423.7650071627058
 30
0.0
 41
1.0
 10
-626.54453302455761
 20
-2423.767086538905
 30
0.0
 41
1.0
 10
-626.54915820347969
 20
-2423.7691659151042
 30
0.0
 41
1.0
 10
-626.66588036011706
 20
-2423.8216415659963
 30
0.0
 41
0.9976475078276521
 10
-626.77432770442704
 20
-2423.8895895556543
 30
0.0
 41
1.0
 10
-626.7926700985613
 20
-2423.9010820344683
 30
0.0
 41
1.0
 10
-626.81101249269568
 20
-2423.9125745132828
 30
0.0
 41
1.0
 10
-626.89521468424664
 20
-2423.9653316340505
 30
0.0
 41
0.9995131336407429
 10
-626.97596239920665
 20
-2424.023237846005
 30
0.0
 41
1.0
 10
-627.05671011416371
 20
-2424.0811440579582
 30
0.0
 41
0.9995810107605618
 10
-627.1339717618946
 20
-2424.1436257404262
 30
0.0
 41
1.0
 10
-627.1369417931038
 20
-2424.1460276118896
 30
0.0
 41
1.0
 10
-627.139911824313
 20
-2424.1484294833535
 30
0.0
 41
1.0
 10
-627.22311353446094
 20
-2424.2157149087475
 30
0.0
 41
0.9996617837954444
 10
-627.30270422159583
 20
-2424.287235364307
 30
0.0
 41
1.0
 10
-627.31483497247223
 20
-2424.2981360972972
 30
0.0
 41
1.0
 10
-627.32696572334874
 20
-2424.3090368302874
 30
0.0
 41
1.0
 10
-627.39524125074877
 20
-2424.3703894457631
 30
0.0
 41
0.9997267750053123
 10
-627.4605747590324
 20
-2424.4348659822881
 30
0.0
 41
1.0
 10
-627.52590826730852
 20
-2424.4993425188059
 30
0.0
 41
0.999966728896509
 10
-627.59018121046211
 20
-2424.5648763257072
 30
0.0
 41
1.0
 10
-627.65900865823755
 20
-2424.6350539844661
 30
0.0
 41
1.0
 10
-627.727836106013
 20
-2424.7052316432246
 30
0.0
 41
1.0
 10
-627.92976394470963
 20
-2424.9111207676347
 30
0.0
 41
0.9988205335174688
 10
-628.11076956168881
 20
-2425.1356249996952
 30
0.0
 41
1.0
 10
-628.14140952659375
 20
-2425.1736282501251
 30
0.0
 41
1.0
 10
-628.17204949149868
 20
-2425.2116315005555
 30
0.0
 41
1.0
 10
-628.41433503828671
 20
-2425.5121422334751
 30
0.0
 41
0.9997077826755442
 10
-628.64181298939116
 20
-2425.8240120276901
 30
0.0
 41
1.0
 10
-628.64353640452248
 20
-2425.8263748110708
 30
0.0
 41
1.0
 10
-628.6452598196538
 20
-2425.8287375944515
 30
0.0
 41
1.0
 10
-628.87618460101885
 20
-2426.1453329554256
 30
0.0
 41
0.9989147567079271
 10
-629.07664810390429
 20
-2426.4820424166132
 30
0.0
 41
1.0
 10
-629.10138924921057
 20
-2426.5235989971643
 30
0.0
 41
1.0
 10
-629.12613039451674
 20
-2426.5651555777158
 30
0.0
 41
1.0
 10
-629.28134169315342
 20
-2426.8258569621676
 30
0.0
 41
0.9997476598181614
 10
-629.42468668066431
 20
-2427.0932667107522
 30
0.0
 41
1.0
 10
-629.56803166817235
 20
-2427.3606764593314
 30
0.0
 41
0.9996258967110381
 10
-629.69653992010603
 20
-2427.6355243959597
 30
0.0
 41
1.0
 10
-629.70973982955593
 20
-2427.6637557960557
 30
0.0
 41
1.0
 10
-629.72293973900582
 20
-2427.6919871961513
 30
0.0
 41
1.0
 10
-629.86314846000505
 20
-2427.9918595941031
 30
0.0
 41
0.9998735413944173
 10
-629.99374980672542
 20
-2428.2960391935708
 30
0.0
 41
1.0
 10
-629.99719263478653
 20
-2428.3040577790371
 30
0.0
 41
1.0
 10
-630.00063546284764
 20
-2428.3120763645029
 30
0.0
 41
1.0
 10
-630.12435115344238
 20
-2428.6002187930299
 30
0.0
 41
0.9999377418857307
 10
-630.24160595562057
 20
-2428.8910502607137
 30
0.0
 41
1.0
 10
-630.35886075779547
 20
-2429.1818817283893
 30
0.0
 41
0.9999508299508696
 10
-630.47032470117142
 20
-2429.4749814052066
 30
0.0
 41
1.0
 10
-630.47340546983469
 20
-2429.4830824311725
 30
0.0
 41
1.0
 10
-630.47648623849796
 20
-2429.4911834571385
 30
0.0
 41
1.0
 10
-630.59411171919692
 20
-2429.8004851858796
 30
0.0
 41
0.9999609228439124
 10
-630.70625032207283
 20
-2430.1118182018995
 30
0.0
 41
1.0
 10
-630.70920633242326
 20
-2430.1200250423108
 30
0.0
 41
1.0
 10
-630.71216234277358
 20
-2430.1282318827225
 30
0.0
 41
1.0
 10
-630.83021296634911
 20
-2430.4559785795627
 30
0.0
 41
0.9999674607411113
 10
-630.94296049241564
 20
-2430.7855871995539
 30
0.0
 41
1.0
 10
-630.99435888297751
 20
-2430.935846395244
 30
0.0
 41
1.0
 10
-631.04575727353938
 20
-2431.086105590934
 30
0.0
 41
1.0
 10
-631.16176788029634
 20
-2431.425253573434
 30
0.0
 41
0.9999287532309987
 10
-631.26964928426855
 20
-2431.7670743124145
 30
0.0
 41
1.0
 10
-631.31612654039725
 20
-2431.914336856752
 30
0.0
 41
1.0
 10
-631.36260379652595
 20
-2432.06159940109
 30
0.0
 41
1.0
 10
-631.37753068823145
 20
-2432.1088950513649
 30
0.0
 41
0.9999998224024356
 10
-631.39240119696979
 20
-2432.1562084596308
 30
0.0
 41
1.0
 10
-633.01305733376523
 20
-2437.3042369614204
 30
0.0
 41
1.0
 10
-634.63371347056068
 20
-2442.4522654632101
 30
0.0
 41
1.0
 10
-635.53902191445161
 20
-2442.4522654632101
 30
0.0
 41
1.0
 10
-636.44433035834254
 20
-2442.4522654632101
 30
0.0
 41
1.0
 10
-634.5922459469565
 20
-2436.5651935407423
 30
0.0
 41
1.0
 10
-632.74016153557045
 20
-2430.6781216182749
 30
0.0
 41
1.0
 10
-632.73003977726773
 20
-2430.6460784048249
 30
0.0
 41
1.0
 10
-632.65743210841799
 20
-2430.4157788629991
 30
0.0
 41
1.0
 10
-632.58482443956314
 20
-2430.1854793211573
 30
0.0
 41
0.9999825681979492
 10
-632.51494140035777
 20
-2429.9543384261119
 30
0.0
 41
1.0
 10
-632.466650338195
 20
-2429.7946138426096
 30
0.0
 41
1.0
 10
-632.41835927603233
 20
-2429.6348892591068
 30
0.0
 41
1.0
 10
-632.32120692271383
 20
-2429.3135540373269
 30
0.0
 41
0.999967252897137
 10
-632.2292681170959
 20
-2428.9906884917582
 30
0.0
 41
1.0
 10
-632.22647923342549
 20
-2428.9808946463659
 30
0.0
 41
1.0
 10
-632.22369034975509
 20
-2428.9711008009735
 30
0.0
 41
1.0
 10
-632.13732931146478
 20
-2428.667822946145
 30
0.0
 41
0.9999899749159679
 10
-632.05368770193786
 20
-2428.3637838577197
 30
0.0
 41
1.0
 10
-632.04358178292011
 20
-2428.3270486200404
 30
0.0
 41
1.0
 10
-632.03347586390237
 20
-2428.2903133823611
 30
0.0
 41
1.0
 10
-631.97004609240366
 20
-2428.0597447692685
 30
0.0
 41
0.9999214200505088
 10
-631.91241666402539
 20
-2427.8276584270579
 30
0.0
 41
1.0
 10
-631.89965081184278
 20
-2427.7762475416534
 30
0.0
 41
1.0
 10
-631.88688495966016
 20
-2427.724836656249
 30
0.0
 41
1.0
 10
-631.85478723564825
 20
-2427.5955720848515
 30
0.0
 41
0.9999828681678552
 10
-631.82420498365229
 20
-2427.465940610381
 30
0.0
 41
1.0
 10
-631.79362273165873
 20
-2427.3363091359211
 30
0.0
 41
0.9999389844481731
 10
-631.76591174286864
 20
-2427.2060336800182
 30
0.0
 41
1.0
 10
-631.75877399914793
 20
-2427.1724775761786
 30
0.0
 41
1.0
 10
-631.75163625542723
 20
-2427.1389214723386
 30
0.0
 41
1.0
 10
-631.7096497791963
 20
-2426.9415338087592
 30
0.0
 41
0.999893369944165
 10
-631.67344551479493
 20
-2426.7430042010033
 30
0.0
 41
1.0
 10
-631.67207268957873
 20
-2426.7354761803081
 30
0.0
 41
1.0
 10
-631.67069986436263
 20
-2426.7279481596124
 30
0.0
 41
1.0
 10
-631.63174994952658
 20
-2426.5143625104547
 30
0.0
 41
0.9996850305193633
 10
-631.6035662732686
 20
-2426.2990915050209
 30
0.0
 41
1.0
 10
-631.60157123989961
 20
-2426.283853150901
 30
0.0
 41
1.0
 10
-631.59957620653051
 20
-2426.2686147967811
 30
0.0
 41
1.0
 10
-631.57216834407154
 20
-2426.0592695696273
 30
0.0
 41
0.9994697936706758
 10
-631.55844378485176
 20
-2425.8485843742947
 30
0.0
 41
1.0
 10
-631.55796671560199
 20
-2425.841260902082
 30
0.0
 41
1.0
 10
-631.55748964635222
 20
-2425.8339374298694
 30
0.0
 41
1.0
 10
-631.54471922563187
 20
-2425.6378991789625
 30
0.0
 41
0.99918048931364
 10
-631.54784754190496
 20
-2425.4414703289904
 30
0.0
 41
1.0
 10
-631.54793142072708
 20
-2425.4362035275781
 30
0.0
 41
1.0
 10
-631.54801529954921
 20
-2425.4309367261658
 30
0.0
 41
1.0
 10
-631.55097585817794
 20
-2425.2450414790173
 30
0.0
 41
0.9988448329322223
 10
-631.57176740380146
 20
-2425.0602888891835
 30
0.0
 41
1.0
 10
-631.57336147750448
 20
-2425.0461240334125
 30
0.0
 41
1.0
 10
-631.57495555120749
 20
-2425.031959177642
 30
0.0
 41
1.0
 10
-631.59255894942498
 20
-2424.8755362993502
 30
0.0
 41
0.9985503209457758
 10
-631.62687522172473
 20
-2424.7219121152611
 30
0.0
 41
1.0
 10
-631.63446121379593
 20
-2424.6879517878606
 30
0.0
 41
1.0
 10
-631.64204720586724
 20
-2424.6539914604605
 30
0.0
 41
1.0
 10
-631.66119149402493
 20
-2424.5682879311703
 30
0.0
 41
0.9991036781370868
 10
-631.6875163556756
 20
-2424.4845108438467
 30
0.0
 41
1.0
 10
-631.69149858113383
 20
-2424.4718376813289
 30
0.0
 41
1.0
 10
-631.69548080659195
 20
-2424.4591645188116
 30
0.0
 41
1.0
 10
-631.7138412173299
 20
-2424.4007337565113
 30
0.0
 41
0.9998874504367018
 10
-631.73394642500512
 20
-2424.3428801542987
 30
0.0
 41
1.0
 10
-631.75405163268442
 20
-2424.2850265520728
 30
0.0
 41
0.9994041637544445
 10
-631.77810024561722
 20
-2424.2286978481866
 30
0.0
 41
1.0
 10
-631.78229702984152
 20
-2424.2188677837039
 30
0.0
 41
1.0
 10
-631.78649381406581
 20
-2424.2090377192212
 30
0.0
 41
1.0
 10
-631.8143726450611
 20
-2424.1437375532528
 30
0.0
 41
0.9991846840702695
 10
-631.84742900175354
 20
-2424.0808995219741
 30
0.0
 41
1.0
 10
-631.84856560814887
 20
-2424.0787389055185
 30
0.0
 41
1.0
 10
-631.84970221454432
 20
-2424.076578289063
 30
0.0
 41
1.0
 10
-631.88048535844825
 20
-2424.0180614906908
 30
0.0
 41
0.9989253167922156
 10
-631.91655478250163
 20
-2423.9626465623037
 30
0.0
 41
1.0
 10
-631.91760890717626
 20
-2423.9610270675407
 30
0.0
 41
1.0
 10
-631.91866303185088
 20
-2423.9594075727778
 30
0.0
 41
1.0
 10
-631.9526242065557
 20
-2423.9072316339143
 30
0.0
 41
0.9986467172835037
 10
-631.99182135919386
 20
-2423.8588656002839
 30
0.0
 41
1.0
 10
-631.99269548789403
 20
-2423.8577869980063
 30
0.0
 41
1.0
 10
-631.9935696165943
 20
-2423.8567083957287
 30
0.0
 41
1.0
 10
-632.03101851183044
 20
-2423.8104995666558
 30
0.0
 41
0.9984001104268877
 10
-632.0734452423485
 20
-2423.7688144592857
 30
0.0
 41
1.0
 10
-632.0740323804564
 20
-2423.7682375844061
 30
0.0
 41
1.0
 10
-632.07461951856442
 20
-2423.7676607095259
 30
0.0
 41
1.0
 10
-632.11587197286349
 20
-2423.7271293519188
 30
0.0
 41
0.9982442159084256
 10
-632.16162807420119
 20
-2423.6917607906562
 30
0.0
 41
1.0
 10
-632.16184286966381
 20
-2423.6915947580123
 30
0.0
 41
1.0
 10
-632.16205766512633
 20
-2423.6914287253685
 30
0.0
 41
1.0
 10
-632.20738417553798
 20
-2423.6563922293954
 30
0.0
 41
0.9982450060836832
 10
-632.25653515460863
 20
-2423.6269604463628
 30
0.0
 41
1.0
 10
-632.3056861336795
 20
-2423.5975286633297
 30
0.0
 41
0.9983922639636701
 10
-632.35785243984355
 20
-2423.5738490286758
 30
0.0
 41
1.0
 10
-632.35807931716886
 20
-2423.5737460431938
 30
0.0
 41
1.0
 10
-632.35830619449416
 20
-2423.5736430577122
 30
0.0
 41
1.0
 10
-632.41092625530973
 20
-2423.5497574520941
 30
0.0
 41
0.9986517147148307
 10
-632.46573922817811
 20
-2423.5314563329725
 30
0.0
 41
1.0
 10
-632.46641714960481
 20
-2423.5312299865418
 30
0.0
 41
1.0
 10
-632.46709507103151
 20
-2423.5310036401106
 30
0.0
 41
1.0
 10
-632.52326388675601
 20
-2423.5122498281257
 30
0.0
 41
0.9989435598957012
 10
-632.58091727390763
 20
-2423.4987321258914
 30
0.0
 41
1.0
 10
-632.58199739348879
 20
-2423.4984788756383
 30
0.0
 41
1.0
 10
-632.58307751307007
 20
-2423.4982256253857
 30
0.0
 41
1.0
 10
-632.6428911393856
 20
-2423.4842014226451
 30
0.0
 41
0.9992249241240783
 10
-632.70362264828339
 20
-2423.4749260799294
 30
0.0
 41
1.0
 10
-632.70503633657381
 20
-2423.474710171522
 30
0.0
 41
1.0
 10
-632.70645002486424
 20
-2423.4744942631141
 30
0.0
 41
1.0
 10
-632.77000891034356
 20
-2423.4647871035831
 30
0.0
 41
0.9994396597833422
 10
-632.83407484687973
 20
-2423.4593541812374
 30
0.0
 41
1.0
 10
-632.853215514358
 20
-2423.4577310135187
 30
0.0
 41
1.0
 10
-632.87235618183627
 20
-2423.4561078458
 30
0.0
 41
1.0
 10
-632.97470345332772
 20
-2423.4474285880169
 30
0.0
 41
0.9987693403121128
 10
-633.07740707691357
 20
-2423.4489316514696
 30
0.0
 41
1.0
 10
-633.08766141114415
 20
-2423.4490817232436
 30
0.0
 41
1.0
 10
-633.09791574537462
 20
-2423.449231795018
 30
0.0
 41
1.0
 10
-633.20747151155115
 20
-2423.4508351393056
 30
0.0
 41
0.9989753644966539
 10
-633.31643351156572
 20
-2423.4623381462306
 30
0.0
 41
1.0
 10
-633.42539551158302
 20
-2423.4738411531562
 30
0.0
 41
0.9983190067306506
 10
-633.53229432254875
 20
-2423.4978761449433
 30
0.0
 41
1.0
 10
-633.54119527415469
 20
-2423.4998774235055
 30
0.0
 41
1.0
 10
-633.55009622576063
 20
-2423.5018787020681
 30
0.0
 41
1.0
 10
-633.67479693993789
 20
-2423.5299162509796
 30
0.0
 41
0.9985539388302301
 10
-633.79576669361529
 20
-2423.5711799270252
 30
0.0
 41
1.0
 10
-633.79811212457639
 20
-2423.5719799708413
 30
0.0
 41
1.0
 10
-633.80045755553761
 20
-2423.5727800146574
 30
0.0
 41
1.0
 10
-633.92611817113811
 20
-2423.6156437783357
 30
0.0
 41
0.9988468746493837
 10
-634.04708851343912
 20
-2423.6703618633983
 30
0.0
 41
1.0
 10
-634.05027133542649
 20
-2423.6718015379574
 30
0.0
 41
1.0
 10
-634.05345415741385
 20
-2423.673241212517
 30
0.0
 41
1.0
 10
-634.18079014368902
 20
-2423.7308386466984
 30
0.0
 41
0.9991322885919752
 10
-634.30289072774519
 20
-2423.7988339788794
 30
0.0
 41
1.0
 10
-634.32049273879363
 20
-2423.8086361808719
 30
0.0
 41
1.0
 10
-634.33809474984207
 20
-2423.8184383828639
 30
0.0
 41
1.0
 10
-634.4402714308975
 20
-2423.8753384986435
 30
0.0
 41
0.9993860037848533
 10
-634.53821243496679
 20
-2423.93925451423
 30
0.0
 41
1.0
 10
-634.54383074781742
 20
-2423.9429210089238
 30
0.0
 41
1.0
 10
-634.54944906066805
 20
-2423.9465875036176
 30
0.0
 41
1.0
 10
-634.63615343903689
 20
-2424.0031705298165
 30
0.0
 41
0.9998821494954424
 10
-634.72107981485306
 20
-2424.0623887598954
 30
0.0
 41
1.0
 10
-634.80600619067002
 20
-2424.1216069899747
 30
0.0
 41
0.9997976482743671
 10
-634.88848182107245
 20
-2424.1841933980163
 30
0.0
 41
1.0
 10
-634.9031180858758
 20
-2424.1953000877947
 30
0.0
 41
1.0
 10
-634.91775435067927
 20
-2424.2064067775736
 30
0.0
 41
1.0
 10
-635.0295025106891
 20
-2424.2912065651722
 30
0.0
 41
0.9998091630799689
 10
-635.13785278871876
 20
-2424.3803069158748
 30
0.0
 41
1.0
 10
-635.15085854119684
 20
-2424.3910020163216
 30
0.0
 41
1.0
 10
-635.16386429367503
 20
-2424.4016971167684
 30
0.0
 41
1.0
 10
-635.29822607665528
 20
-2424.5121876683602
 30
0.0
 41
0.9995035112316936
 10
-635.4253619544204
 20
-2424.6309214853763
 30
0.0
 41
1.0
 10
-635.43500926480681
 20
-2424.6399312315334
 30
0.0
 41
1.0
 10
-635.44465657519322
 20
-2424.6489409776905
 30
0.0
 41
1.0
 10
-635.56807963795904
 20
-2424.7642073494471
 30
0.0
 41
0.99946304242995
 10
-635.6836880437445
 20
-2424.8873100926835
 30
0.0
 41
1.0
 10
-635.68737088251646
 20
-2424.8912316721971
 30
0.0
 41
1.0
 10
-635.69105372128843
 20
-2424.8951532517108
 30
0.0
 41
1.0
 10
-635.79929644952961
 20
-2425.0104128359199
 30
0.0
 41
0.9995160693749581
 10
-635.90016247906044
 20
-2425.1321802537914
 30
0.0
 41
1.0
 10
-635.9020961991414
 20
-2425.134514678
 30
0.0
 41
1.0
 10
-635.90402991922247
 20
-2425.1368491022085
 30
0.0
 41
1.0
 10
-636.00102850859207
 20
-2425.2539476716638
 30
0.0
 41
0.9996561470514814
 10
-636.09175472725826
 20
-2425.3759704341128
 30
0.0
 41
1.0
 10
-636.09791239316041
 20
-2425.3842522231553
 30
0.0
 41
1.0
 10
-636.10407005906245
 20
-2425.3925340121978
 30
0.0
 41
1.0
 10
-636.18248094592161
 20
-2425.4979931965586
 30
0.0
 41
0.9998349055173564
 10
-636.25700822785643
 20
-2425.6062317802252
 30
0.0
 41
1.0
 10
-636.33153550978545
 20
-2425.7144703638846
 30
0.0
 41
0.9999728109569398
 10
-636.40445840570555
 20
-2425.8237962894541
 30
0.0
 41
1.0
 10
-636.40577362111389
 20
-2425.8257680589513
 30
0.0
 41
1.0
 10
-636.40708883652223
 20
-2425.827739828449
 30
0.0
 41
1.0
 10
-636.48264216325606
 20
-2425.9410092930102
 30
0.0
 41
0.9999972147383918
 10
-636.55765997360879
 20
-2426.0546341358136
 30
0.0
 41
1.0
 10
-636.56263151624171
 20
-2426.0621642243018
 30
0.0
 41
1.0
 10
-636.56760305887462
 20
-2426.06969431279
 30
0.0
 41
1.0
 10
-636.65256395449182
 20
-2426.198379332568
 30
0.0
 41
0.999937197900765
 10
-636.73461930389726
 20
-2426.3289362463474
 30
0.0
 41
1.0
 10
-636.73812818825945
 20
-2426.3345191744129
 30
0.0
 41
1.0
 10
-636.74163707262164
 20
-2426.3401021024788
 30
0.0
 41
1.0
 10
-636.83071019075157
 20
-2426.4818248723891
 30
0.0
 41
0.9998272025610241
 10
-636.91445358163514
 20
-2426.6267607491345
 30
0.0
 41
1.0
 10
-636.92966875365778
 20
-2426.6530938635888
 30
0.0
 41
1.0
 10
-636.94488392568041
 20
-2426.679426978043
 30
0.0
 41
1.0
 10
-637.05905766061255
 20
-2426.8770290837024
 30
0.0
 41
0.999521721483792
 10
-637.16079735016638
 20
-2427.0813114115617
 30
0.0
 41
1.0
 10
-637.16844091280223
 20
-2427.0966588612664
 30
0.0
 41
1.0
 10
-637.17608447543807
 20
-2427.1120063109706
 30
0.0
 41
1.0
 10
-637.26298976802673
 20
-2427.28650276905
 30
0.0
 41
0.9998269762608075
 10
-637.343344234298
 20
-2427.4641110557714
 30
0.0
 41
1.0
 10
-637.42369870056962
 20
-2427.6417193424936
 30
0.0
 41
0.9998944747387736
 10
-637.49885949513418
 20
-2427.8215870681229
 30
0.0
 41
1.0
 10
-637.50381316472613
 20
-2427.8334417230417
 30
0.0
 41
1.0
 10
-637.50876683431795
 20
-2427.8452963779609
 30
0.0
 41
1.0
 10
-637.58941389487222
 20
-2428.0382933179835
 30
0.0
 41
0.9999506734412438
 10
-637.6662114237738
 20
-2428.2328541228344
 30
0.0
 41
1.0
 10
-637.68081138904085
 20
-2428.2698420446304
 30
0.0
 41
1.0
 10
-637.69541135430802
 20
-2428.3068299664269
 30
0.0
 41
1.0
 10
-637.74300895267174
 20
-2428.4274149276757
 30
0.0
 41
0.9999912393924796
 10
-637.78959539669995
 20
-2428.5483941303864
 30
0.0
 41
1.0
 10
-637.8361818407177
 20
-2428.6693733330699
 30
0.0
 41
0.9999927113995855
 10
-637.88184313511636
 20
-2428.7907047405838
 30
0.0
 41
1.0
 10
-637.89581156651411
 20
-2428.8278217225829
 30
0.0
 41
1.0
 10
-637.90977999791198
 20
-2428.8649387045821
 30
0.0
 41
1.0
 10
-637.98337815509785
 20
-2429.0605040760715
 30
0.0
 41
0.9999487550950185
 10
-638.05300178007246
 20
-2429.2575194412616
 30
0.0
 41
1.0
 10
-638.07659539001122
 20
-2429.3242827515596
 30
0.0
 41
1.0
 10
-638.10018899994998
 20
-2429.3910460618581
 30
0.0
 41
1.0
 10
-638.19487463431847
 20
-2429.6589798966766
 30
0.0
 41
0.9999808436934899
 10
-638.28623622295913
 20
-2429.9280653279393
 30
0.0
 41
1.0
 10
-638.37759781159195
 20
-2430.1971507591788
 30
0.0
 41
0.999987393290269
 10
-638.46625252031572
 20
-2430.4671401142082
 30
0.0
 41
1.0
 10
-638.48634487718653
 20
-2430.5283294469655
 30
0.0
 41
1.0
 10
-638.50643723405733
 20
-2430.5895187797228
 30
0.0
 41
1.0
 10
-638.63527665651486
 20
-2430.981886800244
 30
0.0
 41
0.9999794883028269
 10
-638.75907944147525
 20
-2431.3758730065292
 30
0.0
 41
1.0
 10
-638.7702317009132
 20
-2431.4113636167676
 30
0.0
 41
1.0
 10
-638.78138396035104
 20
-2431.446854227006
 30
0.0
 41
1.0
 10
-638.92394212423392
 20
-2431.9005269790464
 30
0.0
 41
0.9999982761735645
 10
-639.0648145642599
 20
-2432.3547260012033
 30
0.0
 41
1.0
 10
-640.65295489683251
 20
-2437.4034957322065
 30
0.0
 41
1.0
 10
-642.24109522940512
 20
-2442.4522654632101
 30
0.0
 41
1.0
 10
-643.1898458408815
 20
-2442.4522654632101
 30
0.0
 41
1.0
 10
-644.13859645235789
 20
-2442.4522654632101
 30
0.0
 41
1.0
 10
-640.90031196620475
 20
-2432.124943263264
 30
0.0
 41
1.0
 10
-637.66202748005151
 20
-2421.7976210633178
 30
0.0
 41
1.0
  0
LWPOLYLINE
  5
57
100
AcDbEntity
  8
0
370
              15
390
0
  6
Continuous
 62
               7
100
AcDbPolyline
 90
      232
 70
             128
 10
-663.36557325387855
 20
-2422.8819638948326
 42
0.0004370800692276
 10
-663.4184504279574
 20
-2422.9506305340983
 10
-663.45773465907803
 20
-2423.0017376469859
 42
0.0030481992177424
 10
-663.58807337620442
 20
-2423.1734593393394
 10
-663.62658504794763
 20
-2423.2248461231179
 42
0.0042058245758506
 10
-663.83057009861318
 20
-2423.5018518681859
 10
-663.88297522111816
 20
-2423.5742847149722
 42
0.0120948898741539
 10
-664.17901913787875
 20
-2424.0050343195203
 10
-664.27521163700249
 20
-2424.1525150547477
 42
0.0141601263947332
 10
-664.57885568392351
 20
-2424.6481843914817
 10
-664.61839295134985
 20
-2424.7170283589139
 42
0.0071131081296198
 10
-664.82366527458794
 20
-2425.0865311577518
 42
0.0068458791003275
 10
-665.01854480142822
 20
-2425.4616227212223
 10
-665.02535666388872
 20
-2425.4751844349512
 42
0.0064120880287665
 10
-665.22349891392946
 20
-2425.8826089098629
 10
-665.23103359945003
 20
-2425.8986207665916
 42
0.0058857236448436
 10
-665.43378899132028
 20
-2426.3429968776231
 10
-665.44196391761568
 20
-2426.3614870312604
 42
0.0053189741893508
 10
-665.6506682302836
 20
-2426.847450505179
 10
-665.65941603596457
 20
-2426.8684323833741
 42
0.0047503650418478
 10
-665.87538976211681
 20
-2427.400631816588
 10
-665.88465801046345
 20
-2427.4241081926921
 42
0.00420717621736
 10
-666.10920539419249
 20
-2428.0072017867651
 10
-666.11895479653981
 20
-2428.0331679616311
 42
0.0036680086483331
 10
-666.35340943985193
 20
-2428.671803346163
 10
-666.36361721969968
 20
-2428.7002518805075
 42
0.003257314263194
 10
-666.60924950566732
 20
-2429.3991045402636
 10
-666.67790002650736
 20
-2429.5985676243145
 42
0.002613336664858
 10
-667.026345225265
 20
-2430.6284309079856
 10
-667.08960201276636
 20
-2430.8186617433807
 42
0.0020592950743103
 10
-667.30346508173284
 20
-2431.4707653959913
 10
-667.30651687289446
 20
-2431.4802018843966
 42
0.0025609928535716
 10
-667.50833737438177
 20
-2432.1153471067673
 10
-667.51092874150743
 20
-2432.1236494477043
 42
0.0031362356240429
 10
-667.70041952718543
 20
-2432.7444123038872
 10
-667.70255057011639
 20
-2432.7515536101105
 42
0.0037229918031092
 10
-667.87935095703915
 20
-2433.3605389120726
 10
-667.88102954624253
 20
-2433.3664858022362
 42
0.0043077623705994
 10
-668.04477034831064
 20
-2433.9663045340158
 42
0.0047654161821025
 10
-668.19759907082687
 20
-2434.568990622919
 10
-668.23206367966577
 20
-2434.7105524000681
 42
0.0112969368446259
 10
-668.42792803780935
 20
-2435.6022445606923
 10
-668.45593442690597
 20
-2435.74507260679
 42
0.0130056762571675
 10
-668.65677167055264
 20
-2436.9320136784349
 10
-668.67731142069943
 20
-2437.0760917919092
 42
0.0138721532143854
 10
-668.78101442523757
 20
-2437.9829212777377
 10
-668.80030991314607
 20
-2438.2064189996704
 42
0.007125469701017
 10
-668.833656559068
 20
-2438.6696060085101
 10
-668.83861753323185
 20
-2438.7556100030802
 42
0.0028881799203173
 10
-668.85375582652114
 20
-2439.0473517129126
 42
0.0060297297137598
 10
-668.8636880262967
 20
-2439.3393006490282
 10
-668.86475030796373
 20
-2439.3876930209585
 42
0.0229523164160938
 10
-668.85701928017806
 20
-2439.7104478672441
 10
-668.85279350665792
 20
-2439.7708514012566
 42
0.0123673300670611
 10
-668.83371486013937
 20
-2439.971972126435
 42
0.0128577674468945
 10
-668.80451946973312
 20
-2440.171869976361
 10
-668.79739359634607
 20
-2440.2131987909588
 42
0.0285717853759774
 10
-668.7328995946508
 20
-2440.49131494227
 10
-668.7192310709836
 20
-2440.5379697117505
 42
0.0316283099163098
 10
-668.60342049106976
 20
-2440.8569842135753
 10
-668.60037179931373
 20
-2440.8639705859018
 42
0.0338984824243009
 10
-668.45094008834701
 20
-2441.15153655009
 10
-668.44863135897788
 20
-2441.1553275793644
 42
0.0350228718356726
 10
-668.26627106830358
 20
-2441.4123795640426
 10
-668.26538581652892
 20
-2441.4134586418063
 42
0.0347476747521043
 10
-668.05096112928845
 20
-2441.640643689027
 42
0.0331337701914246
 10
-667.80771780353962
 20
-2441.8367723511064
 10
-667.80661770502593
 20
-2441.8375450542771
 42
0.0305233319071373
 10
-667.53807300945516
 20
-2442.0026732243668
 10
-667.53484296495139
 20
-2442.0043972362309
 42
0.0273744481145301
 10
-667.24228925337673
 20
-2442.1405353801215
 10
-667.23718471823952
 20
-2442.1425789645909
 42
0.0240964406200086
 10
-666.92170764259788
 20
-2442.2515626908712
 10
-666.91512431338379
 20
-2442.2534874305475
 42
0.0209636179813097
 10
-666.57772416072521
 20
-2442.3369555784807
 10
-666.57009170028255
 20
-2442.3385074914809
 42
0.0181388704690189
 10
-666.21176930829176
 20
-2442.3979235846937
 10
-666.20348845990588
 20
-2442.3989897685119
 42
0.0156086547589935
 10
-665.82530109571178
 20
-2442.4357259550889
 10
-665.78210584339217
 20
-2442.4385644575673
 42
0.0137148329028863
 10
-665.45443269809118
 20
-2442.4510847128186
 10
-665.40849650813391
 20
-2442.4515791459339
 42
0.0051057823889139
 10
-665.17235092157296
 20
-2442.4517094003431
 42
0.0052256693312269
 10
-664.93625363778972
 20
-2442.4469605758791
 10
-664.86602685404489
 20
-2442.4448136098649
 42
0.0161507179048319
 10
-664.49028977594719
 20
-2442.4211632395386
 10
-664.47027681557051
 20
-2442.4192530442506
 42
0.0101216737833248
 10
-664.05624959407135
 20
-2442.3712601138845
 10
-664.02219630465311
 20
-2442.3666124170759
 42
0.0245291776392223
 10
-663.54540664910564
 20
-2442.2775373390004
 10
-663.46058333357405
 20
-2442.2573414186527
 42
0.0143509212561543
 10
-663.10395222963837
 20
-2442.1615367848749
 42
0.0156557857032128
 10
-662.75373616491288
 20
-2442.044525569057
 10
-662.74623495041646
 20
-2442.0417554073019
 42
0.0170137333634837
 10
-662.38963895472909
 20
-2441.896097792428
 10
-662.38253503232761
 20
-2441.8929099568672
 42
0.0183105364410314
 10
-662.02318536416783
 20
-2441.7155749150461
 10
-662.01623859952258
 20
-2441.7118244801704
 42
0.0194899958159109
 10
-661.65775785853532
 20
-2441.4998454982774
 10
-661.65074397920193
 20
-2441.4953201559847
 42
0.0204869852959473
 10
-661.29672967711076
 20
-2441.2458001409009
 10
-661.28946406852094
 20
-2441.2402200755505
 42
0.0212516938561929
 10
-660.94347413741491
 20
-2440.9503160786576
 10
-660.89695744333596
 20
-2440.9078487685611
 42
0.0215248918249146
 10
-660.63693127444958
 20
-2440.6490844895679
 10
-660.59190154006842
 20
-2440.6002403682173
 42
0.0114578554966652
 10
-660.43710938639174
 20
-2440.4244174347596
 10
-660.42591485040816
 20
-2440.411098671218
 42
0.0061531305123858
 10
-660.29944020441064
 20
-2440.2568091379089
 42
0.0006325587120958
 10
-660.17506172027151
 20
-2440.1008057622489
 10
-660.15202158520742
 20
-2440.0718322415737
 42
0.0041897761549585
 10
-659.98356618122079
 20
-2439.8563128654941
 10
-659.92510406134249
 20
-2439.7802115185268
 42
0.0092993880035357
 10
-659.64849213412049
 20
-2439.4059327546452
 10
-659.56609764092173
 20
-2439.2899957510767
 42
0.0159321727083331
 10
-659.21949115827749
 20
-2438.7678215303176
 10
-659.17513502288807
 20
-2438.696141966067
 42
0.0085547317027314
 10
-658.94062325756272
 20
-2438.302267016843
 42
0.0084601156888451
 10
-658.71964708011978
 20
-2437.9006401678093
 10
-658.71153160629024
 20
-2437.8852804855378
 42
0.0081429654281821
 10
-658.48828233585448
 20
-2437.445558973001
 10
-658.47942217166872
 20
-2437.4273801309778
 42
0.0076574581328478
 10
-658.25301466109954
 20
-2436.9441972557192
 10
-658.24353502037832
 20
-2436.9231327774214
 42
0.0070682724202711
 10
-658.01309011256842
 20
-2436.3910954726334
 10
-658.00309982858982
 20
-2436.3671062836293
 42
0.0064559514448651
 10
-657.76776662040822
 20
-2435.7807940171101
 10
-657.7573572622432
 20
-2435.7538590916679
 42
0.0058311413907898
 10
-657.51631052547884
 20
-2435.1078269972795
 10
-657.50555544809288
 20
-2435.0779426561235
 42
0.0052312425819972
 10
-657.2579741700514
 20
-2434.3667402422871
 10
-657.24693033367225
 20
-2434.3339135302194
 42
0.0046680544795548
 10
-656.99200190593899
 20
-2433.5520872144684
 10
-656.95000975589096
 20
-2433.4191039771617
 42
0.0041666856445623
 10
-656.74672374349916
 20
-2432.7561352021667
 10
-656.70906130284106
 20
-2432.6295540945325
 42
0.0015170975152792
 10
-656.58787472442236
 20
-2432.2176857430195
 42
-0.0004887993114614
 10
-656.46753495132373
 20
-2431.8055673310619
 10
-656.39105769380421
 20
-2431.5446099450364
 42
0.0002583378929731
 10
-656.11784312373641
 20
-2430.6105532418451
 10
-656.03607027415296
 20
-2430.3304539822389
 42
0.0006636169676439
 10
-655.84220251415195
 20
-2429.6631010586871
 10
-655.83710585980805
 20
-2429.6454694758181
 42
0.0010589131325293
 10
-655.65565715888829
 20
-2429.0127381327584
 10
-655.65067508840275
 20
-2428.9952252257208
 42
0.0015655524459976
 10
-655.48240488122497
 20
-2428.3966085465372
 10
-655.47757468081534
 20
-2428.379216387621
 42
0.0021640440481647
 10
-655.32328470882408
 20
-2427.8141893695833
 10
-655.31865048939403
 20
-2427.7969246395887
 42
0.0028763871850386
 10
-655.17913477134107
 20
-2427.2649566887426
 10
-655.17474890717278
 20
-2427.2478327105841
 42
0.0037310511951164
 10
-655.05079221533697
 20
-2426.7483851165644
 10
-655.04671699504706
 20
-2426.7314248453154
 42
0.0047652197775381
 10
-654.93909309453954
 20
-2426.2639470770137
 10
-654.93540249521732
 20
-2426.2471875218685
 42
0.0060276699298361
 10
-654.84487239606256
 20
-2425.8111117267194
 10
-654.84165370577352
 20
-2425.7946105124106
 42
0.007582433776056
 10
-654.76896439635789
 20
-2425.3893433479843
 10
-654.76631901897736
 20
-2425.3731884005319
 42
0.0095130624612346
 10
-654.71220378334647
 20
-2424.9980990474614
 10
-654.70521755946368
 20
-2424.9421654893436
 42
0.0121054653236475
 10
-654.67862622888595
 20
-2424.6772696608714
 10
-654.67775973912671
 20
-2424.6658662179461
 42
0.0069050827380197
 10
-654.66267092108865
 20
-2424.4229249910982
 10
-654.66153562141994
 20
-2424.39939873405
 42
0.0169063976695672
 10
-654.65870834243992
 20
-2424.2032060067527
 10
-654.65987899397123
 20
-2424.1428702454018
 42
0.0052007732934892
 10
-654.66213244256414
 20
-2424.0672768552513
 42
0.005403812330339
 10
-654.68209595440521
 20
-2423.9472585592289
 10
-654.68718181027339
 20
-2423.9186000726604
 42
0.0112050460465284
 10
-654.72256617233325
 20
-2423.7422736343151
 10
-654.74039113437266
 20
-2423.6627320476005
 42
0.0240764468008733
 10
-654.83128850052003
 20
-2423.3324950120955
 10
-654.84984726333153
 20
-2423.2758748471074
 42
0.0256812331831521
 10
-654.9932101835218
 20
-2422.904150640848
 10
-654.99861960934163
 20
-2422.8920193058616
 42
0.0268360501213698
 10
-655.16804685019304
 20
-2422.5610261718375
 10
-655.17358325782891
 20
-2422.5515065015238
 42
0.0274670231734207
 10
-655.36578423424135
 20
-2422.2592191266076
 10
-655.37116553420265
 20
-2422.2519399790681
 42
0.0275035967087782
 10
-655.58273841376581
 20
-2421.9964240887621
 10
-655.58780791473396
 20
-2421.9909450011301
 42
0.0269557673530452
 10
-655.81521145817192
 20
-2421.7703027151697
 10
-655.81995451595287
 20
-2421.7661727607106
 42
0.0259124802207079
 10
-656.0595093473853
 20
-2421.5784822335563
 10
-656.06404019256547
 20
-2421.5752967312274
 42
0.0245162152998219
 10
-656.31195654566204
 20
-2421.4185637221153
 10
-656.31648309198692
 20
-2421.4160035249142
 42
0.0229282588837911
 10
-656.56890264881361
 20
-2421.2881353324155
 10
-656.57368314265079
 20
-2421.2859830326533
 42
0.0212984135685816
 10
-656.82672109511213
 20
-2421.1847841154113
 10
-656.83202538008368
 20
-2421.1829205526506
 42
0.0197555462350939
 10
-657.08180371780463
 20
-2421.1061051346869
 42
0.0183511896795991
 10
-657.3367324432736
 20
-2421.0485222277202
 10
-657.42309763998935
 20
-2421.0323194373364
 42
0.0338057877142046
 10
-657.70860498925106
 20
-2420.9985110321959
 10
-657.79961039429884
 20
-2420.9939313769346
 42
0.0091990524494249
 10
-657.90545750292699
 20
-2420.9905555210125
 42
0.0028333980821075
 10
-658.01137141895038
 20
-2420.989727413496
 10
-658.01228687196931
 20
-2420.9897254436719
 42
-0.0023619827775015
 10
-658.12003288717631
 20
-2420.9889846025922
 10
-658.15643805725108
 20
-2420.9885622961301
 42
0.0008824598470673
 10
-658.33699404711399
 20
-2420.9867865178921
 10
-658.38085547950686
 20
-2420.9864325563667
 42
0.0038132665767855
 10
-658.64913837535175
 20
-2420.9863136202994
 10
-658.66567203017917
 20
-2420.9864323864431
 42
0.0060665569340819
 10
-658.96695252180746
 20
-2420.9922526858654
 10
-658.98120285379582
 20
-2420.9927009938319
 42
0.0080356953342267
 10
-659.31066157014141
 20
-2421.008368715899
 10
-659.3227315852223
 20
-2421.0091372988391
 42
0.0098996399101037
 10
-659.67549466987668
 20
-2421.0386225280372
 10
-659.68554037924787
 20
-2421.0396628242352
 42
0.0117740981362079
 10
-660.05669723759775
 20
-2421.0869550717653
 10
-660.06491993407917
 20
-2421.088200188336
 42
0.0137435215140381
 10
-660.44950875356642
 20
-2421.1572971618984
 10
-660.45616579268767
 20
-2421.1586830581314
 42
0.0158359869385475
 10
-660.84916288649106
 20
-2421.2535751466125
 10
-660.85457607335729
 20
-2421.2550650874828
 42
0.0180554124029704
 10
-661.2508911179699
 20
-2421.3797031037216
 10
-661.25544790605306
 20
-2421.3813191399877
 42
0.0203657431284232
 10
-661.6499254238629
 20
-2421.5395794815026
 10
-661.65406896287175
 20
-2421.5414411029451
 42
0.0226819684661865
 10
-662.04150501907964
 20
-2421.7370836816185
 10
-662.04570481009353
 20
-2421.7394492735357
 42
0.0248634984602268
 10
-662.42088675127354
 20
-2421.9760759194824
 10
-662.46908168005609
 20
-2422.0099329613072
 42
0.0267044190883145
 10
-662.74337437697523
 20
-2422.2253733371772
 42
0.013930300219755
 10
-662.99954154291777
 20
-2422.4626121780925
 10
-663.00439492863495
 20
-2422.4673648409489
 42
0.0283460963438369
 10
-663.24846752286203
 20
-2422.735095501394
 10
-663.2881360280187
 20
-2422.7838970788671
 42
0.0070695364826422
 10
-663.36557325387855
 20
-2422.8819638948326
 42
0.0070695364826422
  0
LWPOLYLINE
  5
58
100
AcDbEntity
  8
0
370
              15
390
0
  6
Continuous
 62
               7
100
AcDbPolyline
 90
      226
 70
             128
 10
-666.89439369112495
 20
-2438.6035527010167
 42
-0.0026277636589523
 10
-666.89447157492498
 20
-2438.5367807752491
 10
-666.89425421669296
 20
-2438.4836255578307
 42
-0.0088680296718334
 10
-666.89047760039989
 20
-2438.3106097754271
 10
-666.88813124128751
 20
-2438.251329749974
 42
-0.0077381705621845
 10
-666.8720851305244
 20
-2437.9600692541776
 10
-666.87121721935125
 20
-2437.9477810204908
 42
-0.006887253053782
 10
-666.84458513960317
 20
-2437.6325592684225
 10
-666.84338091541701
 20
-2437.6203182894028
 42
-0.0062130021485924
 10
-666.80578719858852
 20
-2437.2814485981585
 10
-666.80428329505412
 20
-2437.2692747262477
 42
-0.0056726929668971
 10
-666.75536143555235
 20
-2436.9070795041375
 10
-666.75358798990737
 20
-2436.8949857038888
 42
-0.0052341884489584
 10
-666.69297740364755
 20
-2436.5097924483716
 10
-666.6909594148708
 20
-2436.4977875183786
 42
-0.0049768450168772
 10
-666.61822073344354
 20
-2436.0899429509418
 10
-666.59397171872263
 20
-2435.9613949679401
 42
-0.008902980562709
 10
-666.45689086692846
 20
-2435.2996195205205
 10
-666.42414549160935
 20
-2435.1545880899944
 42
-0.0080318257096326
 10
-666.19459687726817
 20
-2434.2088784581388
 10
-666.18261195082039
 20
-2434.1627478229507
 42
-0.0074265721321039
 10
-665.89860041197062
 20
-2433.1326832445711
 10
-665.87872086885443
 20
-2433.0645491839832
 42
-0.0069711922702972
 10
-665.55141629034711
 20
-2431.9982814436526
 10
-665.4914643432428
 20
-2431.8122600852857
 42
-0.0052070422895783
 10
-665.26203911798234
 20
-2431.1249880082505
 10
-665.24475792580404
 20
-2431.0749607276157
 42
-0.000916700444915
 10
-665.04166603852059
 20
-2430.4905048794794
 42
-0.0025162726949253
 10
-664.83456840825659
 20
-2429.9074636153132
 10
-664.79734379645402
 20
-2429.8043140694158
 42
-0.002821268145741
 10
-664.54916787748948
 20
-2429.1285834372406
 10
-664.53933711473485
 20
-2429.1022759925536
 42
-0.0031964916822804
 10
-664.30304485707654
 20
-2428.4820712304368
 10
-664.29341040307872
 20
-2428.4572612402967
 42
-0.0036281836454891
 10
-664.06830444197635
 20
-2427.8898205594005
 10
-664.05886603182012
 20
-2427.8665231279006
 42
-0.0041269166834901
 10
-663.8442483351597
 20
-2427.3490822319195
 10
-663.81161537873948
 20
-2427.2722037855597
 42
-0.0047472213056754
 10
-663.65457057318531
 20
-2426.9117823176748
 10
-663.64767649197449
 20
-2426.8963617203372
 42
-0.0025651659997857
 10
-663.49931845812694
 20
-2426.5690336645944
 42
-0.0057144635000695
 10
-663.34556876435499
 20
-2426.2442239912307
 10
-663.31753805895539
 20
-2426.1867156088397
 42
-0.0065388068370368
 10
-663.1340710312146
 20
-2425.8224831121724
 10
-663.12561257543712
 20
-2425.8062235328048
 42
-0.0074510843022356
 10
-662.94943032955825
 20
-2425.4795352516803
 10
-662.94125065902574
 20
-2425.464894474409
 42
-0.0084648979855566
 10
-662.77161680592712
 20
-2425.1729854634505
 10
-662.76376067943932
 20
-2425.1599784718001
 42
-0.0095638542802858
 10
-662.59992523184485
 20
-2424.9000895998211
 10
-662.59245028817645
 20
-2424.8887202383708
 42
-0.0107191626803346
 10
-662.43364870778555
 20
-2424.6581090038217
 10
-662.42663197405261
 20
-2424.6483729114543
 42
-0.0118458573891344
 10
-662.27208387554197
 20
-2424.4443007161462
 42
-0.0129184518201336
 10
-662.10763125193955
 20
-2424.2481401999748
 10
-662.07748647957499
 20
-2424.2140141210739
 42
-0.0217742579636549
 10
-661.90087415724201
 20
-2424.0308073508263
 10
-661.89012861278604
 20
-2424.0205905176276
 42
-0.0097266568652939
 10
-661.72407099392581
 20
-2423.8687429431861
 42
-0.0187720905717271
 10
-661.54972341803591
 20
-2423.7266740897967
 10
-661.51901742736527
 20
-2423.703515007403
 42
-0.0179428207521874
 10
-661.28659670736602
 20
-2423.5409628302891
 10
-661.28294438045077
 20
-2423.5385988954017
 42
-0.0170047877696626
 10
-661.04718074291986
 20
-2423.3971383812495
 10
-661.04339775417827
 20
-2423.395040076216
 42
-0.0160190788366308
 10
-660.806489206538
 20
-2423.2733887742252
 42
-0.0151102861480295
 10
-660.56245742408873
 20
-2423.1667059981696
 10
-660.51007092187956
 20
-2423.145665865276
 42
-0.0271945441891914
 10
-660.15140836282364
 20
-2423.0238010545704
 10
-660.08234356233243
 20
-2423.0044515133036
 42
-0.0237596594020148
 10
-659.66654671531069
 20
-2422.9090008013222
 10
-659.59848386158023
 20
-2422.8967461131956
 42
-0.0213715440562133
 10
-659.31260893013496
 20
-2422.8577990816857
 10
-659.25246176392102
 20
-2422.8522093669849
 42
-0.0101465655823397
 10
-659.08496923192286
 20
-2422.8400658237206
 10
-659.07562884571428
 20
-2422.8395789087226
 42
-0.0100375910878873
 10
-658.92647474516207
 20
-2422.8348030907978
 10
-658.91621547548925
 20
-2422.8346806517834
 42
-0.0103625633385079
 10
-658.78750748082689
 20
-2422.83581208531
 10
-658.76524182956757
 20
-2422.8364694437746
 42
-0.0115689250265247
 10
-658.68119109203201
 20
-2422.8408989500203
 42
-0.007243803745896
 10
-658.59735281260919
 20
-2422.8484881497679
 10
-658.58055230312004
 20
-2422.8502546924938
 42
-0.0217917313147585
 10
-658.46398253980578
 20
-2422.8676745852154
 10
-658.39838244923737
 20
-2422.8804211936299
 42
-0.0332943556747315
 10
-658.1939902842114
 20
-2422.9344614849365
 10
-658.16381771566182
 20
-2422.9446295620546
 42
-0.0184824084799081
 10
-658.02531265919583
 20
-2422.9970805774415
 42
-0.0198002050700188
 10
-657.89123831870006
 20
-2423.059964637639
 10
-657.88935168131957
 20
-2423.0609424245208
 42
-0.0212242342969865
 10
-657.75721273891929
 20
-2423.1367051633129
 10
-657.75539744337425
 20
-2423.1378509655224
 42
-0.0226090605791644
 10
-657.62689354215308
 20
-2423.227330609086
 10
-657.62504910041503
 20
-2423.2287428620739
 42
-0.023845705222606
 10
-657.50186701912241
 20
-2423.3327387579361
 10
-657.49991429056308
 20
-2423.3345536357028
 42
-0.024816056415767
 10
-657.3837127832619
 20
-2423.4538282369117
 10
-657.38160914986042
 20
-2423.4562135706155
 42
-0.025410959144854
 10
-657.27400393199491
 20
-2423.5915019565796
 10
-657.2717559100804
 20
-2423.5946435049809
 42
-0.0255528488304659
 10
-657.17430923128484
 20
-2423.7466705592115
 10
-657.17197813136704
 20
-2423.7507521708221
 42
-0.0252146793228835
 10
-657.08619710535868
 20
-2423.9202544168179
 10
-657.08389486620035
 20
-2423.9254364987323
 42
-0.0244265635943529
 10
-657.01124017243819
 20
-2424.1131830707809
 10
-657.00199377096999
 20
-2424.141048489118
 42
-0.0231319612892074
 10
-656.95607099197844
 20
-2424.3043495359184
 42
-0.0112130424358822
 10
-656.92143496944107
 20
-2424.4705531361014
 10
-656.92023244432767
 20
-2424.4770497229943
 42
-0.0210527881227606
 10
-656.89454596895655
 20
-2424.6581053684386
 10
-656.89103537413507
 20
-2424.6935109169826
 42
-0.01900298924206
 10
-656.8755939005905
 20
-2424.9470467632541
 10
-656.87478392414641
 20
-2424.9825223776243
 42
-0.0137974553662011
 10
-656.87633277698205
 20
-2425.3075537843579
 10
-656.87717823193759
 20
-2425.3336725289532
 42
-0.0081336634215874
 10
-656.89203756716006
 20
-2425.6390199965495
 42
-0.0073526923567911
 10
-656.91634610053472
 20
-2425.9437682408361
 10
-656.91760752431742
 20
-2425.9571049155006
 42
-0.0066886138688197
 10
-656.95334311036424
 20
-2426.287690959
 10
-656.95500019983388
 20
-2426.3013125779894
 42
-0.0061359187349353
 10
-657.00285080188542
 20
-2426.6580765580939
 10
-657.00488830295762
 20
-2426.6719713609186
 42
-0.0056698610062653
 10
-657.06553863372449
 20
-2427.0552499297564
 10
-657.06794406704762
 20
-2427.0694090489874
 42
-0.0052721077270929
 10
-657.14207626784662
 20
-2427.4795363886615
 10
-657.14483941668902
 20
-2427.4939530240513
 42
-0.0049289272181332
 10
-657.23313353478898
 20
-2427.9312615351732
 10
-657.23624602947166
 20
-2427.9459303879894
 42
-0.0047415956708864
 10
-657.33948402100202
 20
-2428.4107271453918
 10
-657.3742522313637
 20
-2428.5605342407835
 42
-0.0084404470900098
 10
-657.56426867493565
 20
-2429.3207582653154
 10
-657.5703953629212
 20
-2429.3436223894682
 42
-0.003963594025822
 10
-657.79184904720489
 20
-2430.1446112537146
 10
-657.80522584238474
 20
-2430.1915428703073
 42
-0.0072475040837874
 10
-658.072672730249
 20
-2431.080762586701
 10
-658.14288505707418
 20
-2431.3025029366663
 42
-0.0051345458829424
 10
-658.4296444291341
 20
-2432.1768281244804
 10
-658.45117069590265
 20
-2432.2402543916132
 42
-0.001915001659946
 10
-658.7067041027683
 20
-2432.9838035118364
 10
-658.71317170715758
 20
-2433.0023909767374
 42
-0.0021524362752623
 10
-658.9616497582283
 20
-2433.706716798466
 10
-658.97086017892229
 20
-2433.7324703767604
 42
-0.0024331286819472
 10
-659.20711543796074
 20
-2434.3830696848859
 10
-659.2161633905107
 20
-2434.4076129912387
 42
-0.002744972178802
 10
-659.44077796134673
 20
-2435.0067428701645
 10
-659.44966796873894
 20
-2435.0300654600164
 42
-0.0031083229767797
 10
-659.66321045534892
 20
-2435.5799894975962
 10
-659.67194658702476
 20
-2435.6020792134545
 42
-0.0035311343276961
 10
-659.87498777261635
 20
-2436.1050623391843
 10
-659.88357311176469
 20
-2436.1259050626963
 42
-0.0040245640952377
 10
-660.07668491555842
 20
-2436.5842143852869
 10
-660.085121029162
 20
-2436.6037937533602
 42
-0.0046015135852488
 10
-660.26887732232524
 20
-2437.0196987830013
 10
-660.27716350015146
 20
-2437.0379959224488
 42
-0.0052768638266883
 10
-660.45214101910915
 20
-2437.413768806724
 10
-660.46027322973498
 20
-2437.4307621452649
 42
-0.0060672675640967
 10
-660.62705284250205
 20
-2437.7686777683812
 10
-660.63502232298151
 20
-2437.7843430273747
 42
-0.0069904648867751
 10
-660.79419071698499
 20
-2438.0866788340422
 10
-660.80198211659638
 20
-2438.1009893832706
 42
-0.0080637022770452
 10
-660.95413397694165
 20
-2438.3700246864228
 10
-660.96172300957471
 20
-2438.3829525520268
 42
-0.009300645565946
 10
-661.10746368610444
 20
-2438.6209669505265
 10
-661.11481435284668
 20
-2438.6324849196976
 42
-0.010706077805721
 10
-661.25476289628659
 20
-2438.8417552370784
 10
-661.26182466456532
 20
-2438.8518407796432
 42
-0.0122723111418022
 10
-661.39661838276425
 20
-2439.0346341091335
 10
-661.39694460631802
 20
-2439.0350544969428
 42
-0.014183631962826
 10
-661.54052620929247
 20
-2439.2096242547723
 10
-661.5474739649411
 20
-2439.2175992550333
 42
-0.0175957477210056
 10
-661.68738013297911
 20
-2439.367220143442
 42
-0.0080466359667744
 10
-661.83484389801026
 20
-2439.5095426715943
 10
-661.88087844252675
 20
-2439.5525631096843
 42
-0.0269600260398566
 10
-662.13415868850859
 20
-2439.7648863681929
 10
-662.20072582480407
 20
-2439.8148377828156
 42
-0.0178362839751297
 10
-662.44067031446252
 20
-2439.9818557090703
 10
-662.4479152854625
 20
-2439.986524221275
 42
-0.0174650732647042
 10
-662.6842514829043
 20
-2440.1273851862343
 42
-0.0169240130155668
 10
-662.92971772875819
 20
-2440.25167744601
 10
-662.97570388431973
 20
-2440.2730394015789
 42
-0.0318883036835153
 10
-663.32605473993885
 20
-2440.4093777110888
 10
-663.39442027510086
 20
-2440.4310783315632
 42
-0.0284435909908125
 10
-663.77047040139553
 20
-2440.5272957670386
 10
-663.80562856189408
 20
-2440.534189362867
 42
-0.02439093410143
 10
-664.11907202281304
 20
-2440.5799103938975
 10
-664.16935274957495
 20
-2440.5847559407985
 42
-0.0196639292940903
 10
-664.38494832711149
 20
-2440.5970042263129
 10
-664.43677239825706
 20
-2440.5979074870493
 42
-0.0100501510714565
 10
-664.5491956799392
 20
-2440.5976070886963
 10
-664.58085554120112
 20
-2440.5968860168127
 42
-0.00197520311389
 10
-664.62994787796458
 20
-2440.5955738566013
 10
-664.63270818117644
 20
-2440.5954891647752
 42
0.0065378751988304
 10
-664.67628475594142
 20
-2440.5947222735604
 42
-0.0167974694670046
 10
-664.71981557886886
 20
-2440.5930623750342
 10
-664.72389491813533
 20
-2440.5927693641388
 42
-0.0081283276301811
 10
-664.775454715872
 20
-2440.5882223705012
 10
-664.78719428975251
 20
-2440.5869944529227
 42
-0.0126703440162133
 10
-664.8619125855472
 20
-2440.5772596618513
 10
-664.88470045322265
 20
-2440.5737014059359
 42
-0.0117852088429925
 10
-665.00423943905412
 20
-2440.5521384107792
 10
-665.05961989081811
 20
-2440.5407948705442
 42
-0.025177459229716
 10
-665.28646392982512
 20
-2440.4822968611115
 10
-665.33118311967917
 20
-2440.4683300417755
 42
-0.0146525199888287
 10
-665.51757610721552
 20
-2440.404063514578
 42
-0.0166929435851825
 10
-665.69955376334531
 20
-2440.3282563815219
 10
-665.7042103946153
 20
-2440.3261314809092
 42
-0.0191684358436927
 10
-665.88939402586118
 20
-2440.2328953971214
 10
-665.89272661162158
 20
-2440.2310541495663
 42
-0.0221181781810253
 10
-666.07603691552583
 20
-2440.118920651194
 10
-666.0783867195322
 20
-2440.1173363532043
 42
-0.0254984685382624
 10
-666.25467686991658
 20
-2439.9849252032354
 10
-666.27715901762031
 20
-2439.9661728942979
 42
-0.0292492648810937
 10
-666.40192795646249
 20
-2439.8490800946552
 42
-0.0159048957486716
 10
-666.51576795391281
 20
-2439.7210601030561
 10
-666.51708674449196
 20
-2439.7194784900362
 42
-0.0343813379583748
 10
-666.61972400611751
 20
-2439.5776071642676
 10
-666.65121553747861
 20
-2439.5271037721732
 42
-0.0369117275695943
 10
-666.73710803937627
 20
-2439.3636265312243
 42
-0.0191751379934874
 10
-666.80430142493162
 20
-2439.1912219252231
 10
-666.80606474869273
 20
-2439.1861285805435
 42
-0.0378178042239519
 10
-666.85585946747676
 20
-2438.9971878044635
 10
-666.86185476320713
 20
-2438.9646271862657
 42
-0.0184846046487753
 10
-666.88257196250174
 20
-2438.8228743657205
 42
-0.0179866351292414
 10
-666.8929049675753
 20
-2438.6799835526408
 10
-666.89296141002114
 20
-2438.6784258660264
 42
-0.008549718613843
 10
-666.89439369112495
 20
-2438.6035527010167
 42
-0.008549718613843
  0
ENDBLK
  5
59
100
AcDbEntity
  8
template
390
0
100
AcDbBlockEnd
  0
BLOCK
  5
5A
100
AcDbEntity
  8
notes
390
0
100
AcDbBlockBegin
  2
*D3
 70
               1
 10
0.0
 20
0.0
 30
0.0
  3
*D3
  1

  0
LINE
  5
5B
100
AcDbEntity
  8
0
370
              -2
390
0
  6
Continuous
 62
               0
100
AcDbLine
 10
-676.81048961524607
 20
695.72429986892928
 30
0.0
 11
-676.81048961524607
 21
1038.2242998689785
 31
0.0
  0
LINE
  5
5C
100
AcDbEntity
  8
0
370
              -2
390
0
  6
Continuous
 62
               0
100
AcDbLine
 10
-156.81048961524516
 20
695.72429986892791
 30
0.0
 11
-156.81048961524516
 21
1038.2242998689785
 31
0.0
  0
LINE
  5
5D
100
AcDbEntity
  8
0
370
              -2
390
0
  6
Continuous
 62
               0
100
AcDbLine
 10
-676.81048961524607
 20
1038.2242998689785
 30
0.0
 11
-156.81048961524516
 21
1038.2242998689785
 31
0.0
  0
CIRCLE
  5
5E
102
{ACAD_REACTORS
330
5F
102
}
100
AcDbEntity
  8
0
370
              -2
390
0
  6
Continuous
 62
               0
100
AcDbCircle
 10
-676.81048961524607
 20
1038.2242998689785
 30
0.0
 40
1.9998779296875
  0
HATCH
  5
5F
100
AcDbEntity
  8
0
370
              -2
390
0
  6
Continuous
 62
               0
100
AcDbHatch
 10
0.0
 20
0.0
 30
0.0
210
0.0
220
0.0
230
1.0
  2
SOLID
 70
               1
 71
               1
 91
        1
 92
        1
 93
        1
 72
               2
 10
-676.81048961524607
 20
1038.2242998689785
 40
1.9998779296875
 50
0.0
 51
360.0
 73
               0
 97
        1
330
5E
 75
               0
 76
               1
 98
        1
 10
0.0
 20
0.0
  0
CIRCLE
  5
60
102
{ACAD_REACTORS
330
61
102
}
100
AcDbEntity
  8
0
370
              -2
390
0
  6
Continuous
 62
               0
100
AcDbCircle
 10
-156.81048961524516
 20
1038.2242998689785
 30
0.0
 40
1.9998779296875
  0
HATCH
  5
61
100
AcDbEntity
  8
0
370
              -2
390
0
  6
Continuous
 62
               0
100
AcDbHatch
 10
0.0
 20
0.0
 30
0.0
210
0.0
220
0.0
230
1.0
  2
SOLID
 70
               1
 71
               1
 91
        1
 92
        1
 93
        1
 72
               2
 10
-156.81048961524516
 20
1038.2242998689785
 40
1.9998779296875
 50
0.0
 51
360.0
 73
               0
 97
        1
330
60
 75
               0
 76
               1
 98
        1
 10
0.0
 20
0.0
  0
MTEXT
  5
62
100
AcDbEntity
  8
0
390
0
 62
               0
100
AcDbMText
 10
-440.62299129742109
 20
1072.1019170564784
 30
0.0
 40
24.432617187500004
 41
0.0
 71
               1
 72
               1
  1
520
  7
ＭＳ ゴシック
 73
               1
 44
0.7828267384257843
  0
POINT
  5
63
100
AcDbEntity
  8
Defpoints
370
               0
390
0
 62
               0
100
AcDbPoint
 10
-156.81048961524516
 20
670.72429986892791
 30
0.0
  0
POINT
  5
64
100
AcDbEntity
  8
Defpoints
370
               0
390
0
 62
               0
100
AcDbPoint
 10
-676.81048961524607
 20
670.72429986892928
 30
0.0
  0
POINT
  5
65
100
AcDbEntity
  8
Defpoints
370
               0
390
0
 62
               0
100
AcDbPoint
 10
-676.81048961524607
 20
1038.2242998689785
 30
0.0
  0
ENDBLK
  5
66
100
AcDbEntity
  8
notes
390
0
100
AcDbBlockEnd
  0
BLOCK
  5
67
100
AcDbEntity
  8
notes
390
0
100
AcDbBlockBegin
  2
*D4
 70
               1
 10
0.0
 20
0.0
 30
0.0
  3
*D4
  1

  0
LINE
  5
68
100
AcDbEntity
  8
0
370
              -2
390
0
  6
Continuous
 62
               0
100
AcDbLine
 10
-616.81048961524607
 20
913.22429986897839
 30
0.0
 11
-616.81048961524607
 21
988.22429986897839
 31
0.0
  0
LINE
  5
69
100
AcDbEntity
  8
0
370
              -2
390
0
  6
Continuous
 62
               0
100
AcDbLine
 10
-216.81048961524675
 20
913.22429986897839
 30
0.0
 11
-216.81048961524675
 21
988.22429986897839
 31
0.0
  0
LINE
  5
6A
100
AcDbEntity
  8
0
370
              -2
390
0
  6
Continuous
 62
               0
100
AcDbLine
 10
-616.81048961524607
 20
988.22429986897839
 30
0.0
 11
-216.81048961524675
 21
988.22429986897839
 31
0.0
  0
CIRCLE
  5
6B
102
{ACAD_REACTORS
330
6C
102
}
100
AcDbEntity
  8
0
370
              -2
390
0
  6
Continuous
 62
               0
100
AcDbCircle
 10
-616.81048961524607
 20
988.22429986897839
 30
0.0
 40
1.9998779296875
  0
HATCH
  5
6C
100
AcDbEntity
  8
0
370
              -2
390
0
  6
Continuous
 62
               0
100
AcDbHatch
 10
0.0
 20
0.0
 30
0.0
210
0.0
220
0.0
230
1.0
  2
SOLID
 70
               1
 71
               1
 91
        1
 92
        1
 93
        1
 72
               2
 10
-616.81048961524607
 20
988.22429986897839
 40
1.9998779296875
 50
0.0
 51
360.0
 73
               0
 97
        1
330
6B
 75
               0
 76
               1
 98
        1
 10
0.0
 20
0.0
  0
CIRCLE
  5
6D
102
{ACAD_REACTORS
330
6E
102
}
100
AcDbEntity
  8
0
370
              -2
390
0
  6
Continuous
 62
               0
100
AcDbCircle
 10
-216.81048961524675
 20
988.22429986897839
 30
0.0
 40
1.9998779296875
  0
HATCH
  5
6E
100
AcDbEntity
  8
0
370
              -2
390
0
  6
Continuous
 62
               0
100
AcDbHatch
 10
0.0
 20
0.0
 30
0.0
210
0.0
220
0.0
230
1.0
  2
SOLID
 70
               1
 71
               1
 91
        1
 92
        1
 93
        1
 72
               2
 10
-216.81048961524675
 20
988.22429986897839
 40
1.9998779296875
 50
0.0
 51
360.0
 73
               0
 97
        1
330
6D
 75
               0
 76
               1
 98
        1
 10
0.0
 20
0.0
  0
MTEXT
  5
6F
100
AcDbEntity
  8
0
390
0
 62
               0
100
AcDbMText
 10
-440.622991297422
 20
1022.1019170564784
 30
0.0
 40
24.432617187500004
 41
0.0
 71
               1
 72
               1
  1
400
  7
ＭＳ ゴシック
 73
               1
 44
0.7828267384257843
  0
POINT
  5
70
100
AcDbEntity
  8
Defpoints
370
               0
390
0
 62
               0
100
AcDbPoint
 10
-216.81048961524675
 20
888.22429986897839
 30
0.0
  0
POINT
  5
71
100
AcDbEntity
  8
Defpoints
370
               0
390
0
 62
               0
100
AcDbPoint
 10
-616.81048961524607
 20
888.22429986897839
 30
0.0
  0
POINT
  5
72
100
AcDbEntity
  8
Defpoints
370
               0
390
0
 62
               0
100
AcDbPoint
 10
-616.81048961524607
 20
988.22429986897839
 30
0.0
  0
ENDBLK
  5
73
100
AcDbEntity
  8
notes
390
0
100
AcDbBlockEnd
  0
BLOCK
  5
74
100
AcDbEntity
  8
notes
390
0
100
AcDbBlockBegin
  2
*D5
 70
               1
 10
0.0
 20
0.0
 30
0.0
  3
*D5
  1

  0
LINE
  5
75
100
AcDbEntity
  8
0
370
              -2
390
0
  6
Continuous
 62
               0
100
AcDbLine
 10
-191.81048961524675
 20
888.22429986897839
 30
0.0
 11
-6.8104896152451602
 21
888.22429986897839
 31
0.0
  0
LINE
  5
76
100
AcDbEntity
  8
0
370
              -2
390
0
  6
Continuous
 62
               0
100
AcDbLine
 10
-304.59323512263563
 20
448.22483765176048
 30
0.0
 11
-6.8104896152451602
 21
448.22483765176048
 31
0.0
  0
LINE
  5
77
100
AcDbEntity
  8
0
370
              -2
390
0
  6
Continuous
 62
               0
100
AcDbLine
 10
-6.8104896152451602
 20
888.22429986897839
 30
0.0
 11
-6.8104896152451602
 21
448.22483765176048
 31
0.0
  0
CIRCLE
  5
78
102
{ACAD_REACTORS
330
79
102
}
100
AcDbEntity
  8
0
370
              -2
390
0
  6
Continuous
 62
               0
100
AcDbCircle
 10
-6.8104896152451602
 20
888.22429986897839
 30
0.0
 40
1.9998779296875
  0
HATCH
  5
79
100
AcDbEntity
  8
0
370
              -2
390
0
  6
Continuous
 62
               0
100
AcDbHatch
 10
0.0
 20
0.0
 30
0.0
210
0.0
220
0.0
230
1.0
  2
SOLID
 70
               1
 71
               1
 91
        1
 92
        1
 93
        1
 72
               2
 10
-6.8104896152451602
 20
888.22429986897839
 40
1.9998779296875
 50
0.0
 51
360.0
 73
               0
 97
        1
330
78
 75
               0
 76
               1
 98
        1
 10
0.0
 20
0.0
  0
CIRCLE
  5
7A
102
{ACAD_REACTORS
330
7B
102
}
100
AcDbEntity
  8
0
370
              -2
390
0
  6
Continuous
 62
               0
100
AcDbCircle
 10
-6.8104896152451602
 20
448.22483765176048
 30
0.0
 40
1.9998779296875
  0
HATCH
  5
7B
100
AcDbEntity
  8
0
370
              -2
390
0
  6
Continuous
 62
               0
100
AcDbHatch
 10
0.0
 20
0.0
 30
0.0
210
0.0
220
0.0
230
1.0
  2
SOLID
 70
               1
 71
               1
 91
        1
 92
        1
 93
        1
 72
               2
 10
-6.8104896152451602
 20
448.22483765176048
 40
1.9998779296875
 50
0.0
 51
360.0
 73
               0
 97
        1
330
7A
 75
               0
 76
               1
 98
        1
 10
0.0
 20
0.0
  0
MTEXT
  5
7C
100
AcDbEntity
  8
0
390
0
 62
               0
100
AcDbMText
 10
-40.688106802745097
 20
644.4120670781939
 30
0.0
 40
24.432617187500004
 41
0.0
 71
               1
 72
               1
  1
440
  7
ＭＳ ゴシック
 11
0.0
 21
1.0
 31
0.0
 73
               1
 44
0.7828267384257843
  0
POINT
  5
7D
100
AcDbEntity
  8
Defpoints
370
               0
390
0
 62
               0
100
AcDbPoint
 10
-329.59323512263563
 20
448.22483765176048
 30
0.0
  0
POINT
  5
7E
100
AcDbEntity
  8
Defpoints
370
               0
390
0
 62
               0
100
AcDbPoint
 10
-216.81048961524675
 20
888.22429986897839
 30
0.0
  0
POINT
  5
7F
100
AcDbEntity
  8
Defpoints
370
               0
390
0
 62
               0
100
AcDbPoint
 10
-6.8104896152451602
 20
888.22429986897839
 30
0.0
  0
ENDBLK
  5
80
100
AcDbEntity
  8
notes
390
0
100
AcDbBlockEnd
  0
BLOCK
  5
81
100
AcDbEntity
  8
notes
390
0
100
AcDbBlockBegin
  2
*D6
 70
               1
 10
0.0
 20
0.0
 30
0.0
  3
*D6
  1

  0
LINE
  5
82
100
AcDbEntity
  8
0
370
              -2
390
0
  6
Continuous
 62
               0
100
AcDbLine
 10
-491.81053816753024
 20
-357.69789801516504
 30
0.0
 11
-491.81053816753024
 21
-233.19789801457296
 31
0.0
  0
LINE
  5
83
100
AcDbEntity
  8
0
370
              -2
390
0
  6
Continuous
 62
               0
100
AcDbLine
 10
-341.81053816718077
 20
-352.19789801516094
 30
0.0
 11
-341.81053816718077
 21
-233.19789801457296
 31
0.0
  0
LINE
  5
84
100
AcDbEntity
  8
0
370
              -2
390
0
  6
Continuous
 62
               0
100
AcDbLine
 10
-491.81053816753024
 20
-233.19789801457296
 30
0.0
 11
-341.81053816718077
 21
-233.19789801457296
 31
0.0
  0
CIRCLE
  5
85
102
{ACAD_REACTORS
330
86
102
}
100
AcDbEntity
  8
0
370
              -2
390
0
  6
Continuous
 62
               0
100
AcDbCircle
 10
-491.81053816753024
 20
-233.19789801457296
 30
0.0
 40
1.9998779296875
  0
HATCH
  5
86
100
AcDbEntity
  8
0
370
              -2
390
0
  6
Continuous
 62
               0
100
AcDbHatch
 10
0.0
 20
0.0
 30
0.0
210
0.0
220
0.0
230
1.0
  2
SOLID
 70
               1
 71
               1
 91
        1
 92
        1
 93
        1
 72
               2
 10
-491.81053816753024
 20
-233.19789801457296
 40
1.9998779296875
 50
0.0
 51
360.0
 73
               0
 97
        1
330
85
 75
               0
 76
               1
 98
        1
 10
0.0
 20
0.0
  0
CIRCLE
  5
87
102
{ACAD_REACTORS
330
88
102
}
100
AcDbEntity
  8
0
370
              -2
390
0
  6
Continuous
 62
               0
100
AcDbCircle
 10
-341.81053816718077
 20
-233.19789801457296
 30
0.0
 40
1.9998779296875
  0
HATCH
  5
88
100
AcDbEntity
  8
0
370
              -2
390
0
  6
Continuous
 62
               0
100
AcDbHatch
 10
0.0
 20
0.0
 30
0.0
210
0.0
220
0.0
230
1.0
  2
SOLID
 70
               1
 71
               1
 91
        1
 92
        1
 93
        1
 72
               2
 10
-341.81053816718077
 20
-233.19789801457296
 40
1.9998779296875
 50
0.0
 51
360.0
 73
               0
 97
        1
330
87
 75
               0
 76
               1
 98
        1
 10
0.0
 20
0.0
  0
MTEXT
  5
89
100
AcDbEntity
  8
0
390
0
 62
               0
100
AcDbMText
 10
-440.6230398495311
 20
-199.32028082707302
 30
0.0
 40
24.432617187500004
 41
0.0
 71
               1
 72
               1
  1
150
  7
ＭＳ ゴシック
 73
               1
 44
0.7828267384257843
  0
POINT
  5
8A
100
AcDbEntity
  8
Defpoints
370
               0
390
0
 62
               0
100
AcDbPoint
 10
-341.81053816718077
 20
-377.19789801516094
 30
0.0
  0
POINT
  5
8B
100
AcDbEntity
  8
Defpoints
370
               0
390
0
 62
               0
100
AcDbPoint
 10
-491.81053816753024
 20
-382.69789801516504
 30
0.0
  0
POINT
  5
8C
100
AcDbEntity
  8
Defpoints
370
               0
390
0
 62
               0
100
AcDbPoint
 10
-491.81053816753024
 20
-233.19789801457296
 30
0.0
  0
ENDBLK
  5
8D
100
AcDbEntity
  8
notes
390
0
100
AcDbBlockEnd
  0
BLOCK
  5
8E
100
AcDbEntity
  8
notes
390
0
100
AcDbBlockBegin
  2
*D7
 70
               1
 10
0.0
 20
0.0
 30
0.0
  3
*D7
  1

  0
LINE
  5
8F
100
AcDbEntity
  8
0
370
              -2
390
0
  6
Continuous
 62
               0
100
AcDbLine
 10
-641.81048961524607
 20
888.22429986897839
 30
0.0
 11
-776.81048961524561
 21
888.22429986897839
 31
0.0
  0
LINE
  5
90
100
AcDbEntity
  8
0
370
              -2
390
0
  6
Continuous
 62
               0
100
AcDbLine
 10
-641.81048961524607
 20
843.22429986897885
 30
0.0
 11
-776.81048961524561
 21
843.22429986897885
 31
0.0
  0
LINE
  5
91
100
AcDbEntity
  8
0
370
              -2
390
0
  6
Continuous
 62
               0
100
AcDbLine
 10
-776.81048961524561
 20
888.22429986897839
 30
0.0
 11
-776.81048961524561
 21
843.22429986897885
 31
0.0
  0
CIRCLE
  5
92
102
{ACAD_REACTORS
330
93
102
}
100
AcDbEntity
  8
0
370
              -2
390
0
  6
Continuous
 62
               0
100
AcDbCircle
 10
-776.81048961524561
 20
888.22429986897839
 30
0.0
 40
1.9998779296875
  0
HATCH
  5
93
100
AcDbEntity
  8
0
370
              -2
390
0
  6
Continuous
 62
               0
100
AcDbHatch
 10
0.0
 20
0.0
 30
0.0
210
0.0
220
0.0
230
1.0
  2
SOLID
 70
               1
 71
               1
 91
        1
 92
        1
 93
        1
 72
               2
 10
-776.81048961524561
 20
888.22429986897839
 40
1.9998779296875
 50
0.0
 51
360.0
 73
               0
 97
        1
330
92
 75
               0
 76
               1
 98
        1
 10
0.0
 20
0.0
  0
CIRCLE
  5
94
102
{ACAD_REACTORS
330
95
102
}
100
AcDbEntity
  8
0
370
              -2
390
0
  6
Continuous
 62
               0
100
AcDbCircle
 10
-776.81048961524561
 20
843.22429986897885
 30
0.0
 40
1.9998779296875
  0
HATCH
  5
95
100
AcDbEntity
  8
0
370
              -2
390
0
  6
Continuous
 62
               0
100
AcDbHatch
 10
0.0
 20
0.0
 30
0.0
210
0.0
220
0.0
230
1.0
  2
SOLID
 70
               1
 71
               1
 91
        1
 92
        1
 93
        1
 72
               2
 10
-776.81048961524561
 20
843.22429986897885
 40
1.9998779296875
 50
0.0
 51
360.0
 73
               0
 97
        1
330
94
 75
               0
 76
               1
 98
        1
 10
0.0
 20
0.0
  0
MTEXT
  5
96
100
AcDbEntity
  8
0
390
0
 62
               0
100
AcDbMText
 10
-810.68810680274578
 20
849.84929986897862
 30
0.0
 40
24.432617187500004
 41
0.0
 71
               1
 72
               1
  1
45
  7
ＭＳ ゴシック
 11
0.0
 21
1.0
 31
0.0
 73
               1
 44
0.7828267384257843
  0
POINT
  5
97
100
AcDbEntity
  8
Defpoints
370
               0
390
0
 62
               0
100
AcDbPoint
 10
-616.81048961524607
 20
843.22429986897885
 30
0.0
  0
POINT
  5
98
100
AcDbEntity
  8
Defpoints
370
               0
390
0
 62
               0
100
AcDbPoint
 10
-616.81048961524607
 20
888.22429986897839
 30
0.0
  0
POINT
  5
99
100
AcDbEntity
  8
Defpoints
370
               0
390
0
 62
               0
100
AcDbPoint
 10
-776.81048961524561
 20
888.22429986897839
 30
0.0
  0
ENDBLK
  5
9A
100
AcDbEntity
  8
notes
390
0
100
AcDbBlockEnd
  0
BLOCK
  5
9B
100
AcDbEntity
  8
notes
390
0
100
AcDbBlockBegin
  2
*D8
 70
               1
 10
0.0
 20
0.0
 30
0.0
  3
*D8
  1

  0
LINE
  5
9C
100
AcDbEntity
  8
0
370
              -2
390
0
  6
Continuous
 62
               0
100
AcDbLine
 10
-641.81048961524607
 20
843.22429986897885
 30
0.0
 11
-776.81048961524561
 21
843.22429986897885
 31
0.0
  0
LINE
  5
9D
100
AcDbEntity
  8
0
370
              -2
390
0
  6
Continuous
 62
               0
100
AcDbLine
 10
-536.59323512263541
 20
448.22483765176048
 30
0.0
 11
-776.81048961524561
 21
448.22483765176048
 31
0.0
  0
LINE
  5
9E
100
AcDbEntity
  8
0
370
              -2
390
0
  6
Continuous
 62
               0
100
AcDbLine
 10
-776.81048961524561
 20
843.22429986897885
 30
0.0
 11
-776.81048961524561
 21
448.22483765176048
 31
0.0
  0
CIRCLE
  5
9F
102
{ACAD_REACTORS
330
A0
102
}
100
AcDbEntity
  8
0
370
              -2
390
0
  6
Continuous
 62
               0
100
AcDbCircle
 10
-776.81048961524561
 20
843.22429986897885
 30
0.0
 40
1.9998779296875
  0
HATCH
  5
A0
100
AcDbEntity
  8
0
370
              -2
390
0
  6
Continuous
 62
               0
100
AcDbHatch
 10
0.0
 20
0.0
 30
0.0
210
0.0
220
0.0
230
1.0
  2
SOLID
 70
               1
 71
               1
 91
        1
 92
        1
 93
        1
 72
               2
 10
-776.81048961524561
 20
843.22429986897885
 40
1.9998779296875
 50
0.0
 51
360.0
 73
               0
 97
        1
330
9F
 75
               0
 76
               1
 98
        1
 10
0.0
 20
0.0
  0
CIRCLE
  5
A1
102
{ACAD_REACTORS
330
A2
102
}
100
AcDbEntity
  8
0
370
              -2
390
0
  6
Continuous
 62
               0
100
AcDbCircle
 10
-776.81048961524561
 20
448.22483765176048
 30
0.0
 40
1.9998779296875
  0
HATCH
  5
A2
100
AcDbEntity
  8
0
370
              -2
390
0
  6
Continuous
 62
               0
100
AcDbHatch
 10
0.0
 20
0.0
 30
0.0
210
0.0
220
0.0
230
1.0
  2
SOLID
 70
               1
 71
               1
 91
        1
 92
        1
 93
        1
 72
               2
 10
-776.81048961524561
 20
448.22483765176048
 40
1.9998779296875
 50
0.0
 51
360.0
 73
               0
 97
        1
330
A1
 75
               0
 76
               1
 98
        1
 10
0.0
 20
0.0
  0
MTEXT
  5
A3
100
AcDbEntity
  8
0
390
0
 62
               0
100
AcDbMText
 10
-810.68810680274578
 20
621.91206707819413
 30
0.0
 40
24.432617187500004
 41
0.0
 71
               1
 72
               1
  1
395
  7
ＭＳ ゴシック
 11
0.0
 21
1.0
 31
0.0
 73
               1
 44
0.7828267384257843
  0
POINT
  5
A4
100
AcDbEntity
  8
Defpoints
370
               0
390
0
 62
               0
100
AcDbPoint
 10
-511.59323512263541
 20
448.22483765176048
 30
0.0
  0
POINT
  5
A5
100
AcDbEntity
  8
Defpoints
370
               0
390
0
 62
               0
100
AcDbPoint
 10
-616.81048961524607
 20
843.22429986897885
 30
0.0
  0
POINT
  5
A6
100
AcDbEntity
  8
Defpoints
370
               0
390
0
 62
               0
100
AcDbPoint
 10
-776.81048961524561
 20
843.22429986897885
 30
0.0
  0
ENDBLK
  5
A7
100
AcDbEntity
  8
notes
390
0
100
AcDbBlockEnd
  0
BLOCK
  5
A8
100
AcDbEntity
  8
notes
390
0
100
AcDbBlockBegin
  2
*D9
 70
               1
 10
0.0
 20
0.0
 30
0.0
  3
*D9
  1

  0
LINE
  5
A9
100
AcDbEntity
  8
0
370
              -2
390
0
  6
Continuous
 62
               0
100
AcDbLine
 10
551.55124812586666
 20
-447.69789801457205
 30
0.0
 11
561.55124812586666
 21
-447.69789801457205
 31
0.0
  0
LINE
  5
AA
100
AcDbEntity
  8
0
370
              -2
390
0
  6
Continuous
 62
               0
100
AcDbLine
 10
551.55124812586666
 20
-327.69789801457296
 30
0.0
 11
561.55124812586666
 21
-327.69789801457296
 31
0.0
  0
LINE
  5
AB
100
AcDbEntity
  8
0
370
              -2
390
0
  6
Continuous
 62
               0
100
AcDbLine
 10
561.55124812586666
 20
-327.69789801457296
 30
0.0
 11
561.55124812586666
 21
-173.3853980145725
 31
0.0
  0
LINE
  5
AC
100
AcDbEntity
  8
0
370
              -2
390
0
  6
Continuous
 62
               0
100
AcDbLine
 10
561.55124812586666
 20
-447.69789801457205
 30
0.0
 11
561.55124812586666
 21
-327.69789801457296
 31
0.0
  0
CIRCLE
  5
AD
102
{ACAD_REACTORS
330
AE
102
}
100
AcDbEntity
  8
0
370
              -2
390
0
  6
Continuous
 62
               0
100
AcDbCircle
 10
561.55124812586666
 20
-447.69789801457205
 30
0.0
 40
1.9998779296875
  0
HATCH
  5
AE
100
AcDbEntity
  8
0
370
              -2
390
0
  6
Continuous
 62
               0
100
AcDbHatch
 10
0.0
 20
0.0
 30
0.0
210
0.0
220
0.0
230
1.0
  2
SOLID
 70
               1
 71
               1
 91
        1
 92
        1
 93
        1
 72
               2
 10
561.55124812586666
 20
-447.69789801457205
 40
1.9998779296875
 50
0.0
 51
360.0
 73
               0
 97
        1
330
AD
 75
               0
 76
               1
 98
        1
 10
0.0
 20
0.0
  0
CIRCLE
  5
AF
102
{ACAD_REACTORS
330
B0
102
}
100
AcDbEntity
  8
0
370
              -2
390
0
  6
Continuous
 62
               0
100
AcDbCircle
 10
561.55124812586666
 20
-327.69789801457296
 30
0.0
 40
1.9998779296875
  0
HATCH
  5
B0
100
AcDbEntity
  8
0
370
              -2
390
0
  6
Continuous
 62
               0
100
AcDbHatch
 10
0.0
 20
0.0
 30
0.0
210
0.0
220
0.0
230
1.0
  2
SOLID
 70
               1
 71
               1
 91
        1
 92
        1
 93
        1
 72
               2
 10
561.55124812586666
 20
-327.69789801457296
 40
1.9998779296875
 50
0.0
 51
360.0
 73
               0
 97
        1
330
AF
 75
               0
 76
               1
 98
        1
 10
0.0
 20
0.0
  0
MTEXT
  5
B1
100
AcDbEntity
  8
0
390
0
 62
               0
100
AcDbMText
 10
527.67363093836684
 20
-316.2603980145725
 30
0.0
 40
24.432617187500004
 41
0.0
 71
               1
 72
               1
  1
120(深さ)
  7
ＭＳ ゴシック
 11
0.0
 21
1.0
 31
0.0
 73
               1
 44
0.7828267384257843
  0
POINT
  5
B2
100
AcDbEntity
  8
Defpoints
370
               0
390
0
 62
               0
100
AcDbPoint
 10
576.55124812586666
 20
-327.69789801457296
 30
0.0
  0
POINT
  5
B3
100
AcDbEntity
  8
Defpoints
370
               0
390
0
 62
               0
100
AcDbPoint
 10
576.55124812586666
 20
-447.69789801457205
 30
0.0
  0
POINT
  5
B4
100
AcDbEntity
  8
Defpoints
370
               0
390
0
 62
               0
100
AcDbPoint
 10
561.55124812586666
 20
-447.69789801457205
 30
0.0
  0
ENDBLK
  5
B5
100
AcDbEntity
  8
notes
390
0
100
AcDbBlockEnd
  0
BLOCK
  5
B6
100
AcDbEntity
  8
notes
390
0
100
AcDbBlockBegin
  2
*D10
 70
               1
 10
0.0
 20
0.0
 30
0.0
  3
*D10
  1

  0
LINE
  5
B7
100
AcDbEntity
  8
0
370
              -2
390
0
  6
Continuous
 62
               0
100
AcDbLine
 10
756.65760650528375
 20
-332.69789801457296
 30
0.0
 11
831.65760650528375
 21
-332.69789801457296
 31
0.0
  0
LINE
  5
B8
100
AcDbEntity
  8
0
370
              -2
390
0
  6
Continuous
 62
               0
100
AcDbLine
 10
756.65760650528375
 20
-572.69789801457205
 30
0.0
 11
831.65760650528375
 21
-572.69789801457205
 31
0.0
  0
LINE
  5
B9
100
AcDbEntity
  8
0
370
              -2
390
0
  6
Continuous
 62
               0
100
AcDbLine
 10
831.65760650528375
 20
-332.69789801457296
 30
0.0
 11
831.65760650528375
 21
-572.69789801457205
 31
0.0
  0
CIRCLE
  5
BA
102
{ACAD_REACTORS
330
BB
102
}
100
AcDbEntity
  8
0
370
              -2
390
0
  6
Continuous
 62
               0
100
AcDbCircle
 10
831.65760650528375
 20
-332.69789801457296
 30
0.0
 40
1.9998779296875
  0
HATCH
  5
BB
100
AcDbEntity
  8
0
370
              -2
390
0
  6
Continuous
 62
               0
100
AcDbHatch
 10
0.0
 20
0.0
 30
0.0
210
0.0
220
0.0
230
1.0
  2
SOLID
 70
               1
 71
               1
 91
        1
 92
        1
 93
        1
 72
               2
 10
831.65760650528375
 20
-332.69789801457296
 40
1.9998779296875
 50
0.0
 51
360.0
 73
               0
 97
        1
330
BA
 75
               0
 76
               1
 98
        1
 10
0.0
 20
0.0
  0
CIRCLE
  5
BC
102
{ACAD_REACTORS
330
BD
102
}
100
AcDbEntity
  8
0
370
              -2
390
0
  6
Continuous
 62
               0
100
AcDbCircle
 10
831.65760650528375
 20
-572.69789801457205
 30
0.0
 40
1.9998779296875
  0
HATCH
  5
BD
100
AcDbEntity
  8
0
370
              -2
390
0
  6
Continuous
 62
               0
100
AcDbHatch
 10
0.0
 20
0.0
 30
0.0
210
0.0
220
0.0
230
1.0
  2
SOLID
 70
               1
 71
               1
 91
        1
 92
        1
 93
        1
 72
               2
 10
831.65760650528375
 20
-572.69789801457205
 40
1.9998779296875
 50
0.0
 51
360.0
 73
               0
 97
        1
330
BC
 75
               0
 76
               1
 98
        1
 10
0.0
 20
0.0
  0
MTEXT
  5
BE
100
AcDbEntity
  8
0
390
0
 62
               0
100
AcDbMText
 10
797.7799893177837
 20
-476.51039969674798
 30
0.0
 40
24.432617187500004
 41
0.0
 71
               1
 72
               1
  1
240
  7
ＭＳ ゴシック
 11
0.0
 21
1.0
 31
0.0
 73
               1
 44
0.7828267384257843
  0
POINT
  5
BF
100
AcDbEntity
  8
Defpoints
370
               0
390
0
 62
               0
100
AcDbPoint
 10
731.65760650528375
 20
-572.69789801457205
 30
0.0
  0
POINT
  5
C0
100
AcDbEntity
  8
Defpoints
370
               0
390
0
 62
               0
100
AcDbPoint
 10
731.65760650528375
 20
-332.69789801457296
 30
0.0
  0
POINT
  5
C1
100
AcDbEntity
  8
Defpoints
370
               0
390
0
 62
               0
100
AcDbPoint
 10
831.65760650528375
 20
-332.69789801457296
 30
0.0
  0
ENDBLK
  5
C2
100
AcDbEntity
  8
notes
390
0
100
AcDbBlockEnd
  0
BLOCK
  5
C3
100
AcDbEntity
  8
notes
390
0
100
AcDbBlockBegin
  2
*D11
 70
               1
 10
0.0
 20
0.0
 30
0.0
  3
*D11
  1

  0
LINE
  5
C4
100
AcDbEntity
  8
0
370
              -2
390
0
  6
Continuous
 62
               0
100
AcDbLine
 10
271.62064609419781
 20
-327.69789801457296
 30
0.0
 11
191.62064609420736
 21
-327.69789801457296
 31
0.0
  0
LINE
  5
C5
100
AcDbEntity
  8
0
370
              -2
390
0
  6
Continuous
 62
               0
100
AcDbLine
 10
399.73313133504644
 20
-607.69789801457273
 30
0.0
 11
191.62064609420736
 21
-607.69789801457273
 31
0.0
  0
LINE
  5
C6
100
AcDbEntity
  8
0
370
              -2
390
0
  6
Continuous
 62
               0
100
AcDbLine
 10
191.62064609420736
 20
-327.69789801457296
 30
0.0
 11
191.62064609420736
 21
-607.69789801457273
 31
0.0
  0
CIRCLE
  5
C7
102
{ACAD_REACTORS
330
C8
102
}
100
AcDbEntity
  8
0
370
              -2
390
0
  6
Continuous
 62
               0
100
AcDbCircle
 10
191.62064609420736
 20
-327.69789801457296
 30
0.0
 40
1.9998779296875
  0
HATCH
  5
C8
100
AcDbEntity
  8
0
370
              -2
390
0
  6
Continuous
 62
               0
100
AcDbHatch
 10
0.0
 20
0.0
 30
0.0
210
0.0
220
0.0
230
1.0
  2
SOLID
 70
               1
 71
               1
 91
        1
 92
        1
 93
        1
 72
               2
 10
191.62064609420736
 20
-327.69789801457296
 40
1.9998779296875
 50
0.0
 51
360.0
 73
               0
 97
        1
330
C7
 75
               0
 76
               1
 98
        1
 10
0.0
 20
0.0
  0
CIRCLE
  5
C9
102
{ACAD_REACTORS
330
CA
102
}
100
AcDbEntity
  8
0
370
              -2
390
0
  6
Continuous
 62
               0
100
AcDbCircle
 10
191.62064609420736
 20
-607.69789801457273
 30
0.0
 40
1.9998779296875
  0
HATCH
  5
CA
100
AcDbEntity
  8
0
370
              -2
390
0
  6
Continuous
 62
               0
100
AcDbHatch
 10
0.0
 20
0.0
 30
0.0
210
0.0
220
0.0
230
1.0
  2
SOLID
 70
               1
 71
               1
 91
        1
 92
        1
 93
        1
 72
               2
 10
191.62064609420736
 20
-607.69789801457273
 40
1.9998779296875
 50
0.0
 51
360.0
 73
               0
 97
        1
330
C9
 75
               0
 76
               1
 98
        1
 10
0.0
 20
0.0
  0
MTEXT
  5
CB
100
AcDbEntity
  8
0
390
0
 62
               0
100
AcDbMText
 10
157.74302890670742
 20
-491.51039969674821
 30
0.0
 40
24.432617187500004
 41
0.0
 71
               1
 72
               1
  1
280
  7
ＭＳ ゴシック
 11
0.0
 21
1.0
 31
0.0
 73
               1
 44
0.7828267384257843
  0
POINT
  5
CC
100
AcDbEntity
  8
Defpoints
370
               0
390
0
 62
               0
100
AcDbPoint
 10
424.73313133504644
 20
-607.69789801457273
 30
0.0
  0
POINT
  5
CD
100
AcDbEntity
  8
Defpoints
370
               0
390
0
 62
               0
100
AcDbPoint
 10
296.62064609419781
 20
-327.69789801457296
 30
0.0
  0
POINT
  5
CE
100
AcDbEntity
  8
Defpoints
370
               0
390
0
 62
               0
100
AcDbPoint
 10
191.62064609420736
 20
-327.69789801457296
 30
0.0
  0
ENDBLK
  5
CF
100
AcDbEntity
  8
notes
390
0
100
AcDbBlockEnd
  0
BLOCK
  5
D0
100
AcDbEntity
  8
notes
390
0
100
AcDbBlockBegin
  2
*D12
 70
               1
 10
0.0
 20
0.0
 30
0.0
  3
*D12
  1

  0
LINE
  5
D1
100
AcDbEntity
  8
0
370
              -2
390
0
  6
Continuous
 62
               0
100
AcDbLine
 10
731.65760650528375
 20
-597.69789801457205
 30
0.0
 11
731.65760650528375
 21
-707.69789801457296
 31
0.0
  0
LINE
  5
D2
100
AcDbEntity
  8
0
370
              -2
390
0
  6
Continuous
 62
               0
100
AcDbLine
 10
556.65760650528387
 20
-517.69789801457205
 30
0.0
 11
556.65760650528387
 21
-707.69789801457296
 31
0.0
  0
LINE
  5
D3
100
AcDbEntity
  8
0
370
              -2
390
0
  6
Continuous
 62
               0
100
AcDbLine
 10
731.65760650528375
 20
-707.69789801457296
 30
0.0
 11
556.65760650528387
 21
-707.69789801457296
 31
0.0
  0
CIRCLE
  5
D4
102
{ACAD_REACTORS
330
D5
102
}
100
AcDbEntity
  8
0
370
              -2
390
0
  6
Continuous
 62
               0
100
AcDbCircle
 10
731.65760650528375
 20
-707.69789801457296
 30
0.0
 40
1.9998779296875
  0
HATCH
  5
D5
100
AcDbEntity
  8
0
370
              -2
390
0
  6
Continuous
 62
               0
100
AcDbHatch
 10
0.0
 20
0.0
 30
0.0
210
0.0
220
0.0
230
1.0
  2
SOLID
 70
               1
 71
               1
 91
        1
 92
        1
 93
        1
 72
               2
 10
731.65760650528375
 20
-707.69789801457296
 40
1.9998779296875
 50
0.0
 51
360.0
 73
               0
 97
        1
330
D4
 75
               0
 76
               1
 98
        1
 10
0.0
 20
0.0
  0
CIRCLE
  5
D6
102
{ACAD_REACTORS
330
D7
102
}
100
AcDbEntity
  8
0
370
              -2
390
0
  6
Continuous
 62
               0
100
AcDbCircle
 10
556.65760650528387
 20
-707.69789801457296
 30
0.0
 40
1.9998779296875
  0
HATCH
  5
D7
100
AcDbEntity
  8
0
370
              -2
390
0
  6
Continuous
 62
               0
100
AcDbHatch
 10
0.0
 20
0.0
 30
0.0
210
0.0
220
0.0
230
1.0
  2
SOLID
 70
               1
 71
               1
 91
        1
 92
        1
 93
        1
 72
               2
 10
556.65760650528387
 20
-707.69789801457296
 40
1.9998779296875
 50
0.0
 51
360.0
 73
               0
 97
        1
330
D6
 75
               0
 76
               1
 98
        1
 10
0.0
 20
0.0
  0
MTEXT
  5
D8
100
AcDbEntity
  8
0
390
0
 62
               0
100
AcDbMText
 10
620.34510482310839
 20
-673.82028082707302
 30
0.0
 40
24.432617187500004
 41
0.0
 71
               1
 72
               1
  1
175
  7
ＭＳ ゴシック
 73
               1
 44
0.7828267384257843
  0
POINT
  5
D9
100
AcDbEntity
  8
Defpoints
370
               0
390
0
 62
               0
100
AcDbPoint
 10
556.65760650528387
 20
-492.69789801457205
 30
0.0
  0
POINT
  5
DA
100
AcDbEntity
  8
Defpoints
370
               0
390
0
 62
               0
100
AcDbPoint
 10
731.65760650528375
 20
-572.69789801457205
 30
0.0
  0
POINT
  5
DB
100
AcDbEntity
  8
Defpoints
370
               0
390
0
 62
               0
100
AcDbPoint
 10
731.65760650528375
 20
-707.69789801457296
 30
0.0
  0
ENDBLK
  5
DC
100
AcDbEntity
  8
notes
390
0
100
AcDbBlockEnd
  0
BLOCK
  5
DD
100
AcDbEntity
  8
notes
390
0
100
AcDbBlockBegin
  2
*D13
 70
               1
 10
0.0
 20
0.0
 30
0.0
  3
*D13
  1

  0
LINE
  5
DE
100
AcDbEntity
  8
0
370
              -2
390
0
  6
Continuous
 62
               0
100
AcDbLine
 10
-542.31053816753024
 20
-402.69789801516504
 30
0.0
 11
-776.19800437444269
 21
-402.69789801516504
 31
0.0
  0
LINE
  5
DF
100
AcDbEntity
  8
0
370
              -2
390
0
  6
Continuous
 62
               0
100
AcDbLine
 10
-696.81734194147316
 20
-327.69789801457296
 30
0.0
 11
-776.19800437444269
 21
-327.69789801457296
 31
0.0
  0
LINE
  5
E0
100
AcDbEntity
  8
0
370
              -2
390
0
  6
Continuous
 62
               0
100
AcDbLine
 10
-776.19800437444269
 20
-402.69789801516504
 30
0.0
 11
-776.19800437444269
 21
-327.69789801457296
 31
0.0
  0
CIRCLE
  5
E1
102
{ACAD_REACTORS
330
E2
102
}
100
AcDbEntity
  8
0
370
              -2
390
0
  6
Continuous
 62
               0
100
AcDbCircle
 10
-776.19800437444269
 20
-402.69789801516504
 30
0.0
 40
1.9998779296875
  0
HATCH
  5
E2
100
AcDbEntity
  8
0
370
              -2
390
0
  6
Continuous
 62
               0
100
AcDbHatch
 10
0.0
 20
0.0
 30
0.0
210
0.0
220
0.0
230
1.0
  2
SOLID
 70
               1
 71
               1
 91
        1
 92
        1
 93
        1
 72
               2
 10
-776.19800437444269
 20
-402.69789801516504
 40
1.9998779296875
 50
0.0
 51
360.0
 73
               0
 97
        1
330
E1
 75
               0
 76
               1
 98
        1
 10
0.0
 20
0.0
  0
CIRCLE
  5
E3
102
{ACAD_REACTORS
330
E4
102
}
100
AcDbEntity
  8
0
370
              -2
390
0
  6
Continuous
 62
               0
100
AcDbCircle
 10
-776.19800437444269
 20
-327.69789801457296
 30
0.0
 40
1.9998779296875
  0
HATCH
  5
E4
100
AcDbEntity
  8
0
370
              -2
390
0
  6
Continuous
 62
               0
100
AcDbHatch
 10
0.0
 20
0.0
 30
0.0
210
0.0
220
0.0
230
1.0
  2
SOLID
 70
               1
 71
               1
 91
        1
 92
        1
 93
        1
 72
               2
 10
-776.19800437444269
 20
-327.69789801457296
 40
1.9998779296875
 50
0.0
 51
360.0
 73
               0
 97
        1
330
E3
 75
               0
 76
               1
 98
        1
 10
0.0
 20
0.0
  0
MTEXT
  5
E5
100
AcDbEntity
  8
0
390
0
 62
               0
100
AcDbMText
 10
-810.07562156194285
 20
-381.072898014869
 30
0.0
 40
24.432617187500004
 41
0.0
 71
               1
 72
               1
  1
75
  7
ＭＳ ゴシック
 11
0.0
 21
1.0
 31
0.0
 73
               1
 44
0.7828267384257843
  0
POINT
  5
E6
100
AcDbEntity
  8
Defpoints
370
               0
390
0
 62
               0
100
AcDbPoint
 10
-671.81734194147316
 20
-327.69789801457296
 30
0.0
  0
POINT
  5
E7
100
AcDbEntity
  8
Defpoints
370
               0
390
0
 62
               0
100
AcDbPoint
 10
-517.31053816753024
 20
-402.69789801516504
 30
0.0
  0
POINT
  5
E8
100
AcDbEntity
  8
Defpoints
370
               0
390
0
 62
               0
100
AcDbPoint
 10
-776.19800437444269
 20
-402.69789801516504
 30
0.0
  0
ENDBLK
  5
E9
100
AcDbEntity
  8
notes
390
0
100
AcDbBlockEnd
  0
BLOCK
  5
EA
100
AcDbEntity
  8
notes
390
0
100
AcDbBlockBegin
  2
*D14
 70
               1
 10
0.0
 20
0.0
 30
0.0
  3
*D14
  1

  0
LINE
  5
EB
100
AcDbEntity
  8
0
370
              -2
390
0
  6
Continuous
 62
               0
100
AcDbLine
 10
-651.80877088959892
 20
499.71732027341614
 30
0.0
 11
-651.80877088959892
 21
348.22483765176048
 31
0.0
  0
LINE
  5
EC
100
AcDbEntity
  8
0
370
              -2
390
0
  6
Continuous
 62
               0
100
AcDbLine
 10
-181.81220834089186
 20
499.71732027342205
 30
0.0
 11
-181.81220834089186
 21
348.22483765176048
 31
0.0
  0
LINE
  5
ED
100
AcDbEntity
  8
0
370
              -2
390
0
  6
Continuous
 62
               0
100
AcDbLine
 10
-651.80877088959892
 20
348.22483765176048
 30
0.0
 11
-181.81220834089186
 21
348.22483765176048
 31
0.0
  0
CIRCLE
  5
EE
102
{ACAD_REACTORS
330
EF
102
}
100
AcDbEntity
  8
0
370
              -2
390
0
  6
Continuous
 62
               0
100
AcDbCircle
 10
-651.80877088959892
 20
348.22483765176048
 30
0.0
 40
1.9998779296875
  0
HATCH
  5
EF
100
AcDbEntity
  8
0
370
              -2
390
0
  6
Continuous
 62
               0
100
AcDbHatch
 10
0.0
 20
0.0
 30
0.0
210
0.0
220
0.0
230
1.0
  2
SOLID
 70
               1
 71
               1
 91
        1
 92
        1
 93
        1
 72
               2
 10
-651.80877088959892
 20
348.22483765176048
 40
1.9998779296875
 50
0.0
 51
360.0
 73
               0
 97
        1
330
EE
 75
               0
 76
               1
 98
        1
 10
0.0
 20
0.0
  0
CIRCLE
  5
F0
102
{ACAD_REACTORS
330
F1
102
}
100
AcDbEntity
  8
0
370
              -2
390
0
  6
Continuous
 62
               0
100
AcDbCircle
 10
-181.81220834089186
 20
348.22483765176048
 30
0.0
 40
1.9998779296875
  0
HATCH
  5
F1
100
AcDbEntity
  8
0
370
              -2
390
0
  6
Continuous
 62
               0
100
AcDbHatch
 10
0.0
 20
0.0
 30
0.0
210
0.0
220
0.0
230
1.0
  2
SOLID
 70
               1
 71
               1
 91
        1
 92
        1
 93
        1
 72
               2
 10
-181.81220834089186
 20
348.22483765176048
 40
1.9998779296875
 50
0.0
 51
360.0
 73
               0
 97
        1
330
F0
 75
               0
 76
               1
 98
        1
 10
0.0
 20
0.0
  0
MTEXT
  5
F2
100
AcDbEntity
  8
0
390
0
 62
               0
100
AcDbMText
 10
-440.62299129742087
 20
382.10245483926053
 30
0.0
 40
24.432617187500004
 41
0.0
 71
               1
 72
               1
  1
470
  7
ＭＳ ゴシック
 73
               1
 44
0.7828267384257843
  0
POINT
  5
F3
100
AcDbEntity
  8
Defpoints
370
               0
390
0
 62
               0
100
AcDbPoint
 10
-181.81220834089186
 20
524.71732027342205
 30
0.0
  0
POINT
  5
F4
100
AcDbEntity
  8
Defpoints
370
               0
390
0
 62
               0
100
AcDbPoint
 10
-651.80877088959892
 20
524.71732027341614
 30
0.0
  0
POINT
  5
F5
100
AcDbEntity
  8
Defpoints
370
               0
390
0
 62
               0
100
AcDbPoint
 10
-651.80877088959892
 20
348.22483765176048
 30
0.0
  0
ENDBLK
  5
F6
100
AcDbEntity
  8
notes
390
0
100
AcDbBlockEnd
  0
BLOCK
  5
F7
100
AcDbEntity
  8
notes
390
0
100
AcDbBlockBegin
  2
*D15
 70
               1
 10
0.0
 20
0.0
 30
0.0
  3
*D15
  1

  0
LINE
  5
F8
100
AcDbEntity
  8
0
370
              -2
390
0
  6
Continuous
 62
               0
100
AcDbLine
 10
-191.81048961524675
 20
818.22429986897873
 30
0.0
 11
-56.81048961524516
 21
818.22429986897873
 31
0.0
  0
LINE
  5
F9
100
AcDbEntity
  8
0
370
              -2
390
0
  6
Continuous
 62
               0
100
AcDbLine
 10
-209.53056564673648
 20
473.22429986897532
 30
0.0
 11
-56.81048961524516
 21
473.22429986897532
 31
0.0
  0
LINE
  5
FA
100
AcDbEntity
  8
0
370
              -2
390
0
  6
Continuous
 62
               0
100
AcDbLine
 10
-56.81048961524516
 20
818.22429986897873
 30
0.0
 11
-56.81048961524516
 21
473.22429986897532
 31
0.0
  0
CIRCLE
  5
FB
102
{ACAD_REACTORS
330
FC
102
}
100
AcDbEntity
  8
0
370
              -2
390
0
  6
Continuous
 62
               0
100
AcDbCircle
 10
-56.81048961524516
 20
818.22429986897873
 30
0.0
 40
1.9998779296875
  0
HATCH
  5
FC
100
AcDbEntity
  8
0
370
              -2
390
0
  6
Continuous
 62
               0
100
AcDbHatch
 10
0.0
 20
0.0
 30
0.0
210
0.0
220
0.0
230
1.0
  2
SOLID
 70
               1
 71
               1
 91
        1
 92
        1
 93
        1
 72
               2
 10
-56.81048961524516
 20
818.22429986897873
 40
1.9998779296875
 50
0.0
 51
360.0
 73
               0
 97
        1
330
FB
 75
               0
 76
               1
 98
        1
 10
0.0
 20
0.0
  0
CIRCLE
  5
FD
102
{ACAD_REACTORS
330
FE
102
}
100
AcDbEntity
  8
0
370
              -2
390
0
  6
Continuous
 62
               0
100
AcDbCircle
 10
-56.81048961524516
 20
473.22429986897532
 30
0.0
 40
1.9998779296875
  0
HATCH
  5
FE
100
AcDbEntity
  8
0
370
              -2
390
0
  6
Continuous
 62
               0
100
AcDbHatch
 10
0.0
 20
0.0
 30
0.0
210
0.0
220
0.0
230
1.0
  2
SOLID
 70
               1
 71
               1
 91
        1
 92
        1
 93
        1
 72
               2
 10
-56.81048961524516
 20
473.22429986897532
 40
1.9998779296875
 50
0.0
 51
360.0
 73
               0
 97
        1
330
FD
 75
               0
 76
               1
 98
        1
 10
0.0
 20
0.0
  0
MTEXT
  5
FF
100
AcDbEntity
  8
0
390
0
 62
               0
100
AcDbMText
 10
-90.688106802745097
 20
621.91179818680143
 30
0.0
 40
24.432617187500004
 41
0.0
 71
               1
 72
               1
  1
345
  7
ＭＳ ゴシック
 11
0.0
 21
1.0
 31
0.0
 73
               1
 44
0.7828267384257843
  0
POINT
  5
100
100
AcDbEntity
  8
Defpoints
370
               0
390
0
 62
               0
100
AcDbPoint
 10
-234.53056564673648
 20
473.22429986897532
 30
0.0
  0
POINT
  5
101
100
AcDbEntity
  8
Defpoints
370
               0
390
0
 62
               0
100
AcDbPoint
 10
-216.81048961524675
 20
818.22429986897873
 30
0.0
  0
POINT
  5
102
100
AcDbEntity
  8
Defpoints
370
               0
390
0
 62
               0
100
AcDbPoint
 10
-56.81048961524516
 20
818.22429986897873
 30
0.0
  0
ENDBLK
  5
103
100
AcDbEntity
  8
notes
390
0
100
AcDbBlockEnd
  0
BLOCK
  5
104
100
AcDbEntity
  8
notes
390
0
100
AcDbBlockBegin
  2
*D16
 70
               1
 10
0.0
 20
0.0
 30
0.0
  3
*D16
  1

  0
LINE
  5
105
100
AcDbEntity
  8
0
370
              -2
390
0
  6
Continuous
 62
               0
100
AcDbLine
 10
-136.80363728901875
 20
-327.69789801457296
 30
0.0
 11
-34.593235122635633
 21
-327.69789801457296
 31
0.0
  0
LINE
  5
106
100
AcDbEntity
  8
0
370
              -2
390
0
  6
Continuous
 62
               0
100
AcDbLine
 10
-365.79323512263568
 20
-492.69789801457296
 30
0.0
 11
-34.593235122635633
 21
-492.69789801457296
 31
0.0
  0
LINE
  5
107
100
AcDbEntity
  8
0
370
              -2
390
0
  6
Continuous
 62
               0
100
AcDbLine
 10
-34.593235122635633
 20
-327.69789801457296
 30
0.0
 11
-34.593235122635633
 21
-492.69789801457296
 31
0.0
  0
CIRCLE
  5
108
102
{ACAD_REACTORS
330
109
102
}
100
AcDbEntity
  8
0
370
              -2
390
0
  6
Continuous
 62
               0
100
AcDbCircle
 10
-34.593235122635633
 20
-327.69789801457296
 30
0.0
 40
1.9998779296875
  0
HATCH
  5
109
100
AcDbEntity
  8
0
370
              -2
390
0
  6
Continuous
 62
               0
100
AcDbHatch
 10
0.0
 20
0.0
 30
0.0
210
0.0
220
0.0
230
1.0
  2
SOLID
 70
               1
 71
               1
 91
        1
 92
        1
 93
        1
 72
               2
 10
-34.593235122635633
 20
-327.69789801457296
 40
1.9998779296875
 50
0.0
 51
360.0
 73
               0
 97
        1
330
108
 75
               0
 76
               1
 98
        1
 10
0.0
 20
0.0
  0
CIRCLE
  5
10A
102
{ACAD_REACTORS
330
10B
102
}
100
AcDbEntity
  8
0
370
              -2
390
0
  6
Continuous
 62
               0
100
AcDbCircle
 10
-34.593235122635633
 20
-492.69789801457296
 30
0.0
 40
1.9998779296875
  0
HATCH
  5
10B
100
AcDbEntity
  8
0
370
              -2
390
0
  6
Continuous
 62
               0
100
AcDbHatch
 10
0.0
 20
0.0
 30
0.0
210
0.0
220
0.0
230
1.0
  2
SOLID
 70
               1
 71
               1
 91
        1
 92
        1
 93
        1
 72
               2
 10
-34.593235122635633
 20
-492.69789801457296
 40
1.9998779296875
 50
0.0
 51
360.0
 73
               0
 97
        1
330
10A
 75
               0
 76
               1
 98
        1
 10
0.0
 20
0.0
  0
MTEXT
  5
10C
100
AcDbEntity
  8
0
390
0
 62
               0
100
AcDbMText
 10
-68.470852310135569
 20
-434.01039969674844
 30
0.0
 40
24.432617187500004
 41
0.0
 71
               1
 72
               1
  1
165
  7
ＭＳ ゴシック
 11
0.0
 21
1.0
 31
0.0
 73
               1
 44
0.7828267384257843
  0
POINT
  5
10D
100
AcDbEntity
  8
Defpoints
370
               0
390
0
 62
               0
100
AcDbPoint
 10
-390.79323512263568
 20
-492.69789801457296
 30
0.0
  0
POINT
  5
10E
100
AcDbEntity
  8
Defpoints
370
               0
390
0
 62
               0
100
AcDbPoint
 10
-161.80363728901875
 20
-327.69789801457296
 30
0.0
  0
POINT
  5
10F
100
AcDbEntity
  8
Defpoints
370
               0
390
0
 62
               0
100
AcDbPoint
 10
-34.593235122635633
 20
-327.69789801457296
 30
0.0
  0
ENDBLK
  5
110
100
AcDbEntity
  8
notes
390
0
100
AcDbBlockEnd
  0
ENDSEC
  0
SECTION
  2
ENTITIES
  0
MTEXT
  5
111
100
AcDbEntity
  8
template
390
0
 62
               7
100
AcDbMText
 10
-967.99999999975921
 20
-1147.4176292337002
 30
0.0
 40
16.288411458333332
 41
0.0
 71
               1
 72
               1
  1
品名
  7
ＭＳ ゴシック
 73
               1
 44
0.7828267384257843
  0
MTEXT
  5
112
100
AcDbEntity
  8
template
390
0
 62
               7
100
AcDbMText
 10
-967.99999999975921
 20
-1232.4176292337002
 30
0.0
 40
16.288411458333332
 41
0.0
 71
               1
 72
               1
  1
仕様
  7
ＭＳ ゴシック
 73
               1
 44
0.7828267384257843
  0
LINE
  5
113
100
AcDbEntity
  8
template
370
               5
390
0
  6
Continuous
 62
               7
100
AcDbLine
 10
974.99999999975876
 20
-1224.0027073587003
 30
0.0
 11
-975.00000000024124
 21
-1224.0027073587003
 31
0.0
  0
LWPOLYLINE
  5
114
100
AcDbEntity
  8
template
370
               5
390
0
  6
Continuous
 62
               7
100
AcDbPolyline
 90
        5
 70
             128
 10
975.00000000024124
 20
1405.9972926412995
 10
-974.99999999975921
 20
1405.9972926412995
 10
-974.99999999975921
 20
-1394.0027073587003
 10
975.00000000024124
 20
-1394.0027073587003
 10
975.00000000024124
 20
1405.9972926412995
  0
LINE
  5
115
100
AcDbEntity
  8
template
370
               5
390
0
  6
Continuous
 62
               7
100
AcDbLine
 10
974.99999999975876
 20
-1139.0027073587003
 30
0.0
 11
-975.00000000024124
 21
-1139.0027073587003
 31
0.0
  0
LINE
  5
116
100
AcDbEntity
  8
template
370
               5
390
0
  6
Continuous
 62
               7
100
AcDbLine
 10
975.00000000024124
 20
-1309.0027073587003
 30
0.0
 11
222.00000000024124
 21
-1309.0027073587003
 31
0.0
  0
MTEXT
  5
117
100
AcDbEntity
  8
template
390
0
 62
               7
100
AcDbMText
 10
-974.99999999955594
 20
-1405.8565294155574
 30
0.0
 40
21.717881944444446
 41
0.0
 71
               1
 72
               1
  1
100709SH
  7
ＭＳ ゴシック
 73
               1
 44
0.7828267384257843
  0
MTEXT
  5
118
100
AcDbEntity
  8
template
390
0
 62
               7
100
AcDbMText
 10
251.87140625250095
 20
-1338.9131018320077
 30
0.0
 40
24.432617187500004
 41
0.0
 71
               1
 72
               1
  1
大洋金物株式会社 ティーフォルム事業部
  7
ＭＳ ゴシック
 73
               1
 44
0.7828267384257843
  0
INSERT
  5
119
100
AcDbEntity
  8
template
390
0
 62
               7
100
AcDbBlockReference
  2
グループ
 10
1567.9618991288628
 20
1077.5141926721703
 30
0.0
  0
MTEXT
  5
11A
100
AcDbEntity
  8
template
390
0
 62
               7
100
AcDbMText
 10
784.00000000049999
 20
-1261.0000901712001
 30
0.0
 40
24.432617187500004
 41
0.0
 71
               1
 72
               1
  1
1:10
  7
ＭＳ ゴシック
 73
               1
 44
0.7828267384257843
  0
MTEXT
  5
11B
100
AcDbEntity
  8
template
390
0
 62
               7
100
AcDbMText
 10
731.00000000049999
 20
-1232.4176292337002
 30
0.0
 40
16.288411458333332
 41
0.0
 71
               1
 72
               1
  1
縮尺
  7
ＭＳ ゴシック
 73
               1
 44
0.7828267384257843
  0
LINE
  5
11C
100
AcDbEntity
  8
template
370
               5
390
0
  6
Continuous
 62
               7
100
AcDbLine
 10
724.00000000049999
 20
-1309.0027073587003
 30
0.0
 11
724.00000000049999
 21
-1224.0027073587003
 31
0.0
  0
MTEXT
  5
11D
100
AcDbEntity
  8
template
390
0
 62
               7
100
AcDbMText
 10
480.00000000049999
 20
-1232.4176292337002
 30
0.0
 40
16.288411458333332
 41
0.0
 71
               1
 72
               1
  1
容量
  7
ＭＳ ゴシック
 73
               1
 44
0.7828267384257843
  0
MTEXT
  5
11E
100
AcDbEntity
  8
template
390
0
 62
               7
100
AcDbMText
 10
533.00000000049999
 20
-1261.0000901712001
 30
0.0
 40
24.432617187500004
 41
0.0
 71
               1
 72
               1
  1
4.8L
  7
ＭＳ ゴシック
 73
               1
 44
0.7828267384257843
  0
LINE
  5
11F
100
AcDbEntity
  8
template
370
               5
390
0
  6
Continuous
 62
               7
100
AcDbLine
 10
473.00000000049999
 20
-1309.0027073587003
 30
0.0
 11
473.00000000049999
 21
-1224.0027073587003
 31
0.0
  0
MTEXT
  5
120
100
AcDbEntity
  8
template
390
0
 62
               7
100
AcDbMText
 10
229.00000000049999
 20
-1147.4176292337002
 30
0.0
 40
16.288411458333332
 41
0.0
 71
               1
 72
               1
  1
品番
  7
ＭＳ ゴシック
 73
               1
 44
0.7828267384257843
  0
MTEXT
  5
121
100
AcDbEntity
  8
template
390
0
 62
               7
100
AcDbMText
 10
229.00000000049999
 20
-1232.4176292337002
 30
0.0
 40
16.288411458333332
 41
0.0
 71
               1
 72
               1
  1
重量
  7
ＭＳ ゴシック
 73
               1
 44
0.7828267384257843
  0
MTEXT
  5
122
100
AcDbEntity
  8
template
390
0
 62
               7
100
AcDbMText
 10
282.00000000049999
 20
-1176.0000901712001
 30
0.0
 40
24.432617187500004
 41
0.0
 71
               1
 72
               1
  1
ARJ70-0011(旧品番:AQI70-0011)
  7
ＭＳ ゴシック
 73
               1
 44
0.7828267384257843
  0
MTEXT
  5
123
100
AcDbEntity
  8
template
390
0
 62
               7
100
AcDbMText
 10
282.00000000049999
 20
-1261.0000901712001
 30
0.0
 40
24.432617187500004
 41
0.0
 71
               1
 72
               1
  1
15kg
  7
ＭＳ ゴシック
 73
               1
 44
0.7828267384257843
  0
LINE
  5
124
100
AcDbEntity
  8
template
370
               5
390
0
  6
Continuous
 62
               7
100
AcDbLine
 10
222.00000000049999
 20
-1394.0027073587003
 30
0.0
 11
222.00000000049999
 21
-1139.0027073587003
 31
0.0
  0
MTEXT
  5
125
100
AcDbEntity
  8
template
390
0
 62
               7
100
AcDbMText
 10
-914.99999999975876
 20
-1176.0000901712006
 30
0.0
 40
24.432617187500004
 41
0.0
 71
               1
 72
               1
  1
洗面器 -POZZI GINORI,500-
  7
ＭＳ ゴシック
 73
               1
 44
0.7828267384257843
  0
MTEXT
  5
126
100
AcDbEntity
  8
template
390
0
 62
               7
100
AcDbMText
 10
-914.99999999975967
 20
-1261.0000901712006
 30
0.0
 40
24.432617187500004
 41
0.0
 71
               1
 72
               1
  1
壁付け/オーバーフロー付き/壁取付ボルト付属/陶器/ホワイト
  7
ＭＳ ゴシック
 73
               1
 44
1.3047112307096407
  0
DIMENSION
  5
127
100
AcDbEntity
  8
notes
370
               5
390
0
  6
Continuous
 62
               7
100
AcDbDimension
  2
*D3
 10
-676.81048961524607
 20
1038.2242998689785
 30
0.0
 11
-416.81048961524561
 21
1038.2242998689785
 31
0.0
 71
               5
 72
               1
 41
1.0
 42
0.0
  3
tform線あり
100
AcDbAlignedDimension
 13
-156.81048961524516
 23
670.72429986892791
 33
0.0
 14
-676.81048961524607
 24
670.72429986892928
 34
0.0
100
AcDbRotatedDimension
1001
ACAD
1000
DSTYLE
1002
{
1070
             279
1070
               2
1070
             340
1005
32
1070
             147
1040
5.0
1002
}
  0
DIMENSION
  5
128
100
AcDbEntity
  8
notes
370
               5
390
0
  6
Continuous
 62
               7
100
AcDbDimension
  2
*D4
 10
-616.81048961524607
 20
988.22429986897839
 30
0.0
 11
-416.81048961524652
 21
988.22429986897839
 31
0.0
 71
               5
 72
               1
 41
1.0
 42
0.0
  3
tform線あり
100
AcDbAlignedDimension
 13
-216.81048961524675
 23
888.22429986897839
 33
0.0
 14
-616.81048961524607
 24
888.22429986897839
 34
0.0
100
AcDbRotatedDimension
1001
ACAD
1000
DSTYLE
1002
{
1070
             279
1070
               2
1070
             340
1005
32
1070
             147
1040
5.0
1002
}
  0
DIMENSION
  5
129
100
AcDbEntity
  8
notes
370
               5
390
0
  6
Continuous
 62
               7
100
AcDbDimension
  2
*D5
 10
-6.8104896152451602
 20
888.22429986897839
 30
0.0
 11
-6.8104896152451602
 21
668.22456876036949
 31
0.0
 71
               5
 72
               1
 41
1.0
 42
0.0
  3
tform線あり
100
AcDbAlignedDimension
 13
-329.59323512263563
 23
448.22483765176048
 33
0.0
 14
-216.81048961524675
 24
888.22429986897839
 34
0.0
 50
90.0
100
AcDbRotatedDimension
1001
ACAD
1000
DSTYLE
1002
{
1070
             279
1070
               2
1070
             340
1005
32
1070
             147
1040
5.0
1002
}
  0
DIMENSION
  5
12A
100
AcDbEntity
  8
notes
370
               5
390
0
  6
Continuous
 62
               7
100
AcDbDimension
  2
*D6
 10
-491.81053816753024
 20
-233.19789801457296
 30
0.0
 11
-416.81053816735562
 21
-233.19789801457296
 31
0.0
 71
               5
 72
               1
 41
1.0
 42
0.0
  3
tform線あり
100
AcDbAlignedDimension
 13
-341.81053816718077
 23
-377.19789801516094
 33
0.0
 14
-491.81053816753024
 24
-382.69789801516504
 34
0.0
100
AcDbRotatedDimension
1001
ACAD
1000
DSTYLE
1002
{
1070
             279
1070
               2
1070
             340
1005
32
1070
             147
1040
5.0
1002
}
  0
DIMENSION
  5
12B
100
AcDbEntity
  8
notes
370
               5
390
0
  6
Continuous
 62
               7
100
AcDbDimension
  2
*D7
 10
-776.81048961524561
 20
888.22429986897839
 30
0.0
 11
-776.81048961524561
 21
865.72429986897862
 31
0.0
 71
               5
 72
               1
 41
1.0
 42
0.0
  3
tform線あり
100
AcDbAlignedDimension
 13
-616.81048961524607
 23
843.22429986897885
 33
0.0
 14
-616.81048961524607
 24
888.22429986897839
 34
0.0
 50
90.0
100
AcDbRotatedDimension
1001
ACAD
1000
DSTYLE
1002
{
1070
             279
1070
               2
1070
             340
1005
32
1070
             147
1040
5.0
1002
}
  0
DIMENSION
  5
12C
100
AcDbEntity
  8
notes
370
               5
390
0
  6
Continuous
 62
               7
100
AcDbDimension
  2
*D8
 10
-776.81048961524561
 20
843.22429986897885
 30
0.0
 11
-776.81048961524561
 21
645.72456876036972
 31
0.0
 71
               5
 72
               1
 41
1.0
 42
0.0
  3
tform線あり
100
AcDbAlignedDimension
 13
-511.59323512263541
 23
448.22483765176048
 33
0.0
 14
-616.81048961524607
 24
843.22429986897885
 34
0.0
 50
90.0
100
AcDbRotatedDimension
1001
ACAD
1000
DSTYLE
1002
{
1070
             279
1070
               2
1070
             340
1005
32
1070
             147
1040
5.0
1002
}
  0
DIMENSION
  5
12D
100
AcDbEntity
  8
notes
370
               5
390
0
  6
Continuous
 62
               7
100
AcDbDimension
  2
*D9
 10
561.55124812586666
 20
-447.69789801457205
 30
0.0
 11
556.55124812586666
 21
-316.2603980145725
 31
0.0
 70
             128
 71
               5
 72
               1
 41
1.0
 42
0.0
  3
tform線あり
100
AcDbAlignedDimension
 13
576.55124812586666
 23
-327.69789801457296
 33
0.0
 14
576.55124812586666
 24
-447.69789801457205
 34
0.0
 50
90.0
100
AcDbRotatedDimension
1001
ACAD
1000
DSTYLE
1002
{
1070
             279
1070
               2
1070
             340
1005
32
1070
               3
1000
<>(深さ)
1070
             174
1070
               0
1070
             147
1040
5.0
1002
}
  0
DIMENSION
  5
12E
100
AcDbEntity
  8
notes
370
               5
390
0
  6
Continuous
 62
               7
100
AcDbDimension
  2
*D10
 10
831.65760650528375
 20
-332.69789801457296
 30
0.0
 11
831.65760650528375
 21
-452.6978980145725
 31
0.0
 71
               5
 72
               1
 41
1.0
 42
0.0
  3
tform線あり
100
AcDbAlignedDimension
 13
731.65760650528375
 23
-572.69789801457205
 33
0.0
 14
731.65760650528375
 24
-332.69789801457296
 34
0.0
 50
90.0
100
AcDbRotatedDimension
1001
ACAD
1000
DSTYLE
1002
{
1070
             279
1070
               2
1070
             340
1005
32
1070
             147
1040
5.0
1002
}
  0
DIMENSION
  5
12F
100
AcDbEntity
  8
notes
370
               5
390
0
  6
Continuous
 62
               7
100
AcDbDimension
  2
*D11
 10
191.62064609420736
 20
-327.69789801457296
 30
0.0
 11
191.62064609420736
 21
-467.69789801457273
 31
0.0
 71
               5
 72
               1
 41
1.0
 42
0.0
  3
tform線あり
100
AcDbAlignedDimension
 13
424.73313133504644
 23
-607.69789801457273
 33
0.0
 14
296.62064609419781
 24
-327.69789801457296
 34
0.0
 50
90.0
100
AcDbRotatedDimension
1001
ACAD
1000
DSTYLE
1002
{
1070
             279
1070
               2
1070
             340
1005
32
1070
             147
1040
5.0
1002
}
  0
DIMENSION
  5
130
100
AcDbEntity
  8
notes
370
               5
390
0
  6
Continuous
 62
               7
100
AcDbDimension
  2
*D12
 10
731.65760650528375
 20
-707.69789801457296
 30
0.0
 11
644.15760650528387
 21
-707.69789801457296
 31
0.0
 71
               5
 72
               1
 41
1.0
 42
0.0
  3
tform線あり
100
AcDbAlignedDimension
 13
556.65760650528387
 23
-492.69789801457205
 33
0.0
 14
731.65760650528375
 24
-572.69789801457205
 34
0.0
100
AcDbRotatedDimension
1001
ACAD
1000
DSTYLE
1002
{
1070
             279
1070
               2
1070
             340
1005
32
1070
             147
1040
5.0
1002
}
  0
DIMENSION
  5
131
100
AcDbEntity
  8
notes
370
               5
390
0
  6
Continuous
 62
               7
100
AcDbDimension
  2
*D13
 10
-776.19800437444269
 20
-402.69789801516504
 30
0.0
 11
-776.19800437444269
 21
-365.197898014869
 31
0.0
 71
               5
 72
               1
 41
1.0
 42
0.0
  3
tform線あり
100
AcDbAlignedDimension
 13
-671.81734194147316
 23
-327.69789801457296
 33
0.0
 14
-517.31053816753024
 24
-402.69789801516504
 34
0.0
 50
90.0
100
AcDbRotatedDimension
1001
ACAD
1000
DSTYLE
1002
{
1070
             279
1070
               2
1070
             340
1005
32
1070
             147
1040
5.0
1002
}
  0
DIMENSION
  5
132
100
AcDbEntity
  8
notes
370
               5
390
0
  6
Continuous
 62
               7
100
AcDbDimension
  2
*D14
 10
-651.80877088959892
 20
348.22483765176048
 30
0.0
 11
-416.81048961524539
 21
348.22483765176048
 31
0.0
 71
               5
 72
               1
 41
1.0
 42
0.0
  3
tform線あり
100
AcDbAlignedDimension
 13
-181.81220834089186
 23
524.71732027342205
 33
0.0
 14
-651.80877088959892
 24
524.71732027341614
 34
0.0
100
AcDbRotatedDimension
1001
ACAD
1000
DSTYLE
1002
{
1070
             279
1070
               2
1070
             340
1005
32
1070
             147
1040
5.0
1002
}
  0
DIMENSION
  5
133
100
AcDbEntity
  8
notes
370
               5
390
0
  6
Continuous
 62
               7
100
AcDbDimension
  2
*D15
 10
-56.81048961524516
 20
818.22429986897873
 30
0.0
 11
-56.81048961524516
 21
645.72429986897703
 31
0.0
 71
               5
 72
               1
 41
1.0
 42
0.0
  3
tform線あり
100
AcDbAlignedDimension
 13
-234.53056564673648
 23
473.22429986897532
 33
0.0
 14
-216.81048961524675
 24
818.22429986897873
 34
0.0
 50
90.0
100
AcDbRotatedDimension
1001
ACAD
1000
DSTYLE
1002
{
1070
             279
1070
               2
1070
             340
1005
32
1070
             147
1040
5.0
1002
}
  0
DIMENSION
  5
134
100
AcDbEntity
  8
notes
370
               5
390
0
  6
Continuous
 62
               7
100
AcDbDimension
  2
*D16
 10
-34.593235122635633
 20
-327.69789801457296
 30
0.0
 11
-34.593235122635633
 21
-410.19789801457296
 31
0.0
 71
               5
 72
               1
 41
1.0
 42
0.0
  3
tform線あり
100
AcDbAlignedDimension
 13
-390.79323512263568
 23
-492.69789801457296
 33
0.0
 14
-161.80363728901875
 24
-327.69789801457296
 34
0.0
 50
90.0
100
AcDbRotatedDimension
1001
ACAD
1000
DSTYLE
1002
{
1070
             279
1070
               2
1070
             340
1005
32
1070
             147
1040
5.0
1002
}
  0
MTEXT
  5
135
100
AcDbEntity
  8
notes
390
0
 62
               7
100
AcDbMText
 10
-238.66813210949954
 20
-254.25358887114635
 30
0.0
 40
24.432617187500004
 41
0.0
 71
               1
 72
               1
  1
壁取付ボルト穴(2ヶ所)
  7
ＭＳ ゴシック
 73
               1
 44
0.7828267384257843
  0
LINE
  5
136
100
AcDbEntity
  8
notes
370
               5
390
0
  6
Continuous
 62
               7
100
AcDbLine
 10
-341.81053816718077
 20
-402.69789801516413
 30
0.0
 11
-224.88795206392615
 21
-285.77531191190951
 31
0.0
  0
LINE
  5
137
100
AcDbEntity
  8
ARJ70-0011
370
              15
390
0
  6
STYLE_13
 62
               7
100
AcDbLine
 10
-504.46295350534797
 20
-497.32841146805299
 30
0.0
 11
-517.63613579395656
 21
-564.619083832672
 31
0.0
  0
ARC
  5
138
100
AcDbEntity
  8
ARJ70-0011
370
              15
390
0
  6
STYLE_13
 62
               7
100
AcDbCircle
 10
-537.53472965060587
 20
-498.29789801437414
 30
0.0
 40
74.399999999999906
100
AcDbArc
 50
184.27434506646159
 51
270.0
  0
LINE
  5
139
100
AcDbEntity
  8
ARJ70-0011
370
              15
390
0
  6
STYLE_13
 62
               7
100
AcDbLine
 10
-315.98494054075763
 20
-564.619083832672
 30
0.0
 11
-329.15812282936577
 21
-497.32841146805299
 31
0.0
  0
ARC
  5
13A
100
AcDbEntity
  8
ARJ70-0011
370
              15
390
0
  6
STYLE_13
 62
               7
100
AcDbCircle
 10
-296.08413092501269
 20
-498.29789801437414
 30
0.0
 40
74.400000000000091
100
AcDbArc
 50
270.0
 51
355.72565493353829
  0
LINE
  5
13B
100
AcDbEntity
  8
ARJ70-0011
370
              15
390
0
  6
Continuous
 62
               7
100
AcDbLine
 10
731.65760650528375
 20
-332.69789801457296
 30
0.0
 11
731.65760650528375
 21
-572.69789801457205
 31
0.0
  0
ARC
  5
13C
100
AcDbEntity
  8
ARJ70-0011
370
              15
390
0
  6
Continuous
 62
               7
100
AcDbCircle
 10
-541.92359985996768
 20
-477.89803870746709
 30
0.0
 40
127.16337063986084
100
AcDbArc
 50
184.77214810280771
 51
225.0914780781786
  0
ARC
  5
13D
100
AcDbEntity
  8
ARJ70-0011
370
              15
390
0
  6
Continuous
 62
               7
100
AcDbCircle
 10
-291.69737937052605
 20
-477.89803870746709
 30
0.0
 40
127.16337063986049
100
AcDbArc
 50
314.90852192182109
 51
355.22785189719229
  0
ARC
  5
13E
100
AcDbEntity
  8
ARJ70-0011
370
              15
390
0
  6
Continuous
 62
               7
100
AcDbCircle
 10
426.50753584948689
 20
-477.63636834422209
 30
0.0
 40
127.16337063985993
100
AcDbArc
 50
184.77214810280779
 51
225.09147807817885
  0
LINE
  5
13F
100
AcDbEntity
  8
ARJ70-0011
370
              15
390
0
  6
Continuous
 62
               7
100
AcDbLine
 10
-521.24973534677224
 20
-607.69789801457205
 30
0.0
 11
-312.37124388371967
 21
-607.69789801457205
 31
0.0
  0
LINE
  5
140
100
AcDbEntity
  8
ARJ70-0011
370
              15
390
0
  6
Continuous
 62
               7
100
AcDbLine
 10
-616.81048961524607
 20
888.22429986897839
 30
0.0
 11
-216.81048961524675
 21
888.22429986897839
 31
0.0
  0
ARC
  5
141
100
AcDbEntity
  8
ARJ70-0011
370
              15
390
0
  6
Continuous
 62
               7
100
AcDbCircle
 10
-416.81048961524675
 20
-86.609662509320742
 30
0.0
 40
904.83396237829959
100
AcDbArc
 50
90.0
 51
98.943149359519211
  0
ARC
  5
142
100
AcDbEntity
  8
ARJ70-0011
370
              15
390
0
  6
Continuous
 62
               7
100
AcDbCircle
 10
-416.81048961524675
 20
1378.0582622472748
 30
0.0
 40
904.83396237829947
100
AcDbArc
 50
261.05685064048077
 51
270.0
  0
ARC
  5
143
100
AcDbEntity
  8
ARJ70-0011
370
              15
390
0
  6
Continuous
 62
               7
100
AcDbCircle
 10
-416.81048961524675
 20
-86.609662509320742
 30
0.0
 40
929.83396237829947
100
AcDbArc
 50
81.952799171795675
 51
98.047200828204296
  0
ARC
  5
144
100
AcDbEntity
  8
ARJ70-0011
370
              15
390
0
  6
Continuous
 62
               7
100
AcDbCircle
 10
-416.81048961524675
 20
1378.0582622472748
 30
0.0
 40
929.8339623782997
100
AcDbArc
 50
261.95279917179562
 51
278.04720082820427
  0
ARC
  5
145
100
AcDbEntity
  8
ARJ70-0011
370
              15
390
0
  6
Continuous
 62
               7
100
AcDbCircle
 10
-301.65313330346089
 20
649.97434034893615
 30
0.0
 40
350.18142922981809
100
AcDbArc
 50
180.69539770090842
 51
194.49077720711654
  0
ARC
  5
146
100
AcDbEntity
  8
ARJ70-0011
370
              15
390
0
  6
Continuous
 62
               7
100
AcDbCircle
 10
-301.65313330346089
 20
649.97434034893615
 30
0.0
 40
375.18142922981866
100
AcDbArc
 50
180.64905821972076
 51
194.5280447450761
  0
ARC
  5
147
100
AcDbEntity
  8
ARJ70-0011
370
              15
390
0
  6
Continuous
 62
               7
100
AcDbCircle
 10
-534.48286462916917
 20
592.1021978066517
 30
0.0
 40
110.3000000000001
100
AcDbArc
 50
195.64846654355185
 51
257.97059786158275
  0
ARC
  5
148
100
AcDbEntity
  8
ARJ70-0011
370
              15
390
0
  6
Continuous
 62
               7
100
AcDbCircle
 10
-534.48286462917054
 20
592.1021978066517
 30
0.0
 40
135.30000000000013
100
AcDbArc
 50
195.53789042797791
 51
264.70158714103286
  0
ARC
  5
149
100
AcDbEntity
  8
ARJ70-0011
370
              15
390
0
  6
Continuous
 62
               7
100
AcDbCircle
 10
-534.48286462916917
 20
699.34640193130565
 30
0.0
 40
110.29999999999995
100
AcDbArc
 50
102.0294021384168
 51
164.35153345644795
  0
ARC
  5
14A
100
AcDbEntity
  8
ARJ70-0011
370
              15
390
0
  6
Continuous
 62
               7
100
AcDbCircle
 10
-534.48286462917054
 20
699.34640193130178
 30
0.0
 40
135.30000000000013
100
AcDbArc
 50
95.29841285896714
 51
164.462109572022
  0
LINE
  5
14B
100
AcDbEntity
  8
ARJ70-0011
370
              15
390
0
  6
Continuous
 62
               7
100
AcDbLine
 10
-616.81048961524607
 20
888.22429986897839
 30
0.0
 11
-616.81048961524607
 21
806.71610046935405
 31
0.0
  0
ARC
  5
14C
100
AcDbEntity
  8
ARJ70-0011
370
              15
390
0
  6
Continuous
 62
               7
100
AcDbCircle
 10
-301.65313330346089
 20
641.47425938901722
 30
0.0
 40
350.18142922981815
100
AcDbArc
 50
165.50922279288326
 51
179.30460229909147
  0
ARC
  5
14D
100
AcDbEntity
  8
ARJ70-0011
370
              15
390
0
  6
Continuous
 62
               7
100
AcDbCircle
 10
-301.65313330346089
 20
641.47425938901722
 30
0.0
 40
375.18142922981826
100
AcDbArc
 50
165.47195525492373
 51
179.35094178027913
  0
ARC
  5
14E
100
AcDbEntity
  8
ARJ70-0011
370
              15
390
0
  6
Continuous
 62
               7
100
AcDbCircle
 10
-523.90490282385076
 20
-441.71913405463397
 30
0.0
 40
165.99999999999994
100
AcDbArc
 50
229.5069328659219
 51
270.91648420415868
  0
ARC
  5
14F
100
AcDbEntity
  8
ARJ70-0011
370
              15
390
0
  6
STYLE_13
 62
               7
100
AcDbCircle
 10
-527.44985298225561
 20
-562.69789801437196
 30
0.0
 40
10.0
100
AcDbArc
 50
270.0
 51
348.92355190278465
  0
ARC
  5
150
100
AcDbEntity
  8
ARJ70-0011
370
              15
390
0
  6
Continuous
 62
               7
100
AcDbCircle
 10
-299.13811460132365
 20
699.34640193130565
 30
0.0
 40
110.29999999999991
100
AcDbArc
 50
15.648466543548903
 51
77.970597861582846
  0
ARC
  5
151
100
AcDbEntity
  8
ARJ70-0011
370
              15
390
0
  6
Continuous
 62
               7
100
AcDbCircle
 10
-299.13811460132365
 20
592.1021978066517
 30
0.0
 40
110.29999999999988
100
AcDbArc
 50
282.02940213841703
 51
344.35153345645119
  0
ARC
  5
152
100
AcDbEntity
  8
ARJ70-0011
370
              15
390
0
  6
Continuous
 62
               7
100
AcDbCircle
 10
-299.13811460132365
 20
699.34640193130178
 30
0.0
 40
135.29999999999995
100
AcDbArc
 50
15.537890427977986
 51
84.701587141033045
  0
ARC
  5
153
100
AcDbEntity
  8
ARJ70-0011
370
              15
390
0
  6
Continuous
 62
               7
100
AcDbCircle
 10
-299.13811460132365
 20
592.1021978066517
 30
0.0
 40
135.29999999999993
100
AcDbArc
 50
275.29841285896697
 51
344.46210957202192
  0
ARC
  5
154
100
AcDbEntity
  8
ARJ70-0011
370
              15
390
0
  6
Continuous
 62
               7
100
AcDbCircle
 10
-416.81048961524675
 20
1378.0582622472748
 30
0.0
 40
904.8339623782997
100
AcDbArc
 50
270.0
 51
278.943149359519
  0
ARC
  5
155
100
AcDbEntity
  8
ARJ70-0011
370
              15
390
0
  6
Continuous
 62
               7
100
AcDbCircle
 10
-416.81048961524675
 20
-86.609662509320742
 30
0.0
 40
904.83396237829959
100
AcDbArc
 50
81.056850640480789
 51
90.0
  0
CIRCLE
  5
156
100
AcDbEntity
  8
ARJ70-0011
370
              15
390
0
  6
Continuous
 62
               7
100
AcDbCircle
 10
-416.81048961524675
 20
713.22429986897839
 30
0.0
 40
23.0
  0
CIRCLE
  5
157
100
AcDbEntity
  8
ARJ70-0011
370
              15
390
0
  6
Continuous
 62
               7
100
AcDbCircle
 10
-416.81048961524675
 20
713.22429986897839
 30
0.0
 40
37.5
  0
ARC
  5
158
100
AcDbEntity
  8
ARJ70-0011
370
              15
390
0
  6
Continuous
 62
               7
100
AcDbCircle
 10
-531.96784592702966
 20
649.97434034893615
 30
0.0
 40
350.18142922981792
100
AcDbArc
 50
345.50922279288324
 51
359.3046022990913
  0
ARC
  5
159
100
AcDbEntity
  8
ARJ70-0011
370
              15
390
0
  6
Continuous
 62
               7
100
AcDbCircle
 10
-531.96784592702966
 20
649.97434034893615
 30
0.0
 40
375.18142922981815
100
AcDbArc
 50
345.47195525492373
 51
359.35094178027902
  0
LINE
  5
15A
100
AcDbEntity
  8
ARJ70-0011
370
              15
390
0
  6
Continuous
 62
               7
100
AcDbLine
 10
-216.81048961524675
 20
888.22429986897839
 30
0.0
 11
-216.81048961524675
 21
806.71610046935405
 31
0.0
  0
ARC
  5
15B
100
AcDbEntity
  8
ARJ70-0011
370
              15
390
0
  6
Continuous
 62
               7
100
AcDbCircle
 10
-531.96784592702966
 20
641.47425938901722
 30
0.0
 40
350.18142922981809
100
AcDbArc
 50
0.6953977009085045
 51
14.490777207116674
  0
ARC
  5
15C
100
AcDbEntity
  8
ARJ70-0011
370
              15
390
0
  6
Continuous
 62
               7
100
AcDbCircle
 10
-531.96784592702966
 20
641.47425938901722
 30
0.0
 40
375.18142922981826
100
AcDbArc
 50
0.6490582197208783
 51
14.528044745076231
  0
ARC
  5
15D
100
AcDbEntity
  8
ARJ70-0011
370
              15
390
0
  6
Continuous
 62
               7
100
AcDbCircle
 10
-309.71607640664388
 20
-441.71913405463397
 30
0.0
 40
165.99999999999997
100
AcDbArc
 50
269.08351579584104
 51
310.49306713407805
  0
LINE
  5
15E
100
AcDbEntity
  8
ARJ70-0011
370
              15
390
0
  6
STYLE_13
 62
               7
100
AcDbLine
 10
-295.62561555575667
 20
-572.69789801437196
 30
0.0
 11
-295.61891906915798
 21
-572.88966030227311
 31
0.0
  0
ARC
  5
15F
100
AcDbEntity
  8
ARJ70-0011
370
              15
390
0
  6
STYLE_13
 62
               7
100
AcDbCircle
 10
-306.17122335255772
 20
-562.69789801437196
 30
0.0
 40
9.999999999999984
100
AcDbArc
 50
191.07644809721535
 51
270.0
  0
ARC
  5
160
100
AcDbEntity
  8
ARJ70-0011
370
              15
390
0
  6
Continuous
 62
               7
100
AcDbCircle
 10
444.88780695112109
 20
-441.77343939908815
 30
0.0
 40
165.99519009666255
100
AcDbArc
 50
229.34120074976315
 51
271.6726754279224
  0
ARC
  5
161
100
AcDbEntity
  8
ARJ70-0011
370
              15
390
0
  6
Continuous
 62
               7
100
AcDbCircle
 10
641.57770640185356
 20
-722.69789801457205
 30
0.0
 40
149.99999999999977
100
AcDbArc
 50
90.0
 51
117.2502663449372
  0
LINE
  5
162
100
AcDbEntity
  8
ARJ70-0011
370
              15
390
0
  6
Continuous
 62
               7
100
AcDbLine
 10
731.65760650528375
 20
-572.69789801457205
 30
0.0
 11
641.57770640185356
 21
-572.69789801457205
 31
0.0
  0
LINE
  5
163
100
AcDbEntity
  8
ARJ70-0011
370
              15
390
0
  6
Continuous
 62
               7
100
AcDbLine
 10
731.65760650528375
 20
-572.69789801457205
 30
0.0
 11
706.65979980156169
 21
-572.69789801457205
 31
0.0
  0
LINE
  5
164
100
AcDbEntity
  8
ARJ70-0011
370
              15
390
0
  6
Continuous
 62
               7
100
AcDbLine
 10
731.65760650528375
 20
-572.69789801457205
 30
0.0
 11
731.65760650528375
 21
-567.69789801457205
 31
0.0
  0
ARC
  5
165
100
AcDbEntity
  8
ARJ70-0011
370
              15
390
0
  6
Continuous
 62
               7
100
AcDbCircle
 10
496.89044564836968
 20
-441.77343939908815
 30
0.0
 40
165.99519009666292
100
AcDbArc
 50
268.32732457207766
 51
297.26280513175658
  0
LINE
  5
166
100
AcDbEntity
  8
ARJ70-0011
370
              15
390
0
  6
Continuous
 62
               7
100
AcDbLine
 10
449.73313133502188
 20
-607.69789801457205
 30
0.0
 11
459.73313133502188
 21
-607.69789801457205
 31
0.0
  0
LINE
  5
167
100
AcDbEntity
  8
ARJ70-0011
370
              15
390
0
  6
Continuous
 62
               7
100
AcDbLine
 10
492.04512126446912
 20
-607.69789801457205
 30
0.0
 11
449.73313133502188
 21
-607.69789801457205
 31
0.0
  0
ARC
  5
168
100
AcDbEntity
  8
ARJ70-0011
370
              15
390
0
  6
STYLE_13
 62
               7
100
AcDbCircle
 10
-425.95321599908402
 20
-512.69789801437196
 30
0.0
 40
80.0
100
AcDbArc
 50
90.0
 51
168.92355190278437
  0
LINE
  5
169
100
AcDbEntity
  8
ARJ70-0011
370
              15
390
0
  6
STYLE_13
 62
               7
100
AcDbLine
 10
-219.80337043063673
 20
-332.69789801594311
 30
0.0
 11
-613.81760879985609
 21
-332.69789801320098
 31
0.0
  0
ARC
  5
16A
100
AcDbEntity
  8
ARJ70-0011
370
              15
390
0
  6
STYLE_13
 62
               7
100
AcDbCircle
 10
-441.52105651985494
 20
-26.112323034548126
 30
0.0
 40
421.77952372079409
100
AcDbArc
 50
250.51074246118358
 51
268.2623791876739
  0
LINE
  5
16B
100
AcDbEntity
  8
ARJ70-0011
370
              15
390
0
  6
Continuous
 62
               7
100
AcDbLine
 10
-671.81734194147316
 20
-327.69789801457296
 30
0.0
 11
-161.80363728901875
 21
-327.69789801457296
 31
0.0
  0
ARC
  5
16C
100
AcDbEntity
  8
ARJ70-0011
370
              15
390
0
  6
STYLE_13
 62
               7
100
AcDbCircle
 10
-548.52558405017157
 20
-329.58007724082995
 30
0.0
 40
99.999999999999716
100
AcDbArc
 50
206.22695965981663
 51
250.29738421033423
  0
LWPOLYLINE
  5
16D
100
AcDbEntity
  8
ARJ70-0011
370
              15
390
0
  6
STYLE_13
 62
               7
100
AcDbPolyline
 90
       15
 70
             128
 10
-615.87453858235654
 20
-434.50038911747106
 10
-615.87809802725656
 20
-434.42205111317116
 10
-615.88546840315735
 20
-434.343799500773
 10
-615.89664914825676
 20
-434.26564024646996
 10
-615.91163940995807
 20
-434.18757930907304
 10
-615.93043804555759
 20
-434.10962264007412
 10
-615.95304362175716
 20
-434.03177618297195
 10
-615.97945441505703
 20
-433.95404587277108
 10
-616.00966841185777
 20
-433.87643763587312
 10
-616.04368330865668
 20
-433.79895738907408
 10
-616.08149651215695
 20
-433.72161103967414
 10
-616.12310513935677
 20
-433.64440448447203
 10
-616.16850601805686
 20
-433.56734360987298
 10
-616.21769568675677
 20
-433.49043429107405
 10
-616.27067039525696
 20
-433.41368239167014
  0
LWPOLYLINE
  5
16E
100
AcDbEntity
  8
ARJ70-0011
370
              15
390
0
  6
STYLE_13
 62
               7
100
AcDbPolyline
 90
       17
 70
             128
 10
-616.2767989550573
 20
-412.83400934107317
 10
-616.2797797961573
 20
-412.76845650757195
 10
-616.28661925765641
 20
-412.70297059777295
 10
-616.29731681155658
 20
-412.63755666607108
 10
-616.31187163215668
 20
-412.57221976167011
 10
-616.33028259605794
 20
-412.50696492787301
 10
-616.35254828225675
 20
-412.44179720127408
 10
-616.37866697195727
 20
-412.37672161197497
 10
-616.40863664925723
 20
-412.31174318317017
 10
-616.44245500085685
 20
-412.24686693017406
 10
-616.48011941645723
 20
-412.18209786057309
 10
-616.52162698875668
 20
-412.11744097387509
 10
-616.56697451395644
 20
-412.05290126047112
 10
-616.61615849195709
 20
-411.98848370227211
 10
-616.66917512615669
 20
-411.92419327127209
 10
-616.72602032455666
 20
-411.86003492987197
 10
-616.78668969935802
 20
-411.79601363037409
  0
ARC
  5
16F
100
AcDbEntity
  8
ARJ70-0011
370
              15
390
0
  6
STYLE_13
 62
               7
100
AcDbCircle
 10
-613.81760879985609
 20
-335.69789801437196
 30
0.0
 40
3.0
100
AcDbArc
 50
90.0
 51
179.88486209110656
  0
ARC
  5
170
100
AcDbEntity
  8
ARJ70-0011
370
              15
390
0
  6
STYLE_13
 62
               7
100
AcDbCircle
 10
1280.019788680806
 20
-362.453694650339
 30
0.0
 40
1897.0239531769946
100
AcDbArc
 50
179.19168627262641
 51
184.27434506646159
  0
ARC
  5
171
100
AcDbEntity
  8
ARJ70-0011
370
              15
390
0
  6
STYLE_13
 62
               7
100
AcDbCircle
 10
-500.98190614709597
 20
-306.157893494463
 30
0.0
 40
153.00000000000028
100
AcDbArc
 50
189.66831250251801
 51
206.2269596598166
  0
ARC
  5
172
100
AcDbEntity
  8
ARJ70-0011
370
              15
390
0
  6
Continuous
 62
               7
100
AcDbCircle
 10
125.55199562556436
 20
-357.92206837781805
 30
0.0
 40
801.81282972165457
100
AcDbArc
 50
180.71727638630077
 51
183.57789447029282
  0
ARC
  5
173
100
AcDbEntity
  8
ARJ70-0011
370
              15
390
0
  6
Continuous
 62
               7
100
AcDbCircle
 10
323.62699562645594
 20
-332.95769337779802
 30
0.0
 40
1000.4374852434795
100
AcDbArc
 50
180.00010792201229
 51
182.00499191757331
  0
ARC
  5
174
100
AcDbEntity
  8
ARJ70-0011
370
              15
390
0
  6
Continuous
 62
               7
100
AcDbCircle
 10
129.55199562554208
 20
-377.77206837781705
 30
0.0
 40
804.8163440538533
100
AcDbArc
 50
182.1495862723267
 51
183.57633437497776
  0
ARC
  5
175
100
AcDbEntity
  8
ARJ70-0011
370
              15
390
0
  6
Continuous
 62
               7
100
AcDbCircle
 10
328.89053217524497
 20
-374.73814697600005
 30
0.0
 40
1004.0000000000001
100
AcDbArc
 50
183.03952765940033
 51
186.5047685461341
  0
ARC
  5
176
100
AcDbEntity
  8
ARJ70-0011
370
              15
390
0
  6
STYLE_13
 62
               7
100
AcDbCircle
 10
-656.73692991382882
 20
-332.69789801457296
 30
0.0
 40
4.9999999999997673
100
AcDbArc
 50
9.7243395931218259
 51
90.0
  0
LINE
  5
177
100
AcDbEntity
  8
ARJ70-0011
370
              15
390
0
  6
Continuous
 62
               7
100
AcDbLine
 10
-671.81734194147316
 20
-327.69789801457296
 30
0.0
 11
-656.06891899272819
 21
-327.69789801457296
 31
0.0
  0
ARC
  5
178
100
AcDbEntity
  8
ARJ70-0011
370
              15
390
0
  6
Continuous
 62
               7
100
AcDbCircle
 10
-671.81734194147316
 20
-332.69789801457296
 30
0.0
 40
5.0
100
AcDbArc
 50
90.0
 51
183.00000000000557
  0
LINE
  5
179
100
AcDbEntity
  8
ARJ70-0011
370
              15
390
0
  6
STYLE_13
 62
               7
100
AcDbLine
 10
-491.81053816753024
 20
-422.69789801516504
 30
0.0
 11
-491.81053816753024
 21
-382.69789801516504
 31
0.0
  0
ARC
  5
17A
100
AcDbEntity
  8
ARJ70-0011
370
              15
390
0
  6
STYLE_13
 62
               7
100
AcDbCircle
 10
-392.09992271063902
 20
-26.112323034548126
 30
0.0
 40
421.77952372079415
100
AcDbArc
 50
271.73762081232587
 51
289.48925753881605
  0
ARC
  5
17B
100
AcDbEntity
  8
ARJ70-0011
370
              15
390
0
  6
STYLE_13
 62
               7
100
AcDbCircle
 10
-407.66786033562994
 20
-512.69789801437196
 30
0.0
 40
79.999999999999972
100
AcDbArc
 50
11.076448097215652
 51
90.0
  0
LINE
  5
17C
100
AcDbEntity
  8
ARJ70-0011
370
              15
390
0
  6
STYLE_13
 62
               7
100
AcDbLine
 10
-407.66786033562994
 20
-432.69789801437196
 30
0.0
 11
-425.95321599908402
 21
-432.69789801437196
 31
0.0
  0
LINE
  5
17D
100
AcDbEntity
  8
ARJ70-0011
370
              15
390
0
  6
STYLE_13
 62
               7
100
AcDbLine
 10
-454.31048961524675
 20
-447.69789801457205
 30
0.0
 11
-379.31048961524675
 21
-447.69789801457205
 31
0.0
  0
ARC
  5
17E
100
AcDbEntity
  8
ARJ70-0011
370
              15
390
0
  6
STYLE_13
 62
               7
100
AcDbCircle
 10
-219.80346753485674
 20
-335.69789801437196
 30
0.0
 40
3.0000000000000315
100
AcDbArc
 50
0.115137908893415
 51
90.0
  0
ARC
  5
17F
100
AcDbEntity
  8
ARJ70-0011
370
              15
390
0
  6
STYLE_13
 62
               7
100
AcDbCircle
 10
-2113.6386492564252
 20
-362.453694650339
 30
0.0
 40
1897.0239531769953
100
AcDbArc
 50
355.72565493353829
 51
0.8083137273734452
  0
ARC
  5
180
100
AcDbEntity
  8
ARJ70-0011
370
              15
390
0
  6
STYLE_13
 62
               7
100
AcDbCircle
 10
-285.09539518032307
 20
-329.58007724082995
 30
0.0
 40
99.999999999999957
100
AcDbArc
 50
289.70261578966586
 51
333.77304034018346
  0
ARC
  5
181
100
AcDbEntity
  8
ARJ70-0011
370
              15
390
0
  6
STYLE_13
 62
               7
100
AcDbCircle
 10
-332.63907308339867
 20
-306.157893494463
 30
0.0
 40
152.99999999999991
100
AcDbArc
 50
333.77304034018323
 51
350.33168749748188
  0
ARC
  5
182
100
AcDbEntity
  8
ARJ70-0011
370
              15
390
0
  6
Continuous
 62
               7
100
AcDbCircle
 10
-963.17297485603444
 20
-377.77206837781705
 30
0.0
 40
804.81634405385284
100
AcDbArc
 50
356.42366562502212
 51
357.85041372767313
  0
ARC
  5
183
100
AcDbEntity
  8
ARJ70-0011
370
              15
390
0
  6
Continuous
 62
               7
100
AcDbCircle
 10
-1157.2479748569501
 20
-332.95769337779802
 30
0.0
 40
1000.4374852434792
100
AcDbArc
 50
357.99500808242652
 51
359.99989207798768
  0
ARC
  5
184
100
AcDbEntity
  8
ARJ70-0011
370
              15
390
0
  6
Continuous
 62
               7
100
AcDbCircle
 10
-959.17297485605809
 20
-357.92206837781805
 30
0.0
 40
801.81282972165445
100
AcDbArc
 50
356.42210552970698
 51
359.28272361369909
  0
ARC
  5
185
100
AcDbEntity
  8
ARJ70-0011
370
              15
390
0
  6
Continuous
 62
               7
100
AcDbCircle
 10
-1162.5115114057378
 20
-374.73814697600005
 30
0.0
 40
1003.9999999999999
100
AcDbArc
 50
353.49523145386581
 51
356.96047234059944
  0
ARC
  5
186
100
AcDbEntity
  8
ARJ70-0011
370
              15
390
0
  6
Continuous
 62
               7
100
AcDbCircle
 10
-161.80363728901875
 20
-332.69789801457296
 30
0.0
 40
5.0000000000000657
100
AcDbArc
 50
356.99999999999443
 51
90.0
  0
ARC
  5
187
100
AcDbEntity
  8
ARJ70-0011
370
              15
390
0
  6
STYLE_13
 62
               7
100
AcDbCircle
 10
-176.88404931666491
 20
-332.69789801457296
 30
0.0
 40
5.0
100
AcDbArc
 50
90.0
 51
170.27566040687864
  0
LINE
  5
188
100
AcDbEntity
  8
ARJ70-0011
370
              15
390
0
  6
Continuous
 62
               7
100
AcDbLine
 10
-177.55206023776464
 20
-327.69789801457296
 30
0.0
 11
-161.80363728901875
 21
-327.69789801457296
 31
0.0
  0
ARC
  5
189
100
AcDbEntity
  8
ARJ70-0011
370
              15
390
0
  6
STYLE_13
 62
               7
100
AcDbCircle
 10
521.97236961228987
 20
-45.243180625810282
 30
0.0
 40
402.46456047684171
100
AcDbArc
 50
250.29738421033412
 51
269.59928059021144
  0
LINE
  5
18A
100
AcDbEntity
  8
ARJ70-0011
370
              15
390
0
  6
Continuous
 62
               7
100
AcDbLine
 10
686.65760650528875
 20
-327.69789801457296
 30
0.0
 11
296.62064609419781
 21
-327.69789801457296
 31
0.0
  0
LINE
  5
18B
100
AcDbEntity
  8
ARJ70-0011
370
              15
390
0
  6
STYLE_13
 62
               7
100
AcDbLine
 10
653.38185355265171
 20
-327.69789801457296
 30
0.0
 11
304.19281499345743
 21
-327.69789801457296
 31
0.0
  0
ARC
  5
18C
100
AcDbEntity
  8
ARJ70-0011
370
              15
390
0
  6
STYLE_13
 62
               7
100
AcDbCircle
 10
594.15760650528875
 20
-390.19789801457296
 30
0.0
 40
57.5
100
AcDbArc
 50
270.0
 51
350.86580950894609
  0
LINE
  5
18D
100
AcDbEntity
  8
ARJ70-0011
370
              15
390
0
  6
STYLE_13
 62
               7
100
AcDbLine
 10
661.65760650528875
 20
-332.59659368647408
 30
0.0
 11
650.92846350886668
 21
-399.32586575548999
 31
0.0
  0
LINE
  5
18E
100
AcDbEntity
  8
ARJ70-0011
370
              15
390
0
  6
Continuous
 62
               7
100
AcDbLine
 10
686.65760650528875
 20
-327.69789801457296
 30
0.0
 11
686.65760650528875
 21
-332.69789801457296
 31
0.0
  0
LINE
  5
18F
100
AcDbEntity
  8
ARJ70-0011
370
              15
390
0
  6
Continuous
 62
               7
100
AcDbLine
 10
731.65760650528375
 20
-332.69789801457296
 30
0.0
 11
686.65760650528557
 21
-332.69789801457296
 31
0.0
  0
ARC
  5
190
100
AcDbEntity
  8
ARJ70-0011
370
              15
390
0
  6
STYLE_13
 62
               7
100
AcDbCircle
 10
666.65658014325561
 20
-332.69789801457614
 30
0.0
 40
5.0
100
AcDbArc
 50
90.0
 51
178.83905847318476
  0
LINE
  5
191
100
AcDbEntity
  8
ARJ70-0011
370
              15
390
0
  6
Continuous
 62
               7
100
AcDbLine
 10
678.38185355265171
 20
-327.69789801457296
 30
0.0
 11
658.32116837457363
 21
-327.69789801457296
 31
0.0
  0
LINE
  5
192
100
AcDbEntity
  8
ARJ70-0011
370
              15
390
0
  6
Continuous
 62
               7
100
AcDbLine
 10
296.65075417905678
 20
-327.69789801457296
 30
0.0
 11
311.73487580785536
 21
-327.69789801457296
 31
0.0
  0
ARC
  5
193
100
AcDbEntity
  8
ARJ70-0011
370
              15
390
0
  6
STYLE_13
 62
               7
100
AcDbCircle
 10
420.0
 20
-330.0
 30
0.0
 40
99.999999999999716
100
AcDbArc
 50
206.22695965981663
 51
250.29738421033423
  0
ARC
  5
194
100
AcDbEntity
  8
ARJ70-0011
370
              15
390
0
  6
STYLE_13
 62
               7
100
AcDbCircle
 10
467.54367790307606
 20
-306.57781625362895
 30
0.0
 40
152.99999999999966
100
AcDbArc
 50
189.66831250251812
 51
206.22695965981669
  0
ARC
  5
195
100
AcDbEntity
  8
ARJ70-0011
370
              15
390
0
  6
Continuous
 62
               7
100
AcDbCircle
 10
296.62064609419781
 20
-332.69789801457296
 30
0.0
 40
4.9999999999997726
100
AcDbArc
 50
90.0
 51
180.00010792201232
  0
ARC
  5
196
100
AcDbEntity
  8
ARJ70-0011
370
              15
390
0
  6
Continuous
 62
               7
100
AcDbCircle
 10
1370.4727708864602
 20
-367.25437212411316
 30
0.0
 40
1077.4989235111925
100
AcDbArc
 50
182.15108130910724
 51
186.44567128427221
  0
ARC
  5
197
100
AcDbEntity
  8
ARJ70-0011
370
              15
390
0
  6
Continuous
 62
               7
100
AcDbCircle
 10
1292.0581313359123
 20
-332.69602301455211
 30
0.0
 40
1000.4374852434797
100
AcDbArc
 50
180.00010792201232
 51
182.00499191757345
  0
ARC
  5
198
100
AcDbEntity
  8
ARJ70-0011
370
              15
390
0
  6
Continuous
 62
               7
100
AcDbCircle
 10
1093.9831313350192
 20
-357.66039801457305
 30
0.0
 40
801.81282972165491
100
AcDbArc
 50
180.71727638630094
 51
183.57789447029305
  0
ARC
  5
199
100
AcDbEntity
  8
ARJ70-0011
370
              15
390
0
  6
STYLE_13
 62
               7
100
AcDbCircle
 10
312.23839731267822
 20
-332.14963506236109
 30
0.0
 40
4.4801223921320528
100
AcDbArc
 50
358.41851435775374
 51
96.453114083575045
  0
LINE
  5
19A
100
AcDbEntity
  8
ARJ70-0011
370
              15
390
0
  6
STYLE_13
 62
               7
100
AcDbLine
 10
-471.81053816753001
 20
-402.69789801516504
 30
0.0
 11
-511.81053816753024
 21
-402.69789801516504
 31
0.0
  0
CIRCLE
  5
19B
100
AcDbEntity
  8
ARJ70-0011
370
              15
390
0
  6
STYLE_13
 62
               7
100
AcDbCircle
 10
-491.81053816753024
 20
-402.69789801516504
 30
0.0
 40
10.0
  0
LINE
  5
19C
100
AcDbEntity
  8
ARJ70-0011
370
              15
390
0
  6
STYLE_13
 62
               7
100
AcDbLine
 10
-321.81053816753001
 20
-402.69789801516504
 30
0.0
 11
-361.81053816753001
 21
-402.69789801516504
 31
0.0
  0
CIRCLE
  5
19D
100
AcDbEntity
  8
ARJ70-0011
370
              15
390
0
  6
STYLE_13
 62
               7
100
AcDbCircle
 10
-341.81053816753001
 20
-402.69789801516504
 30
0.0
 40
10.0
  0
LINE
  5
19E
100
AcDbEntity
  8
ARJ70-0011
370
              15
390
0
  6
STYLE_13
 62
               7
100
AcDbLine
 10
-341.81053816753001
 20
-422.69789801516504
 30
0.0
 11
-341.81053816753001
 21
-382.69789801516504
 31
0.0
  0
POLYLINE
  5
19F
100
AcDbEntity
  8
ARJ70-0011
370
              15
390
0
  6
STYLE_13
 62
               7
100
AcDb2dPolyline
 66
               1
 10
0.0
 20
0.0
 30
0.0
 70
               1
 75
               5
  0
VERTEX
  5
1A0
100
AcDbEntity
  8
ARJ70-0011
370
              15
390
0
  6
STYLE_13
 62
               7
100
AcDbVertex
100
AcDb2dVertex
 10
-442.79323512263568
 20
-447.69789801457205
 30
0.0
  0
VERTEX
  5
1A1
100
AcDbEntity
  8
ARJ70-0011
370
              15
390
0
  6
STYLE_13
 62
               7
100
AcDbVertex
100
AcDb2dVertex
 10
-390.79323512263568
 20
-447.69789801457205
 30
0.0
  0
VERTEX
  5
1A2
100
AcDbEntity
  8
ARJ70-0011
370
              15
390
0
  6
STYLE_13
 62
               7
100
AcDbVertex
100
AcDb2dVertex
 10
-390.79323512263568
 20
-492.69789801457205
 30
0.0
  0
VERTEX
  5
1A3
100
AcDbEntity
  8
ARJ70-0011
370
              15
390
0
  6
STYLE_13
 62
               7
100
AcDbVertex
100
AcDb2dVertex
 10
-442.79323512263568
 20
-492.69789801457205
 30
0.0
  0
SEQEND
  5
1A4
100
AcDbEntity
  8
ARJ70-0011
370
              15
390
0
  6
STYLE_13
 62
               7
  0
POLYLINE
  5
1A5
100
AcDbEntity
  8
ARJ70-0011
370
              15
390
0
  6
STYLE_13
 62
               7
100
AcDb2dPolyline
 66
               1
 10
0.0
 20
0.0
 30
0.0
 70
               1
 75
               5
  0
VERTEX
  5
1A6
100
AcDbEntity
  8
ARJ70-0011
370
              15
390
0
  6
STYLE_13
 62
               7
100
AcDbVertex
100
AcDb2dVertex
 10
530.65760650528387
 20
-447.69789801457205
 30
0.0
  0
VERTEX
  5
1A7
100
AcDbEntity
  8
ARJ70-0011
370
              15
390
0
  6
STYLE_13
 62
               7
100
AcDbVertex
100
AcDb2dVertex
 10
582.65760650528375
 20
-447.69789801457205
 30
0.0
  0
VERTEX
  5
1A8
100
AcDbEntity
  8
ARJ70-0011
370
              15
390
0
  6
STYLE_13
 62
               7
100
AcDbVertex
100
AcDb2dVertex
 10
582.65760650528375
 20
-492.69789801457205
 30
0.0
  0
VERTEX
  5
1A9
100
AcDbEntity
  8
ARJ70-0011
370
              15
390
0
  6
STYLE_13
 62
               7
100
AcDbVertex
100
AcDb2dVertex
 10
530.65760650528387
 20
-492.69789801457205
 30
0.0
  0
SEQEND
  5
1AA
100
AcDbEntity
  8
ARJ70-0011
370
              15
390
0
  6
STYLE_13
 62
               7
  0
ENDSEC
  0
SECTION
  2
OBJECTS
  0
DICTIONARY
  5
19
100
AcDbDictionary
280
               0
281
               1
  3
ACAD_GROUP
350
1A
  3
ACAD_MLINESTYLE
350
1B
  3
ACAD_LAYOUT
350
1E
  3
ACAD_PLOTSETTINGS
350
22
  3
ACAD_PLOTSTYLENAME
350
1F
  0
DICTIONARY
  5
1A
102
{ACAD_REACTORS
330
19
102
}
100
AcDbDictionary
280
               0
281
               1
  0
DICTIONARY
  5
1B
102
{ACAD_REACTORS
330
19
102
}
100
AcDbDictionary
280
               0
281
               1
  3
Standard
350
1C
  0
MLINESTYLE
  5
1C
102
{ACAD_REACTORS
330
1B
102
}
100
AcDbMlineStyle
  2
Standard
 70
               0
  3

 62
               0
 51
90.0
 52
90.0
 71
               2
 49
0.5
 62
             256
  6
ByLayer
 49
-0.5
 62
             256
  6
ByLayer
  0
ACDBDICTIONARYWDFLT
  5
1F
102
{ACAD_REACTORS
330
19
102
}
100
AcDbDictionary
281
               1
  3
Normal
350
1D
100
AcDbDictionaryWithDefault
340
1D
  0
ACDBPLACEHOLDER
  5
1D
102
{ACAD_REACTORS
330
1F
102
}
  0
LAYOUT
  5
20
102
{ACAD_REACTORS
330
1E
102
}
100
AcDbPlotSettings
  1

  2

  4

  6

 40
0.0
 41
0.0
 42
0.0
 43
0.0
 44
0.0
 45
0.0
 46
0.0
 47
0.0
 48
0.0
 49
0.0
140
0.0
141
0.0
142
1.0
143
1.0
 70
            1024
 72
               0
 73
               0
 74
               0
  7

 75
               0
147
1.0
148
0.0
149
0.0
100
AcDbLayout
  1
Model
 70
               0
 71
               0
 10
0.0
 20
0.0
 11
0.0
 21
0.0
 12
0.0
 22
0.0
 32
0.0
 14
0.0
 24
0.0
 34
0.0
 15
0.0
 25
0.0
 35
0.0
146
0.0
 13
0.0
 23
0.0
 33
0.0
 16
0.0
 26
0.0
 36
0.0
 17
0.0
 27
0.0
 37
0.0
 76
               0
330
A
331
0
345
0
346
0
  0
LAYOUT
  5
21
102
{ACAD_REACTORS
330
1E
102
}
100
AcDbPlotSettings
  1

  2

  4

  6

 40
0.0
 41
0.0
 42
0.0
 43
0.0
 44
0.0
 45
0.0
 46
0.0
 47
0.0
 48
0.0
 49
0.0
140
0.0
141
0.0
142
1.0
143
1.0
 70
               0
 72
               0
 73
               0
 74
               0
  7

 75
               0
147
1.0
148
0.0
149
0.0
100
AcDbLayout
  1
Layout1
 70
               0
 71
               0
 10
0.0
 20
0.0
 11
0.0
 21
0.0
 12
0.0
 22
0.0
 32
0.0
 14
0.0
 24
0.0
 34
0.0
 15
0.0
 25
0.0
 35
0.0
146
0.0
 13
0.0
 23
0.0
 33
0.0
 16
0.0
 26
0.0
 36
0.0
 17
0.0
 27
0.0
 37
0.0
 76
               0
330
B
331
0
345
0
346
0
  0
DICTIONARY
  5
1E
102
{ACAD_REACTORS
330
19
102
}
100
AcDbDictionary
280
               0
281
               1
  3
Layout1
350
21
  3
Model
350
20
  0
DICTIONARY
  5
22
102
{ACAD_REACTORS
330
19
102
}
100
AcDbDictionary
280
               0
281
               1
  0
ENDSEC
  0
EOF
