  0
SECTION
  2
HEADER
  9
$ACADVER
  1
AC1015
  9
$ACADMAINTVER
 70
               6
  9
$DWGCODEPAGE
  3
ANSI_932
  9
$INSBASE
 10
0.0
 20
0.0
 30
0.0
  9
$EXTMIN
 10
-1049.9999999999995
 20
-1485.0
 30
-14.834305555555552
  9
$EXTMAX
 10
1049.9999999999998
 20
1485.0
 30
14.834305555555552
  9
$LIMMIN
 10
0.0
 20
0.0
  9
$LIMMAX
 10
0.0
 20
0.0
  9
$ORTHOMODE
 70
               0
  9
$REGENMODE
 70
               1
  9
$FILLMODE
 70
               1
  9
$QTEXTMODE
 70
               0
  9
$MIRRTEXT
 70
               1
  9
$LTSCALE
 40
25.399999999999999
  9
$ATTMODE
 70
               1
  9
$TEXTSIZE
 40
0.2
  9
$TRACEWID
 40
1.0
  9
$TEXTSTYLE
  7
Standard
  9
$CLAYER
  8
template
  9
$CELTYPE
  6
Continuous
  9
$CECOLOR
 62
             256
  9
$CELTSCALE
 40
1.0
  9
$DISPSILH
 70
               0
  9
$DIMSCALE
 40
1.0
  9
$DIMASZ
 40
31.75
  9
$DIMEXO
 40
0.0
  9
$DIMDLI
 40
6.9999999999999396
  9
$DIMRND
 40
0.0
  9
$DIMDLE
 40
0.0
  9
$DIMEXE
 40
19.999999999996199
  9
$DIMTP
 40
0.0
  9
$DIMTM
 40
0.0
  9
$DIMTXT
 40
24.432617187500004
  9
$DIMCEN
 40
0.0
  9
$DIMTSZ
 40
0.0
  9
$DIMTOL
 70
               0
  9
$DIMLIM
 70
               0
  9
$DIMTIH
 70
               0
  9
$DIMTOH
 70
               0
  9
$DIMSE1
 70
               0
  9
$DIMSE2
 70
               0
  9
$DIMTAD
 70
               1
  9
$DIMZIN
 70
              11
  9
$DIMBLK
  1
VW_FILLEDARROW
  9
$DIMASO
 70
               1
  9
$DIMSHO
 70
               1
  9
$DIMPOST
  1
<>
  9
$DIMAPOST
  1
[]
  9
$DIMALT
 70
               0
  9
$DIMALTD
 70
               1
  9
$DIMALTF
 40
1.0
  9
$DIMLFAC
 40
1.0
  9
$DIMTOFL
 70
               0
  9
$DIMTVP
 40
0.0
  9
$DIMTIX
 70
               1
  9
$DIMSOXD
 70
               0
  9
$DIMSAH
 70
               0
  9
$DIMBLK1
  1

  9
$DIMBLK2
  1

  9
$DIMSTYLE
  2
JIS
  9
$DIMCLRD
 70
               0
  9
$DIMCLRE
 70
               0
  9
$DIMCLRT
 70
               0
  9
$DIMTFAC
 40
1.0
  9
$DIMGAP
 40
1.00000000000108
  9
$DIMJUST
 70
               0
  9
$DIMSD1
 70
               0
  9
$DIMSD2
 70
               0
  9
$DIMTOLJ
 70
               1
  9
$DIMTZIN
 70
              11
  9
$DIMALTZ
 70
              11
  9
$DIMALTTZ
 70
              11
  9
$DIMUPT
 70
               0
  9
$DIMDEC
 70
               1
  9
$DIMTDEC
 70
               1
  9
$DIMALTU
 70
               2
  9
$DIMALTTD
 70
               2
  9
$DIMTXSTY
  7
ＭＳ ゴシック
  9
$DIMAUNIT
 70
               0
  9
$DIMADEC
 70
               2
  9
$DIMALTRND
 40
0.0
  9
$DIMAZIN
 70
               0
  9
$DIMDSEP
 70
              46
  9
$DIMATFIT
 70
               0
  9
$DIMFRAC
 70
               2
  9
$DIMLDRBLK
  1

  9
$DIMLUNIT
 70
               2
  9
$DIMLWD
 70
              -2
  9
$DIMLWE
 70
              -2
  9
$DIMTMOVE
 70
               0
  9
$LUNITS
 70
               2
  9
$LUPREC
 70
               4
  9
$SKETCHINC
 40
0.1
  9
$FILLETRAD
 40
0.0
  9
$AUNITS
 70
               0
  9
$AUPREC
 70
               0
  9
$MENU
  1
acad
  9
$ELEVATION
 40
0.0
  9
$PELEVATION
 40
0.0
  9
$THICKNESS
 40
0.0
  9
$LIMCHECK
 70
               0
  9
$CHAMFERA
 40
0.0
  9
$CHAMFERB
 40
0.0
  9
$CHAMFERC
 40
0.0
  9
$CHAMFERD
 40
0.0
  9
$SKPOLY
 70
               0
  9
$TDCREATE
 40
2455623.668252315
  9
$TDUCREATE
 40
0.000000000
  9
$TDUPDATE
 40
2455623.668252315
  9
$TDUUPDATE
 40
0.000000000
  9
$TDINDWG
 40
0.0000000000
  9
$TDUSRTIMER
 40
0.0000000000
  9
$USRTIMER
 70
               1
  9
$ANGBASE
 50
0.0
  9
$ANGDIR
 70
               0
  9
$PDMODE
 70
               1
  9
$PDSIZE
 40
-2.0
  9
$PLINEWID
 40
0.0
  9
$SPLFRAME
 70
               0
  9
$SPLINETYPE
 70
               6
  9
$SPLINESEGS
 70
               8
  9
$HANDSEED
  5
1C1
  9
$SURFTAB1
 70
               6
  9
$SURFTAB2
 70
               6
  9
$SURFTYPE
 70
               6
  9
$SURFU
 70
               6
  9
$SURFV
 70
               6
  9
$UCSBASE
  2

  9
$UCSNAME
  2

  9
$UCSORG
 10
0.0
 20
0.0
 30
0.0
  9
$UCSXDIR
 10
1.0
 20
0.0
 30
0.0
  9
$UCSYDIR
 10
0.0
 20
1.0
 30
0.0
  9
$UCSORTHOREF
  2

  9
$UCSORTHOVIEW
 70
               0
  9
$UCSORGTOP
 10
0.0
 20
0.0
 30
0.0
  9
$UCSORGBOTTOM
 10
0.0
 20
0.0
 30
0.0
  9
$UCSORGLEFT
 10
0.0
 20
0.0
 30
0.0
  9
$UCSORGRIGHT
 10
0.0
 20
0.0
 30
0.0
  9
$UCSORGFRONT
 10
0.0
 20
0.0
 30
0.0
  9
$UCSORGBACK
 10
0.0
 20
0.0
 30
0.0
  9
$PUCSBASE
  2

  9
$PUCSNAME
  2

  9
$PUCSORG
 10
0.0
 20
0.0
 30
0.0
  9
$PUCSXDIR
 10
1.0
 20
0.0
 30
0.0
  9
$PUCSYDIR
 10
0.0
 20
1.0
 30
0.0
  9
$PUCSORTHOREF
  2

  9
$PUCSORTHOVIEW
 70
               0
  9
$PUCSORGTOP
 10
0.0
 20
0.0
 30
0.0
  9
$PUCSORGBOTTOM
 10
0.0
 20
0.0
 30
0.0
  9
$PUCSORGLEFT
 10
0.0
 20
0.0
 30
0.0
  9
$PUCSORGRIGHT
 10
0.0
 20
0.0
 30
0.0
  9
$PUCSORGFRONT
 10
0.0
 20
0.0
 30
0.0
  9
$PUCSORGBACK
 10
0.0
 20
0.0
 30
0.0
  9
$USERI1
 70
               0
  9
$USERI2
 70
               0
  9
$USERI3
 70
               0
  9
$USERI4
 70
               0
  9
$USERI5
 70
               0
  9
$USERR1
 40
0.0
  9
$USERR2
 40
0.0
  9
$USERR3
 40
0.0
  9
$USERR4
 40
0.0
  9
$USERR5
 40
0.0
  9
$WORLDVIEW
 70
               1
  9
$SHADEDGE
 70
               3
  9
$SHADEDIF
 70
              70
  9
$TILEMODE
 70
               1
  9
$MAXACTVP
 70
              64
  9
$PINSBASE
 10
0.0
 20
0.0
 30
0.0
  9
$PLIMCHECK
 70
               0
  9
$PEXTMIN
 10
1.0000000000000000E+20
 20
1.0000000000000000E+20
 30
1.0000000000000000E+20
  9
$PEXTMAX
 10
-1.0000000000000000E+20
 20
-1.0000000000000000E+20
 30
-1.0000000000000000E+20
  9
$PLIMMIN
 10
0.0
 20
0.0
  9
$PLIMMAX
 10
12.0
 20
9.0
  9
$UNITMODE
 70
               0
  9
$VISRETAIN
 70
               0
  9
$PLINEGEN
 70
               1
  9
$PSLTSCALE
 70
               0
  9
$TREEDEPTH
 70
            3020
  9
$CMLSTYLE
  2
Standard
  9
$CMLJUST
 70
               0
  9
$CMLSCALE
 40
1.0
  9
$PROXYGRAPHICS
 70
               0
  9
$MEASUREMENT
 70
               1
  9
$CELWEIGHT
370
               0
  9
$ENDCAPS
280
               0
  9
$JOINSTYLE
280
               0
  9
$LWDISPLAY
290
               1
  9
$INSUNITS
 70
               4
  9
$HYPERLINKBASE
  1

  9
$STYLESHEET
  1

  9
$XEDIT
290
               1
  9
$CEPSNTYPE
380
               0
  9
$PSTYLEMODE
290
               1
  9
$FINGERPRINTGUID
  2

  9
$VERSIONGUID
  2

  9
$EXTNAMES
290
               1
  9
$PSVPSCALE
 40
0.0
  0
ENDSEC
  0
SECTION
  2
CLASSES
  0
CLASS
  1
LWPOLYLINE
  2
AcDbPolyline
  3
AutoCAD 2000
 90
        0
280
               0
281
               1
  0
CLASS
  1
IMAGE
  2
AcDbRasterImage
  3
ISM
 90
      127
280
               0
281
               1
  0
CLASS
  1
OLE2FRAME
  2
AcDbOle2Frame
  3
AutoCAD 2000
 90
        0
280
               0
281
               1
  0
CLASS
  1
HATCH
  2
AcDbHatch
  3
AutoCAD 2000
 90
        0
280
               0
281
               1
  0
CLASS
  1
DICTIONARYVAR
  2
AcDbDictionaryVar
  3
AutoCAD 2000
 90
        0
280
               0
281
               0
  0
CLASS
  1
RASTERVARIABLES
  2
AcDbRasterVariables
  3
ISM
 90
        0
280
               0
281
               0
  0
CLASS
  1
IMAGEDEF
  2
AcDbRasterImageDef
  3
ISM
 90
        0
280
               0
281
               0
  0
CLASS
  1
IMAGEDEF_REACTOR
  2
AcDbRasterImageDefReactor
  3
ISM
 90
        1
280
               0
281
               0
  0
CLASS
  1
IDBUFFER
  2
AcDbIdBuffer
  3
AutoCAD 2000
 90
        0
280
               0
281
               0
  0
CLASS
  1
SPATIAL_FILTER
  2
AcDbSpatialFilter
  3
AutoCAD 2000
 90
        0
280
               0
281
               0
  0
CLASS
  1
XRECORD
  2
AcDbXrecord
  3
AutoCAD 2000
 90
        0
280
               0
281
               0
  0
CLASS
  1
SORTENTSTABLE
  2
AcDbSortentsTable
  3
AutoCAD 2000
 90
        0
280
               0
281
               0
  0
CLASS
  1
LAYER_INDEX
  2
AcDbLayerIndex
  3
AutoCAD 2000
 90
        0
280
               0
281
               0
  0
CLASS
  1
SPATIAL_INDEX
  2
AcDbSpatialIndex
  3
AutoCAD 2000
 90
        0
280
               0
281
               0
  0
CLASS
  1
OBJECT_PTR
  2
CAseDLPNTableRecord
  3
"ASE-LPNTableRecord"
 90
        1
280
               0
281
               0
  0
CLASS
  1
LAYOUT
  2
AcDbLayout
  3
AutoCAD 2000
 90
        0
280
               0
281
               0
  0
CLASS
  1
PLOTSETTINGS
  2
AcDbPlotSettings
  3
AutoCAD 2000
 90
        0
280
               0
281
               0
  0
CLASS
  1
ACDBDICTIONARYWDFLT
  2
AcDbDictionaryWithDefault
  3
AutoCAD 2000
 90
        0
280
               0
281
               0
  0
CLASS
  1
ACDBPLACEHOLDER
  2
AcDbPlaceHolder
  3
AutoCAD 2000
 90
        0
280
               0
281
               0
  0
ENDSEC
  0
SECTION
  2
TABLES
  0
TABLE
  2
VPORT
  5
7
100
AcDbSymbolTable
 70
               1
  0
VPORT
  5
15
100
AcDbSymbolTableRecord
100
AcDbViewportTableRecord
  2
*ACTIVE
 70
               0
 10
0.0
 20
0.0
 11
1.0
 21
1.0
 12
0.0
 22
0.0
 13
0.0
 23
0.0
 14
1.0
 24
1.0
 15
0.0
 25
0.0
 16
0.0
 26
0.0
 36
1.0
 17
0.0
 27
0.0
 37
0.0
 40
2970.0
 41
0.688564
 42
50.0
 43
0.0
 44
0.0
 50
0.0
 51
0.0
 71
               0
 72
            2000
 73
               1
 74
               1
 75
               0
 76
               0
 77
               0
 78
               0
281
               0
 65
               0
110
0.0
120
0.0
130
0.0
111
1.0
121
0.0
131
0.0
112
0.0
122
1.0
132
0.0
345
0
346
0
 79
               0
146
0.0
  0
ENDTAB
  0
TABLE
  2
LTYPE
  5
4
100
AcDbSymbolTable
 70
              16
  0
LTYPE
  5
11
100
AcDbSymbolTableRecord
100
AcDbLinetypeTableRecord
  2
ByBlock
 70
              64
  3

 72
              65
 73
               0
 40
0.0
  0
LTYPE
  5
12
100
AcDbSymbolTableRecord
100
AcDbLinetypeTableRecord
  2
ByLayer
 70
              64
  3

 72
              65
 73
               0
 40
0.0
  0
LTYPE
  5
13
100
AcDbSymbolTableRecord
100
AcDbLinetypeTableRecord
  2
Continuous
 70
              64
  3
Solid line
 72
              65
 73
               0
 40
0.0
  0
LTYPE
  5
38
100
AcDbSymbolTableRecord
100
AcDbLinetypeTableRecord
  2
STYLE_01
 70
               0
  3

 72
              65
 73
               4
 40
0.078740157480315
 49
0.0492125984251968
 74
               0
 49
-0.0098425196850394
 74
               0
 49
0.0098425196850394
 74
               0
 49
-0.0098425196850394
 74
               0
  0
LTYPE
  5
39
100
AcDbSymbolTableRecord
100
AcDbLinetypeTableRecord
  2
STYLE_02
 70
               0
  3

 72
              65
 73
               2
 40
0.0590551181102362
 49
0.0393700787401574
 74
               0
 49
-0.0196850393700788
 74
               0
  0
LTYPE
  5
3A
100
AcDbSymbolTableRecord
100
AcDbLinetypeTableRecord
  2
STYLE_03
 70
               0
  3

 72
              65
 73
               2
 40
0.7499999999999998
 49
0.5
 74
               0
 49
-0.2499999999999998
 74
               0
  0
LTYPE
  5
3B
100
AcDbSymbolTableRecord
100
AcDbLinetypeTableRecord
  2
STYLE_04
 70
               0
  3

 72
              65
 73
               4
 40
1.9999999999999998
 49
1.25
 74
               0
 49
-0.2499999999999999
 74
               0
 49
0.2499999999999999
 74
               0
 49
-0.2499999999999999
 74
               0
  0
LTYPE
  5
3C
100
AcDbSymbolTableRecord
100
AcDbLinetypeTableRecord
  2
STYLE_05
 70
               0
  3

 72
              65
 73
               2
 40
0.41656
 49
0.13885
 74
               0
 49
-0.27771
 74
               0
  0
LTYPE
  5
3D
100
AcDbSymbolTableRecord
100
AcDbLinetypeTableRecord
  2
STYLE_06
 70
               0
  3

 72
              65
 73
               4
 40
2.0832800000000002
 49
1.25
 74
               0
 49
-0.41656
 74
               0
 49
0.1388600000000001
 74
               0
 49
-0.2778600000000001
 74
               0
  0
LTYPE
  5
3E
100
AcDbSymbolTableRecord
100
AcDbLinetypeTableRecord
  2
STYLE_07
 70
               0
  3

 72
              65
 73
               6
 40
3.75
 49
1.25
 74
               0
 49
-0.41656
 74
               0
 49
1.2500000000000002
 74
               0
 49
-0.4167199999999999
 74
               0
 49
0.1388600000000001
 74
               0
 49
-0.2778599999999998
 74
               0
  0
LTYPE
  5
3F
100
AcDbSymbolTableRecord
100
AcDbLinetypeTableRecord
  2
STYLE_08
 70
               0
  3

 72
              65
 73
               6
 40
2.5
 49
1.25
 74
               0
 49
-0.41656
 74
               0
 49
0.1388600000000001
 74
               0
 49
-0.2778600000000001
 74
               0
 49
0.1388599999999998
 74
               0
 49
-0.2778600000000001
 74
               0
  0
LTYPE
  5
40
100
AcDbSymbolTableRecord
100
AcDbLinetypeTableRecord
  2
STYLE_09
 70
               0
  3

 72
              65
 73
               4
 40
10.0
 49
7.5
 74
               0
 49
-0.5555699999999997
 74
               0
 49
1.3888600000000006
 74
               0
 49
-0.5555699999999997
 74
               0
  0
LTYPE
  5
41
100
AcDbSymbolTableRecord
100
AcDbLinetypeTableRecord
  2
STYLE_10
 70
               0
  3

 72
              65
 73
               6
 40
11.875
 49
7.5
 74
               0
 49
-0.5555699999999997
 74
               0
 49
1.3888600000000006
 74
               0
 49
-0.5555699999999997
 74
               0
 49
1.25
 74
               0
 49
-0.625
 74
               0
  0
LTYPE
  5
42
100
AcDbSymbolTableRecord
100
AcDbLinetypeTableRecord
  2
STYLE_11
 70
               0
  3

 72
              65
 73
               2
 40
0.1388889763779528
 49
0.0694444881889764
 74
               0
 49
-0.0694444881889764
 74
               0
  0
LTYPE
  5
43
100
AcDbSymbolTableRecord
100
AcDbLinetypeTableRecord
  2
STYLE_12
 70
               0
  3

 72
              65
 73
               2
 40
0.3472222222222222
 49
0.2083333333333333
 74
               0
 49
-0.1388888888888889
 74
               0
  0
LTYPE
  5
44
100
AcDbSymbolTableRecord
100
AcDbLinetypeTableRecord
  2
STYLE_13
 70
               0
  3

 72
              65
 73
               2
 40
0.7874015748031495
 49
0.3937007874015748
 74
               0
 49
-0.3937007874015748
 74
               0
  0
ENDTAB
  0
TABLE
  2
LAYER
  5
2
100
AcDbSymbolTable
 70
               5
  0
LAYER
  5
14
100
AcDbSymbolTableRecord
100
AcDbLayerTableRecord
  2
0
 70
               0
 62
               7
  6
Continuous
290
               1
370
              -3
390
1D
  0
LAYER
  5
45
100
AcDbSymbolTableRecord
100
AcDbLayerTableRecord
  2
Defpoints
 70
               0
 62
               7
  6
Continuous
290
               0
370
              -3
390
1D
  0
LAYER
  5
46
100
AcDbSymbolTableRecord
100
AcDbLayerTableRecord
  2
template
 70
               0
 62
               7
  6
Continuous
290
               1
370
              -3
390
1D
  0
LAYER
  5
47
100
AcDbSymbolTableRecord
100
AcDbLayerTableRecord
  2
notes
 70
               0
 62
               7
  6
Continuous
290
               1
370
              -3
390
1D
  0
LAYER
  5
48
100
AcDbSymbolTableRecord
100
AcDbLayerTableRecord
  2
ARJ70-0021
 70
               0
 62
               7
  6
Continuous
290
               1
370
              -3
390
1D
  0
ENDTAB
  0
TABLE
  2
STYLE
  5
3
100
AcDbSymbolTable
 70
               2
  0
STYLE
  5
17
100
AcDbSymbolTableRecord
100
AcDbTextStyleTableRecord
  2
Standard
 70
               0
 40
0.0
 41
1.0
 50
0.0
 71
               0
 42
0.0
  3
txt
  4
BIGFONT.SHX
  0
STYLE
  5
37
100
AcDbSymbolTableRecord
100
AcDbTextStyleTableRecord
  2
ＭＳ ゴシック
 70
               0
 40
0.0
 41
1.0
 50
0.0
 71
               0
 42
0.0
  3

  4
ＭＳ ゴシック
1001
ACAD
1000
ＭＳ ゴシック
1071
        0
  0
ENDTAB
  0
TABLE
  2
VIEW
  5
5
100
AcDbSymbolTable
 70
               0
  0
ENDTAB
  0
TABLE
  2
UCS
  5
6
100
AcDbSymbolTable
 70
               0
  0
ENDTAB
  0
TABLE
  2
APPID
  5
8
100
AcDbSymbolTable
 70
               1
  0
APPID
  5
16
100
AcDbSymbolTableRecord
100
AcDbRegAppTableRecord
  2
ACAD
 70
               0
  0
ENDTAB
  0
TABLE
  2
DIMSTYLE
  5
9
100
AcDbSymbolTable
 70
               3
100
AcDbDimStyleTable
 71
               0
  0
DIMSTYLE
105
18
100
AcDbSymbolTableRecord
100
AcDbDimStyleTableRecord
  2
Standard
 70
               0
  3

  4

 40
1.0
 41
0.18
 42
0.0625
 43
0.38
 44
0.18
 45
0.0
 46
0.0
 47
0.0
 48
0.0
 71
               0
 72
               0
 73
               1
 74
               1
 75
               0
 76
               0
 77
               0
 78
               0
 79
               0
140
0.18
141
0.09
142
0.0
143
25.399999999999999
144
1.0
145
0.0
146
1.0
147
0.09
148
0.0
170
               0
171
               2
172
               0
173
               0
174
               0
175
               0
176
               0
177
               0
178
               0
179
               0
271
               4
272
               4
273
               2
274
               2
275
               0
276
               0
277
               2
278
              46
279
               0
280
               0
281
               0
282
               0
283
               1
284
               0
285
               0
286
               0
288
               0
289
               3
340
17
341
0
342
0
343
0
344
0
371
              -2
372
              -2
  0
DIMSTYLE
105
51
100
AcDbSymbolTableRecord
100
AcDbDimStyleTableRecord
  2
tform線あり
 70
               0
  3
<>
  4
[]
 40
1.0
 41
3.999755859375
 42
24.999999999999996
 43
0.9999999999999999
 44
0.0
 45
0.0
 46
0.0
 47
0.0
 48
0.0
 71
               0
 72
               0
 73
               0
 74
               0
 75
               0
 76
               0
 77
               1
 78
              11
 79
               0
140
24.432617187500004
141
0.0
142
0.0
143
1.0
144
1.0
145
0.0
146
1.0
147
0.4999999999999999
148
0.0
170
               0
171
               1
172
               0
173
               0
174
               1
175
               0
176
               0
177
               0
178
               0
179
               2
271
               1
272
               1
273
               2
274
               2
275
               0
276
               2
277
               2
278
              46
279
               0
280
               0
281
               0
282
               0
283
               1
284
              11
285
              11
286
              11
288
               0
289
               0
340
37
341
49
342
49
343
0
344
0
371
              -2
372
              -2
  0
DIMSTYLE
105
56
100
AcDbSymbolTableRecord
100
AcDbDimStyleTableRecord
  2
JIS
 70
               0
  3
<>
  4
[]
 40
1.0
 41
31.75
 42
0.0
 43
6.9999999999999396
 44
19.999999999996199
 45
0.0
 46
0.0
 47
0.0
 48
0.0
 71
               0
 72
               0
 73
               0
 74
               0
 75
               0
 76
               0
 77
               1
 78
              11
 79
               0
140
24.432617187500004
141
0.0
142
0.0
143
1.0
144
1.0
145
0.0
146
1.0
147
1.00000000000108
148
0.0
170
               0
171
               1
172
               0
173
               0
174
               1
175
               0
176
               0
177
               0
178
               0
179
               2
271
               1
272
               1
273
               2
274
               2
275
               0
276
               2
277
               2
278
              46
279
               0
280
               0
281
               0
282
               0
283
               1
284
              11
285
              11
286
              11
288
               0
289
               0
340
37
341
52
342
52
343
0
344
0
371
              -2
372
              -2
  0
ENDTAB
  0
TABLE
  2
BLOCK_RECORD
  5
1
100
AcDbSymbolTable
 70
              22
  0
BLOCK_RECORD
  5
A
100
AcDbSymbolTableRecord
100
AcDbBlockTableRecord
  2
*MODEL_SPACE
340
20
  0
BLOCK_RECORD
  5
B
100
AcDbSymbolTableRecord
100
AcDbBlockTableRecord
  2
*PAPER_SPACE
340
21
  0
BLOCK_RECORD
  5
49
100
AcDbSymbolTableRecord
100
AcDbBlockTableRecord
  2
_DOT
340
0
  0
BLOCK_RECORD
  5
52
100
AcDbSymbolTableRecord
100
AcDbBlockTableRecord
  2
VW_FILLEDARROW
340
0
  0
BLOCK_RECORD
  5
23
100
AcDbSymbolTableRecord
100
AcDbBlockTableRecord
  2
グループ
340
0
102
{BLKREFS
331
15B
102
}
  0
BLOCK_RECORD
  5
24
100
AcDbSymbolTableRecord
100
AcDbBlockTableRecord
  2
*D3
340
0
  0
BLOCK_RECORD
  5
25
100
AcDbSymbolTableRecord
100
AcDbBlockTableRecord
  2
*D4
340
0
  0
BLOCK_RECORD
  5
26
100
AcDbSymbolTableRecord
100
AcDbBlockTableRecord
  2
*D5
340
0
  0
BLOCK_RECORD
  5
27
100
AcDbSymbolTableRecord
100
AcDbBlockTableRecord
  2
*D6
340
0
  0
BLOCK_RECORD
  5
28
100
AcDbSymbolTableRecord
100
AcDbBlockTableRecord
  2
*D7
340
0
  0
BLOCK_RECORD
  5
29
100
AcDbSymbolTableRecord
100
AcDbBlockTableRecord
  2
*D8
340
0
  0
BLOCK_RECORD
  5
2A
100
AcDbSymbolTableRecord
100
AcDbBlockTableRecord
  2
*D9
340
0
  0
BLOCK_RECORD
  5
2B
100
AcDbSymbolTableRecord
100
AcDbBlockTableRecord
  2
*D10
340
0
  0
BLOCK_RECORD
  5
2C
100
AcDbSymbolTableRecord
100
AcDbBlockTableRecord
  2
*D11
340
0
  0
BLOCK_RECORD
  5
2D
100
AcDbSymbolTableRecord
100
AcDbBlockTableRecord
  2
*D12
340
0
  0
BLOCK_RECORD
  5
2E
100
AcDbSymbolTableRecord
100
AcDbBlockTableRecord
  2
*D13
340
0
  0
BLOCK_RECORD
  5
2F
100
AcDbSymbolTableRecord
100
AcDbBlockTableRecord
  2
*D14
340
0
  0
BLOCK_RECORD
  5
30
100
AcDbSymbolTableRecord
100
AcDbBlockTableRecord
  2
*D15
340
0
  0
BLOCK_RECORD
  5
31
100
AcDbSymbolTableRecord
100
AcDbBlockTableRecord
  2
*D16
340
0
  0
BLOCK_RECORD
  5
32
100
AcDbSymbolTableRecord
100
AcDbBlockTableRecord
  2
*D17
340
0
  0
BLOCK_RECORD
  5
33
100
AcDbSymbolTableRecord
100
AcDbBlockTableRecord
  2
*D18
340
0
  0
BLOCK_RECORD
  5
34
100
AcDbSymbolTableRecord
100
AcDbBlockTableRecord
  2
*D19
340
0
  0
BLOCK_RECORD
  5
35
100
AcDbSymbolTableRecord
100
AcDbBlockTableRecord
  2
*D20
340
0
  0
BLOCK_RECORD
  5
36
100
AcDbSymbolTableRecord
100
AcDbBlockTableRecord
  2
*D21
340
0
  0
ENDTAB
  0
ENDSEC
  0
SECTION
  2
BLOCKS
  0
BLOCK
  5
D
100
AcDbEntity
  8
0
390
0
100
AcDbBlockBegin
  2
*MODEL_SPACE
 70
               0
 10
0.0
 20
0.0
 30
0.0
  3
*MODEL_SPACE
  1

  0
ENDBLK
  5
E
100
AcDbEntity
  8
0
390
0
100
AcDbBlockEnd
  0
BLOCK
  5
F
100
AcDbEntity
 67
               1
  8
0
390
0
100
AcDbBlockBegin
  2
*PAPER_SPACE
 70
               0
 10
0.0
 20
0.0
 30
0.0
  3
*PAPER_SPACE
  1

  0
ENDBLK
  5
10
100
AcDbEntity
 67
               1
  8
0
390
0
100
AcDbBlockEnd
  0
BLOCK
  5
4A
100
AcDbEntity
  8
0
390
0
100
AcDbBlockBegin
  2
_DOT
 70
               0
 10
0.0
 20
0.0
 30
0.0
  3
_DOT
  1

  0
POLYLINE
  5
4B
100
AcDbEntity
  8
0
370
              -2
390
0
  6
ByBlock
 62
               0
100
AcDb2dPolyline
 66
               1
 10
0.0
 20
0.0
 30
0.0
 70
               1
 40
0.5
 41
0.5
  0
VERTEX
  5
4C
100
AcDbEntity
  8
0
370
              -2
390
0
  6
ByBlock
 62
               0
100
AcDbVertex
100
AcDb2dVertex
 10
-0.25
 20
0.0
 30
0.0
 42
1.0
  0
VERTEX
  5
4D
100
AcDbEntity
  8
0
370
              -2
390
0
  6
ByBlock
 62
               0
100
AcDbVertex
100
AcDb2dVertex
 10
0.25
 20
0.0
 30
0.0
 42
1.0
  0
SEQEND
  5
4E
100
AcDbEntity
  8
0
390
0
  0
LINE
  5
4F
100
AcDbEntity
  8
0
370
              -2
390
0
  6
ByBlock
 62
               0
100
AcDbLine
 10
-0.5
 20
0.0
 30
0.0
 11
-1.0
 21
0.0
 31
0.0
  0
ENDBLK
  5
50
100
AcDbEntity
  8
0
390
0
100
AcDbBlockEnd
  0
BLOCK
  5
53
100
AcDbEntity
  8
0
370
              -2
390
0
  6
ByBlock
 62
               0
100
AcDbBlockBegin
  2
VW_FILLEDARROW
 70
               0
 10
0.0
 20
0.0
 30
0.0
  3
VW_FILLEDARROW
  1

  0
SOLID
  5
54
100
AcDbEntity
  8
0
370
              -2
390
0
 62
               0
100
AcDbTrace
 10
0.0
 20
0.0
 30
0.0
 11
-0.9921874999999999
 21
-0.2658558393652545
 31
0.0
 12
-0.9921874999999999
 22
0.2658558393652548
 32
0.0
 13
-0.9921874999999999
 23
0.2658558393652548
 33
0.0
  0
ENDBLK
  5
55
100
AcDbEntity
  8
0
390
0
100
AcDbBlockEnd
  0
BLOCK
  5
57
100
AcDbEntity
  8
template
390
0
100
AcDbBlockBegin
  2
グループ
 70
               0
 10
0.0
 20
0.0
 30
0.0
  3
グループ
  1

  0
LWPOLYLINE
  5
58
100
AcDbEntity
  8
0
370
              15
390
0
  6
Continuous
 62
               7
100
AcDbPolyline
 90
        8
 70
             129
 10
-656.09143324542129
 20
-2564.4897210236891
 10
-656.09143324542129
 20
-2570.487109717265
 10
-665.59263016342447
 20
-2570.487109717265
 10
-665.59263016342447
 20
-2594.9380729807735
 10
-673.94800742520738
 20
-2594.9380729807735
 10
-673.94800742520738
 20
-2570.487109717265
 10
-683.2809643715168
 20
-2570.487109717265
 10
-683.2809643715168
 20
-2564.4897210236891
  0
LWPOLYLINE
  5
59
100
AcDbEntity
  8
0
370
              15
390
0
  6
Continuous
 62
               7
100
AcDbPolyline
 90
      101
 70
             128
 10
-643.36314141486446
 20
-2565.2179695166255
 10
-643.34779138608076
 20
-2565.2136087599411
 42
-0.0222221607818212
 10
-643.0577868094083
 20
-2565.1449842946959
 10
-643.04199304541726
 20
-2565.1419808715996
 42
-0.0146883565588107
 10
-642.77929034019053
 20
-2565.0999776846493
 42
-0.0127458844173199
 10
-642.51465137302239
 20
-2565.0724407165758
 10
-642.45219629472467
 20
-2565.0675472939888
 42
-0.0198099018566974
 10
-642.06134718525345
 20
-2565.0524621365921
 10
-642.00953571580408
 20
-2565.0525159122571
 42
-0.0147617382755385
 10
-641.51491225482948
 20
-2565.067635937502
 10
-641.44222079995598
 20
-2565.0720085443895
 42
-0.0162624549005408
 10
-641.05206717049032
 20
-2565.1082414196621
 10
-640.93053477922069
 20
-2565.1235279786601
 42
-0.0080020874652198
 10
-640.78495574813962
 20
-2565.1442108259271
 10
-640.74663627753466
 20
-2565.1502821037393
 42
-0.005382192965097
 10
-640.6781521722296
 20
-2565.1618896275595
 10
-641.40455787142832
 20
-2567.3428180832734
 42
0.0108667757436277
 10
-641.47187494157527
 20
-2567.3296309680509
 10
-641.50934296474873
 20
-2567.3231332254591
 42
0.0170663203312315
 10
-641.65255975166508
 20
-2567.3033036281672
 10
-641.72043508434717
 20
-2567.2962564575801
 42
0.0220162375270705
 10
-642.00081449219726
 20
-2567.2795740968104
 10
-642.07867005925186
 20
-2567.2783747295439
 42
0.0282606915784211
 10
-642.41430638283248
 20
-2567.2921780065126
 10
-642.45821965661605
 20
-2567.2964779965173
 42
0.0169677213693224
 10
-642.7041441515637
 20
-2567.329015046068
 42
0.0190576269866625
 10
-642.94705211413793
 20
-2567.3791619181729
 10
-642.95331130225463
 20
-2567.3807048922836
 42
0.0213685642856848
 10
-643.20369578673808
 20
-2567.4539051773904
 10
-643.20918568164871
 20
-2567.4557681734477
 42
0.0237595297597539
 10
-643.46268056654753
 20
-2567.5554526953433
 10
-643.46778264057707
 20
-2567.5577444708215
 42
0.0261857468813864
 10
-643.71995341680758
 20
-2567.6872808081957
 10
-643.73037960589238
 20
-2567.6933462826632
 42
0.0272553062017873
 10
-643.96680938113229
 20
-2567.8487184886089
 10
-644.00157239464284
 20
-2567.8743796367021
 42
0.0325996893168214
 10
-644.15172773829329
 20
-2568.0011275096722
 10
-644.17543716741363
 20
-2568.023945538182
 42
0.0138050960638355
 10
-644.26732032362656
 20
-2568.1173951997366
 42
0.0125280103801645
 10
-644.35416285646318
 20
-2568.2155585263404
 10
-644.37784330136844
 20
-2568.2437170245239
 42
0.0205218024731991
 10
-644.50294337688149
 20
-2568.4055103387523
 10
-644.52540971736926
 20
-2568.4371700685801
 42
0.0163110129586777
 10
-644.68112009662059
 20
-2568.6725005036501
 10
-644.68384399267154
 20
-2568.6769242656355
 42
0.0131897341897441
 10
-644.83064451357779
 20
-2568.9300563580009
 10
-644.83234460894391
 20
-2568.9331745971358
 42
0.0107895576074445
 10
-644.9701213111523
 20
-2569.1993898067658
 10
-644.97085420067981
 20
-2569.2008840394174
 42
0.009137150722047
 10
-645.09933414932948
 20
-2569.4754092371777
 10
-645.12907978073849
 20
-2569.5421157443361
 42
0.0135418326359616
 10
-645.30079371980935
 20
-2569.9570535296029
 10
-645.33439852824506
 20
-2570.0449196718878
 42
0.0092834542414041
 10
-645.50562758816523
 20
-2570.5188181701915
 10
-645.5312447158816
 20
-2570.5940592399811
 42
0.0054261043582681
 10
-645.6388828641758
 20
-2570.9218232130497
 10
-645.65640885037328
 20
-2570.9772113753429
 42
0.0008225090813978
 10
-645.72507890218321
 20
-2571.1954801334286
 10
-646.70976803411668
 20
-2574.2203714266852
 10
-643.47714419404292
 20
-2574.2203714266852
 10
-643.98133662389637
 20
-2576.1248497250381
 10
-647.23739290587969
 20
-2576.1248497250381
 10
-653.06654193823351
 20
-2594.9380727910429
 10
-654.89163954854394
 20
-2594.9380727910429
 10
-649.05696151304301
 20
-2576.1248497250381
 10
-651.46207788208312
 20
-2576.1248497250381
 10
-650.95788545222968
 20
-2574.2203714266852
 10
-648.52933664127977
 20
-2574.2203714266852
 10
-647.66918172309124
 20
-2571.5839584259866
 42
-0.0005863560652747
 10
-647.63244704491251
 20
-2571.4671320057737
 10
-647.55635921122723
 20
-2571.2261397063094
 42
-0.0087522378924131
 10
-647.35689106777124
 20
-2570.6308636191652
 10
-647.26462679235692
 20
-2570.3707234506496
 42
-0.0077400953826097
 10
-647.00669313322578
 20
-2569.6777187731013
 10
-646.99092816164762
 20
-2569.6372878897173
 42
-0.0082369946332018
 10
-646.74384369103495
 20
-2569.03320882352
 42
-0.00857252383621
 10
-646.47659759503085
 20
-2568.43778278423
 10
-646.37496799402493
 20
-2568.2213616822482
 42
-0.0168109410595251
 10
-646.08802356529475
 20
-2567.6601541561431
 10
-645.96218017487172
 20
-2567.4331901232108
 42
-0.0007817726865305
 10
-645.90789582477908
 20
-2567.3356458781145
 10
-645.90776751877047
 20
-2567.3354161693937
 42
-0.0036626142149981
 10
-645.85287965474049
 20
-2567.2388182894097
 42
-0.0080221150667238
 10
-645.79575539933114
 20
-2567.1435390546526
 10
-645.7650554479726
 20
-2567.0941481055347
 42
-0.020213932556884
 10
-645.63739970816539
 20
-2566.9061665048525
 10
-645.58333224297826
 20
-2566.8330876406126
 42
-0.0249323791802375
 10
-645.32416944926092
 20
-2566.5170423984605
 10
-645.30002963513209
 20
-2566.4904281255458
 42
-0.0242132121536241
 10
-644.96034889358941
 20
-2566.1505446393412
 10
-644.91243732083797
 20
-2566.1070355031543
 42
-0.0251017527859009
 10
-644.62845562019879
 20
-2565.8740427573907
 10
-644.62701014339427
 20
-2565.8729734998187
 42
-0.0130868069053517
 10
-644.32874949342772
 20
-2565.6641930312694
 10
-644.32718767428628
 20
-2565.6631595909953
 42
-0.0290329526387343
 10
-644.0160765328917
 20
-2565.4823340893654
 10
-643.98623097090126
 20
-2565.4672317065233
 42
-0.0160250190040381
 10
-643.72032655714099
 20
-2565.3432155963119
 42
-0.0267600374784093
 10
-643.44505047967471
 20
-2565.2424672757643
 10
-643.41831456015143
 20
-2565.2342747169378
 42
-0.004998158768938
 10
-643.36314141486446
 20
-2565.2179695166255
 42
-0.004998158768938
  0
LWPOLYLINE
  5
5A
100
AcDbEntity
  8
0
370
              15
390
0
  6
Continuous
 62
               7
100
AcDbPolyline
 90
      118
 70
             128
 10
-623.54877385041755
 20
-2574.2943547545128
 10
-621.67365192591797
 20
-2574.2943547545128
 10
-622.51169083151785
 20
-2576.9759212809131
 42
-0.0010587229239867
 10
-622.48023501596572
 20
-2576.9390167475808
 10
-622.42204092531392
 20
-2576.8710344913816
 42
-0.0071874740402569
 10
-622.27166570721613
 20
-2576.7003937993527
 10
-622.12994293395366
 20
-2576.5441576580397
 42
-0.0148118053511378
 10
-621.67981364124182
 20
-2576.0765438120275
 10
-621.59259130634268
 20
-2575.9911464911766
 42
-0.0086273358689226
 10
-621.25704250533067
 20
-2575.6737708571563
 10
-621.21320878910831
 20
-2575.6337212128265
 42
-0.0103138323104553
 10
-620.95518508687132
 20
-2575.4075580754852
 10
-620.90941068052439
 20
-2575.3690760282084
 42
-0.0060206748570798
 10
-620.73656261643214
 20
-2575.2272813774707
 10
-620.73453148556155
 20
-2575.2256556718517
 42
-0.006706902730987
 10
-620.56223867088363
 20
-2575.0915050380445
 10
-620.55968990495649
 20
-2575.0895748681683
 42
-0.0076184352044186
 10
-620.38878463908623
 20
-2574.9641999929254
 42
-0.0089652861672702
 10
-620.2138236763459
 20
-2574.8445667325886
 10
-620.17747195620188
 20
-2574.8206555191064
 42
-0.0156916245937129
 10
-619.9815124590466
 20
-2574.7003930326355
 42
-0.0023299011053759
 10
-619.78125041509873
 20
-2574.5872150931123
 10
-619.76586628268683
 20
-2574.5786150980298
 42
-0.0107669341500211
 10
-619.53162945758834
 20
-2574.4542149646818
 10
-619.50936465651068
 20
-2574.4429982147303
 42
-0.0078058045887443
 10
-619.22577453855877
 20
-2574.3056367590921
 10
-619.2158674508488
 20
-2574.3010276312234
 42
-0.0181829330475411
 10
-618.90555804623091
 20
-2574.1701638901268
 10
-618.85150260366402
 20
-2574.1496487701829
 42
-0.0208411536030709
 10
-618.50241763621625
 20
-2574.0335583076912
 10
-618.48806153608859
 20
-2574.0294398627375
 42
-0.0222799817133076
 10
-618.15934174217159
 20
-2573.950798296597
 10
-618.15045277892909
 20
-2573.9490862860107
 42
-0.0215509523877816
 10
-617.83398181065468
 20
-2573.9021705974778
 10
-617.79149984961339
 20
-2573.897733070688
 42
-0.0182545924884982
 10
-617.55739107030047
 20
-2573.8818892452964
 10
-617.51799005393684
 20
-2573.8806647002166
 42
-0.0072962856536369
 10
-617.36206717426364
 20
-2573.8780953716951
 10
-617.33296750369777
 20
-2573.8780405362913
 42
-0.0059227516335747
 10
-617.2352180045466
 20
-2573.8790142480816
 10
-617.20597578704599
 20
-2573.8796520146857
 42
-0.0011833111848609
 10
-617.16672450334227
 20
-2573.8806010189946
 10
-617.96211109894944
 20
-2576.4193349640937
 42
0.0143932051590332
 10
-617.98851248130291
 20
-2576.4091359940476
 10
-617.99578445371731
 20
-2576.4065647751913
 42
0.0234388603575696
 10
-618.03761531965199
 20
-2576.3939455394752
 10
-618.04629698256213
 20
-2576.3917645774709
 42
0.0199162742980047
 10
-618.10658581663927
 20
-2576.3791478421367
 10
-618.12739975444833
 20
-2576.3756506427076
 42
0.0293643550668732
 10
-618.23047461320834
 20
-2576.3645005970543
 10
-618.25515979392787
 20
-2576.3632889800356
 42
0.021460668687843
 10
-618.40830070988079
 20
-2576.362350419618
 10
-618.41767262069823
 20
-2576.3626953311623
 42
0.0167564054172994
 10
-618.58919281180954
 20
-2576.3747723735305
 10
-618.59765260456561
 20
-2576.3756537139575
 42
0.0137677553245855
 10
-618.78500591782495
 20
-2576.4004030225001
 10
-618.79235765733813
 20
-2576.4015809424691
 42
0.0118497261476641
 10
-618.99285542145162
 20
-2576.4385982926606
 10
-618.9990054286867
 20
-2576.4398851553783
 42
0.0106421143888628
 10
-619.20988631596208
 20
-2576.4887175309505
 10
-619.21479512436076
 20
-2576.4899648736382
 42
0.0099746379704115
 10
-619.43325359352525
 20
-2576.5501394019539
 10
-619.49480163369356
 20
-2576.5684212805836
 42
0.0191613675865502
 10
-619.83078609621452
 20
-2576.6823986608724
 10
-619.91884586895094
 20
-2576.7160855711932
 42
0.0205274080141358
 10
-620.30415264085536
 20
-2576.8819139790212
 10
-620.36180192284075
 20
-2576.9095819435952
 42
0.0181256912200614
 10
-620.62007886350432
 20
-2577.0452657625715
 10
-620.67303424681461
 20
-2577.0755833757839
 42
0.0140709242393614
 10
-620.81798918144671
 20
-2577.1640780492207
 10
-620.84423805006338
 20
-2577.1811348679353
 42
0.0086667884407888
 10
-620.93316421160773
 20
-2577.2411375358188
 42
0.0036408192025286
 10
-621.0205974496389
 20
-2577.3033183936095
 10
-621.05582432410972
 20
-2577.3287593395239
 42
0.0052260781272521
 10
-621.2120530215135
 20
-2577.4440917261677
 10
-621.22825987776037
 20
-2577.4563198367764
 42
0.0050024435896568
 10
-621.4142632208127
 20
-2577.5996024050337
 10
-621.42958137733433
 20
-2577.6116484274844
 42
0.0136138710268931
 10
-621.64002264565977
 20
-2577.7866149323977
 10
-621.6736905214533
 20
-2577.816193905112
 42
0.0172815186918135
 10
-621.9380940631163
 20
-2578.0651905777358
 10
-621.94065640895838
 20
-2578.0677763948825
 42
0.0189403857986271
 10
-622.19123820753464
 20
-2578.3405816596837
 10
-622.22386970107334
 20
-2578.3789255911838
 42
0.0185044199504592
 10
-622.41582614005347
 20
-2578.6221741723066
 42
0.0088565243892721
 10
-622.59428624668033
 20
-2578.8756905924547
 10
-622.6034642263304
 20
-2578.8892319722167
 42
0.0157195347232663
 10
-622.78668483266563
 20
-2579.1787541815347
 10
-622.83276777459309
 20
-2579.25690637855
 42
0.0095451879782637
 10
-622.997853324733
 20
-2579.5495010209097
 10
-623.00900124366251
 20
-2579.5701716930412
 42
0.0100351706246099
 10
-623.14104499282189
 20
-2579.8272272535323
 42
0.008693591542459
 10
-623.26337614461636
 20
-2580.0890603989383
 10
-623.26669688603033
 20
-2580.096502721909
 42
0.0072580174868773
 10
-623.387043337975
 20
-2580.3770947134908
 10
-623.39030497128169
 20
-2580.3850147395096
 42
0.0060005122613778
 10
-623.50950563962499
 20
-2580.6846244101166
 10
-623.51271661796602
 20
-2580.6929859380198
 42
0.0049017786978643
 10
-623.63161677682433
 20
-2581.0119149186262
 10
-623.63478258321391
 20
-2581.0206678558543
 42
0.0039415167599378
 10
-623.7542188612689
 20
-2581.3592099182629
 10
-623.75734996392271
 20
-2581.3683131191437
 42
0.0031035838757675
 10
-623.87815474961678
 20
-2581.7267529809205
 10
-623.88126479414609
 20
-2581.7361736022922
 42
0.0025070747146204
 10
-624.0041661454585
 20
-2582.1148208192267
 10
-624.04146004188692
 20
-2582.231712484489
 42
0.0029081910287269
 10
-624.23347833969888
 20
-2582.8458761427837
 10
-624.27428150821481
 20
-2582.9790993850565
 42
0.0009266453733089
 10
-624.54269888252236
 20
-2583.8613238449561
 10
-624.56358635515744
 20
-2583.9304357241735
 42
-0.0005809993666427
 10
-624.84092303576131
 20
-2584.8442438308548
 10
-624.90720483403686
 20
-2585.0617287630234
 42
-0.0012018708165319
 10
-625.05418914346342
 20
-2585.5398914275356
 10
-625.10650899502855
 20
-2585.7086505683992
 42
-0.0002691059608198
 10
-625.15007847619745
 20
-2585.848918188743
 10
-627.98303437448681
 20
-2594.9380727910429
 10
-629.80102326646534
 20
-2594.9380727910429
 10
-623.54877385041755
 20
-2574.2943547545128
  0
SPLINE
  5
5B
100
AcDbEntity
  8
0
370
              15
390
0
  6
Continuous
 62
               7
100
AcDbSpline
210
0.0
220
0.0
230
1.0
 70
              13
 71
               2
 72
             782
 73
             779
 74
               0
 42
0.000001
 43
0.000001
 40
0.0
 40
0.0
 40
0.0
 40
1.0
 40
1.0
 40
2.0
 40
2.0
 40
3.0
 40
3.0
 40
4.0
 40
4.0
 40
5.0
 40
5.0
 40
6.0
 40
6.0
 40
7.0
 40
7.0
 40
8.0
 40
8.0
 40
9.0
 40
9.0
 40
10.0
 40
10.0
 40
11.0
 40
11.0
 40
12.0
 40
12.0
 40
13.0
 40
13.0
 40
14.0
 40
14.0
 40
15.0
 40
15.0
 40
16.0
 40
16.0
 40
17.0
 40
17.0
 40
18.0
 40
18.0
 40
19.0
 40
19.0
 40
20.0
 40
20.0
 40
21.0
 40
21.0
 40
22.0
 40
22.0
 40
23.0
 40
23.0
 40
24.0
 40
24.0
 40
25.0
 40
25.0
 40
26.0
 40
26.0
 40
27.0
 40
27.0
 40
28.0
 40
28.0
 40
29.0
 40
29.0
 40
30.0
 40
30.0
 40
31.0
 40
31.0
 40
32.0
 40
32.0
 40
33.0
 40
33.0
 40
34.0
 40
34.0
 40
35.0
 40
35.0
 40
36.0
 40
36.0
 40
37.0
 40
37.0
 40
38.0
 40
38.0
 40
39.0
 40
39.0
 40
40.0
 40
40.0
 40
41.0
 40
41.0
 40
42.0
 40
42.0
 40
43.0
 40
43.0
 40
44.0
 40
44.0
 40
45.0
 40
45.0
 40
46.0
 40
46.0
 40
47.0
 40
47.0
 40
48.0
 40
48.0
 40
49.0
 40
49.0
 40
50.0
 40
50.0
 40
51.0
 40
51.0
 40
52.0
 40
52.0
 40
53.0
 40
53.0
 40
54.0
 40
54.0
 40
55.0
 40
55.0
 40
56.0
 40
56.0
 40
57.0
 40
57.0
 40
58.0
 40
58.0
 40
59.0
 40
59.0
 40
60.0
 40
60.0
 40
61.0
 40
61.0
 40
62.0
 40
62.0
 40
63.0
 40
63.0
 40
64.0
 40
64.0
 40
65.0
 40
65.0
 40
66.0
 40
66.0
 40
67.0
 40
67.0
 40
68.0
 40
68.0
 40
69.0
 40
69.0
 40
70.0
 40
70.0
 40
71.0
 40
71.0
 40
72.0
 40
72.0
 40
73.0
 40
73.0
 40
74.0
 40
74.0
 40
75.0
 40
75.0
 40
76.0
 40
76.0
 40
77.0
 40
77.0
 40
78.0
 40
78.0
 40
79.0
 40
79.0
 40
80.0
 40
80.0
 40
81.0
 40
81.0
 40
82.0
 40
82.0
 40
83.0
 40
83.0
 40
84.0
 40
84.0
 40
85.0
 40
85.0
 40
86.0
 40
86.0
 40
87.0
 40
87.0
 40
88.0
 40
88.0
 40
89.0
 40
89.0
 40
90.0
 40
90.0
 40
91.0
 40
91.0
 40
92.0
 40
92.0
 40
93.0
 40
93.0
 40
94.0
 40
94.0
 40
95.0
 40
95.0
 40
96.0
 40
96.0
 40
97.0
 40
97.0
 40
98.0
 40
98.0
 40
99.0
 40
99.0
 40
100.0
 40
100.0
 40
101.0
 40
101.0
 40
102.0
 40
102.0
 40
103.0
 40
103.0
 40
104.0
 40
104.0
 40
105.0
 40
105.0
 40
106.0
 40
106.0
 40
107.0
 40
107.0
 40
108.0
 40
108.0
 40
109.0
 40
109.0
 40
110.0
 40
110.0
 40
111.0
 40
111.0
 40
112.0
 40
112.0
 40
113.0
 40
113.0
 40
114.0
 40
114.0
 40
115.0
 40
115.0
 40
116.0
 40
116.0
 40
117.0
 40
117.0
 40
118.0
 40
118.0
 40
119.0
 40
119.0
 40
120.0
 40
120.0
 40
121.0
 40
121.0
 40
122.0
 40
122.0
 40
123.0
 40
123.0
 40
124.0
 40
124.0
 40
125.0
 40
125.0
 40
126.0
 40
126.0
 40
127.0
 40
127.0
 40
128.0
 40
128.0
 40
129.0
 40
129.0
 40
130.0
 40
130.0
 40
131.0
 40
131.0
 40
132.0
 40
132.0
 40
133.0
 40
133.0
 40
134.0
 40
134.0
 40
135.0
 40
135.0
 40
136.0
 40
136.0
 40
137.0
 40
137.0
 40
138.0
 40
138.0
 40
139.0
 40
139.0
 40
140.0
 40
140.0
 40
141.0
 40
141.0
 40
142.0
 40
142.0
 40
143.0
 40
143.0
 40
144.0
 40
144.0
 40
145.0
 40
145.0
 40
146.0
 40
146.0
 40
147.0
 40
147.0
 40
148.0
 40
148.0
 40
149.0
 40
149.0
 40
150.0
 40
150.0
 40
151.0
 40
151.0
 40
152.0
 40
152.0
 40
153.0
 40
153.0
 40
154.0
 40
154.0
 40
155.0
 40
155.0
 40
156.0
 40
156.0
 40
157.0
 40
157.0
 40
158.0
 40
158.0
 40
159.0
 40
159.0
 40
160.0
 40
160.0
 40
161.0
 40
161.0
 40
162.0
 40
162.0
 40
163.0
 40
163.0
 40
164.0
 40
164.0
 40
165.0
 40
165.0
 40
166.0
 40
166.0
 40
167.0
 40
167.0
 40
168.0
 40
168.0
 40
169.0
 40
169.0
 40
170.0
 40
170.0
 40
171.0
 40
171.0
 40
172.0
 40
172.0
 40
173.0
 40
173.0
 40
174.0
 40
174.0
 40
175.0
 40
175.0
 40
176.0
 40
176.0
 40
177.0
 40
177.0
 40
178.0
 40
178.0
 40
179.0
 40
179.0
 40
180.0
 40
180.0
 40
181.0
 40
181.0
 40
182.0
 40
182.0
 40
183.0
 40
183.0
 40
184.0
 40
184.0
 40
185.0
 40
185.0
 40
186.0
 40
186.0
 40
187.0
 40
187.0
 40
188.0
 40
188.0
 40
189.0
 40
189.0
 40
190.0
 40
190.0
 40
191.0
 40
191.0
 40
192.0
 40
192.0
 40
193.0
 40
193.0
 40
194.0
 40
194.0
 40
195.0
 40
195.0
 40
196.0
 40
196.0
 40
197.0
 40
197.0
 40
198.0
 40
198.0
 40
199.0
 40
199.0
 40
200.0
 40
200.0
 40
201.0
 40
201.0
 40
202.0
 40
202.0
 40
203.0
 40
203.0
 40
204.0
 40
204.0
 40
205.0
 40
205.0
 40
206.0
 40
206.0
 40
207.0
 40
207.0
 40
208.0
 40
208.0
 40
209.0
 40
209.0
 40
210.0
 40
210.0
 40
211.0
 40
211.0
 40
212.0
 40
212.0
 40
213.0
 40
213.0
 40
214.0
 40
214.0
 40
215.0
 40
215.0
 40
216.0
 40
216.0
 40
217.0
 40
217.0
 40
218.0
 40
218.0
 40
219.0
 40
219.0
 40
220.0
 40
220.0
 40
221.0
 40
221.0
 40
222.0
 40
222.0
 40
223.0
 40
223.0
 40
224.0
 40
224.0
 40
225.0
 40
225.0
 40
226.0
 40
226.0
 40
227.0
 40
227.0
 40
228.0
 40
228.0
 40
229.0
 40
229.0
 40
230.0
 40
230.0
 40
231.0
 40
231.0
 40
232.0
 40
232.0
 40
233.0
 40
233.0
 40
234.0
 40
234.0
 40
235.0
 40
235.0
 40
236.0
 40
236.0
 40
237.0
 40
237.0
 40
238.0
 40
238.0
 40
239.0
 40
239.0
 40
240.0
 40
240.0
 40
241.0
 40
241.0
 40
242.0
 40
242.0
 40
243.0
 40
243.0
 40
244.0
 40
244.0
 40
245.0
 40
245.0
 40
246.0
 40
246.0
 40
247.0
 40
247.0
 40
248.0
 40
248.0
 40
249.0
 40
249.0
 40
250.0
 40
250.0
 40
251.0
 40
251.0
 40
252.0
 40
252.0
 40
253.0
 40
253.0
 40
254.0
 40
254.0
 40
255.0
 40
255.0
 40
256.0
 40
256.0
 40
257.0
 40
257.0
 40
258.0
 40
258.0
 40
259.0
 40
259.0
 40
260.0
 40
260.0
 40
261.0
 40
261.0
 40
262.0
 40
262.0
 40
263.0
 40
263.0
 40
264.0
 40
264.0
 40
265.0
 40
265.0
 40
266.0
 40
266.0
 40
267.0
 40
267.0
 40
268.0
 40
268.0
 40
269.0
 40
269.0
 40
270.0
 40
270.0
 40
271.0
 40
271.0
 40
272.0
 40
272.0
 40
273.0
 40
273.0
 40
274.0
 40
274.0
 40
275.0
 40
275.0
 40
276.0
 40
276.0
 40
277.0
 40
277.0
 40
278.0
 40
278.0
 40
279.0
 40
279.0
 40
280.0
 40
280.0
 40
281.0
 40
281.0
 40
282.0
 40
282.0
 40
283.0
 40
283.0
 40
284.0
 40
284.0
 40
285.0
 40
285.0
 40
286.0
 40
286.0
 40
287.0
 40
287.0
 40
288.0
 40
288.0
 40
289.0
 40
289.0
 40
290.0
 40
290.0
 40
291.0
 40
291.0
 40
292.0
 40
292.0
 40
293.0
 40
293.0
 40
294.0
 40
294.0
 40
295.0
 40
295.0
 40
296.0
 40
296.0
 40
297.0
 40
297.0
 40
298.0
 40
298.0
 40
299.0
 40
299.0
 40
300.0
 40
300.0
 40
301.0
 40
301.0
 40
302.0
 40
302.0
 40
303.0
 40
303.0
 40
304.0
 40
304.0
 40
305.0
 40
305.0
 40
306.0
 40
306.0
 40
307.0
 40
307.0
 40
308.0
 40
308.0
 40
309.0
 40
309.0
 40
310.0
 40
310.0
 40
311.0
 40
311.0
 40
312.0
 40
312.0
 40
313.0
 40
313.0
 40
314.0
 40
314.0
 40
315.0
 40
315.0
 40
316.0
 40
316.0
 40
317.0
 40
317.0
 40
318.0
 40
318.0
 40
319.0
 40
319.0
 40
320.0
 40
320.0
 40
321.0
 40
321.0
 40
322.0
 40
322.0
 40
323.0
 40
323.0
 40
324.0
 40
324.0
 40
325.0
 40
325.0
 40
326.0
 40
326.0
 40
327.0
 40
327.0
 40
328.0
 40
328.0
 40
329.0
 40
329.0
 40
330.0
 40
330.0
 40
331.0
 40
331.0
 40
332.0
 40
332.0
 40
333.0
 40
333.0
 40
334.0
 40
334.0
 40
335.0
 40
335.0
 40
336.0
 40
336.0
 40
337.0
 40
337.0
 40
338.0
 40
338.0
 40
339.0
 40
339.0
 40
340.0
 40
340.0
 40
341.0
 40
341.0
 40
342.0
 40
342.0
 40
343.0
 40
343.0
 40
344.0
 40
344.0
 40
345.0
 40
345.0
 40
346.0
 40
346.0
 40
347.0
 40
347.0
 40
348.0
 40
348.0
 40
349.0
 40
349.0
 40
350.0
 40
350.0
 40
351.0
 40
351.0
 40
352.0
 40
352.0
 40
353.0
 40
353.0
 40
354.0
 40
354.0
 40
355.0
 40
355.0
 40
356.0
 40
356.0
 40
357.0
 40
357.0
 40
358.0
 40
358.0
 40
359.0
 40
359.0
 40
360.0
 40
360.0
 40
361.0
 40
361.0
 40
362.0
 40
362.0
 40
363.0
 40
363.0
 40
364.0
 40
364.0
 40
365.0
 40
365.0
 40
366.0
 40
366.0
 40
367.0
 40
367.0
 40
368.0
 40
368.0
 40
369.0
 40
369.0
 40
370.0
 40
370.0
 40
371.0
 40
371.0
 40
372.0
 40
372.0
 40
373.0
 40
373.0
 40
374.0
 40
374.0
 40
375.0
 40
375.0
 40
376.0
 40
376.0
 40
377.0
 40
377.0
 40
378.0
 40
378.0
 40
379.0
 40
379.0
 40
380.0
 40
380.0
 40
381.0
 40
381.0
 40
382.0
 40
382.0
 40
383.0
 40
383.0
 40
384.0
 40
384.0
 40
385.0
 40
385.0
 40
386.0
 40
386.0
 40
387.0
 40
387.0
 40
388.0
 40
388.0
 40
389.0
 40
389.0
 40
389.0
 10
-613.22006939968469
 20
-2574.2834283911507
 30
0.0
 41
1.0
 10
-612.40164529096432
 20
-2574.2834283911507
 30
0.0
 41
1.0
 10
-611.58322118224396
 20
-2574.2834283911507
 30
0.0
 41
1.0
 10
-611.99697491776067
 20
-2575.6260546554004
 30
0.0
 41
1.0
 10
-612.41072865327737
 20
-2576.9686809196501
 30
0.0
 41
1.0
 10
-612.39238915812189
 20
-2576.9399801467571
 30
0.0
 41
0.999995726433225
 10
-612.37388216128477
 20
-2576.9113870965971
 30
0.0
 41
1.0
 10
-612.34345283714447
 20
-2576.8643742182167
 30
0.0
 41
1.0
 10
-612.31302351300405
 20
-2576.8173613398358
 30
0.0
 41
1.0
 10
-612.23365786789748
 20
-2576.6947425329322
 30
0.0
 41
0.9995394069081319
 10
-612.14699947634881
 20
-2576.5771644711949
 30
0.0
 41
1.0
 10
-612.11124261408668
 20
-2576.5286495785981
 30
0.0
 41
1.0
 10
-612.07548575182443
 20
-2576.4801346860013
 30
0.0
 41
1.0
 10
-611.94175908400814
 20
-2576.298694410877
 30
0.0
 41
0.9994460617143232
 10
-611.7962586027204
 20
-2576.1265520132274
 30
0.0
 41
1.0
 10
-611.79187042174522
 20
-2576.1213603328442
 30
0.0
 41
1.0
 10
-611.78748224076992
 20
-2576.1161686524615
 30
0.0
 41
1.0
 10
-611.65075812143186
 20
-2575.9544096155773
 30
0.0
 41
0.9994359394934621
 10
-611.50348389108115
 20
-2575.8021934144131
 30
0.0
 41
1.0
 10
-611.5011005371291
 20
-2575.7997300840416
 30
0.0
 41
1.0
 10
-611.49871718317718
 20
-2575.7972667536696
 30
0.0
 41
1.0
 10
-611.35620966073373
 20
-2575.649977213252
 30
0.0
 41
0.9995293688567094
 10
-611.20493797974746
 20
-2575.5117040010846
 30
0.0
 41
1.0
 10
-611.18564422048541
 20
-2575.4940681154349
 30
0.0
 41
1.0
 10
-611.16635046122337
 20
-2575.4764322297847
 30
0.0
 41
1.0
 10
-611.05366629876357
 20
-2575.373430788919
 30
0.0
 41
0.9997087614802757
 10
-610.93614340981026
 20
-2575.2759865081225
 30
0.0
 41
1.0
 10
-610.91697733663659
 20
-2575.2600949296161
 30
0.0
 41
1.0
 10
-610.89781126346293
 20
-2575.2442033511097
 30
0.0
 41
1.0
 10
-610.81862052086308
 20
-2575.178542227331
 30
0.0
 41
0.9999595338696922
 10
-610.73826125000005
 20
-2575.1143164966697
 30
0.0
 41
1.0
 10
-610.65790197915589
 20
-2575.050090766023
 30
0.0
 41
0.9999749417511017
 10
-610.57664144481384
 20
-2574.9870092120777
 30
0.0
 41
1.0
 10
-610.55565529863338
 20
-2574.9707179247621
 30
0.0
 41
1.0
 10
-610.53466915245292
 20
-2574.9544266374464
 30
0.0
 41
1.0
 10
-610.45010126716636
 20
-2574.8887776276174
 30
0.0
 41
0.999979203711309
 10
-610.36469366739902
 20
-2574.8242248459756
 30
0.0
 41
1.0
 10
-610.34386884150786
 20
-2574.8084850237333
 30
0.0
 41
1.0
 10
-610.32304401561669
 20
-2574.792745201491
 30
0.0
 41
1.0
 10
-610.27928606770104
 20
-2574.759672064386
 30
0.0
 41
0.9999993373890903
 10
-610.23560438148638
 20
-2574.726498268908
 30
0.0
 41
1.0
 10
-610.19192269535256
 20
-2574.6933244734905
 30
0.0
 41
0.9999160953816081
 10
-610.14739628443385
 20
-2574.6612934082932
 30
0.0
 41
1.0
 10
-610.11457439700916
 20
-2574.6376822527045
 30
0.0
 41
1.0
 10
-610.08175250958459
 20
-2574.6140710971158
 30
0.0
 41
1.0
 10
-609.97158232382617
 20
-2574.5348177207479
 30
0.0
 41
0.9980964527231976
 10
-609.85249333032527
 20
-2574.4697302478917
 30
0.0
 41
1.0
 10
-609.81546072339552
 20
-2574.4494902682977
 30
0.0
 41
1.0
 10
-609.77842811646565
 20
-2574.4292502887038
 30
0.0
 41
1.0
 10
-609.59910110319481
 20
-2574.3312400380041
 30
0.0
 41
0.9984572810573265
 10
-609.41001253683737
 20
-2574.253717776658
 30
0.0
 41
1.0
 10
-609.40636626744117
 20
-2574.25222288432
 30
0.0
 41
1.0
 10
-609.40271999804497
 20
-2574.2507279919819
 30
0.0
 41
1.0
 10
-609.22092397047788
 20
-2574.1761955153115
 30
0.0
 41
0.9987838528034071
 10
-609.03267131191922
 20
-2574.1199298751458
 30
0.0
 41
1.0
 10
-609.02843336272178
 20
-2574.1186632214558
 30
0.0
 41
1.0
 10
-609.02419541352435
 20
-2574.1173965677663
 30
0.0
 41
1.0
 10
-608.84441865336066
 20
-2574.06366423498
 30
0.0
 41
0.999065281620699
 10
-608.66067272164412
 20
-2574.0256605554382
 30
0.0
 41
1.0
 10
-608.65548432061371
 20
-2574.0245874523316
 30
0.0
 41
1.0
 10
-608.6502959195833
 20
-2574.0235143492255
 30
0.0
 41
1.0
 10
-608.47692678992962
 20
-2573.9876568758964
 30
0.0
 41
0.9992909934270864
 10
-608.30135102346992
 20
-2573.9649464434297
 30
0.0
 41
1.0
 10
-608.12577525701431
 20
-2573.9422360109629
 30
0.0
 41
0.999455353944775
 10
-607.94908382392327
 20
-2573.9311567067571
 30
0.0
 41
1.0
 10
-607.91364941612164
 20
-2573.928934818709
 30
0.0
 41
1.0
 10
-607.87821500832001
 20
-2573.9267129306609
 30
0.0
 41
1.0
 10
-607.71198924175428
 20
-2573.9162898682498
 30
0.0
 41
0.9990928098293875
 10
-607.54547944985507
 20
-2573.9200495094842
 30
0.0
 41
1.0
 10
-607.50691761459257
 20
-2573.920920201017
 30
0.0
 41
1.0
 10
-607.46835577933007
 20
-2573.9217908925498
 30
0.0
 41
1.0
 10
-607.37896965796176
 20
-2573.9238091507182
 30
0.0
 41
0.9998382089203685
 10
-607.28971397516625
 20
-2573.9290412772466
 30
0.0
 41
1.0
 10
-607.28928406894374
 20
-2573.9290664781493
 30
0.0
 41
1.0
 10
-607.28885416272124
 20
-2573.9290916790515
 30
0.0
 41
1.0
 10
-607.20045829237745
 20
-2573.934273403775
 30
0.0
 41
0.9997558016758857
 10
-607.11237771517926
 20
-2573.9433559191411
 30
0.0
 41
1.0
 10
-607.11190157674991
 20
-2573.9434050166237
 30
0.0
 41
1.0
 10
-607.11142543832057
 20
-2573.9434541141063
 30
0.0
 41
1.0
 10
-607.02429713797869
 20
-2573.9524384345077
 30
0.0
 41
0.9996565144181498
 10
-606.93775928463629
 20
-2573.9659757411969
 30
0.0
 41
1.0
 10
-606.93729335925707
 20
-2573.9660486269286
 30
0.0
 41
1.0
 10
-606.93682743387785
 20
-2573.9661215126603
 30
0.0
 41
1.0
 10
-606.85122143129308
 20
-2573.979513047886
 30
0.0
 41
0.9995321806867231
 10
-606.76659435096633
 20
-2573.998113536315
 30
0.0
 41
1.0
 10
-606.76620515639434
 20
-2573.998199078781
 30
0.0
 41
1.0
 10
-606.76581596182223
 20
-2573.998284621247
 30
0.0
 41
1.0
 10
-606.68196727063741
 20
-2574.0167140247445
 30
0.0
 41
0.9993819199218901
 10
-606.59962073644215
 20
-2574.0409894080049
 30
0.0
 41
1.0
 10
-606.5993823029421
 20
-2574.0410596971151
 30
0.0
 41
1.0
 10
-606.59914386944217
 20
-2574.0411299862249
 30
0.0
 41
1.0
 10
-606.51727420224313
 20
-2574.0652647912666
 30
0.0
 41
0.9992088568505952
 10
-606.43758168325769
 20
-2574.0958300270599
 30
0.0
 41
1.0
 10
-606.35790069237862
 20
-2574.1263896277933
 30
0.0
 41
0.9990226101773526
 10
-606.2812300224715
 20
-2574.1638670594075
 30
0.0
 41
1.0
 10
-606.20457088067315
 20
-2574.2013388559617
 30
0.0
 41
0.9988424273972959
 10
-606.13186725345884
 20
-2574.2460036312159
 30
0.0
 41
1.0
 10
-606.13159954508069
 20
-2574.2461680952874
 30
0.0
 41
1.0
 10
-606.13133183670243
 20
-2574.246332559359
 30
0.0
 41
1.0
 10
-606.05809279273149
 20
-2574.2913262627562
 30
0.0
 41
0.9986928844491761
 10
-605.98982992602248
 20
-2574.3435619970351
 30
0.0
 41
1.0
 10
-605.98924863379932
 20
-2574.3440068102632
 30
0.0
 41
1.0
 10
-605.98866734157616
 20
-2574.3444516234913
 30
0.0
 41
1.0
 10
-605.91924189042163
 20
-2574.3975769842264
 30
0.0
 41
0.9986007262278591
 10
-605.85581572065314
 20
-2574.4577377539213
 30
0.0
 41
1.0
 10
-605.85492130519651
 20
-2574.4585861217556
 30
0.0
 41
1.0
 10
-605.85402688973977
 20
-2574.4594344895904
 30
0.0
 41
1.0
 10
-605.78881188906007
 20
-2574.5212919949527
 30
0.0
 41
0.998558149138149
 10
-605.73060427735834
 20
-2574.5897844852243
 30
0.0
 41
1.0
 10
-605.72134582376179
 20
-2574.6006788429268
 30
0.0
 41
1.0
 10
-605.71208737016536
 20
-2574.6115732006292
 30
0.0
 41
1.0
 10
-605.63536285127259
 20
-2574.7018544063035
 30
0.0
 41
0.9970460233519369
 10
-605.57337095011314
 20
-2574.8028214904853
 30
0.0
 41
1.0
 10
-605.55890158503291
 20
-2574.8263879495676
 30
0.0
 41
1.0
 10
-605.54443221995268
 20
-2574.8499544086499
 30
0.0
 41
1.0
 10
-605.50469551994172
 20
-2574.9146741326799
 30
0.0
 41
0.9988468816637397
 10
-605.47134914918979
 20
-2574.9829065851077
 30
0.0
 41
1.0
 10
-605.4643131266979
 20
-2574.9973035062458
 30
0.0
 41
1.0
 10
-605.45727710420601
 20
-2575.0117004273843
 30
0.0
 41
1.0
 10
-605.43800277843923
 20
-2575.0511390375336
 30
0.0
 41
0.9998431189997273
 10
-605.42013745094334
 20
-2575.0912355919763
 30
0.0
 41
1.0
 10
-605.40227212344746
 20
-2575.1313321464195
 30
0.0
 41
0.9999989989950401
 10
-605.38429339998925
 20
-2575.1713779840834
 30
0.0
 41
1.0
 10
-605.37812108841354
 20
-2575.1851262008549
 30
0.0
 41
1.0
 10
-605.37194877683783
 20
-2575.198874417626
 30
0.0
 41
1.0
 10
-605.34162543023092
 20
-2575.2664166888262
 30
0.0
 41
0.999879035632293
 10
-605.3134175500918
 20
-2575.3348694407669
 30
0.0
 41
1.0
 10
-605.30658236880663
 20
-2575.3514565421965
 30
0.0
 41
1.0
 10
-605.29974718752158
 20
-2575.3680436436257
 30
0.0
 41
1.0
 10
-605.2761895251416
 20
-2575.4252115985091
 30
0.0
 41
0.9998227574559528
 10
-605.25480077675115
 20
-2575.4832259067903
 30
0.0
 41
1.0
 10
-605.23341202836218
 20
-2575.541240215066
 30
0.0
 41
0.9996797971040563
 10
-605.21498574340228
 20
-2575.6002623341869
 30
0.0
 41
1.0
 10
-605.21108194067688
 20
-2575.6127667923556
 30
0.0
 41
1.0
 10
-605.20717813795147
 20
-2575.6252712505238
 30
0.0
 41
1.0
 10
-605.18094424754111
 20
-2575.7093022859808
 30
0.0
 41
0.9979274938735935
 10
-605.16571972406234
 20
-2575.7960066446385
 30
0.0
 41
1.0
 10
-605.16349603680078
 20
-2575.8086706454624
 30
0.0
 41
1.0
 10
-605.1612723495391
 20
-2575.8213346462862
 30
0.0
 41
1.0
 10
-605.1503424098405
 20
-2575.8835811535782
 30
0.0
 41
0.9994985982137211
 10
-605.14337424466453
 20
-2575.9463946547148
 30
0.0
 41
1.0
 10
-605.13640607948787
 20
-2576.0092081558578
 30
0.0
 41
0.9996372611203435
 10
-605.13283021371967
 20
-2576.0723057345417
 30
0.0
 41
1.0
 10
-605.13266163623041
 20
-2576.0752803516225
 30
0.0
 41
1.0
 10
-605.13249305874115
 20
-2576.0782549687033
 30
0.0
 41
1.0
 10
-605.12858003799477
 20
-2576.147301781547
 30
0.0
 41
0.9997730630737159
 10
-605.12761172450666
 20
-2576.216452605584
 30
0.0
 41
1.0
 10
-605.12755461808854
 20
-2576.2205307847253
 30
0.0
 41
1.0
 10
-605.12749751167041
 20
-2576.224608963867
 30
0.0
 41
1.0
 10
-605.12641498534651
 20
-2576.3019161461889
 30
0.0
 41
0.9998772614074132
 10
-605.12775507207789
 20
-2576.3792192927499
 30
0.0
 41
1.0
 10
-605.12784433527668
 20
-2576.3843684565845
 30
0.0
 41
1.0
 10
-605.12793359847535
 20
-2576.3895176204192
 30
0.0
 41
1.0
 10
-605.12945221160487
 20
-2576.4771190946594
 30
0.0
 41
0.9999415567324358
 10
-605.13286452185014
 20
-2576.5646672563184
 30
0.0
 41
1.0
 10
-605.13310584252565
 20
-2576.5708587160607
 30
0.0
 41
1.0
 10
-605.13334716320117
 20
-2576.5770501758034
 30
0.0
 41
1.0
 10
-605.13724211479894
 20
-2576.6769812569714
 30
0.0
 41
0.9999716810419674
 10
-605.14264069791659
 20
-2576.776842395187
 30
0.0
 41
1.0
 10
-605.14585349670517
 20
-2576.8362716448401
 30
0.0
 41
1.0
 10
-605.14906629549375
 20
-2576.8957008944926
 30
0.0
 41
1.0
 10
-605.15714020464691
 20
-2577.0450492957852
 30
0.0
 41
0.9999819129917582
 10
-605.16700999626323
 20
-2577.1942897734884
 30
0.0
 41
1.0
 10
-605.1768797878799
 20
-2577.3435302511998
 30
0.0
 41
1.0
 10
-605.17931910844368
 20
-2577.3807232970494
 30
0.0
 41
1.0
 10
-605.15662087459827
 20
-2577.3419822996957
 30
0.0
 41
0.9999982128175592
 10
-605.13377631584615
 20
-2577.3033274057429
 30
0.0
 41
1.0
 10
-605.10686675596685
 20
-2577.257794191697
 30
0.0
 41
1.0
 10
-605.07995719608743
 20
-2577.2122609776511
 30
0.0
 41
1.0
 10
-605.00329351755977
 20
-2577.0825396555783
 30
0.0
 41
0.9998609190057187
 10
-604.92234620469765
 20
-2576.955447273649
 30
0.0
 41
1.0
 10
-604.89269788321826
 20
-2576.9088975406953
 30
0.0
 41
1.0
 10
-604.86304956173888
 20
-2576.8623478077416
 30
0.0
 41
1.0
 10
-604.78077734149826
 20
-2576.7331752377413
 30
0.0
 41
0.9999067609731956
 10
-604.69500833203529
 20
-2576.6062975483019
 30
0.0
 41
1.0
 10
-604.69260362883449
 20
-2576.6027402822474
 30
0.0
 41
1.0
 10
-604.69019892563369
 20
-2576.5991830161925
 30
0.0
 41
1.0
 10
-604.60923932256844
 20
-2576.4794198588565
 30
0.0
 41
0.9998784952150756
 10
-604.5245857128898
 20
-2576.3622386421516
 30
0.0
 41
1.0
 10
-604.43993210320752
 20
-2576.2450574254412
 30
0.0
 41
0.9998532968282291
 10
-604.35131448238701
 20
-2576.1308445169739
 30
0.0
 41
1.0
 10
-604.33135269339459
 20
-2576.1051171959521
 30
0.0
 41
1.0
 10
-604.31139090440217
 20
-2576.0793898749303
 30
0.0
 41
1.0
 10
-604.19290685464409
 20
-2575.9266842639627
 30
0.0
 41
0.9991551975795185
 10
-604.06228240502139
 20
-2575.7842247018798
 30
0.0
 41
1.0
 10
-604.05877278904052
 20
-2575.780397100254
 30
0.0
 41
1.0
 10
-604.05526317305964
 20
-2575.7765694986288
 30
0.0
 41
1.0
 10
-603.93165795539574
 20
-2575.6417651397942
 30
0.0
 41
0.9997418144181135
 10
-603.80205581569726
 20
-2575.512715729184
 30
0.0
 41
1.0
 10
-603.67245367599651
 20
-2575.3836663185716
 30
0.0
 41
0.9989238204633069
 10
-603.53145112774712
 20
-2575.2671813565339
 30
0.0
 41
1.0
 10
-603.48620344960455
 20
-2575.2298013649224
 30
0.0
 41
1.0
 10
-603.44095577146197
 20
-2575.1924213733114
 30
0.0
 41
1.0
 10
-603.30071571424344
 20
-2575.0765663200232
 30
0.0
 41
0.9990825084096947
 10
-603.15107578164111
 20
-2574.9731373221912
 30
0.0
 41
1.0
 10
-603.14103041758131
 20
-2574.9661941091099
 30
0.0
 41
1.0
 10
-603.1309850535215
 20
-2574.9592508960282
 30
0.0
 41
1.0
 10
-603.00143584903537
 20
-2574.8697083243569
 30
0.0
 41
0.9998164899827
 10
-602.86855164566089
 20
-2574.7851940828423
 30
0.0
 41
1.0
 10
-602.85670608513976
 20
-2574.7776603163197
 30
0.0
 41
1.0
 10
-602.84486052461864
 20
-2574.7701265497972
 30
0.0
 41
1.0
 10
-602.73566744229151
 20
-2574.7006798413295
 30
0.0
 41
0.9997473449131022
 10
-602.62346348503513
 20
-2574.6362108835101
 30
0.0
 41
1.0
 10
-602.51125952779171
 20
-2574.5717419256976
 30
0.0
 41
0.9999327861141546
 10
-602.39759091702877
 20
-2574.5098919340167
 30
0.0
 41
1.0
 10
-602.39703891446482
 20
-2574.5095915753354
 30
0.0
 41
1.0
 10
-602.39648691190087
 20
-2574.5092912166547
 30
0.0
 41
1.0
 10
-602.28171429601184
 20
-2574.4468405076132
 30
0.0
 41
0.9996956420483797
 10
-602.1640009701639
 20
-2574.3901270406345
 30
0.0
 41
1.0
 10
-602.13356056527095
 20
-2574.3754610639044
 30
0.0
 41
1.0
 10
-602.10312016037801
 20
-2574.3607950871742
 30
0.0
 41
1.0
 10
-602.00014305364004
 20
-2574.311181428734
 30
0.0
 41
0.9998070570177332
 10
-601.89529666470548
 20
-2574.2656508418358
 30
0.0
 41
1.0
 10
-601.7904502757666
 20
-2574.2201202549354
 30
0.0
 41
0.9997827436148443
 10
-601.68379733916106
 20
-2574.1789990836251
 30
0.0
 41
1.0
 10
-601.66457448952656
 20
-2574.1715875099917
 30
0.0
 41
1.0
 10
-601.64535163989194
 20
-2574.1641759363579
 30
0.0
 41
1.0
 10
-601.50025300401933
 20
-2574.1082316177808
 30
0.0
 41
0.998803184197636
 10
-601.35038264141542
 20
-2574.0667315536134
 30
0.0
 41
1.0
 10
-601.32546539305235
 20
-2574.0598318078064
 30
0.0
 41
1.0
 10
-601.3005481446894
 20
-2574.0529320619999
 30
0.0
 41
1.0
 10
-601.13327811904173
 20
-2574.0066139195928
 30
0.0
 41
0.9984748040549768
 10
-600.96192121039201
 20
-2573.9790196873282
 30
0.0
 41
1.0
 10
-600.95718207414052
 20
-2573.9782565268142
 30
0.0
 41
1.0
 10
-600.95244293788892
 20
-2573.9774933663007
 30
0.0
 41
1.0
 10
-600.79056430174046
 20
-2573.9514254550631
 30
0.0
 41
0.9984436495480136
 10
-600.62678955801823
 20
-2573.9435475012442
 30
0.0
 41
1.0
 10
-600.60509234988353
 20
-2573.9425038140444
 30
0.0
 41
1.0
 10
-600.58339514174895
 20
-2573.9414601268445
 30
0.0
 41
1.0
 10
-600.46301481429032
 20
-2573.9356695474257
 30
0.0
 41
0.9987954789336674
 10
-600.34264656938376
 20
-2573.941706075168
 30
0.0
 41
1.0
 10
-600.32268177689832
 20
-2573.9427073195061
 30
0.0
 41
1.0
 10
-600.30271698441288
 20
-2573.9437085638442
 30
0.0
 41
1.0
 10
-600.22227832448289
 20
-2573.9477426029093
 30
0.0
 41
0.9997941595877304
 10
-600.14206954637962
 20
-2573.9550366688313
 30
0.0
 41
1.0
 10
-600.0618607682851
 20
-2573.9623307347524
 30
0.0
 41
0.9998589466238134
 10
-599.98194222142865
 20
-2573.9723145892026
 30
0.0
 41
1.0
 10
-599.94953601962118
 20
-2573.9763629461218
 30
0.0
 41
1.0
 10
-599.9171298178137
 20
-2573.9804113030409
 30
0.0
 41
1.0
 10
-599.77239886734083
 20
-2573.9984918713299
 30
0.0
 41
0.9993495063249051
 10
-599.62934762357395
 20
-2574.0269575810721
 30
0.0
 41
1.0
 10
-599.59641392642629
 20
-2574.0335110442857
 30
0.0
 41
1.0
 10
-599.56348022927864
 20
-2574.0400645074997
 30
0.0
 41
1.0
 10
-599.45418640606999
 20
-2574.0618128416359
 30
0.0
 41
0.9996788715561458
 10
-599.34613483411158
 20
-2574.0890706409991
 30
0.0
 41
1.0
 10
-599.34407183157589
 20
-2574.0895910675713
 30
0.0
 41
1.0
 10
-599.3420088290402
 20
-2574.0901114941435
 30
0.0
 41
1.0
 10
-599.23808326215908
 20
-2574.1163284403606
 30
0.0
 41
0.9995480654492031
 10
-599.13592102692564
 20
-2574.1487433969864
 30
0.0
 41
1.0
 10
-599.13423138479493
 20
-2574.1492795019012
 30
0.0
 41
1.0
 10
-599.13254174266422
 20
-2574.1498156068155
 30
0.0
 41
1.0
 10
-599.03375879169562
 20
-2574.1811583536114
 30
0.0
 41
0.9993867959456878
 10
-598.93741163325353
 20
-2574.2193377229005
 30
0.0
 41
1.0
 10
-598.93616868416768
 20
-2574.2198302647971
 30
0.0
 41
1.0
 10
-598.93492573508183
 20
-2574.2203228066937
 30
0.0
 41
1.0
 10
-598.8410644748094
 20
-2574.2575170921914
 30
0.0
 41
0.9992050256523707
 10
-598.75046479977777
 20
-2574.302070991429
 30
0.0
 41
1.0
 10
-598.74973011706788
 20
-2574.3024322838883
 30
0.0
 41
1.0
 10
-598.74899543435788
 20
-2574.302793576348
 30
0.0
 41
1.0
 10
-598.65986512474831
 20
-2574.3466248906657
 30
0.0
 41
0.9990222350741895
 10
-598.57495506335079
 20
-2574.3981581583662
 30
0.0
 41
1.0
 10
-598.57477117806616
 20
-2574.3982697612719
 30
0.0
 41
1.0
 10
-598.57458729278153
 20
-2574.398381364178
 30
0.0
 41
1.0
 10
-598.4900450019552
 20
-2574.4496914260658
 30
0.0
 41
0.9988642743805163
 10
-598.41077046733801
 20
-2574.5088156135898
 30
0.0
 41
1.0
 10
-598.3314959327206
 20
-2574.5679398011134
 30
0.0
 41
0.9987681233310205
 10
-598.25847214844475
 20
-2574.6346304925141
 30
0.0
 41
1.0
 10
-598.25814322047802
 20
-2574.6349308937292
 30
0.0
 41
1.0
 10
-598.25781429251128
 20
-2574.6352312949443
 30
0.0
 41
1.0
 10
-598.1841326523022
 20
-2574.7025227887748
 30
0.0
 41
0.9987496570898706
 10
-598.11753884697373
 20
-2574.7768356028632
 30
0.0
 41
1.0
 10
-598.11676667721463
 20
-2574.7776972762194
 30
0.0
 41
1.0
 10
-598.11599450745553
 20
-2574.7785589495761
 30
0.0
 41
1.0
 10
-598.04785636260738
 20
-2574.8545951103783
 30
0.0
 41
0.9988147669825843
 10
-597.98743410838404
 20
-2574.936896117219
 30
0.0
 41
1.0
 10
-597.9863147823055
 20
-2574.9384207485728
 30
0.0
 41
1.0
 10
-597.98519545622707
 20
-2574.939945379926
 30
0.0
 41
1.0
 10
-597.92253454984677
 20
-2575.0252956494728
 30
0.0
 41
0.9989452636215377
 10
-597.86796763688415
 20
-2575.1160343386327
 30
0.0
 41
1.0
 10
-597.86661891079893
 20
-2575.1182771196582
 30
0.0
 41
1.0
 10
-597.86527018471384
 20
-2575.1205199006836
 30
0.0
 41
1.0
 10
-597.80800581958044
 20
-2575.2157441518948
 30
0.0
 41
0.9991046436069617
 10
-597.75899660625851
 20
-2575.3154685849213
 30
0.0
 41
1.0
 10
-597.75753274466899
 20
-2575.3184472649928
 30
0.0
 41
1.0
 10
-597.75606888307948
 20
-2575.3214259450642
 30
0.0
 41
1.0
 10
-597.70413194657783
 20
-2575.4271077382346
 30
0.0
 41
0.9992763831101
 10
-597.66037881802356
 20
-2575.5364318001884
 30
0.0
 41
1.0
 10
-597.65889954835984
 20
-2575.5401279877233
 30
0.0
 41
1.0
 10
-597.65742027869612
 20
-2575.5438241752577
 30
0.0
 41
1.0
 10
-597.61070861081475
 20
-2575.6605406122794
 30
0.0
 41
0.9994163472883237
 10
-597.57207557962442
 20
-2575.780174200745
 30
0.0
 41
1.0
 10
-597.57083742737746
 20
-2575.784008344528
 30
0.0
 41
1.0
 10
-597.5695992751306
 20
-2575.7878424883115
 30
0.0
 41
1.0
 10
-597.52971571411297
 20
-2575.9113485497919
 30
0.0
 41
0.9997268055890306
 10
-597.49564765820173
 20
-2576.0365835817393
 30
0.0
 41
1.0
 10
-597.49471747793109
 20
-2576.0400029478519
 30
0.0
 41
1.0
 10
-597.49378729766045
 20
-2576.0434223139646
 30
0.0
 41
1.0
 10
-597.46157960228959
 20
-2576.1618186136911
 30
0.0
 41
0.9996701319001098
 10
-597.4354939855192
 20
-2576.2817125669535
 30
0.0
 41
1.0
 10
-597.40940836874904
 20
-2576.4016065202145
 30
0.0
 41
0.999578545110914
 10
-597.39032479140906
 20
-2576.5228122812478
 30
0.0
 41
1.0
 10
-597.38610500923528
 20
-2576.5496134360137
 30
0.0
 41
1.0
 10
-597.38188522706139
 20
-2576.5764145907792
 30
0.0
 41
1.0
 10
-597.35531025112311
 20
-2576.7452005644823
 30
0.0
 41
0.9979925101217387
 10
-597.35028466519668
 20
-2576.9159918925734
 30
0.0
 41
1.0
 10
-597.34945985277204
 20
-2576.9440226160577
 30
0.0
 41
1.0
 10
-597.34863504034729
 20
-2576.9720533395421
 30
0.0
 41
1.0
 10
-597.34525907927036
 20
-2577.0867832206695
 30
0.0
 41
0.999531490226331
 10
-597.34890927140884
 20
-2577.2015047044169
 30
0.0
 41
1.0
 10
-597.35255946354732
 20
-2577.3162261881694
 30
0.0
 41
0.9996245486943951
 10
-597.36248855867802
 20
-2577.4305754592901
 30
0.0
 41
1.0
 10
-597.36265160667244
 20
-2577.4324532154269
 30
0.0
 41
1.0
 10
-597.36281465466675
 20
-2577.4343309715632
 30
0.0
 41
1.0
 10
-597.37306984578527
 20
-2577.5524357549525
 30
0.0
 41
0.9997286095000294
 10
-597.38881516935714
 20
-2577.6699346638502
 30
0.0
 41
1.0
 10
-597.3892086620076
 20
-2577.6728710885536
 30
0.0
 41
1.0
 10
-597.38960215465818
 20
-2577.6758075132566
 30
0.0
 41
1.0
 10
-597.40613446352972
 20
-2577.7991792715529
 30
0.0
 41
0.9998265533969584
 10
-597.42724992226329
 20
-2577.9218497463457
 30
0.0
 41
1.0
 10
-597.42792646440023
 20
-2577.9257801248523
 30
0.0
 41
1.0
 10
-597.42860300653717
 20
-2577.9297105033584
 30
0.0
 41
1.0
 10
-597.45107154954417
 20
-2578.0602417351615
 30
0.0
 41
0.9999022530852549
 10
-597.47718101415364
 20
-2578.1900937037976
 30
0.0
 41
1.0
 10
-597.47815965531925
 20
-2578.1949608461864
 30
0.0
 41
1.0
 10
-597.47913829648485
 20
-2578.1998279885747
 30
0.0
 41
1.0
 10
-597.50720504342826
 20
-2578.3394142419993
 30
0.0
 41
0.9999524761933097
 10
-597.53798801226014
 20
-2578.4784267351515
 30
0.0
 41
1.0
 10
-597.53926411943576
 20
-2578.4841894944543
 30
0.0
 41
1.0
 10
-597.54054022661126
 20
-2578.4899522537571
 30
0.0
 41
1.0
 10
-597.5738754097988
 20
-2578.640490265534
 30
0.0
 41
0.9999813588712819
 10
-597.60904641059244
 20
-2578.7906099781812
 30
0.0
 41
1.0
 10
-597.61060033604917
 20
-2578.7972425686039
 30
0.0
 41
1.0
 10
-597.61215426150579
 20
-2578.803875159027
 30
0.0
 41
1.0
 10
-597.6504331132146
 20
-2578.9672600525282
 30
0.0
 41
0.9999955237635487
 10
-597.68968899119568
 20
-2579.1304129561358
 30
0.0
 41
1.0
 10
-597.70197062682985
 20
-2579.181457146658
 30
0.0
 41
1.0
 10
-597.71425226246402
 20
-2579.2325013371801
 30
0.0
 41
1.0
 10
-597.77807141171002
 20
-2579.4977426218193
 30
0.0
 41
0.9999993604258274
 10
-597.84249035889115
 20
-2579.7628388725575
 30
0.0
 41
1.0
 10
-597.84720919443316
 20
-2579.7822577805773
 30
0.0
 41
1.0
 10
-597.85192802997528
 20
-2579.8016766885976
 30
0.0
 41
1.0
 10
-597.92578464823441
 20
-2580.1056107553518
 30
0.0
 41
0.999965991472804
 10
-598.00464424412189
 20
-2580.408285301919
 30
0.0
 41
1.0
 10
-598.00959693305208
 20
-2580.4272944391
 30
0.0
 41
1.0
 10
-598.01454962198238
 20
-2580.446303576281
 30
0.0
 41
1.0
 10
-598.10331459572819
 20
-2580.7869963972021
 30
0.0
 41
0.9999441976026184
 10
-598.19925762869286
 20
-2581.125737822505
 30
0.0
 41
1.0
 10
-598.21595814711759
 20
-2581.1847015350295
 30
0.0
 41
1.0
 10
-598.23265866554232
 20
-2581.2436652475544
 30
0.0
 41
1.0
 10
-598.36200273535519
 20
-2581.7003340979027
 30
0.0
 41
0.9999625120730643
 10
-598.49923550268045
 20
-2582.1546946319049
 30
0.0
 41
1.0
 10
-598.53502544576315
 20
-2582.2731906585313
 30
0.0
 41
1.0
 10
-598.57081538884586
 20
-2582.3916866851573
 30
0.0
 41
1.0
 10
-598.64533559288384
 20
-2582.6384137632504
 30
0.0
 41
0.9999793386319656
 10
-598.72302161602477
 20
-2582.8841624024972
 30
0.0
 41
1.0
 10
-598.80070763916228
 20
-2583.1299110417331
 30
0.0
 41
1.0
 10
-598.81148719803309
 20
-2583.1639289461077
 30
0.0
 41
1.0
 10
-600.6618602513023
 20
-2589.0510008685751
 30
0.0
 41
1.0
 10
-602.51223330457151
 20
-2594.9380727910429
 30
0.0
 41
1.0
 10
-603.47348999459496
 20
-2594.9380727910429
 30
0.0
 41
1.0
 10
-604.4347466846184
 20
-2594.9380727910429
 30
0.0
 41
1.0
 10
-602.81580190594002
 20
-2589.7900442892533
 30
0.0
 41
1.0
 10
-601.19685712726164
 20
-2584.6420157874636
 30
0.0
 41
1.0
 10
-601.1516913040864
 20
-2584.4979845651906
 30
0.0
 41
1.0
 10
-601.10652548091105
 20
-2584.3539533429175
 30
0.0
 41
1.0
 10
-600.93622106354508
 20
-2583.8108623137441
 30
0.0
 41
0.9999911657885687
 10
-600.77048825187012
 20
-2583.2663587823981
 30
0.0
 41
1.0
 10
-600.74079230837219
 20
-2583.168794842356
 30
0.0
 41
1.0
 10
-600.71109636487438
 20
-2583.0712309023143
 30
0.0
 41
1.0
 10
-600.6047554401971
 20
-2582.7218552510576
 30
0.0
 41
0.9999952428120135
 10
-600.50057185086484
 20
-2582.3718302266843
 30
0.0
 41
1.0
 10
-600.49551238053368
 20
-2582.3548319524134
 30
0.0
 41
1.0
 10
-600.49045291020252
 20
-2582.3378336781429
 30
0.0
 41
1.0
 10
-600.39638826154783
 20
-2582.0218052023629
 30
0.0
 41
0.9999931687508219
 10
-600.30466242366629
 20
-2581.7050899890646
 30
0.0
 41
1.0
 10
-600.29972715920735
 20
-2581.6880492797955
 30
0.0
 41
1.0
 10
-600.2947918947483
 20
-2581.6710085705263
 30
0.0
 41
1.0
 10
-600.21293658578952
 20
-2581.3883747757836
 30
0.0
 41
0.9999893840786581
 10
-600.1336893593359
 20
-2581.1049986465478
 30
0.0
 41
1.0
 10
-600.05444213287899
 20
-2580.8216225173005
 30
0.0
 41
0.9999833980068421
 10
-599.97846589213827
 20
-2580.5373519342766
 30
0.0
 41
1.0
 10
-599.96946195541545
 20
-2580.5036630557961
 30
0.0
 41
1.0
 10
-599.96045801869263
 20
-2580.4699741773156
 30
0.0
 41
1.0
 10
-599.89149346982708
 20
-2580.2119383450226
 30
0.0
 41
0.9999233658063964
 10
-599.82893849860545
 20
-2579.9522741862947
 30
0.0
 41
1.0
 10
-599.76638352738519
 20
-2579.6926100275723
 30
0.0
 41
1.0
 10
-599.72690010852762
 20
-2579.5288033631459
 30
0.0
 41
1.0
 10
-599.72192150455157
 20
-2579.5081484012808
 30
0.0
 41
1.0
 10
-599.71694290057565
 20
-2579.4874934394161
 30
0.0
 41
1.0
 10
-599.68741668966561
 20
-2579.3649966987014
 30
0.0
 41
0.9999868670860886
 10
-599.65914760567387
 20
-2579.2422037530741
 30
0.0
 41
1.0
 10
-599.65525011851594
 20
-2579.2252741656562
 30
0.0
 41
1.0
 10
-599.65135263135801
 20
-2579.2083445782382
 30
0.0
 41
1.0
 10
-599.63087852168178
 20
-2579.1194108074474
 30
0.0
 41
0.9999778173355685
 10
-599.61159092356218
 20
-2579.0302121901982
 30
0.0
 41
1.0
 10
-599.59230332544598
 20
-2578.9410135729654
 30
0.0
 41
0.9999602692861446
 10
-599.57460896681403
 20
-2578.8514852845315
 30
0.0
 41
1.0
 10
-599.57140513473746
 20
-2578.8352748296511
 30
0.0
 41
1.0
 10
-599.56820130266078
 20
-2578.8190643747703
 30
0.0
 41
1.0
 10
-599.54409927987558
 20
-2578.6971151765761
 30
0.0
 41
0.9995617985320737
 10
-599.52725593265609
 20
-2578.5739534288668
 30
0.0
 41
1.0
 10
-599.52479144274957
 20
-2578.5559326114999
 30
0.0
 41
1.0
 10
-599.52232695284317
 20
-2578.5379117941325
 30
0.0
 41
1.0
 10
-599.50204369179517
 20
-2578.3895967444341
 30
0.0
 41
0.9991121410639369
 10
-599.49431833820699
 20
-2578.240100645628
 30
0.0
 41
1.0
 10
-599.49339954818242
 20
-2578.2223208090518
 30
0.0
 41
1.0
 10
-599.49248075815785
 20
-2578.204540972476
 30
0.0
 41
1.0
 10
-599.48659298461882
 20
-2578.0906045468246
 30
0.0
 41
0.9989792494906096
 10
-599.49101207673607
 20
-2577.9766017109232
 30
0.0
 41
1.0
 10
-599.49166004860467
 20
-2577.9598854649958
 30
0.0
 41
1.0
 10
-599.49230802047339
 20
-2577.9431692190678
 30
0.0
 41
1.0
 10
-599.4954311688532
 20
-2577.8625988750273
 30
0.0
 41
0.9997820295393544
 10
-599.50191516622908
 20
-2577.7822291532812
 30
0.0
 41
1.0
 10
-599.50839916360451
 20
-2577.7018594315396
 30
0.0
 41
0.9998335105973824
 10
-599.51781135911654
 20
-2577.621779815086
 30
0.0
 41
1.0
 10
-599.51940628379293
 20
-2577.6082100846033
 30
0.0
 41
1.0
 10
-599.52100120846922
 20
-2577.5946403541207
 30
0.0
 41
1.0
 10
-599.53360325333324
 20
-2577.4874212767104
 30
0.0
 41
0.9996876457880104
 10
-599.55154716613151
 20
-2577.3809658489909
 30
0.0
 41
1.0
 10
-599.55377882927655
 20
-2577.3677261137509
 30
0.0
 41
1.0
 10
-599.55601049242148
 20
-2577.3544863785114
 30
0.0
 41
1.0
 10
-599.56980631384317
 20
-2577.2726402345479
 30
0.0
 41
0.9995547496494345
 10
-599.58845963573617
 20
-2577.1917627373555
 30
0.0
 41
1.0
 10
-599.58883359260778
 20
-2577.1901413266487
 30
0.0
 41
1.0
 10
-599.5892075494794
 20
-2577.1885199159419
 30
0.0
 41
1.0
 10
-599.60711295762837
 20
-2577.1108852401662
 30
0.0
 41
0.9994899427175736
 10
-599.62993786630818
 20
-2577.0345519573298
 30
0.0
 41
1.0
 10
-599.63039639304998
 20
-2577.0330185075381
 30
0.0
 41
1.0
 10
-599.63085491979166
 20
-2577.0314850577461
 30
0.0
 41
1.0
 10
-599.65276277498879
 20
-2576.9582186744915
 30
0.0
 41
0.9993784877590389
 10
-599.67977841009406
 20
-2576.8866779693362
 30
0.0
 41
1.0
 10
-599.68031010107097
 20
-2576.8852699866156
 30
0.0
 41
1.0
 10
-599.68084179204777
 20
-2576.8838620038955
 30
0.0
 41
1.0
 10
-599.70679404520024
 20
-2576.8151372641782
 30
0.0
 41
0.9992430832254712
 10
-599.73801058035997
 20
-2576.7486381121089
 30
0.0
 41
1.0
 10
-599.73859269641662
 20
-2576.7473980569916
 30
0.0
 41
1.0
 10
-599.73917481247315
 20
-2576.7461580018744
 30
0.0
 41
1.0
 10
-599.76922711551879
 20
-2576.6821389600418
 30
0.0
 41
0.999078963279774
 10
-599.80465774229606
 20
-2576.6209323482913
 30
0.0
 41
1.0
 10
-599.80525344847797
 20
-2576.6199032624327
 30
0.0
 41
1.0
 10
-599.80584915465977
 20
-2576.6188741765736
 30
0.0
 41
1.0
 10
-599.84008836907265
 20
-2576.5597257365421
 30
0.0
 41
0.9988874801119825
 10
-599.87974764510489
 20
-2576.5040660241239
 30
0.0
 41
1.0
 10
-599.88030317116954
 20
-2576.5032863724482
 30
0.0
 41
1.0
 10
-599.88085869723432
 20
-2576.502506720773
 30
0.0
 41
1.0
 10
-599.91940692113701
 20
-2576.4484063117061
 30
0.0
 41
0.9986762060694505
 10
-599.96330939241295
 20
-2576.3985525972666
 30
0.0
 41
1.0
 10
-599.96375335274456
 20
-2576.3980484554504
 30
0.0
 41
1.0
 10
-599.96419731307628
 20
-2576.3975443136346
 30
0.0
 41
1.0
 10
-600.00721186368901
 20
-2576.3486988828281
 30
0.0
 41
0.9984621642489705
 10
-600.05536942046695
 20
-2576.3049155823564
 30
0.0
 41
1.0
 10
-600.05561605498315
 20
-2576.304691350193
 30
0.0
 41
1.0
 10
-600.05586268949946
 20
-2576.3044671180301
 30
0.0
 41
1.0
 10
-600.10352697724466
 20
-2576.2611322818852
 30
0.0
 41
0.9982724693849708
 10
-600.15594560908619
 20
-2576.2236879313677
 30
0.0
 41
1.0
 10
-600.20836424092727
 20
-2576.1862435808498
 30
0.0
 41
0.9981399180156371
 10
-600.26495030431965
 20
-2576.1554570614071
 30
0.0
 41
1.0
 10
-600.26499596639883
 20
-2576.1554322182496
 30
0.0
 41
1.0
 10
-600.26504162847789
 20
-2576.1554073750922
 30
0.0
 41
1.0
 10
-600.32171901602726
 20
-2576.124571169335
 30
0.0
 41
0.9980927086837027
 10
-600.38176436709341
 20
-2576.1009543604828
 30
0.0
 41
1.0
 10
-600.3822045368056
 20
-2576.1007812346074
 30
0.0
 41
1.0
 10
-600.38264470651791
 20
-2576.1006081087321
 30
0.0
 41
1.0
 10
-600.44357039700901
 20
-2576.0766450481292
 30
0.0
 41
0.9981411356560601
 10
-600.50695891840928
 20
-2576.0602724066234
 30
0.0
 41
1.0
 10
-600.50784103510955
 20
-2576.0600445644181
 30
0.0
 41
1.0
 10
-600.50872315180993
 20
-2576.0598167222129
 30
0.0
 41
1.0
 10
-600.57387590661313
 20
-2576.0429883962961
 30
0.0
 41
0.998303181293459
 10
-600.64054333560819
 20
-2576.0338490351196
 30
0.0
 41
1.0
 10
-600.64941436101162
 20
-2576.0326329164482
 30
0.0
 41
1.0
 10
-600.65828538641517
 20
-2576.0314167977772
 30
0.0
 41
1.0
 10
-600.71263502891918
 20
-2576.0239660677862
 30
0.0
 41
0.9983887708262836
 10
-600.76747887821182
 20
-2576.022721394153
 30
0.0
 41
1.0
 10
-600.77554228343104
 20
-2576.0225383962779
 30
0.0
 41
1.0
 10
-600.78360568865025
 20
-2576.0223553984033
 30
0.0
 41
1.0
 10
-600.8223227275065
 20
-2576.0214767205198
 30
0.0
 41
0.9998869563077637
 10
-600.86104868070731
 20
-2576.0217625898795
 30
0.0
 41
1.0
 10
-600.89977463387231
 20
-2576.0220484592387
 30
0.0
 41
0.9999972320124186
 10
-600.93849881304516
 20
-2576.0225165587672
 30
0.0
 41
1.0
 10
-600.95785182966301
 20
-2576.022750498857
 30
0.0
 41
1.0
 10
-600.97720484628076
 20
-2576.0229844389469
 30
0.0
 41
1.0
 10
-601.05463505865248
 20
-2576.0239204186546
 30
0.0
 41
0.9997304945087069
 10
-601.13193836489108
 20
-2576.0284495124406
 30
0.0
 41
1.0
 10
-601.1409880065944
 20
-2576.0289797184305
 30
0.0
 41
1.0
 10
-601.1500376482976
 20
-2576.0295099244204
 30
0.0
 41
1.0
 10
-601.2454402379426
 20
-2576.0350994301866
 30
0.0
 41
0.9997888306415609
 10
-601.34053257378275
 20
-2576.0446043946754
 30
0.0
 41
1.0
 10
-601.34925363535729
 20
-2576.0454761093079
 30
0.0
 41
1.0
 10
-601.35797469693182
 20
-2576.0463478239399
 30
0.0
 41
1.0
 10
-601.47050915592047
 20
-2576.0575962176936
 30
0.0
 41
0.9984170238191762
 10
-601.58106830327233
 20
-2576.0814122996294
 30
0.0
 41
1.0
 10
-601.6174494342572
 20
-2576.0892493354349
 30
0.0
 41
1.0
 10
-601.65383056524217
 20
-2576.0970863712409
 30
0.0
 41
1.0
 10
-601.76902163366492
 20
-2576.1219002377511
 30
0.0
 41
0.9976592854200349
 10
-601.87974980007061
 20
-2576.162198914898
 30
0.0
 41
1.0
 10
-601.99047796647471
 20
-2576.2024975920449
 30
0.0
 41
0.9993255074352788
 10
-602.09794976526621
 20
-2576.2508144905373
 30
0.0
 41
1.0
 10
-602.10257494418966
 20
-2576.2528938667374
 30
0.0
 41
1.0
 10
-602.10720012311299
 20
-2576.254973242937
 30
0.0
 41
1.0
 10
-602.22392227975206
 20
-2576.30744889383
 30
0.0
 41
0.9976475078275178
 10
-602.3323696240642
 20
-2576.3753968834894
 30
0.0
 41
1.0
 10
-602.35071201819915
 20
-2576.3868893623039
 30
0.0
 41
1.0
 10
-602.36905441233421
 20
-2576.3983818411189
 30
0.0
 41
1.0
 10
-602.45325660388437
 20
-2576.451138961886
 30
0.0
 41
0.9995131336407381
 10
-602.53400431883995
 20
-2576.5090451738379
 30
0.0
 41
1.0
 10
-602.61475203379257
 20
-2576.5669513857879
 30
0.0
 41
0.9995810107606581
 10
-602.69201368152096
 20
-2576.6294330682531
 30
0.0
 41
1.0
 10
-602.69498371273357
 20
-2576.6318349397197
 30
0.0
 41
1.0
 10
-602.6979537439463
 20
-2576.6342368111864
 30
0.0
 41
1.0
 10
-602.78115545410003
 20
-2576.7015222365853
 30
0.0
 41
0.9996617837954331
 10
-602.86074614123618
 20
-2576.7730426921462
 30
0.0
 41
1.0
 10
-602.87287689210768
 20
-2576.7839434251318
 30
0.0
 41
1.0
 10
-602.88500764297919
 20
-2576.7948441581179
 30
0.0
 41
1.0
 10
-602.95328317038184
 20
-2576.8561967735964
 30
0.0
 41
0.9997267750052935
 10
-603.01861667866569
 20
-2576.9206733101209
 30
0.0
 41
1.0
 10
-603.08395018694466
 20
-2576.9851498466414
 30
0.0
 41
0.9999667288960222
 10
-603.14822313009415
 20
-2577.0506836535387
 30
0.0
 41
1.0
 10
-603.21705057787017
 20
-2577.1208613122981
 30
0.0
 41
1.0
 10
-603.2858780256463
 20
-2577.1910389710574
 30
0.0
 41
1.0
 10
-603.48780586434293
 20
-2577.3969280954675
 30
0.0
 41
0.9988205335174576
 10
-603.66881148132165
 20
-2577.6214323275276
 30
0.0
 41
1.0
 10
-603.69945144622682
 20
-2577.659435577958
 30
0.0
 41
1.0
 10
-603.73009141113198
 20
-2577.6974388283884
 30
0.0
 41
1.0
 10
-603.97237695792467
 20
-2577.9979495613134
 30
0.0
 41
0.9997077826755333
 10
-604.19985490902832
 20
-2578.3098193555284
 30
0.0
 41
1.0
 10
-604.20157832415771
 20
-2578.3121821389063
 30
0.0
 41
1.0
 10
-604.2033017392871
 20
-2578.3145449222843
 30
0.0
 41
1.0
 10
-604.43422652065215
 20
-2578.6311402832584
 30
0.0
 41
0.9989147567079351
 10
-604.63469002353759
 20
-2578.9678497444461
 30
0.0
 41
1.0
 10
-604.65943116884307
 20
-2579.0094063249962
 30
0.0
 41
1.0
 10
-604.68417231414855
 20
-2579.0509629055459
 30
0.0
 41
1.0
 10
-604.83938361278729
 20
-2579.3116642900013
 30
0.0
 41
0.9997476598181251
 10
-604.98272860029761
 20
-2579.5790740385851
 30
0.0
 41
1.0
 10
-605.12607358780645
 20
-2579.8464837871661
 30
0.0
 41
0.9996258967109647
 10
-605.25458183973944
 20
-2580.1213317237925
 30
0.0
 41
1.0
 10
-605.26778174918945
 20
-2580.1495631238886
 30
0.0
 41
1.0
 10
-605.28098165863946
 20
-2580.1777945239851
 30
0.0
 41
1.0
 10
-605.42119037963971
 20
-2580.4776669219391
 30
0.0
 41
0.999873541394634
 10
-605.55179172635872
 20
-2580.7818465214036
 30
0.0
 41
1.0
 10
-605.55523455441903
 20
-2580.7898651068681
 30
0.0
 41
1.0
 10
-605.55867738247935
 20
-2580.7978836923321
 30
0.0
 41
1.0
 10
-605.6823930730784
 20
-2581.08602612087
 30
0.0
 41
0.9999377418860566
 10
-605.79964787525387
 20
-2581.3768575885465
 30
0.0
 41
1.0
 10
-605.91690267742933
 20
-2581.667689056223
 30
0.0
 41
0.9999508299504716
 10
-606.02836662080563
 20
-2581.9607887330417
 30
0.0
 41
1.0
 10
-606.03144738946844
 20
-2581.9688897590067
 30
0.0
 41
1.0
 10
-606.03452815813137
 20
-2581.9769907849713
 30
0.0
 41
1.0
 10
-606.15215363883385
 20
-2582.2862925137215
 30
0.0
 41
0.9999609228434215
 10
-606.26429224170909
 20
-2582.5976255297405
 30
0.0
 41
1.0
 10
-606.26724825205793
 20
-2582.6058323701482
 30
0.0
 41
1.0
 10
-606.27020426240688
 20
-2582.6140392105553
 30
0.0
 41
1.0
 10
-606.38825488597672
 20
-2582.9417859073801
 30
0.0
 41
0.9999674607405094
 10
-606.50100241204689
 20
-2583.2713945273804
 30
0.0
 41
1.0
 10
-606.55240080260955
 20
-2583.4216537230732
 30
0.0
 41
1.0
 10
-606.60379919317234
 20
-2583.571912918766
 30
0.0
 41
1.0
 10
-606.71980979993396
 20
-2583.9110609012791
 30
0.0
 41
0.999928753230679
 10
-606.82769120390185
 20
-2584.2528816402473
 30
0.0
 41
1.0
 10
-606.87416846005146
 20
-2584.4001441846513
 30
0.0
 41
1.0
 10
-606.92064571620108
 20
-2584.5474067290556
 30
0.0
 41
1.0
 10
-606.9355726078868
 20
-2584.5947023792687
 30
0.0
 41
0.9999998223205425
 10
-606.95044311660308
 20
-2584.6420157874636
 30
0.0
 41
1.0
 10
-608.57109925339853
 20
-2589.7900442892533
 30
0.0
 41
1.0
 10
-610.19175539019398
 20
-2594.9380727910429
 30
0.0
 41
1.0
 10
-611.09706383408491
 20
-2594.9380727910429
 30
0.0
 41
1.0
 10
-612.00237227797584
 20
-2594.9380727910429
 30
0.0
 41
1.0
 10
-610.15028786658979
 20
-2589.0510008685751
 30
0.0
 41
1.0
 10
-608.29820345520375
 20
-2583.1639289461077
 30
0.0
 41
1.0
 10
-608.28808169690092
 20
-2583.1318857326578
 30
0.0
 41
1.0
 10
-608.21547402805118
 20
-2582.9015861908319
 30
0.0
 41
1.0
 10
-608.14286635920439
 20
-2582.6712866490157
 30
0.0
 41
0.9999825681977952
 10
-608.07298331999039
 20
-2582.4401457539425
 30
0.0
 41
1.0
 10
-608.02469225782954
 20
-2582.2804211704465
 30
0.0
 41
1.0
 10
-607.9764011956687
 20
-2582.1206965869505
 30
0.0
 41
1.0
 10
-607.87924884235088
 20
-2581.7993613651724
 30
0.0
 41
0.9999672528966573
 10
-607.7873100367292
 20
-2581.476495819591
 30
0.0
 41
1.0
 10
-607.78452115305879
 20
-2581.4667019741987
 30
0.0
 41
1.0
 10
-607.78173226938839
 20
-2581.4569081288064
 30
0.0
 41
1.0
 10
-607.69537123109831
 20
-2581.1536302739773
 30
0.0
 41
0.9999899749169786
 10
-607.61172962157116
 20
-2580.8495911855525
 30
0.0
 41
1.0
 10
-607.60162370255273
 20
-2580.812855947871
 30
0.0
 41
1.0
 10
-607.5915177835343
 20
-2580.7761207101894
 30
0.0
 41
1.0
 10
-607.52808801203616
 20
-2580.5455520970991
 30
0.0
 41
0.9999214200505432
 10
-607.47045858365868
 20
-2580.3134657548908
 30
0.0
 41
1.0
 10
-607.45769273147766
 20
-2580.2620548694927
 30
0.0
 41
1.0
 10
-607.44492687929664
 20
-2580.2106439840945
 30
0.0
 41
1.0
 10
-607.41282915528359
 20
-2580.0813794126907
 30
0.0
 41
0.9999828681673313
 10
-607.38224690328559
 20
-2579.9517479382139
 30
0.0
 41
1.0
 10
-607.35166465129328
 20
-2579.8221164637594
 30
0.0
 41
0.9999389844480687
 10
-607.3239536625025
 20
-2579.6918410078538
 30
0.0
 41
1.0
 10
-607.31681591878146
 20
-2579.6582849040124
 30
0.0
 41
1.0
 10
-607.30967817506053
 20
-2579.6247288001714
 30
0.0
 41
1.0
 10
-607.26769169883198
 20
-2579.427341136603
 30
0.0
 41
0.9998933699441142
 10
-607.23148743442812
 20
-2579.2288115288352
 30
0.0
 41
1.0
 10
-607.23011460921202
 20
-2579.22128350814
 30
0.0
 41
1.0
 10
-607.22874178399593
 20
-2579.2137554874453
 30
0.0
 41
1.0
 10
-607.18979186916079
 20
-2579.0001698382925
 30
0.0
 41
0.9996850305193645
 10
-607.16160819290246
 20
-2578.7848988328583
 30
0.0
 41
1.0
 10
-607.15961315953314
 20
-2578.7696604787361
 30
0.0
 41
1.0
 10
-607.15761812616381
 20
-2578.7544221246139
 30
0.0
 41
1.0
 10
-607.13021026370484
 20
-2578.5450768974601
 30
0.0
 41
0.9994697936706805
 10
-607.11648570448506
 20
-2578.3343917021275
 30
0.0
 41
1.0
 10
-607.11600863523552
 20
-2578.3270682299185
 30
0.0
 41
1.0
 10
-607.11553156598598
 20
-2578.3197447577095
 30
0.0
 41
1.0
 10
-607.10276114526539
 20
-2578.123706506799
 30
0.0
 41
0.9991804893136722
 10
-607.10588946153825
 20
-2577.9272776568232
 30
0.0
 41
1.0
 10
-607.10597334036038
 20
-2577.92201085541
 30
0.0
 41
1.0
 10
-607.1060572191825
 20
-2577.9167440539968
 30
0.0
 41
1.0
 10
-607.10901777781123
 20
-2577.7308488068493
 30
0.0
 41
0.9988448329322037
 10
-607.12980932343476
 20
-2577.5460962170164
 30
0.0
 41
1.0
 10
-607.13140339713777
 20
-2577.5319313612454
 30
0.0
 41
1.0
 10
-607.13299747084091
 20
-2577.5177665054739
 30
0.0
 41
1.0
 10
-607.15060086905851
 20
-2577.3613436271821
 30
0.0
 41
0.9985503209457918
 10
-607.18491714135803
 20
-2577.207719443094
 30
0.0
 41
1.0
 10
-607.19250313342923
 20
-2577.1737591156934
 30
0.0
 41
1.0
 10
-607.20008912550043
 20
-2577.1397987882933
 30
0.0
 41
1.0
 10
-607.21923341365812
 20
-2577.0540952590027
 30
0.0
 41
0.9991036781370952
 10
-607.24555827530878
 20
-2576.9703181716795
 30
0.0
 41
1.0
 10
-607.2495405007636
 20
-2576.9576450091727
 30
0.0
 41
1.0
 10
-607.25352272621842
 20
-2576.9449718466662
 30
0.0
 41
1.0
 10
-607.27188313695865
 20
-2576.8865410843587
 30
0.0
 41
0.9998874504367736
 10
-607.29198834463853
 20
-2576.8286874821315
 30
0.0
 41
1.0
 10
-607.31209355231704
 20
-2576.770833879908
 30
0.0
 41
0.9994041637544764
 10
-607.33614216525029
 20
-2576.7145051760203
 30
0.0
 41
1.0
 10
-607.34033894947561
 20
-2576.7046751115354
 30
0.0
 41
1.0
 10
-607.34453573370081
 20
-2576.6948450470504
 30
0.0
 41
1.0
 10
-607.37241456469417
 20
-2576.6295448810861
 30
0.0
 41
0.9991846840701312
 10
-607.40547092138695
 20
-2576.5667068498069
 30
0.0
 41
1.0
 10
-607.40660752778092
 20
-2576.5645462333541
 30
0.0
 41
1.0
 10
-607.40774413417489
 20
-2576.5623856169013
 30
0.0
 41
1.0
 10
-607.43852727808007
 20
-2576.5038688185264
 30
0.0
 41
0.9989253167922708
 10
-607.47459670213493
 20
-2576.4484538901365
 30
0.0
 41
1.0
 10
-607.47565082680956
 20
-2576.4468343953736
 30
0.0
 41
1.0
 10
-607.47670495148418
 20
-2576.4452149006106
 30
0.0
 41
1.0
 10
-607.51066612618888
 20
-2576.3930389617472
 30
0.0
 41
0.9986467172835051
 10
-607.54986327882716
 20
-2576.3446729281168
 30
0.0
 41
1.0
 10
-607.55073740752891
 20
-2576.3435943258373
 30
0.0
 41
1.0
 10
-607.55161153623067
 20
-2576.3425157235579
 30
0.0
 41
1.0
 10
-607.58906043146476
 20
-2576.2963068944869
 30
0.0
 41
0.998400110426674
 10
-607.63148716198179
 20
-2576.2546217871186
 30
0.0
 41
1.0
 10
-607.63207430009084
 20
-2576.2540449122375
 30
0.0
 41
1.0
 10
-607.63266143819999
 20
-2576.2534680373565
 30
0.0
 41
1.0
 10
-607.67391389249781
 20
-2576.2129366797503
 30
0.0
 41
0.9982442159083307
 10
-607.7196699938346
 20
-2576.177568118489
 30
0.0
 41
1.0
 10
-607.71988478929438
 20
-2576.1774020858475
 30
0.0
 41
1.0
 10
-607.72009958475428
 20
-2576.1772360532054
 30
0.0
 41
1.0
 10
-607.7654260951673
 20
-2576.1421995572309
 30
0.0
 41
0.998245006083781
 10
-607.81457707424192
 20
-2576.1127677741956
 30
0.0
 41
1.0
 10
-607.86372805331496
 20
-2576.0833359911612
 30
0.0
 41
0.9983922639636363
 10
-607.91589435948038
 20
-2576.0596563565068
 30
0.0
 41
1.0
 10
-607.91612123680397
 20
-2576.0595533710257
 30
0.0
 41
1.0
 10
-607.91634811412746
 20
-2576.059450385545
 30
0.0
 41
1.0
 10
-607.96896817494121
 20
-2576.0355647799279
 30
0.0
 41
0.9986517147148292
 10
-608.02378114780936
 20
-2576.0172636608063
 30
0.0
 41
1.0
 10
-608.02445906923708
 20
-2576.0170373143746
 30
0.0
 41
1.0
 10
-608.02513699066492
 20
-2576.0168109679435
 30
0.0
 41
1.0
 10
-608.08130580639124
 20
-2575.9980571559581
 30
0.0
 41
0.9989435598956497
 10
-608.13895919354468
 20
-2575.9845394537233
 30
0.0
 41
1.0
 10
-608.14003931312402
 20
-2575.9842862034711
 30
0.0
 41
1.0
 10
-608.14111943270336
 20
-2575.9840329532185
 30
0.0
 41
1.0
 10
-608.20093305901639
 20
-2575.9700087504784
 30
0.0
 41
0.9992249241240417
 10
-608.26166456791293
 20
-2575.9607334077632
 30
0.0
 41
1.0
 10
-608.26307825620529
 20
-2575.9605174993549
 30
0.0
 41
1.0
 10
-608.26449194449754
 20
-2575.960301590947
 30
0.0
 41
1.0
 10
-608.32805082997254
 20
-2575.9505944314164
 30
0.0
 41
0.9994396597833783
 10
-608.39211676650439
 20
-2575.9451615090711
 30
0.0
 41
1.0
 10
-608.41125743398698
 20
-2575.943538341352
 30
0.0
 41
1.0
 10
-608.43039810146956
 20
-2575.9419151736329
 30
0.0
 41
1.0
 10
-608.53274537296443
 20
-2575.9332359158498
 30
0.0
 41
0.998769340312068
 10
-608.63544899655369
 20
-2575.9347389793024
 30
0.0
 41
1.0
 10
-608.64570333077745
 20
-2575.9348890510764
 30
0.0
 41
1.0
 10
-608.65595766500132
 20
-2575.9350391228509
 30
0.0
 41
1.0
 10
-608.76551343118126
 20
-2575.9366424671384
 30
0.0
 41
0.9989753644966792
 10
-608.87447543119902
 20
-2575.9481454740635
 30
0.0
 41
1.0
 10
-608.98343743121586
 20
-2575.959648480989
 30
0.0
 41
0.9983190067306786
 10
-609.0903362421808
 20
-2575.9836834727757
 30
0.0
 41
1.0
 10
-609.0992371937873
 20
-2575.9856847513383
 30
0.0
 41
1.0
 10
-609.10813814539392
 20
-2575.9876860299009
 30
0.0
 41
1.0
 10
-609.2328388595713
 20
-2576.0157235788129
 30
0.0
 41
0.9985539388303333
 10
-609.35380861324813
 20
-2576.0569872548576
 30
0.0
 41
1.0
 10
-609.35615404420946
 20
-2576.0577872986742
 30
0.0
 41
1.0
 10
-609.3584994751709
 20
-2576.0585873424902
 30
0.0
 41
1.0
 10
-609.48416009076868
 20
-2576.1014511061671
 30
0.0
 41
0.9988468746494048
 10
-609.60513043307014
 20
-2576.1561691912302
 30
0.0
 41
1.0
 10
-609.60831325505865
 20
-2576.1576088657903
 30
0.0
 41
1.0
 10
-609.61149607704715
 20
-2576.1590485403499
 30
0.0
 41
1.0
 10
-609.73883206332596
 20
-2576.2166459745326
 30
0.0
 41
0.9991322885919277
 10
-609.86093264738201
 20
-2576.2846413067141
 30
0.0
 41
1.0
 10
-609.87853465842659
 20
-2576.2944435087043
 30
0.0
 41
1.0
 10
-609.89613666947128
 20
-2576.3042457106944
 30
0.0
 41
1.0
 10
-609.9983133505259
 20
-2576.3611458264736
 30
0.0
 41
0.9993860037848831
 10
-610.09625435460009
 20
-2576.4250618420629
 30
0.0
 41
1.0
 10
-610.10187266745174
 20
-2576.4287283367576
 30
0.0
 41
1.0
 10
-610.1074909803034
 20
-2576.4323948314518
 30
0.0
 41
1.0
 10
-610.19419535867257
 20
-2576.4889778576512
 30
0.0
 41
0.9998821494954431
 10
-610.27912173448624
 20
-2576.5481960877282
 30
0.0
 41
1.0
 10
-610.36404811029581
 20
-2576.6074143178025
 30
0.0
 41
0.9997976482743608
 10
-610.44652374069631
 20
-2576.6700007258419
 30
0.0
 41
1.0
 10
-610.46116000550433
 20
-2576.681107415624
 30
0.0
 41
1.0
 10
-610.47579627031246
 20
-2576.6922141054065
 30
0.0
 41
1.0
 10
-610.58754443032728
 20
-2576.7770138930086
 30
0.0
 41
0.9998091630800056
 10
-610.69589470835842
 20
-2576.8661142437131
 30
0.0
 41
1.0
 10
-610.70890046083332
 20
-2576.8768093441572
 30
0.0
 41
1.0
 10
-610.72190621330833
 20
-2576.8875044446013
 30
0.0
 41
1.0
 10
-610.85626799628722
 20
-2576.9979949961912
 30
0.0
 41
0.999503511231657
 10
-610.98340387405051
 20
-2577.1167288132065
 30
0.0
 41
1.0
 10
-610.99305118443954
 20
-2577.1257385593658
 30
0.0
 41
1.0
 10
-611.00269849482856
 20
-2577.1347483055251
 30
0.0
 41
1.0
 10
-611.12612155759257
 20
-2577.25001467728
 30
0.0
 41
0.9994630424299207
 10
-611.24172996337791
 20
-2577.3731174205163
 30
0.0
 41
1.0
 10
-611.2454128021493
 20
-2577.3770390000291
 30
0.0
 41
1.0
 10
-611.24909564092081
 20
-2577.3809605795423
 30
0.0
 41
1.0
 10
-611.35733836916279
 20
-2577.4962201637527
 30
0.0
 41
0.999516069374972
 10
-611.45820439869374
 20
-2577.6179875816242
 30
0.0
 41
1.0
 10
-611.46013811877174
 20
-2577.6203220058287
 30
0.0
 41
1.0
 10
-611.46207183884962
 20
-2577.6226564300337
 30
0.0
 41
1.0
 10
-611.55907042822457
 20
-2577.7397549994953
 30
0.0
 41
0.9996561470514312
 10
-611.64979664689156
 20
-2577.8617777619456
 30
0.0
 41
1.0
 10
-611.65595431279485
 20
-2577.8700595509899
 30
0.0
 41
1.0
 10
-611.66211197869825
 20
-2577.8783413400342
 30
0.0
 41
1.0
 10
-611.74052286555786
 20
-2577.9838005243951
 30
0.0
 41
0.9998349055172116
 10
-611.81505014748961
 20
-2578.0920391080581
 30
0.0
 41
1.0
 10
-611.88957742941318
 20
-2578.2002776917097
 30
0.0
 41
0.999972810956374
 10
-611.96250032532782
 20
-2578.3096036172706
 30
0.0
 41
1.0
 10
-611.96381554074173
 20
-2578.311575386776
 30
0.0
 41
1.0
 10
-611.96513075615553
 20
-2578.3135471562819
 30
0.0
 41
1.0
 10
-612.0406840828806
 20
-2578.426816620829
 30
0.0
 41
0.9999972147281063
 10
-612.11570189326687
 20
-2578.5404414636837
 30
0.0
 41
1.0
 10
-612.12067343588751
 20
-2578.5479715521533
 30
0.0
 41
1.0
 10
-612.12564497850803
 20
-2578.5555016406229
 30
0.0
 41
1.0
 10
-612.21060587412626
 20
-2578.6841866604022
 30
0.0
 41
0.9999371979006326
 10
-612.29266122352897
 20
-2578.8147435741776
 30
0.0
 41
1.0
 10
-612.29617010789207
 20
-2578.8203265022448
 30
0.0
 41
1.0
 10
-612.29967899225505
 20
-2578.8259094303116
 30
0.0
 41
1.0
 10
-612.38875211038226
 20
-2578.9676322002183
 30
0.0
 41
0.9998272025609548
 10
-612.47249550126617
 20
-2579.1125680769637
 30
0.0
 41
1.0
 10
-612.48771067328994
 20
-2579.1389011914198
 30
0.0
 41
1.0
 10
-612.5029258453136
 20
-2579.1652343058759
 30
0.0
 41
1.0
 10
-612.61709958024255
 20
-2579.3628364115298
 30
0.0
 41
0.9995217214838683
 10
-612.71883926979876
 20
-2579.5671187393923
 30
0.0
 41
1.0
 10
-612.72648283243416
 20
-2579.5824661890961
 30
0.0
 41
1.0
 10
-612.73412639506955
 20
-2579.5978136387998
 30
0.0
 41
1.0
 10
-612.82103168765912
 20
-2579.772310096881
 30
0.0
 41
0.9998269762608106
 10
-612.9013861539313
 20
-2579.9499183836042
 30
0.0
 41
1.0
 10
-612.98174062020257
 20
-2580.127526670326
 30
0.0
 41
0.9998944747387014
 10
-613.05690141476657
 20
-2580.3073943959539
 30
0.0
 41
1.0
 10
-613.06185508435863
 20
-2580.3192490508736
 30
0.0
 41
1.0
 10
-613.06680875395068
 20
-2580.3311037057929
 30
0.0
 41
1.0
 10
-613.14745581449904
 20
-2580.5241006458009
 30
0.0
 41
0.9999506734411798
 10
-613.2242533434071
 20
-2580.7186614506672
 30
0.0
 41
1.0
 10
-613.23885330867688
 20
-2580.7556493724705
 30
0.0
 41
1.0
 10
-613.25345327394666
 20
-2580.7926372942734
 30
0.0
 41
1.0
 10
-613.30105087230709
 20
-2580.9132222555145
 30
0.0
 41
0.9999912393904599
 10
-613.34763731633313
 20
-2581.0342014582193
 30
0.0
 41
1.0
 10
-613.39422376034872
 20
-2581.1551806608968
 30
0.0
 41
0.9999927113943316
 10
-613.43988505474545
 20
-2581.2765120684057
 30
0.0
 41
1.0
 10
-613.45385348614536
 20
-2581.3136290504103
 30
0.0
 41
1.0
 10
-613.46782191754528
 20
-2581.3507460324149
 30
0.0
 41
1.0
 10
-613.54142007473206
 20
-2581.5463114039067
 30
0.0
 41
0.9999487550949602
 10
-613.61104369970758
 20
-2581.7433267690999
 30
0.0
 41
1.0
 10
-613.63463730964429
 20
-2581.8100900793925
 30
0.0
 41
1.0
 10
-613.658230919581
 20
-2581.8768533896846
 30
0.0
 41
1.0
 10
-613.7529165539504
 20
-2582.1447872245071
 30
0.0
 41
0.9999808436929585
 10
-613.84427814259243
 20
-2582.4138726557721
 30
0.0
 41
1.0
 10
-613.93563973123173
 20
-2582.6829580870308
 30
0.0
 41
0.9999873932917507
 10
-614.02429443995413
 20
-2582.9529474420565
 30
0.0
 41
1.0
 10
-614.04438679682244
 20
-2583.014136774806
 30
0.0
 41
1.0
 10
-614.06447915369074
 20
-2583.0753261075556
 30
0.0
 41
1.0
 10
-614.19331857614497
 20
-2583.4676941280659
 30
0.0
 41
0.999979488303347
 10
-614.31712136110718
 20
-2583.8616803343575
 30
0.0
 41
1.0
 10
-614.32827362054093
 20
-2583.8971709445827
 30
0.0
 41
1.0
 10
-614.33942587997467
 20
-2583.932661554808
 30
0.0
 41
1.0
 10
-614.48198404387301
 20
-2584.3863343068983
 30
0.0
 41
0.9999982761777257
 10
-614.6228564838932
 20
-2584.8405333290361
 30
0.0
 41
1.0
 10
-616.21099681646581
 20
-2589.8893030600393
 30
0.0
 41
1.0
 10
-617.79913714903842
 20
-2594.9380727910429
 30
0.0
 41
1.0
 10
-618.7478877605148
 20
-2594.9380727910429
 30
0.0
 41
1.0
 10
-619.69663837199118
 20
-2594.9380727910429
 30
0.0
 41
1.0
 10
-616.45835388583794
 20
-2584.6107505910968
 30
0.0
 41
1.0
 10
-613.22006939968469
 20
-2574.2834283911507
 30
0.0
 41
1.0
  0
LWPOLYLINE
  5
5C
100
AcDbEntity
  8
0
370
              15
390
0
  6
Continuous
 62
               7
100
AcDbPolyline
 90
      232
 70
             128
 10
-638.92361517351173
 20
-2575.3677712226654
 42
0.0004370800678147
 10
-638.97649234752646
 20
-2575.4364378618475
 10
-639.01577657871121
 20
-2575.4875449748188
 42
0.0030481992181772
 10
-639.14611529583829
 20
-2575.6592666671731
 10
-639.18462696758093
 20
-2575.7106534509508
 42
0.0042058245764347
 10
-639.38861201824398
 20
-2575.9876591960151
 10
-639.44101714075146
 20
-2576.0600920428051
 42
0.0120948898733606
 10
-639.73706105751319
 20
-2576.490841647355
 10
-639.83325355663533
 20
-2576.6383223825801
 42
0.0141601263955149
 10
-640.13689760355692
 20
-2577.1339917193145
 10
-640.17643487098474
 20
-2577.2028356867495
 42
0.0071131081303525
 10
-640.38170719422124
 20
-2577.5723384855846
 42
0.0068458791004431
 10
-640.57658672106436
 20
-2577.9474300490606
 10
-640.58339858352201
 20
-2577.960991762784
 42
0.0064120880287481
 10
-640.78154083356355
 20
-2578.3684162376976
 10
-640.78907551908333
 20
-2578.3844280944245
 42
0.005885723644688
 10
-640.99183091095517
 20
-2578.8288042054596
 10
-641.00000583724898
 20
-2578.8472943590932
 42
0.0053189741894004
 10
-641.20871014991383
 20
-2579.3332578330046
 10
-641.21745795559787
 20
-2579.3542397112069
 42
0.0047503650417586
 10
-641.43343168174852
 20
-2579.8864391444172
 10
-641.44269993009664
 20
-2579.9099155205249
 42
0.0042071762171538
 10
-641.66724731382374
 20
-2580.4930091145925
 10
-641.67699671617311
 20
-2580.5189752894639
 42
0.0036680086482461
 10
-641.91145135948568
 20
-2581.1576106739967
 10
-641.92165913933309
 20
-2581.1860592083403
 42
0.0032573142630789
 10
-642.16729142530016
 20
-2581.8849118680946
 10
-642.23594194613952
 20
-2582.0843749521437
 42
0.0026133366646961
 10
-642.58438714489841
 20
-2583.1142382358184
 10
-642.64764393239864
 20
-2583.30446907121
 42
0.0020592950740912
 10
-642.86150700136614
 20
-2583.9565727238241
 10
-642.86455879252833
 20
-2583.9660092122313
 42
0.0025609928533413
 10
-643.06637929401495
 20
-2584.6011544346002
 10
-643.06897066114573
 20
-2584.6094567755536
 42
0.0031362356242088
 10
-643.25846144681861
 20
-2585.23021963172
 10
-643.26059248974479
 20
-2585.237360937927
 42
0.0037229918024102
 10
-643.43739287667245
 20
-2585.8463462399054
 10
-643.43907146587708
 20
-2585.8522931300736
 42
0.0043077623702095
 10
-643.60281226794393
 20
-2586.4521118618486
 42
0.0047654161822802
 10
-643.75564099046039
 20
-2587.0547979507528
 10
-643.79010559929907
 20
-2587.1963597279009
 42
0.0112969368449086
 10
-643.98596995744356
 20
-2588.0880518885297
 10
-644.01397634653927
 20
-2588.2308799346229
 42
0.0130056762571697
 10
-644.21481359018583
 20
-2589.4178210062678
 10
-644.23535334033329
 20
-2589.5618991197475
 42
0.0138721532146452
 10
-644.33905634487087
 20
-2590.4687286055705
 10
-644.35835183277879
 20
-2590.692226327496
 42
0.0071254697002466
 10
-644.39169847870141
 20
-2591.1554133363429
 10
-644.3966594528639
 20
-2591.2414173308894
 42
0.0028881799208675
 10
-644.41179774615455
 20
-2591.5331590407454
 42
0.0060297297138587
 10
-644.42172994593
 20
-2591.8251079768629
 10
-644.42279222759714
 20
-2591.8735003487932
 42
0.022952316414882
 10
-644.41506119981136
 20
-2592.1962551950769
 10
-644.41083542629076
 20
-2592.2566587290967
 42
0.0123673300673429
 10
-644.39175677977266
 20
-2592.4577794542679
 42
0.0128577674473454
 10
-644.36256138936722
 20
-2592.6576773041893
 10
-644.35543551597937
 20
-2592.6990061187917
 42
0.0285717853764708
 10
-644.29094151428285
 20
-2592.9771222701074
 10
-644.27727299061598
 20
-2593.0237770395861
 42
0.0316283099167805
 10
-644.16146241070305
 20
-2593.3427915414081
 10
-644.15841371894908
 20
-2593.3497779137301
 42
0.0338984824239776
 10
-644.00898200798042
 20
-2593.6373438779228
 10
-644.00667327860913
 20
-2593.6411349072009
 42
0.0350228718362095
 10
-643.82431298793699
 20
-2593.8981868918754
 10
-643.82342773616392
 20
-2593.8992659696369
 42
0.0347476747529515
 10
-643.60900304892175
 20
-2594.1264510168598
 42
0.0331337701912492
 10
-643.36575972317462
 20
-2594.3225796789379
 10
-643.36465962465923
 20
-2594.32335238211
 42
0.0305233319085048
 10
-643.09611492908516
 20
-2594.4884805522015
 10
-643.09288488458469
 20
-2594.4902045640638
 42
0.0273744481150694
 10
-642.80033117300718
 20
-2594.6263427079552
 10
-642.79522663787282
 20
-2594.6283862924238
 42
0.0240964406202993
 10
-642.47974956222765
 20
-2594.737370018705
 10
-642.4731662330172
 20
-2594.7392947583803
 42
0.0209636179808594
 10
-642.13576608036749
 20
-2594.8227629063117
 10
-642.12813361991584
 20
-2594.8243148193137
 42
0.0181388704692246
 10
-641.76981122791585
 20
-2594.8837309125279
 10
-641.76153037953918
 20
-2594.8847970963448
 42
0.0156086547588515
 10
-641.38334301535554
 20
-2594.9215332829208
 10
-641.34014776302558
 20
-2594.9243717854001
 42
0.0137148329028007
 10
-641.01247461772448
 20
-2594.9368920406514
 10
-640.96653842779631
 20
-2594.9373864737663
 42
0.0051057823885795
 10
-640.73039284120625
 20
-2594.937516728176
 42
0.0052256693317024
 10
-640.49429555741142
 20
-2594.9327679037115
 10
-640.42406877367819
 20
-2594.9306209376978
 42
0.0161507179047472
 10
-640.0483316955798
 20
-2594.9069705673714
 10
-640.02831873520381
 20
-2594.9050603720834
 42
0.0101216737834071
 10
-639.61429151372124
 20
-2594.8570674417192
 10
-639.5802382242864
 20
-2594.8524197449087
 42
0.0245291776391979
 10
-639.10344856874156
 20
-2594.7633446668337
 10
-639.0186252532078
 20
-2594.7431487464855
 42
0.0143509212565376
 10
-638.66199414927166
 20
-2594.6473441127077
 42
0.015655785703223
 10
-638.31177808454754
 20
-2594.5303328968903
 10
-638.30427687004976
 20
-2594.5275627351348
 42
0.0170137333632498
 10
-637.94768087435966
 20
-2594.3819051202599
 10
-637.94057695196091
 20
-2594.3787172847001
 42
0.0183105364410363
 10
-637.58122728380101
 20
-2594.2013822428789
 10
-637.57428051915588
 20
-2594.1976318080033
 42
0.0194899958157611
 10
-637.21579977816702
 20
-2593.9856528261093
 10
-637.20878589883512
 20
-2593.9811274838175
 42
0.0204869852951262
 10
-636.85477159674883
 20
-2593.7316074687378
 10
-636.84750598815413
 20
-2593.7260274033833
 42
0.0212516938560974
 10
-636.50151605704605
 20
-2593.4361234064886
 10
-636.45499936297028
 20
-2593.3936560963948
 42
0.0215248918255876
 10
-636.19497319408288
 20
-2593.1348918174008
 10
-636.14994345970399
 20
-2593.0860476960529
 42
0.0114578554961459
 10
-635.99515130602504
 20
-2592.9102247625924
 10
-635.98395677003828
 20
-2592.8969059990468
 42
0.0061531305130129
 10
-635.85748212404405
 20
-2592.7426164657418
 42
0.0006325587119422
 10
-635.73310363988332
 20
-2592.5866130900545
 10
-635.71006350484072
 20
-2592.5576395694065
 42
0.0041897761548525
 10
-635.54160810085875
 20
-2592.3421201933329
 10
-635.48314598097579
 20
-2592.2660188463597
 42
0.0092993880037932
 10
-635.20653405375117
 20
-2591.8917400824739
 10
-635.12413956055309
 20
-2591.7758030789068
 42
0.0159321727084979
 10
-634.77753307791068
 20
-2591.2536288581505
 10
-634.73317694251887
 20
-2591.1819492938962
 42
0.0085547317019492
 10
-634.4986651771959
 20
-2590.7880743446758
 42
0.0084601156890272
 10
-634.27768899975115
 20
-2590.3864474956385
 10
-634.26957352592353
 20
-2590.3710878133707
 42
0.0081429654284268
 10
-634.04632425548596
 20
-2589.9313663008297
 10
-634.03746409130201
 20
-2589.9131874588106
 42
0.0076574581325967
 10
-633.81105658073523
 20
-2589.4300045835575
 10
-633.80157694001161
 20
-2589.4089401052543
 42
0.0070682724201101
 10
-633.5711320322032
 20
-2588.8769028004699
 10
-633.56114174822312
 20
-2588.8529136114621
 42
0.0064559514447898
 10
-633.32580854004289
 20
-2588.2666013449466
 10
-633.3153991818765
 20
-2588.2396664195007
 42
0.0058311413903328
 10
-633.07435244511294
 20
-2587.5936343251142
 10
-633.06359736772629
 20
-2587.5637499839563
 42
0.0052312425817744
 10
-632.81601608968595
 20
-2586.8525475701235
 10
-632.80497225330555
 20
-2586.8197208580523
 42
0.0046680544796559
 10
-632.55004382557263
 20
-2586.0378945423022
 10
-632.50805167552528
 20
-2585.9049113049982
 42
0.0041666856443741
 10
-632.30476566313246
 20
-2585.2419425299995
 10
-632.26710322246947
 20
-2585.115361422349
 42
0.0015170975151923
 10
-632.14591664405566
 20
-2584.7034930708523
 42
-0.0004887993119299
 10
-632.02557687090416
 20
-2584.2913746587137
 10
-631.94909961343751
 20
-2584.0304172728693
 42
0.0002583378931074
 10
-631.6758850433049
 20
-2583.096360569456
 10
-631.59411219379206
 20
-2582.8162613100917
 42
0.0006636169670688
 10
-631.40024443378525
 20
-2582.1489083865199
 10
-631.39514777942907
 20
-2582.1312768036082
 42
0.0010589131326539
 10
-631.21369907852159
 20
-2581.4985454605912
 10
-631.20871700804798
 20
-2581.481032553595
 42
0.0015655524462813
 10
-631.04044680085838
 20
-2580.8824158743701
 10
-631.03561660044807
 20
-2580.8650237154511
 42
0.0021640440476805
 10
-630.88132662845737
 20
-2580.2999966974162
 10
-630.87669240902437
 20
-2580.2827319674107
 42
0.0028763871848745
 10
-630.73717669097437
 20
-2579.7507640165754
 10
-630.73279082680608
 20
-2579.733640038417
 42
0.0037310511951201
 10
-630.60883413497027
 20
-2579.2341924443972
 10
-630.60475891468081
 20
-2579.21723217315
 42
0.0047652197766163
 10
-630.49713501417284
 20
-2578.7497544048465
 10
-630.49344441485073
 20
-2578.7329948497022
 42
0.0060276699306121
 10
-630.40291431569574
 20
-2578.2969190545523
 10
-630.39969562540693
 20
-2578.2804178402444
 42
0.0075824337758372
 10
-630.32700631599118
 20
-2577.8751506758172
 10
-630.32436093861099
 20
-2577.8589957283666
 42
0.0095130624602145
 10
-630.27024570297976
 20
-2577.4839063752943
 10
-630.2632594790972
 20
-2577.4279728171782
 42
0.0121054653223266
 10
-630.23666814851924
 20
-2577.1630769887042
 10
-630.23580165875978
 20
-2577.1516735457753
 42
0.0069050827386751
 10
-630.22071284072206
 20
-2576.908732318931
 10
-630.21957754105358
 20
-2576.8852060618883
 42
0.0169063976696013
 10
-630.21675026207322
 20
-2576.6890133345855
 10
-630.21792091360442
 20
-2576.6286775732365
 42
0.0052007732875647
 10
-630.22017436219744
 20
-2576.5530841830841
 42
0.0054038123309349
 10
-630.24013787403749
 20
-2576.4330658870681
 10
-630.2452237299068
 20
-2576.4044074004933
 42
0.0112050460450662
 10
-630.28060809196427
 20
-2576.2280809621589
 10
-630.29843305400595
 20
-2576.1485393754333
 42
0.0240764468002921
 10
-630.38933042015276
 20
-2575.8183023399301
 10
-630.40788918296585
 20
-2575.7616821749371
 42
0.0256812331832092
 10
-630.55125210315498
 20
-2575.3899579686808
 10
-630.55666152897652
 20
-2575.3778266336908
 42
0.0268360501219024
 10
-630.72608876982622
 20
-2575.0468334996704
 10
-630.73162517746198
 20
-2575.0373138293567
 42
0.0274670231722744
 10
-630.92382615387464
 20
-2574.7450264544404
 10
-630.92920745383867
 20
-2574.7377473068973
 42
0.0275035967091811
 10
-631.14078033339911
 20
-2574.4822314165949
 10
-631.1458498343668
 20
-2574.4767523289634
 42
0.0269557673529069
 10
-631.37325337780521
 20
-2574.2561100430025
 10
-631.37799643558765
 20
-2574.251980088542
 42
0.0259124802201276
 10
-631.6175512670186
 20
-2574.0642895613892
 10
-631.62208211220343
 20
-2574.061104059057
 42
0.0245162153003467
 10
-631.86999846529534
 20
-2573.9043710499482
 10
-631.87452501162011
 20
-2573.9018108527471
 42
0.0229282588833607
 10
-632.12694456844702
 20
-2573.7739426602484
 10
-632.13172506227852
 20
-2573.7717903604889
 42
0.0212984135685454
 10
-632.38476301474543
 20
-2573.6705914432441
 10
-632.39006729971163
 20
-2573.6687278804852
 42
0.0197555462342057
 10
-632.63984563743793
 20
-2573.5919124625198
 42
0.0183511896796037
 10
-632.8947743629069
 20
-2573.5343295555531
 10
-632.98113955962265
 20
-2573.5181267651692
 42
0.0338057877142046
 10
-633.26664690888435
 20
-2573.4843183600287
 10
-633.35765231393054
 20
-2573.4797387047674
 42
0.0091990524488506
 10
-633.46349942256029
 20
-2573.4763628488454
 42
0.0028333980794625
 10
-633.56941333851182
 20
-2573.4755347413288
 10
-633.57032879160261
 20
-2573.4755327715047
 42
-0.0023619827818142
 10
-633.67807480666886
 20
-2573.4747919304264
 10
-633.71447997688438
 20
-2573.474369623963
 42
0.000882459848003
 10
-633.89503596687393
 20
-2573.4725938457241
 10
-633.93889739914016
 20
-2573.4722398841996
 42
0.0038132665767801
 10
-634.20718029497687
 20
-2573.4721209481322
 10
-634.22371394981246
 20
-2573.4722397142759
 42
0.0060665569329688
 10
-634.52499444138118
 20
-2573.4780600136964
 10
-634.53924477342912
 20
-2573.4785083216648
 42
0.0080356953342526
 10
-634.8687034897647
 20
-2573.4941760437314
 10
-634.8807735048556
 20
-2573.4949446266719
 42
0.0098996399100532
 10
-635.23353658950509
 20
-2573.5244298558696
 10
-635.24358229888117
 20
-2573.525470152068
 42
0.0117740981364832
 10
-635.6147391572365
 20
-2573.572762399599
 10
-635.62296185371247
 20
-2573.5740075161689
 42
0.0137435215135166
 10
-636.00755067319687
 20
-2573.6431044897304
 10
-636.01420771232097
 20
-2573.6444903859642
 42
0.0158359869385475
 10
-636.40720480612265
 20
-2573.7393824744449
 10
-636.41261799299059
 20
-2573.7408724153156
 42
0.0180554124026957
 10
-636.80893303759945
 20
-2573.865510431553
 10
-636.81348982568636
 20
-2573.8671264678205
 42
0.0203657431287658
 10
-637.20796734350336
 20
-2574.0253868093387
 10
-637.21211088250504
 20
-2574.0272484307779
 42
0.022681968465525
 10
-637.599546938706
 20
-2574.2228910094473
 10
-637.60374672972682
 20
-2574.2252566013685
 42
0.024863498460036
 10
-637.9789286709065
 20
-2574.4618832473147
 10
-638.02712359969485
 20
-2574.4957402891437
 42
0.0267044190885834
 10
-638.30141629660852
 20
-2574.71118066501
 42
0.0139303002189883
 10
-638.55758346254697
 20
-2574.9484195059213
 10
-638.56243684826825
 20
-2574.9531721687817
 42
0.0283460963438631
 10
-638.80650944249612
 20
-2575.2209028292277
 10
-638.846177947652
 20
-2575.2697044066999
 42
0.0070695364826157
 10
-638.92361517351173
 20
-2575.3677712226654
 42
0.0070695364826157
  0
LWPOLYLINE
  5
5D
100
AcDbEntity
  8
0
370
              15
390
0
  6
Continuous
 62
               7
100
AcDbPolyline
 90
      226
 70
             128
 10
-642.45243561075813
 20
-2591.0893600288496
 42
-0.0026277636606001
 10
-642.45251349455827
 20
-2591.0225881031056
 10
-642.45229613632614
 20
-2590.9694328856635
 42
-0.0088680296721386
 10
-642.44851952003319
 20
-2590.7964171032618
 10
-642.44617316092069
 20
-2590.7371370778069
 42
-0.0077381705621845
 10
-642.43012705015781
 20
-2590.4458765820104
 10
-642.42925913898455
 20
-2590.4335883483236
 42
-0.0068872530535442
 10
-642.4026270592359
 20
-2590.1183665962499
 10
-642.40142283505031
 20
-2590.1061256172356
 42
-0.0062130021496144
 10
-642.36382911822193
 20
-2589.7672559259931
 10
-642.3623252146873
 20
-2589.7550820540805
 42
-0.0056726929665142
 10
-642.31340335518405
 20
-2589.3928868319599
 10
-642.31162990954067
 20
-2589.3807930317216
 42
-0.0052341884498945
 10
-642.25101932328073
 20
-2588.9955997762036
 10
-642.2490013345041
 20
-2588.9835948462114
 42
-0.004976845017527
 10
-642.1762626530774
 20
-2588.5757502787774
 10
-642.15201363835592
 20
-2588.447202295773
 42
-0.0089029805627129
 10
-642.01493278656142
 20
-2587.7854268483516
 10
-641.98218741124265
 20
-2587.6403954178272
 42
-0.0080318257096784
 10
-641.75263879690237
 20
-2586.6946857859753
 10
-641.74065387045368
 20
-2586.6485551507835
 42
-0.0074265721319123
 10
-641.45664233160369
 20
-2585.6184905724026
 10
-641.43676278848636
 20
-2585.5503565118115
 42
-0.0069711922702872
 10
-641.1094582099804
 20
-2584.4840887714854
 10
-641.04950626287507
 20
-2584.2980674131149
 42
-0.0052070422893878
 10
-640.82008103761564
 20
-2583.6107953360834
 10
-640.8027998454412
 20
-2583.5607680554599
 42
-0.000916700444809
 10
-640.59970795815389
 20
-2582.9763122073123
 42
-0.0025162726945365
 10
-640.3926103278925
 20
-2582.3932709431533
 10
-640.35538571608618
 20
-2582.2901213972455
 42
-0.0028212681458714
 10
-640.10720979712278
 20
-2581.6143907650735
 10
-640.09737903437019
 20
-2581.5880833203919
 42
-0.0031964916824671
 10
-639.86108677670984
 20
-2580.9678785582696
 10
-639.85145232270884
 20
-2580.9430685681214
 42
-0.0036281836457837
 10
-639.62634636160965
 20
-2580.3756278872333
 10
-639.61690795145341
 20
-2580.3523304557334
 42
-0.0041269166834834
 10
-639.402290254793
 20
-2579.8348895597524
 10
-639.36965729837391
 20
-2579.7580111133952
 42
-0.0047472213054796
 10
-639.21261249281861
 20
-2579.3975896455077
 10
-639.20571841161063
 20
-2579.3821690481759
 42
-0.0025651659997316
 10
-639.05736037776023
 20
-2579.0548409924272
 42
-0.0057144634989255
 10
-638.90361068398749
 20
-2578.7300313190617
 10
-638.87557997858767
 20
-2578.6725229366702
 42
-0.00653880683678
 10
-638.69211295084801
 20
-2578.3082904400053
 10
-638.68365449506928
 20
-2578.2920308606354
 42
-0.0074510843034614
 10
-638.50747224919155
 20
-2577.9653425795132
 10
-638.49929257866211
 20
-2577.9507018022473
 42
-0.0084648979855533
 10
-638.32965872556042
 20
-2577.6587927912833
 10
-638.32180259907409
 20
-2577.6457857996352
 42
-0.0095638542804019
 10
-638.15796715147815
 20
-2577.3858969276539
 10
-638.15049220780486
 20
-2577.3745275661963
 42
-0.010719162680332
 10
-637.99169062741885
 20
-2577.1439163316545
 10
-637.98467389368795
 20
-2577.1341802392903
 42
-0.0118458573893132
 10
-637.83012579517526
 20
-2576.9301080439791
 42
-0.0129184518194822
 10
-637.66567317157319
 20
-2576.7339475278077
 10
-637.63552839920885
 20
-2576.6998214489067
 42
-0.0217742579642277
 10
-637.45891607687531
 20
-2576.5166146786592
 10
-637.44817053241843
 20
-2576.5063978454596
 42
-0.0097266568651483
 10
-637.2821129135591
 20
-2576.354550271019
 42
-0.018772090572363
 10
-637.10776533767194
 20
-2576.2124814176318
 10
-637.07705934699084
 20
-2576.1893223352304
 42
-0.0179428207516557
 10
-636.84463862699931
 20
-2576.026770158122
 10
-636.84098630008953
 20
-2576.0244062232382
 42
-0.0170047877702656
 10
-636.60522266255316
 20
-2575.8829457090824
 10
-636.601439673811
 20
-2575.8808474040484
 42
-0.0160190788362401
 10
-636.3645311261713
 20
-2575.759196102058
 42
-0.0151102861485848
 10
-636.12049934371953
 20
-2575.6525133260016
 10
-636.06811284151286
 20
-2575.6314731931088
 42
-0.0271945441889552
 10
-635.70945028245137
 20
-2575.5096083824019
 10
-635.64038548197379
 20
-2575.4902588411387
 42
-0.0237596594024702
 10
-635.22458863494398
 20
-2575.3948081291551
 10
-635.15652578121149
 20
-2575.382553441028
 42
-0.0213715440559595
 10
-634.87065084976825
 20
-2575.3436064095185
 10
-634.81050368355045
 20
-2575.3380166948177
 42
-0.0101465655831142
 10
-634.64301115155615
 20
-2575.3258731515534
 10
-634.63367076535735
 20
-2575.3253862365559
 42
-0.0100375910883368
 10
-634.48451666479536
 20
-2575.3206104186306
 10
-634.47425739511516
 20
-2575.3204879796162
 42
-0.01036256333826
 10
-634.34554940046007
 20
-2575.3216194131428
 10
-634.32328374919484
 20
-2575.3222767716074
 42
-0.0115689250247154
 10
-634.23923301166519
 20
-2575.3267062778532
 42
-0.007243803743815
 10
-634.15539473220849
 20
-2575.3342954776044
 10
-634.13859422275323
 20
-2575.3360620203266
 42
-0.021791731315001
 10
-634.02202445944306
 20
-2575.3534819130473
 10
-633.95642436887181
 20
-2575.3662285214627
 42
-0.0332943556753281
 10
-633.75203220384469
 20
-2575.4202688127693
 10
-633.7218596353041
 20
-2575.4304368898843
 42
-0.0184824084807483
 10
-633.58335457882924
 20
-2575.4828879052743
 42
-0.0198002050693049
 10
-633.44928023832972
 20
-2575.5457719654737
 10
-633.44739360095298
 20
-2575.5467497523537
 42
-0.0212242342977139
 10
-633.31525465855248
 20
-2575.6225124911457
 10
-633.31343936300755
 20
-2575.6236582933552
 42
-0.0226090605801036
 10
-633.18493546178593
 20
-2575.7131379369193
 10
-633.18309102004832
 20
-2575.7145501899067
 42
-0.0238457052237093
 10
-633.05990893875776
 20
-2575.8185460857671
 10
-633.05795621019638
 20
-2575.8203609635357
 42
-0.0248160564175161
 10
-632.94175470289872
 20
-2575.9396355647409
 10
-632.93965106949372
 20
-2575.9420208984484
 42
-0.0254109591443984
 10
-632.83204585162696
 20
-2576.0773092844142
 10
-632.8297978297137
 20
-2576.0804508328138
 42
-0.0255528488289007
 10
-632.73235115091506
 20
-2576.2324778870502
 10
-632.73002005100045
 20
-2576.236559498655
 42
-0.0252146793228482
 10
-632.64423902499152
 20
-2576.4060617446517
 10
-632.64193678583365
 20
-2576.4112438265652
 42
-0.0244265635942948
 10
-632.56928209207206
 20
-2576.5989903986119
 10
-632.56003569060329
 20
-2576.6268558169509
 42
-0.0231319612891368
 10
-632.51411291161173
 20
-2576.7901568637512
 42
-0.0112130424341257
 10
-632.47947688907402
 20
-2576.9563604639361
 10
-632.47827436396096
 20
-2576.9628570508271
 42
-0.0210527881225172
 10
-632.45258788858985
 20
-2577.1439126962705
 10
-632.44907729376826
 20
-2577.1793182448155
 42
-0.019002989242105
 10
-632.4336358202238
 20
-2577.4328540910851
 10
-632.43282584377971
 20
-2577.4683297054571
 42
-0.013797455366025
 10
-632.43437469661512
 20
-2577.7933611121853
 10
-632.435220151571
 20
-2577.8194798567897
 42
-0.0081336634213135
 10
-632.45007948679336
 20
-2578.1248273243823
 42
-0.0073526923574405
 10
-632.47438802016779
 20
-2578.4295755686653
 10
-632.47564944395072
 20
-2578.4429122433335
 42
-0.0066886138694879
 10
-632.51138502999743
 20
-2578.7734982868328
 10
-632.51304211946706
 20
-2578.7871199058222
 42
-0.0061359187352101
 10
-632.56089272151678
 20
-2579.143883885914
 10
-632.56293022259081
 20
-2579.1577786887515
 42
-0.0056698610068871
 10
-632.62358055335744
 20
-2579.5410572575865
 10
-632.62598598668103
 20
-2579.5552163768202
 42
-0.0052721077279366
 10
-632.70011818748014
 20
-2579.9653437164952
 10
-632.70288133632243
 20
-2579.9797603518841
 42
-0.0049289272174165
 10
-632.7911754544208
 20
-2580.4170688629988
 10
-632.79428794910496
 20
-2580.4317377158222
 42
-0.0047415956716445
 10
-632.8975259406368
 20
-2580.896534473231
 10
-632.932294150997
 20
-2581.0463415686163
 42
-0.0084404470900846
 10
-633.12231059456963
 20
-2581.8065655931509
 10
-633.1284372825545
 20
-2581.8294297173011
 42
-0.0039635940258833
 10
-633.34989096683898
 20
-2582.6304185815502
 10
-633.36326776201804
 20
-2582.6773501981402
 42
-0.0072475040834704
 10
-633.63071464988025
 20
-2583.5665699145275
 10
-633.70092697670782
 20
-2583.7883102645001
 42
-0.0051345458830221
 10
-633.9876863487674
 20
-2584.6626354523132
 10
-634.00921261553469
 20
-2584.7260617194424
 42
-0.0019150016598808
 10
-634.2647460224016
 20
-2585.4696108396693
 10
-634.27121362679463
 20
-2585.4881983045816
 42
-0.0021524362750334
 10
-634.51969167786172
 20
-2586.1925241262988
 10
-634.52890209855627
 20
-2586.218277704595
 42
-0.0024331286818047
 10
-634.76515735759415
 20
-2586.8688770127187
 10
-634.77420531014434
 20
-2586.893420319072
 42
-0.0027449721786756
 10
-634.99881988098002
 20
-2587.4925501979974
 10
-635.00770988836757
 20
-2587.5158727878375
 42
-0.0031083229768043
 10
-635.22125237498221
 20
-2588.0657968254291
 10
-635.22998850666022
 20
-2588.0878865412928
 42
-0.0035311343277629
 10
-635.43302969224965
 20
-2588.5908696670172
 10
-635.44161503139503
 20
-2588.6117123905219
 42
-0.0040245640947205
 10
-635.63472683519171
 20
-2589.0700217131198
 10
-635.64316294879677
 20
-2589.0896010811966
 42
-0.004601513585009
 10
-635.82691924195842
 20
-2589.5055061108342
 10
-635.8352054197851
 20
-2589.523803250283
 42
-0.0052768638264871
 10
-636.01018293874233
 20
-2589.8995761345568
 10
-636.01831514936782
 20
-2589.9165694730968
 42
-0.0060672675641024
 10
-636.18509476213524
 20
-2590.254485096214
 10
-636.19306424261617
 20
-2590.2701503552103
 42
-0.0069904648866878
 10
-636.35223263661828
 20
-2590.5724861618751
 10
-636.3600240362266
 20
-2590.586796711098
 42
-0.0080637022769032
 10
-636.51217589657494
 20
-2590.8558320142556
 10
-636.51976492920573
 20
-2590.8687598798556
 42
-0.0093006455676857
 10
-636.66550560573774
 20
-2591.1067742783594
 10
-636.67285627248361
 20
-2591.1182922475359
 42
-0.010706077804251
 10
-636.81280481591989
 20
-2591.3275625649112
 10
-636.81986658420067
 20
-2591.3376481074788
 42
-0.0122723111422503
 10
-636.95466030239754
 20
-2591.5204414369664
 10
-636.95498652595131
 20
-2591.5208618247757
 42
-0.0141836319627893
 10
-637.09856812892565
 20
-2591.6954315826051
 10
-637.10551588457508
 20
-2591.703406582867
 42
-0.0175957477212026
 10
-637.2454220526123
 20
-2591.8530274712748
 42
-0.0080466359671885
 10
-637.39288581764117
 20
-2591.9953499994249
 10
-637.43892036215993
 20
-2592.0383704375172
 42
-0.0269600260402071
 10
-637.69220060813961
 20
-2592.250693696024
 10
-637.7587677444352
 20
-2592.3006451106467
 42
-0.017836283975446
 10
-637.99871223409582
 20
-2592.4676630369031
 10
-638.00595720510148
 20
-2592.4723315491115
 42
-0.0174650732637288
 10
-638.24229340253748
 20
-2592.6131925140671
 42
-0.016924013016341
 10
-638.48775964839399
 20
-2592.7374847738438
 10
-638.53374580395302
 20
-2592.7588467294117
 42
-0.0318883036831898
 10
-638.88409665957488
 20
-2592.8951850389226
 10
-638.95246219473438
 20
-2592.916885659396
 42
-0.0284435909908115
 10
-639.32851232102882
 20
-2593.0131030948714
 10
-639.3636704815267
 20
-2593.0199966906998
 42
-0.0243909341012215
 10
-639.67711394244634
 20
-2593.0657177217304
 10
-639.72739466921701
 20
-2593.0705632686322
 42
-0.019663929293116
 10
-639.94299024674467
 20
-2593.0828115541458
 10
-639.9948143178957
 20
-2593.0837148148826
 42
-0.010050151069363
 10
-640.10723759957239
 20
-2593.0834144165292
 10
-640.13889746095879
 20
-2593.0826933446428
 42
-0.0019752031079002
 10
-640.18798979759788
 20
-2593.0813811844341
 10
-640.1907501008352
 20
-2593.0812964926072
 42
0.0065378752010564
 10
-640.23432667557472
 20
-2593.0805296013932
 42
-0.0167974694690277
 10
-640.27785749849988
 20
-2593.078869702867
 10
-640.28193683776863
 20
-2593.0785766919716
 42
-0.0081283276296286
 10
-640.33349663549029
 20
-2593.0740296983358
 10
-640.3452362093858
 20
-2593.0728017807555
 42
-0.0126703440183335
 10
-640.41995450517391
 20
-2593.063066989685
 10
-640.44274237285606
 20
-2593.0595087337688
 42
-0.0117852088411356
 10
-640.56228135870333
 20
-2593.0379457386089
 10
-640.61766181045141
 20
-2593.0266021983771
 42
-0.0251774592293885
 10
-640.84450584945876
 20
-2592.9681041889444
 10
-640.88922503930314
 20
-2592.9541373696111
 42
-0.014652519990189
 10
-641.07561802684882
 20
-2592.8898708424108
 42
-0.0166929435856902
 10
-641.25759568297542
 20
-2592.8140637093561
 10
-641.26225231424871
 20
-2592.8119388087421
 42
-0.0191684358434846
 10
-641.44743594549527
 20
-2592.7187027249538
 10
-641.45076853125488
 20
-2592.7168614773991
 42
-0.0221181781798704
 10
-641.63407883516288
 20
-2592.6047279790241
 10
-641.6364286391655
 20
-2592.6031436810372
 42
-0.0254984685375966
 10
-641.8127187895509
 20
-2592.4707325310678
 10
-641.83520093725292
 20
-2592.4519802221312
 42
-0.0292492648809847
 10
-641.95996987609578
 20
-2592.334887422488
 42
-0.0159048957502482
 10
-642.07380987354679
 20
-2592.206867430888
 10
-642.07512866412515
 20
-2592.205285817869
 42
-0.0343813379587568
 10
-642.17776592574933
 20
-2592.0634144921028
 10
-642.20925745711327
 20
-2592.0129111000037
 42
-0.0369117275691841
 10
-642.29514995900945
 20
-2591.8494338590572
 42
-0.0191751379907552
 10
-642.36234334456685
 20
-2591.6770292530505
 10
-642.36410666832603
 20
-2591.6719359083763
 42
-0.0378178042210857
 10
-642.41390138711063
 20
-2591.4829951322936
 10
-642.41989668283998
 20
-2591.4504345141013
 42
-0.0184846046488621
 10
-642.44061388213504
 20
-2591.3086816935534
 42
-0.0179866351292175
 10
-642.4509468872086
 20
-2591.1657908804737
 10
-642.45100332965444
 20
-2591.1642331938592
 42
-0.0085497186139843
 10
-642.45243561075813
 20
-2591.0893600288496
 42
-0.0085497186139843
  0
ENDBLK
  5
5E
100
AcDbEntity
  8
template
390
0
100
AcDbBlockEnd
  0
BLOCK
  5
5F
100
AcDbEntity
  8
notes
390
0
100
AcDbBlockBegin
  2
*D3
 70
               1
 10
0.0
 20
0.0
 30
0.0
  3
*D3
  1

  0
LINE
  5
60
100
AcDbEntity
  8
0
370
              -2
390
0
  6
Continuous
 62
               0
100
AcDbLine
 10
-710.20778425943672
 20
801.1126386805314
 30
0.0
 11
-710.20778425943672
 21
985.1126386805314
 31
0.0
  0
LINE
  5
61
100
AcDbEntity
  8
0
370
              -2
390
0
  6
Continuous
 62
               0
100
AcDbLine
 10
-10.207784259436949
 20
585.0
 30
0.0
 11
-10.207784259436949
 21
985.1126386805314
 31
0.0
  0
LINE
  5
62
100
AcDbEntity
  8
0
370
              -2
390
0
  6
Continuous
 62
               0
100
AcDbLine
 10
-710.20778425943672
 20
985.1126386805314
 30
0.0
 11
-10.207784259436949
 21
985.1126386805314
 31
0.0
  0
CIRCLE
  5
63
102
{ACAD_REACTORS
330
64
102
}
100
AcDbEntity
  8
0
370
              -2
390
0
  6
Continuous
 62
               0
100
AcDbCircle
 10
-710.20778425943672
 20
985.1126386805314
 30
0.0
 40
1.9998779296875
  0
HATCH
  5
64
100
AcDbEntity
  8
0
370
              -2
390
0
  6
Continuous
 62
               0
100
AcDbHatch
 10
0.0
 20
0.0
 30
0.0
210
0.0
220
0.0
230
1.0
  2
SOLID
 70
               1
 71
               1
 91
        1
 92
        1
 93
        1
 72
               2
 10
-710.20778425943672
 20
985.1126386805314
 40
1.9998779296875
 50
0.0
 51
360.0
 73
               0
 97
        1
330
63
 75
               0
 76
               1
 98
        1
 10
0.0
 20
0.0
  0
CIRCLE
  5
65
102
{ACAD_REACTORS
330
66
102
}
100
AcDbEntity
  8
0
370
              -2
390
0
  6
Continuous
 62
               0
100
AcDbCircle
 10
-10.207784259436949
 20
985.1126386805314
 30
0.0
 40
1.9998779296875
  0
HATCH
  5
66
100
AcDbEntity
  8
0
370
              -2
390
0
  6
Continuous
 62
               0
100
AcDbHatch
 10
0.0
 20
0.0
 30
0.0
210
0.0
220
0.0
230
1.0
  2
SOLID
 70
               1
 71
               1
 91
        1
 92
        1
 93
        1
 72
               2
 10
-10.207784259436949
 20
985.1126386805314
 40
1.9998779296875
 50
0.0
 51
360.0
 73
               0
 97
        1
330
65
 75
               0
 76
               1
 98
        1
 10
0.0
 20
0.0
  0
MTEXT
  5
67
100
AcDbEntity
  8
0
390
0
 62
               0
100
AcDbMText
 10
-384.0202859416122
 20
1018.9902558680315
 30
0.0
 40
24.432617187500004
 41
0.0
 71
               1
 72
               1
  1
700
  7
ＭＳ ゴシック
 73
               1
 44
0.7828267384257843
  0
POINT
  5
68
100
AcDbEntity
  8
Defpoints
370
               0
390
0
 62
               0
100
AcDbPoint
 10
-10.207784259436949
 20
560.0
 30
0.0
  0
POINT
  5
69
100
AcDbEntity
  8
Defpoints
370
               0
390
0
 62
               0
100
AcDbPoint
 10
-710.20778425943672
 20
776.1126386805314
 30
0.0
  0
POINT
  5
6A
100
AcDbEntity
  8
Defpoints
370
               0
390
0
 62
               0
100
AcDbPoint
 10
-710.20778425943672
 20
985.1126386805314
 30
0.0
  0
ENDBLK
  5
6B
100
AcDbEntity
  8
notes
390
0
100
AcDbBlockEnd
  0
BLOCK
  5
6C
100
AcDbEntity
  8
notes
390
0
100
AcDbBlockBegin
  2
*D4
 70
               1
 10
0.0
 20
0.0
 30
0.0
  3
*D4
  1

  0
LINE
  5
6D
100
AcDbEntity
  8
0
370
              -2
390
0
  6
Continuous
 62
               0
100
AcDbLine
 10
-46.707784259441041
 20
785.1126386805314
 30
0.0
 11
139.79221574056328
 21
785.1126386805314
 31
0.0
  0
LINE
  5
6E
100
AcDbEntity
  8
0
370
              -2
390
0
  6
Continuous
 62
               0
100
AcDbLine
 10
-145.79857168645685
 20
345.1126386805314
 30
0.0
 11
139.79221574056328
 21
345.1126386805314
 31
0.0
  0
LINE
  5
6F
100
AcDbEntity
  8
0
370
              -2
390
0
  6
Continuous
 62
               0
100
AcDbLine
 10
139.79221574056328
 20
785.1126386805314
 30
0.0
 11
139.79221574056328
 21
345.1126386805314
 31
0.0
  0
CIRCLE
  5
70
102
{ACAD_REACTORS
330
71
102
}
100
AcDbEntity
  8
0
370
              -2
390
0
  6
Continuous
 62
               0
100
AcDbCircle
 10
139.79221574056328
 20
785.1126386805314
 30
0.0
 40
1.9998779296875
  0
HATCH
  5
71
100
AcDbEntity
  8
0
370
              -2
390
0
  6
Continuous
 62
               0
100
AcDbHatch
 10
0.0
 20
0.0
 30
0.0
210
0.0
220
0.0
230
1.0
  2
SOLID
 70
               1
 71
               1
 91
        1
 92
        1
 93
        1
 72
               2
 10
139.79221574056328
 20
785.1126386805314
 40
1.9998779296875
 50
0.0
 51
360.0
 73
               0
 97
        1
330
70
 75
               0
 76
               1
 98
        1
 10
0.0
 20
0.0
  0
CIRCLE
  5
72
102
{ACAD_REACTORS
330
73
102
}
100
AcDbEntity
  8
0
370
              -2
390
0
  6
Continuous
 62
               0
100
AcDbCircle
 10
139.79221574056328
 20
345.1126386805314
 30
0.0
 40
1.9998779296875
  0
HATCH
  5
73
100
AcDbEntity
  8
0
370
              -2
390
0
  6
Continuous
 62
               0
100
AcDbHatch
 10
0.0
 20
0.0
 30
0.0
210
0.0
220
0.0
230
1.0
  2
SOLID
 70
               1
 71
               1
 91
        1
 92
        1
 93
        1
 72
               2
 10
139.79221574056328
 20
345.1126386805314
 40
1.9998779296875
 50
0.0
 51
360.0
 73
               0
 97
        1
330
72
 75
               0
 76
               1
 98
        1
 10
0.0
 20
0.0
  0
MTEXT
  5
74
100
AcDbEntity
  8
0
390
0
 62
               0
100
AcDbMText
 10
105.91459855306334
 20
541.30013699835592
 30
0.0
 40
24.432617187500004
 41
0.0
 71
               1
 72
               1
  1
440
  7
ＭＳ ゴシック
 11
0.0
 21
1.0
 31
0.0
 73
               1
 44
0.7828267384257843
  0
POINT
  5
75
100
AcDbEntity
  8
Defpoints
370
               0
390
0
 62
               0
100
AcDbPoint
 10
-170.79857168645685
 20
345.1126386805314
 30
0.0
  0
POINT
  5
76
100
AcDbEntity
  8
Defpoints
370
               0
390
0
 62
               0
100
AcDbPoint
 10
-71.707784259441041
 20
785.1126386805314
 30
0.0
  0
POINT
  5
77
100
AcDbEntity
  8
Defpoints
370
               0
390
0
 62
               0
100
AcDbPoint
 10
139.79221574056328
 20
785.1126386805314
 30
0.0
  0
ENDBLK
  5
78
100
AcDbEntity
  8
notes
390
0
100
AcDbBlockEnd
  0
BLOCK
  5
79
100
AcDbEntity
  8
notes
390
0
100
AcDbBlockBegin
  2
*D5
 70
               1
 10
0.0
 20
0.0
 30
0.0
  3
*D5
  1

  0
LINE
  5
7A
100
AcDbEntity
  8
0
370
              -2
390
0
  6
Continuous
 62
               0
100
AcDbLine
 10
-65.207784259436949
 20
810.1126386805314
 30
0.0
 11
-65.207784259436949
 21
935.1126386805314
 31
0.0
  0
LINE
  5
7B
100
AcDbEntity
  8
0
370
              -2
390
0
  6
Continuous
 62
               0
100
AcDbLine
 10
-710.20778425943672
 20
810.1126386805314
 30
0.0
 11
-710.20778425943672
 21
935.1126386805314
 31
0.0
  0
LINE
  5
7C
100
AcDbEntity
  8
0
370
              -2
390
0
  6
Continuous
 62
               0
100
AcDbLine
 10
-65.207784259436949
 20
935.1126386805314
 30
0.0
 11
-710.20778425943672
 21
935.1126386805314
 31
0.0
  0
CIRCLE
  5
7D
102
{ACAD_REACTORS
330
7E
102
}
100
AcDbEntity
  8
0
370
              -2
390
0
  6
Continuous
 62
               0
100
AcDbCircle
 10
-65.207784259436949
 20
935.1126386805314
 30
0.0
 40
1.9998779296875
  0
HATCH
  5
7E
100
AcDbEntity
  8
0
370
              -2
390
0
  6
Continuous
 62
               0
100
AcDbHatch
 10
0.0
 20
0.0
 30
0.0
210
0.0
220
0.0
230
1.0
  2
SOLID
 70
               1
 71
               1
 91
        1
 92
        1
 93
        1
 72
               2
 10
-65.207784259436949
 20
935.1126386805314
 40
1.9998779296875
 50
0.0
 51
360.0
 73
               0
 97
        1
330
7D
 75
               0
 76
               1
 98
        1
 10
0.0
 20
0.0
  0
CIRCLE
  5
7F
102
{ACAD_REACTORS
330
80
102
}
100
AcDbEntity
  8
0
370
              -2
390
0
  6
Continuous
 62
               0
100
AcDbCircle
 10
-710.20778425943672
 20
935.1126386805314
 30
0.0
 40
1.9998779296875
  0
HATCH
  5
80
100
AcDbEntity
  8
0
370
              -2
390
0
  6
Continuous
 62
               0
100
AcDbHatch
 10
0.0
 20
0.0
 30
0.0
210
0.0
220
0.0
230
1.0
  2
SOLID
 70
               1
 71
               1
 91
        1
 92
        1
 93
        1
 72
               2
 10
-710.20778425943672
 20
935.1126386805314
 40
1.9998779296875
 50
0.0
 51
360.0
 73
               0
 97
        1
330
7F
 75
               0
 76
               1
 98
        1
 10
0.0
 20
0.0
  0
MTEXT
  5
81
100
AcDbEntity
  8
0
390
0
 62
               0
100
AcDbMText
 10
-409.68818025387873
 20
968.99025586803145
 30
0.0
 40
24.432617187500004
 41
0.0
 71
               1
 72
               1
  1
645
  7
ＭＳ ゴシック
 73
               1
 44
0.7828267384257843
  0
POINT
  5
82
100
AcDbEntity
  8
Defpoints
370
               0
390
0
 62
               0
100
AcDbPoint
 10
-710.20778425943672
 20
785.1126386805314
 30
0.0
  0
POINT
  5
83
100
AcDbEntity
  8
Defpoints
370
               0
390
0
 62
               0
100
AcDbPoint
 10
-65.207784259436949
 20
785.1126386805314
 30
0.0
  0
POINT
  5
84
100
AcDbEntity
  8
Defpoints
370
               0
390
0
 62
               0
100
AcDbPoint
 10
-65.207784259436949
 20
935.1126386805314
 30
0.0
  0
ENDBLK
  5
85
100
AcDbEntity
  8
notes
390
0
100
AcDbBlockEnd
  0
BLOCK
  5
86
100
AcDbEntity
  8
notes
390
0
100
AcDbBlockBegin
  2
*D6
 70
               1
 10
0.0
 20
0.0
 30
0.0
  3
*D6
  1

  0
LINE
  5
87
100
AcDbEntity
  8
0
370
              -2
390
0
  6
Continuous
 62
               0
100
AcDbLine
 10
-243.4189513413553
 20
736.24216897779502
 30
0.0
 11
-204.79857168645731
 21
827.99999999999932
 31
0.0
  0
CIRCLE
  5
88
102
{ACAD_REACTORS
330
89
102
}
100
AcDbEntity
  8
0
370
              -2
390
0
  6
Continuous
 62
               0
100
AcDbCircle
 10
-243.4189513413553
 20
736.24216897779502
 30
0.0
 40
1.9998779296875
  0
HATCH
  5
89
100
AcDbEntity
  8
0
370
              -2
390
0
  6
Continuous
 62
               0
100
AcDbHatch
 10
0.0
 20
0.0
 30
0.0
210
0.0
220
0.0
230
1.0
  2
SOLID
 70
               1
 71
               1
 91
        1
 92
        1
 93
        1
 72
               2
 10
-243.4189513413553
 20
736.24216897779502
 40
1.9998779296875
 50
0.0
 51
360.0
 73
               0
 97
        1
330
88
 75
               0
 76
               1
 98
        1
 10
0.0
 20
0.0
  0
LINE
  5
8A
100
AcDbEntity
  8
0
370
              -2
390
0
  6
Continuous
 62
               0
100
AcDbLine
 10
-204.79857168645731
 20
827.99999999999932
 30
0.0
 11
-81.298571686457308
 21
827.99999999999932
 31
0.0
  0
MTEXT
  5
8B
100
AcDbEntity
  8
0
390
0
 62
               0
100
AcDbMText
 10
-144.79857168645731
 20
861.87761718749925
 30
0.0
 40
24.432617187500004
 41
0.0
 71
               1
 72
               1
  1
φ35
  7
ＭＳ ゴシック
 73
               1
 44
0.7828267384257843
  0
POINT
  5
8C
100
AcDbEntity
  8
Defpoints
370
               0
390
0
 62
               0
100
AcDbPoint
 10
-256.99661717752269
 20
703.98310838326779
 30
0.0
  0
POINT
  5
8D
100
AcDbEntity
  8
Defpoints
370
               0
390
0
 62
               0
100
AcDbPoint
 10
-243.4189513413553
 20
736.24216897779502
 30
0.0
  0
ENDBLK
  5
8E
100
AcDbEntity
  8
notes
390
0
100
AcDbBlockEnd
  0
BLOCK
  5
8F
100
AcDbEntity
  8
notes
390
0
100
AcDbBlockBegin
  2
*D7
 70
               1
 10
0.0
 20
0.0
 30
0.0
  3
*D7
  1

  0
LINE
  5
90
100
AcDbEntity
  8
0
370
              -2
390
0
  6
Continuous
 62
               0
100
AcDbLine
 10
-250.20778425943899
 20
762.6126386805314
 30
0.0
 11
-250.20778425943899
 21
885.1126386805314
 31
0.0
  0
LINE
  5
91
100
AcDbEntity
  8
0
370
              -2
390
0
  6
Continuous
 62
               0
100
AcDbLine
 10
-710.20778425943672
 20
801.1126386805314
 30
0.0
 11
-710.20778425943672
 21
885.1126386805314
 31
0.0
  0
LINE
  5
92
100
AcDbEntity
  8
0
370
              -2
390
0
  6
Continuous
 62
               0
100
AcDbLine
 10
-250.20778425943899
 20
885.1126386805314
 30
0.0
 11
-710.20778425943672
 21
885.1126386805314
 31
0.0
  0
CIRCLE
  5
93
102
{ACAD_REACTORS
330
94
102
}
100
AcDbEntity
  8
0
370
              -2
390
0
  6
Continuous
 62
               0
100
AcDbCircle
 10
-250.20778425943899
 20
885.1126386805314
 30
0.0
 40
1.9998779296875
  0
HATCH
  5
94
100
AcDbEntity
  8
0
370
              -2
390
0
  6
Continuous
 62
               0
100
AcDbHatch
 10
0.0
 20
0.0
 30
0.0
210
0.0
220
0.0
230
1.0
  2
SOLID
 70
               1
 71
               1
 91
        1
 92
        1
 93
        1
 72
               2
 10
-250.20778425943899
 20
885.1126386805314
 40
1.9998779296875
 50
0.0
 51
360.0
 73
               0
 97
        1
330
93
 75
               0
 76
               1
 98
        1
 10
0.0
 20
0.0
  0
CIRCLE
  5
95
102
{ACAD_REACTORS
330
96
102
}
100
AcDbEntity
  8
0
370
              -2
390
0
  6
Continuous
 62
               0
100
AcDbCircle
 10
-710.20778425943672
 20
885.1126386805314
 30
0.0
 40
1.9998779296875
  0
HATCH
  5
96
100
AcDbEntity
  8
0
370
              -2
390
0
  6
Continuous
 62
               0
100
AcDbHatch
 10
0.0
 20
0.0
 30
0.0
210
0.0
220
0.0
230
1.0
  2
SOLID
 70
               1
 71
               1
 91
        1
 92
        1
 93
        1
 72
               2
 10
-710.20778425943672
 20
885.1126386805314
 40
1.9998779296875
 50
0.0
 51
360.0
 73
               0
 97
        1
330
95
 75
               0
 76
               1
 98
        1
 10
0.0
 20
0.0
  0
MTEXT
  5
97
100
AcDbEntity
  8
0
390
0
 62
               0
100
AcDbMText
 10
-504.02028594161334
 20
918.99025586803145
 30
0.0
 40
24.432617187500004
 41
0.0
 71
               1
 72
               1
  1
460
  7
ＭＳ ゴシック
 73
               1
 44
0.7828267384257843
  0
POINT
  5
98
100
AcDbEntity
  8
Defpoints
370
               0
390
0
 62
               0
100
AcDbPoint
 10
-710.20778425943672
 20
776.1126386805314
 30
0.0
  0
POINT
  5
99
100
AcDbEntity
  8
Defpoints
370
               0
390
0
 62
               0
100
AcDbPoint
 10
-250.20778425943899
 20
737.6126386805314
 30
0.0
  0
POINT
  5
9A
100
AcDbEntity
  8
Defpoints
370
               0
390
0
 62
               0
100
AcDbPoint
 10
-250.20778425943899
 20
885.1126386805314
 30
0.0
  0
ENDBLK
  5
9B
100
AcDbEntity
  8
notes
390
0
100
AcDbBlockEnd
  0
BLOCK
  5
9C
100
AcDbEntity
  8
notes
390
0
100
AcDbBlockBegin
  2
*D8
 70
               1
 10
0.0
 20
0.0
 30
0.0
  3
*D8
  1

  0
LINE
  5
9D
100
AcDbEntity
  8
0
370
              -2
390
0
  6
Continuous
 62
               0
100
AcDbLine
 10
-460.20778425943695
 20
381.95555773781575
 30
0.0
 11
-460.20778425943695
 21
245.11263868053129
 31
0.0
  0
LINE
  5
9E
100
AcDbEntity
  8
0
370
              -2
390
0
  6
Continuous
 62
               0
100
AcDbLine
 10
-35.207784259436949
 20
381.95555773781575
 30
0.0
 11
-35.207784259436949
 21
245.11263868053129
 31
0.0
  0
LINE
  5
9F
100
AcDbEntity
  8
0
370
              -2
390
0
  6
Continuous
 62
               0
100
AcDbLine
 10
-460.20778425943695
 20
245.11263868053129
 30
0.0
 11
-35.207784259436949
 21
245.11263868053129
 31
0.0
  0
CIRCLE
  5
A0
102
{ACAD_REACTORS
330
A1
102
}
100
AcDbEntity
  8
0
370
              -2
390
0
  6
Continuous
 62
               0
100
AcDbCircle
 10
-460.20778425943695
 20
245.11263868053129
 30
0.0
 40
1.9998779296875
  0
HATCH
  5
A1
100
AcDbEntity
  8
0
370
              -2
390
0
  6
Continuous
 62
               0
100
AcDbHatch
 10
0.0
 20
0.0
 30
0.0
210
0.0
220
0.0
230
1.0
  2
SOLID
 70
               1
 71
               1
 91
        1
 92
        1
 93
        1
 72
               2
 10
-460.20778425943695
 20
245.11263868053129
 40
1.9998779296875
 50
0.0
 51
360.0
 73
               0
 97
        1
330
A0
 75
               0
 76
               1
 98
        1
 10
0.0
 20
0.0
  0
CIRCLE
  5
A2
102
{ACAD_REACTORS
330
A3
102
}
100
AcDbEntity
  8
0
370
              -2
390
0
  6
Continuous
 62
               0
100
AcDbCircle
 10
-35.207784259436949
 20
245.11263868053129
 30
0.0
 40
1.9998779296875
  0
HATCH
  5
A3
100
AcDbEntity
  8
0
370
              -2
390
0
  6
Continuous
 62
               0
100
AcDbHatch
 10
0.0
 20
0.0
 30
0.0
210
0.0
220
0.0
230
1.0
  2
SOLID
 70
               1
 71
               1
 91
        1
 92
        1
 93
        1
 72
               2
 10
-35.207784259436949
 20
245.11263868053129
 40
1.9998779296875
 50
0.0
 51
360.0
 73
               0
 97
        1
330
A2
 75
               0
 76
               1
 98
        1
 10
0.0
 20
0.0
  0
MTEXT
  5
A4
100
AcDbEntity
  8
0
390
0
 62
               0
100
AcDbMText
 10
-271.52028594161243
 20
278.99025586803134
 30
0.0
 40
24.432617187500004
 41
0.0
 71
               1
 72
               1
  1
425
  7
ＭＳ ゴシック
 73
               1
 44
0.7828267384257843
  0
POINT
  5
A5
100
AcDbEntity
  8
Defpoints
370
               0
390
0
 62
               0
100
AcDbPoint
 10
-35.207784259436949
 20
406.95555773781575
 30
0.0
  0
POINT
  5
A6
100
AcDbEntity
  8
Defpoints
370
               0
390
0
 62
               0
100
AcDbPoint
 10
-460.20778425943695
 20
406.95555773781575
 30
0.0
  0
POINT
  5
A7
100
AcDbEntity
  8
Defpoints
370
               0
390
0
 62
               0
100
AcDbPoint
 10
-460.20778425943695
 20
245.11263868053129
 30
0.0
  0
ENDBLK
  5
A8
100
AcDbEntity
  8
notes
390
0
100
AcDbBlockEnd
  0
BLOCK
  5
A9
100
AcDbEntity
  8
notes
390
0
100
AcDbBlockBegin
  2
*D9
 70
               1
 10
0.0
 20
0.0
 30
0.0
  3
*D9
  1

  0
LINE
  5
AA
100
AcDbEntity
  8
0
370
              -2
390
0
  6
Continuous
 62
               0
100
AcDbLine
 10
862.54026744123973
 20
-405.80955920301676
 30
0.0
 11
862.54026744123973
 21
-330.80955920301881
 31
0.0
  0
LINE
  5
AB
100
AcDbEntity
  8
0
370
              -2
390
0
  6
Continuous
 62
               0
100
AcDbLine
 10
797.54026744123973
 20
-405.80955920302313
 30
0.0
 11
797.54026744123973
 21
-330.80955920301881
 31
0.0
  0
LINE
  5
AC
100
AcDbEntity
  8
0
370
              -2
390
0
  6
Continuous
 62
               0
100
AcDbLine
 10
862.54026744123973
 20
-330.80955920301881
 30
0.0
 11
797.54026744123973
 21
-330.80955920301881
 31
0.0
  0
CIRCLE
  5
AD
102
{ACAD_REACTORS
330
AE
102
}
100
AcDbEntity
  8
0
370
              -2
390
0
  6
Continuous
 62
               0
100
AcDbCircle
 10
862.54026744123973
 20
-330.80955920301881
 30
0.0
 40
1.9998779296875
  0
HATCH
  5
AE
100
AcDbEntity
  8
0
370
              -2
390
0
  6
Continuous
 62
               0
100
AcDbHatch
 10
0.0
 20
0.0
 30
0.0
210
0.0
220
0.0
230
1.0
  2
SOLID
 70
               1
 71
               1
 91
        1
 92
        1
 93
        1
 72
               2
 10
862.54026744123973
 20
-330.80955920301881
 40
1.9998779296875
 50
0.0
 51
360.0
 73
               0
 97
        1
330
AD
 75
               0
 76
               1
 98
        1
 10
0.0
 20
0.0
  0
CIRCLE
  5
AF
102
{ACAD_REACTORS
330
B0
102
}
100
AcDbEntity
  8
0
370
              -2
390
0
  6
Continuous
 62
               0
100
AcDbCircle
 10
797.54026744123973
 20
-330.80955920301881
 30
0.0
 40
1.9998779296875
  0
HATCH
  5
B0
100
AcDbEntity
  8
0
370
              -2
390
0
  6
Continuous
 62
               0
100
AcDbHatch
 10
0.0
 20
0.0
 30
0.0
210
0.0
220
0.0
230
1.0
  2
SOLID
 70
               1
 71
               1
 91
        1
 92
        1
 93
        1
 72
               2
 10
797.54026744123973
 20
-330.80955920301881
 40
1.9998779296875
 50
0.0
 51
360.0
 73
               0
 97
        1
330
AF
 75
               0
 76
               1
 98
        1
 10
0.0
 20
0.0
  0
MTEXT
  5
B1
100
AcDbEntity
  8
0
390
0
 62
               0
100
AcDbMText
 10
814.16526744123973
 20
-296.93194201551887
 30
0.0
 40
24.432617187500004
 41
0.0
 71
               1
 72
               1
  1
65
  7
ＭＳ ゴシック
 73
               1
 44
0.7828267384257843
  0
POINT
  5
B2
100
AcDbEntity
  8
Defpoints
370
               0
390
0
 62
               0
100
AcDbPoint
 10
797.54026744123973
 20
-430.80955920302313
 30
0.0
  0
POINT
  5
B3
100
AcDbEntity
  8
Defpoints
370
               0
390
0
 62
               0
100
AcDbPoint
 10
862.54026744123973
 20
-430.80955920301676
 30
0.0
  0
POINT
  5
B4
100
AcDbEntity
  8
Defpoints
370
               0
390
0
 62
               0
100
AcDbPoint
 10
862.54026744123973
 20
-330.80955920301881
 30
0.0
  0
ENDBLK
  5
B5
100
AcDbEntity
  8
notes
390
0
100
AcDbBlockEnd
  0
BLOCK
  5
B6
100
AcDbEntity
  8
notes
390
0
100
AcDbBlockBegin
  2
*D10
 70
               1
 10
0.0
 20
0.0
 30
0.0
  3
*D10
  1

  0
LINE
  5
B7
100
AcDbEntity
  8
0
370
              -2
390
0
  6
Continuous
 62
               0
100
AcDbLine
 10
-185.20778425943695
 20
-435.79999999999995
 30
0.0
 11
-185.20778425943695
 21
-330.80955920301903
 31
0.0
  0
LINE
  5
B8
100
AcDbEntity
  8
0
370
              -2
390
0
  6
Continuous
 62
               0
100
AcDbLine
 10
-510.20778425943672
 20
-435.79999999999995
 30
0.0
 11
-510.20778425943672
 21
-330.80955920301903
 31
0.0
  0
LINE
  5
B9
100
AcDbEntity
  8
0
370
              -2
390
0
  6
Continuous
 62
               0
100
AcDbLine
 10
-185.20778425943695
 20
-330.80955920301903
 30
0.0
 11
-510.20778425943672
 21
-330.80955920301903
 31
0.0
  0
CIRCLE
  5
BA
102
{ACAD_REACTORS
330
BB
102
}
100
AcDbEntity
  8
0
370
              -2
390
0
  6
Continuous
 62
               0
100
AcDbCircle
 10
-185.20778425943695
 20
-330.80955920301903
 30
0.0
 40
1.9998779296875
  0
HATCH
  5
BB
100
AcDbEntity
  8
0
370
              -2
390
0
  6
Continuous
 62
               0
100
AcDbHatch
 10
0.0
 20
0.0
 30
0.0
210
0.0
220
0.0
230
1.0
  2
SOLID
 70
               1
 71
               1
 91
        1
 92
        1
 93
        1
 72
               2
 10
-185.20778425943695
 20
-330.80955920301903
 40
1.9998779296875
 50
0.0
 51
360.0
 73
               0
 97
        1
330
BA
 75
               0
 76
               1
 98
        1
 10
0.0
 20
0.0
  0
CIRCLE
  5
BC
102
{ACAD_REACTORS
330
BD
102
}
100
AcDbEntity
  8
0
370
              -2
390
0
  6
Continuous
 62
               0
100
AcDbCircle
 10
-510.20778425943672
 20
-330.80955920301903
 30
0.0
 40
1.9998779296875
  0
HATCH
  5
BD
100
AcDbEntity
  8
0
370
              -2
390
0
  6
Continuous
 62
               0
100
AcDbHatch
 10
0.0
 20
0.0
 30
0.0
210
0.0
220
0.0
230
1.0
  2
SOLID
 70
               1
 71
               1
 91
        1
 92
        1
 93
        1
 72
               2
 10
-510.20778425943672
 20
-330.80955920301903
 40
1.9998779296875
 50
0.0
 51
360.0
 73
               0
 97
        1
330
BC
 75
               0
 76
               1
 98
        1
 10
0.0
 20
0.0
  0
MTEXT
  5
BE
100
AcDbEntity
  8
0
390
0
 62
               0
100
AcDbMText
 10
-371.5202859416122
 20
-296.9319420155191
 30
0.0
 40
24.432617187500004
 41
0.0
 71
               1
 72
               1
  1
325
  7
ＭＳ ゴシック
 73
               1
 44
0.7828267384257843
  0
POINT
  5
BF
100
AcDbEntity
  8
Defpoints
370
               0
390
0
 62
               0
100
AcDbPoint
 10
-510.20778425943672
 20
-460.79999999999995
 30
0.0
  0
POINT
  5
C0
100
AcDbEntity
  8
Defpoints
370
               0
390
0
 62
               0
100
AcDbPoint
 10
-185.20778425943695
 20
-460.79999999999995
 30
0.0
  0
POINT
  5
C1
100
AcDbEntity
  8
Defpoints
370
               0
390
0
 62
               0
100
AcDbPoint
 10
-185.20778425943695
 20
-330.80955920301903
 30
0.0
  0
ENDBLK
  5
C2
100
AcDbEntity
  8
notes
390
0
100
AcDbBlockEnd
  0
BLOCK
  5
C3
100
AcDbEntity
  8
notes
390
0
100
AcDbBlockBegin
  2
*D11
 70
               1
 10
0.0
 20
0.0
 30
0.0
  3
*D11
  1

  0
LINE
  5
C4
100
AcDbEntity
  8
0
370
              -2
390
0
  6
Continuous
 62
               0
100
AcDbLine
 10
-510.20778425943672
 20
-455.79999999999995
 30
0.0
 11
-510.20778425943672
 21
-330.80955920301903
 31
0.0
  0
LINE
  5
C5
100
AcDbEntity
  8
0
370
              -2
390
0
  6
Continuous
 62
               0
100
AcDbLine
 10
-710.20778425943672
 20
-405.80955920301903
 30
0.0
 11
-710.20778425943672
 21
-330.80955920301903
 31
0.0
  0
LINE
  5
C6
100
AcDbEntity
  8
0
370
              -2
390
0
  6
Continuous
 62
               0
100
AcDbLine
 10
-510.20778425943672
 20
-330.80955920301903
 30
0.0
 11
-710.20778425943672
 21
-330.80955920301903
 31
0.0
  0
CIRCLE
  5
C7
102
{ACAD_REACTORS
330
C8
102
}
100
AcDbEntity
  8
0
370
              -2
390
0
  6
Continuous
 62
               0
100
AcDbCircle
 10
-510.20778425943672
 20
-330.80955920301903
 30
0.0
 40
1.9998779296875
  0
HATCH
  5
C8
100
AcDbEntity
  8
0
370
              -2
390
0
  6
Continuous
 62
               0
100
AcDbHatch
 10
0.0
 20
0.0
 30
0.0
210
0.0
220
0.0
230
1.0
  2
SOLID
 70
               1
 71
               1
 91
        1
 92
        1
 93
        1
 72
               2
 10
-510.20778425943672
 20
-330.80955920301903
 40
1.9998779296875
 50
0.0
 51
360.0
 73
               0
 97
        1
330
C7
 75
               0
 76
               1
 98
        1
 10
0.0
 20
0.0
  0
CIRCLE
  5
C9
102
{ACAD_REACTORS
330
CA
102
}
100
AcDbEntity
  8
0
370
              -2
390
0
  6
Continuous
 62
               0
100
AcDbCircle
 10
-710.20778425943672
 20
-330.80955920301903
 30
0.0
 40
1.9998779296875
  0
HATCH
  5
CA
100
AcDbEntity
  8
0
370
              -2
390
0
  6
Continuous
 62
               0
100
AcDbHatch
 10
0.0
 20
0.0
 30
0.0
210
0.0
220
0.0
230
1.0
  2
SOLID
 70
               1
 71
               1
 91
        1
 92
        1
 93
        1
 72
               2
 10
-710.20778425943672
 20
-330.80955920301903
 40
1.9998779296875
 50
0.0
 51
360.0
 73
               0
 97
        1
330
C9
 75
               0
 76
               1
 98
        1
 10
0.0
 20
0.0
  0
MTEXT
  5
CB
100
AcDbEntity
  8
0
390
0
 62
               0
100
AcDbMText
 10
-634.0202859416122
 20
-296.9319420155191
 30
0.0
 40
24.432617187500004
 41
0.0
 71
               1
 72
               1
  1
200
  7
ＭＳ ゴシック
 73
               1
 44
0.7828267384257843
  0
POINT
  5
CC
100
AcDbEntity
  8
Defpoints
370
               0
390
0
 62
               0
100
AcDbPoint
 10
-710.20778425943672
 20
-430.80955920301903
 30
0.0
  0
POINT
  5
CD
100
AcDbEntity
  8
Defpoints
370
               0
390
0
 62
               0
100
AcDbPoint
 10
-510.20778425943672
 20
-480.79999999999995
 30
0.0
  0
POINT
  5
CE
100
AcDbEntity
  8
Defpoints
370
               0
390
0
 62
               0
100
AcDbPoint
 10
-510.20778425943672
 20
-330.80955920301903
 30
0.0
  0
ENDBLK
  5
CF
100
AcDbEntity
  8
notes
390
0
100
AcDbBlockEnd
  0
BLOCK
  5
D0
100
AcDbEntity
  8
notes
390
0
100
AcDbBlockBegin
  2
*D12
 70
               1
 10
0.0
 20
0.0
 30
0.0
  3
*D12
  1

  0
LINE
  5
D1
100
AcDbEntity
  8
0
370
              -2
390
0
  6
Continuous
 62
               0
100
AcDbLine
 10
-460.20778425943695
 20
383.05400715052394
 30
0.0
 11
-460.20778425943695
 21
245.1126386805314
 31
0.0
  0
LINE
  5
D2
100
AcDbEntity
  8
0
370
              -2
390
0
  6
Continuous
 62
               0
100
AcDbLine
 10
-710.20778425943672
 20
409.1126386805314
 30
0.0
 11
-710.20778425943672
 21
245.1126386805314
 31
0.0
  0
LINE
  5
D3
100
AcDbEntity
  8
0
370
              -2
390
0
  6
Continuous
 62
               0
100
AcDbLine
 10
-460.20778425943695
 20
245.1126386805314
 30
0.0
 11
-710.20778425943672
 21
245.1126386805314
 31
0.0
  0
CIRCLE
  5
D4
102
{ACAD_REACTORS
330
D5
102
}
100
AcDbEntity
  8
0
370
              -2
390
0
  6
Continuous
 62
               0
100
AcDbCircle
 10
-460.20778425943695
 20
245.1126386805314
 30
0.0
 40
1.9998779296875
  0
HATCH
  5
D5
100
AcDbEntity
  8
0
370
              -2
390
0
  6
Continuous
 62
               0
100
AcDbHatch
 10
0.0
 20
0.0
 30
0.0
210
0.0
220
0.0
230
1.0
  2
SOLID
 70
               1
 71
               1
 91
        1
 92
        1
 93
        1
 72
               2
 10
-460.20778425943695
 20
245.1126386805314
 40
1.9998779296875
 50
0.0
 51
360.0
 73
               0
 97
        1
330
D4
 75
               0
 76
               1
 98
        1
 10
0.0
 20
0.0
  0
CIRCLE
  5
D6
102
{ACAD_REACTORS
330
D7
102
}
100
AcDbEntity
  8
0
370
              -2
390
0
  6
Continuous
 62
               0
100
AcDbCircle
 10
-710.20778425943672
 20
245.1126386805314
 30
0.0
 40
1.9998779296875
  0
HATCH
  5
D7
100
AcDbEntity
  8
0
370
              -2
390
0
  6
Continuous
 62
               0
100
AcDbHatch
 10
0.0
 20
0.0
 30
0.0
210
0.0
220
0.0
230
1.0
  2
SOLID
 70
               1
 71
               1
 91
        1
 92
        1
 93
        1
 72
               2
 10
-710.20778425943672
 20
245.1126386805314
 40
1.9998779296875
 50
0.0
 51
360.0
 73
               0
 97
        1
330
D6
 75
               0
 76
               1
 98
        1
 10
0.0
 20
0.0
  0
MTEXT
  5
D8
100
AcDbEntity
  8
0
390
0
 62
               0
100
AcDbMText
 10
-609.0202859416122
 20
278.99025586803145
 30
0.0
 40
24.432617187500004
 41
0.0
 71
               1
 72
               1
  1
250
  7
ＭＳ ゴシック
 73
               1
 44
0.7828267384257843
  0
POINT
  5
D9
100
AcDbEntity
  8
Defpoints
370
               0
390
0
 62
               0
100
AcDbPoint
 10
-710.20778425943672
 20
434.1126386805314
 30
0.0
  0
POINT
  5
DA
100
AcDbEntity
  8
Defpoints
370
               0
390
0
 62
               0
100
AcDbPoint
 10
-460.20778425943695
 20
408.05400715052394
 30
0.0
  0
POINT
  5
DB
100
AcDbEntity
  8
Defpoints
370
               0
390
0
 62
               0
100
AcDbPoint
 10
-460.20778425943695
 20
245.1126386805314
 30
0.0
  0
ENDBLK
  5
DC
100
AcDbEntity
  8
notes
390
0
100
AcDbBlockEnd
  0
BLOCK
  5
DD
100
AcDbEntity
  8
notes
390
0
100
AcDbBlockBegin
  2
*D13
 70
               1
 10
0.0
 20
0.0
 30
0.0
  3
*D13
  1

  0
LINE
  5
DE
100
AcDbEntity
  8
0
370
              -2
390
0
  6
Continuous
 62
               0
100
AcDbLine
 10
402.31780605690574
 20
-430.80955920302176
 30
0.0
 11
322.4184402016117
 21
-430.80955920302176
 31
0.0
  0
LINE
  5
DF
100
AcDbEntity
  8
0
370
              -2
390
0
  6
Continuous
 62
               0
100
AcDbLine
 10
591.76223730331026
 20
-640.80955920302176
 30
0.0
 11
322.4184402016117
 21
-640.80955920302176
 31
0.0
  0
LINE
  5
E0
100
AcDbEntity
  8
0
370
              -2
390
0
  6
Continuous
 62
               0
100
AcDbLine
 10
322.4184402016117
 20
-430.80955920302176
 30
0.0
 11
322.4184402016117
 21
-640.80955920302176
 31
0.0
  0
CIRCLE
  5
E1
102
{ACAD_REACTORS
330
E2
102
}
100
AcDbEntity
  8
0
370
              -2
390
0
  6
Continuous
 62
               0
100
AcDbCircle
 10
322.4184402016117
 20
-430.80955920302176
 30
0.0
 40
1.9998779296875
  0
HATCH
  5
E2
100
AcDbEntity
  8
0
370
              -2
390
0
  6
Continuous
 62
               0
100
AcDbHatch
 10
0.0
 20
0.0
 30
0.0
210
0.0
220
0.0
230
1.0
  2
SOLID
 70
               1
 71
               1
 91
        1
 92
        1
 93
        1
 72
               2
 10
322.4184402016117
 20
-430.80955920302176
 40
1.9998779296875
 50
0.0
 51
360.0
 73
               0
 97
        1
330
E1
 75
               0
 76
               1
 98
        1
 10
0.0
 20
0.0
  0
CIRCLE
  5
E3
102
{ACAD_REACTORS
330
E4
102
}
100
AcDbEntity
  8
0
370
              -2
390
0
  6
Continuous
 62
               0
100
AcDbCircle
 10
322.4184402016117
 20
-640.80955920302176
 30
0.0
 40
1.9998779296875
  0
HATCH
  5
E4
100
AcDbEntity
  8
0
370
              -2
390
0
  6
Continuous
 62
               0
100
AcDbHatch
 10
0.0
 20
0.0
 30
0.0
210
0.0
220
0.0
230
1.0
  2
SOLID
 70
               1
 71
               1
 91
        1
 92
        1
 93
        1
 72
               2
 10
322.4184402016117
 20
-640.80955920302176
 40
1.9998779296875
 50
0.0
 51
360.0
 73
               0
 97
        1
330
E3
 75
               0
 76
               1
 98
        1
 10
0.0
 20
0.0
  0
MTEXT
  5
E5
100
AcDbEntity
  8
0
390
0
 62
               0
100
AcDbMText
 10
288.54082301411177
 20
-559.62206088519724
 30
0.0
 40
24.432617187500004
 41
0.0
 71
               1
 72
               1
  1
210
  7
ＭＳ ゴシック
 11
0.0
 21
1.0
 31
0.0
 73
               1
 44
0.7828267384257843
  0
POINT
  5
E6
100
AcDbEntity
  8
Defpoints
370
               0
390
0
 62
               0
100
AcDbPoint
 10
616.76223730331026
 20
-640.80955920302176
 30
0.0
  0
POINT
  5
E7
100
AcDbEntity
  8
Defpoints
370
               0
390
0
 62
               0
100
AcDbPoint
 10
427.31780605690574
 20
-430.80955920302176
 30
0.0
  0
POINT
  5
E8
100
AcDbEntity
  8
Defpoints
370
               0
390
0
 62
               0
100
AcDbPoint
 10
322.4184402016117
 20
-430.80955920302176
 30
0.0
  0
ENDBLK
  5
E9
100
AcDbEntity
  8
notes
390
0
100
AcDbBlockEnd
  0
BLOCK
  5
EA
100
AcDbEntity
  8
notes
390
0
100
AcDbBlockBegin
  2
*D14
 70
               1
 10
0.0
 20
0.0
 30
0.0
  3
*D14
  1

  0
LINE
  5
EB
100
AcDbEntity
  8
0
370
              -2
390
0
  6
Continuous
 62
               0
100
AcDbLine
 10
9.5233151141546841
 20
-430.80955920301903
 30
0.0
 11
89.792215740563279
 21
-430.80955920301903
 31
0.0
  0
LINE
  5
EC
100
AcDbEntity
  8
0
370
              -2
390
0
  6
Continuous
 62
               0
100
AcDbLine
 10
-115.20778425944036
 20
-635.80955920301903
 30
0.0
 11
89.792215740563279
 21
-635.80955920301903
 31
0.0
  0
LINE
  5
ED
100
AcDbEntity
  8
0
370
              -2
390
0
  6
Continuous
 62
               0
100
AcDbLine
 10
89.792215740563279
 20
-430.80955920301903
 30
0.0
 11
89.792215740563279
 21
-635.80955920301903
 31
0.0
  0
CIRCLE
  5
EE
102
{ACAD_REACTORS
330
EF
102
}
100
AcDbEntity
  8
0
370
              -2
390
0
  6
Continuous
 62
               0
100
AcDbCircle
 10
89.792215740563279
 20
-430.80955920301903
 30
0.0
 40
1.9998779296875
  0
HATCH
  5
EF
100
AcDbEntity
  8
0
370
              -2
390
0
  6
Continuous
 62
               0
100
AcDbHatch
 10
0.0
 20
0.0
 30
0.0
210
0.0
220
0.0
230
1.0
  2
SOLID
 70
               1
 71
               1
 91
        1
 92
        1
 93
        1
 72
               2
 10
89.792215740563279
 20
-430.80955920301903
 40
1.9998779296875
 50
0.0
 51
360.0
 73
               0
 97
        1
330
EE
 75
               0
 76
               1
 98
        1
 10
0.0
 20
0.0
  0
CIRCLE
  5
F0
102
{ACAD_REACTORS
330
F1
102
}
100
AcDbEntity
  8
0
370
              -2
390
0
  6
Continuous
 62
               0
100
AcDbCircle
 10
89.792215740563279
 20
-635.80955920301903
 30
0.0
 40
1.9998779296875
  0
HATCH
  5
F1
100
AcDbEntity
  8
0
370
              -2
390
0
  6
Continuous
 62
               0
100
AcDbHatch
 10
0.0
 20
0.0
 30
0.0
210
0.0
220
0.0
230
1.0
  2
SOLID
 70
               1
 71
               1
 91
        1
 92
        1
 93
        1
 72
               2
 10
89.792215740563279
 20
-635.80955920301903
 40
1.9998779296875
 50
0.0
 51
360.0
 73
               0
 97
        1
330
F0
 75
               0
 76
               1
 98
        1
 10
0.0
 20
0.0
  0
MTEXT
  5
F2
100
AcDbEntity
  8
0
390
0
 62
               0
100
AcDbMText
 10
55.914598553063342
 20
-557.12206088519451
 30
0.0
 40
24.432617187500004
 41
0.0
 71
               1
 72
               1
  1
205
  7
ＭＳ ゴシック
 11
0.0
 21
1.0
 31
0.0
 73
               1
 44
0.7828267384257843
  0
POINT
  5
F3
100
AcDbEntity
  8
Defpoints
370
               0
390
0
 62
               0
100
AcDbPoint
 10
-140.20778425944036
 20
-635.80955920301903
 30
0.0
  0
POINT
  5
F4
100
AcDbEntity
  8
Defpoints
370
               0
390
0
 62
               0
100
AcDbPoint
 10
-15.476684885845316
 20
-430.80955920301903
 30
0.0
  0
POINT
  5
F5
100
AcDbEntity
  8
Defpoints
370
               0
390
0
 62
               0
100
AcDbPoint
 10
89.792215740563279
 20
-430.80955920301903
 30
0.0
  0
ENDBLK
  5
F6
100
AcDbEntity
  8
notes
390
0
100
AcDbBlockEnd
  0
BLOCK
  5
F7
100
AcDbEntity
  8
notes
390
0
100
AcDbBlockBegin
  2
*D15
 70
               1
 10
0.0
 20
0.0
 30
0.0
  3
*D15
  1

  0
LINE
  5
F8
100
AcDbEntity
  8
0
370
              -2
390
0
  6
Continuous
 62
               0
100
AcDbLine
 10
-115.20778425944036
 20
-635.80955920301903
 30
0.0
 11
89.792215740563279
 21
-635.80955920301903
 31
0.0
  0
LINE
  5
F9
100
AcDbEntity
  8
0
370
              -2
390
0
  6
Continuous
 62
               0
100
AcDbLine
 10
-185.2077842594399
 20
-640.80955920301903
 30
0.0
 11
89.792215740563279
 21
-640.80955920301903
 31
0.0
  0
LINE
  5
FA
100
AcDbEntity
  8
0
370
              -2
390
0
  6
Continuous
 62
               0
100
AcDbLine
 10
89.792215740563279
 20
-640.80955920301903
 30
0.0
 11
89.792215740563279
 21
-662.12205920301903
 31
0.0
  0
LINE
  5
FB
100
AcDbEntity
  8
0
370
              -2
390
0
  6
Continuous
 62
               0
100
AcDbLine
 10
89.792215740563279
 20
-635.80955920301903
 30
0.0
 11
89.792215740563279
 21
-640.80955920301903
 31
0.0
  0
CIRCLE
  5
FC
102
{ACAD_REACTORS
330
FD
102
}
100
AcDbEntity
  8
0
370
              -2
390
0
  6
Continuous
 62
               0
100
AcDbCircle
 10
89.792215740563279
 20
-635.80955920301903
 30
0.0
 40
1.9998779296875
  0
HATCH
  5
FD
100
AcDbEntity
  8
0
370
              -2
390
0
  6
Continuous
 62
               0
100
AcDbHatch
 10
0.0
 20
0.0
 30
0.0
210
0.0
220
0.0
230
1.0
  2
SOLID
 70
               1
 71
               1
 91
        1
 92
        1
 93
        1
 72
               2
 10
89.792215740563279
 20
-635.80955920301903
 40
1.9998779296875
 50
0.0
 51
360.0
 73
               0
 97
        1
330
FC
 75
               0
 76
               1
 98
        1
 10
0.0
 20
0.0
  0
CIRCLE
  5
FE
102
{ACAD_REACTORS
330
FF
102
}
100
AcDbEntity
  8
0
370
              -2
390
0
  6
Continuous
 62
               0
100
AcDbCircle
 10
89.792215740563279
 20
-640.80955920301903
 30
0.0
 40
1.9998779296875
  0
HATCH
  5
FF
100
AcDbEntity
  8
0
370
              -2
390
0
  6
Continuous
 62
               0
100
AcDbHatch
 10
0.0
 20
0.0
 30
0.0
210
0.0
220
0.0
230
1.0
  2
SOLID
 70
               1
 71
               1
 91
        1
 92
        1
 93
        1
 72
               2
 10
89.792215740563279
 20
-640.80955920301903
 40
1.9998779296875
 50
0.0
 51
360.0
 73
               0
 97
        1
330
FE
 75
               0
 76
               1
 98
        1
 10
0.0
 20
0.0
  0
MTEXT
  5
100
100
AcDbEntity
  8
0
390
0
 62
               0
100
AcDbMText
 10
55.914598553063342
 20
-662.12205920301903
 30
0.0
 40
24.432617187500004
 41
0.0
 71
               1
 72
               1
  1
5
  7
ＭＳ ゴシック
 11
0.0
 21
1.0
 31
0.0
 73
               1
 44
0.7828267384257843
  0
POINT
  5
101
100
AcDbEntity
  8
Defpoints
370
               0
390
0
 62
               0
100
AcDbPoint
 10
-210.2077842594399
 20
-640.80955920301903
 30
0.0
  0
POINT
  5
102
100
AcDbEntity
  8
Defpoints
370
               0
390
0
 62
               0
100
AcDbPoint
 10
-140.20778425944036
 20
-635.80955920301903
 30
0.0
  0
POINT
  5
103
100
AcDbEntity
  8
Defpoints
370
               0
390
0
 62
               0
100
AcDbPoint
 10
89.792215740563279
 20
-635.80955920301903
 30
0.0
  0
ENDBLK
  5
104
100
AcDbEntity
  8
notes
390
0
100
AcDbBlockEnd
  0
BLOCK
  5
105
100
AcDbEntity
  8
notes
390
0
100
AcDbBlockBegin
  2
*D16
 70
               1
 10
0.0
 20
0.0
 30
0.0
  3
*D16
  1

  0
LINE
  5
106
100
AcDbEntity
  8
0
370
              -2
390
0
  6
Continuous
 62
               0
100
AcDbLine
 10
-46.707784259441041
 20
785.1126386805314
 30
0.0
 11
89.792215740563279
 21
785.1126386805314
 31
0.0
  0
LINE
  5
107
100
AcDbEntity
  8
0
370
              -2
390
0
  6
Continuous
 62
               0
100
AcDbLine
 10
-34.116996832421137
 20
660.1126386805314
 30
0.0
 11
89.792215740563279
 21
660.1126386805314
 31
0.0
  0
LINE
  5
108
100
AcDbEntity
  8
0
370
              -2
390
0
  6
Continuous
 62
               0
100
AcDbLine
 10
89.792215740563279
 20
785.1126386805314
 30
0.0
 11
89.792215740563279
 21
660.1126386805314
 31
0.0
  0
CIRCLE
  5
109
102
{ACAD_REACTORS
330
10A
102
}
100
AcDbEntity
  8
0
370
              -2
390
0
  6
Continuous
 62
               0
100
AcDbCircle
 10
89.792215740563279
 20
785.1126386805314
 30
0.0
 40
1.9998779296875
  0
HATCH
  5
10A
100
AcDbEntity
  8
0
370
              -2
390
0
  6
Continuous
 62
               0
100
AcDbHatch
 10
0.0
 20
0.0
 30
0.0
210
0.0
220
0.0
230
1.0
  2
SOLID
 70
               1
 71
               1
 91
        1
 92
        1
 93
        1
 72
               2
 10
89.792215740563279
 20
785.1126386805314
 40
1.9998779296875
 50
0.0
 51
360.0
 73
               0
 97
        1
330
109
 75
               0
 76
               1
 98
        1
 10
0.0
 20
0.0
  0
CIRCLE
  5
10B
102
{ACAD_REACTORS
330
10C
102
}
100
AcDbEntity
  8
0
370
              -2
390
0
  6
Continuous
 62
               0
100
AcDbCircle
 10
89.792215740563279
 20
660.1126386805314
 30
0.0
 40
1.9998779296875
  0
HATCH
  5
10C
100
AcDbEntity
  8
0
370
              -2
390
0
  6
Continuous
 62
               0
100
AcDbHatch
 10
0.0
 20
0.0
 30
0.0
210
0.0
220
0.0
230
1.0
  2
SOLID
 70
               1
 71
               1
 91
        1
 92
        1
 93
        1
 72
               2
 10
89.792215740563279
 20
660.1126386805314
 40
1.9998779296875
 50
0.0
 51
360.0
 73
               0
 97
        1
330
10B
 75
               0
 76
               1
 98
        1
 10
0.0
 20
0.0
  0
MTEXT
  5
10D
100
AcDbEntity
  8
0
390
0
 62
               0
100
AcDbMText
 10
55.914598553063342
 20
698.80013699835592
 30
0.0
 40
24.432617187500004
 41
0.0
 71
               1
 72
               1
  1
125
  7
ＭＳ ゴシック
 11
0.0
 21
1.0
 31
0.0
 73
               1
 44
0.7828267384257843
  0
POINT
  5
10E
100
AcDbEntity
  8
Defpoints
370
               0
390
0
 62
               0
100
AcDbPoint
 10
-59.116996832421137
 20
660.1126386805314
 30
0.0
  0
POINT
  5
10F
100
AcDbEntity
  8
Defpoints
370
               0
390
0
 62
               0
100
AcDbPoint
 10
-71.707784259441041
 20
785.1126386805314
 30
0.0
  0
POINT
  5
110
100
AcDbEntity
  8
Defpoints
370
               0
390
0
 62
               0
100
AcDbPoint
 10
89.792215740563279
 20
785.1126386805314
 30
0.0
  0
ENDBLK
  5
111
100
AcDbEntity
  8
notes
390
0
100
AcDbBlockEnd
  0
BLOCK
  5
112
100
AcDbEntity
  8
notes
390
0
100
AcDbBlockBegin
  2
*D17
 70
               1
 10
0.0
 20
0.0
 30
0.0
  3
*D17
  1

  0
LINE
  5
113
100
AcDbEntity
  8
0
370
              -2
390
0
  6
Continuous
 62
               0
100
AcDbLine
 10
-59.496090906960035
 20
365.1126386805314
 30
0.0
 11
89.792215740563279
 21
365.1126386805314
 31
0.0
  0
LINE
  5
114
100
AcDbEntity
  8
0
370
              -2
390
0
  6
Continuous
 62
               0
100
AcDbLine
 10
-32.899889180864875
 20
660.1126386805314
 30
0.0
 11
89.792215740563279
 21
660.1126386805314
 31
0.0
  0
LINE
  5
115
100
AcDbEntity
  8
0
370
              -2
390
0
  6
Continuous
 62
               0
100
AcDbLine
 10
89.792215740563279
 20
365.1126386805314
 30
0.0
 11
89.792215740563279
 21
660.1126386805314
 31
0.0
  0
CIRCLE
  5
116
102
{ACAD_REACTORS
330
117
102
}
100
AcDbEntity
  8
0
370
              -2
390
0
  6
Continuous
 62
               0
100
AcDbCircle
 10
89.792215740563279
 20
365.1126386805314
 30
0.0
 40
1.9998779296875
  0
HATCH
  5
117
100
AcDbEntity
  8
0
370
              -2
390
0
  6
Continuous
 62
               0
100
AcDbHatch
 10
0.0
 20
0.0
 30
0.0
210
0.0
220
0.0
230
1.0
  2
SOLID
 70
               1
 71
               1
 91
        1
 92
        1
 93
        1
 72
               2
 10
89.792215740563279
 20
365.1126386805314
 40
1.9998779296875
 50
0.0
 51
360.0
 73
               0
 97
        1
330
116
 75
               0
 76
               1
 98
        1
 10
0.0
 20
0.0
  0
CIRCLE
  5
118
102
{ACAD_REACTORS
330
119
102
}
100
AcDbEntity
  8
0
370
              -2
390
0
  6
Continuous
 62
               0
100
AcDbCircle
 10
89.792215740563279
 20
660.1126386805314
 30
0.0
 40
1.9998779296875
  0
HATCH
  5
119
100
AcDbEntity
  8
0
370
              -2
390
0
  6
Continuous
 62
               0
100
AcDbHatch
 10
0.0
 20
0.0
 30
0.0
210
0.0
220
0.0
230
1.0
  2
SOLID
 70
               1
 71
               1
 91
        1
 92
        1
 93
        1
 72
               2
 10
89.792215740563279
 20
660.1126386805314
 40
1.9998779296875
 50
0.0
 51
360.0
 73
               0
 97
        1
330
118
 75
               0
 76
               1
 98
        1
 10
0.0
 20
0.0
  0
MTEXT
  5
11A
100
AcDbEntity
  8
0
390
0
 62
               0
100
AcDbMText
 10
55.914598553063342
 20
504.18749831782452
 30
0.0
 40
24.432617187500004
 41
0.0
 71
               1
 72
               1
  1
295
  7
ＭＳ ゴシック
 11
0.0
 21
1.0
 31
0.0
 73
               1
 44
0.7828267384257843
  0
POINT
  5
11B
100
AcDbEntity
  8
Defpoints
370
               0
390
0
 62
               0
100
AcDbPoint
 10
-57.899889180864875
 20
660.1126386805314
 30
0.0
  0
POINT
  5
11C
100
AcDbEntity
  8
Defpoints
370
               0
390
0
 62
               0
100
AcDbPoint
 10
-84.496090906960035
 20
365.1126386805314
 30
0.0
  0
POINT
  5
11D
100
AcDbEntity
  8
Defpoints
370
               0
390
0
 62
               0
100
AcDbPoint
 10
89.792215740563279
 20
365.1126386805314
 30
0.0
  0
ENDBLK
  5
11E
100
AcDbEntity
  8
notes
390
0
100
AcDbBlockEnd
  0
BLOCK
  5
11F
100
AcDbEntity
  8
notes
390
0
100
AcDbBlockBegin
  2
*D18
 70
               1
 10
0.0
 20
0.0
 30
0.0
  3
*D18
  1

  0
LINE
  5
120
100
AcDbEntity
  8
0
370
              -2
390
0
  6
Continuous
 62
               0
100
AcDbLine
 10
-726.20778425943672
 20
785.1126386805314
 30
0.0
 11
-810.20778425943672
 21
785.1126386805314
 31
0.0
  0
LINE
  5
121
100
AcDbEntity
  8
0
370
              -2
390
0
  6
Continuous
 62
               0
100
AcDbLine
 10
-726.20778425943672
 20
425.1126386805314
 30
0.0
 11
-810.20778425943672
 21
425.1126386805314
 31
0.0
  0
LINE
  5
122
100
AcDbEntity
  8
0
370
              -2
390
0
  6
Continuous
 62
               0
100
AcDbLine
 10
-810.20778425943672
 20
785.1126386805314
 30
0.0
 11
-810.20778425943672
 21
425.1126386805314
 31
0.0
  0
CIRCLE
  5
123
102
{ACAD_REACTORS
330
124
102
}
100
AcDbEntity
  8
0
370
              -2
390
0
  6
Continuous
 62
               0
100
AcDbCircle
 10
-810.20778425943672
 20
785.1126386805314
 30
0.0
 40
1.9998779296875
  0
HATCH
  5
124
100
AcDbEntity
  8
0
370
              -2
390
0
  6
Continuous
 62
               0
100
AcDbHatch
 10
0.0
 20
0.0
 30
0.0
210
0.0
220
0.0
230
1.0
  2
SOLID
 70
               1
 71
               1
 91
        1
 92
        1
 93
        1
 72
               2
 10
-810.20778425943672
 20
785.1126386805314
 40
1.9998779296875
 50
0.0
 51
360.0
 73
               0
 97
        1
330
123
 75
               0
 76
               1
 98
        1
 10
0.0
 20
0.0
  0
CIRCLE
  5
125
102
{ACAD_REACTORS
330
126
102
}
100
AcDbEntity
  8
0
370
              -2
390
0
  6
Continuous
 62
               0
100
AcDbCircle
 10
-810.20778425943672
 20
425.1126386805314
 30
0.0
 40
1.9998779296875
  0
HATCH
  5
126
100
AcDbEntity
  8
0
370
              -2
390
0
  6
Continuous
 62
               0
100
AcDbHatch
 10
0.0
 20
0.0
 30
0.0
210
0.0
220
0.0
230
1.0
  2
SOLID
 70
               1
 71
               1
 91
        1
 92
        1
 93
        1
 72
               2
 10
-810.20778425943672
 20
425.1126386805314
 40
1.9998779296875
 50
0.0
 51
360.0
 73
               0
 97
        1
330
125
 75
               0
 76
               1
 98
        1
 10
0.0
 20
0.0
  0
MTEXT
  5
127
100
AcDbEntity
  8
0
390
0
 62
               0
100
AcDbMText
 10
-844.08540144693688
 20
581.30013699835592
 30
0.0
 40
24.432617187500004
 41
0.0
 71
               1
 72
               1
  1
360
  7
ＭＳ ゴシック
 11
0.0
 21
1.0
 31
0.0
 73
               1
 44
0.7828267384257843
  0
POINT
  5
128
100
AcDbEntity
  8
Defpoints
370
               0
390
0
 62
               0
100
AcDbPoint
 10
-701.20778425943672
 20
425.1126386805314
 30
0.0
  0
POINT
  5
129
100
AcDbEntity
  8
Defpoints
370
               0
390
0
 62
               0
100
AcDbPoint
 10
-701.20778425943672
 20
785.1126386805314
 30
0.0
  0
POINT
  5
12A
100
AcDbEntity
  8
Defpoints
370
               0
390
0
 62
               0
100
AcDbPoint
 10
-810.20778425943672
 20
785.1126386805314
 30
0.0
  0
ENDBLK
  5
12B
100
AcDbEntity
  8
notes
390
0
100
AcDbBlockEnd
  0
BLOCK
  5
12C
100
AcDbEntity
  8
notes
390
0
100
AcDbBlockBegin
  2
*D19
 70
               1
 10
0.0
 20
0.0
 30
0.0
  3
*D19
  1

  0
LINE
  5
12D
100
AcDbEntity
  8
0
370
              -2
390
0
  6
Continuous
 62
               0
100
AcDbLine
 10
619.92903674907279
 20
-430.80955920301994
 30
0.0
 11
637.76223730331026
 21
-430.80955920301994
 31
0.0
  0
LINE
  5
12E
100
AcDbEntity
  8
0
370
              -2
390
0
  6
Continuous
 62
               0
100
AcDbLine
 10
619.92903674907279
 20
-595.80955920301994
 30
0.0
 11
637.76223730331026
 21
-595.80955920301994
 31
0.0
  0
LINE
  5
12F
100
AcDbEntity
  8
0
370
              -2
390
0
  6
Continuous
 62
               0
100
AcDbLine
 10
637.76223730331026
 20
-430.80955920301994
 30
0.0
 11
637.76223730331026
 21
-595.80955920301994
 31
0.0
  0
CIRCLE
  5
130
102
{ACAD_REACTORS
330
131
102
}
100
AcDbEntity
  8
0
370
              -2
390
0
  6
Continuous
 62
               0
100
AcDbCircle
 10
637.76223730331026
 20
-430.80955920301994
 30
0.0
 40
1.9998779296875
  0
HATCH
  5
131
100
AcDbEntity
  8
0
370
              -2
390
0
  6
Continuous
 62
               0
100
AcDbHatch
 10
0.0
 20
0.0
 30
0.0
210
0.0
220
0.0
230
1.0
  2
SOLID
 70
               1
 71
               1
 91
        1
 92
        1
 93
        1
 72
               2
 10
637.76223730331026
 20
-430.80955920301994
 40
1.9998779296875
 50
0.0
 51
360.0
 73
               0
 97
        1
330
130
 75
               0
 76
               1
 98
        1
 10
0.0
 20
0.0
  0
CIRCLE
  5
132
102
{ACAD_REACTORS
330
133
102
}
100
AcDbEntity
  8
0
370
              -2
390
0
  6
Continuous
 62
               0
100
AcDbCircle
 10
637.76223730331026
 20
-595.80955920301994
 30
0.0
 40
1.9998779296875
  0
HATCH
  5
133
100
AcDbEntity
  8
0
370
              -2
390
0
  6
Continuous
 62
               0
100
AcDbHatch
 10
0.0
 20
0.0
 30
0.0
210
0.0
220
0.0
230
1.0
  2
SOLID
 70
               1
 71
               1
 91
        1
 92
        1
 93
        1
 72
               2
 10
637.76223730331026
 20
-595.80955920301994
 40
1.9998779296875
 50
0.0
 51
360.0
 73
               0
 97
        1
330
132
 75
               0
 76
               1
 98
        1
 10
0.0
 20
0.0
  0
MTEXT
  5
134
100
AcDbEntity
  8
0
390
0
 62
               0
100
AcDbMText
 10
603.88462011581021
 20
-584.74705920301994
 30
0.0
 40
24.432617187500004
 41
0.0
 71
               1
 72
               1
  1
165(深さ)
  7
ＭＳ ゴシック
 11
0.0
 21
1.0
 31
0.0
 73
               1
 44
0.7828267384257843
  0
POINT
  5
135
100
AcDbEntity
  8
Defpoints
370
               0
390
0
 62
               0
100
AcDbPoint
 10
644.92903674907279
 20
-595.80955920301994
 30
0.0
  0
POINT
  5
136
100
AcDbEntity
  8
Defpoints
370
               0
390
0
 62
               0
100
AcDbPoint
 10
644.92903674907279
 20
-430.80955920301994
 30
0.0
  0
POINT
  5
137
100
AcDbEntity
  8
Defpoints
370
               0
390
0
 62
               0
100
AcDbPoint
 10
637.76223730331026
 20
-430.80955920301994
 30
0.0
  0
ENDBLK
  5
138
100
AcDbEntity
  8
notes
390
0
100
AcDbBlockEnd
  0
BLOCK
  5
139
100
AcDbEntity
  8
notes
390
0
100
AcDbBlockBegin
  2
*D20
 70
               1
 10
0.0
 20
0.0
 30
0.0
  3
*D20
  1

  0
LINE
  5
13A
100
AcDbEntity
  8
0
370
              -2
390
0
  6
Continuous
 62
               0
100
AcDbLine
 10
862.54026744123985
 20
-660.80955920301813
 30
0.0
 11
862.54026744123985
 21
-740.861989211013
 31
0.0
  0
LINE
  5
13B
100
AcDbEntity
  8
0
370
              -2
390
0
  6
Continuous
 62
               0
100
AcDbLine
 10
652.54026744123985
 20
-665.86198921101277
 30
0.0
 11
652.54026744123985
 21
-740.861989211013
 31
0.0
  0
LINE
  5
13C
100
AcDbEntity
  8
0
370
              -2
390
0
  6
Continuous
 62
               0
100
AcDbLine
 10
862.54026744123985
 20
-740.861989211013
 30
0.0
 11
652.54026744123985
 21
-740.861989211013
 31
0.0
  0
CIRCLE
  5
13D
102
{ACAD_REACTORS
330
13E
102
}
100
AcDbEntity
  8
0
370
              -2
390
0
  6
Continuous
 62
               0
100
AcDbCircle
 10
862.54026744123985
 20
-740.861989211013
 30
0.0
 40
1.9998779296875
  0
HATCH
  5
13E
100
AcDbEntity
  8
0
370
              -2
390
0
  6
Continuous
 62
               0
100
AcDbHatch
 10
0.0
 20
0.0
 30
0.0
210
0.0
220
0.0
230
1.0
  2
SOLID
 70
               1
 71
               1
 91
        1
 92
        1
 93
        1
 72
               2
 10
862.54026744123985
 20
-740.861989211013
 40
1.9998779296875
 50
0.0
 51
360.0
 73
               0
 97
        1
330
13D
 75
               0
 76
               1
 98
        1
 10
0.0
 20
0.0
  0
CIRCLE
  5
13F
102
{ACAD_REACTORS
330
140
102
}
100
AcDbEntity
  8
0
370
              -2
390
0
  6
Continuous
 62
               0
100
AcDbCircle
 10
652.54026744123985
 20
-740.861989211013
 30
0.0
 40
1.9998779296875
  0
HATCH
  5
140
100
AcDbEntity
  8
0
370
              -2
390
0
  6
Continuous
 62
               0
100
AcDbHatch
 10
0.0
 20
0.0
 30
0.0
210
0.0
220
0.0
230
1.0
  2
SOLID
 70
               1
 71
               1
 91
        1
 92
        1
 93
        1
 72
               2
 10
652.54026744123985
 20
-740.861989211013
 40
1.9998779296875
 50
0.0
 51
360.0
 73
               0
 97
        1
330
13F
 75
               0
 76
               1
 98
        1
 10
0.0
 20
0.0
  0
MTEXT
  5
141
100
AcDbEntity
  8
0
390
0
 62
               0
100
AcDbMText
 10
733.72776575906437
 20
-706.98437202351306
 30
0.0
 40
24.432617187500004
 41
0.0
 71
               1
 72
               1
  1
210
  7
ＭＳ ゴシック
 73
               1
 44
0.7828267384257843
  0
POINT
  5
142
100
AcDbEntity
  8
Defpoints
370
               0
390
0
 62
               0
100
AcDbPoint
 10
652.54026744123985
 20
-640.86198921101277
 30
0.0
  0
POINT
  5
143
100
AcDbEntity
  8
Defpoints
370
               0
390
0
 62
               0
100
AcDbPoint
 10
862.54026744123985
 20
-635.80955920301813
 30
0.0
  0
POINT
  5
144
100
AcDbEntity
  8
Defpoints
370
               0
390
0
 62
               0
100
AcDbPoint
 10
862.54026744123985
 20
-740.861989211013
 30
0.0
  0
ENDBLK
  5
145
100
AcDbEntity
  8
notes
390
0
100
AcDbBlockEnd
  0
BLOCK
  5
146
100
AcDbEntity
  8
notes
390
0
100
AcDbBlockBegin
  2
*D21
 70
               1
 10
0.0
 20
0.0
 30
0.0
  3
*D21
  1

  0
LINE
  5
147
100
AcDbEntity
  8
0
370
              -2
390
0
  6
Continuous
 62
               0
100
AcDbLine
 10
-585.20778425943672
 20
-480.80955920301903
 30
0.0
 11
-810.20778425943672
 21
-480.80955920301903
 31
0.0
  0
LINE
  5
148
100
AcDbEntity
  8
0
370
              -2
390
0
  6
Continuous
 62
               0
100
AcDbLine
 10
-735.20778425943672
 20
-430.80955920301903
 30
0.0
 11
-810.20778425943672
 21
-430.80955920301903
 31
0.0
  0
LINE
  5
149
100
AcDbEntity
  8
0
370
              -2
390
0
  6
Continuous
 62
               0
100
AcDbLine
 10
-810.20778425943672
 20
-480.80955920301903
 30
0.0
 11
-810.20778425943672
 21
-430.80955920301903
 31
0.0
  0
CIRCLE
  5
14A
102
{ACAD_REACTORS
330
14B
102
}
100
AcDbEntity
  8
0
370
              -2
390
0
  6
Continuous
 62
               0
100
AcDbCircle
 10
-810.20778425943672
 20
-480.80955920301903
 30
0.0
 40
1.9998779296875
  0
HATCH
  5
14B
100
AcDbEntity
  8
0
370
              -2
390
0
  6
Continuous
 62
               0
100
AcDbHatch
 10
0.0
 20
0.0
 30
0.0
210
0.0
220
0.0
230
1.0
  2
SOLID
 70
               1
 71
               1
 91
        1
 92
        1
 93
        1
 72
               2
 10
-810.20778425943672
 20
-480.80955920301903
 40
1.9998779296875
 50
0.0
 51
360.0
 73
               0
 97
        1
330
14A
 75
               0
 76
               1
 98
        1
 10
0.0
 20
0.0
  0
CIRCLE
  5
14C
102
{ACAD_REACTORS
330
14D
102
}
100
AcDbEntity
  8
0
370
              -2
390
0
  6
Continuous
 62
               0
100
AcDbCircle
 10
-810.20778425943672
 20
-430.80955920301903
 30
0.0
 40
1.9998779296875
  0
HATCH
  5
14D
100
AcDbEntity
  8
0
370
              -2
390
0
  6
Continuous
 62
               0
100
AcDbHatch
 10
0.0
 20
0.0
 30
0.0
210
0.0
220
0.0
230
1.0
  2
SOLID
 70
               1
 71
               1
 91
        1
 92
        1
 93
        1
 72
               2
 10
-810.20778425943672
 20
-430.80955920301903
 40
1.9998779296875
 50
0.0
 51
360.0
 73
               0
 97
        1
330
14C
 75
               0
 76
               1
 98
        1
 10
0.0
 20
0.0
  0
MTEXT
  5
14E
100
AcDbEntity
  8
0
390
0
 62
               0
100
AcDbMText
 10
-844.08540144693688
 20
-471.68455920301903
 30
0.0
 40
24.432617187500004
 41
0.0
 71
               1
 72
               1
  1
50
  7
ＭＳ ゴシック
 11
0.0
 21
1.0
 31
0.0
 73
               1
 44
0.7828267384257843
  0
POINT
  5
14F
100
AcDbEntity
  8
Defpoints
370
               0
390
0
 62
               0
100
AcDbPoint
 10
-710.20778425943672
 20
-430.80955920301903
 30
0.0
  0
POINT
  5
150
100
AcDbEntity
  8
Defpoints
370
               0
390
0
 62
               0
100
AcDbPoint
 10
-560.20778425943672
 20
-480.80955920301903
 30
0.0
  0
POINT
  5
151
100
AcDbEntity
  8
Defpoints
370
               0
390
0
 62
               0
100
AcDbPoint
 10
-810.20778425943672
 20
-480.80955920301903
 30
0.0
  0
ENDBLK
  5
152
100
AcDbEntity
  8
notes
390
0
100
AcDbBlockEnd
  0
ENDSEC
  0
SECTION
  2
ENTITIES
  0
MTEXT
  5
153
100
AcDbEntity
  8
template
390
0
 62
               7
100
AcDbMText
 10
-967.99999999975944
 20
-1147.4176292337002
 30
0.0
 40
16.288411458333332
 41
0.0
 71
               1
 72
               1
  1
品名
  7
ＭＳ ゴシック
 73
               1
 44
0.7828267384257843
  0
MTEXT
  5
154
100
AcDbEntity
  8
template
390
0
 62
               7
100
AcDbMText
 10
-967.99999999975944
 20
-1232.4176292337002
 30
0.0
 40
16.288411458333332
 41
0.0
 71
               1
 72
               1
  1
仕様
  7
ＭＳ ゴシック
 73
               1
 44
0.7828267384257843
  0
LINE
  5
155
100
AcDbEntity
  8
template
370
               5
390
0
  6
Continuous
 62
               7
100
AcDbLine
 10
974.99999999975876
 20
-1224.0027073587003
 30
0.0
 11
-975.00000000024147
 21
-1224.0027073587003
 31
0.0
  0
LWPOLYLINE
  5
156
100
AcDbEntity
  8
template
370
               5
390
0
  6
Continuous
 62
               7
100
AcDbPolyline
 90
        5
 70
             128
 10
975.00000000024124
 20
1405.9972926412995
 10
-974.99999999975944
 20
1405.9972926412995
 10
-974.99999999975944
 20
-1394.0027073587003
 10
975.00000000024124
 20
-1394.0027073587003
 10
975.00000000024124
 20
1405.9972926412995
  0
LINE
  5
157
100
AcDbEntity
  8
template
370
               5
390
0
  6
Continuous
 62
               7
100
AcDbLine
 10
974.99999999975876
 20
-1139.0027073587003
 30
0.0
 11
-975.00000000024147
 21
-1139.0027073587003
 31
0.0
  0
LINE
  5
158
100
AcDbEntity
  8
template
370
               5
390
0
  6
Continuous
 62
               7
100
AcDbLine
 10
975.00000000024124
 20
-1309.0027073587003
 30
0.0
 11
222.00000000024124
 21
-1309.0027073587003
 31
0.0
  0
MTEXT
  5
159
100
AcDbEntity
  8
template
390
0
 62
               7
100
AcDbMText
 10
-974.99999999955571
 20
-1405.8565294155574
 30
0.0
 40
21.717881944444446
 41
0.0
 71
               1
 72
               1
  1
100709SH
  7
ＭＳ ゴシック
 73
               1
 44
0.7828267384257843
  0
MTEXT
  5
15A
100
AcDbEntity
  8
template
390
0
 62
               7
100
AcDbMText
 10
251.87140625250095
 20
-1338.9131018320077
 30
0.0
 40
24.432617187500004
 41
0.0
 71
               1
 72
               1
  1
大洋金物株式会社 ティーフォルム事業部
  7
ＭＳ ゴシック
 73
               1
 44
0.7828267384257843
  0
INSERT
  5
15B
100
AcDbEntity
  8
template
390
0
 62
               7
100
AcDbBlockReference
  2
グループ
 10
1543.5199410484961
 20
1230.0000000000032
 30
0.0
  0
MTEXT
  5
15C
100
AcDbEntity
  8
template
390
0
 62
               7
100
AcDbMText
 10
784.00000000049999
 20
-1261.0000901712001
 30
0.0
 40
24.432617187500004
 41
0.0
 71
               1
 72
               1
  1
1:10
  7
ＭＳ ゴシック
 73
               1
 44
0.7828267384257843
  0
MTEXT
  5
15D
100
AcDbEntity
  8
template
390
0
 62
               7
100
AcDbMText
 10
731.00000000049999
 20
-1232.4176292337002
 30
0.0
 40
16.288411458333332
 41
0.0
 71
               1
 72
               1
  1
縮尺
  7
ＭＳ ゴシック
 73
               1
 44
0.7828267384257843
  0
LINE
  5
15E
100
AcDbEntity
  8
template
370
               5
390
0
  6
Continuous
 62
               7
100
AcDbLine
 10
724.00000000049999
 20
-1309.0027073587003
 30
0.0
 11
724.00000000049999
 21
-1224.0027073587003
 31
0.0
  0
MTEXT
  5
15F
100
AcDbEntity
  8
template
390
0
 62
               7
100
AcDbMText
 10
480.00000000049999
 20
-1232.4176292337002
 30
0.0
 40
16.288411458333332
 41
0.0
 71
               1
 72
               1
  1
容量
  7
ＭＳ ゴシック
 73
               1
 44
0.7828267384257843
  0
LINE
  5
160
100
AcDbEntity
  8
template
370
               5
390
0
  6
Continuous
 62
               7
100
AcDbLine
 10
473.00000000049999
 20
-1309.0027073587003
 30
0.0
 11
473.00000000049999
 21
-1224.0027073587003
 31
0.0
  0
MTEXT
  5
161
100
AcDbEntity
  8
template
390
0
 62
               7
100
AcDbMText
 10
229.00000000049999
 20
-1147.4176292337002
 30
0.0
 40
16.288411458333332
 41
0.0
 71
               1
 72
               1
  1
品番
  7
ＭＳ ゴシック
 73
               1
 44
0.7828267384257843
  0
MTEXT
  5
162
100
AcDbEntity
  8
template
390
0
 62
               7
100
AcDbMText
 10
229.00000000049999
 20
-1232.4176292337002
 30
0.0
 40
16.288411458333332
 41
0.0
 71
               1
 72
               1
  1
重量
  7
ＭＳ ゴシック
 73
               1
 44
0.7828267384257843
  0
MTEXT
  5
163
100
AcDbEntity
  8
template
390
0
 62
               7
100
AcDbMText
 10
282.00000000049999
 20
-1176.0000901712001
 30
0.0
 40
24.432617187500004
 41
0.0
 71
               1
 72
               1
  1
ARJ70-0021(旧品番:AQI70-0021) 
  7
ＭＳ ゴシック
 73
               1
 44
0.7828267384257843
  0
LINE
  5
164
100
AcDbEntity
  8
template
370
               5
390
0
  6
Continuous
 62
               7
100
AcDbLine
 10
222.00000000049999
 20
-1394.0027073587003
 30
0.0
 11
222.00000000049999
 21
-1139.0027073587003
 31
0.0
  0
MTEXT
  5
165
100
AcDbEntity
  8
template
390
0
 62
               7
100
AcDbMText
 10
533.00000000049999
 20
-1261.0000901712001
 30
0.0
 40
24.432617187500004
 41
0.0
 71
               1
 72
               1
  1
6.8L
  7
ＭＳ ゴシック
 73
               1
 44
0.7828267384257843
  0
MTEXT
  5
166
100
AcDbEntity
  8
template
390
0
 62
               7
100
AcDbMText
 10
282.00000000049999
 20
-1261.0000901712001
 30
0.0
 40
24.432617187500004
 41
0.0
 71
               1
 72
               1
  1
18.5kg
  7
ＭＳ ゴシック
 73
               1
 44
0.7828267384257843
  0
MTEXT
  5
167
100
AcDbEntity
  8
template
390
0
 62
               7
100
AcDbMText
 10
-914.99999999975944
 20
-1176.0000901712006
 30
0.0
 40
24.432617187500004
 41
0.0
 71
               1
 72
               1
  1
洗面器 -POZZI GINORI,500-
  7
ＭＳ ゴシック
 73
               1
 44
0.7828267384257843
  0
MTEXT
  5
168
100
AcDbEntity
  8
template
390
0
 62
               7
100
AcDbMText
 10
-914.99999999975944
 20
-1261.0000901712006
 30
0.0
 40
24.432617187500004
 41
0.0
 71
               1
 72
               1
  1
壁掛け/オーバーフロー付き/壁取付ボルト付属/陶器/ホワイト
  7
ＭＳ ゴシック
 73
               1
 44
1.3047112307096407
  0
DIMENSION
  5
169
100
AcDbEntity
  8
notes
370
               5
390
0
  6
Continuous
 62
               7
100
AcDbDimension
  2
*D3
 10
-710.20778425943672
 20
985.1126386805314
 30
0.0
 11
-360.20778425943672
 21
985.1126386805314
 31
0.0
 71
               5
 72
               1
 41
1.0
 42
0.0
  3
tform線あり
100
AcDbAlignedDimension
 13
-10.207784259436949
 23
560.0
 33
0.0
 14
-710.20778425943672
 24
776.1126386805314
 34
0.0
100
AcDbRotatedDimension
1001
ACAD
1000
DSTYLE
1002
{
1070
             279
1070
               2
1070
             340
1005
37
1070
             147
1040
5.0
1002
}
  0
DIMENSION
  5
16A
100
AcDbEntity
  8
notes
370
               5
390
0
  6
Continuous
 62
               7
100
AcDbDimension
  2
*D4
 10
139.79221574056328
 20
785.1126386805314
 30
0.0
 11
139.79221574056328
 21
565.1126386805314
 31
0.0
 71
               5
 72
               1
 41
1.0
 42
0.0
  3
tform線あり
100
AcDbAlignedDimension
 13
-170.79857168645685
 23
345.1126386805314
 33
0.0
 14
-71.707784259441041
 24
785.1126386805314
 34
0.0
 50
90.0
100
AcDbRotatedDimension
1001
ACAD
1000
DSTYLE
1002
{
1070
             279
1070
               2
1070
             340
1005
37
1070
             147
1040
5.0
1002
}
  0
DIMENSION
  5
16B
100
AcDbEntity
  8
notes
370
               5
390
0
  6
Continuous
 62
               7
100
AcDbDimension
  2
*D5
 10
-65.207784259436949
 20
935.1126386805314
 30
0.0
 11
-385.87567857170325
 21
940.1126386805314
 31
0.0
 70
             129
 71
               5
 72
               1
 41
1.0
 42
0.0
  3
tform線あり
100
AcDbAlignedDimension
 13
-710.20778425943672
 23
785.1126386805314
 33
0.0
 14
-65.207784259436949
 24
785.1126386805314
 34
0.0
1001
ACAD
1000
DSTYLE
1002
{
1070
             279
1070
               2
1070
             340
1005
37
1070
             147
1040
5.0
1002
}
  0
DIMENSION
  5
16C
100
AcDbEntity
  8
notes
370
               5
390
0
  6
Continuous
 62
               7
100
AcDbDimension
  2
*D6
 10
-256.99661717752269
 20
703.98310838326779
 30
0.0
 11
-144.79857168645731
 21
827.99999999999932
 31
0.0
 70
               3
 71
               5
 72
               1
 41
1.0
 42
0.0
  3
tform線あり
100
AcDbDiametricDimension
 15
-243.4189513413553
 25
736.24216897779502
 35
0.0
 40
99.554172582508386
1001
ACAD
1000
DSTYLE
1002
{
1070
             289
1070
               0
1070
             342
1005
49
1070
             340
1005
37
1070
              73
1070
               1
1070
              74
1070
               1
1070
               3
1000

1070
             174
1070
               0
1070
             147
1040
5.0
1002
}
  0
DIMENSION
  5
16D
100
AcDbEntity
  8
notes
370
               5
390
0
  6
Continuous
 62
               7
100
AcDbDimension
  2
*D7
 10
-250.20778425943899
 20
885.1126386805314
 30
0.0
 11
-480.20778425943786
 21
885.1126386805314
 31
0.0
 71
               5
 72
               1
 41
1.0
 42
0.0
  3
tform線あり
100
AcDbAlignedDimension
 13
-710.20778425943672
 23
776.1126386805314
 33
0.0
 14
-250.20778425943899
 24
737.6126386805314
 34
0.0
100
AcDbRotatedDimension
1001
ACAD
1000
DSTYLE
1002
{
1070
             279
1070
               2
1070
             340
1005
37
1070
             147
1040
5.0
1002
}
  0
DIMENSION
  5
16E
100
AcDbEntity
  8
notes
370
               5
390
0
  6
Continuous
 62
               7
100
AcDbDimension
  2
*D8
 10
-460.20778425943695
 20
245.11263868053129
 30
0.0
 11
-247.70778425943695
 21
245.11263868053129
 31
0.0
 70
               1
 71
               5
 72
               1
 41
1.0
 42
0.0
  3
tform線あり
100
AcDbAlignedDimension
 13
-35.207784259436949
 23
406.95555773781575
 33
0.0
 14
-460.20778425943695
 24
406.95555773781575
 34
0.0
1001
ACAD
1000
DSTYLE
1002
{
1070
             279
1070
               2
1070
             340
1005
37
1070
             147
1040
5.0
1002
}
  0
DIMENSION
  5
16F
100
AcDbEntity
  8
notes
370
               5
390
0
  6
Continuous
 62
               7
100
AcDbDimension
  2
*D9
 10
862.54026744123973
 20
-330.80955920301881
 30
0.0
 11
830.04026744123973
 21
-330.80955920301881
 31
0.0
 71
               5
 72
               1
 41
1.0
 42
0.0
  3
tform線あり
100
AcDbAlignedDimension
 13
797.54026744123973
 23
-430.80955920302313
 33
0.0
 14
862.54026744123973
 24
-430.80955920301676
 34
0.0
100
AcDbRotatedDimension
1001
ACAD
1000
DSTYLE
1002
{
1070
             279
1070
               2
1070
             340
1005
37
1070
             147
1040
5.0
1002
}
  0
DIMENSION
  5
170
100
AcDbEntity
  8
notes
370
               5
390
0
  6
Continuous
 62
               7
100
AcDbDimension
  2
*D10
 10
-185.20778425943695
 20
-330.80955920301903
 30
0.0
 11
-347.70778425943672
 21
-330.80955920301903
 31
0.0
 70
               1
 71
               5
 72
               1
 41
1.0
 42
0.0
  3
tform線あり
100
AcDbAlignedDimension
 13
-510.20778425943672
 23
-460.79999999999995
 33
0.0
 14
-185.20778425943695
 24
-460.79999999999995
 34
0.0
1001
ACAD
1000
DSTYLE
1002
{
1070
             279
1070
               2
1070
             340
1005
37
1070
             147
1040
5.0
1002
}
  0
DIMENSION
  5
171
100
AcDbEntity
  8
notes
370
               5
390
0
  6
Continuous
 62
               7
100
AcDbDimension
  2
*D11
 10
-510.20778425943672
 20
-330.80955920301903
 30
0.0
 11
-610.20778425943672
 21
-330.80955920301903
 31
0.0
 71
               5
 72
               1
 41
1.0
 42
0.0
  3
tform線あり
100
AcDbAlignedDimension
 13
-710.20778425943672
 23
-430.80955920301903
 33
0.0
 14
-510.20778425943672
 24
-480.79999999999995
 34
0.0
100
AcDbRotatedDimension
1001
ACAD
1000
DSTYLE
1002
{
1070
             279
1070
               2
1070
             340
1005
37
1070
             147
1040
5.0
1002
}
  0
DIMENSION
  5
172
100
AcDbEntity
  8
notes
370
               5
390
0
  6
Continuous
 62
               7
100
AcDbDimension
  2
*D12
 10
-460.20778425943695
 20
245.1126386805314
 30
0.0
 11
-585.20778425943672
 21
250.1126386805314
 31
0.0
 70
             128
 71
               5
 72
               1
 41
1.0
 42
0.0
  3
tform線あり
100
AcDbAlignedDimension
 13
-710.20778425943672
 23
434.1126386805314
 33
0.0
 14
-460.20778425943695
 24
408.05400715052394
 34
0.0
100
AcDbRotatedDimension
1001
ACAD
1000
DSTYLE
1002
{
1070
             279
1070
               2
1070
             340
1005
37
1070
             147
1040
5.0
1002
}
  0
DIMENSION
  5
173
100
AcDbEntity
  8
notes
370
               5
390
0
  6
Continuous
 62
               7
100
AcDbDimension
  2
*D13
 10
322.4184402016117
 20
-430.80955920302176
 30
0.0
 11
322.4184402016117
 21
-535.80955920302176
 31
0.0
 71
               5
 72
               1
 41
1.0
 42
0.0
  3
tform線あり
100
AcDbAlignedDimension
 13
616.76223730331026
 23
-640.80955920302176
 33
0.0
 14
427.31780605690574
 24
-430.80955920302176
 34
0.0
 50
90.0
100
AcDbRotatedDimension
1001
ACAD
1000
DSTYLE
1002
{
1070
             279
1070
               2
1070
             340
1005
37
1070
             147
1040
5.0
1002
}
  0
DIMENSION
  5
174
100
AcDbEntity
  8
notes
370
               5
390
0
  6
Continuous
 62
               7
100
AcDbDimension
  2
*D14
 10
89.792215740563279
 20
-430.80955920301903
 30
0.0
 11
89.792215740563279
 21
-533.30955920301903
 31
0.0
 71
               5
 72
               1
 41
1.0
 42
0.0
  3
tform線あり
100
AcDbAlignedDimension
 13
-140.20778425944036
 23
-635.80955920301903
 33
0.0
 14
-15.476684885845316
 24
-430.80955920301903
 34
0.0
 50
-90.0
100
AcDbRotatedDimension
1001
ACAD
1000
DSTYLE
1002
{
1070
             279
1070
               2
1070
             340
1005
37
1070
             147
1040
5.0
1002
}
  0
DIMENSION
  5
175
100
AcDbEntity
  8
notes
370
               5
390
0
  6
Continuous
 62
               7
100
AcDbDimension
  2
*D15
 10
89.792215740563279
 20
-635.80955920301903
 30
0.0
 11
94.792215740563279
 21
-646.24705920301903
 31
0.0
 70
             128
 71
               5
 72
               1
 41
1.0
 42
0.0
  3
tform線あり
100
AcDbAlignedDimension
 13
-210.2077842594399
 23
-640.80955920301903
 33
0.0
 14
-140.20778425944036
 24
-635.80955920301903
 34
0.0
 50
-90.0
100
AcDbRotatedDimension
1001
ACAD
1000
DSTYLE
1002
{
1070
             279
1070
               2
1070
             340
1005
37
1070
             174
1070
               0
1070
             147
1040
5.0
1002
}
  0
DIMENSION
  5
176
100
AcDbEntity
  8
notes
370
               5
390
0
  6
Continuous
 62
               7
100
AcDbDimension
  2
*D16
 10
89.792215740563279
 20
785.1126386805314
 30
0.0
 11
89.792215740563279
 21
722.6126386805314
 31
0.0
 71
               5
 72
               1
 41
1.0
 42
0.0
  3
tform線あり
100
AcDbAlignedDimension
 13
-59.116996832421137
 23
660.1126386805314
 33
0.0
 14
-71.707784259441041
 24
785.1126386805314
 34
0.0
 50
90.0
100
AcDbRotatedDimension
1001
ACAD
1000
DSTYLE
1002
{
1070
             279
1070
               2
1070
             340
1005
37
1070
             147
1040
5.0
1002
}
  0
DIMENSION
  5
177
100
AcDbEntity
  8
notes
370
               5
390
0
  6
Continuous
 62
               7
100
AcDbDimension
  2
*D17
 10
89.792215740563279
 20
365.1126386805314
 30
0.0
 11
94.792215740563279
 21
528.0
 31
0.0
 70
             128
 71
               5
 72
               1
 41
1.0
 42
0.0
  3
tform線あり
100
AcDbAlignedDimension
 13
-57.899889180864875
 23
660.1126386805314
 33
0.0
 14
-84.496090906960035
 24
365.1126386805314
 34
0.0
 50
90.0
100
AcDbRotatedDimension
1001
ACAD
1000
DSTYLE
1002
{
1070
             279
1070
               2
1070
             340
1005
37
1070
             147
1040
5.0
1002
}
  0
DIMENSION
  5
178
100
AcDbEntity
  8
notes
370
               5
390
0
  6
Continuous
 62
               7
100
AcDbDimension
  2
*D18
 10
-810.20778425943672
 20
785.1126386805314
 30
0.0
 11
-810.20778425943672
 21
605.1126386805314
 31
0.0
 70
               1
 71
               5
 72
               1
 41
1.0
 42
0.0
  3
tform線あり
100
AcDbAlignedDimension
 13
-701.20778425943672
 23
425.1126386805314
 33
0.0
 14
-701.20778425943672
 24
785.1126386805314
 34
0.0
 50
90.0
1001
ACAD
1000
DSTYLE
1002
{
1070
             279
1070
               2
1070
             340
1005
37
1070
             147
1040
5.0
1002
}
  0
DIMENSION
  5
179
100
AcDbEntity
  8
notes
370
               5
390
0
  6
Continuous
 62
               7
100
AcDbDimension
  2
*D19
 10
637.76223730331026
 20
-430.80955920301994
 30
0.0
 11
637.76223730331026
 21
-513.30955920301994
 31
0.0
 71
               5
 72
               1
 41
1.0
 42
0.0
  3
tform線あり
100
AcDbAlignedDimension
 13
644.92903674907279
 23
-595.80955920301994
 33
0.0
 14
644.92903674907279
 24
-430.80955920301994
 34
0.0
 50
90.0
100
AcDbRotatedDimension
1001
ACAD
1000
DSTYLE
1002
{
1070
             279
1070
               2
1070
             340
1005
37
1070
               3
1000
<>(深さ)
1070
             147
1040
5.0
1002
}
  0
DIMENSION
  5
17A
100
AcDbEntity
  8
notes
370
               5
390
0
  6
Continuous
 62
               7
100
AcDbDimension
  2
*D20
 10
862.54026744123985
 20
-740.861989211013
 30
0.0
 11
757.54026744123985
 21
-740.861989211013
 31
0.0
 71
               5
 72
               1
 41
1.0
 42
0.0
  3
tform線あり
100
AcDbAlignedDimension
 13
652.54026744123985
 23
-640.86198921101277
 33
0.0
 14
862.54026744123985
 24
-635.80955920301813
 34
0.0
100
AcDbRotatedDimension
1001
ACAD
1000
DSTYLE
1002
{
1070
             279
1070
               2
1070
             340
1005
37
1070
             147
1040
5.0
1002
}
  0
DIMENSION
  5
17B
100
AcDbEntity
  8
notes
370
               5
390
0
  6
Continuous
 62
               7
100
AcDbDimension
  2
*D21
 10
-810.20778425943672
 20
-480.80955920301903
 30
0.0
 11
-810.20778425943672
 21
-455.80955920301903
 31
0.0
 71
               5
 72
               1
 41
1.0
 42
0.0
  3
tform線あり
100
AcDbAlignedDimension
 13
-710.20778425943672
 23
-430.80955920301903
 33
0.0
 14
-560.20778425943672
 24
-480.80955920301903
 34
0.0
 50
90.0
100
AcDbRotatedDimension
1001
ACAD
1000
DSTYLE
1002
{
1070
             279
1070
               2
1070
             340
1005
37
1070
             147
1040
5.0
1002
}
  0
MTEXT
  5
17C
100
AcDbEntity
  8
notes
390
0
 62
               7
100
AcDbMText
 10
-847.9112924304327
 20
-582.73841453074579
 30
0.0
 40
24.432617187500004
 41
0.0
 71
               1
 72
               1
  1
壁取付ボルト穴(2ヶ所)
  7
ＭＳ ゴシック
 73
               1
 44
0.7828267384257843
  0
LINE
  5
17D
100
AcDbEntity
  8
notes
370
               5
390
0
  6
Continuous
 62
               7
100
AcDbLine
 10
-510.20778425943672
 20
-480.79999999999995
 30
0.0
 11
-570.39959760864394
 21
-572.0
 31
0.0
  0
LINE
  5
17E
100
AcDbEntity
  8
ARJ70-0021
370
              15
390
0
  6
STYLE_13
 62
               7
100
AcDbLine
 10
615.04522541524386
 20
-595.80955920302085
 30
0.0
 11
652.54522541524386
 21
-595.80955920302085
 31
0.0
  0
LINE
  5
17F
100
AcDbEntity
  8
ARJ70-0021
370
              15
390
0
  6
Continuous
 62
               7
100
AcDbLine
 10
618.54509290743465
 20
-640.86198921101277
 30
0.0
 11
686.54935786256988
 21
-640.86198921101186
 31
0.0
  0
LINE
  5
180
100
AcDbEntity
  8
ARJ70-0021
370
              15
390
0
  6
Continuous
 62
               7
100
AcDbLine
 10
427.31780605690574
 20
-430.80955920302313
 30
0.0
 11
862.54026744123973
 21
-430.80955920301676
 31
0.0
  0
LINE
  5
181
100
AcDbEntity
  8
ARJ70-0021
370
              15
390
0
  6
Continuous
 62
               7
100
AcDbLine
 10
862.54026744123985
 20
-635.80955920301813
 30
0.0
 11
686.54935786256988
 21
-635.80955920301813
 31
0.0
  0
LINE
  5
182
100
AcDbEntity
  8
ARJ70-0021
370
              15
390
0
  6
Continuous
 62
               7
100
AcDbLine
 10
862.54026744123985
 20
-635.80955920301813
 30
0.0
 11
862.54026744123985
 21
-430.80955920301676
 31
0.0
  0
LINE
  5
183
100
AcDbEntity
  8
ARJ70-0021
370
              15
390
0
  6
Continuous
 62
               7
100
AcDbLine
 10
862.54522541523966
 20
-470.80955920301903
 30
0.0
 11
862.5452254152417
 21
-490.80955920301903
 31
0.0
  0
LINE
  5
184
100
AcDbEntity
  8
ARJ70-0021
370
              15
390
0
  6
Continuous
 62
               7
100
AcDbLine
 10
686.54935786256988
 20
-635.80955920301813
 30
0.0
 11
686.54935786256988
 21
-640.86198921101277
 31
0.0
  0
ARC
  5
185
100
AcDbEntity
  8
ARJ70-0021
370
              15
390
0
  6
STYLE_13
 62
               7
100
AcDbCircle
 10
435.22825723703772
 20
-433.52792812094276
 30
0.0
 40
302.10431155180828
100
AcDbArc
 50
327.5087464875071
 51
348.58674752487457
  0
ARC
  5
186
100
AcDbEntity
  8
ARJ70-0021
370
              15
390
0
  6
STYLE_13
 62
               7
100
AcDbCircle
 10
435.22825723703772
 20
-433.52792812094276
 30
0.0
 40
302.10431155180811
100
AcDbArc
 50
348.58674752487457
 51
353.38880763989317
  0
ARC
  5
187
100
AcDbEntity
  8
ARJ70-0021
370
              15
390
0
  6
STYLE_13
 62
               7
100
AcDbCircle
 10
742.32380298367866
 20
-435.80955920302176
 30
0.0
 40
4.9999999999997726
100
AcDbArc
 50
90.0
 51
178.96227117051092
  0
ARC
  5
188
100
AcDbEntity
  8
ARJ70-0021
370
              15
390
0
  6
STYLE_13
 62
               7
100
AcDbCircle
 10
435.22825723703772
 20
-433.52792812094276
 30
0.0
 40
302.10431155180834
100
AcDbArc
 50
353.38880763989317
 51
359.58444627646128
  0
LINE
  5
189
100
AcDbEntity
  8
ARJ70-0021
370
              15
390
0
  6
STYLE_13
 62
               7
100
AcDbLine
 10
690.04522541524398
 20
-595.80955920302085
 30
0.0
 11
652.54522541524386
 21
-595.80955920302085
 31
0.0
  0
ARC
  5
18A
100
AcDbEntity
  8
ARJ70-0021
370
              15
390
0
  6
STYLE_13
 62
               7
100
AcDbCircle
 10
617.33840971188749
 20
-425.52651015061383
 30
0.0
 40
170.29765925289902
100
AcDbArc
 50
183.30868460341497
 51
269.24947617421304
  0
ARC
  5
18B
100
AcDbEntity
  8
ARJ70-0021
370
              15
390
0
  6
Continuous
 62
               7
100
AcDbCircle
 10
558.68181800979175
 20
-502.97506066430378
 30
0.0
 40
133.0
100
AcDbArc
 50
181.1480023162776
 51
267.14137115461142
  0
ARC
  5
18C
100
AcDbEntity
  8
ARJ70-0021
370
              15
390
0
  6
Continuous
 62
               7
100
AcDbCircle
 10
580.78050711527669
 20
-610.42557359845478
 30
0.0
 40
7.9999999999999911
100
AcDbArc
 50
77.910895592233899
 51
160.00000000001074
  0
LINE
  5
18D
100
AcDbEntity
  8
ARJ70-0021
370
              15
390
0
  6
Continuous
 62
               7
100
AcDbLine
 10
610.76430741275146
 20
-606.57692266868571
 30
0.0
 11
582.45596807514869
 21
-602.60298895065671
 31
0.0
  0
LINE
  5
18E
100
AcDbEntity
  8
ARJ70-0021
370
              15
390
0
  6
Continuous
 62
               7
100
AcDbLine
 10
563.0280697483646
 20
-635.80955920302176
 30
0.0
 11
552.04887010050163
 21
-635.80955920302176
 31
0.0
  0
LINE
  5
18F
100
AcDbEntity
  8
ARJ70-0021
370
              15
390
0
  6
Continuous
 62
               7
100
AcDbLine
 10
610.76430741275146
 20
-606.57692266868571
 30
0.0
 11
618.52367953735268
 21
-613.08780895660584
 31
0.0
  0
LINE
  5
190
100
AcDbEntity
  8
ARJ70-0021
370
              15
390
0
  6
Continuous
 62
               7
100
AcDbLine
 10
618.54119757901856
 20
-635.80955920302176
 30
0.0
 11
618.52367953735268
 21
-613.08780895660584
 31
0.0
  0
LINE
  5
191
100
AcDbEntity
  8
ARJ70-0021
370
              15
390
0
  6
Continuous
 62
               7
100
AcDbLine
 10
618.54119757901856
 20
-635.80955920302176
 30
0.0
 11
618.54505248488579
 21
-640.80955920302313
 31
0.0
  0
LINE
  5
192
100
AcDbEntity
  8
ARJ70-0021
370
              15
390
0
  6
Continuous
 62
               7
100
AcDbLine
 10
573.26296614898877
 20
-607.68941245184715
 30
0.0
 11
563.0280697483646
 21
-635.80955920302176
 31
0.0
  0
LINE
  5
193
100
AcDbEntity
  8
ARJ70-0021
370
              15
390
0
  6
Continuous
 62
               7
100
AcDbLine
 10
618.54509290743465
 20
-640.86198921101277
 30
0.0
 11
618.54119757901856
 21
-635.80955920302176
 31
0.0
  0
LINE
  5
194
100
AcDbEntity
  8
ARJ70-0021
370
              15
390
0
  6
STYLE_03
 62
               7
100
AcDbLine
 10
479.60129470766242
 20
-430.80955920302313
 30
0.0
 11
480.26591430667258
 21
-430.80955920302313
 31
0.0
  0
ARC
  5
195
100
AcDbEntity
  8
ARJ70-0021
370
              15
390
0
  6
Continuous
 62
               7
100
AcDbCircle
 10
427.31780605690574
 20
-435.80955920302176
 30
0.0
 40
5.0
100
AcDbArc
 50
90.0
 51
182.78473763519784
  0
ARC
  5
196
100
AcDbEntity
  8
ARJ70-0021
370
              15
390
0
  6
STYLE_13
 62
               7
100
AcDbCircle
 10
442.34530103163343
 20
-435.80955920302176
 30
0.0
 40
5.0000000000000613
100
AcDbArc
 50
5.2126246516361361
 51
89.999999999999986
  0
LINE
  5
197
100
AcDbEntity
  8
ARJ70-0021
370
              15
390
0
  6
Continuous
 62
               7
100
AcDbLine
 10
422.3237104847376
 20
-436.0524777408591
 30
0.0
 11
425.70851408270664
 21
-505.63972625582301
 31
0.0
  0
LWPOLYLINE
  5
198
100
AcDbEntity
  8
ARJ70-0021
370
              15
390
0
  6
Continuous
 62
               7
100
AcDbPolyline
 90
       13
 70
             128
 10
-445.4141168988931
 20
395.07449648520344
 42
0.1643077783914163
 10
-379.20778425944104
 20
356.16282611472138
 42
0.0411621821742475
 10
-245.20778425945468
 20
345.11263868053163
 42
0.0411621821742433
 10
-111.20778425944081
 20
356.16282611472138
 42
0.2843029916861891
 10
-19.658159885734221
 20
443.11263868056778
 42
0.1295443440099768
 10
-19.179773219828576
 20
585.29720431993201
 42
0.1056040119183811
 10
-41.646926027184463
 20
630.1115967636299
 42
-0.1704076796607195
 10
-62.707784259441269
 20
690.1126386805314
 10
-62.707784259441269
 20
776.1126386805314
 42
0.4142135623730728
 10
-71.707784259441041
 20
785.1126386805314
 10
-245.20778425944104
 20
785.1126386805314
 10
-418.70778425944104
 20
785.1126386805314
 10
-701.20778425943672
 20
785.1126386805314
  0
LWPOLYLINE
  5
199
100
AcDbEntity
  8
ARJ70-0021
370
              15
390
0
  6
Continuous
 62
               7
100
AcDbPolyline
 90
        4
 70
             128
 10
-245.2077842594399
 20
-635.80955920301903
 10
-155.69062859256155
 20
-635.80955920301903
 10
-140.20778425944127
 20
-635.80955920301903
 42
0.3938770525527591
 10
-13.867428241643211
 20
-505.63972625582392
  0
LINE
  5
19A
100
AcDbEntity
  8
ARJ70-0021
370
              15
390
0
  6
Continuous
 62
               7
100
AcDbLine
 10
-464.44849017872093
 20
-430.80955920301903
 30
0.0
 11
-25.967078340159787
 21
-430.80955920301903
 31
0.0
  0
LWPOLYLINE
  5
19B
100
AcDbEntity
  8
ARJ70-0021
370
              15
390
0
  6
Continuous
 62
               7
100
AcDbPolyline
 90
        5
 70
             128
 10
-44.088994352874806
 20
448.74860017756828
 42
-0.2829162877120441
 10
-116.8813302791516
 20
379.25736507384397
 42
-0.0409917481933341
 10
-247.67795114373621
 20
368.5161520680316
 42
-0.0409917481933227
 10
-378.47457200831263
 20
379.25736507384045
 42
-0.282916287712059
 10
-451.26690793459625
 20
448.74860017756873
  0
LWPOLYLINE
  5
19C
100
AcDbEntity
  8
ARJ70-0021
370
              15
390
0
  6
Continuous
 62
               7
100
AcDbPolyline
 90
        4
 70
             128
 10
-659.95778425943899
 20
425.1126386805314
 10
-527.46721055459375
 20
425.1126386805314
 10
-513.89119468486433
 20
425.1126386805314
 42
-0.2142083069712936
 10
-444.38686683581909
 20
393.90380641713057
  0
LWPOLYLINE
  5
19D
100
AcDbEntity
  8
ARJ70-0021
370
              15
390
0
  6
Continuous
 62
               7
100
AcDbPolyline
 90
        4
 70
             128
 10
-701.20778425943672
 20
785.1126386805314
 42
0.4142135623730913
 10
-710.20778425943672
 20
776.1126386805314
 10
-710.20778425943672
 20
434.1126386805314
 42
0.414213562373095
 10
-701.20778425943672
 20
425.1126386805314
  0
LINE
  5
19E
100
AcDbEntity
  8
ARJ70-0021
370
              15
390
0
  6
Continuous
 62
               7
100
AcDbLine
 10
-701.20778425943672
 20
425.1126386805314
 30
0.0
 11
-514.33749740701614
 21
425.1126386805314
 31
0.0
  0
CIRCLE
  5
19F
100
AcDbEntity
  8
ARJ70-0021
370
              15
390
0
  6
Continuous
 62
               7
100
AcDbCircle
 10
-250.20778425943899
 20
720.1126386805314
 30
0.0
 40
17.5
  0
CIRCLE
  5
1A0
100
AcDbEntity
  8
ARJ70-0021
370
              15
390
0
  6
Continuous
 62
               7
100
AcDbCircle
 10
-245.20778425943899
 20
575.11263868053152
 30
0.0
 40
37.5
  0
LWPOLYLINE
  5
1A1
100
AcDbEntity
  8
ARJ70-0021
370
              15
390
0
  6
Continuous
 62
               7
100
AcDbPolyline
 90
        7
 70
             128
 10
-451.29180894065075
 20
448.8425472908566
 42
-0.132681718806292
 10
-450.91624437141149
 20
582.77309857460261
 42
-0.2791444215134002
 10
-378.47457200829786
 20
650.96791228722941
 42
-0.0409917481933046
 10
-247.6779511437353
 20
661.70912529303132
 42
-0.0409917481933072
 10
-116.88133027915296
 20
650.967912287226
 42
-0.2791444215134579
 10
-44.439657916052738
 20
582.7730985745842
 42
-0.1326817188062747
 10
-44.064093346818481
 20
448.84254729085569
  0
CIRCLE
  5
1A2
100
AcDbEntity
  8
ARJ70-0021
370
              15
390
0
  6
Continuous
 62
               7
100
AcDbCircle
 10
-245.20778425943899
 20
575.11263868053152
 30
0.0
 40
23.0
  0
LWPOLYLINE
  5
1A3
100
AcDbEntity
  8
ARJ70-0021
370
              15
390
0
  6
Continuous
 62
               7
100
AcDbPolyline
 90
        4
 70
             128
 10
-245.2077842594399
 20
-635.80955920301903
 10
-334.72493992631985
 20
-635.80955920301903
 10
-350.2077842594399
 20
-635.80955920301903
 42
-0.4044033923729097
 10
-476.55720587119094
 20
-500.80955920301903
  0
LWPOLYLINE
  5
1A4
100
AcDbEntity
  8
ARJ70-0021
370
              15
390
0
  6
Continuous
 62
               7
100
AcDbPolyline
 90
        2
 70
             128
 10
-706.8149926622591
 20
-500.80955920301903
 42
-0.1760059804411161
 10
-441.54190797388083
 20
-592.9275641173499
  0
LWPOLYLINE
  5
1A5
100
AcDbEntity
  8
ARJ70-0021
370
              15
390
0
  6
Continuous
 62
               7
100
AcDbPolyline
 90
        5
 70
             128
 10
-459.96344456552083
 20
-500.80955920301903
 10
-706.53923970962478
 20
-500.80955920301903
 10
-710.20778425943672
 20
-430.80955920301903
 10
-681.48367615878487
 20
-430.80955920301903
 10
-274.93888363303495
 20
-430.80955920301903
  0
LINE
  5
1A6
100
AcDbEntity
  8
ARJ70-0021
370
              15
390
0
  6
Continuous
 62
               7
100
AcDbLine
 10
-693.13415253180892
 20
-500.80955920301903
 30
0.0
 11
-706.81499266225956
 21
-500.80955920301903
 31
0.0
  0
LINE
  5
1A7
100
AcDbEntity
  8
ARJ70-0021
370
              15
390
0
  6
STYLE_13
 62
               7
100
AcDbLine
 10
-72.263853551859938
 20
-430.80955920301903
 30
0.0
 11
-72.928473150870104
 21
-430.80955920301903
 31
0.0
  0
LWPOLYLINE
  5
1A8
100
AcDbEntity
  8
ARJ70-0021
370
              15
390
0
  6
Continuous
 62
               7
100
AcDbPolyline
 90
        4
 70
             128
 10
-25.967078340159787
 20
-430.80955920301903
 10
-15.476684885845316
 20
-430.80955920301903
 42
-0.429633905966852
 10
-10.483537212072406
 20
-436.07123898423379
 10
-13.867428241643211
 20
-505.63972625582392
  0
LINE
  5
1A9
100
AcDbEntity
  8
ARJ70-0021
370
              15
390
0
  6
STYLE_03
 62
               7
100
AcDbLine
 10
-185.20778425943695
 20
-500.79999999999995
 30
0.0
 11
-185.20778425943695
 21
-460.79999999999995
 31
0.0
  0
POLYLINE
  5
1AA
100
AcDbEntity
  8
ARJ70-0021
370
              15
390
0
  6
Continuous
 62
               7
100
AcDb2dPolyline
 66
               1
 10
0.0
 20
0.0
 30
0.0
 70
               1
 75
               5
  0
VERTEX
  5
1AB
100
AcDbEntity
  8
ARJ70-0021
370
              15
390
0
  6
Continuous
 62
               7
100
AcDbVertex
100
AcDb2dVertex
 10
-280.2077842594399
 20
-635.80955920301903
 30
0.0
  0
VERTEX
  5
1AC
100
AcDbEntity
  8
ARJ70-0021
370
              15
390
0
  6
Continuous
 62
               7
100
AcDbVertex
100
AcDb2dVertex
 10
-210.2077842594399
 20
-635.80955920301903
 30
0.0
  0
VERTEX
  5
1AD
100
AcDbEntity
  8
ARJ70-0021
370
              15
390
0
  6
Continuous
 62
               7
100
AcDbVertex
100
AcDb2dVertex
 10
-210.2077842594399
 20
-640.80955920301903
 30
0.0
  0
VERTEX
  5
1AE
100
AcDbEntity
  8
ARJ70-0021
370
              15
390
0
  6
Continuous
 62
               7
100
AcDbVertex
100
AcDb2dVertex
 10
-280.2077842594399
 20
-640.80955920301903
 30
0.0
  0
SEQEND
  5
1AF
100
AcDbEntity
  8
ARJ70-0021
370
              15
390
0
  6
Continuous
 62
               7
  0
LINE
  5
1B0
100
AcDbEntity
  8
ARJ70-0021
370
              15
390
0
  6
STYLE_03
 62
               7
100
AcDbLine
 10
-422.85278056932975
 20
-430.82488113438262
 30
0.0
 11
-422.18816097031913
 21
-430.82488113438262
 31
0.0
  0
ARC
  5
1B1
100
AcDbEntity
  8
ARJ70-0021
370
              15
390
0
  6
STYLE_13
 62
               7
100
AcDbCircle
 10
-206.76622512298309
 20
-425.52651000086394
 30
0.0
 40
170.29765925289865
100
AcDbArc
 50
270.75052382578696
 51
356.69131539658503
  0
ARC
  5
1B2
100
AcDbEntity
  8
ARJ70-0021
370
              15
390
0
  6
STYLE_13
 62
               7
100
AcDbCircle
 10
-31.773116442729133
 20
-435.80955905327187
 30
0.0
 40
5.0
100
AcDbArc
 50
90.0
 51
174.78737534836387
  0
ARC
  5
1B3
100
AcDbEntity
  8
ARJ70-0021
370
              15
390
0
  6
STYLE_13
 62
               7
100
AcDbCircle
 10
-288.6309182499308
 20
-425.52651000086394
 30
0.0
 40
170.29765925289891
100
AcDbArc
 50
183.30868460341497
 51
269.24947617421304
  0
ARC
  5
1B4
100
AcDbEntity
  8
ARJ70-0021
370
              15
390
0
  6
STYLE_13
 62
               7
100
AcDbCircle
 10
-463.62402693018475
 20
-435.80955905327187
 30
0.0
 40
5.0000000000000613
100
AcDbArc
 50
5.2126246516361361
 51
89.999999999999986
  0
LINE
  5
1B5
100
AcDbEntity
  8
ARJ70-0021
370
              15
390
0
  6
STYLE_13
 62
               7
100
AcDbLine
 10
-290.86160254655988
 20
-595.80955905327301
 30
0.0
 11
-204.53554082635401
 21
-595.80955905327301
 31
0.0
  0
LINE
  5
1B6
100
AcDbEntity
  8
ARJ70-0021
370
              15
390
0
  6
Continuous
 62
               7
100
AcDbLine
 10
780.04026744123985
 20
-431.0
 30
0.0
 11
780.04026744123985
 21
-446.0
 31
0.0
  0
LINE
  5
1B7
100
AcDbEntity
  8
ARJ70-0021
370
              15
390
0
  6
Continuous
 62
               7
100
AcDbLine
 10
815.04026744123985
 20
-431.0
 30
0.0
 11
815.04026744123985
 21
-446.0
 31
0.0
  0
LINE
  5
1B8
100
AcDbEntity
  8
ARJ70-0021
370
              15
390
0
  6
STYLE_13
 62
               7
100
AcDbLine
 10
629.54026744123985
 20
-595.80955920302085
 30
0.0
 11
629.54026744123985
 21
-640.86198921101277
 31
0.0
  0
LINE
  5
1B9
100
AcDbEntity
  8
ARJ70-0021
370
              15
390
0
  6
STYLE_13
 62
               7
100
AcDbLine
 10
675.54026744123985
 20
-595.80955920302085
 30
0.0
 11
675.54026744123985
 21
-640.86198921101277
 31
0.0
  0
LINE
  5
1BA
100
AcDbEntity
  8
ARJ70-0021
370
              15
390
0
  6
STYLE_03
 62
               7
100
AcDbLine
 10
-165.20778425943695
 20
-480.79999999999995
 30
0.0
 11
-205.20778425943695
 21
-480.79999999999995
 31
0.0
  0
CIRCLE
  5
1BB
100
AcDbEntity
  8
ARJ70-0021
370
              15
390
0
  6
STYLE_13
 62
               7
100
AcDbCircle
 10
-185.20778425943695
 20
-480.79999999999995
 30
0.0
 40
10.000000000000096
  0
LINE
  5
1BC
100
AcDbEntity
  8
ARJ70-0021
370
              15
390
0
  6
STYLE_03
 62
               7
100
AcDbLine
 10
-490.20778425943695
 20
-480.79999999999995
 30
0.0
 11
-530.20778425943672
 21
-480.79999999999995
 31
0.0
  0
CIRCLE
  5
1BD
100
AcDbEntity
  8
ARJ70-0021
370
              15
390
0
  6
STYLE_13
 62
               7
100
AcDbCircle
 10
-510.20778425943672
 20
-480.79999999999995
 30
0.0
 40
9.9999999999998685
  0
LINE
  5
1BE
100
AcDbEntity
  8
ARJ70-0021
370
              15
390
0
  6
STYLE_03
 62
               7
100
AcDbLine
 10
-510.20778425943672
 20
-500.79999999999995
 30
0.0
 11
-510.20778425943672
 21
-460.79999999999995
 31
0.0
  0
LINE
  5
1BF
100
AcDbEntity
  8
ARJ70-0021
370
              15
390
0
  6
STYLE_13
 62
               7
100
AcDbLine
 10
-222.2077842594399
 20
-640.80955920301903
 30
0.0
 11
-222.2077842594399
 21
-595.80955905327301
 31
0.0
  0
LINE
  5
1C0
100
AcDbEntity
  8
ARJ70-0021
370
              15
390
0
  6
STYLE_13
 62
               7
100
AcDbLine
 10
-268.2077842594399
 20
-640.80955920301903
 30
0.0
 11
-268.2077842594399
 21
-595.80955905327301
 31
0.0
  0
ENDSEC
  0
SECTION
  2
OBJECTS
  0
DICTIONARY
  5
19
100
AcDbDictionary
280
               0
281
               1
  3
ACAD_GROUP
350
1A
  3
ACAD_MLINESTYLE
350
1B
  3
ACAD_LAYOUT
350
1E
  3
ACAD_PLOTSETTINGS
350
22
  3
ACAD_PLOTSTYLENAME
350
1F
  0
DICTIONARY
  5
1A
102
{ACAD_REACTORS
330
19
102
}
100
AcDbDictionary
280
               0
281
               1
  0
DICTIONARY
  5
1B
102
{ACAD_REACTORS
330
19
102
}
100
AcDbDictionary
280
               0
281
               1
  3
Standard
350
1C
  0
MLINESTYLE
  5
1C
102
{ACAD_REACTORS
330
1B
102
}
100
AcDbMlineStyle
  2
Standard
 70
               0
  3

 62
               0
 51
90.0
 52
90.0
 71
               2
 49
0.5
 62
             256
  6
ByLayer
 49
-0.5
 62
             256
  6
ByLayer
  0
ACDBDICTIONARYWDFLT
  5
1F
102
{ACAD_REACTORS
330
19
102
}
100
AcDbDictionary
281
               1
  3
Normal
350
1D
100
AcDbDictionaryWithDefault
340
1D
  0
ACDBPLACEHOLDER
  5
1D
102
{ACAD_REACTORS
330
1F
102
}
  0
LAYOUT
  5
20
102
{ACAD_REACTORS
330
1E
102
}
100
AcDbPlotSettings
  1

  2

  4

  6

 40
0.0
 41
0.0
 42
0.0
 43
0.0
 44
0.0
 45
0.0
 46
0.0
 47
0.0
 48
0.0
 49
0.0
140
0.0
141
0.0
142
1.0
143
1.0
 70
            1024
 72
               0
 73
               0
 74
               0
  7

 75
               0
147
1.0
148
0.0
149
0.0
100
AcDbLayout
  1
Model
 70
               0
 71
               0
 10
0.0
 20
0.0
 11
0.0
 21
0.0
 12
0.0
 22
0.0
 32
0.0
 14
0.0
 24
0.0
 34
0.0
 15
0.0
 25
0.0
 35
0.0
146
0.0
 13
0.0
 23
0.0
 33
0.0
 16
0.0
 26
0.0
 36
0.0
 17
0.0
 27
0.0
 37
0.0
 76
               0
330
A
331
0
345
0
346
0
  0
LAYOUT
  5
21
102
{ACAD_REACTORS
330
1E
102
}
100
AcDbPlotSettings
  1

  2

  4

  6

 40
0.0
 41
0.0
 42
0.0
 43
0.0
 44
0.0
 45
0.0
 46
0.0
 47
0.0
 48
0.0
 49
0.0
140
0.0
141
0.0
142
1.0
143
1.0
 70
               0
 72
               0
 73
               0
 74
               0
  7

 75
               0
147
1.0
148
0.0
149
0.0
100
AcDbLayout
  1
Layout1
 70
               0
 71
               0
 10
0.0
 20
0.0
 11
0.0
 21
0.0
 12
0.0
 22
0.0
 32
0.0
 14
0.0
 24
0.0
 34
0.0
 15
0.0
 25
0.0
 35
0.0
146
0.0
 13
0.0
 23
0.0
 33
0.0
 16
0.0
 26
0.0
 36
0.0
 17
0.0
 27
0.0
 37
0.0
 76
               0
330
B
331
0
345
0
346
0
  0
DICTIONARY
  5
1E
102
{ACAD_REACTORS
330
19
102
}
100
AcDbDictionary
280
               0
281
               1
  3
Layout1
350
21
  3
Model
350
20
  0
DICTIONARY
  5
22
102
{ACAD_REACTORS
330
19
102
}
100
AcDbDictionary
280
               0
281
               1
  0
ENDSEC
  0
EOF
