  0
SECTION
  2
HEADER
  9
$ACADVER
  1
AC1015
  9
$ACADMAINTVER
 70
               6
  9
$DWGCODEPAGE
  3
ANSI_932
  9
$INSBASE
 10
0.0
 20
0.0
 30
0.0
  9
$EXTMIN
 10
-975.00000000024102
 20
-1431.5255224711129
 30
-14.834305555555554
  9
$EXTMAX
 10
975.00000000024124
 20
1405.9972926412995
 30
14.834305555555554
  9
$LIMMIN
 10
0.0
 20
0.0
  9
$LIMMAX
 10
0.0
 20
0.0
  9
$ORTHOMODE
 70
               0
  9
$REGENMODE
 70
               1
  9
$FILLMODE
 70
               1
  9
$QTEXTMODE
 70
               0
  9
$MIRRTEXT
 70
               1
  9
$LTSCALE
 40
25.399999999999999
  9
$ATTMODE
 70
               1
  9
$TEXTSIZE
 40
0.2
  9
$TRACEWID
 40
1.0
  9
$TEXTSTYLE
  7
Standard
  9
$CLAYER
  8
ARJ70-0028
  9
$CELTYPE
  6
Continuous
  9
$CECOLOR
 62
             256
  9
$CELTSCALE
 40
1.0
  9
$DISPSILH
 70
               0
  9
$DIMSCALE
 40
1.0
  9
$DIMASZ
 40
31.75
  9
$DIMEXO
 40
0.0
  9
$DIMDLI
 40
6.9999999999999396
  9
$DIMRND
 40
0.0
  9
$DIMDLE
 40
0.0
  9
$DIMEXE
 40
19.999999999996199
  9
$DIMTP
 40
0.0
  9
$DIMTM
 40
0.0
  9
$DIMTXT
 40
24.432617187500004
  9
$DIMCEN
 40
0.0
  9
$DIMTSZ
 40
0.0
  9
$DIMTOL
 70
               0
  9
$DIMLIM
 70
               0
  9
$DIMTIH
 70
               0
  9
$DIMTOH
 70
               0
  9
$DIMSE1
 70
               0
  9
$DIMSE2
 70
               0
  9
$DIMTAD
 70
               1
  9
$DIMZIN
 70
              11
  9
$DIMBLK
  1
VW_FILLEDARROW
  9
$DIMASO
 70
               1
  9
$DIMSHO
 70
               1
  9
$DIMPOST
  1
<>
  9
$DIMAPOST
  1
[]
  9
$DIMALT
 70
               0
  9
$DIMALTD
 70
               1
  9
$DIMALTF
 40
1.0
  9
$DIMLFAC
 40
1.0
  9
$DIMTOFL
 70
               0
  9
$DIMTVP
 40
0.0
  9
$DIMTIX
 70
               1
  9
$DIMSOXD
 70
               0
  9
$DIMSAH
 70
               0
  9
$DIMBLK1
  1

  9
$DIMBLK2
  1

  9
$DIMSTYLE
  2
JIS
  9
$DIMCLRD
 70
               0
  9
$DIMCLRE
 70
               0
  9
$DIMCLRT
 70
               0
  9
$DIMTFAC
 40
1.0
  9
$DIMGAP
 40
1.00000000000108
  9
$DIMJUST
 70
               0
  9
$DIMSD1
 70
               0
  9
$DIMSD2
 70
               0
  9
$DIMTOLJ
 70
               1
  9
$DIMTZIN
 70
              11
  9
$DIMALTZ
 70
              11
  9
$DIMALTTZ
 70
              11
  9
$DIMUPT
 70
               0
  9
$DIMDEC
 70
               1
  9
$DIMTDEC
 70
               1
  9
$DIMALTU
 70
               2
  9
$DIMALTTD
 70
               2
  9
$DIMTXSTY
  7
ＭＳ ゴシック
  9
$DIMAUNIT
 70
               0
  9
$DIMADEC
 70
               2
  9
$DIMALTRND
 40
0.0
  9
$DIMAZIN
 70
               0
  9
$DIMDSEP
 70
              46
  9
$DIMATFIT
 70
               0
  9
$DIMFRAC
 70
               2
  9
$DIMLDRBLK
  1

  9
$DIMLUNIT
 70
               2
  9
$DIMLWD
 70
              -2
  9
$DIMLWE
 70
              -2
  9
$DIMTMOVE
 70
               0
  9
$LUNITS
 70
               2
  9
$LUPREC
 70
               4
  9
$SKETCHINC
 40
0.1
  9
$FILLETRAD
 40
0.0
  9
$AUNITS
 70
               0
  9
$AUPREC
 70
               0
  9
$MENU
  1
acad
  9
$ELEVATION
 40
0.0
  9
$PELEVATION
 40
0.0
  9
$THICKNESS
 40
0.0
  9
$LIMCHECK
 70
               0
  9
$CHAMFERA
 40
0.0
  9
$CHAMFERB
 40
0.0
  9
$CHAMFERC
 40
0.0
  9
$CHAMFERD
 40
0.0
  9
$SKPOLY
 70
               0
  9
$TDCREATE
 40
2455569.435034722
  9
$TDUCREATE
 40
0.000000000
  9
$TDUPDATE
 40
2455569.435034722
  9
$TDUUPDATE
 40
0.000000000
  9
$TDINDWG
 40
0.0000000000
  9
$TDUSRTIMER
 40
0.0000000000
  9
$USRTIMER
 70
               1
  9
$ANGBASE
 50
0.0
  9
$ANGDIR
 70
               0
  9
$PDMODE
 70
               1
  9
$PDSIZE
 40
-2.0
  9
$PLINEWID
 40
0.0
  9
$SPLFRAME
 70
               0
  9
$SPLINETYPE
 70
               6
  9
$SPLINESEGS
 70
               8
  9
$HANDSEED
  5
1F1
  9
$SURFTAB1
 70
               6
  9
$SURFTAB2
 70
               6
  9
$SURFTYPE
 70
               6
  9
$SURFU
 70
               6
  9
$SURFV
 70
               6
  9
$UCSBASE
  2

  9
$UCSNAME
  2

  9
$UCSORG
 10
0.0
 20
0.0
 30
0.0
  9
$UCSXDIR
 10
1.0
 20
0.0
 30
0.0
  9
$UCSYDIR
 10
0.0
 20
1.0
 30
0.0
  9
$UCSORTHOREF
  2

  9
$UCSORTHOVIEW
 70
               0
  9
$UCSORGTOP
 10
0.0
 20
0.0
 30
0.0
  9
$UCSORGBOTTOM
 10
0.0
 20
0.0
 30
0.0
  9
$UCSORGLEFT
 10
0.0
 20
0.0
 30
0.0
  9
$UCSORGRIGHT
 10
0.0
 20
0.0
 30
0.0
  9
$UCSORGFRONT
 10
0.0
 20
0.0
 30
0.0
  9
$UCSORGBACK
 10
0.0
 20
0.0
 30
0.0
  9
$PUCSBASE
  2

  9
$PUCSNAME
  2

  9
$PUCSORG
 10
0.0
 20
0.0
 30
0.0
  9
$PUCSXDIR
 10
1.0
 20
0.0
 30
0.0
  9
$PUCSYDIR
 10
0.0
 20
1.0
 30
0.0
  9
$PUCSORTHOREF
  2

  9
$PUCSORTHOVIEW
 70
               0
  9
$PUCSORGTOP
 10
0.0
 20
0.0
 30
0.0
  9
$PUCSORGBOTTOM
 10
0.0
 20
0.0
 30
0.0
  9
$PUCSORGLEFT
 10
0.0
 20
0.0
 30
0.0
  9
$PUCSORGRIGHT
 10
0.0
 20
0.0
 30
0.0
  9
$PUCSORGFRONT
 10
0.0
 20
0.0
 30
0.0
  9
$PUCSORGBACK
 10
0.0
 20
0.0
 30
0.0
  9
$USERI1
 70
               0
  9
$USERI2
 70
               0
  9
$USERI3
 70
               0
  9
$USERI4
 70
               0
  9
$USERI5
 70
               0
  9
$USERR1
 40
0.0
  9
$USERR2
 40
0.0
  9
$USERR3
 40
0.0
  9
$USERR4
 40
0.0
  9
$USERR5
 40
0.0
  9
$WORLDVIEW
 70
               1
  9
$SHADEDGE
 70
               3
  9
$SHADEDIF
 70
              70
  9
$TILEMODE
 70
               1
  9
$MAXACTVP
 70
              64
  9
$PINSBASE
 10
0.0
 20
0.0
 30
0.0
  9
$PLIMCHECK
 70
               0
  9
$PEXTMIN
 10
1.0000000000000000E+20
 20
1.0000000000000000E+20
 30
1.0000000000000000E+20
  9
$PEXTMAX
 10
-1.0000000000000000E+20
 20
-1.0000000000000000E+20
 30
-1.0000000000000000E+20
  9
$PLIMMIN
 10
0.0
 20
0.0
  9
$PLIMMAX
 10
12.0
 20
9.0
  9
$UNITMODE
 70
               0
  9
$VISRETAIN
 70
               0
  9
$PLINEGEN
 70
               1
  9
$PSLTSCALE
 70
               0
  9
$TREEDEPTH
 70
            3020
  9
$CMLSTYLE
  2
Standard
  9
$CMLJUST
 70
               0
  9
$CMLSCALE
 40
1.0
  9
$PROXYGRAPHICS
 70
               0
  9
$MEASUREMENT
 70
               1
  9
$CELWEIGHT
370
               0
  9
$ENDCAPS
280
               0
  9
$JOINSTYLE
280
               0
  9
$LWDISPLAY
290
               1
  9
$INSUNITS
 70
               4
  9
$HYPERLINKBASE
  1

  9
$STYLESHEET
  1

  9
$XEDIT
290
               1
  9
$CEPSNTYPE
380
               0
  9
$PSTYLEMODE
290
               1
  9
$FINGERPRINTGUID
  2

  9
$VERSIONGUID
  2

  9
$EXTNAMES
290
               1
  9
$PSVPSCALE
 40
0.0
  0
ENDSEC
  0
SECTION
  2
CLASSES
  0
CLASS
  1
LWPOLYLINE
  2
AcDbPolyline
  3
AutoCAD 2000
 90
        0
280
               0
281
               1
  0
CLASS
  1
IMAGE
  2
AcDbRasterImage
  3
ISM
 90
      127
280
               0
281
               1
  0
CLASS
  1
OLE2FRAME
  2
AcDbOle2Frame
  3
AutoCAD 2000
 90
        0
280
               0
281
               1
  0
CLASS
  1
HATCH
  2
AcDbHatch
  3
AutoCAD 2000
 90
        0
280
               0
281
               1
  0
CLASS
  1
DICTIONARYVAR
  2
AcDbDictionaryVar
  3
AutoCAD 2000
 90
        0
280
               0
281
               0
  0
CLASS
  1
RASTERVARIABLES
  2
AcDbRasterVariables
  3
ISM
 90
        0
280
               0
281
               0
  0
CLASS
  1
IMAGEDEF
  2
AcDbRasterImageDef
  3
ISM
 90
        0
280
               0
281
               0
  0
CLASS
  1
IMAGEDEF_REACTOR
  2
AcDbRasterImageDefReactor
  3
ISM
 90
        1
280
               0
281
               0
  0
CLASS
  1
IDBUFFER
  2
AcDbIdBuffer
  3
AutoCAD 2000
 90
        0
280
               0
281
               0
  0
CLASS
  1
SPATIAL_FILTER
  2
AcDbSpatialFilter
  3
AutoCAD 2000
 90
        0
280
               0
281
               0
  0
CLASS
  1
XRECORD
  2
AcDbXrecord
  3
AutoCAD 2000
 90
        0
280
               0
281
               0
  0
CLASS
  1
SORTENTSTABLE
  2
AcDbSortentsTable
  3
AutoCAD 2000
 90
        0
280
               0
281
               0
  0
CLASS
  1
LAYER_INDEX
  2
AcDbLayerIndex
  3
AutoCAD 2000
 90
        0
280
               0
281
               0
  0
CLASS
  1
SPATIAL_INDEX
  2
AcDbSpatialIndex
  3
AutoCAD 2000
 90
        0
280
               0
281
               0
  0
CLASS
  1
OBJECT_PTR
  2
CAseDLPNTableRecord
  3
"ASE-LPNTableRecord"
 90
        1
280
               0
281
               0
  0
CLASS
  1
LAYOUT
  2
AcDbLayout
  3
AutoCAD 2000
 90
        0
280
               0
281
               0
  0
CLASS
  1
PLOTSETTINGS
  2
AcDbPlotSettings
  3
AutoCAD 2000
 90
        0
280
               0
281
               0
  0
CLASS
  1
ACDBDICTIONARYWDFLT
  2
AcDbDictionaryWithDefault
  3
AutoCAD 2000
 90
        0
280
               0
281
               0
  0
CLASS
  1
ACDBPLACEHOLDER
  2
AcDbPlaceHolder
  3
AutoCAD 2000
 90
        0
280
               0
281
               0
  0
ENDSEC
  0
SECTION
  2
TABLES
  0
TABLE
  2
VPORT
  5
7
100
AcDbSymbolTable
 70
               1
  0
VPORT
  5
15
100
AcDbSymbolTableRecord
100
AcDbViewportTableRecord
  2
*ACTIVE
 70
               0
 10
0.0
 20
0.0
 11
1.0
 21
1.0
 12
0.0000000000001137
 22
-12.764114914906713
 13
0.0
 23
0.0
 14
1.0
 24
1.0
 15
0.0
 25
0.0
 16
0.0
 26
0.0
 36
1.0
 17
0.0
 27
0.0
 37
0.0
 40
2837.5228151124124
 41
0.688564
 42
50.0
 43
0.0
 44
0.0
 50
0.0
 51
0.0
 71
               0
 72
            2000
 73
               1
 74
               1
 75
               0
 76
               0
 77
               0
 78
               0
281
               0
 65
               0
110
0.0
120
0.0
130
0.0
111
1.0
121
0.0
131
0.0
112
0.0
122
1.0
132
0.0
345
0
346
0
 79
               0
146
0.0
  0
ENDTAB
  0
TABLE
  2
LTYPE
  5
4
100
AcDbSymbolTable
 70
              16
  0
LTYPE
  5
11
100
AcDbSymbolTableRecord
100
AcDbLinetypeTableRecord
  2
ByBlock
 70
              64
  3

 72
              65
 73
               0
 40
0.0
  0
LTYPE
  5
12
100
AcDbSymbolTableRecord
100
AcDbLinetypeTableRecord
  2
ByLayer
 70
              64
  3

 72
              65
 73
               0
 40
0.0
  0
LTYPE
  5
13
100
AcDbSymbolTableRecord
100
AcDbLinetypeTableRecord
  2
Continuous
 70
              64
  3
Solid line
 72
              65
 73
               0
 40
0.0
  0
LTYPE
  5
3A
100
AcDbSymbolTableRecord
100
AcDbLinetypeTableRecord
  2
STYLE_01
 70
               0
  3

 72
              65
 73
               4
 40
0.078740157480315
 49
0.0492125984251968
 74
               0
 49
-0.0098425196850394
 74
               0
 49
0.0098425196850394
 74
               0
 49
-0.0098425196850394
 74
               0
  0
LTYPE
  5
3B
100
AcDbSymbolTableRecord
100
AcDbLinetypeTableRecord
  2
STYLE_02
 70
               0
  3

 72
              65
 73
               2
 40
0.0590551181102362
 49
0.0393700787401574
 74
               0
 49
-0.0196850393700788
 74
               0
  0
LTYPE
  5
3C
100
AcDbSymbolTableRecord
100
AcDbLinetypeTableRecord
  2
STYLE_03
 70
               0
  3

 72
              65
 73
               2
 40
0.7499999999999998
 49
0.5
 74
               0
 49
-0.2499999999999998
 74
               0
  0
LTYPE
  5
3D
100
AcDbSymbolTableRecord
100
AcDbLinetypeTableRecord
  2
STYLE_04
 70
               0
  3

 72
              65
 73
               4
 40
1.9999999999999998
 49
1.25
 74
               0
 49
-0.2499999999999999
 74
               0
 49
0.2499999999999999
 74
               0
 49
-0.2499999999999999
 74
               0
  0
LTYPE
  5
3E
100
AcDbSymbolTableRecord
100
AcDbLinetypeTableRecord
  2
STYLE_05
 70
               0
  3

 72
              65
 73
               2
 40
0.41656
 49
0.13885
 74
               0
 49
-0.27771
 74
               0
  0
LTYPE
  5
3F
100
AcDbSymbolTableRecord
100
AcDbLinetypeTableRecord
  2
STYLE_06
 70
               0
  3

 72
              65
 73
               4
 40
2.0832800000000002
 49
1.25
 74
               0
 49
-0.41656
 74
               0
 49
0.1388600000000001
 74
               0
 49
-0.2778600000000001
 74
               0
  0
LTYPE
  5
40
100
AcDbSymbolTableRecord
100
AcDbLinetypeTableRecord
  2
STYLE_07
 70
               0
  3

 72
              65
 73
               6
 40
3.75
 49
1.25
 74
               0
 49
-0.41656
 74
               0
 49
1.2500000000000002
 74
               0
 49
-0.4167199999999999
 74
               0
 49
0.1388600000000001
 74
               0
 49
-0.2778599999999998
 74
               0
  0
LTYPE
  5
41
100
AcDbSymbolTableRecord
100
AcDbLinetypeTableRecord
  2
STYLE_08
 70
               0
  3

 72
              65
 73
               6
 40
2.5
 49
1.25
 74
               0
 49
-0.41656
 74
               0
 49
0.1388600000000001
 74
               0
 49
-0.2778600000000001
 74
               0
 49
0.1388599999999998
 74
               0
 49
-0.2778600000000001
 74
               0
  0
LTYPE
  5
42
100
AcDbSymbolTableRecord
100
AcDbLinetypeTableRecord
  2
STYLE_09
 70
               0
  3

 72
              65
 73
               4
 40
10.0
 49
7.5
 74
               0
 49
-0.5555699999999997
 74
               0
 49
1.3888600000000006
 74
               0
 49
-0.5555699999999997
 74
               0
  0
LTYPE
  5
43
100
AcDbSymbolTableRecord
100
AcDbLinetypeTableRecord
  2
STYLE_10
 70
               0
  3

 72
              65
 73
               6
 40
11.875
 49
7.5
 74
               0
 49
-0.5555699999999997
 74
               0
 49
1.3888600000000006
 74
               0
 49
-0.5555699999999997
 74
               0
 49
1.25
 74
               0
 49
-0.625
 74
               0
  0
LTYPE
  5
44
100
AcDbSymbolTableRecord
100
AcDbLinetypeTableRecord
  2
STYLE_11
 70
               0
  3

 72
              65
 73
               2
 40
0.1388889763779528
 49
0.0694444881889764
 74
               0
 49
-0.0694444881889764
 74
               0
  0
LTYPE
  5
45
100
AcDbSymbolTableRecord
100
AcDbLinetypeTableRecord
  2
STYLE_12
 70
               0
  3

 72
              65
 73
               2
 40
0.3472222222222222
 49
0.2083333333333333
 74
               0
 49
-0.1388888888888889
 74
               0
  0
LTYPE
  5
46
100
AcDbSymbolTableRecord
100
AcDbLinetypeTableRecord
  2
STYLE_13
 70
               0
  3

 72
              65
 73
               2
 40
0.7874015748031495
 49
0.3937007874015748
 74
               0
 49
-0.3937007874015748
 74
               0
  0
ENDTAB
  0
TABLE
  2
LAYER
  5
2
100
AcDbSymbolTable
 70
               5
  0
LAYER
  5
14
100
AcDbSymbolTableRecord
100
AcDbLayerTableRecord
  2
0
 70
               0
 62
               7
  6
Continuous
290
               1
370
              -3
390
1D
  0
LAYER
  5
47
100
AcDbSymbolTableRecord
100
AcDbLayerTableRecord
  2
Defpoints
 70
               0
 62
               7
  6
Continuous
290
               0
370
              -3
390
1D
  0
LAYER
  5
48
100
AcDbSymbolTableRecord
100
AcDbLayerTableRecord
  2
template
 70
               0
 62
               7
  6
Continuous
290
               1
370
              -3
390
1D
  0
LAYER
  5
49
100
AcDbSymbolTableRecord
100
AcDbLayerTableRecord
  2
notes
 70
               0
 62
               7
  6
Continuous
290
               1
370
              -3
390
1D
  0
LAYER
  5
4A
100
AcDbSymbolTableRecord
100
AcDbLayerTableRecord
  2
ARJ70-0028
 70
               0
 62
               7
  6
Continuous
290
               1
370
              -3
390
1D
  0
ENDTAB
  0
TABLE
  2
STYLE
  5
3
100
AcDbSymbolTable
 70
               2
  0
STYLE
  5
17
100
AcDbSymbolTableRecord
100
AcDbTextStyleTableRecord
  2
Standard
 70
               0
 40
0.0
 41
1.0
 50
0.0
 71
               0
 42
0.0
  3
txt
  4
BIGFONT.SHX
  0
STYLE
  5
39
100
AcDbSymbolTableRecord
100
AcDbTextStyleTableRecord
  2
ＭＳ ゴシック
 70
               0
 40
0.0
 41
1.0
 50
0.0
 71
               0
 42
0.0
  3

  4
ＭＳ ゴシック
1001
ACAD
1000
ＭＳ ゴシック
1071
        0
  0
ENDTAB
  0
TABLE
  2
VIEW
  5
5
100
AcDbSymbolTable
 70
               0
  0
ENDTAB
  0
TABLE
  2
UCS
  5
6
100
AcDbSymbolTable
 70
               0
  0
ENDTAB
  0
TABLE
  2
APPID
  5
8
100
AcDbSymbolTable
 70
               1
  0
APPID
  5
16
100
AcDbSymbolTableRecord
100
AcDbRegAppTableRecord
  2
ACAD
 70
               0
  0
ENDTAB
  0
TABLE
  2
DIMSTYLE
  5
9
100
AcDbSymbolTable
 70
               3
100
AcDbDimStyleTable
 71
               0
  0
DIMSTYLE
105
18
100
AcDbSymbolTableRecord
100
AcDbDimStyleTableRecord
  2
Standard
 70
               0
  3

  4

 40
1.0
 41
0.18
 42
0.0625
 43
0.38
 44
0.18
 45
0.0
 46
0.0
 47
0.0
 48
0.0
 71
               0
 72
               0
 73
               1
 74
               1
 75
               0
 76
               0
 77
               0
 78
               0
 79
               0
140
0.18
141
0.09
142
0.0
143
25.399999999999999
144
1.0
145
0.0
146
1.0
147
0.09
148
0.0
170
               0
171
               2
172
               0
173
               0
174
               0
175
               0
176
               0
177
               0
178
               0
179
               0
271
               4
272
               4
273
               2
274
               2
275
               0
276
               0
277
               2
278
              46
279
               0
280
               0
281
               0
282
               0
283
               1
284
               0
285
               0
286
               0
288
               0
289
               3
340
17
341
0
342
0
343
0
344
0
371
              -2
372
              -2
  0
DIMSTYLE
105
53
100
AcDbSymbolTableRecord
100
AcDbDimStyleTableRecord
  2
tform線あり
 70
               0
  3
<>
  4
[]
 40
1.0
 41
3.999755859375
 42
24.999999999999996
 43
0.9999999999999999
 44
0.0
 45
0.0
 46
0.0
 47
0.0
 48
0.0
 71
               0
 72
               0
 73
               0
 74
               0
 75
               0
 76
               0
 77
               1
 78
              11
 79
               0
140
24.432617187500004
141
0.0
142
0.0
143
1.0
144
1.0
145
0.0
146
1.0
147
0.4999999999999999
148
0.0
170
               0
171
               1
172
               0
173
               0
174
               1
175
               0
176
               0
177
               0
178
               0
179
               2
271
               1
272
               1
273
               2
274
               2
275
               0
276
               2
277
               2
278
              46
279
               0
280
               0
281
               0
282
               0
283
               1
284
              11
285
              11
286
              11
288
               0
289
               0
340
39
341
4B
342
4B
343
0
344
0
371
              -2
372
              -2
  0
DIMSTYLE
105
58
100
AcDbSymbolTableRecord
100
AcDbDimStyleTableRecord
  2
JIS
 70
               0
  3
<>
  4
[]
 40
1.0
 41
31.75
 42
0.0
 43
6.9999999999999396
 44
19.999999999996199
 45
0.0
 46
0.0
 47
0.0
 48
0.0
 71
               0
 72
               0
 73
               0
 74
               0
 75
               0
 76
               0
 77
               1
 78
              11
 79
               0
140
24.432617187500004
141
0.0
142
0.0
143
1.0
144
1.0
145
0.0
146
1.0
147
1.00000000000108
148
0.0
170
               0
171
               1
172
               0
173
               0
174
               1
175
               0
176
               0
177
               0
178
               0
179
               2
271
               1
272
               1
273
               2
274
               2
275
               0
276
               2
277
               2
278
              46
279
               0
280
               0
281
               0
282
               0
283
               1
284
              11
285
              11
286
              11
288
               0
289
               0
340
39
341
54
342
54
343
0
344
0
371
              -2
372
              -2
  0
ENDTAB
  0
TABLE
  2
BLOCK_RECORD
  5
1
100
AcDbSymbolTable
 70
              24
  0
BLOCK_RECORD
  5
A
100
AcDbSymbolTableRecord
100
AcDbBlockTableRecord
  2
*MODEL_SPACE
340
20
  0
BLOCK_RECORD
  5
B
100
AcDbSymbolTableRecord
100
AcDbBlockTableRecord
  2
*PAPER_SPACE
340
21
  0
BLOCK_RECORD
  5
4B
100
AcDbSymbolTableRecord
100
AcDbBlockTableRecord
  2
_DOT
340
0
  0
BLOCK_RECORD
  5
54
100
AcDbSymbolTableRecord
100
AcDbBlockTableRecord
  2
VW_FILLEDARROW
340
0
  0
BLOCK_RECORD
  5
23
100
AcDbSymbolTableRecord
100
AcDbBlockTableRecord
  2
グループ
340
0
102
{BLKREFS
331
170
102
}
  0
BLOCK_RECORD
  5
24
100
AcDbSymbolTableRecord
100
AcDbBlockTableRecord
  2
*D3
340
0
  0
BLOCK_RECORD
  5
25
100
AcDbSymbolTableRecord
100
AcDbBlockTableRecord
  2
*D4
340
0
  0
BLOCK_RECORD
  5
26
100
AcDbSymbolTableRecord
100
AcDbBlockTableRecord
  2
*D5
340
0
  0
BLOCK_RECORD
  5
27
100
AcDbSymbolTableRecord
100
AcDbBlockTableRecord
  2
*D6
340
0
  0
BLOCK_RECORD
  5
28
100
AcDbSymbolTableRecord
100
AcDbBlockTableRecord
  2
*D7
340
0
  0
BLOCK_RECORD
  5
29
100
AcDbSymbolTableRecord
100
AcDbBlockTableRecord
  2
*D8
340
0
  0
BLOCK_RECORD
  5
2A
100
AcDbSymbolTableRecord
100
AcDbBlockTableRecord
  2
*D9
340
0
  0
BLOCK_RECORD
  5
2B
100
AcDbSymbolTableRecord
100
AcDbBlockTableRecord
  2
*D10
340
0
  0
BLOCK_RECORD
  5
2C
100
AcDbSymbolTableRecord
100
AcDbBlockTableRecord
  2
*D11
340
0
  0
BLOCK_RECORD
  5
2D
100
AcDbSymbolTableRecord
100
AcDbBlockTableRecord
  2
*D12
340
0
  0
BLOCK_RECORD
  5
2E
100
AcDbSymbolTableRecord
100
AcDbBlockTableRecord
  2
*D13
340
0
  0
BLOCK_RECORD
  5
2F
100
AcDbSymbolTableRecord
100
AcDbBlockTableRecord
  2
*D14
340
0
  0
BLOCK_RECORD
  5
30
100
AcDbSymbolTableRecord
100
AcDbBlockTableRecord
  2
*D15
340
0
  0
BLOCK_RECORD
  5
31
100
AcDbSymbolTableRecord
100
AcDbBlockTableRecord
  2
*D16
340
0
  0
BLOCK_RECORD
  5
32
100
AcDbSymbolTableRecord
100
AcDbBlockTableRecord
  2
*D17
340
0
  0
BLOCK_RECORD
  5
33
100
AcDbSymbolTableRecord
100
AcDbBlockTableRecord
  2
*D18
340
0
  0
BLOCK_RECORD
  5
34
100
AcDbSymbolTableRecord
100
AcDbBlockTableRecord
  2
*D19
340
0
  0
BLOCK_RECORD
  5
35
100
AcDbSymbolTableRecord
100
AcDbBlockTableRecord
  2
*D20
340
0
  0
BLOCK_RECORD
  5
36
100
AcDbSymbolTableRecord
100
AcDbBlockTableRecord
  2
*D21
340
0
  0
BLOCK_RECORD
  5
37
100
AcDbSymbolTableRecord
100
AcDbBlockTableRecord
  2
*D22
340
0
  0
BLOCK_RECORD
  5
38
100
AcDbSymbolTableRecord
100
AcDbBlockTableRecord
  2
グループ-1
340
0
102
{BLKREFS
331
1CA
102
}
  0
ENDTAB
  0
ENDSEC
  0
SECTION
  2
BLOCKS
  0
BLOCK
  5
D
100
AcDbEntity
  8
0
390
0
100
AcDbBlockBegin
  2
*MODEL_SPACE
 70
               0
 10
0.0
 20
0.0
 30
0.0
  3
*MODEL_SPACE
  1

  0
ENDBLK
  5
E
100
AcDbEntity
  8
0
390
0
100
AcDbBlockEnd
  0
BLOCK
  5
F
100
AcDbEntity
 67
               1
  8
0
390
0
100
AcDbBlockBegin
  2
*PAPER_SPACE
 70
               0
 10
0.0
 20
0.0
 30
0.0
  3
*PAPER_SPACE
  1

  0
ENDBLK
  5
10
100
AcDbEntity
 67
               1
  8
0
390
0
100
AcDbBlockEnd
  0
BLOCK
  5
4C
100
AcDbEntity
  8
0
390
0
100
AcDbBlockBegin
  2
_DOT
 70
               0
 10
0.0
 20
0.0
 30
0.0
  3
_DOT
  1

  0
POLYLINE
  5
4D
100
AcDbEntity
  8
0
370
              -2
390
0
  6
ByBlock
 62
               0
100
AcDb2dPolyline
 66
               1
 10
0.0
 20
0.0
 30
0.0
 70
               1
 40
0.5
 41
0.5
  0
VERTEX
  5
4E
100
AcDbEntity
  8
0
370
              -2
390
0
  6
ByBlock
 62
               0
100
AcDbVertex
100
AcDb2dVertex
 10
-0.25
 20
0.0
 30
0.0
 42
1.0
  0
VERTEX
  5
4F
100
AcDbEntity
  8
0
370
              -2
390
0
  6
ByBlock
 62
               0
100
AcDbVertex
100
AcDb2dVertex
 10
0.25
 20
0.0
 30
0.0
 42
1.0
  0
SEQEND
  5
50
100
AcDbEntity
  8
0
390
0
  0
LINE
  5
51
100
AcDbEntity
  8
0
370
              -2
390
0
  6
ByBlock
 62
               0
100
AcDbLine
 10
-0.5
 20
0.0
 30
0.0
 11
-1.0
 21
0.0
 31
0.0
  0
ENDBLK
  5
52
100
AcDbEntity
  8
0
390
0
100
AcDbBlockEnd
  0
BLOCK
  5
55
100
AcDbEntity
  8
0
370
              -2
390
0
  6
ByBlock
 62
               0
100
AcDbBlockBegin
  2
VW_FILLEDARROW
 70
               0
 10
0.0
 20
0.0
 30
0.0
  3
VW_FILLEDARROW
  1

  0
SOLID
  5
56
100
AcDbEntity
  8
0
370
              -2
390
0
 62
               0
100
AcDbTrace
 10
0.0
 20
0.0
 30
0.0
 11
-0.9921874999999999
 21
-0.2658558393652545
 31
0.0
 12
-0.9921874999999999
 22
0.2658558393652548
 32
0.0
 13
-0.9921874999999999
 23
0.2658558393652548
 33
0.0
  0
ENDBLK
  5
57
100
AcDbEntity
  8
0
390
0
100
AcDbBlockEnd
  0
BLOCK
  5
59
100
AcDbEntity
  8
template
390
0
100
AcDbBlockBegin
  2
グループ
 70
               0
 10
0.0
 20
0.0
 30
0.0
  3
グループ
  1

  0
LWPOLYLINE
  5
5A
100
AcDbEntity
  8
0
370
              15
390
0
  6
Continuous
 62
               7
100
AcDbPolyline
 90
        8
 70
             129
 10
-692.68905003936152
 20
-2500.0625343665215
 10
-692.68905003936152
 20
-2506.0599230600974
 10
-702.19024695736482
 20
-2506.0599230600974
 10
-702.19024695736482
 20
-2530.5108863236064
 10
-710.54562421914761
 20
-2530.5108863236064
 10
-710.54562421914761
 20
-2506.0599230600974
 10
-719.87858116545704
 20
-2506.0599230600974
 10
-719.87858116545704
 20
-2500.0625343665215
  0
LWPOLYLINE
  5
5B
100
AcDbEntity
  8
0
370
              15
390
0
  6
Continuous
 62
               7
100
AcDbPolyline
 90
      101
 70
             128
 10
-679.96075820880458
 20
-2500.790782859458
 10
-679.9454081800194
 20
-2500.786422102773
 42
-0.0222221607808735
 10
-679.65540360334853
 20
-2500.7177976375287
 10
-679.63960983935272
 20
-2500.7147942144315
 42
-0.0146883565584698
 10
-679.37690713413076
 20
-2500.6727910274822
 42
-0.0127458844186061
 10
-679.11226816697558
 20
-2500.6452540594091
 10
-679.04981308866491
 20
-2500.6403606368212
 42
-0.0198099018576797
 10
-678.65896397920096
 20
-2500.625275479425
 10
-678.60715250974431
 20
-2500.62532925509
 42
-0.014761738276574
 10
-678.11252904877608
 20
-2500.6404492803345
 10
-678.03983759389246
 20
-2500.6448218872229
 42
-0.0162624549002636
 10
-677.64968396443055
 20
-2500.6810547624946
 10
-677.5281515731748
 20
-2500.6963413214912
 42
-0.0080020874688887
 10
-677.38257254207974
 20
-2500.71702416876
 10
-677.34425307148501
 20
-2500.7230954465708
 42
-0.0053821929674514
 10
-677.27576896616995
 20
-2500.7347029703924
 10
-678.00217466536856
 20
-2502.9156314261063
 42
0.0108667757397851
 10
-678.06949173549185
 20
-2502.9024443108879
 10
-678.10695975868884
 20
-2502.8959465682919
 42
0.0170663203314159
 10
-678.25017654560531
 20
-2502.8761169710001
 10
-678.31805187828741
 20
-2502.8690698004129
 42
0.0220162375281466
 10
-678.59843128614773
 20
-2502.8523874396424
 10
-678.67628685319505
 20
-2502.8511880723759
 42
0.0282606915788425
 10
-679.01192317677271
 20
-2502.8649913493455
 10
-679.05583645054878
 20
-2502.8692913393493
 42
0.0169677213685977
 10
-679.30176094550393
 20
-2502.9018283889009
 42
0.0190576269875358
 10
-679.54466890809385
 20
-2502.9519752610095
 10
-679.55092809619487
 20
-2502.9535182351165
 42
0.0213685642839066
 10
-679.80131258066672
 20
-2503.0267185202192
 10
-679.80680247558882
 20
-2503.0285815162802
 42
0.023759529760144
 10
-680.06029736049175
 20
-2503.1282660381776
 10
-680.06539943451719
 20
-2503.1305578136539
 42
0.0261857468810232
 10
-680.3175702107427
 20
-2503.2600941510259
 10
-680.327996399835
 20
-2503.2661596254975
 42
0.0272553062026358
 10
-680.56442617507264
 20
-2503.4215318314409
 10
-680.59918918858205
 20
-2503.4471929795332
 42
0.0325996893173622
 10
-680.74934453223364
 20
-2503.5739408525051
 10
-680.7730539613575
 20
-2503.5967588810186
 42
0.0138050960646534
 10
-680.8649371175668
 20
-2503.6902085425695
 42
0.0125280103788167
 10
-680.95177965039704
 20
-2503.7883718691655
 10
-680.97546009530868
 20
-2503.8165303673568
 42
0.0205218024740635
 10
-681.10056017082263
 20
-2503.9783236815861
 10
-681.12302651130949
 20
-2504.0099834114126
 42
0.0163110129584341
 10
-681.27873689056025
 20
-2504.2453138464816
 10
-681.28146078661177
 20
-2504.249737608468
 42
0.0131897341896577
 10
-681.42826130751757
 20
-2504.5028697008324
 10
-681.42996140288415
 20
-2504.5059879399682
 42
0.0107895576054544
 10
-681.56773810509355
 20
-2504.772203149601
 10
-681.56847099461993
 20
-2504.7736973822502
 42
0.0091371507220333
 10
-681.69695094327017
 20
-2505.0482225800106
 10
-681.72669657467873
 20
-2505.1149290871681
 42
0.0135418326355544
 10
-681.89841051375049
 20
-2505.5298668724372
 10
-681.93201532218359
 20
-2505.6177330147152
 42
0.0092834542414909
 10
-682.10324438210546
 20
-2506.0916315130235
 10
-682.12886150982285
 20
-2506.1668725828158
 42
0.0054261043574969
 10
-682.23649965811614
 20
-2506.4946365558822
 10
-682.25402564432147
 20
-2506.5500247182003
 42
0.0008225090815496
 10
-682.32269569612356
 20
-2506.7682934762615
 10
-683.30738482805702
 20
-2509.7931847695181
 10
-680.07476098798315
 20
-2509.7931847695181
 10
-680.5789534178366
 20
-2511.6976630678705
 10
-683.83500969981992
 20
-2511.6976630678705
 10
-689.66415873217375
 20
-2530.5108861338754
 10
-691.48925634248405
 20
-2530.5108861338754
 10
-685.65457830698313
 20
-2511.6976630678705
 10
-688.05969467602347
 20
-2511.6976630678705
 10
-687.55550224617002
 20
-2509.7931847695181
 10
-685.12695343522
 20
-2509.7931847695181
 10
-684.26679851703136
 20
-2507.1567717688195
 42
-0.0005863560657007
 10
-684.23006383886809
 20
-2507.0399453486557
 10
-684.15397600516746
 20
-2506.7989530491423
 42
-0.008752237892858
 10
-683.95450786170977
 20
-2506.2036769619936
 10
-683.86224358629761
 20
-2505.9435367934834
 42
-0.0077400953827666
 10
-683.60430992716601
 20
-2505.2505321159342
 10
-683.58854495558728
 20
-2505.2101012325488
 42
-0.0082369946329793
 10
-683.34146048497519
 20
-2504.6060221663524
 42
-0.0085725238365314
 10
-683.07421438897052
 20
-2504.0105961270615
 10
-682.97258478796437
 20
-2503.7941750250793
 42
-0.0168109410595288
 10
-682.68564035923487
 20
-2503.232967498976
 10
-682.5597969688007
 20
-2503.0060034660228
 42
-0.0007817726856962
 10
-682.50551261871919
 20
-2502.9084592209474
 10
-682.50538431270388
 20
-2502.9082295122143
 42
-0.003662614216205
 10
-682.45049644868072
 20
-2502.8116316322426
 42
-0.0080221150699596
 10
-682.39337219327308
 20
-2502.7163523974882
 10
-682.36267224191283
 20
-2502.6669614483676
 42
-0.0202139325570632
 10
-682.23501650210699
 20
-2502.4789798476872
 10
-682.18094903691849
 20
-2502.4059009834455
 42
-0.0249323791798676
 10
-681.92178624319808
 20
-2502.0898557412897
 10
-681.89764642907232
 20
-2502.0632414683787
 42
-0.0242132121544531
 10
-681.55796568753067
 20
-2501.723357982175
 10
-681.51005411478161
 20
-2501.6798488459904
 42
-0.0251017527865335
 10
-681.22607241413903
 20
-2501.4468561002236
 10
-681.22462693732166
 20
-2501.4457868426421
 42
-0.0130868069034236
 10
-680.92636628736796
 20
-2501.2370063741018
 10
-680.92480446822481
 20
-2501.2359729338264
 42
-0.0290329526377307
 10
-680.61369332683194
 20
-2501.0551474321974
 10
-680.58384776484047
 20
-2501.0400450493548
 42
-0.0160250190039951
 10
-680.31794335108111
 20
-2500.9160289391448
 42
-0.0267600374778671
 10
-680.04266727361289
 20
-2500.8152806185963
 10
-680.01593135409155
 20
-2500.8070880597706
 42
-0.0049981587651018
 10
-679.96075820880458
 20
-2500.790782859458
 42
-0.0049981587651018
  0
LWPOLYLINE
  5
5C
100
AcDbEntity
  8
0
370
              15
390
0
  6
Continuous
 62
               7
100
AcDbPolyline
 90
      118
 70
             128
 10
-660.14639064435767
 20
-2509.8671680973457
 10
-658.2712687198582
 20
-2509.8671680973457
 10
-659.10930762545809
 20
-2512.5487346237455
 42
-0.0010587229264772
 10
-659.07785180988208
 20
-2512.511830090385
 10
-659.01965771925416
 20
-2512.4438478342145
 42
-0.0071874740409463
 10
-658.86928250116262
 20
-2512.2732071421929
 10
-658.72755972789389
 20
-2512.1169710008726
 42
-0.0148118053510787
 10
-658.27743043518103
 20
-2511.649357154859
 10
-658.19020810028098
 20
-2511.5639598340072
 42
-0.0086273358684801
 10
-657.85465929927091
 20
-2511.2465841999892
 10
-657.81082558304365
 20
-2511.2065345556548
 42
-0.0103138323116278
 10
-657.55280188081156
 20
-2510.9803714183176
 10
-657.50702747448577
 20
-2510.9418893710586
 42
-0.0060206748561542
 10
-657.33417941037226
 20
-2510.8000947203032
 10
-657.33214827948689
 20
-2510.7984690146723
 42
-0.0067069027284218
 10
-657.15985546482375
 20
-2510.6643183808769
 10
-657.15730669889092
 20
-2510.6623882109966
 42
-0.0076184352061113
 10
-656.98640143302646
 20
-2510.5370133357578
 42
-0.0089652861677463
 10
-656.81144047029363
 20
-2510.4173800754265
 10
-656.77508875014928
 20
-2510.3934688619438
 42
-0.0156916245938886
 10
-656.57912925298683
 20
-2510.2732063754684
 42
-0.0023299011069902
 10
-656.37886720901497
 20
-2510.1600284359315
 10
-656.36348307662718
 20
-2510.1514284408622
 42
-0.010766934149208
 10
-656.12924625152789
 20
-2510.0270283075142
 10
-656.10698145045103
 20
-2510.0158115575632
 42
-0.0078058045897722
 10
-655.8233913324907
 20
-2509.8784501019213
 10
-655.81348424478915
 20
-2509.8738409740563
 42
-0.018182933048164
 10
-655.50317484017694
 20
-2509.7429772329619
 10
-655.44911939759913
 20
-2509.722462113014
 42
-0.0208411536022594
 10
-655.10003443015648
 20
-2509.6063716505237
 10
-655.08567833003474
 20
-2509.6022532055717
 42
-0.0222799817143268
 10
-654.75695853611182
 20
-2509.5236116394299
 10
-654.74806957286728
 20
-2509.5218996288436
 42
-0.0215509523881978
 10
-654.43159860459491
 20
-2509.4749839403107
 10
-654.38911664354805
 20
-2509.47054641352
 42
-0.0182545924864261
 10
-654.15500786424082
 20
-2509.4547025881288
 10
-654.11560684789356
 20
-2509.4534780430495
 42
-0.0072962856542333
 10
-653.95968396820376
 20
-2509.4509087145275
 10
-653.93058429764665
 20
-2509.4508538791238
 42
-0.0059227516293577
 10
-653.83283479848683
 20
-2509.451827590914
 10
-653.80359258112264
 20
-2509.4524653575149
 42
-0.0011833111921147
 10
-653.7643412972825
 20
-2509.4534143618275
 10
-654.55972789288967
 20
-2511.9921483069265
 42
0.0143932051637612
 10
-654.58612927524723
 20
-2511.9819493368786
 10
-654.59340124765754
 20
-2511.9793781180238
 42
0.0234388603486961
 10
-654.63523211358961
 20
-2511.9667588823086
 10
-654.64391377650236
 20
-2511.9645779203038
 42
0.0199162743007004
 10
-654.70420261058769
 20
-2511.9519611849673
 10
-654.72501654838857
 20
-2511.94846398554
 42
0.0293643550671506
 10
-654.82809140714471
 20
-2511.9373139398872
 10
-654.85277658786799
 20
-2511.9361023228685
 42
0.0214606686877594
 10
-655.0059175038175
 20
-2511.9351637624509
 10
-655.01528941463846
 20
-2511.9355086739952
 42
0.0167564054174947
 10
-655.18680960574909
 20
-2511.9475857163634
 10
-655.19526939850584
 20
-2511.9484670567904
 42
0.0137677553262393
 10
-655.38262271178121
 20
-2511.9732163653357
 10
-655.38997445127848
 20
-2511.974394285302
 42
0.0118497261479834
 10
-655.59047221537674
 20
-2512.0114116354898
 10
-655.59662222262705
 20
-2512.0126984982107
 42
0.0106421143892849
 10
-655.80750310993096
 20
-2512.0615308737906
 10
-655.81241191830111
 20
-2512.0627782164711
 42
0.009974637971429
 10
-656.03087038746901
 20
-2512.1229527447872
 10
-656.0924184276339
 20
-2512.1412346234165
 42
0.0191613675867439
 10
-656.42840289015442
 20
-2512.2552120037053
 10
-656.5164626628931
 20
-2512.288898914027
 42
0.0205274080143055
 10
-656.9017694347956
 20
-2512.4547273218541
 10
-656.95941871678133
 20
-2512.4823952864285
 42
0.0181256912197597
 10
-657.21769565744455
 20
-2512.6180791054039
 10
-657.27065104075473
 20
-2512.6483967186164
 42
0.0140709242407384
 10
-657.41560597538682
 20
-2512.7368913920532
 10
-657.44185484399213
 20
-2512.75394821076
 42
0.0086667884400592
 10
-657.53078100554785
 20
-2512.8139508786517
 42
0.0036408192004588
 10
-657.61821424357106
 20
-2512.876131736436
 10
-657.65344111804984
 20
-2512.9015726823563
 42
0.0052260781268723
 10
-657.80966981544736
 20
-2513.0169050689956
 10
-657.8258766717006
 20
-2513.0291331796088
 42
0.0050024435897414
 10
-658.01188001476169
 20
-2513.1724157478734
 10
-658.02719817127456
 20
-2513.1844617703173
 42
0.0136138710280229
 10
-658.23763943960194
 20
-2513.3594282752319
 10
-658.27130731539341
 20
-2513.3890072479444
 42
0.0172815186906103
 10
-658.53571085705255
 20
-2513.6380039205646
 10
-658.53827320289861
 20
-2513.6405897377153
 42
0.0189403857987603
 10
-658.78885500147396
 20
-2513.9133950025148
 10
-658.82148649501505
 20
-2513.9517389340181
 42
0.0185044199502197
 10
-659.0134429339937
 20
-2514.1949875151395
 42
0.00885652439016
 10
-659.19190304062408
 20
-2514.4485039352921
 10
-659.20108102027064
 20
-2514.4620453150492
 42
0.0157195347234015
 10
-659.3843016266045
 20
-2514.7515675243644
 10
-659.43038456853537
 20
-2514.8297197213851
 42
0.0095451879784135
 10
-659.59547011867323
 20
-2515.1223143637426
 10
-659.60661803760274
 20
-2515.1429850358741
 42
0.010035170625386
 10
-659.73866178676212
 20
-2515.4000405963652
 42
0.0086935915424191
 10
-659.86099293855727
 20
-2515.6618737417721
 10
-659.86431367997068
 20
-2515.6693160647415
 42
0.0072580174867692
 10
-659.98466013191546
 20
-2515.9499080563241
 10
-659.98792176522193
 20
-2515.9578280823425
 42
0.0060005122619063
 10
-660.10712243356534
 20
-2516.2574377529495
 10
-660.11033341190625
 20
-2516.2657992808527
 42
0.0049017786974934
 10
-660.22923357076331
 20
-2516.5847282614559
 10
-660.23239937715414
 20
-2516.5934811986872
 42
0.0039415167601544
 10
-660.35183565521197
 20
-2516.932023261104
 10
-660.35496675786294
 20
-2516.9411264619766
 42
0.0031035838766686
 10
-660.4757715435527
 20
-2517.2995663237398
 10
-660.47888158808644
 20
-2517.3089869451251
 42
0.0025070747147255
 10
-660.60178293940112
 20
-2517.6876341620668
 10
-660.63907683582715
 20
-2517.8045258273219
 42
0.002908191028598
 10
-660.83109513364161
 20
-2518.4186894856248
 10
-660.87189830215505
 20
-2518.5519127278894
 42
0.0009266453731966
 10
-661.14031567648408
 20
-2519.43413718786
 10
-661.16120314910813
 20
-2519.503249067041
 42
-0.0005809993667263
 10
-661.43853982970154
 20
-2520.4170571736877
 10
-661.50482162798505
 20
-2520.6345421058818
 42
-0.0012018708164568
 10
-661.65180593740365
 20
-2521.1127047703676
 10
-661.70412578892433
 20
-2521.2814639110888
 42
-0.0002691059601494
 10
-661.7476952701378
 20
-2521.4217315315755
 10
-664.58065116842704
 20
-2530.5108861338754
 10
-666.39864006040557
 20
-2530.5108861338754
 10
-660.14639064435767
 20
-2509.8671680973457
  0
SPLINE
  5
5D
100
AcDbEntity
  8
0
370
              15
390
0
  6
Continuous
 62
               7
100
AcDbSpline
210
0.0
220
0.0
230
1.0
 70
              13
 71
               2
 72
             782
 73
             779
 74
               0
 42
0.000001
 43
0.000001
 40
0.0
 40
0.0
 40
0.0
 40
1.0
 40
1.0
 40
2.0
 40
2.0
 40
3.0
 40
3.0
 40
4.0
 40
4.0
 40
5.0
 40
5.0
 40
6.0
 40
6.0
 40
7.0
 40
7.0
 40
8.0
 40
8.0
 40
9.0
 40
9.0
 40
10.0
 40
10.0
 40
11.0
 40
11.0
 40
12.0
 40
12.0
 40
13.0
 40
13.0
 40
14.0
 40
14.0
 40
15.0
 40
15.0
 40
16.0
 40
16.0
 40
17.0
 40
17.0
 40
18.0
 40
18.0
 40
19.0
 40
19.0
 40
20.0
 40
20.0
 40
21.0
 40
21.0
 40
22.0
 40
22.0
 40
23.0
 40
23.0
 40
24.0
 40
24.0
 40
25.0
 40
25.0
 40
26.0
 40
26.0
 40
27.0
 40
27.0
 40
28.0
 40
28.0
 40
29.0
 40
29.0
 40
30.0
 40
30.0
 40
31.0
 40
31.0
 40
32.0
 40
32.0
 40
33.0
 40
33.0
 40
34.0
 40
34.0
 40
35.0
 40
35.0
 40
36.0
 40
36.0
 40
37.0
 40
37.0
 40
38.0
 40
38.0
 40
39.0
 40
39.0
 40
40.0
 40
40.0
 40
41.0
 40
41.0
 40
42.0
 40
42.0
 40
43.0
 40
43.0
 40
44.0
 40
44.0
 40
45.0
 40
45.0
 40
46.0
 40
46.0
 40
47.0
 40
47.0
 40
48.0
 40
48.0
 40
49.0
 40
49.0
 40
50.0
 40
50.0
 40
51.0
 40
51.0
 40
52.0
 40
52.0
 40
53.0
 40
53.0
 40
54.0
 40
54.0
 40
55.0
 40
55.0
 40
56.0
 40
56.0
 40
57.0
 40
57.0
 40
58.0
 40
58.0
 40
59.0
 40
59.0
 40
60.0
 40
60.0
 40
61.0
 40
61.0
 40
62.0
 40
62.0
 40
63.0
 40
63.0
 40
64.0
 40
64.0
 40
65.0
 40
65.0
 40
66.0
 40
66.0
 40
67.0
 40
67.0
 40
68.0
 40
68.0
 40
69.0
 40
69.0
 40
70.0
 40
70.0
 40
71.0
 40
71.0
 40
72.0
 40
72.0
 40
73.0
 40
73.0
 40
74.0
 40
74.0
 40
75.0
 40
75.0
 40
76.0
 40
76.0
 40
77.0
 40
77.0
 40
78.0
 40
78.0
 40
79.0
 40
79.0
 40
80.0
 40
80.0
 40
81.0
 40
81.0
 40
82.0
 40
82.0
 40
83.0
 40
83.0
 40
84.0
 40
84.0
 40
85.0
 40
85.0
 40
86.0
 40
86.0
 40
87.0
 40
87.0
 40
88.0
 40
88.0
 40
89.0
 40
89.0
 40
90.0
 40
90.0
 40
91.0
 40
91.0
 40
92.0
 40
92.0
 40
93.0
 40
93.0
 40
94.0
 40
94.0
 40
95.0
 40
95.0
 40
96.0
 40
96.0
 40
97.0
 40
97.0
 40
98.0
 40
98.0
 40
99.0
 40
99.0
 40
100.0
 40
100.0
 40
101.0
 40
101.0
 40
102.0
 40
102.0
 40
103.0
 40
103.0
 40
104.0
 40
104.0
 40
105.0
 40
105.0
 40
106.0
 40
106.0
 40
107.0
 40
107.0
 40
108.0
 40
108.0
 40
109.0
 40
109.0
 40
110.0
 40
110.0
 40
111.0
 40
111.0
 40
112.0
 40
112.0
 40
113.0
 40
113.0
 40
114.0
 40
114.0
 40
115.0
 40
115.0
 40
116.0
 40
116.0
 40
117.0
 40
117.0
 40
118.0
 40
118.0
 40
119.0
 40
119.0
 40
120.0
 40
120.0
 40
121.0
 40
121.0
 40
122.0
 40
122.0
 40
123.0
 40
123.0
 40
124.0
 40
124.0
 40
125.0
 40
125.0
 40
126.0
 40
126.0
 40
127.0
 40
127.0
 40
128.0
 40
128.0
 40
129.0
 40
129.0
 40
130.0
 40
130.0
 40
131.0
 40
131.0
 40
132.0
 40
132.0
 40
133.0
 40
133.0
 40
134.0
 40
134.0
 40
135.0
 40
135.0
 40
136.0
 40
136.0
 40
137.0
 40
137.0
 40
138.0
 40
138.0
 40
139.0
 40
139.0
 40
140.0
 40
140.0
 40
141.0
 40
141.0
 40
142.0
 40
142.0
 40
143.0
 40
143.0
 40
144.0
 40
144.0
 40
145.0
 40
145.0
 40
146.0
 40
146.0
 40
147.0
 40
147.0
 40
148.0
 40
148.0
 40
149.0
 40
149.0
 40
150.0
 40
150.0
 40
151.0
 40
151.0
 40
152.0
 40
152.0
 40
153.0
 40
153.0
 40
154.0
 40
154.0
 40
155.0
 40
155.0
 40
156.0
 40
156.0
 40
157.0
 40
157.0
 40
158.0
 40
158.0
 40
159.0
 40
159.0
 40
160.0
 40
160.0
 40
161.0
 40
161.0
 40
162.0
 40
162.0
 40
163.0
 40
163.0
 40
164.0
 40
164.0
 40
165.0
 40
165.0
 40
166.0
 40
166.0
 40
167.0
 40
167.0
 40
168.0
 40
168.0
 40
169.0
 40
169.0
 40
170.0
 40
170.0
 40
171.0
 40
171.0
 40
172.0
 40
172.0
 40
173.0
 40
173.0
 40
174.0
 40
174.0
 40
175.0
 40
175.0
 40
176.0
 40
176.0
 40
177.0
 40
177.0
 40
178.0
 40
178.0
 40
179.0
 40
179.0
 40
180.0
 40
180.0
 40
181.0
 40
181.0
 40
182.0
 40
182.0
 40
183.0
 40
183.0
 40
184.0
 40
184.0
 40
185.0
 40
185.0
 40
186.0
 40
186.0
 40
187.0
 40
187.0
 40
188.0
 40
188.0
 40
189.0
 40
189.0
 40
190.0
 40
190.0
 40
191.0
 40
191.0
 40
192.0
 40
192.0
 40
193.0
 40
193.0
 40
194.0
 40
194.0
 40
195.0
 40
195.0
 40
196.0
 40
196.0
 40
197.0
 40
197.0
 40
198.0
 40
198.0
 40
199.0
 40
199.0
 40
200.0
 40
200.0
 40
201.0
 40
201.0
 40
202.0
 40
202.0
 40
203.0
 40
203.0
 40
204.0
 40
204.0
 40
205.0
 40
205.0
 40
206.0
 40
206.0
 40
207.0
 40
207.0
 40
208.0
 40
208.0
 40
209.0
 40
209.0
 40
210.0
 40
210.0
 40
211.0
 40
211.0
 40
212.0
 40
212.0
 40
213.0
 40
213.0
 40
214.0
 40
214.0
 40
215.0
 40
215.0
 40
216.0
 40
216.0
 40
217.0
 40
217.0
 40
218.0
 40
218.0
 40
219.0
 40
219.0
 40
220.0
 40
220.0
 40
221.0
 40
221.0
 40
222.0
 40
222.0
 40
223.0
 40
223.0
 40
224.0
 40
224.0
 40
225.0
 40
225.0
 40
226.0
 40
226.0
 40
227.0
 40
227.0
 40
228.0
 40
228.0
 40
229.0
 40
229.0
 40
230.0
 40
230.0
 40
231.0
 40
231.0
 40
232.0
 40
232.0
 40
233.0
 40
233.0
 40
234.0
 40
234.0
 40
235.0
 40
235.0
 40
236.0
 40
236.0
 40
237.0
 40
237.0
 40
238.0
 40
238.0
 40
239.0
 40
239.0
 40
240.0
 40
240.0
 40
241.0
 40
241.0
 40
242.0
 40
242.0
 40
243.0
 40
243.0
 40
244.0
 40
244.0
 40
245.0
 40
245.0
 40
246.0
 40
246.0
 40
247.0
 40
247.0
 40
248.0
 40
248.0
 40
249.0
 40
249.0
 40
250.0
 40
250.0
 40
251.0
 40
251.0
 40
252.0
 40
252.0
 40
253.0
 40
253.0
 40
254.0
 40
254.0
 40
255.0
 40
255.0
 40
256.0
 40
256.0
 40
257.0
 40
257.0
 40
258.0
 40
258.0
 40
259.0
 40
259.0
 40
260.0
 40
260.0
 40
261.0
 40
261.0
 40
262.0
 40
262.0
 40
263.0
 40
263.0
 40
264.0
 40
264.0
 40
265.0
 40
265.0
 40
266.0
 40
266.0
 40
267.0
 40
267.0
 40
268.0
 40
268.0
 40
269.0
 40
269.0
 40
270.0
 40
270.0
 40
271.0
 40
271.0
 40
272.0
 40
272.0
 40
273.0
 40
273.0
 40
274.0
 40
274.0
 40
275.0
 40
275.0
 40
276.0
 40
276.0
 40
277.0
 40
277.0
 40
278.0
 40
278.0
 40
279.0
 40
279.0
 40
280.0
 40
280.0
 40
281.0
 40
281.0
 40
282.0
 40
282.0
 40
283.0
 40
283.0
 40
284.0
 40
284.0
 40
285.0
 40
285.0
 40
286.0
 40
286.0
 40
287.0
 40
287.0
 40
288.0
 40
288.0
 40
289.0
 40
289.0
 40
290.0
 40
290.0
 40
291.0
 40
291.0
 40
292.0
 40
292.0
 40
293.0
 40
293.0
 40
294.0
 40
294.0
 40
295.0
 40
295.0
 40
296.0
 40
296.0
 40
297.0
 40
297.0
 40
298.0
 40
298.0
 40
299.0
 40
299.0
 40
300.0
 40
300.0
 40
301.0
 40
301.0
 40
302.0
 40
302.0
 40
303.0
 40
303.0
 40
304.0
 40
304.0
 40
305.0
 40
305.0
 40
306.0
 40
306.0
 40
307.0
 40
307.0
 40
308.0
 40
308.0
 40
309.0
 40
309.0
 40
310.0
 40
310.0
 40
311.0
 40
311.0
 40
312.0
 40
312.0
 40
313.0
 40
313.0
 40
314.0
 40
314.0
 40
315.0
 40
315.0
 40
316.0
 40
316.0
 40
317.0
 40
317.0
 40
318.0
 40
318.0
 40
319.0
 40
319.0
 40
320.0
 40
320.0
 40
321.0
 40
321.0
 40
322.0
 40
322.0
 40
323.0
 40
323.0
 40
324.0
 40
324.0
 40
325.0
 40
325.0
 40
326.0
 40
326.0
 40
327.0
 40
327.0
 40
328.0
 40
328.0
 40
329.0
 40
329.0
 40
330.0
 40
330.0
 40
331.0
 40
331.0
 40
332.0
 40
332.0
 40
333.0
 40
333.0
 40
334.0
 40
334.0
 40
335.0
 40
335.0
 40
336.0
 40
336.0
 40
337.0
 40
337.0
 40
338.0
 40
338.0
 40
339.0
 40
339.0
 40
340.0
 40
340.0
 40
341.0
 40
341.0
 40
342.0
 40
342.0
 40
343.0
 40
343.0
 40
344.0
 40
344.0
 40
345.0
 40
345.0
 40
346.0
 40
346.0
 40
347.0
 40
347.0
 40
348.0
 40
348.0
 40
349.0
 40
349.0
 40
350.0
 40
350.0
 40
351.0
 40
351.0
 40
352.0
 40
352.0
 40
353.0
 40
353.0
 40
354.0
 40
354.0
 40
355.0
 40
355.0
 40
356.0
 40
356.0
 40
357.0
 40
357.0
 40
358.0
 40
358.0
 40
359.0
 40
359.0
 40
360.0
 40
360.0
 40
361.0
 40
361.0
 40
362.0
 40
362.0
 40
363.0
 40
363.0
 40
364.0
 40
364.0
 40
365.0
 40
365.0
 40
366.0
 40
366.0
 40
367.0
 40
367.0
 40
368.0
 40
368.0
 40
369.0
 40
369.0
 40
370.0
 40
370.0
 40
371.0
 40
371.0
 40
372.0
 40
372.0
 40
373.0
 40
373.0
 40
374.0
 40
374.0
 40
375.0
 40
375.0
 40
376.0
 40
376.0
 40
377.0
 40
377.0
 40
378.0
 40
378.0
 40
379.0
 40
379.0
 40
380.0
 40
380.0
 40
381.0
 40
381.0
 40
382.0
 40
382.0
 40
383.0
 40
383.0
 40
384.0
 40
384.0
 40
385.0
 40
385.0
 40
386.0
 40
386.0
 40
387.0
 40
387.0
 40
388.0
 40
388.0
 40
389.0
 40
389.0
 40
389.0
 10
-649.81768619362504
 20
-2509.8562417339831
 30
0.0
 41
1.0
 10
-648.99926208490456
 20
-2509.8562417339831
 30
0.0
 41
1.0
 10
-648.18083797618408
 20
-2509.8562417339831
 30
0.0
 41
1.0
 10
-648.59459171170079
 20
-2511.1988679982328
 30
0.0
 41
1.0
 10
-649.00834544721761
 20
-2512.5414942624825
 30
0.0
 41
1.0
 10
-648.99000595204143
 20
-2512.5127934895581
 30
0.0
 41
0.999995726443439
 10
-648.97149895520192
 20
-2512.484200439394
 30
0.0
 41
1.0
 10
-648.94106963107311
 20
-2512.4371875610314
 30
0.0
 41
1.0
 10
-648.91064030694429
 20
-2512.3901746826687
 30
0.0
 41
1.0
 10
-648.83127466184078
 20
-2512.2675558757687
 30
0.0
 41
0.9995394069080473
 10
-648.74461627028768
 20
-2512.1499778140255
 30
0.0
 41
1.0
 10
-648.70885940802737
 20
-2512.1014629214314
 30
0.0
 41
1.0
 10
-648.67310254576705
 20
-2512.0529480288369
 30
0.0
 41
1.0
 10
-648.53937587795042
 20
-2511.8715077537122
 30
0.0
 41
0.9994460617143437
 10
-648.39387539666063
 20
-2511.6993653560603
 30
0.0
 41
1.0
 10
-648.38948721568579
 20
-2511.694173675678
 30
0.0
 41
1.0
 10
-648.38509903471095
 20
-2511.6889819952953
 30
0.0
 41
1.0
 10
-648.24837491537278
 20
-2511.5272229584102
 30
0.0
 41
0.9994359394933664
 10
-648.10110068502127
 20
-2511.375006757246
 30
0.0
 41
1.0
 10
-648.0987173310682
 20
-2511.3725434268731
 30
0.0
 41
1.0
 10
-648.09633397711514
 20
-2511.3700800965003
 30
0.0
 41
1.0
 10
-647.95382645467282
 20
-2511.222790556084
 30
0.0
 41
0.9995293688567819
 10
-647.80255477368769
 20
-2511.084517343917
 30
0.0
 41
1.0
 10
-647.78326101442417
 20
-2511.0668814582659
 30
0.0
 41
1.0
 10
-647.76396725516076
 20
-2511.0492455726144
 30
0.0
 41
1.0
 10
-647.65128309270563
 20
-2510.9462441317528
 30
0.0
 41
0.9997087614803903
 10
-647.53376020375049
 20
-2510.8487998509549
 30
0.0
 41
1.0
 10
-647.5145941305791
 20
-2510.8329082724504
 30
0.0
 41
1.0
 10
-647.49542805740782
 20
-2510.8170166939458
 30
0.0
 41
1.0
 10
-647.4162373147966
 20
-2510.751355570158
 30
0.0
 41
0.9999595338696669
 10
-647.33587804394028
 20
-2510.6871298395022
 30
0.0
 41
1.0
 10
-647.25551877308055
 20
-2510.6229041088436
 30
0.0
 41
0.9999749417503114
 10
-647.174258238731
 20
-2510.5598225548924
 30
0.0
 41
1.0
 10
-647.15327209257362
 20
-2510.5435312675945
 30
0.0
 41
1.0
 10
-647.13228594641612
 20
-2510.5272399802971
 30
0.0
 41
1.0
 10
-647.04771806110955
 20
-2510.4615909704526
 30
0.0
 41
0.9999792037137196
 10
-646.96231046133926
 20
-2510.3970381888084
 30
0.0
 41
1.0
 10
-646.94148563542092
 20
-2510.3812983665457
 30
0.0
 41
1.0
 10
-646.92066080950258
 20
-2510.3655585442825
 30
0.0
 41
1.0
 10
-646.87690286156385
 20
-2510.3324854071607
 30
0.0
 41
0.999999337379937
 10
-646.83322117542662
 20
-2510.2993116117409
 30
0.0
 41
1.0
 10
-646.78953948927881
 20
-2510.2661378163134
 30
0.0
 41
0.9999160953819094
 10
-646.74501307836272
 20
-2510.2341067511179
 30
0.0
 41
1.0
 10
-646.71219119094371
 20
-2510.2104955955333
 30
0.0
 41
1.0
 10
-646.67936930352482
 20
-2510.1868844399487
 30
0.0
 41
1.0
 10
-646.56919911776777
 20
-2510.1076310635813
 30
0.0
 41
0.9980964527230792
 10
-646.45011012426721
 20
-2510.0425435907255
 30
0.0
 41
1.0
 10
-646.41307751733871
 20
-2510.022303611132
 30
0.0
 41
1.0
 10
-646.37604491041031
 20
-2510.0020636315389
 30
0.0
 41
1.0
 10
-646.19671789713721
 20
-2509.9040533808379
 30
0.0
 41
0.9984572810573138
 10
-646.00762933077749
 20
-2509.8265311194909
 30
0.0
 41
1.0
 10
-646.00398306138118
 20
-2509.8250362271529
 30
0.0
 41
1.0
 10
-646.00033679198498
 20
-2509.8235413348148
 30
0.0
 41
1.0
 10
-645.81854076441743
 20
-2509.749008858144
 30
0.0
 41
0.9987838528034031
 10
-645.63028810585934
 20
-2509.6927432179787
 30
0.0
 41
1.0
 10
-645.62605015665702
 20
-2509.6914765642873
 30
0.0
 41
1.0
 10
-645.6218122074547
 20
-2509.690209910596
 30
0.0
 41
1.0
 10
-645.44203544729612
 20
-2509.636477577812
 30
0.0
 41
0.9990652816208197
 10
-645.25828951558424
 20
-2509.5984738982706
 30
0.0
 41
1.0
 10
-645.25310111455258
 20
-2509.597400795164
 30
0.0
 41
1.0
 10
-645.24791271352092
 20
-2509.5963276920575
 30
0.0
 41
1.0
 10
-645.07454358386804
 20
-2509.5604702187288
 30
0.0
 41
0.9992909934270369
 10
-644.89896781741004
 20
-2509.5377597862625
 30
0.0
 41
1.0
 10
-644.72339205094954
 20
-2509.5150493537958
 30
0.0
 41
0.9994553539448373
 10
-644.54670061785384
 20
-2509.503970049589
 30
0.0
 41
1.0
 10
-644.51126621005983
 20
-2509.5017481615414
 30
0.0
 41
1.0
 10
-644.47583180226593
 20
-2509.4995262734938
 30
0.0
 41
1.0
 10
-644.30960603569713
 20
-2509.4891032110822
 30
0.0
 41
0.9990928098293375
 10
-644.1430962437953
 20
-2509.4928628523166
 30
0.0
 41
1.0
 10
-644.10453440852336
 20
-2509.4937335438499
 30
0.0
 41
1.0
 10
-644.06597257325143
 20
-2509.4946042353827
 30
0.0
 41
1.0
 10
-643.9765864518929
 20
-2509.4966224935515
 30
0.0
 41
0.9998382089206661
 10
-643.88733076910648
 20
-2509.5018546200795
 30
0.0
 41
1.0
 10
-643.88690086288113
 20
-2509.5018798209821
 30
0.0
 41
1.0
 10
-643.88647095665578
 20
-2509.5019050218848
 30
0.0
 41
1.0
 10
-643.79807508631529
 20
-2509.5070867466079
 30
0.0
 41
0.999755801675848
 10
-643.7099945091195
 20
-2509.516169261974
 30
0.0
 41
1.0
 10
-643.70951837069515
 20
-2509.5162183594557
 30
0.0
 41
1.0
 10
-643.70904223227092
 20
-2509.5162674569378
 30
0.0
 41
1.0
 10
-643.62191393192381
 20
-2509.5252517773397
 30
0.0
 41
0.9996565144182659
 10
-643.53537607857652
 20
-2509.5387890840293
 30
0.0
 41
1.0
 10
-643.53491015319855
 20
-2509.5388619697605
 30
0.0
 41
1.0
 10
-643.53444422782047
 20
-2509.5389348554922
 30
0.0
 41
1.0
 10
-643.448838225234
 20
-2509.5523263907185
 30
0.0
 41
0.9995321806866678
 10
-643.36421114490656
 20
-2509.5709268791479
 30
0.0
 41
1.0
 10
-643.36382195033411
 20
-2509.5710124216139
 30
0.0
 41
1.0
 10
-643.36343275576178
 20
-2509.5710979640799
 30
0.0
 41
1.0
 10
-643.27958406457799
 20
-2509.5895273675769
 30
0.0
 41
0.9993819199218903
 10
-643.19723753038238
 20
-2509.6138027508377
 30
0.0
 41
1.0
 10
-643.19699909688575
 20
-2509.6138730399466
 30
0.0
 41
1.0
 10
-643.196760663389
 20
-2509.6139433290555
 30
0.0
 41
1.0
 10
-643.11489099618746
 20
-2509.6380781340981
 30
0.0
 41
0.9992088568506103
 10
-643.03519847719792
 20
-2509.6686433698928
 30
0.0
 41
1.0
 10
-642.95551748631885
 20
-2509.6992029706262
 30
0.0
 41
0.9990226101773326
 10
-642.87884681641174
 20
-2509.7366804022404
 30
0.0
 41
1.0
 10
-642.80218767461179
 20
-2509.7741521987946
 30
0.0
 41
0.9988424273972317
 10
-642.72948404739793
 20
-2509.8188169740488
 30
0.0
 41
1.0
 10
-642.72921633902024
 20
-2509.8189814381199
 30
0.0
 41
1.0
 10
-642.72894863064266
 20
-2509.8191459021909
 30
0.0
 41
1.0
 10
-642.65570958667229
 20
-2509.8641396055882
 30
0.0
 41
0.9986928844491834
 10
-642.58744671996283
 20
-2509.916375339868
 30
0.0
 41
1.0
 10
-642.58686542773967
 20
-2509.9168201530961
 30
0.0
 41
1.0
 10
-642.58628413551651
 20
-2509.9172649663242
 30
0.0
 41
1.0
 10
-642.5168586843613
 20
-2509.9703903270588
 30
0.0
 41
0.9986007262275278
 10
-642.45343251459587
 20
-2510.0305510967519
 30
0.0
 41
1.0
 10
-642.45253809913788
 20
-2510.0313994645876
 30
0.0
 41
1.0
 10
-642.45164368368
 20
-2510.0322478324233
 30
0.0
 41
1.0
 10
-642.38642868299951
 20
-2510.094105337786
 30
0.0
 41
0.9985581491380514
 10
-642.32822107129721
 20
-2510.1625978280586
 30
0.0
 41
1.0
 10
-642.31896261770135
 20
-2510.1734921857606
 30
0.0
 41
1.0
 10
-642.3097041641056
 20
-2510.1843865434621
 30
0.0
 41
1.0
 10
-642.23297964521225
 20
-2510.2746677491368
 30
0.0
 41
0.9970460233519375
 10
-642.17098774405395
 20
-2510.3756348333168
 30
0.0
 41
1.0
 10
-642.15651837897371
 20
-2510.3992012923991
 30
0.0
 41
1.0
 10
-642.14204901389337
 20
-2510.4227677514818
 30
0.0
 41
1.0
 10
-642.10231231388184
 20
-2510.4874874755128
 30
0.0
 41
0.9988468816637729
 10
-642.06896594313002
 20
-2510.5557199279406
 30
0.0
 41
1.0
 10
-642.06192992063768
 20
-2510.5701168490796
 30
0.0
 41
1.0
 10
-642.05489389814534
 20
-2510.584513770219
 30
0.0
 41
1.0
 10
-642.03561957237787
 20
-2510.6239523803697
 30
0.0
 41
0.9998431189997529
 10
-642.01775424488346
 20
-2510.6640489348092
 30
0.0
 41
1.0
 10
-641.99988891734858
 20
-2510.7041454893392
 30
0.0
 41
0.9999989989993579
 10
-641.98191019391231
 20
-2510.7441913269545
 30
0.0
 41
1.0
 10
-641.97573788234513
 20
-2510.7579395437069
 30
0.0
 41
1.0
 10
-641.96956557077806
 20
-2510.7716877604589
 30
0.0
 41
1.0
 10
-641.93924222416854
 20
-2510.8392300316646
 30
0.0
 41
0.9998790356319707
 10
-641.91103434402919
 20
-2510.9076827836061
 30
0.0
 41
1.0
 10
-641.90419916274686
 20
-2510.9242698850289
 30
0.0
 41
1.0
 10
-641.89736398146442
 20
-2510.9408569864518
 30
0.0
 41
1.0
 10
-641.87380631908422
 20
-2510.9980249413356
 30
0.0
 41
0.9998227574560185
 10
-641.85241757069139
 20
-2511.0560392496227
 30
0.0
 41
1.0
 10
-641.83102882230139
 20
-2511.1140535579025
 30
0.0
 41
0.9996797971041778
 10
-641.81260253734274
 20
-2511.1730756770189
 30
0.0
 41
1.0
 10
-641.80869873461734
 20
-2511.1855801351876
 30
0.0
 41
1.0
 10
-641.80479493189182
 20
-2511.1980845933563
 30
0.0
 41
1.0
 10
-641.778561041481
 20
-2511.2821156288137
 30
0.0
 41
0.9979274938733463
 10
-641.76333651800223
 20
-2511.3688199874728
 30
0.0
 41
1.0
 10
-641.76111283074101
 20
-2511.3814839882943
 30
0.0
 41
1.0
 10
-641.75888914347979
 20
-2511.3941479891155
 30
0.0
 41
1.0
 10
-641.74795920378097
 20
-2511.4563944964088
 30
0.0
 41
0.9994985982137168
 10
-641.74099103860476
 20
-2511.5192079975468
 30
0.0
 41
1.0
 10
-641.73402287342776
 20
-2511.582021498692
 30
0.0
 41
0.9996372611202457
 10
-641.73044700766013
 20
-2511.6451190773701
 30
0.0
 41
1.0
 10
-641.73027843017076
 20
-2511.6480936944527
 30
0.0
 41
1.0
 10
-641.73010985268138
 20
-2511.6510683115357
 30
0.0
 41
1.0
 10
-641.726196831935
 20
-2511.7201151243803
 30
0.0
 41
0.9997730630736093
 10
-641.7252285184469
 20
-2511.7892659484173
 30
0.0
 41
1.0
 10
-641.72517141202889
 20
-2511.7933441275582
 30
0.0
 41
1.0
 10
-641.72511430561076
 20
-2511.7974223066994
 30
0.0
 41
1.0
 10
-641.72403177928641
 20
-2511.8747294890195
 30
0.0
 41
0.9998772614069464
 10
-641.72537186601835
 20
-2511.9520326355869
 30
0.0
 41
1.0
 10
-641.72546112921702
 20
-2511.9571817994192
 30
0.0
 41
1.0
 10
-641.7255503924157
 20
-2511.9623309632516
 30
0.0
 41
1.0
 10
-641.72706900554465
 20
-2512.0499324374764
 30
0.0
 41
0.9999415567324071
 10
-641.73048131579094
 20
-2512.1374805991627
 30
0.0
 41
1.0
 10
-641.73072263646623
 20
-2512.143672058899
 30
0.0
 41
1.0
 10
-641.73096395714151
 20
-2512.1498635186358
 30
0.0
 41
1.0
 10
-641.73485890873746
 20
-2512.2497945997707
 30
0.0
 41
0.999971681042935
 10
-641.74025749185648
 20
-2512.3496557380131
 30
0.0
 41
1.0
 10
-641.74347029064506
 20
-2512.4090849876675
 30
0.0
 41
1.0
 10
-641.74668308943376
 20
-2512.4685142373219
 30
0.0
 41
1.0
 10
-641.75475699858566
 20
-2512.6178626385972
 30
0.0
 41
0.9999819129901544
 10
-641.76462679020347
 20
-2512.7671031163213
 30
0.0
 41
1.0
 10
-641.77449658182002
 20
-2512.9163435940327
 30
0.0
 41
1.0
 10
-641.77693590238391
 20
-2512.9535366398823
 30
0.0
 41
1.0
 10
-641.75423766853578
 20
-2512.9147956425231
 30
0.0
 41
0.9999982128114602
 10
-641.73139310978092
 20
-2512.8761407485667
 30
0.0
 41
1.0
 10
-641.70448354990435
 20
-2512.8306075345254
 30
0.0
 41
1.0
 10
-641.67757399002778
 20
-2512.785074320484
 30
0.0
 41
1.0
 10
-641.60091031149977
 20
-2512.6553529984108
 30
0.0
 41
0.9998609190056237
 10
-641.51996299863799
 20
-2512.5282606164815
 30
0.0
 41
1.0
 10
-641.49031467715474
 20
-2512.4817108835218
 30
0.0
 41
1.0
 10
-641.46066635567149
 20
-2512.4351611505622
 30
0.0
 41
1.0
 10
-641.37839413543657
 20
-2512.3059885805706
 30
0.0
 41
0.9999067609736161
 10
-641.29262512597552
 20
-2512.1791108911339
 30
0.0
 41
1.0
 10
-641.2902204227745
 20
-2512.1755536250789
 30
0.0
 41
1.0
 10
-641.28781571957347
 20
-2512.171996359024
 30
0.0
 41
1.0
 10
-641.20685611651356
 20
-2512.0522332016958
 30
0.0
 41
0.999878495215032
 10
-641.12220250683015
 20
-2511.9350519849841
 30
0.0
 41
1.0
 10
-641.03754889715162
 20
-2511.8178707682796
 30
0.0
 41
0.9998532968284291
 10
-640.94893127632895
 20
-2511.703657859809
 30
0.0
 41
1.0
 10
-640.92896948733721
 20
-2511.6779305387881
 30
0.0
 41
1.0
 10
-640.90900769834548
 20
-2511.6522032177668
 30
0.0
 41
1.0
 10
-640.79052364858569
 20
-2511.4994976067969
 30
0.0
 41
0.9991551975795672
 10
-640.65989919896151
 20
-2511.3570380447127
 30
0.0
 41
1.0
 10
-640.65638958298223
 20
-2511.3532104430888
 30
0.0
 41
1.0
 10
-640.65287996700306
 20
-2511.3493828414653
 30
0.0
 41
1.0
 10
-640.52927474933767
 20
-2511.2145784826284
 30
0.0
 41
0.999741814418106
 10
-640.39967260963749
 20
-2511.0855290720165
 30
0.0
 41
1.0
 10
-640.27007046993731
 20
-2510.9564796614045
 30
0.0
 41
0.9989238204633122
 10
-640.12906792168576
 20
-2510.8399946993654
 30
0.0
 41
1.0
 10
-640.08382024354501
 20
-2510.8026147077558
 30
0.0
 41
1.0
 10
-640.03857256540425
 20
-2510.7652347161461
 30
0.0
 41
1.0
 10
-639.89833250818378
 20
-2510.6493796628556
 30
0.0
 41
0.9990825084096082
 10
-639.74869257558134
 20
-2510.5459506650241
 30
0.0
 41
1.0
 10
-639.73864721152779
 20
-2510.5390074519469
 30
0.0
 41
1.0
 10
-639.72860184747424
 20
-2510.5320642388697
 30
0.0
 41
1.0
 10
-639.59905264297947
 20
-2510.4425216671921
 30
0.0
 41
0.9998164899826931
 10
-639.46616843960112
 20
-2510.3580074256743
 30
0.0
 41
1.0
 10
-639.45432287907397
 20
-2510.3504736591476
 30
0.0
 41
1.0
 10
-639.44247731854682
 20
-2510.3429398926214
 30
0.0
 41
1.0
 10
-639.33328423622243
 20
-2510.2734931841569
 30
0.0
 41
0.9997473449131169
 10
-639.22108027897548
 20
-2510.2090242263425
 30
0.0
 41
1.0
 10
-639.10887632171375
 20
-2510.14455526852
 30
0.0
 41
0.999932786114666
 10
-638.99520771094114
 20
-2510.0827052768336
 30
0.0
 41
1.0
 10
-638.99465570839106
 20
-2510.0824049181601
 30
0.0
 41
1.0
 10
-638.9941037058411
 20
-2510.0821045594871
 30
0.0
 41
1.0
 10
-638.87933108995662
 20
-2510.0196538504474
 30
0.0
 41
0.9996956420484402
 10
-638.76161776411561
 20
-2509.962940383472
 30
0.0
 41
1.0
 10
-638.73117735922028
 20
-2509.9482744067409
 30
0.0
 41
1.0
 10
-638.70073695432495
 20
-2509.9336084300094
 30
0.0
 41
1.0
 10
-638.59775984758141
 20
-2509.8839947715669
 30
0.0
 41
0.999807057017805
 10
-638.49291345864583
 20
-2509.8384641846678
 30
0.0
 41
1.0
 10
-638.38806706971059
 20
-2509.7929335977692
 30
0.0
 41
0.9997827436148135
 10
-638.28141413310914
 20
-2509.7518124264607
 30
0.0
 41
1.0
 10
-638.26219128347066
 20
-2509.7444008528255
 30
0.0
 41
1.0
 10
-638.24296843383217
 20
-2509.7369892791903
 30
0.0
 41
1.0
 10
-638.09786979795945
 20
-2509.6810449606137
 30
0.0
 41
0.9988031841977463
 10
-637.94799943535622
 20
-2509.6395448964463
 30
0.0
 41
1.0
 10
-637.92308218699168
 20
-2509.6326451506393
 30
0.0
 41
1.0
 10
-637.89816493862713
 20
-2509.6257454048318
 30
0.0
 41
1.0
 10
-637.73089491298038
 20
-2509.5794272624253
 30
0.0
 41
0.9984748040549711
 10
-637.55953800433224
 20
-2509.5518330301607
 30
0.0
 41
1.0
 10
-637.55479886808496
 20
-2509.5510698696476
 30
0.0
 41
1.0
 10
-637.55005973183768
 20
-2509.5503067091345
 30
0.0
 41
1.0
 10
-637.38818109568513
 20
-2509.524238797896
 30
0.0
 41
0.9984436495480078
 10
-637.22440635195858
 20
-2509.5163608440771
 30
0.0
 41
1.0
 10
-637.2027091438249
 20
-2509.5153171568772
 30
0.0
 41
1.0
 10
-637.18101193569123
 20
-2509.5142734696774
 30
0.0
 41
1.0
 10
-637.06063160823169
 20
-2509.5084828902582
 30
0.0
 41
0.9987954789335658
 10
-636.94026336332399
 20
-2509.5145194180004
 30
0.0
 41
1.0
 10
-636.92029857083253
 20
-2509.515520662339
 30
0.0
 41
1.0
 10
-636.90033377834118
 20
-2509.5165219066776
 30
0.0
 41
1.0
 10
-636.81989511841721
 20
-2509.5205559457422
 30
0.0
 41
0.9997941595878115
 10
-636.73968634031974
 20
-2509.5278500116638
 30
0.0
 41
1.0
 10
-636.65947756221783
 20
-2509.5351440775858
 30
0.0
 41
0.9998589466237957
 10
-636.57955901535695
 20
-2509.5451279320368
 30
0.0
 41
1.0
 10
-636.54715281355539
 20
-2509.5491762889551
 30
0.0
 41
1.0
 10
-636.51474661175382
 20
-2509.5532246458733
 30
0.0
 41
1.0
 10
-636.37001566128265
 20
-2509.5713052141618
 30
0.0
 41
0.9993495063249375
 10
-636.22696441751725
 20
-2509.5997709239032
 30
0.0
 41
1.0
 10
-636.1940307203613
 20
-2509.606324387119
 30
0.0
 41
1.0
 10
-636.16109702320546
 20
-2509.6128778503348
 30
0.0
 41
1.0
 10
-636.05180320000397
 20
-2509.6346261844697
 30
0.0
 41
0.9996788715560994
 10
-635.9437516280517
 20
-2509.661883983832
 30
0.0
 41
1.0
 10
-635.94168862551157
 20
-2509.6624044104055
 30
0.0
 41
1.0
 10
-635.93962562297145
 20
-2509.6629248369786
 30
0.0
 41
1.0
 10
-635.83570005609431
 20
-2509.6891417831953
 30
0.0
 41
0.9995480654491726
 10
-635.73353782086588
 20
-2509.7215567398193
 30
0.0
 41
1.0
 10
-635.73184817873812
 20
-2509.7220928447332
 30
0.0
 41
1.0
 10
-635.73015853661025
 20
-2509.7226289496466
 30
0.0
 41
1.0
 10
-635.63137558563778
 20
-2509.7539716964434
 30
0.0
 41
0.9993867959456598
 10
-635.53502842719388
 20
-2509.7921510657334
 30
0.0
 41
1.0
 10
-635.5337854781061
 20
-2509.7926436076309
 30
0.0
 41
1.0
 10
-635.53254252901831
 20
-2509.7931361495284
 30
0.0
 41
1.0
 10
-635.43868126874827
 20
-2509.8303304350243
 30
0.0
 41
0.99920502565215
 10
-635.34808159371801
 20
-2509.8748843342619
 30
0.0
 41
1.0
 10
-635.34734691100721
 20
-2509.8752456267221
 30
0.0
 41
1.0
 10
-635.34661222829641
 20
-2509.8756069191818
 30
0.0
 41
1.0
 10
-635.25748191868672
 20
-2509.9194382334995
 30
0.0
 41
0.9990222350742183
 10
-635.1725718572909
 20
-2509.9709715011991
 30
0.0
 41
1.0
 10
-635.17238797200571
 20
-2509.9710831041057
 30
0.0
 41
1.0
 10
-635.17220408672051
 20
-2509.9711947070118
 30
0.0
 41
1.0
 10
-635.08766179589463
 20
-2510.0225047688991
 30
0.0
 41
0.9988642743805075
 10
-635.00838726127836
 20
-2510.0816289564227
 30
0.0
 41
1.0
 10
-634.92911272666083
 20
-2510.1407531439463
 30
0.0
 41
0.9987681233310169
 10
-634.85608894238339
 20
-2510.2074438353479
 30
0.0
 41
1.0
 10
-634.85576001441746
 20
-2510.2077442365626
 30
0.0
 41
1.0
 10
-634.85543108645152
 20
-2510.2080446377768
 30
0.0
 41
1.0
 10
-634.78174944624243
 20
-2510.2753361316077
 30
0.0
 41
0.9987496570899697
 10
-634.71515564091521
 20
-2510.3496489456943
 30
0.0
 41
1.0
 10
-634.71438347115554
 20
-2510.3505106190514
 30
0.0
 41
1.0
 10
-634.71361130139576
 20
-2510.3513722924085
 30
0.0
 41
1.0
 10
-634.6454731565459
 20
-2510.427408453213
 30
0.0
 41
0.9988147669827009
 10
-634.58505090232063
 20
-2510.509709460056
 30
0.0
 41
1.0
 10
-634.58393157624391
 20
-2510.5112340914075
 30
0.0
 41
1.0
 10
-634.58281225016719
 20
-2510.5127587227585
 30
0.0
 41
1.0
 10
-634.52015134378735
 20
-2510.5981089923052
 30
0.0
 41
0.9989452636216529
 10
-634.46558443082768
 20
-2510.6888476814602
 30
0.0
 41
1.0
 10
-634.46423570474087
 20
-2510.6910904624883
 30
0.0
 41
1.0
 10
-634.46288697865407
 20
-2510.6933332435165
 30
0.0
 41
1.0
 10
-634.40562261352045
 20
-2510.7885574947286
 30
0.0
 41
0.9991046436070481
 10
-634.35661340019828
 20
-2510.8882819277551
 30
0.0
 41
1.0
 10
-634.355149538609
 20
-2510.8912606078261
 30
0.0
 41
1.0
 10
-634.35368567701971
 20
-2510.8942392878971
 30
0.0
 41
1.0
 10
-634.30174874051727
 20
-2510.9999210810693
 30
0.0
 41
0.9992763831101169
 10
-634.25799561196368
 20
-2511.1092451430213
 30
0.0
 41
1.0
 10
-634.25651634229996
 20
-2511.1129413305562
 30
0.0
 41
1.0
 10
-634.25503707263624
 20
-2511.1166375180906
 30
0.0
 41
1.0
 10
-634.2083254047534
 20
-2511.2333539551173
 30
0.0
 41
0.9994163472883896
 10
-634.1696923735642
 20
-2511.3529875435793
 30
0.0
 41
1.0
 10
-634.16845422131723
 20
-2511.3568216873628
 30
0.0
 41
1.0
 10
-634.16721606907026
 20
-2511.3606558311462
 30
0.0
 41
1.0
 10
-634.12733250805343
 20
-2511.484161892623
 30
0.0
 41
0.9997268055890282
 10
-634.09326445214197
 20
-2511.6093969245721
 30
0.0
 41
1.0
 10
-634.09233427187223
 20
-2511.6128162906816
 30
0.0
 41
1.0
 10
-634.09140409160239
 20
-2511.6162356567911
 30
0.0
 41
1.0
 10
-634.05919639622959
 20
-2511.7346319565254
 30
0.0
 41
0.999670131900132
 10
-634.03311077945955
 20
-2511.8545259097864
 30
0.0
 41
1.0
 10
-634.00702516268916
 20
-2511.9744198630488
 30
0.0
 41
0.9995785451109192
 10
-633.98794158534895
 20
-2512.0956256240834
 30
0.0
 41
1.0
 10
-633.98372180317529
 20
-2512.1224267788484
 30
0.0
 41
1.0
 10
-633.97950202100162
 20
-2512.149227933613
 30
0.0
 41
1.0
 10
-633.95292704506335
 20
-2512.3180139073156
 30
0.0
 41
0.9979925101217163
 10
-633.94790145913692
 20
-2512.4888052354063
 30
0.0
 41
1.0
 10
-633.94707664671216
 20
-2512.5168359588924
 30
0.0
 41
1.0
 10
-633.94625183428741
 20
-2512.5448666823786
 30
0.0
 41
1.0
 10
-633.9428758732106
 20
-2512.6595965635024
 30
0.0
 41
0.9995314902263656
 10
-633.94652606534908
 20
-2512.7743180472498
 30
0.0
 41
1.0
 10
-633.95017625748699
 20
-2512.8890395309963
 30
0.0
 41
0.9996245486943747
 10
-633.96010535261814
 20
-2513.003388802123
 30
0.0
 41
1.0
 10
-633.96026840061245
 20
-2513.0052665582598
 30
0.0
 41
1.0
 10
-633.96043144860687
 20
-2513.0071443143961
 30
0.0
 41
1.0
 10
-633.97068663972641
 20
-2513.1252490977904
 30
0.0
 41
0.9997286095001891
 10
-633.98643196329749
 20
-2513.242748006684
 30
0.0
 41
1.0
 10
-633.98682545594795
 20
-2513.2456844313865
 30
0.0
 41
1.0
 10
-633.98721894859841
 20
-2513.248620856089
 30
0.0
 41
1.0
 10
-634.00375125747166
 20
-2513.3719926143945
 30
0.0
 41
0.9998265533969818
 10
-634.02486671620363
 20
-2513.4946630891791
 30
0.0
 41
1.0
 10
-634.02554325834058
 20
-2513.4985934676852
 30
0.0
 41
1.0
 10
-634.02621980047752
 20
-2513.5025238461913
 30
0.0
 41
1.0
 10
-634.04868834348531
 20
-2513.6330550779981
 30
0.0
 41
0.9999022530852448
 10
-634.07479780809388
 20
-2513.7629070466305
 30
0.0
 41
1.0
 10
-634.07577644925948
 20
-2513.7677741890193
 30
0.0
 41
1.0
 10
-634.07675509042508
 20
-2513.7726413314076
 30
0.0
 41
1.0
 10
-634.10482183736747
 20
-2513.9122275848267
 30
0.0
 41
0.9999524761934349
 10
-634.13560480620049
 20
-2514.0512400779853
 30
0.0
 41
1.0
 10
-634.13688091337599
 20
-2514.0570028372877
 30
0.0
 41
1.0
 10
-634.13815702055149
 20
-2514.06276559659
 30
0.0
 41
1.0
 10
-634.1714922037379
 20
-2514.2133036083615
 30
0.0
 41
0.9999813588717379
 10
-634.20666320453461
 20
-2514.3634233210223
 30
0.0
 41
1.0
 10
-634.20821712999032
 20
-2514.3700559114413
 30
0.0
 41
1.0
 10
-634.20977105544603
 20
-2514.3766885018599
 30
0.0
 41
1.0
 10
-634.24804990714574
 20
-2514.5400733953225
 30
0.0
 41
0.999995523765372
 10
-634.28730578513569
 20
-2514.7032262989678
 30
0.0
 41
1.0
 10
-634.29958742076997
 20
-2514.7542704894904
 30
0.0
 41
1.0
 10
-634.31186905640425
 20
-2514.805314680013
 30
0.0
 41
1.0
 10
-634.37568820564184
 20
-2515.0705559646162
 30
0.0
 41
0.9999993604412765
 10
-634.44010715283434
 20
-2515.3356522154027
 30
0.0
 41
1.0
 10
-634.44482598837499
 20
-2515.3550711234166
 30
0.0
 41
1.0
 10
-634.44954482391552
 20
-2515.3744900314305
 30
0.0
 41
1.0
 10
-634.52340144217555
 20
-2515.6784240981874
 30
0.0
 41
0.9999659914727782
 10
-634.60226103806679
 20
-2515.9810986447701
 30
0.0
 41
1.0
 10
-634.60721372699459
 20
-2516.0001077819416
 30
0.0
 41
1.0
 10
-634.6121664159225
 20
-2516.0191169191135
 30
0.0
 41
1.0
 10
-634.7009313896715
 20
-2516.359809740045
 30
0.0
 41
0.9999441976025015
 10
-634.79687442263321
 20
-2516.6985511653384
 30
0.0
 41
1.0
 10
-634.81357494105782
 20
-2516.7575148778628
 30
0.0
 41
1.0
 10
-634.83027545948244
 20
-2516.8164785903873
 30
0.0
 41
1.0
 10
-634.95961952929974
 20
-2517.2731474407501
 30
0.0
 41
0.9999625120737959
 10
-635.09685229662216
 20
-2517.7275079747424
 30
0.0
 41
1.0
 10
-635.13264223970532
 20
-2517.8460040013701
 30
0.0
 41
1.0
 10
-635.16843218278837
 20
-2517.9645000279979
 30
0.0
 41
1.0
 10
-635.24295238683339
 20
-2518.2112271061114
 30
0.0
 41
0.9999793386318867
 10
-635.32063840996511
 20
-2518.4569757453296
 30
0.0
 41
1.0
 10
-635.39832443310263
 20
-2518.702724384566
 30
0.0
 41
1.0
 10
-635.40910399197332
 20
-2518.7367422889401
 30
0.0
 41
1.0
 10
-637.25947704524242
 20
-2524.623814211408
 30
0.0
 41
1.0
 10
-639.10985009851163
 20
-2530.5108861338754
 30
0.0
 41
1.0
 10
-640.07110678853519
 20
-2530.5108861338754
 30
0.0
 41
1.0
 10
-641.03236347855875
 20
-2530.5108861338754
 30
0.0
 41
1.0
 10
-639.41341869988037
 20
-2525.3628576320862
 30
0.0
 41
1.0
 10
-637.79447392120187
 20
-2520.2148291302965
 30
0.0
 41
1.0
 10
-637.74930809802595
 20
-2520.0707979080216
 30
0.0
 41
1.0
 10
-637.70414227485003
 20
-2519.9267666857463
 30
0.0
 41
1.0
 10
-637.53383785749566
 20
-2519.3836756566111
 30
0.0
 41
0.9999911657890735
 10
-637.36810504581035
 20
-2518.8391721252306
 30
0.0
 41
1.0
 10
-637.33840910231152
 20
-2518.7416081851857
 30
0.0
 41
1.0
 10
-637.30871315881279
 20
-2518.6440442451408
 30
0.0
 41
1.0
 10
-637.20237223413733
 20
-2518.29466859389
 30
0.0
 41
0.9999952428140683
 10
-637.09818864480508
 20
-2517.9446435695172
 30
0.0
 41
1.0
 10
-637.09312917447517
 20
-2517.9276452952508
 30
0.0
 41
1.0
 10
-637.08806970414525
 20
-2517.910647020984
 30
0.0
 41
1.0
 10
-636.99400505548101
 20
-2517.5946185451712
 30
0.0
 41
0.9999931687520932
 10
-636.90227921760652
 20
-2517.2779033318975
 30
0.0
 41
1.0
 10
-636.89734395314872
 20
-2517.2608626226329
 30
0.0
 41
1.0
 10
-636.89240868869103
 20
-2517.2438219133678
 30
0.0
 41
1.0
 10
-636.81055337973464
 20
-2516.961188118632
 30
0.0
 41
0.999989384080878
 10
-636.73130615327602
 20
-2516.6778119893802
 30
0.0
 41
1.0
 10
-636.65205892681661
 20
-2516.3944358601257
 30
0.0
 41
0.9999833980062534
 10
-636.5760826860801
 20
-2516.1101652771154
 30
0.0
 41
1.0
 10
-636.56707874935614
 20
-2516.0764763986308
 30
0.0
 41
1.0
 10
-636.5580748126323
 20
-2516.0427875201462
 30
0.0
 41
1.0
 10
-636.48911026376823
 20
-2515.7847516878583
 30
0.0
 41
0.9999233658067896
 10
-636.42655529254569
 20
-2515.5250875291272
 30
0.0
 41
1.0
 10
-636.36400032132542
 20
-2515.2654233704047
 30
0.0
 41
1.0
 10
-636.32451690246785
 20
-2515.1016167059788
 30
0.0
 41
1.0
 10
-636.31953829849226
 20
-2515.0809617441155
 30
0.0
 41
1.0
 10
-636.31455969451656
 20
-2515.0603067822517
 30
0.0
 41
1.0
 10
-636.2850334836113
 20
-2514.9378100415561
 30
0.0
 41
0.999986867084997
 10
-636.2567643996141
 20
-2514.815017095907
 30
0.0
 41
1.0
 10
-636.25286691245492
 20
-2514.7980875084841
 30
0.0
 41
1.0
 10
-636.24896942529585
 20
-2514.7811579210611
 30
0.0
 41
1.0
 10
-636.22849531561724
 20
-2514.692224150258
 30
0.0
 41
0.999977817335173
 10
-636.20920771750252
 20
-2514.6030255330311
 30
0.0
 41
1.0
 10
-636.18992011938838
 20
-2514.5138269158074
 30
0.0
 41
0.999960269286457
 10
-636.1722257607554
 20
-2514.4242986273698
 30
0.0
 41
1.0
 10
-636.16902192867815
 20
-2514.4080881724867
 30
0.0
 41
1.0
 10
-636.16581809660101
 20
-2514.3918777176032
 30
0.0
 41
1.0
 10
-636.14171607381536
 20
-2514.2699285194062
 30
0.0
 41
0.9995617985320789
 10
-636.12487272659621
 20
-2514.1467667716984
 30
0.0
 41
1.0
 10
-636.12240823669003
 20
-2514.1287459543328
 30
0.0
 41
1.0
 10
-636.11994374678375
 20
-2514.1107251369676
 30
0.0
 41
1.0
 10
-636.09966048573494
 20
-2513.9624100872643
 30
0.0
 41
0.9991121410638663
 10
-636.09193513214723
 20
-2513.8129139884604
 30
0.0
 41
1.0
 10
-636.09101634212266
 20
-2513.7951341518847
 30
0.0
 41
1.0
 10
-636.0900975520982
 20
-2513.7773543153089
 30
0.0
 41
1.0
 10
-636.08420977855917
 20
-2513.6634178896561
 30
0.0
 41
0.9989792494906017
 10
-636.0886288706763
 20
-2513.5494150537561
 30
0.0
 41
1.0
 10
-636.08927684254502
 20
-2513.5326988078268
 30
0.0
 41
1.0
 10
-636.08992481441373
 20
-2513.5159825618975
 30
0.0
 41
1.0
 10
-636.09304796279378
 20
-2513.4354122178556
 30
0.0
 41
0.9997820295393191
 10
-636.09953196016932
 20
-2513.3550424961136
 30
0.0
 41
1.0
 10
-636.1060159575452
 20
-2513.274672774367
 30
0.0
 41
0.9998335105974211
 10
-636.11542815305654
 20
-2513.1945931579212
 30
0.0
 41
1.0
 10
-636.11702307773294
 20
-2513.1810234274371
 30
0.0
 41
1.0
 10
-636.11861800240945
 20
-2513.1674536969535
 30
0.0
 41
1.0
 10
-636.13122004727302
 20
-2513.0602346195428
 30
0.0
 41
0.9996876457879225
 10
-636.14916396007175
 20
-2512.9537791918237
 30
0.0
 41
1.0
 10
-636.15139562321747
 20
-2512.9405394565797
 30
0.0
 41
1.0
 10
-636.15362728636319
 20
-2512.9272997213357
 30
0.0
 41
1.0
 10
-636.16742310778329
 20
-2512.8454535773817
 30
0.0
 41
0.9995547496494557
 10
-636.1860764296764
 20
-2512.7645760801879
 30
0.0
 41
1.0
 10
-636.18645038654734
 20
-2512.7629546694843
 30
0.0
 41
1.0
 10
-636.18682434341827
 20
-2512.7613332587803
 30
0.0
 41
1.0
 10
-636.2047297515694
 20
-2512.6836985829955
 30
0.0
 41
0.9994899427175794
 10
-636.22755466024842
 20
-2512.6073653001627
 30
0.0
 41
1.0
 10
-636.22801318698862
 20
-2512.6058318503756
 30
0.0
 41
1.0
 10
-636.22847171372882
 20
-2512.604298400589
 30
0.0
 41
1.0
 10
-636.25037956892652
 20
-2512.531032017333
 30
0.0
 41
0.9993784877592664
 10
-636.27739520403429
 20
-2512.4594913121691
 30
0.0
 41
1.0
 10
-636.27792689501211
 20
-2512.4580833294458
 30
0.0
 41
1.0
 10
-636.27845858599005
 20
-2512.4566753467229
 30
0.0
 41
1.0
 10
-636.30441083914241
 20
-2512.3879506070061
 30
0.0
 41
0.9992430832253987
 10
-636.3356273743002
 20
-2512.3214514549418
 30
0.0
 41
1.0
 10
-636.33620949035685
 20
-2512.3202113998245
 30
0.0
 41
1.0
 10
-636.33679160641339
 20
-2512.3189713447073
 30
0.0
 41
1.0
 10
-636.36684390945936
 20
-2512.2549523028747
 30
0.0
 41
0.9990789632800121
 10
-636.40227453623629
 20
-2512.1937456911241
 30
0.0
 41
1.0
 10
-636.40287024241752
 20
-2512.1927166052665
 30
0.0
 41
1.0
 10
-636.40346594859886
 20
-2512.1916875194083
 30
0.0
 41
1.0
 10
-636.43770516301163
 20
-2512.1325390793763
 30
0.0
 41
0.9988874801119801
 10
-636.477364439045
 20
-2512.0768793669567
 30
0.0
 41
1.0
 10
-636.47791996511057
 20
-2512.0760997152802
 30
0.0
 41
1.0
 10
-636.47847549117614
 20
-2512.0753200636036
 30
0.0
 41
1.0
 10
-636.51702371507838
 20
-2512.0212196545367
 30
0.0
 41
0.9986762060689702
 10
-636.5609261863533
 20
-2511.9713659400995
 30
0.0
 41
1.0
 10
-636.56137014668548
 20
-2511.9708617982828
 30
0.0
 41
1.0
 10
-636.56181410701777
 20
-2511.9703576564661
 30
0.0
 41
1.0
 10
-636.60482865762867
 20
-2511.921512225661
 30
0.0
 41
0.998462164248752
 10
-636.65298621440729
 20
-2511.8777289251889
 30
0.0
 41
1.0
 10
-636.65323284892406
 20
-2511.877504693025
 30
0.0
 41
1.0
 10
-636.65347948344083
 20
-2511.8772804608616
 30
0.0
 41
1.0
 10
-636.70114377118432
 20
-2511.8339456247186
 30
0.0
 41
0.9982724693851028
 10
-636.75356240302654
 20
-2511.7965012742002
 30
0.0
 41
1.0
 10
-636.80598103486886
 20
-2511.7590569236818
 30
0.0
 41
0.9981399180156954
 10
-636.86256709826432
 20
-2511.7282704042377
 30
0.0
 41
1.0
 10
-636.86261276034134
 20
-2511.7282455610812
 30
0.0
 41
1.0
 10
-636.86265842241824
 20
-2511.7282207179251
 30
0.0
 41
1.0
 10
-636.91933580996863
 20
-2511.697384512167
 30
0.0
 41
0.9980927086835535
 10
-636.97938116103444
 20
-2511.6737677033148
 30
0.0
 41
1.0
 10
-636.97982133074629
 20
-2511.6735945774399
 30
0.0
 41
1.0
 10
-636.98026150045825
 20
-2511.6734214515645
 30
0.0
 41
1.0
 10
-637.04118719094902
 20
-2511.6494583909616
 30
0.0
 41
0.9981411356561555
 10
-637.10457571234917
 20
-2511.6330857494559
 30
0.0
 41
1.0
 10
-637.10545782904978
 20
-2511.6328579072506
 30
0.0
 41
1.0
 10
-637.10633994575028
 20
-2511.6326300650453
 30
0.0
 41
1.0
 10
-637.17149270055245
 20
-2511.615801739129
 30
0.0
 41
0.9983031812936017
 10
-637.23816012954683
 20
-2511.6066623779529
 30
0.0
 41
1.0
 10
-637.24703115494958
 20
-2511.605446259282
 30
0.0
 41
1.0
 10
-637.25590218035222
 20
-2511.6042301406105
 30
0.0
 41
1.0
 10
-637.31025182285771
 20
-2511.5967794106191
 30
0.0
 41
0.9983887708263688
 10
-637.36509567215205
 20
-2511.5955347369859
 30
0.0
 41
1.0
 10
-637.37315907737923
 20
-2511.5953517391108
 30
0.0
 41
1.0
 10
-637.3812224826064
 20
-2511.5951687412357
 30
0.0
 41
1.0
 10
-637.41993952145469
 20
-2511.5942900633527
 30
0.0
 41
0.9998869563076802
 10
-637.45866547464755
 20
-2511.5945759327124
 30
0.0
 41
1.0
 10
-637.49739142781084
 20
-2511.5948618020716
 30
0.0
 41
0.999997232013881
 10
-637.53611560698448
 20
-2511.5953299016001
 30
0.0
 41
1.0
 10
-637.55546862360279
 20
-2511.5955638416899
 30
0.0
 41
1.0
 10
-637.57482164022099
 20
-2511.5957977817798
 30
0.0
 41
1.0
 10
-637.65225185259692
 20
-2511.5967337614875
 30
0.0
 41
0.9997304945087188
 10
-637.72955515883973
 20
-2511.6012628552739
 30
0.0
 41
1.0
 10
-637.73860480053872
 20
-2511.6017930612634
 30
0.0
 41
1.0
 10
-637.74765444223783
 20
-2511.6023232672533
 30
0.0
 41
1.0
 10
-637.84305703187749
 20
-2511.6079127730186
 30
0.0
 41
0.9997888306414745
 10
-637.93814936771355
 20
-2511.6174177375074
 30
0.0
 41
1.0
 10
-637.94687042929286
 20
-2511.6182894521398
 30
0.0
 41
1.0
 10
-637.95559149087205
 20
-2511.6191611667728
 30
0.0
 41
1.0
 10
-638.06812594986343
 20
-2511.6304095605265
 30
0.0
 41
0.998417023819016
 10
-638.17868509721734
 20
-2511.6542256424627
 30
0.0
 41
1.0
 10
-638.21506622820129
 20
-2511.6620626782687
 30
0.0
 41
1.0
 10
-638.25144735918525
 20
-2511.6698997140743
 30
0.0
 41
1.0
 10
-638.36663842760618
 20
-2511.6947135805835
 30
0.0
 41
0.9976592854198241
 10
-638.47736659401085
 20
-2511.7350122577309
 30
0.0
 41
1.0
 10
-638.58809476041517
 20
-2511.7753109348773
 30
0.0
 41
0.9993255074351328
 10
-638.69556655920724
 20
-2511.8236278333707
 30
0.0
 41
1.0
 10
-638.70019173813023
 20
-2511.8257072095703
 30
0.0
 41
1.0
 10
-638.70481691705322
 20
-2511.8277865857699
 30
0.0
 41
1.0
 10
-638.82153907369161
 20
-2511.880262236662
 30
0.0
 41
0.9976475078274611
 10
-638.92998641800318
 20
-2511.9482102263214
 30
0.0
 41
1.0
 10
-638.94832881213597
 20
-2511.959702705135
 30
0.0
 41
1.0
 10
-638.96667120626864
 20
-2511.9711951839481
 30
0.0
 41
1.0
 10
-639.05087339782096
 20
-2512.0239523047167
 30
0.0
 41
0.9995131336407619
 10
-639.13162111278018
 20
-2512.0818585166708
 30
0.0
 41
1.0
 10
-639.21236882774201
 20
-2512.1397647286267
 30
0.0
 41
0.9995810107604852
 10
-639.2896304754712
 20
-2512.2022464110937
 30
0.0
 41
1.0
 10
-639.29260050667881
 20
-2512.2046482825563
 30
0.0
 41
1.0
 10
-639.29557053788653
 20
-2512.2070501540188
 30
0.0
 41
1.0
 10
-639.37877224803401
 20
-2512.2743355794128
 30
0.0
 41
0.9996617837954915
 10
-639.45836293516845
 20
-2512.3458560349718
 30
0.0
 41
1.0
 10
-639.47049368604712
 20
-2512.3567567679638
 30
0.0
 41
1.0
 10
-639.4826244369259
 20
-2512.3676575009563
 30
0.0
 41
1.0
 10
-639.55089996432389
 20
-2512.4290101164302
 30
0.0
 41
0.9997267750052564
 10
-639.61623347260593
 20
-2512.4934866529538
 30
0.0
 41
1.0
 10
-639.68156698089194
 20
-2512.5579631894811
 30
0.0
 41
0.9999667288959895
 10
-639.745839924027
 20
-2512.6234969963639
 30
0.0
 41
1.0
 10
-639.81466737180676
 20
-2512.6936746551269
 30
0.0
 41
1.0
 10
-639.88349481958653
 20
-2512.7638523138899
 30
0.0
 41
1.0
 10
-640.08542265828373
 20
-2512.9697414383013
 30
0.0
 41
0.9988205335175083
 10
-640.26642827526166
 20
-2513.19424567036
 30
0.0
 41
1.0
 10
-640.29706824016694
 20
-2513.2322489207909
 30
0.0
 41
1.0
 10
-640.32770820507221
 20
-2513.2702521712213
 30
0.0
 41
1.0
 10
-640.56999375185887
 20
-2513.570762904139
 30
0.0
 41
0.9997077826755503
 10
-640.79747170296412
 20
-2513.8826326983549
 30
0.0
 41
1.0
 10
-640.79919511809567
 20
-2513.884995481736
 30
0.0
 41
1.0
 10
-640.80091853322733
 20
-2513.8873582651172
 30
0.0
 41
1.0
 10
-641.03184331459249
 20
-2514.2039536260918
 30
0.0
 41
0.9989147567079163
 10
-641.23230681747782
 20
-2514.540663087279
 30
0.0
 41
1.0
 10
-641.25704796278296
 20
-2514.5822196678282
 30
0.0
 41
1.0
 10
-641.28178910808799
 20
-2514.6237762483779
 30
0.0
 41
1.0
 10
-641.43700040672616
 20
-2514.8844776328315
 30
0.0
 41
0.9997476598182643
 10
-641.58034539423784
 20
-2515.1518873814175
 30
0.0
 41
1.0
 10
-641.72369038174963
 20
-2515.419297130004
 30
0.0
 41
0.9996258967109921
 10
-641.85219863368002
 20
-2515.6941450666259
 30
0.0
 41
1.0
 10
-641.865398543129
 20
-2515.7223764667201
 30
0.0
 41
1.0
 10
-641.8785984525781
 20
-2515.7506078668143
 30
0.0
 41
1.0
 10
-642.01880717357676
 20
-2516.0504802647647
 30
0.0
 41
0.999873541394384
 10
-642.14940852029895
 20
-2516.3546598642365
 30
0.0
 41
1.0
 10
-642.15285134836085
 20
-2516.3626784497046
 30
0.0
 41
1.0
 10
-642.15629417642288
 20
-2516.3706970351727
 30
0.0
 41
1.0
 10
-642.28000986701863
 20
-2516.6588394637024
 30
0.0
 41
0.9999377418862544
 10
-642.3972646691941
 20
-2516.9496709313789
 30
0.0
 41
1.0
 10
-642.51451947137264
 20
-2517.2405023990632
 30
0.0
 41
0.9999508299505869
 10
-642.62598341474381
 20
-2517.5336020758696
 30
0.0
 41
1.0
 10
-642.62906418340765
 20
-2517.5417031018369
 30
0.0
 41
1.0
 10
-642.63214495207149
 20
-2517.5498041278042
 30
0.0
 41
1.0
 10
-642.74977043277158
 20
-2517.8591058565471
 30
0.0
 41
0.9999609228427707
 10
-642.86190903564864
 20
-2518.1704388725707
 30
0.0
 41
1.0
 10
-642.86486504599793
 20
-2518.1786457129792
 30
0.0
 41
1.0
 10
-642.86782105634711
 20
-2518.1868525533873
 30
0.0
 41
1.0
 10
-642.98587167992184
 20
-2518.5145992502257
 30
0.0
 41
0.999967460739955
 10
-643.09861920599224
 20
-2518.8442078702278
 30
0.0
 41
1.0
 10
-643.15001759655161
 20
-2518.9944670659106
 30
0.0
 41
1.0
 10
-643.20141598711098
 20
-2519.1447262615934
 30
0.0
 41
1.0
 10
-643.3174265938701
 20
-2519.4838742441002
 30
0.0
 41
0.9999287532310376
 10
-643.42530799784208
 20
-2519.8256949830802
 30
0.0
 41
1.0
 10
-643.47178525397965
 20
-2519.9729575274459
 30
0.0
 41
1.0
 10
-643.51826251011721
 20
-2520.1202200718121
 30
0.0
 41
1.0
 10
-643.53318940181248
 20
-2520.1675157220543
 30
0.0
 41
0.9999998222327275
 10
-643.54805991054332
 20
-2520.2148291302965
 30
0.0
 41
1.0
 10
-645.16871604733876
 20
-2525.3628576320862
 30
0.0
 41
1.0
 10
-646.78937218413421
 20
-2530.5108861338754
 30
0.0
 41
1.0
 10
-647.69468062802514
 20
-2530.5108861338754
 30
0.0
 41
1.0
 10
-648.59998907191607
 20
-2530.5108861338754
 30
0.0
 41
1.0
 10
-646.74790466053003
 20
-2524.623814211408
 30
0.0
 41
1.0
 10
-644.89582024914398
 20
-2518.7367422889401
 30
0.0
 41
1.0
 10
-644.88569849084126
 20
-2518.7046990754907
 30
0.0
 41
1.0
 10
-644.81309082199152
 20
-2518.4743995336648
 30
0.0
 41
1.0
 10
-644.74048315313848
 20
-2518.2440999918285
 30
0.0
 41
0.9999825681971412
 10
-644.67060011392914
 20
-2518.0129590967699
 30
0.0
 41
1.0
 10
-644.62230905176955
 20
-2517.853234513278
 30
0.0
 41
1.0
 10
-644.57401798960996
 20
-2517.6935099297862
 30
0.0
 41
1.0
 10
-644.47686563628963
 20
-2517.3721747079994
 30
0.0
 41
0.9999672528964622
 10
-644.38492683066943
 20
-2517.0493091624239
 30
0.0
 41
1.0
 10
-644.38213794699936
 20
-2517.039515317033
 30
0.0
 41
1.0
 10
-644.3793490633293
 20
-2517.029721471642
 30
0.0
 41
1.0
 10
-644.29298802504559
 20
-2516.7264436168357
 30
0.0
 41
0.9999899749166953
 10
-644.20934641551139
 20
-2516.4224045283854
 30
0.0
 41
1.0
 10
-644.1992404964933
 20
-2516.3856692907052
 30
0.0
 41
1.0
 10
-644.18913457747533
 20
-2516.348934053025
 30
0.0
 41
1.0
 10
-644.12570480597799
 20
-2516.1183654399379
 30
0.0
 41
0.9999214200504305
 10
-644.06807537759892
 20
-2515.8862790977237
 30
0.0
 41
1.0
 10
-644.05530952541812
 20
-2515.8348682123265
 30
0.0
 41
1.0
 10
-644.04254367323733
 20
-2515.7834573269292
 30
0.0
 41
1.0
 10
-644.01044594922359
 20
-2515.6541927555245
 30
0.0
 41
0.9999828681676832
 10
-643.97986369722582
 20
-2515.5245612810468
 30
0.0
 41
1.0
 10
-643.94928144523078
 20
-2515.3949298065804
 30
0.0
 41
0.999938984447899
 10
-643.92157045643944
 20
-2515.2646543506712
 30
0.0
 41
1.0
 10
-643.9144327127201
 20
-2515.231098246838
 30
0.0
 41
1.0
 10
-643.90729496900076
 20
-2515.1975421430043
 30
0.0
 41
1.0
 10
-643.8653084927704
 20
-2515.0001544794268
 30
0.0
 41
0.999893369944038
 10
-643.82910422836937
 20
-2514.8016248716735
 30
0.0
 41
1.0
 10
-643.82773140315271
 20
-2514.7940968509756
 30
0.0
 41
1.0
 10
-643.82635857793616
 20
-2514.7865688302777
 30
0.0
 41
1.0
 10
-643.78740866310113
 20
-2514.5729831811259
 30
0.0
 41
0.9996850305193521
 10
-643.75922498684236
 20
-2514.357712175688
 30
0.0
 41
1.0
 10
-643.75722995347326
 20
-2514.3424738215676
 30
0.0
 41
1.0
 10
-643.75523492010416
 20
-2514.3272354674473
 30
0.0
 41
1.0
 10
-643.72782705764496
 20
-2514.1178902402912
 30
0.0
 41
0.9994697936706566
 10
-643.71410249842529
 20
-2513.9072050449599
 30
0.0
 41
1.0
 10
-643.71362542917564
 20
-2513.8998815727487
 30
0.0
 41
1.0
 10
-643.71314835992587
 20
-2513.8925581005374
 30
0.0
 41
1.0
 10
-643.70037793920551
 20
-2513.6965198496277
 30
0.0
 41
0.9991804893136788
 10
-643.70350625547849
 20
-2513.5000909996556
 30
0.0
 41
1.0
 10
-643.70359013430061
 20
-2513.4948241982447
 30
0.0
 41
1.0
 10
-643.70367401312262
 20
-2513.4895573968338
 30
0.0
 41
1.0
 10
-643.70663457175135
 20
-2513.3036621496854
 30
0.0
 41
0.9988448329322213
 10
-643.72742611737499
 20
-2513.1189095598488
 30
0.0
 41
1.0
 10
-643.72902019107789
 20
-2513.1047447040792
 30
0.0
 41
1.0
 10
-643.7306142647808
 20
-2513.0905798483091
 30
0.0
 41
1.0
 10
-643.74821766299829
 20
-2512.9341569700196
 30
0.0
 41
0.9985503209459236
 10
-643.78253393529826
 20
-2512.7805327859264
 30
0.0
 41
1.0
 10
-643.79011992736969
 20
-2512.7465724585254
 30
0.0
 41
1.0
 10
-643.79770591944111
 20
-2512.7126121311244
 30
0.0
 41
1.0
 10
-643.81685020759835
 20
-2512.626908601836
 30
0.0
 41
0.9991036781370641
 10
-643.84317506924913
 20
-2512.5431315145124
 30
0.0
 41
1.0
 10
-643.84715729470736
 20
-2512.5304583519946
 30
0.0
 41
1.0
 10
-643.8511395201657
 20
-2512.5177851894764
 30
0.0
 41
1.0
 10
-643.86949993090172
 20
-2512.4593544271829
 30
0.0
 41
0.9998874504368362
 10
-643.88960513857864
 20
-2512.4015008249639
 30
0.0
 41
1.0
 10
-643.90971034625784
 20
-2512.343647222739
 30
0.0
 41
0.9994041637543916
 10
-643.9337589591928
 20
-2512.2873185188473
 30
0.0
 41
1.0
 10
-643.93795574341641
 20
-2512.2774884543664
 30
0.0
 41
1.0
 10
-643.94215252764002
 20
-2512.2676583898856
 30
0.0
 41
1.0
 10
-643.97003135863372
 20
-2512.2023582239203
 30
0.0
 41
0.9991846840701101
 10
-644.00308771532707
 20
-2512.1395201926398
 30
0.0
 41
1.0
 10
-644.00422432172138
 20
-2512.1373595761866
 30
0.0
 41
1.0
 10
-644.00536092811569
 20
-2512.1351989597333
 30
0.0
 41
1.0
 10
-644.03614407201883
 20
-2512.076682161362
 30
0.0
 41
0.9989253167923418
 10
-644.07221349607516
 20
-2512.021267232969
 30
0.0
 41
1.0
 10
-644.07326762074877
 20
-2512.0196477382078
 30
0.0
 41
1.0
 10
-644.07432174542237
 20
-2512.0180282434462
 30
0.0
 41
1.0
 10
-644.10828292012968
 20
-2511.9658523045796
 30
0.0
 41
0.9986467172837377
 10
-644.14748007276739
 20
-2511.9174862709497
 30
0.0
 41
1.0
 10
-644.14835420146881
 20
-2511.9164076686702
 30
0.0
 41
1.0
 10
-644.14922833017022
 20
-2511.9153290663912
 30
0.0
 41
1.0
 10
-644.18667722540579
 20
-2511.8691202373188
 30
0.0
 41
0.9984001104269068
 10
-644.22910395592203
 20
-2511.8274351299506
 30
0.0
 41
1.0
 10
-644.22969109403152
 20
-2511.8268582550691
 30
0.0
 41
1.0
 10
-644.23027823214102
 20
-2511.826281380188
 30
0.0
 41
1.0
 10
-644.27153068643815
 20
-2511.7857500225828
 30
0.0
 41
0.9982442159081335
 10
-644.31728678777472
 20
-2511.7503814613219
 30
0.0
 41
1.0
 10
-644.31750158323416
 20
-2511.7502154286803
 30
0.0
 41
1.0
 10
-644.31771637869349
 20
-2511.7500493960392
 30
0.0
 41
1.0
 10
-644.36304288910867
 20
-2511.7150129000634
 30
0.0
 41
0.9982450060840771
 10
-644.41219386818216
 20
-2511.6855811170281
 30
0.0
 41
1.0
 10
-644.46134484725258
 20
-2511.6561493339955
 30
0.0
 41
0.9983922639637933
 10
-644.51351115341458
 20
-2511.632469699342
 30
0.0
 41
1.0
 10
-644.51373803074114
 20
-2511.6323667138595
 30
0.0
 41
1.0
 10
-644.51396490806769
 20
-2511.6322637283774
 30
0.0
 41
1.0
 10
-644.56658496888213
 20
-2511.6083781227603
 30
0.0
 41
0.9986517147150418
 10
-644.6213979417505
 20
-2511.5900770036387
 30
0.0
 41
1.0
 10
-644.62207586317777
 20
-2511.5898506572075
 30
0.0
 41
1.0
 10
-644.62275378460504
 20
-2511.5896243107763
 30
0.0
 41
1.0
 10
-644.67892260032954
 20
-2511.570870498791
 30
0.0
 41
0.9989435598954386
 10
-644.73657598748218
 20
-2511.5573527965566
 30
0.0
 41
1.0
 10
-644.73765610706289
 20
-2511.557099546304
 30
0.0
 41
1.0
 10
-644.7387362266436
 20
-2511.5568462960509
 30
0.0
 41
1.0
 10
-644.79854985295958
 20
-2511.54282209331
 30
0.0
 41
0.9992249241238529
 10
-644.85928136185851
 20
-2511.5335467505952
 30
0.0
 41
1.0
 10
-644.86069505014814
 20
-2511.5333308421878
 30
0.0
 41
1.0
 10
-644.86210873843777
 20
-2511.5331149337799
 30
0.0
 41
1.0
 10
-644.92566762391323
 20
-2511.5234077742493
 30
0.0
 41
0.9994396597833891
 10
-644.98973356044553
 20
-2511.517974851904
 30
0.0
 41
1.0
 10
-645.00887422792766
 20
-2511.5163516841849
 30
0.0
 41
1.0
 10
-645.0280148954098
 20
-2511.5147285164658
 30
0.0
 41
1.0
 10
-645.13036216690216
 20
-2511.5060492586827
 30
0.0
 41
0.9987693403120864
 10
-645.23306579048869
 20
-2511.5075523221353
 30
0.0
 41
1.0
 10
-645.24332012471609
 20
-2511.5077023939093
 30
0.0
 41
1.0
 10
-645.25357445894349
 20
-2511.5078524656838
 30
0.0
 41
1.0
 10
-645.36313022512252
 20
-2511.5094558099709
 30
0.0
 41
0.9989753644964952
 10
-645.47209222513925
 20
-2511.5209588168964
 30
0.0
 41
1.0
 10
-645.58105422515564
 20
-2511.5324618238214
 30
0.0
 41
0.9983190067305222
 10
-645.68795303611978
 20
-2511.5564968156082
 30
0.0
 41
1.0
 10
-645.69685398772697
 20
-2511.5584980941712
 30
0.0
 41
1.0
 10
-645.70575493933416
 20
-2511.5604993727338
 30
0.0
 41
1.0
 10
-645.83045565351176
 20
-2511.5885369216453
 30
0.0
 41
0.9985539388302809
 10
-645.95142540718848
 20
-2511.6298005976905
 30
0.0
 41
1.0
 10
-645.95377083814981
 20
-2511.630600641507
 30
0.0
 41
1.0
 10
-645.95611626911113
 20
-2511.6314006853231
 30
0.0
 41
1.0
 10
-646.08177688470994
 20
-2511.6742644490005
 30
0.0
 41
0.9988468746493845
 10
-646.2027472270106
 20
-2511.7289825340631
 30
0.0
 41
1.0
 10
-646.20593004899899
 20
-2511.7304222086232
 30
0.0
 41
1.0
 10
-646.20911287098738
 20
-2511.7318618831828
 30
0.0
 41
1.0
 10
-646.3364488572671
 20
-2511.789459317366
 30
0.0
 41
0.999132288591948
 10
-646.45854944132486
 20
-2511.8574546495483
 30
0.0
 41
1.0
 10
-646.47615145236489
 20
-2511.8672568515358
 30
0.0
 41
1.0
 10
-646.49375346340491
 20
-2511.8770590535237
 30
0.0
 41
1.0
 10
-646.59593014446409
 20
-2511.9339591693056
 30
0.0
 41
0.9993860037849666
 10
-646.69387114854032
 20
-2511.9978751848957
 30
0.0
 41
1.0
 10
-646.69948946139255
 20
-2512.0015416795904
 30
0.0
 41
1.0
 10
-646.70510777424477
 20
-2512.0052081742856
 30
0.0
 41
1.0
 10
-646.79181215261224
 20
-2512.0617912004832
 30
0.0
 41
0.9998821494954184
 10
-646.87673852842659
 20
-2512.1210094305607
 30
0.0
 41
1.0
 10
-646.96166490423661
 20
-2512.1802276606359
 30
0.0
 41
0.9997976482744617
 10
-647.04414053464325
 20
-2512.2428140686798
 30
0.0
 41
1.0
 10
-647.05877679944797
 20
-2512.2539207584596
 30
0.0
 41
1.0
 10
-647.0734130642528
 20
-2512.2650274482389
 30
0.0
 41
1.0
 10
-647.18516122426331
 20
-2512.3498272358379
 30
0.0
 41
0.9998091630800753
 10
-647.2935115022932
 20
-2512.438927586541
 30
0.0
 41
1.0
 10
-647.30651725477082
 20
-2512.4496226869874
 30
0.0
 41
1.0
 10
-647.31952300724856
 20
-2512.4603177874337
 30
0.0
 41
1.0
 10
-647.45388479022938
 20
-2512.5708083390264
 30
0.0
 41
0.9995035112317425
 10
-647.58102066799313
 20
-2512.6895421560412
 30
0.0
 41
1.0
 10
-647.59066797838113
 20
-2512.6985519022001
 30
0.0
 41
1.0
 10
-647.60031528876925
 20
-2512.7075616483585
 30
0.0
 41
1.0
 10
-647.72373835153246
 20
-2512.822828020112
 30
0.0
 41
0.9994630424298689
 10
-647.83934675731803
 20
-2512.9459307633488
 30
0.0
 41
1.0
 10
-647.84302959608954
 20
-2512.949852342862
 30
0.0
 41
1.0
 10
-647.84671243486093
 20
-2512.9537739223747
 30
0.0
 41
1.0
 10
-647.95495516309984
 20
-2513.0690335065819
 30
0.0
 41
0.9995160693750677
 10
-648.05582119263397
 20
-2513.1908009244567
 30
0.0
 41
1.0
 10
-648.05775491271424
 20
-2513.1931353486643
 30
0.0
 41
1.0
 10
-648.05968863279452
 20
-2513.195469772872
 30
0.0
 41
1.0
 10
-648.15668722216617
 20
-2513.3125683423295
 30
0.0
 41
0.9996561470514387
 10
-648.24741344083179
 20
-2513.4345911047785
 30
0.0
 41
1.0
 10
-648.25357110673326
 20
-2513.4428728938201
 30
0.0
 41
1.0
 10
-648.25972877263473
 20
-2513.4511546828617
 30
0.0
 41
1.0
 10
-648.33813965949912
 20
-2513.5566138672293
 30
0.0
 41
0.9998349055171558
 10
-648.41266694142996
 20
-2513.664852450891
 30
0.0
 41
1.0
 10
-648.48719422336524
 20
-2513.773091034559
 30
0.0
 41
0.9999728109566102
 10
-648.56011711926942
 20
-2513.8824169601053
 30
0.0
 41
1.0
 10
-648.56143233468265
 20
-2513.8843887296098
 30
0.0
 41
1.0
 10
-648.56274755009576
 20
-2513.8863604991147
 30
0.0
 41
1.0
 10
-648.63830087683641
 20
-2513.9996299636859
 30
0.0
 41
0.9999972147305832
 10
-648.71331868721677
 20
-2514.1132548065311
 30
0.0
 41
1.0
 10
-648.71829022983252
 20
-2514.1207848949934
 30
0.0
 41
1.0
 10
-648.72326177244815
 20
-2514.1283149834553
 30
0.0
 41
1.0
 10
-648.80822266806717
 20
-2514.2570000032365
 30
0.0
 41
0.9999371979003326
 10
-648.89027801747091
 20
-2514.3875569170127
 30
0.0
 41
1.0
 10
-648.89378690183298
 20
-2514.3931398450786
 30
0.0
 41
1.0
 10
-648.89729578619517
 20
-2514.3987227731441
 30
0.0
 41
1.0
 10
-648.98636890432192
 20
-2514.5404455430498
 30
0.0
 41
0.999827202560964
 10
-649.07011229520583
 20
-2514.6853814197952
 30
0.0
 41
1.0
 10
-649.08532746722994
 20
-2514.7117145342518
 30
0.0
 41
1.0
 10
-649.10054263925394
 20
-2514.7380476487087
 30
0.0
 41
1.0
 10
-649.21471637418369
 20
-2514.935649754364
 30
0.0
 41
0.9995217214838466
 10
-649.31645606373922
 20
-2515.1399320822252
 30
0.0
 41
1.0
 10
-649.32409962637507
 20
-2515.1552795319299
 30
0.0
 41
1.0
 10
-649.33174318901092
 20
-2515.1706269816345
 30
0.0
 41
1.0
 10
-649.41864848160253
 20
-2515.3451234397194
 30
0.0
 41
0.9998269762607422
 10
-649.49900294787153
 20
-2515.5227317264371
 30
0.0
 41
1.0
 10
-649.57935741414553
 20
-2515.7003400131648
 30
0.0
 41
0.9998944747389156
 10
-649.65451820870919
 20
-2515.8802077387923
 30
0.0
 41
1.0
 10
-649.65947187829829
 20
-2515.8920623937047
 30
0.0
 41
1.0
 10
-649.66442554788728
 20
-2515.9039170486167
 30
0.0
 41
1.0
 10
-649.74507260843745
 20
-2516.0969139886297
 30
0.0
 41
0.9999506734411454
 10
-649.82187013734733
 20
-2516.2914747935001
 30
0.0
 41
1.0
 10
-649.83647010261757
 20
-2516.3284627153043
 30
0.0
 41
1.0
 10
-649.85107006788792
 20
-2516.365450637109
 30
0.0
 41
1.0
 10
-649.89866766624857
 20
-2516.4860355983501
 30
0.0
 41
0.9999912393936596
 10
-649.94525411027348
 20
-2516.6070148010522
 30
0.0
 41
1.0
 10
-649.99184055429225
 20
-2516.7279940037379
 30
0.0
 41
0.9999927113982572
 10
-650.03750184868181
 20
-2516.8493254112277
 30
0.0
 41
1.0
 10
-650.05147028008366
 20
-2516.8864423932373
 30
0.0
 41
1.0
 10
-650.06543871148551
 20
-2516.9235593752474
 30
0.0
 41
1.0
 10
-650.13903686867548
 20
-2517.1191247467482
 30
0.0
 41
0.9999487550946362
 10
-650.20866049364668
 20
-2517.3161401119296
 30
0.0
 41
1.0
 10
-650.23225410358441
 20
-2517.3829034222249
 30
0.0
 41
1.0
 10
-650.25584771352226
 20
-2517.4496667325202
 30
0.0
 41
1.0
 10
-650.3505333478887
 20
-2517.7176005673336
 30
0.0
 41
0.9999808436925279
 10
-650.44189493653266
 20
-2517.986685998605
 30
0.0
 41
1.0
 10
-650.53325652516548
 20
-2518.2557714298446
 30
0.0
 41
0.9999873932897393
 10
-650.62191123388925
 20
-2518.5257607848739
 30
0.0
 41
1.0
 10
-650.64200359076005
 20
-2518.5869501176312
 30
0.0
 41
1.0
 10
-650.66209594763086
 20
-2518.6481394503885
 30
0.0
 41
1.0
 10
-650.79093537008748
 20
-2519.0405074709065
 30
0.0
 41
0.9999794883036456
 10
-650.91473815504651
 20
-2519.4344936771877
 30
0.0
 41
1.0
 10
-650.92589041448059
 20
-2519.4699842874143
 30
0.0
 41
1.0
 10
-650.93704267391479
 20
-2519.5054748976404
 30
0.0
 41
1.0
 10
-651.07960083782075
 20
-2519.959147649754
 30
0.0
 41
0.9999982761768413
 10
-651.22047327783343
 20
-2520.4133466718686
 30
0.0
 41
1.0
 10
-652.80861361040604
 20
-2525.4621164028722
 30
0.0
 41
1.0
 10
-654.39675394297865
 20
-2530.5108861338754
 30
0.0
 41
1.0
 10
-655.34550455445503
 20
-2530.5108861338754
 30
0.0
 41
1.0
 10
-656.29425516593142
 20
-2530.5108861338754
 30
0.0
 41
1.0
 10
-653.05597067977828
 20
-2520.1835639339292
 30
0.0
 41
1.0
 10
-649.81768619362504
 20
-2509.8562417339831
 30
0.0
 41
1.0
  0
LWPOLYLINE
  5
5E
100
AcDbEntity
  8
0
370
              15
390
0
  6
Continuous
 62
               7
100
AcDbPolyline
 90
      232
 70
             128
 10
-675.52123196745208
 20
-2510.9405845654983
 42
0.0004370800666716
 10
-675.57410914146624
 20
-2511.0092512046785
 10
-675.61339337265156
 20
-2511.0603583176508
 42
0.0030481992175694
 10
-675.74373208978977
 20
-2511.2320800100206
 10
-675.78224376152116
 20
-2511.2834667937832
 42
0.0042058245754166
 10
-675.98622881218284
 20
-2511.5604725388457
 10
-676.03863393469169
 20
-2511.632905385638
 42
0.0120948898745799
 10
-676.33467785145353
 20
-2512.0636549901878
 10
-676.43087035057624
 20
-2512.2111357254139
 42
0.0141601263949637
 10
-676.73451439749704
 20
-2512.7068050621474
 10
-676.77405166492406
 20
-2512.775649029581
 42
0.0071131081302032
 10
-676.97932398816147
 20
-2513.1451518284171
 42
0.006845879100289
 10
-677.17420351500118
 20
-2513.5202433918867
 10
-677.18101537746224
 20
-2513.5338051056169
 42
0.0064120880291788
 10
-677.37915762750492
 20
-2513.9412295805323
 10
-677.38669231302356
 20
-2513.9572414372569
 42
0.0058857236447186
 10
-677.58944770489484
 20
-2514.4016175482911
 10
-677.59762263118921
 20
-2514.4201077019261
 42
0.0053189741895257
 10
-677.80632694385872
 20
-2514.9060711758484
 10
-677.8150747495381
 20
-2514.9270530540398
 42
0.0047503650420596
 10
-678.03104847568909
 20
-2515.4592524872501
 10
-678.04031672403698
 20
-2515.4827288633574
 42
0.0042071762171159
 10
-678.26486410776727
 20
-2516.065822457434
 10
-678.27461351011334
 20
-2516.0917886322968
 42
0.003668008648598
 10
-678.50906815342614
 20
-2516.7304240168301
 10
-678.51927593327321
 20
-2516.7588725511723
 42
0.0032573142630725
 10
-678.7649082192404
 20
-2517.4577252109275
 10
-678.83355874008066
 20
-2517.6571882949797
 42
0.0026133366652537
 10
-679.18200393883853
 20
-2518.6870515786509
 10
-679.24526072633887
 20
-2518.8772824140428
 42
0.002059295074098
 10
-679.45912379530637
 20
-2519.529386066657
 10
-679.46217558647083
 20
-2519.538822555071
 42
0.0025609928537613
 10
-679.6639960879553
 20
-2520.1739677774326
 10
-679.66658745508335
 20
-2520.1822701183773
 42
0.0031362356240783
 10
-679.85607824075896
 20
-2520.8030329745529
 10
-679.8582092836831
 20
-2520.810174280753
 42
0.0037229918027905
 10
-680.03500967061268
 20
-2521.4191595827378
 10
-680.03668825981879
 20
-2521.425106472911
 42
0.0043077623707363
 10
-680.20042906188417
 20
-2522.0249252046815
 42
0.0047654161824491
 10
-680.35325778439892
 20
-2522.6276112935784
 10
-680.3877223932393
 20
-2522.7691730707334
 42
0.0112969368445042
 10
-680.58358675138277
 20
-2523.6608652313575
 10
-680.6115931404795
 20
-2523.8036932774557
 42
0.0130056762572028
 10
-680.81243038412617
 20
-2524.9906343491002
 10
-680.8329701342733
 20
-2525.1347124625777
 42
0.0138721532144185
 10
-680.9366731388111
 20
-2526.0415419484034
 10
-680.95596862671937
 20
-2526.265039670333
 42
0.0071254697007346
 10
-680.98931527264153
 20
-2526.7282266791754
 10
-680.99427624680402
 20
-2526.8142306737222
 42
0.0028881799208627
 10
-681.00941454009467
 20
-2527.1059723835783
 42
0.0060297297138691
 10
-681.01934673987023
 20
-2527.3979213196958
 10
-681.02040902153726
 20
-2527.4463136916224
 42
0.022952316415932
 10
-681.01267799375159
 20
-2527.7690685379098
 10
-681.00845222023111
 20
-2527.8294720719282
 42
0.0123673300674978
 10
-680.9893735737129
 20
-2528.0305927971008
 42
0.0128577674467519
 10
-680.96017818330711
 20
-2528.230490647024
 10
-680.9530523099196
 20
-2528.2718194616245
 42
0.0285717853764767
 10
-680.88855830822365
 20
-2528.5499356129385
 10
-680.87488978455724
 20
-2528.5965903824158
 42
0.0316283099162999
 10
-680.75907920464329
 20
-2528.9156048842406
 10
-680.75603051288681
 20
-2528.922591256568
 42
0.0338984824245129
 10
-680.60659880192054
 20
-2529.2101572207553
 10
-680.60429007255118
 20
-2529.2139482500302
 42
0.0350228718361281
 10
-680.42192978187711
 20
-2529.4710002347083
 10
-680.42104453010086
 20
-2529.4720793124739
 42
0.0347476747538733
 10
-680.20661984286198
 20
-2529.6992643596923
 42
0.033133770191017
 10
-679.96337651711838
 20
-2529.8953930217676
 10
-679.96227641859946
 20
-2529.896165724942
 42
0.030523331907991
 10
-679.69373172302687
 20
-2530.061293895033
 10
-679.69050167852492
 20
-2530.0630179068962
 42
0.0273744481152847
 10
-679.39794796695287
 20
-2530.1991560507859
 10
-679.39284343181305
 20
-2530.2011996352567
 42
0.0240964406190053
 10
-679.07736635616925
 20
-2530.3101833615374
 10
-679.07078302695732
 20
-2530.3121081012132
 42
0.0209636179811874
 10
-678.73338287430454
 20
-2530.3955762491451
 10
-678.72575041385608
 20
-2530.3971281621466
 42
0.0181388704696321
 10
-678.36742802185449
 20
-2530.4565442553608
 10
-678.35914717347941
 20
-2530.4576104391776
 42
0.0156086547586428
 10
-677.98095980929736
 20
-2530.4943466257537
 10
-677.93776455695786
 20
-2530.4971851282335
 42
0.0137148329018909
 10
-677.61009141166471
 20
-2530.5097053834843
 10
-677.56415522171085
 20
-2530.5101998165997
 42
0.0051057823887671
 10
-677.32800963514649
 20
-2530.5103300710089
 42
0.0052256693304341
 10
-677.0919123513894
 20
-2530.5055812465457
 10
-677.02168556761842
 20
-2530.5034342805307
 42
0.0161507179055343
 10
-676.64594848950753
 20
-2530.479783910203
 10
-676.62593552914404
 20
-2530.4778737149163
 42
0.0101216737827322
 10
-676.21190830764851
 20
-2530.4298807845503
 10
-676.17785501822664
 20
-2530.4252330877412
 42
0.0245291776402352
 10
-675.70106536267974
 20
-2530.3361580096657
 10
-675.61624204715213
 20
-2530.3159620893193
 42
0.0143509212555906
 10
-675.2596109432119
 20
-2530.2201574555402
 42
0.0156557857042017
 10
-674.90939487848459
 20
-2530.1031462397218
 10
-674.90189366398999
 20
-2530.1003760779677
 42
0.0170137333624903
 10
-674.54529766830422
 20
-2529.9547184630942
 10
-674.53819374590114
 20
-2529.9515306275325
 42
0.0183105364408071
 10
-674.17884407774011
 20
-2529.7741955857109
 10
-674.17189731309611
 20
-2529.7704451508362
 42
0.0194899958145759
 10
-673.8134165721101
 20
-2529.5584661689441
 10
-673.80640269277546
 20
-2529.5539408266504
 42
0.0204869852953488
 10
-673.45238839068031
 20
-2529.3044208115634
 10
-673.44512278209447
 20
-2529.2988407462162
 42
0.0212516938555701
 10
-673.09913285098708
 20
-2529.0089367493219
 10
-673.05261615691143
 20
-2528.9664694392286
 42
0.021524891825026
 10
-672.79258998802311
 20
-2528.7077051602337
 10
-672.74756025363888
 20
-2528.6588610388799
 42
0.0114578554951965
 10
-672.59276809996527
 20
-2528.4830381054253
 10
-672.58157356398112
 20
-2528.4697193418829
 42
0.00615313051297
 10
-672.45509891798417
 20
-2528.3154298085738
 42
0.0006325587132915
 10
-672.33072043376058
 20
-2528.1594264328078
 10
-672.30768029878095
 20
-2528.130452912239
 42
0.0041897761565982
 10
-672.13922489480024
 20
-2527.9149335361667
 10
-672.08076277491602
 20
-2527.8388321891916
 42
0.009299388003841
 10
-671.80415084769299
 20
-2527.4645534253086
 10
-671.72175635449287
 20
-2527.3486164217384
 42
0.0159321727084569
 10
-671.37514987185102
 20
-2526.8264422009834
 10
-671.33079373646035
 20
-2526.7547626367309
 42
0.008554731702548
 10
-671.09628197113625
 20
-2526.3608876875087
 42
0.0084601156885522
 10
-670.87530579369354
 20
-2525.9592608384755
 10
-670.86719031986377
 20
-2525.9439011562035
 42
0.0081429654284336
 10
-670.64394104942573
 20
-2525.5041796436617
 10
-670.63508088524225
 20
-2525.4860008016435
 42
0.0076574581326357
 10
-670.40867337467296
 20
-2525.0028179263845
 10
-670.39919373395185
 20
-2524.9817534480871
 42
0.0070682724201818
 10
-670.16874882614422
 20
-2524.4497161433037
 10
-670.15875854216335
 20
-2524.4257269542941
 42
0.006455951445064
 10
-669.923425333983
 20
-2523.8394146877786
 10
-669.91301597581673
 20
-2523.8124797623332
 42
0.0058311413906898
 10
-669.67196923905385
 20
-2523.1664476679498
 10
-669.66121416166641
 20
-2523.1365633267892
 42
0.0052312425818009
 10
-669.41363288362538
 20
-2522.4253609129537
 10
-669.40258904724578
 20
-2522.3925342008847
 42
0.0046680544796306
 10
-669.1476606195115
 20
-2521.6107078851305
 10
-669.10566846946813
 20
-2521.4777246478393
 42
0.0041666856444224
 10
-668.90238245707269
 20
-2520.8147558728324
 10
-668.86472001641732
 20
-2520.6881747652073
 42
0.0015170975152747
 10
-668.74353343799589
 20
-2520.2763064136852
 42
-0.0004887993114331
 10
-668.62319366487463
 20
-2519.8641880016494
 10
-668.54671640737774
 20
-2519.6032306157022
 42
0.0002583378931611
 10
-668.27350183725412
 20
-2518.6691739123198
 10
-668.191728987739
 20
-2518.3890746529473
 42
0.0006636169671629
 10
-667.99786122772548
 20
-2517.7217217293528
 10
-667.99276457337101
 20
-2517.704090146447
 42
0.0010589131319527
 10
-667.81131587246182
 20
-2517.0713588034237
 10
-667.80633380198731
 20
-2517.0538458964247
 42
0.0015655524457405
 10
-667.6380635947985
 20
-2516.4552292172029
 10
-667.63323339439194
 20
-2516.4378370582976
 42
0.0021640440474946
 10
-667.47894342239761
 20
-2515.8728100402491
 10
-667.4743092029662
 20
-2515.8555453102495
 42
0.0028763871855476
 10
-667.3347934849146
 20
-2515.3235773594079
 10
-667.33040762074791
 20
-2515.3064533812553
 42
0.0037310511944003
 10
-667.2064509289105
 20
-2514.8070057872301
 10
-667.20237570862298
 20
-2514.7900455159911
 42
0.0047652197773211
 10
-667.09475180811307
 20
-2514.3225677476794
 10
-667.09106120879005
 20
-2514.3058081925305
 42
0.0060276699307641
 10
-667.00053110963609
 20
-2513.8697323973852
 10
-666.99731241934717
 20
-2513.8532311830768
 42
0.0075824337760441
 10
-666.92462310993142
 20
-2513.4479640186496
 10
-666.92197773255032
 20
-2513.431809071194
 42
0.0095130624613382
 10
-666.86786249692
 20
-2513.0567197181272
 10
-666.86087627303766
 20
-2513.0007861600129
 42
0.0121054653226438
 10
-666.83428494245948
 20
-2512.7358903315371
 10
-666.83341845270002
 20
-2512.7244868886087
 42
0.0069050827385163
 10
-666.81832963466218
 20
-2512.4815456617634
 10
-666.81719433499381
 20
-2512.4580194047217
 42
0.0169063976694715
 10
-666.81436705601345
 20
-2512.261826677418
 10
-666.81553770754488
 20
-2512.2014909160584
 42
0.0052007732930902
 10
-666.81779115613767
 20
-2512.125897525917
 42
0.0054038123309118
 10
-666.83775466797954
 20
-2512.0058792298892
 10
-666.84284052384692
 20
-2511.9772207433257
 42
0.0112050460453847
 10
-666.87822488590666
 20
-2511.8008943049813
 10
-666.89604984794619
 20
-2511.7213527182657
 42
0.0240764468022851
 10
-666.98694721409311
 20
-2511.3911156827626
 10
-667.00550597690744
 20
-2511.3344955177658
 42
0.0256812331832851
 10
-667.14886889709533
 20
-2510.9627713115133
 10
-667.15427832291596
 20
-2510.9506399765255
 42
0.0268360501223881
 10
-667.32370556376657
 20
-2510.6196468425028
 10
-667.3292419714021
 20
-2510.6101271721896
 42
0.0274670231734876
 10
-667.52144294781488
 20
-2510.3178397972733
 10
-667.5268242477764
 20
-2510.3105606497334
 42
0.0275035967102631
 10
-667.73839712733934
 20
-2510.0550447594278
 10
-667.74346662830885
 20
-2510.049565671794
 42
0.0269557673523043
 10
-667.97087017174545
 20
-2509.828923385835
 10
-667.97561322952743
 20
-2509.8247934313749
 42
0.0259124802212035
 10
-668.21516806095883
 20
-2509.637102904222
 10
-668.21969890614207
 20
-2509.6339174018908
 42
0.0245162153013551
 10
-668.46761525923557
 20
-2509.4771843927811
 10
-668.47214180555886
 20
-2509.4746241955809
 42
0.0229282588842384
 10
-668.72456136238713
 20
-2509.3467560030813
 10
-668.72934185622
 20
-2509.3446037033209
 42
0.0212984135690229
 10
-668.98237980868566
 20
-2509.243404786077
 10
-668.987684093658
 20
-2509.2415412233158
 42
0.0197555462340892
 10
-669.23746243137816
 20
-2509.1647258053522
 42
0.0183511896787423
 10
-669.49239115683326
 20
-2509.1071428983882
 10
-669.57875635356072
 20
-2509.0909401080021
 42
0.0338057877146779
 10
-669.86426370282459
 20
-2509.0571317028616
 10
-669.95526910786077
 20
-2509.0525520476003
 42
0.009199052449907
 10
-670.06111621650052
 20
-2509.0491761916783
 42
0.0028333980794895
 10
-670.16703013251094
 20
-2509.0483480841613
 10
-670.16794558554284
 20
-2509.0483461143372
 42
-0.0023619827786149
 10
-670.27569160067935
 20
-2509.0476052732583
 10
-670.31209677082461
 20
-2509.0471829667958
 42
0.0008824598484512
 10
-670.49265276083099
 20
-2509.0454071885561
 10
-670.53651419308039
 20
-2509.0450532270315
 42
0.0038132665768092
 10
-670.8047970889528
 20
-2509.0449342909651
 10
-670.8213307437527
 20
-2509.0450530571088
 42
0.0060665569332594
 10
-671.12261123535961
 20
-2509.0508733565302
 10
-671.13686156736935
 20
-2509.0513216644972
 42
0.0080356953344357
 10
-671.46632028372085
 20
-2509.0669893865647
 10
-671.47839029879583
 20
-2509.0677579695043
 42
0.00989963991072
 10
-671.83115338343998
 20
-2509.097243198702
 10
-671.8411990928214
 20
-2509.0982834949009
 42
0.0117740981364019
 10
-672.21235595117696
 20
-2509.1455757424319
 10
-672.2205786476527
 20
-2509.1468208590018
 42
0.0137435215134686
 10
-672.60516746714029
 20
-2509.2159178325637
 10
-672.6118245062612
 20
-2509.2173037287967
 42
0.0158359869386695
 10
-673.00482160007539
 20
-2509.3121958172806
 10
-673.01023478693082
 20
-2509.313685758148
 42
0.0180554124025764
 10
-673.40654983154059
 20
-2509.4383237743859
 10
-673.41110661962659
 20
-2509.4399398106534
 42
0.0203657431277676
 10
-673.80558413743199
 20
-2509.5982001521661
 10
-673.80972767644528
 20
-2509.6000617736108
 42
0.0226819684657527
 10
-674.19716373264839
 20
-2509.7957043522815
 10
-674.20136352366706
 20
-2509.7980699442014
 42
0.0248634984610809
 10
-674.5765454648506
 20
-2510.0346965901504
 10
-674.62474039363144
 20
-2510.0685536319738
 42
0.0267044190890485
 10
-674.89903309054876
 20
-2510.2839940078429
 42
0.0139303002194714
 10
-675.15520025648755
 20
-2510.5212328487546
 10
-675.16005364220848
 20
-2510.5259855116146
 42
0.0283460963444211
 10
-675.40412623643533
 20
-2510.7937161720592
 10
-675.44379474159223
 20
-2510.8425177495328
 42
0.0070695364826344
 10
-675.52123196745208
 20
-2510.9405845654983
 42
0.0070695364826344
  0
LWPOLYLINE
  5
5F
100
AcDbEntity
  8
0
370
              15
390
0
  6
Continuous
 62
               7
100
AcDbPolyline
 90
      226
 70
             128
 10
-679.05005240469848
 20
-2526.662173371682
 42
-0.0026277636656649
 10
-679.05013028849851
 20
-2526.5954014459135
 10
-679.04991293026649
 20
-2526.542246228496
 42
-0.0088680296722333
 10
-679.04613631397353
 20
-2526.3692304460951
 10
-679.04378995486104
 20
-2526.3099504206393
 42
-0.0077381705619989
 10
-679.02774384409747
 20
-2526.0186899248365
 10
-679.02687593292478
 20
-2526.0064016911565
 42
-0.0068872530537719
 10
-679.0002438531767
 20
-2525.6911799390882
 10
-678.99903962899054
 20
-2525.6789389600685
 42
-0.0062130021487052
 10
-678.96144591216296
 20
-2525.3400692688315
 10
-678.95994200862765
 20
-2525.3278953969134
 42
-0.0056726929670586
 10
-678.91102014912633
 20
-2524.9657001748069
 10
-678.9092467034809
 20
-2524.9536063745545
 42
-0.0052341884487702
 10
-678.84863611721914
 20
-2524.5684131190255
 10
-678.84661812844433
 20
-2524.5564081890443
 42
-0.0049768450160085
 10
-678.773879447019
 20
-2524.1485636216175
 10
-678.74963043229616
 20
-2524.0200156386059
 42
-0.0089029805620713
 10
-678.61254958050085
 20
-2523.3582401911808
 10
-678.57980420518288
 20
-2523.2132087606597
 42
-0.0080318257100024
 10
-678.35025559084238
 20
-2522.2674991288068
 10
-678.33827066439392
 20
-2522.221368493616
 42
-0.0074265721317861
 10
-678.05425912554199
 20
-2521.1913039152291
 10
-678.03437958242773
 20
-2521.123169854648
 42
-0.0069711922701777
 10
-677.70707500392064
 20
-2520.0569021143183
 10
-677.6471230568161
 20
-2519.8708807559506
 42
-0.0052070422896783
 10
-677.41769783155587
 20
-2519.1836086789162
 10
-677.40041663938734
 20
-2519.1335813983101
 42
-0.0009167004448772
 10
-677.19732475209412
 20
-2518.5491255501452
 42
-0.0025162726942635
 10
-676.99022712182909
 20
-2517.9660842859753
 10
-676.95300251002459
 20
-2517.8629347400724
 42
-0.0028212681457435
 10
-676.70482659106301
 20
-2517.1872041079059
 10
-676.69499582830895
 20
-2517.1608966632198
 42
-0.0031964916820872
 10
-676.45870357065007
 20
-2516.5406919011025
 10
-676.44906911665259
 20
-2516.5158819109633
 42
-0.0036281836457626
 10
-676.22396315554988
 20
-2515.9484412300662
 10
-676.21452474539308
 20
-2515.9251437985649
 42
-0.0041269166835439
 10
-675.99990704873323
 20
-2515.4077029025848
 10
-675.96727409231164
 20
-2515.3308244562218
 42
-0.004747221305883
 10
-675.81022928675884
 20
-2514.9704029883405
 10
-675.80333520555223
 20
-2514.954982391012
 42
-0.0025651659995612
 10
-675.65497717170047
 20
-2514.6276543352596
 42
-0.0057144634994963
 10
-675.50122747792966
 20
-2514.3028446618987
 10
-675.47319677252619
 20
-2514.2453362795
 42
-0.006538806837005
 10
-675.28972974478813
 20
-2513.8811037828382
 10
-675.28127128901031
 20
-2513.8648442034701
 42
-0.0074510843024703
 10
-675.10508904313178
 20
-2513.538155922346
 10
-675.09690937260234
 20
-2513.5235151450802
 42
-0.0084648979855451
 10
-674.92727551950065
 20
-2513.2316061341162
 10
-674.91941939301466
 20
-2513.2185991424685
 42
-0.0095638542801857
 10
-674.75558394541838
 20
-2512.9587102704868
 10
-674.74810900174566
 20
-2512.9473409090301
 42
-0.0107191626805393
 10
-674.58930742135908
 20
-2512.7167296744874
 10
-674.58229068762796
 20
-2512.7069935821228
 42
-0.0118458573906061
 10
-674.4277425891155
 20
-2512.502921386812
 42
-0.0129184518192881
 10
-674.26328996551479
 20
-2512.3067608706424
 10
-674.23314519315227
 20
-2512.2726347917437
 42
-0.0217742579627779
 10
-674.05653287081554
 20
-2512.0894280214916
 10
-674.04578732635298
 20
-2512.0792111882865
 42
-0.0097266568643876
 10
-673.87972970749934
 20
-2511.9273636138514
 42
-0.0187720905718511
 10
-673.70538213161126
 20
-2511.7852947604633
 10
-673.67467614093732
 20
-2511.7621356780674
 42
-0.0179428207522532
 10
-673.44225542093955
 20
-2511.5995835009544
 10
-673.43860309402669
 20
-2511.5972195660684
 42
-0.0170047877704764
 10
-673.20283945649339
 20
-2511.4557590519153
 10
-673.1990564677443
 20
-2511.4536607468776
 42
-0.0160190788375622
 10
-672.96214792011153
 20
-2511.3320094448909
 42
-0.015110286150165
 10
-672.71811613767125
 20
-2511.225326668839
 10
-672.66572963545309
 20
-2511.2042865359417
 42
-0.0271945441888016
 10
-672.30706707639592
 20
-2511.0824217252357
 10
-672.23800227590232
 20
-2511.063072183968
 42
-0.023759659401766
 10
-671.82220542888422
 20
-2510.9676214719875
 10
-671.75414257514956
 20
-2510.95536678386
 42
-0.0213715440541494
 10
-671.46826764370849
 20
-2510.916419752351
 10
-671.4081204774925
 20
-2510.9108300376502
 42
-0.0101465655827509
 10
-671.24062794549639
 20
-2510.8986864943859
 10
-671.23128755928258
 20
-2510.8981995793879
 42
-0.0100375910868887
 10
-671.0821334587356
 20
-2510.8934237614635
 10
-671.0718741890596
 20
-2510.8933013224491
 42
-0.0103625633383893
 10
-670.94316619440042
 20
-2510.8944327559757
 10
-670.92090054314497
 20
-2510.8950901144403
 42
-0.0115689250246176
 10
-670.83684980560554
 20
-2510.8995196206856
 42
-0.007243803741848
 10
-670.75301152615043
 20
-2510.9071088204364
 10
-670.73621101669357
 20
-2510.908875363159
 42
-0.0217917313129707
 10
-670.61964125338272
 20
-2510.9262952558793
 10
-670.55404116281363
 20
-2510.9390418642943
 42
-0.0332943556750072
 10
-670.34964899778493
 20
-2510.9930821556018
 10
-670.31947642923774
 20
-2511.0032502327194
 42
-0.0184824084783622
 10
-670.18097137276936
 20
-2511.0557012481067
 42
-0.0198002050697531
 10
-670.04689703227564
 20
-2511.1185853083034
 10
-670.0450103948931
 20
-2511.1195630951861
 42
-0.0212242342961549
 10
-669.91287145248702
 20
-2511.1953258339813
 10
-669.91105615694778
 20
-2511.1964716361872
 42
-0.0226090605800156
 10
-669.78255225572855
 20
-2511.28595127975
 10
-669.78070781398856
 20
-2511.2873635327396
 42
-0.0238457052236848
 10
-669.65752573269697
 20
-2511.3913594286005
 10
-669.65557300413661
 20
-2511.3931743063677
 42
-0.0248160564157659
 10
-669.53937149683384
 20
-2511.5124489075793
 10
-669.53726786343395
 20
-2511.5148342412813
 42
-0.0254109591452693
 10
-669.42966264556708
 20
-2511.6501226272467
 10
-669.42741462365393
 20
-2511.6532641756457
 42
-0.0255528488286692
 10
-669.32996794485837
 20
-2511.8052912298776
 10
-669.32763684494057
 20
-2511.8093728414879
 42
-0.0252146793208416
 10
-669.2418558189305
 20
-2511.9788750874873
 10
-669.23955357977388
 20
-2511.9840571693976
 42
-0.0244265635957974
 10
-669.16689888601343
 20
-2512.1718037414416
 10
-669.15765248454466
 20
-2512.1996691597806
 42
-0.0231319612891431
 10
-669.11172970555197
 20
-2512.3629702065841
 42
-0.011213042435837
 10
-669.07709368301312
 20
-2512.5291738067754
 10
-669.0758911579012
 20
-2512.53567039366
 42
-0.0210527881233985
 10
-669.05020468253053
 20
-2512.7167260391006
 10
-669.0466940877086
 20
-2512.7521315876484
 42
-0.0190029892421032
 10
-669.03125261416403
 20
-2513.0056674339198
 10
-669.03044263771994
 20
-2513.0411430482895
 42
-0.0137974553663048
 10
-669.03199149055547
 20
-2513.3661744550222
 10
-669.03283694551124
 20
-2513.3922931996226
 42
-0.0081336634213041
 10
-669.04769628073359
 20
-2513.6976406672152
 42
-0.0073526923575321
 10
-669.07200481410837
 20
-2514.0023889115018
 10
-669.07326623789095
 20
-2514.0157255861664
 42
-0.0066886138687865
 10
-669.10900182393777
 20
-2514.3463116296657
 10
-669.11065891340741
 20
-2514.3599332486551
 42
-0.0061359187348798
 10
-669.15850951545815
 20
-2514.7166972287541
 10
-669.16054701653115
 20
-2514.7305920315844
 42
-0.0056698610062078
 10
-669.22119734729847
 20
-2515.1138706004249
 10
-669.22360278062115
 20
-2515.1280297196531
 42
-0.0052721077271969
 10
-669.29773498141958
 20
-2515.5381570593245
 10
-669.30049813026255
 20
-2515.552573694717
 42
-0.0049289272183613
 10
-669.38879224836239
 20
-2515.9898822058381
 10
-669.39190474304519
 20
-2516.0045510586551
 42
-0.0047415956707225
 10
-669.49514273457748
 20
-2516.4693478160657
 10
-669.52991094493723
 20
-2516.6191549114492
 42
-0.0084404470900567
 10
-669.71992738850861
 20
-2517.3793789359784
 10
-669.72605407649473
 20
-2517.4022430601335
 42
-0.0039635940260373
 10
-669.94750776077899
 20
-2518.2032319243817
 10
-669.96088455595827
 20
-2518.2501635409726
 42
-0.0072475040839301
 10
-670.22833144382059
 20
-2519.1393832573608
 10
-670.29854377064885
 20
-2519.3611236073357
 42
-0.0051345458827951
 10
-670.58530314270763
 20
-2520.2354487951461
 10
-670.60682940947117
 20
-2520.2988750622644
 42
-0.001915001659946
 10
-670.86236281634183
 20
-2521.0424241825021
 10
-670.86883042073612
 20
-2521.0610116474181
 42
-0.0021524362750785
 10
-671.11730847180183
 20
-2521.7653374691317
 10
-671.12651889249594
 20
-2521.7910910474266
 42
-0.0024331286819501
 10
-671.36277415153427
 20
-2522.4416903555511
 10
-671.3718221040865
 20
-2522.4662336619103
 42
-0.0027449721787186
 10
-671.59643667492026
 20
-2523.0653635408298
 10
-671.60532668230906
 20
-2523.0886861306731
 42
-0.0031083229770543
 10
-671.81886916892245
 20
-2523.6386101682619
 10
-671.82760530059625
 20
-2523.6606998841153
 42
-0.0035311343288123
 10
-672.03064648618988
 20
-2524.1636830098496
 10
-672.03923182533879
 20
-2524.184525733363
 42
-0.004024564094936
 10
-672.23234362913195
 20
-2524.6428350559527
 10
-672.24077974273575
 20
-2524.6624144240263
 42
-0.0046015135853031
 10
-672.42453603589877
 20
-2525.0783194536666
 10
-672.43282221372249
 20
-2525.0966165931086
 42
-0.0052768638269907
 10
-672.60779973268268
 20
-2525.4723894773892
 10
-672.61593194330692
 20
-2525.489382815927
 42
-0.0060672675645988
 10
-672.78271155607558
 20
-2525.8272984390469
 10
-672.79068103655675
 20
-2525.8429636980436
 42
-0.0069904648872934
 10
-672.94984943055852
 20
-2526.1452995047075
 10
-672.95764083017093
 20
-2526.1596100539377
 42
-0.0080637022756224
 10
-673.10979269051518
 20
-2526.428645357088
 10
-673.11738172314756
 20
-2526.4415732226907
 42
-0.0093006455665439
 10
-673.26312239967797
 20
-2526.6795876211918
 10
-673.27047306642464
 20
-2526.6911055903697
 42
-0.0107060778061865
 10
-673.41042160986012
 20
-2526.9003759077441
 10
-673.41748337813988
 20
-2526.9104614503103
 42
-0.0122723111393921
 10
-673.55227709633778
 20
-2527.0932547797988
 10
-673.5526033198903
 20
-2527.0936751676063
 42
-0.0141836319637509
 10
-673.696184922866
 20
-2527.268244925438
 10
-673.70313267851395
 20
-2527.2762199256981
 42
-0.017595747720221
 10
-673.84303884655264
 20
-2527.4258408141077
 42
-0.0080466359683029
 10
-673.99050261158402
 20
-2527.56816334226
 10
-674.03653715610028
 20
-2527.6111837803501
 42
-0.0269600260389291
 10
-674.28981740208417
 20
-2527.82350703886
 10
-674.35638453837896
 20
-2527.8734584534818
 42
-0.0178362839755629
 10
-674.59632902803605
 20
-2528.0404763797355
 10
-674.60357399904024
 20
-2528.045144891943
 42
-0.0174650732648693
 10
-674.83991019647783
 20
-2528.1860058568996
 42
-0.0169240130154187
 10
-675.08537644233832
 20
-2528.3102981166785
 10
-675.13136259789326
 20
-2528.3316600722442
 42
-0.0318883036847638
 10
-675.48171345350943
 20
-2528.4679983817532
 10
-675.55007898868246
 20
-2528.4896990022312
 42
-0.028443590989276
 10
-675.92612911496906
 20
-2528.5859164377043
 10
-675.96128727546295
 20
-2528.5928100335318
 42
-0.0243909341022812
 10
-676.27473073638657
 20
-2528.6385310645628
 10
-676.32501146314803
 20
-2528.6433766114637
 42
-0.0196639292940239
 10
-676.54060704068502
 20
-2528.6556248969782
 10
-676.59243111186333
 20
-2528.656528157715
 42
-0.0100501510670097
 10
-676.70485439351273
 20
-2528.6562277593621
 10
-676.73651425491107
 20
-2528.6555066874753
 42
-0.0019752031091719
 10
-676.78560659153811
 20
-2528.654194527267
 10
-676.78836689477157
 20
-2528.6541098354405
 42
0.0065378751990597
 10
-676.83194346951495
 20
-2528.6533429442256
 42
-0.0167974694606544
 10
-676.87547429244717
 20
-2528.6516830456994
 10
-676.87955363170886
 20
-2528.6513900348045
 42
-0.008128327628463
 10
-676.93111342945815
 20
-2528.6468430411655
 10
-676.94285300332604
 20
-2528.6456151235884
 42
-0.0126703440165816
 10
-677.01757129912232
 20
-2528.6358803325165
 10
-677.04035916679618
 20
-2528.6323220766017
 42
-0.0117852088412216
 10
-677.15989815263936
 20
-2528.6107590814427
 10
-677.21527860439164
 20
-2528.59941554121
 42
-0.0251774592286889
 10
-677.44212264340069
 20
-2528.5409175317768
 10
-677.48684183324133
 20
-2528.5269507124449
 42
-0.0146525199895079
 10
-677.67323482078905
 20
-2528.4626841852437
 42
-0.0166929435847281
 10
-677.85521247692361
 20
-2528.3868770521854
 10
-677.85986910818883
 20
-2528.384752151575
 42
-0.0191684358438577
 10
-678.04505273944028
 20
-2528.2915160677835
 10
-678.04838532519511
 20
-2528.2896748202315
 42
-0.0221181781810039
 10
-678.23169562909936
 20
-2528.1775413218593
 10
-678.23404543310573
 20
-2528.1759570238696
 42
-0.0254984685381374
 10
-678.41033558348875
 20
-2528.0435458739021
 10
-678.43281773119475
 20
-2528.0247935649622
 42
-0.0292492648811473
 10
-678.55758667003602
 20
-2527.9077007653209
 42
-0.0159048957497923
 10
-678.671426667481
 20
-2527.7796807737282
 10
-678.67274545806549
 20
-2527.7780991607019
 42
-0.0343813379562452
 10
-678.77538271969274
 20
-2527.6362278349307
 10
-678.8068742510527
 20
-2527.585724442838
 42
-0.0369117275694816
 10
-678.8927667529498
 20
-2527.4222472018901
 42
-0.0191751379905392
 10
-678.95996013850572
 20
-2527.249842595887
 10
-678.96172346226626
 20
-2527.2447492512092
 42
-0.0378178042236356
 10
-679.01151818105018
 20
-2527.0558084751301
 10
-679.01751347678089
 20
-2527.0232478569301
 42
-0.018484604647666
 10
-679.03823067607527
 20
-2526.8814950363858
 42
-0.0179866351308348
 10
-679.04856368114895
 20
-2526.7386042233034
 10
-679.04862012359467
 20
-2526.7370465366921
 42
-0.008549718613895
 10
-679.05005240469848
 20
-2526.662173371682
 42
-0.008549718613895
  0
ENDBLK
  5
60
100
AcDbEntity
  8
template
390
0
100
AcDbBlockEnd
  0
BLOCK
  5
61
100
AcDbEntity
  8
notes
390
0
100
AcDbBlockBegin
  2
*D3
 70
               1
 10
0.0
 20
0.0
 30
0.0
  3
*D3
  1

  0
LINE
  5
62
100
AcDbEntity
  8
0
370
              -2
390
0
  6
Continuous
 62
               0
100
AcDbLine
 10
-644.13373814607576
 20
-456.77726687193854
 30
0.0
 11
-644.13373814607576
 21
-373.87726687193867
 31
0.0
  0
LINE
  5
63
100
AcDbEntity
  8
0
370
              -2
390
0
  6
Continuous
 62
               0
100
AcDbLine
 10
-794.13373814607576
 20
-430.84495690601443
 30
0.0
 11
-794.13373814607576
 21
-373.87726687193867
 31
0.0
  0
LINE
  5
64
100
AcDbEntity
  8
0
370
              -2
390
0
  6
Continuous
 62
               0
100
AcDbLine
 10
-644.13373814607576
 20
-373.87726687193867
 30
0.0
 11
-794.13373814607576
 21
-373.87726687193867
 31
0.0
  0
CIRCLE
  5
65
102
{ACAD_REACTORS
330
66
102
}
100
AcDbEntity
  8
0
370
              -2
390
0
  6
Continuous
 62
               0
100
AcDbCircle
 10
-644.13373814607576
 20
-373.87726687193867
 30
0.0
 40
1.9998779296875
  0
HATCH
  5
66
100
AcDbEntity
  8
0
370
              -2
390
0
  6
Continuous
 62
               0
100
AcDbHatch
 10
0.0
 20
0.0
 30
0.0
210
0.0
220
0.0
230
1.0
  2
SOLID
 70
               1
 71
               1
 91
        1
 92
        1
 93
        1
 72
               2
 10
-644.13373814607576
 20
-373.87726687193867
 40
1.9998779296875
 50
0.0
 51
360.0
 73
               0
 97
        1
330
65
 75
               0
 76
               1
 98
        1
 10
0.0
 20
0.0
  0
CIRCLE
  5
67
102
{ACAD_REACTORS
330
68
102
}
100
AcDbEntity
  8
0
370
              -2
390
0
  6
Continuous
 62
               0
100
AcDbCircle
 10
-794.13373814607576
 20
-373.87726687193867
 30
0.0
 40
1.9998779296875
  0
HATCH
  5
68
100
AcDbEntity
  8
0
370
              -2
390
0
  6
Continuous
 62
               0
100
AcDbHatch
 10
0.0
 20
0.0
 30
0.0
210
0.0
220
0.0
230
1.0
  2
SOLID
 70
               1
 71
               1
 91
        1
 92
        1
 93
        1
 72
               2
 10
-794.13373814607576
 20
-373.87726687193867
 40
1.9998779296875
 50
0.0
 51
360.0
 73
               0
 97
        1
330
67
 75
               0
 76
               1
 98
        1
 10
0.0
 20
0.0
  0
MTEXT
  5
69
100
AcDbEntity
  8
0
390
0
 62
               0
100
AcDbMText
 10
-742.94623982825124
 20
-339.99964968443874
 30
0.0
 40
24.432617187500004
 41
0.0
 71
               1
 72
               1
  1
150
  7
ＭＳ ゴシック
 73
               1
 44
0.7828267384257843
  0
POINT
  5
6A
100
AcDbEntity
  8
Defpoints
370
               0
390
0
 62
               0
100
AcDbPoint
 10
-794.13373814607576
 20
-455.84495690601443
 30
0.0
  0
POINT
  5
6B
100
AcDbEntity
  8
Defpoints
370
               0
390
0
 62
               0
100
AcDbPoint
 10
-644.13373814607576
 20
-481.77726687193854
 30
0.0
  0
POINT
  5
6C
100
AcDbEntity
  8
Defpoints
370
               0
390
0
 62
               0
100
AcDbPoint
 10
-644.13373814607576
 20
-373.87726687193867
 30
0.0
  0
ENDBLK
  5
6D
100
AcDbEntity
  8
notes
390
0
100
AcDbBlockEnd
  0
BLOCK
  5
6E
100
AcDbEntity
  8
notes
390
0
100
AcDbBlockBegin
  2
*D4
 70
               1
 10
0.0
 20
0.0
 30
0.0
  3
*D4
  1

  0
LINE
  5
6F
100
AcDbEntity
  8
0
370
              -2
390
0
  6
Continuous
 62
               0
100
AcDbLine
 10
-793.75969260886632
 20
387.97057698567914
 30
0.0
 11
-793.75969260886632
 21
223.97057698567914
 31
0.0
  0
LINE
  5
70
100
AcDbEntity
  8
0
370
              -2
390
0
  6
Continuous
 62
               0
100
AcDbLine
 10
-558.75969260886632
 20
361.69990548835085
 30
0.0
 11
-558.75969260886632
 21
223.97057698567914
 31
0.0
  0
LINE
  5
71
100
AcDbEntity
  8
0
370
              -2
390
0
  6
Continuous
 62
               0
100
AcDbLine
 10
-793.75969260886632
 20
223.97057698567914
 30
0.0
 11
-558.75969260886632
 21
223.97057698567914
 31
0.0
  0
CIRCLE
  5
72
102
{ACAD_REACTORS
330
73
102
}
100
AcDbEntity
  8
0
370
              -2
390
0
  6
Continuous
 62
               0
100
AcDbCircle
 10
-793.75969260886632
 20
223.97057698567914
 30
0.0
 40
1.9998779296875
  0
HATCH
  5
73
100
AcDbEntity
  8
0
370
              -2
390
0
  6
Continuous
 62
               0
100
AcDbHatch
 10
0.0
 20
0.0
 30
0.0
210
0.0
220
0.0
230
1.0
  2
SOLID
 70
               1
 71
               1
 91
        1
 92
        1
 93
        1
 72
               2
 10
-793.75969260886632
 20
223.97057698567914
 40
1.9998779296875
 50
0.0
 51
360.0
 73
               0
 97
        1
330
72
 75
               0
 76
               1
 98
        1
 10
0.0
 20
0.0
  0
CIRCLE
  5
74
102
{ACAD_REACTORS
330
75
102
}
100
AcDbEntity
  8
0
370
              -2
390
0
  6
Continuous
 62
               0
100
AcDbCircle
 10
-558.75969260886632
 20
223.97057698567914
 30
0.0
 40
1.9998779296875
  0
HATCH
  5
75
100
AcDbEntity
  8
0
370
              -2
390
0
  6
Continuous
 62
               0
100
AcDbHatch
 10
0.0
 20
0.0
 30
0.0
210
0.0
220
0.0
230
1.0
  2
SOLID
 70
               1
 71
               1
 91
        1
 92
        1
 93
        1
 72
               2
 10
-558.75969260886632
 20
223.97057698567914
 40
1.9998779296875
 50
0.0
 51
360.0
 73
               0
 97
        1
330
74
 75
               0
 76
               1
 98
        1
 10
0.0
 20
0.0
  0
MTEXT
  5
76
100
AcDbEntity
  8
0
390
0
 62
               0
100
AcDbMText
 10
-700.0721942910418
 20
257.84819417317919
 30
0.0
 40
24.432617187500004
 41
0.0
 71
               1
 72
               1
  1
235
  7
ＭＳ ゴシック
 73
               1
 44
0.7828267384257843
  0
POINT
  5
77
100
AcDbEntity
  8
Defpoints
370
               0
390
0
 62
               0
100
AcDbPoint
 10
-558.75969260886632
 20
386.69990548835085
 30
0.0
  0
POINT
  5
78
100
AcDbEntity
  8
Defpoints
370
               0
390
0
 62
               0
100
AcDbPoint
 10
-793.75969260886632
 20
412.97057698567914
 30
0.0
  0
POINT
  5
79
100
AcDbEntity
  8
Defpoints
370
               0
390
0
 62
               0
100
AcDbPoint
 10
-793.75969260886632
 20
223.97057698567914
 30
0.0
  0
ENDBLK
  5
7A
100
AcDbEntity
  8
notes
390
0
100
AcDbBlockEnd
  0
BLOCK
  5
7B
100
AcDbEntity
  8
notes
390
0
100
AcDbBlockBegin
  2
*D5
 70
               1
 10
0.0
 20
0.0
 30
0.0
  3
*D5
  1

  0
LINE
  5
7C
100
AcDbEntity
  8
0
370
              -2
390
0
  6
Continuous
 62
               0
100
AcDbLine
 10
-558.75969260886632
 20
361.69990548835085
 30
0.0
 11
-558.75969260886632
 21
223.97057698567914
 31
0.0
  0
LINE
  5
7D
100
AcDbEntity
  8
0
370
              -2
390
0
  6
Continuous
 62
               0
100
AcDbLine
 10
-128.75969260886927
 20
361.69990548380451
 30
0.0
 11
-128.75969260886927
 21
223.97057698567914
 31
0.0
  0
LINE
  5
7E
100
AcDbEntity
  8
0
370
              -2
390
0
  6
Continuous
 62
               0
100
AcDbLine
 10
-558.75969260886632
 20
223.97057698567914
 30
0.0
 11
-128.75969260886927
 21
223.97057698567914
 31
0.0
  0
CIRCLE
  5
7F
102
{ACAD_REACTORS
330
80
102
}
100
AcDbEntity
  8
0
370
              -2
390
0
  6
Continuous
 62
               0
100
AcDbCircle
 10
-558.75969260886632
 20
223.97057698567914
 30
0.0
 40
1.9998779296875
  0
HATCH
  5
80
100
AcDbEntity
  8
0
370
              -2
390
0
  6
Continuous
 62
               0
100
AcDbHatch
 10
0.0
 20
0.0
 30
0.0
210
0.0
220
0.0
230
1.0
  2
SOLID
 70
               1
 71
               1
 91
        1
 92
        1
 93
        1
 72
               2
 10
-558.75969260886632
 20
223.97057698567914
 40
1.9998779296875
 50
0.0
 51
360.0
 73
               0
 97
        1
330
7F
 75
               0
 76
               1
 98
        1
 10
0.0
 20
0.0
  0
CIRCLE
  5
81
102
{ACAD_REACTORS
330
82
102
}
100
AcDbEntity
  8
0
370
              -2
390
0
  6
Continuous
 62
               0
100
AcDbCircle
 10
-128.75969260886927
 20
223.97057698567914
 30
0.0
 40
1.9998779296875
  0
HATCH
  5
82
100
AcDbEntity
  8
0
370
              -2
390
0
  6
Continuous
 62
               0
100
AcDbHatch
 10
0.0
 20
0.0
 30
0.0
210
0.0
220
0.0
230
1.0
  2
SOLID
 70
               1
 71
               1
 91
        1
 92
        1
 93
        1
 72
               2
 10
-128.75969260886927
 20
223.97057698567914
 40
1.9998779296875
 50
0.0
 51
360.0
 73
               0
 97
        1
330
81
 75
               0
 76
               1
 98
        1
 10
0.0
 20
0.0
  0
MTEXT
  5
83
100
AcDbEntity
  8
0
390
0
 62
               0
100
AcDbMText
 10
-367.57219429104316
 20
257.84819417317919
 30
0.0
 40
24.432617187500004
 41
0.0
 71
               1
 72
               1
  1
430
  7
ＭＳ ゴシック
 73
               1
 44
0.7828267384257843
  0
POINT
  5
84
100
AcDbEntity
  8
Defpoints
370
               0
390
0
 62
               0
100
AcDbPoint
 10
-128.75969260886927
 20
386.69990548380451
 30
0.0
  0
POINT
  5
85
100
AcDbEntity
  8
Defpoints
370
               0
390
0
 62
               0
100
AcDbPoint
 10
-558.75969260886632
 20
386.69990548835085
 30
0.0
  0
POINT
  5
86
100
AcDbEntity
  8
Defpoints
370
               0
390
0
 62
               0
100
AcDbPoint
 10
-558.75969260886632
 20
223.97057698567914
 30
0.0
  0
ENDBLK
  5
87
100
AcDbEntity
  8
notes
390
0
100
AcDbBlockEnd
  0
BLOCK
  5
88
100
AcDbEntity
  8
notes
390
0
100
AcDbBlockBegin
  2
*D6
 70
               1
 10
0.0
 20
0.0
 30
0.0
  3
*D6
  1

  0
LINE
  5
89
100
AcDbEntity
  8
0
370
              -2
390
0
  6
Continuous
 62
               0
100
AcDbLine
 10
-644.13373814607576
 20
-456.77726687193854
 30
0.0
 11
-644.13373814607576
 21
-373.87726687193867
 31
0.0
  0
LINE
  5
8A
100
AcDbEntity
  8
0
370
              -2
390
0
  6
Continuous
 62
               0
100
AcDbLine
 10
-402.13373814607576
 20
-456.77726687193854
 30
0.0
 11
-402.13373814607576
 21
-373.87726687193867
 31
0.0
  0
LINE
  5
8B
100
AcDbEntity
  8
0
370
              -2
390
0
  6
Continuous
 62
               0
100
AcDbLine
 10
-644.13373814607576
 20
-373.87726687193867
 30
0.0
 11
-402.13373814607576
 21
-373.87726687193867
 31
0.0
  0
CIRCLE
  5
8C
102
{ACAD_REACTORS
330
8D
102
}
100
AcDbEntity
  8
0
370
              -2
390
0
  6
Continuous
 62
               0
100
AcDbCircle
 10
-644.13373814607576
 20
-373.87726687193867
 30
0.0
 40
1.9998779296875
  0
HATCH
  5
8D
100
AcDbEntity
  8
0
370
              -2
390
0
  6
Continuous
 62
               0
100
AcDbHatch
 10
0.0
 20
0.0
 30
0.0
210
0.0
220
0.0
230
1.0
  2
SOLID
 70
               1
 71
               1
 91
        1
 92
        1
 93
        1
 72
               2
 10
-644.13373814607576
 20
-373.87726687193867
 40
1.9998779296875
 50
0.0
 51
360.0
 73
               0
 97
        1
330
8C
 75
               0
 76
               1
 98
        1
 10
0.0
 20
0.0
  0
CIRCLE
  5
8E
102
{ACAD_REACTORS
330
8F
102
}
100
AcDbEntity
  8
0
370
              -2
390
0
  6
Continuous
 62
               0
100
AcDbCircle
 10
-402.13373814607576
 20
-373.87726687193867
 30
0.0
 40
1.9998779296875
  0
HATCH
  5
8F
100
AcDbEntity
  8
0
370
              -2
390
0
  6
Continuous
 62
               0
100
AcDbHatch
 10
0.0
 20
0.0
 30
0.0
210
0.0
220
0.0
230
1.0
  2
SOLID
 70
               1
 71
               1
 91
        1
 92
        1
 93
        1
 72
               2
 10
-402.13373814607576
 20
-373.87726687193867
 40
1.9998779296875
 50
0.0
 51
360.0
 73
               0
 97
        1
330
8E
 75
               0
 76
               1
 98
        1
 10
0.0
 20
0.0
  0
MTEXT
  5
90
100
AcDbEntity
  8
0
390
0
 62
               0
100
AcDbMText
 10
-546.94623982825124
 20
-339.99964968443874
 30
0.0
 40
24.432617187500004
 41
0.0
 71
               1
 72
               1
  1
242
  7
ＭＳ ゴシック
 73
               1
 44
0.7828267384257843
  0
POINT
  5
91
100
AcDbEntity
  8
Defpoints
370
               0
390
0
 62
               0
100
AcDbPoint
 10
-402.13373814607576
 20
-481.77726687193854
 30
0.0
  0
POINT
  5
92
100
AcDbEntity
  8
Defpoints
370
               0
390
0
 62
               0
100
AcDbPoint
 10
-644.13373814607576
 20
-481.77726687193854
 30
0.0
  0
POINT
  5
93
100
AcDbEntity
  8
Defpoints
370
               0
390
0
 62
               0
100
AcDbPoint
 10
-644.13373814607576
 20
-373.87726687193867
 30
0.0
  0
ENDBLK
  5
94
100
AcDbEntity
  8
notes
390
0
100
AcDbBlockEnd
  0
BLOCK
  5
95
100
AcDbEntity
  8
notes
390
0
100
AcDbBlockBegin
  2
*D7
 70
               1
 10
0.0
 20
0.0
 30
0.0
  3
*D7
  1

  0
LINE
  5
96
100
AcDbEntity
  8
0
370
              -2
390
0
  6
Continuous
 62
               0
100
AcDbLine
 10
-402.13373814607576
 20
-456.77726687193854
 30
0.0
 11
-402.13373814607576
 21
-373.87726687193867
 31
0.0
  0
LINE
  5
97
100
AcDbEntity
  8
0
370
              -2
390
0
  6
Continuous
 62
               0
100
AcDbLine
 10
-286.13373814607576
 20
-456.77726687193854
 30
0.0
 11
-286.13373814607576
 21
-373.87726687193867
 31
0.0
  0
LINE
  5
98
100
AcDbEntity
  8
0
370
              -2
390
0
  6
Continuous
 62
               0
100
AcDbLine
 10
-402.13373814607576
 20
-373.87726687193867
 30
0.0
 11
-286.13373814607576
 21
-373.87726687193867
 31
0.0
  0
CIRCLE
  5
99
102
{ACAD_REACTORS
330
9A
102
}
100
AcDbEntity
  8
0
370
              -2
390
0
  6
Continuous
 62
               0
100
AcDbCircle
 10
-402.13373814607576
 20
-373.87726687193867
 30
0.0
 40
1.9998779296875
  0
HATCH
  5
9A
100
AcDbEntity
  8
0
370
              -2
390
0
  6
Continuous
 62
               0
100
AcDbHatch
 10
0.0
 20
0.0
 30
0.0
210
0.0
220
0.0
230
1.0
  2
SOLID
 70
               1
 71
               1
 91
        1
 92
        1
 93
        1
 72
               2
 10
-402.13373814607576
 20
-373.87726687193867
 40
1.9998779296875
 50
0.0
 51
360.0
 73
               0
 97
        1
330
99
 75
               0
 76
               1
 98
        1
 10
0.0
 20
0.0
  0
CIRCLE
  5
9B
102
{ACAD_REACTORS
330
9C
102
}
100
AcDbEntity
  8
0
370
              -2
390
0
  6
Continuous
 62
               0
100
AcDbCircle
 10
-286.13373814607576
 20
-373.87726687193867
 30
0.0
 40
1.9998779296875
  0
HATCH
  5
9C
100
AcDbEntity
  8
0
370
              -2
390
0
  6
Continuous
 62
               0
100
AcDbHatch
 10
0.0
 20
0.0
 30
0.0
210
0.0
220
0.0
230
1.0
  2
SOLID
 70
               1
 71
               1
 91
        1
 92
        1
 93
        1
 72
               2
 10
-286.13373814607576
 20
-373.87726687193867
 40
1.9998779296875
 50
0.0
 51
360.0
 73
               0
 97
        1
330
9B
 75
               0
 76
               1
 98
        1
 10
0.0
 20
0.0
  0
MTEXT
  5
9D
100
AcDbEntity
  8
0
390
0
 62
               0
100
AcDbMText
 10
-367.94623982825124
 20
-339.99964968443874
 30
0.0
 40
24.432617187500004
 41
0.0
 71
               1
 72
               1
  1
116
  7
ＭＳ ゴシック
 73
               1
 44
0.7828267384257843
  0
POINT
  5
9E
100
AcDbEntity
  8
Defpoints
370
               0
390
0
 62
               0
100
AcDbPoint
 10
-286.13373814607576
 20
-481.77726687193854
 30
0.0
  0
POINT
  5
9F
100
AcDbEntity
  8
Defpoints
370
               0
390
0
 62
               0
100
AcDbPoint
 10
-402.13373814607576
 20
-481.77726687193854
 30
0.0
  0
POINT
  5
A0
100
AcDbEntity
  8
Defpoints
370
               0
390
0
 62
               0
100
AcDbPoint
 10
-402.13373814607576
 20
-373.87726687193867
 30
0.0
  0
ENDBLK
  5
A1
100
AcDbEntity
  8
notes
390
0
100
AcDbBlockEnd
  0
BLOCK
  5
A2
100
AcDbEntity
  8
notes
390
0
100
AcDbBlockBegin
  2
*D8
 70
               1
 10
0.0
 20
0.0
 30
0.0
  3
*D8
  1

  0
LINE
  5
A3
100
AcDbEntity
  8
0
370
              -2
390
0
  6
Continuous
 62
               0
100
AcDbLine
 10
-286.13373814607576
 20
-456.77726687193854
 30
0.0
 11
-286.13373814607576
 21
-373.87726687193867
 31
0.0
  0
LINE
  5
A4
100
AcDbEntity
  8
0
370
              -2
390
0
  6
Continuous
 62
               0
100
AcDbLine
 10
-44.133738146075757
 20
-456.77726687193854
 30
0.0
 11
-44.133738146075757
 21
-373.87726687193867
 31
0.0
  0
LINE
  5
A5
100
AcDbEntity
  8
0
370
              -2
390
0
  6
Continuous
 62
               0
100
AcDbLine
 10
-286.13373814607576
 20
-373.87726687193867
 30
0.0
 11
-44.133738146075757
 21
-373.87726687193867
 31
0.0
  0
CIRCLE
  5
A6
102
{ACAD_REACTORS
330
A7
102
}
100
AcDbEntity
  8
0
370
              -2
390
0
  6
Continuous
 62
               0
100
AcDbCircle
 10
-286.13373814607576
 20
-373.87726687193867
 30
0.0
 40
1.9998779296875
  0
HATCH
  5
A7
100
AcDbEntity
  8
0
370
              -2
390
0
  6
Continuous
 62
               0
100
AcDbHatch
 10
0.0
 20
0.0
 30
0.0
210
0.0
220
0.0
230
1.0
  2
SOLID
 70
               1
 71
               1
 91
        1
 92
        1
 93
        1
 72
               2
 10
-286.13373814607576
 20
-373.87726687193867
 40
1.9998779296875
 50
0.0
 51
360.0
 73
               0
 97
        1
330
A6
 75
               0
 76
               1
 98
        1
 10
0.0
 20
0.0
  0
CIRCLE
  5
A8
102
{ACAD_REACTORS
330
A9
102
}
100
AcDbEntity
  8
0
370
              -2
390
0
  6
Continuous
 62
               0
100
AcDbCircle
 10
-44.133738146075757
 20
-373.87726687193867
 30
0.0
 40
1.9998779296875
  0
HATCH
  5
A9
100
AcDbEntity
  8
0
370
              -2
390
0
  6
Continuous
 62
               0
100
AcDbHatch
 10
0.0
 20
0.0
 30
0.0
210
0.0
220
0.0
230
1.0
  2
SOLID
 70
               1
 71
               1
 91
        1
 92
        1
 93
        1
 72
               2
 10
-44.133738146075757
 20
-373.87726687193867
 40
1.9998779296875
 50
0.0
 51
360.0
 73
               0
 97
        1
330
A8
 75
               0
 76
               1
 98
        1
 10
0.0
 20
0.0
  0
MTEXT
  5
AA
100
AcDbEntity
  8
0
390
0
 62
               0
100
AcDbMText
 10
-188.94623982825124
 20
-339.99964968443874
 30
0.0
 40
24.432617187500004
 41
0.0
 71
               1
 72
               1
  1
242
  7
ＭＳ ゴシック
 73
               1
 44
0.7828267384257843
  0
POINT
  5
AB
100
AcDbEntity
  8
Defpoints
370
               0
390
0
 62
               0
100
AcDbPoint
 10
-44.133738146075757
 20
-481.77726687193854
 30
0.0
  0
POINT
  5
AC
100
AcDbEntity
  8
Defpoints
370
               0
390
0
 62
               0
100
AcDbPoint
 10
-286.13373814607576
 20
-481.77726687193854
 30
0.0
  0
POINT
  5
AD
100
AcDbEntity
  8
Defpoints
370
               0
390
0
 62
               0
100
AcDbPoint
 10
-286.13373814607576
 20
-373.87726687193867
 30
0.0
  0
ENDBLK
  5
AE
100
AcDbEntity
  8
notes
390
0
100
AcDbBlockEnd
  0
BLOCK
  5
AF
100
AcDbEntity
  8
notes
390
0
100
AcDbBlockBegin
  2
*D9
 70
               1
 10
0.0
 20
0.0
 30
0.0
  3
*D9
  1

  0
LINE
  5
B0
100
AcDbEntity
  8
0
370
              -2
390
0
  6
Continuous
 62
               0
100
AcDbLine
 10
697.13115460531139
 20
-451.81401273212578
 30
0.0
 11
676.00186262503837
 21
-451.81401273212578
 31
0.0
  0
LINE
  5
B1
100
AcDbEntity
  8
0
370
              -2
390
0
  6
Continuous
 62
               0
100
AcDbLine
 10
697.13115460531139
 20
-616.81401273407505
 30
0.0
 11
676.00186262503837
 21
-616.81401273407505
 31
0.0
  0
LINE
  5
B2
100
AcDbEntity
  8
0
370
              -2
390
0
  6
Continuous
 62
               0
100
AcDbLine
 10
676.00186262503837
 20
-451.81401273212578
 30
0.0
 11
676.00186262503837
 21
-299.70226687193849
 31
0.0
  0
LINE
  5
B3
100
AcDbEntity
  8
0
370
              -2
390
0
  6
Continuous
 62
               0
100
AcDbLine
 10
676.00186262503837
 20
-451.81401273212578
 30
0.0
 11
676.00186262503837
 21
-616.81401273407505
 31
0.0
  0
CIRCLE
  5
B4
102
{ACAD_REACTORS
330
B5
102
}
100
AcDbEntity
  8
0
370
              -2
390
0
  6
Continuous
 62
               0
100
AcDbCircle
 10
676.00186262503837
 20
-451.81401273212578
 30
0.0
 40
1.9998779296875
  0
HATCH
  5
B5
100
AcDbEntity
  8
0
370
              -2
390
0
  6
Continuous
 62
               0
100
AcDbHatch
 10
0.0
 20
0.0
 30
0.0
210
0.0
220
0.0
230
1.0
  2
SOLID
 70
               1
 71
               1
 91
        1
 92
        1
 93
        1
 72
               2
 10
676.00186262503837
 20
-451.81401273212578
 40
1.9998779296875
 50
0.0
 51
360.0
 73
               0
 97
        1
330
B4
 75
               0
 76
               1
 98
        1
 10
0.0
 20
0.0
  0
CIRCLE
  5
B6
102
{ACAD_REACTORS
330
B7
102
}
100
AcDbEntity
  8
0
370
              -2
390
0
  6
Continuous
 62
               0
100
AcDbCircle
 10
676.00186262503837
 20
-616.81401273407505
 30
0.0
 40
1.9998779296875
  0
HATCH
  5
B7
100
AcDbEntity
  8
0
370
              -2
390
0
  6
Continuous
 62
               0
100
AcDbHatch
 10
0.0
 20
0.0
 30
0.0
210
0.0
220
0.0
230
1.0
  2
SOLID
 70
               1
 71
               1
 91
        1
 92
        1
 93
        1
 72
               2
 10
676.00186262503837
 20
-616.81401273407505
 40
1.9998779296875
 50
0.0
 51
360.0
 73
               0
 97
        1
330
B6
 75
               0
 76
               1
 98
        1
 10
0.0
 20
0.0
  0
MTEXT
  5
B8
100
AcDbEntity
  8
0
390
0
 62
               0
100
AcDbMText
 10
642.12424543753832
 20
-442.57726687193849
 30
0.0
 40
24.432617187500004
 41
0.0
 71
               1
 72
               1
  1
165(深さ)
  7
ＭＳ ゴシック
 11
0.0
 21
1.0
 31
0.0
 73
               1
 44
0.7828267384257843
  0
POINT
  5
B9
100
AcDbEntity
  8
Defpoints
370
               0
390
0
 62
               0
100
AcDbPoint
 10
672.13115460531139
 20
-616.81401273407505
 30
0.0
  0
POINT
  5
BA
100
AcDbEntity
  8
Defpoints
370
               0
390
0
 62
               0
100
AcDbPoint
 10
672.13115460531139
 20
-451.81401273212578
 30
0.0
  0
POINT
  5
BB
100
AcDbEntity
  8
Defpoints
370
               0
390
0
 62
               0
100
AcDbPoint
 10
676.00186262503837
 20
-451.81401273212578
 30
0.0
  0
ENDBLK
  5
BC
100
AcDbEntity
  8
notes
390
0
100
AcDbBlockEnd
  0
BLOCK
  5
BD
100
AcDbEntity
  8
notes
390
0
100
AcDbBlockBegin
  2
*D10
 70
               1
 10
0.0
 20
0.0
 30
0.0
  3
*D10
  1

  0
LINE
  5
BE
100
AcDbEntity
  8
0
370
              -2
390
0
  6
Continuous
 62
               0
100
AcDbLine
 10
889.74486428447972
 20
-426.81401273212578
 30
0.0
 11
889.74486428447972
 21
-373.87726687193867
 31
0.0
  0
LINE
  5
BF
100
AcDbEntity
  8
0
370
              -2
390
0
  6
Continuous
 62
               0
100
AcDbLine
 10
824.74486428447972
 20
-426.81401273212578
 30
0.0
 11
824.74486428447972
 21
-373.87726687193867
 31
0.0
  0
LINE
  5
C0
100
AcDbEntity
  8
0
370
              -2
390
0
  6
Continuous
 62
               0
100
AcDbLine
 10
889.74486428447972
 20
-373.87726687193867
 30
0.0
 11
824.74486428447972
 21
-373.87726687193867
 31
0.0
  0
CIRCLE
  5
C1
102
{ACAD_REACTORS
330
C2
102
}
100
AcDbEntity
  8
0
370
              -2
390
0
  6
Continuous
 62
               0
100
AcDbCircle
 10
889.74486428447972
 20
-373.87726687193867
 30
0.0
 40
1.9998779296875
  0
HATCH
  5
C2
100
AcDbEntity
  8
0
370
              -2
390
0
  6
Continuous
 62
               0
100
AcDbHatch
 10
0.0
 20
0.0
 30
0.0
210
0.0
220
0.0
230
1.0
  2
SOLID
 70
               1
 71
               1
 91
        1
 92
        1
 93
        1
 72
               2
 10
889.74486428447972
 20
-373.87726687193867
 40
1.9998779296875
 50
0.0
 51
360.0
 73
               0
 97
        1
330
C1
 75
               0
 76
               1
 98
        1
 10
0.0
 20
0.0
  0
CIRCLE
  5
C3
102
{ACAD_REACTORS
330
C4
102
}
100
AcDbEntity
  8
0
370
              -2
390
0
  6
Continuous
 62
               0
100
AcDbCircle
 10
824.74486428447972
 20
-373.87726687193867
 30
0.0
 40
1.9998779296875
  0
HATCH
  5
C4
100
AcDbEntity
  8
0
370
              -2
390
0
  6
Continuous
 62
               0
100
AcDbHatch
 10
0.0
 20
0.0
 30
0.0
210
0.0
220
0.0
230
1.0
  2
SOLID
 70
               1
 71
               1
 91
        1
 92
        1
 93
        1
 72
               2
 10
824.74486428447972
 20
-373.87726687193867
 40
1.9998779296875
 50
0.0
 51
360.0
 73
               0
 97
        1
330
C3
 75
               0
 76
               1
 98
        1
 10
0.0
 20
0.0
  0
MTEXT
  5
C5
100
AcDbEntity
  8
0
390
0
 62
               0
100
AcDbMText
 10
841.36986428447972
 20
-339.99964968443874
 30
0.0
 40
24.432617187500004
 41
0.0
 71
               1
 72
               1
  1
65
  7
ＭＳ ゴシック
 73
               1
 44
0.7828267384257843
  0
POINT
  5
C6
100
AcDbEntity
  8
Defpoints
370
               0
390
0
 62
               0
100
AcDbPoint
 10
824.74486428447972
 20
-451.81401273212578
 30
0.0
  0
POINT
  5
C7
100
AcDbEntity
  8
Defpoints
370
               0
390
0
 62
               0
100
AcDbPoint
 10
889.74486428447972
 20
-451.81401273212578
 30
0.0
  0
POINT
  5
C8
100
AcDbEntity
  8
Defpoints
370
               0
390
0
 62
               0
100
AcDbPoint
 10
889.74486428447972
 20
-373.87726687193867
 30
0.0
  0
ENDBLK
  5
C9
100
AcDbEntity
  8
notes
390
0
100
AcDbBlockEnd
  0
BLOCK
  5
CA
100
AcDbEntity
  8
notes
390
0
100
AcDbBlockBegin
  2
*D11
 70
               1
 10
0.0
 20
0.0
 30
0.0
  3
*D11
  1

  0
LINE
  5
CB
100
AcDbEntity
  8
0
370
              -2
390
0
  6
Continuous
 62
               0
100
AcDbLine
 10
-331.59013143804737
 20
711.5464181467886
 30
0.0
 11
-241.43373814607571
 21
804.71267663250512
 31
0.0
  0
CIRCLE
  5
CC
102
{ACAD_REACTORS
330
CD
102
}
100
AcDbEntity
  8
0
370
              -2
390
0
  6
Continuous
 62
               0
100
AcDbCircle
 10
-331.59013143804737
 20
711.5464181467886
 30
0.0
 40
1.9998779296875
  0
HATCH
  5
CD
100
AcDbEntity
  8
0
370
              -2
390
0
  6
Continuous
 62
               0
100
AcDbHatch
 10
0.0
 20
0.0
 30
0.0
210
0.0
220
0.0
230
1.0
  2
SOLID
 70
               1
 71
               1
 91
        1
 92
        1
 93
        1
 72
               2
 10
-331.59013143804737
 20
711.5464181467886
 40
1.9998779296875
 50
0.0
 51
360.0
 73
               0
 97
        1
330
CC
 75
               0
 76
               1
 98
        1
 10
0.0
 20
0.0
  0
LINE
  5
CE
100
AcDbEntity
  8
0
370
              -2
390
0
  6
Continuous
 62
               0
100
AcDbLine
 10
-241.43373814607571
 20
804.71267663250512
 30
0.0
 11
-117.93373814607571
 21
804.71267663250512
 31
0.0
  0
MTEXT
  5
CF
100
AcDbEntity
  8
0
390
0
 62
               0
100
AcDbMText
 10
-181.43373814607571
 20
838.59029382000517
 30
0.0
 40
24.432617187500004
 41
0.0
 71
               1
 72
               1
  1
φ35
  7
ＭＳ ゴシック
 73
               1
 44
0.7828267384257843
  0
POINT
  5
D0
100
AcDbEntity
  8
Defpoints
370
               0
390
0
 62
               0
100
AcDbPoint
 10
-355.92925377969141
 20
686.39473582456537
 30
0.0
  0
POINT
  5
D1
100
AcDbEntity
  8
Defpoints
370
               0
390
0
 62
               0
100
AcDbPoint
 10
-331.59013143804737
 20
711.5464181467886
 30
0.0
  0
ENDBLK
  5
D2
100
AcDbEntity
  8
notes
390
0
100
AcDbBlockEnd
  0
BLOCK
  5
D3
100
AcDbEntity
  8
notes
390
0
100
AcDbBlockBegin
  2
*D12
 70
               1
 10
0.0
 20
0.0
 30
0.0
  3
*D12
  1

  0
LINE
  5
D4
100
AcDbEntity
  8
0
370
              -2
390
0
  6
Continuous
 62
               0
100
AcDbLine
 10
106.24030739113073
 20
779.97057698567698
 30
0.0
 11
106.24030739113073
 21
864.10818515142432
 31
0.0
  0
LINE
  5
D5
100
AcDbEntity
  8
0
370
              -2
390
0
  6
Continuous
 62
               0
100
AcDbLine
 10
-793.75969260886632
 20
779.97057698567698
 30
0.0
 11
-793.75969260886632
 21
864.10818515142432
 31
0.0
  0
LINE
  5
D6
100
AcDbEntity
  8
0
370
              -2
390
0
  6
Continuous
 62
               0
100
AcDbLine
 10
106.24030739113073
 20
864.10818515142432
 30
0.0
 11
-793.75969260886632
 21
864.10818515142432
 31
0.0
  0
CIRCLE
  5
D7
102
{ACAD_REACTORS
330
D8
102
}
100
AcDbEntity
  8
0
370
              -2
390
0
  6
Continuous
 62
               0
100
AcDbCircle
 10
106.24030739113073
 20
864.10818515142432
 30
0.0
 40
1.9998779296875
  0
HATCH
  5
D8
100
AcDbEntity
  8
0
370
              -2
390
0
  6
Continuous
 62
               0
100
AcDbHatch
 10
0.0
 20
0.0
 30
0.0
210
0.0
220
0.0
230
1.0
  2
SOLID
 70
               1
 71
               1
 91
        1
 92
        1
 93
        1
 72
               2
 10
106.24030739113073
 20
864.10818515142432
 40
1.9998779296875
 50
0.0
 51
360.0
 73
               0
 97
        1
330
D7
 75
               0
 76
               1
 98
        1
 10
0.0
 20
0.0
  0
CIRCLE
  5
D9
102
{ACAD_REACTORS
330
DA
102
}
100
AcDbEntity
  8
0
370
              -2
390
0
  6
Continuous
 62
               0
100
AcDbCircle
 10
-793.75969260886632
 20
864.10818515142432
 30
0.0
 40
1.9998779296875
  0
HATCH
  5
DA
100
AcDbEntity
  8
0
370
              -2
390
0
  6
Continuous
 62
               0
100
AcDbHatch
 10
0.0
 20
0.0
 30
0.0
210
0.0
220
0.0
230
1.0
  2
SOLID
 70
               1
 71
               1
 91
        1
 92
        1
 93
        1
 72
               2
 10
-793.75969260886632
 20
864.10818515142432
 40
1.9998779296875
 50
0.0
 51
360.0
 73
               0
 97
        1
330
D9
 75
               0
 76
               1
 98
        1
 10
0.0
 20
0.0
  0
MTEXT
  5
DB
100
AcDbEntity
  8
0
390
0
 62
               0
100
AcDbMText
 10
-367.57219429104316
 20
897.98580233892426
 30
0.0
 40
24.432617187500004
 41
0.0
 71
               1
 72
               1
  1
900
  7
ＭＳ ゴシック
 73
               1
 44
0.7828267384257843
  0
POINT
  5
DC
100
AcDbEntity
  8
Defpoints
370
               0
390
0
 62
               0
100
AcDbPoint
 10
-793.75969260886632
 20
754.97057698567698
 30
0.0
  0
POINT
  5
DD
100
AcDbEntity
  8
Defpoints
370
               0
390
0
 62
               0
100
AcDbPoint
 10
106.24030739113073
 20
754.97057698567698
 30
0.0
  0
POINT
  5
DE
100
AcDbEntity
  8
Defpoints
370
               0
390
0
 62
               0
100
AcDbPoint
 10
106.24030739113073
 20
864.10818515142432
 30
0.0
  0
ENDBLK
  5
DF
100
AcDbEntity
  8
notes
390
0
100
AcDbBlockEnd
  0
BLOCK
  5
E0
100
AcDbEntity
  8
notes
390
0
100
AcDbBlockBegin
  2
*D13
 70
               1
 10
0.0
 20
0.0
 30
0.0
  3
*D13
  1

  0
LINE
  5
E1
100
AcDbEntity
  8
0
370
              -2
390
0
  6
Continuous
 62
               0
100
AcDbLine
 10
-809.75969260886814
 20
763.97057698567698
 30
0.0
 11
-893.38126624011511
 21
763.97057698567698
 31
0.0
  0
LINE
  5
E2
100
AcDbEntity
  8
0
370
              -2
390
0
  6
Continuous
 62
               0
100
AcDbLine
 10
-818.38126624011511
 20
639.12273312806042
 30
0.0
 11
-893.38126624011511
 21
639.12273312806042
 31
0.0
  0
LINE
  5
E3
100
AcDbEntity
  8
0
370
              -2
390
0
  6
Continuous
 62
               0
100
AcDbLine
 10
-893.38126624011511
 20
763.97057698567698
 30
0.0
 11
-893.38126624011511
 21
639.12273312806042
 31
0.0
  0
CIRCLE
  5
E4
102
{ACAD_REACTORS
330
E5
102
}
100
AcDbEntity
  8
0
370
              -2
390
0
  6
Continuous
 62
               0
100
AcDbCircle
 10
-893.38126624011511
 20
763.97057698567698
 30
0.0
 40
1.9998779296875
  0
HATCH
  5
E5
100
AcDbEntity
  8
0
370
              -2
390
0
  6
Continuous
 62
               0
100
AcDbHatch
 10
0.0
 20
0.0
 30
0.0
210
0.0
220
0.0
230
1.0
  2
SOLID
 70
               1
 71
               1
 91
        1
 92
        1
 93
        1
 72
               2
 10
-893.38126624011511
 20
763.97057698567698
 40
1.9998779296875
 50
0.0
 51
360.0
 73
               0
 97
        1
330
E4
 75
               0
 76
               1
 98
        1
 10
0.0
 20
0.0
  0
CIRCLE
  5
E6
102
{ACAD_REACTORS
330
E7
102
}
100
AcDbEntity
  8
0
370
              -2
390
0
  6
Continuous
 62
               0
100
AcDbCircle
 10
-893.38126624011511
 20
639.12273312806042
 30
0.0
 40
1.9998779296875
  0
HATCH
  5
E7
100
AcDbEntity
  8
0
370
              -2
390
0
  6
Continuous
 62
               0
100
AcDbHatch
 10
0.0
 20
0.0
 30
0.0
210
0.0
220
0.0
230
1.0
  2
SOLID
 70
               1
 71
               1
 91
        1
 92
        1
 93
        1
 72
               2
 10
-893.38126624011511
 20
639.12273312806042
 40
1.9998779296875
 50
0.0
 51
360.0
 73
               0
 97
        1
330
E6
 75
               0
 76
               1
 98
        1
 10
0.0
 20
0.0
  0
MTEXT
  5
E8
100
AcDbEntity
  8
0
390
0
 62
               0
100
AcDbMText
 10
-927.25888342761527
 20
677.73415337469316
 30
0.0
 40
24.432617187500004
 41
0.0
 71
               1
 72
               1
  1
125
  7
ＭＳ ゴシック
 11
0.0
 21
1.0
 31
0.0
 73
               1
 44
0.7828267384257843
  0
POINT
  5
E9
100
AcDbEntity
  8
Defpoints
370
               0
390
0
 62
               0
100
AcDbPoint
 10
-793.38126624011511
 20
639.12273312806042
 30
0.0
  0
POINT
  5
EA
100
AcDbEntity
  8
Defpoints
370
               0
390
0
 62
               0
100
AcDbPoint
 10
-784.75969260886814
 20
763.97057698567698
 30
0.0
  0
POINT
  5
EB
100
AcDbEntity
  8
Defpoints
370
               0
390
0
 62
               0
100
AcDbPoint
 10
-893.38126624011511
 20
763.97057698567698
 30
0.0
  0
ENDBLK
  5
EC
100
AcDbEntity
  8
notes
390
0
100
AcDbBlockEnd
  0
BLOCK
  5
ED
100
AcDbEntity
  8
notes
390
0
100
AcDbBlockBegin
  2
*D14
 70
               1
 10
0.0
 20
0.0
 30
0.0
  3
*D14
  1

  0
LINE
  5
EE
100
AcDbEntity
  8
0
370
              -2
390
0
  6
Continuous
 62
               0
100
AcDbLine
 10
-818.38126624011511
 20
639.12273312806042
 30
0.0
 11
-893.38126624011511
 21
639.12273312806042
 31
0.0
  0
LINE
  5
EF
100
AcDbEntity
  8
0
370
              -2
390
0
  6
Continuous
 62
               0
100
AcDbLine
 10
-538.75969260886905
 20
349.12273312806269
 30
0.0
 11
-893.38126624011511
 21
349.12273312806269
 31
0.0
  0
LINE
  5
F0
100
AcDbEntity
  8
0
370
              -2
390
0
  6
Continuous
 62
               0
100
AcDbLine
 10
-893.38126624011511
 20
639.12273312806042
 30
0.0
 11
-893.38126624011511
 21
349.12273312806269
 31
0.0
  0
CIRCLE
  5
F1
102
{ACAD_REACTORS
330
F2
102
}
100
AcDbEntity
  8
0
370
              -2
390
0
  6
Continuous
 62
               0
100
AcDbCircle
 10
-893.38126624011511
 20
639.12273312806042
 30
0.0
 40
1.9998779296875
  0
HATCH
  5
F2
100
AcDbEntity
  8
0
370
              -2
390
0
  6
Continuous
 62
               0
100
AcDbHatch
 10
0.0
 20
0.0
 30
0.0
210
0.0
220
0.0
230
1.0
  2
SOLID
 70
               1
 71
               1
 91
        1
 92
        1
 93
        1
 72
               2
 10
-893.38126624011511
 20
639.12273312806042
 40
1.9998779296875
 50
0.0
 51
360.0
 73
               0
 97
        1
330
F1
 75
               0
 76
               1
 98
        1
 10
0.0
 20
0.0
  0
CIRCLE
  5
F3
102
{ACAD_REACTORS
330
F4
102
}
100
AcDbEntity
  8
0
370
              -2
390
0
  6
Continuous
 62
               0
100
AcDbCircle
 10
-893.38126624011511
 20
349.12273312806269
 30
0.0
 40
1.9998779296875
  0
HATCH
  5
F4
100
AcDbEntity
  8
0
370
              -2
390
0
  6
Continuous
 62
               0
100
AcDbHatch
 10
0.0
 20
0.0
 30
0.0
210
0.0
220
0.0
230
1.0
  2
SOLID
 70
               1
 71
               1
 91
        1
 92
        1
 93
        1
 72
               2
 10
-893.38126624011511
 20
349.12273312806269
 40
1.9998779296875
 50
0.0
 51
360.0
 73
               0
 97
        1
330
F3
 75
               0
 76
               1
 98
        1
 10
0.0
 20
0.0
  0
MTEXT
  5
F5
100
AcDbEntity
  8
0
390
0
 62
               0
100
AcDbMText
 10
-927.25888342761527
 20
470.31023144588607
 30
0.0
 40
24.432617187500004
 41
0.0
 71
               1
 72
               1
  1
290
  7
ＭＳ ゴシック
 11
0.0
 21
1.0
 31
0.0
 73
               1
 44
0.7828267384257843
  0
POINT
  5
F6
100
AcDbEntity
  8
Defpoints
370
               0
390
0
 62
               0
100
AcDbPoint
 10
-513.75969260886905
 20
349.12273312806269
 30
0.0
  0
POINT
  5
F7
100
AcDbEntity
  8
Defpoints
370
               0
390
0
 62
               0
100
AcDbPoint
 10
-793.38126624011511
 20
639.12273312806042
 30
0.0
  0
POINT
  5
F8
100
AcDbEntity
  8
Defpoints
370
               0
390
0
 62
               0
100
AcDbPoint
 10
-893.38126624011511
 20
639.12273312806042
 30
0.0
  0
ENDBLK
  5
F9
100
AcDbEntity
  8
notes
390
0
100
AcDbBlockEnd
  0
BLOCK
  5
FA
100
AcDbEntity
  8
notes
390
0
100
AcDbBlockBegin
  2
*D15
 70
               1
 10
0.0
 20
0.0
 30
0.0
  3
*D15
  1

  0
LINE
  5
FB
100
AcDbEntity
  8
0
370
              -2
390
0
  6
Continuous
 62
               0
100
AcDbLine
 10
-724.13373814607576
 20
-501.77726687193854
 30
0.0
 11
-893.75969260886632
 21
-501.77726687193854
 31
0.0
  0
LINE
  5
FC
100
AcDbEntity
  8
0
370
              -2
390
0
  6
Continuous
 62
               0
100
AcDbLine
 10
-810.73627852451773
 20
-451.77726687193854
 30
0.0
 11
-893.75969260886632
 21
-451.77726687193854
 31
0.0
  0
LINE
  5
FD
100
AcDbEntity
  8
0
370
              -2
390
0
  6
Continuous
 62
               0
100
AcDbLine
 10
-893.75969260886632
 20
-501.77726687193854
 30
0.0
 11
-893.75969260886632
 21
-451.77726687193854
 31
0.0
  0
CIRCLE
  5
FE
102
{ACAD_REACTORS
330
FF
102
}
100
AcDbEntity
  8
0
370
              -2
390
0
  6
Continuous
 62
               0
100
AcDbCircle
 10
-893.75969260886632
 20
-501.77726687193854
 30
0.0
 40
1.9998779296875
  0
HATCH
  5
FF
100
AcDbEntity
  8
0
370
              -2
390
0
  6
Continuous
 62
               0
100
AcDbHatch
 10
0.0
 20
0.0
 30
0.0
210
0.0
220
0.0
230
1.0
  2
SOLID
 70
               1
 71
               1
 91
        1
 92
        1
 93
        1
 72
               2
 10
-893.75969260886632
 20
-501.77726687193854
 40
1.9998779296875
 50
0.0
 51
360.0
 73
               0
 97
        1
330
FE
 75
               0
 76
               1
 98
        1
 10
0.0
 20
0.0
  0
CIRCLE
  5
100
102
{ACAD_REACTORS
330
101
102
}
100
AcDbEntity
  8
0
370
              -2
390
0
  6
Continuous
 62
               0
100
AcDbCircle
 10
-893.75969260886632
 20
-451.77726687193854
 30
0.0
 40
1.9998779296875
  0
HATCH
  5
101
100
AcDbEntity
  8
0
370
              -2
390
0
  6
Continuous
 62
               0
100
AcDbHatch
 10
0.0
 20
0.0
 30
0.0
210
0.0
220
0.0
230
1.0
  2
SOLID
 70
               1
 71
               1
 91
        1
 92
        1
 93
        1
 72
               2
 10
-893.75969260886632
 20
-451.77726687193854
 40
1.9998779296875
 50
0.0
 51
360.0
 73
               0
 97
        1
330
100
 75
               0
 76
               1
 98
        1
 10
0.0
 20
0.0
  0
MTEXT
  5
102
100
AcDbEntity
  8
0
390
0
 62
               0
100
AcDbMText
 10
-927.63730979636648
 20
-492.65226687193854
 30
0.0
 40
24.432617187500004
 41
0.0
 71
               1
 72
               1
  1
50
  7
ＭＳ ゴシック
 11
0.0
 21
1.0
 31
0.0
 73
               1
 44
0.7828267384257843
  0
POINT
  5
103
100
AcDbEntity
  8
Defpoints
370
               0
390
0
 62
               0
100
AcDbPoint
 10
-785.73627852451773
 20
-451.77726687193854
 30
0.0
  0
POINT
  5
104
100
AcDbEntity
  8
Defpoints
370
               0
390
0
 62
               0
100
AcDbPoint
 10
-699.13373814607576
 20
-501.77726687193854
 30
0.0
  0
POINT
  5
105
100
AcDbEntity
  8
Defpoints
370
               0
390
0
 62
               0
100
AcDbPoint
 10
-893.75969260886632
 20
-501.77726687193854
 30
0.0
  0
ENDBLK
  5
106
100
AcDbEntity
  8
notes
390
0
100
AcDbBlockEnd
  0
BLOCK
  5
107
100
AcDbEntity
  8
notes
390
0
100
AcDbBlockBegin
  2
*D16
 70
               1
 10
0.0
 20
0.0
 30
0.0
  3
*D16
  1

  0
LINE
  5
108
100
AcDbEntity
  8
0
370
              -2
390
0
  6
Continuous
 62
               0
100
AcDbLine
 10
122.24030739113186
 20
763.97057698567698
 30
0.0
 11
206.24030739113073
 21
763.97057698567698
 31
0.0
  0
LINE
  5
109
100
AcDbEntity
  8
0
370
              -2
390
0
  6
Continuous
 62
               0
100
AcDbLine
 10
122.24030739113186
 20
403.97057698567914
 30
0.0
 11
206.24030739113073
 21
403.97057698567914
 31
0.0
  0
LINE
  5
10A
100
AcDbEntity
  8
0
370
              -2
390
0
  6
Continuous
 62
               0
100
AcDbLine
 10
206.24030739113073
 20
763.97057698567698
 30
0.0
 11
206.24030739113073
 21
403.97057698567914
 31
0.0
  0
CIRCLE
  5
10B
102
{ACAD_REACTORS
330
10C
102
}
100
AcDbEntity
  8
0
370
              -2
390
0
  6
Continuous
 62
               0
100
AcDbCircle
 10
206.24030739113073
 20
763.97057698567698
 30
0.0
 40
1.9998779296875
  0
HATCH
  5
10C
100
AcDbEntity
  8
0
370
              -2
390
0
  6
Continuous
 62
               0
100
AcDbHatch
 10
0.0
 20
0.0
 30
0.0
210
0.0
220
0.0
230
1.0
  2
SOLID
 70
               1
 71
               1
 91
        1
 92
        1
 93
        1
 72
               2
 10
206.24030739113073
 20
763.97057698567698
 40
1.9998779296875
 50
0.0
 51
360.0
 73
               0
 97
        1
330
10B
 75
               0
 76
               1
 98
        1
 10
0.0
 20
0.0
  0
CIRCLE
  5
10D
102
{ACAD_REACTORS
330
10E
102
}
100
AcDbEntity
  8
0
370
              -2
390
0
  6
Continuous
 62
               0
100
AcDbCircle
 10
206.24030739113073
 20
403.97057698567914
 30
0.0
 40
1.9998779296875
  0
HATCH
  5
10E
100
AcDbEntity
  8
0
370
              -2
390
0
  6
Continuous
 62
               0
100
AcDbHatch
 10
0.0
 20
0.0
 30
0.0
210
0.0
220
0.0
230
1.0
  2
SOLID
 70
               1
 71
               1
 91
        1
 92
        1
 93
        1
 72
               2
 10
206.24030739113073
 20
403.97057698567914
 40
1.9998779296875
 50
0.0
 51
360.0
 73
               0
 97
        1
330
10D
 75
               0
 76
               1
 98
        1
 10
0.0
 20
0.0
  0
MTEXT
  5
10F
100
AcDbEntity
  8
0
390
0
 62
               0
100
AcDbMText
 10
172.36269020363079
 20
553.6102314458858
 30
0.0
 40
24.432617187500004
 41
0.0
 71
               1
 72
               1
  1
360
  7
ＭＳ ゴシック
 11
0.0
 21
1.0
 31
0.0
 73
               1
 44
0.7828267384257843
  0
POINT
  5
110
100
AcDbEntity
  8
Defpoints
370
               0
390
0
 62
               0
100
AcDbPoint
 10
97.240307391131864
 20
403.97057698567914
 30
0.0
  0
POINT
  5
111
100
AcDbEntity
  8
Defpoints
370
               0
390
0
 62
               0
100
AcDbPoint
 10
97.240307391131864
 20
763.97057698567698
 30
0.0
  0
POINT
  5
112
100
AcDbEntity
  8
Defpoints
370
               0
390
0
 62
               0
100
AcDbPoint
 10
206.24030739113073
 20
763.97057698567698
 30
0.0
  0
ENDBLK
  5
113
100
AcDbEntity
  8
notes
390
0
100
AcDbBlockEnd
  0
BLOCK
  5
114
100
AcDbEntity
  8
notes
390
0
100
AcDbBlockBegin
  2
*D17
 70
               1
 10
0.0
 20
0.0
 30
0.0
  3
*D17
  1

  0
LINE
  5
115
100
AcDbEntity
  8
0
370
              -2
390
0
  6
Continuous
 62
               0
100
AcDbLine
 10
125.3757846618937
 20
-451.81401273212509
 30
0.0
 11
206.2403073911305
 21
-451.81401273212509
 31
0.0
  0
LINE
  5
116
100
AcDbEntity
  8
0
370
              -2
390
0
  6
Continuous
 62
               0
100
AcDbLine
 10
126.9761407384849
 20
-521.81401273212578
 30
0.0
 11
206.2403073911305
 21
-521.81401273212578
 31
0.0
  0
LINE
  5
117
100
AcDbEntity
  8
0
370
              -2
390
0
  6
Continuous
 62
               0
100
AcDbLine
 10
206.2403073911305
 20
-451.81401273212509
 30
0.0
 11
206.2403073911305
 21
-521.81401273212578
 31
0.0
  0
CIRCLE
  5
118
102
{ACAD_REACTORS
330
119
102
}
100
AcDbEntity
  8
0
370
              -2
390
0
  6
Continuous
 62
               0
100
AcDbCircle
 10
206.2403073911305
 20
-451.81401273212509
 30
0.0
 40
1.9998779296875
  0
HATCH
  5
119
100
AcDbEntity
  8
0
370
              -2
390
0
  6
Continuous
 62
               0
100
AcDbHatch
 10
0.0
 20
0.0
 30
0.0
210
0.0
220
0.0
230
1.0
  2
SOLID
 70
               1
 71
               1
 91
        1
 92
        1
 93
        1
 72
               2
 10
206.2403073911305
 20
-451.81401273212509
 40
1.9998779296875
 50
0.0
 51
360.0
 73
               0
 97
        1
330
118
 75
               0
 76
               1
 98
        1
 10
0.0
 20
0.0
  0
CIRCLE
  5
11A
102
{ACAD_REACTORS
330
11B
102
}
100
AcDbEntity
  8
0
370
              -2
390
0
  6
Continuous
 62
               0
100
AcDbCircle
 10
206.2403073911305
 20
-521.81401273212578
 30
0.0
 40
1.9998779296875
  0
HATCH
  5
11B
100
AcDbEntity
  8
0
370
              -2
390
0
  6
Continuous
 62
               0
100
AcDbHatch
 10
0.0
 20
0.0
 30
0.0
210
0.0
220
0.0
230
1.0
  2
SOLID
 70
               1
 71
               1
 91
        1
 92
        1
 93
        1
 72
               2
 10
206.2403073911305
 20
-521.81401273212578
 40
1.9998779296875
 50
0.0
 51
360.0
 73
               0
 97
        1
330
11A
 75
               0
 76
               1
 98
        1
 10
0.0
 20
0.0
  0
MTEXT
  5
11C
100
AcDbEntity
  8
0
390
0
 62
               0
100
AcDbMText
 10
172.36269020363056
 20
-502.68901273212555
 30
0.0
 40
24.432617187500004
 41
0.0
 71
               1
 72
               1
  1
70
  7
ＭＳ ゴシック
 11
0.0
 21
1.0
 31
0.0
 73
               1
 44
0.7828267384257843
  0
POINT
  5
11D
100
AcDbEntity
  8
Defpoints
370
               0
390
0
 62
               0
100
AcDbPoint
 10
101.9761407384849
 20
-521.81401273212578
 30
0.0
  0
POINT
  5
11E
100
AcDbEntity
  8
Defpoints
370
               0
390
0
 62
               0
100
AcDbPoint
 10
100.3757846618937
 20
-451.81401273212509
 30
0.0
  0
POINT
  5
11F
100
AcDbEntity
  8
Defpoints
370
               0
390
0
 62
               0
100
AcDbPoint
 10
206.2403073911305
 20
-451.81401273212509
 30
0.0
  0
ENDBLK
  5
120
100
AcDbEntity
  8
notes
390
0
100
AcDbBlockEnd
  0
BLOCK
  5
121
100
AcDbEntity
  8
notes
390
0
100
AcDbBlockBegin
  2
*D18
 70
               1
 10
0.0
 20
0.0
 30
0.0
  3
*D18
  1

  0
LINE
  5
122
100
AcDbEntity
  8
0
370
              -2
390
0
  6
Continuous
 62
               0
100
AcDbLine
 10
429.51744492614307
 20
-451.81401273212578
 30
0.0
 11
353.12686262503826
 21
-451.81401273212578
 31
0.0
  0
LINE
  5
123
100
AcDbEntity
  8
0
370
              -2
390
0
  6
Continuous
 62
               0
100
AcDbLine
 10
565.22770861759932
 20
-656.81401273212578
 30
0.0
 11
353.12686262503826
 21
-656.81401273212578
 31
0.0
  0
LINE
  5
124
100
AcDbEntity
  8
0
370
              -2
390
0
  6
Continuous
 62
               0
100
AcDbLine
 10
353.12686262503826
 20
-451.81401273212578
 30
0.0
 11
353.12686262503826
 21
-656.81401273212578
 31
0.0
  0
CIRCLE
  5
125
102
{ACAD_REACTORS
330
126
102
}
100
AcDbEntity
  8
0
370
              -2
390
0
  6
Continuous
 62
               0
100
AcDbCircle
 10
353.12686262503826
 20
-451.81401273212578
 30
0.0
 40
1.9998779296875
  0
HATCH
  5
126
100
AcDbEntity
  8
0
370
              -2
390
0
  6
Continuous
 62
               0
100
AcDbHatch
 10
0.0
 20
0.0
 30
0.0
210
0.0
220
0.0
230
1.0
  2
SOLID
 70
               1
 71
               1
 91
        1
 92
        1
 93
        1
 72
               2
 10
353.12686262503826
 20
-451.81401273212578
 40
1.9998779296875
 50
0.0
 51
360.0
 73
               0
 97
        1
330
125
 75
               0
 76
               1
 98
        1
 10
0.0
 20
0.0
  0
CIRCLE
  5
127
102
{ACAD_REACTORS
330
128
102
}
100
AcDbEntity
  8
0
370
              -2
390
0
  6
Continuous
 62
               0
100
AcDbCircle
 10
353.12686262503826
 20
-656.81401273212578
 30
0.0
 40
1.9998779296875
  0
HATCH
  5
128
100
AcDbEntity
  8
0
370
              -2
390
0
  6
Continuous
 62
               0
100
AcDbHatch
 10
0.0
 20
0.0
 30
0.0
210
0.0
220
0.0
230
1.0
  2
SOLID
 70
               1
 71
               1
 91
        1
 92
        1
 93
        1
 72
               2
 10
353.12686262503826
 20
-656.81401273212578
 40
1.9998779296875
 50
0.0
 51
360.0
 73
               0
 97
        1
330
127
 75
               0
 76
               1
 98
        1
 10
0.0
 20
0.0
  0
MTEXT
  5
129
100
AcDbEntity
  8
0
390
0
 62
               0
100
AcDbMText
 10
319.24924543753832
 20
-578.12651441430125
 30
0.0
 40
24.432617187500004
 41
0.0
 71
               1
 72
               1
  1
205
  7
ＭＳ ゴシック
 11
0.0
 21
1.0
 31
0.0
 73
               1
 44
0.7828267384257843
  0
POINT
  5
12A
100
AcDbEntity
  8
Defpoints
370
               0
390
0
 62
               0
100
AcDbPoint
 10
590.22770861759932
 20
-656.81401273212578
 30
0.0
  0
POINT
  5
12B
100
AcDbEntity
  8
Defpoints
370
               0
390
0
 62
               0
100
AcDbPoint
 10
454.51744492614307
 20
-451.81401273212578
 30
0.0
  0
POINT
  5
12C
100
AcDbEntity
  8
Defpoints
370
               0
390
0
 62
               0
100
AcDbPoint
 10
353.12686262503826
 20
-451.81401273212578
 30
0.0
  0
ENDBLK
  5
12D
100
AcDbEntity
  8
notes
390
0
100
AcDbBlockEnd
  0
BLOCK
  5
12E
100
AcDbEntity
  8
notes
390
0
100
AcDbBlockBegin
  2
*D19
 70
               1
 10
0.0
 20
0.0
 30
0.0
  3
*D19
  1

  0
LINE
  5
12F
100
AcDbEntity
  8
0
370
              -2
390
0
  6
Continuous
 62
               0
100
AcDbLine
 10
565.22770861759932
 20
-656.81401273212578
 30
0.0
 11
353.12686262503848
 21
-656.81401273212578
 31
0.0
  0
LINE
  5
130
100
AcDbEntity
  8
0
370
              -2
390
0
  6
Continuous
 62
               0
100
AcDbLine
 10
620.74473177661093
 20
-661.86644265945574
 30
0.0
 11
353.12686262503848
 21
-661.86644265945574
 31
0.0
  0
LINE
  5
131
100
AcDbEntity
  8
0
370
              -2
390
0
  6
Continuous
 62
               0
100
AcDbLine
 10
353.12686262503848
 20
-661.86644265945574
 30
0.0
 11
353.12686262503848
 21
-687.45226687193849
 31
0.0
  0
LINE
  5
132
100
AcDbEntity
  8
0
370
              -2
390
0
  6
Continuous
 62
               0
100
AcDbLine
 10
353.12686262503848
 20
-656.81401273212578
 30
0.0
 11
353.12686262503848
 21
-661.86644265945574
 31
0.0
  0
CIRCLE
  5
133
102
{ACAD_REACTORS
330
134
102
}
100
AcDbEntity
  8
0
370
              -2
390
0
  6
Continuous
 62
               0
100
AcDbCircle
 10
353.12686262503848
 20
-656.81401273212578
 30
0.0
 40
1.9998779296875
  0
HATCH
  5
134
100
AcDbEntity
  8
0
370
              -2
390
0
  6
Continuous
 62
               0
100
AcDbHatch
 10
0.0
 20
0.0
 30
0.0
210
0.0
220
0.0
230
1.0
  2
SOLID
 70
               1
 71
               1
 91
        1
 92
        1
 93
        1
 72
               2
 10
353.12686262503848
 20
-656.81401273212578
 40
1.9998779296875
 50
0.0
 51
360.0
 73
               0
 97
        1
330
133
 75
               0
 76
               1
 98
        1
 10
0.0
 20
0.0
  0
CIRCLE
  5
135
102
{ACAD_REACTORS
330
136
102
}
100
AcDbEntity
  8
0
370
              -2
390
0
  6
Continuous
 62
               0
100
AcDbCircle
 10
353.12686262503848
 20
-661.86644265945574
 30
0.0
 40
1.9998779296875
  0
HATCH
  5
136
100
AcDbEntity
  8
0
370
              -2
390
0
  6
Continuous
 62
               0
100
AcDbHatch
 10
0.0
 20
0.0
 30
0.0
210
0.0
220
0.0
230
1.0
  2
SOLID
 70
               1
 71
               1
 91
        1
 92
        1
 93
        1
 72
               2
 10
353.12686262503848
 20
-661.86644265945574
 40
1.9998779296875
 50
0.0
 51
360.0
 73
               0
 97
        1
330
135
 75
               0
 76
               1
 98
        1
 10
0.0
 20
0.0
  0
MTEXT
  5
137
100
AcDbEntity
  8
0
390
0
 62
               0
100
AcDbMText
 10
319.24924543753855
 20
-687.45226687193849
 30
0.0
 40
24.432617187500004
 41
0.0
 71
               1
 72
               1
  1
5
  7
ＭＳ ゴシック
 11
0.0
 21
1.0
 31
0.0
 73
               1
 44
0.7828267384257843
  0
POINT
  5
138
100
AcDbEntity
  8
Defpoints
370
               0
390
0
 62
               0
100
AcDbPoint
 10
645.74473177661093
 20
-661.86644265945574
 30
0.0
  0
POINT
  5
139
100
AcDbEntity
  8
Defpoints
370
               0
390
0
 62
               0
100
AcDbPoint
 10
590.22770861759932
 20
-656.81401273212578
 30
0.0
  0
POINT
  5
13A
100
AcDbEntity
  8
Defpoints
370
               0
390
0
 62
               0
100
AcDbPoint
 10
353.12686262503848
 20
-656.81401273212578
 30
0.0
  0
ENDBLK
  5
13B
100
AcDbEntity
  8
notes
390
0
100
AcDbBlockEnd
  0
BLOCK
  5
13C
100
AcDbEntity
  8
notes
390
0
100
AcDbBlockBegin
  2
*D20
 70
               1
 10
0.0
 20
0.0
 30
0.0
  3
*D20
  1

  0
LINE
  5
13D
100
AcDbEntity
  8
0
370
              -2
390
0
  6
Continuous
 62
               0
100
AcDbLine
 10
125.3757846618937
 20
-451.81401273212509
 30
0.0
 11
256.2403073911305
 21
-451.81401273212509
 31
0.0
  0
LINE
  5
13E
100
AcDbEntity
  8
0
370
              -2
390
0
  6
Continuous
 62
               0
100
AcDbLine
 10
-284.13373814607576
 20
-661.81401273212578
 30
0.0
 11
256.2403073911305
 21
-661.81401273212578
 31
0.0
  0
LINE
  5
13F
100
AcDbEntity
  8
0
370
              -2
390
0
  6
Continuous
 62
               0
100
AcDbLine
 10
256.2403073911305
 20
-451.81401273212509
 30
0.0
 11
256.2403073911305
 21
-661.81401273212578
 31
0.0
  0
CIRCLE
  5
140
102
{ACAD_REACTORS
330
141
102
}
100
AcDbEntity
  8
0
370
              -2
390
0
  6
Continuous
 62
               0
100
AcDbCircle
 10
256.2403073911305
 20
-451.81401273212509
 30
0.0
 40
1.9998779296875
  0
HATCH
  5
141
100
AcDbEntity
  8
0
370
              -2
390
0
  6
Continuous
 62
               0
100
AcDbHatch
 10
0.0
 20
0.0
 30
0.0
210
0.0
220
0.0
230
1.0
  2
SOLID
 70
               1
 71
               1
 91
        1
 92
        1
 93
        1
 72
               2
 10
256.2403073911305
 20
-451.81401273212509
 40
1.9998779296875
 50
0.0
 51
360.0
 73
               0
 97
        1
330
140
 75
               0
 76
               1
 98
        1
 10
0.0
 20
0.0
  0
CIRCLE
  5
142
102
{ACAD_REACTORS
330
143
102
}
100
AcDbEntity
  8
0
370
              -2
390
0
  6
Continuous
 62
               0
100
AcDbCircle
 10
256.2403073911305
 20
-661.81401273212578
 30
0.0
 40
1.9998779296875
  0
HATCH
  5
143
100
AcDbEntity
  8
0
370
              -2
390
0
  6
Continuous
 62
               0
100
AcDbHatch
 10
0.0
 20
0.0
 30
0.0
210
0.0
220
0.0
230
1.0
  2
SOLID
 70
               1
 71
               1
 91
        1
 92
        1
 93
        1
 72
               2
 10
256.2403073911305
 20
-661.81401273212578
 40
1.9998779296875
 50
0.0
 51
360.0
 73
               0
 97
        1
330
142
 75
               0
 76
               1
 98
        1
 10
0.0
 20
0.0
  0
MTEXT
  5
144
100
AcDbEntity
  8
0
390
0
 62
               0
100
AcDbMText
 10
222.36269020363056
 20
-570.38976855411397
 30
0.0
 40
24.432617187500004
 41
0.0
 71
               1
 72
               1
  1
210
  7
ＭＳ ゴシック
 11
0.0
 21
1.0
 31
0.0
 73
               1
 44
0.7828267384257843
  0
POINT
  5
145
100
AcDbEntity
  8
Defpoints
370
               0
390
0
 62
               0
100
AcDbPoint
 10
-309.13373814607576
 20
-661.81401273212578
 30
0.0
  0
POINT
  5
146
100
AcDbEntity
  8
Defpoints
370
               0
390
0
 62
               0
100
AcDbPoint
 10
100.3757846618937
 20
-451.81401273212509
 30
0.0
  0
POINT
  5
147
100
AcDbEntity
  8
Defpoints
370
               0
390
0
 62
               0
100
AcDbPoint
 10
256.2403073911305
 20
-451.81401273212509
 30
0.0
  0
ENDBLK
  5
148
100
AcDbEntity
  8
notes
390
0
100
AcDbBlockEnd
  0
BLOCK
  5
149
100
AcDbEntity
  8
notes
390
0
100
AcDbBlockBegin
  2
*D21
 70
               1
 10
0.0
 20
0.0
 30
0.0
  3
*D21
  1

  0
LINE
  5
14A
100
AcDbEntity
  8
0
370
              -2
390
0
  6
Continuous
 62
               0
100
AcDbLine
 10
122.24030739113186
 20
763.97057698567698
 30
0.0
 11
256.24030739113073
 21
763.97057698567698
 31
0.0
  0
LINE
  5
14B
100
AcDbEntity
  8
0
370
              -2
390
0
  6
Continuous
 62
               0
100
AcDbLine
 10
-268.75969260232796
 20
323.97057698567914
 30
0.0
 11
256.24030739113073
 21
323.97057698567914
 31
0.0
  0
LINE
  5
14C
100
AcDbEntity
  8
0
370
              -2
390
0
  6
Continuous
 62
               0
100
AcDbLine
 10
256.24030739113073
 20
763.97057698567698
 30
0.0
 11
256.24030739113073
 21
323.97057698567914
 31
0.0
  0
CIRCLE
  5
14D
102
{ACAD_REACTORS
330
14E
102
}
100
AcDbEntity
  8
0
370
              -2
390
0
  6
Continuous
 62
               0
100
AcDbCircle
 10
256.24030739113073
 20
763.97057698567698
 30
0.0
 40
1.9998779296875
  0
HATCH
  5
14E
100
AcDbEntity
  8
0
370
              -2
390
0
  6
Continuous
 62
               0
100
AcDbHatch
 10
0.0
 20
0.0
 30
0.0
210
0.0
220
0.0
230
1.0
  2
SOLID
 70
               1
 71
               1
 91
        1
 92
        1
 93
        1
 72
               2
 10
256.24030739113073
 20
763.97057698567698
 40
1.9998779296875
 50
0.0
 51
360.0
 73
               0
 97
        1
330
14D
 75
               0
 76
               1
 98
        1
 10
0.0
 20
0.0
  0
CIRCLE
  5
14F
102
{ACAD_REACTORS
330
150
102
}
100
AcDbEntity
  8
0
370
              -2
390
0
  6
Continuous
 62
               0
100
AcDbCircle
 10
256.24030739113073
 20
323.97057698567914
 30
0.0
 40
1.9998779296875
  0
HATCH
  5
150
100
AcDbEntity
  8
0
370
              -2
390
0
  6
Continuous
 62
               0
100
AcDbHatch
 10
0.0
 20
0.0
 30
0.0
210
0.0
220
0.0
230
1.0
  2
SOLID
 70
               1
 71
               1
 91
        1
 92
        1
 93
        1
 72
               2
 10
256.24030739113073
 20
323.97057698567914
 40
1.9998779296875
 50
0.0
 51
360.0
 73
               0
 97
        1
330
14F
 75
               0
 76
               1
 98
        1
 10
0.0
 20
0.0
  0
MTEXT
  5
151
100
AcDbEntity
  8
0
390
0
 62
               0
100
AcDbMText
 10
222.36269020363079
 20
520.15807530350253
 30
0.0
 40
24.432617187500004
 41
0.0
 71
               1
 72
               1
  1
440
  7
ＭＳ ゴシック
 11
0.0
 21
1.0
 31
0.0
 73
               1
 44
0.7828267384257843
  0
POINT
  5
152
100
AcDbEntity
  8
Defpoints
370
               0
390
0
 62
               0
100
AcDbPoint
 10
-293.75969260232796
 20
323.97057698567914
 30
0.0
  0
POINT
  5
153
100
AcDbEntity
  8
Defpoints
370
               0
390
0
 62
               0
100
AcDbPoint
 10
97.240307391131864
 20
763.97057698567698
 30
0.0
  0
POINT
  5
154
100
AcDbEntity
  8
Defpoints
370
               0
390
0
 62
               0
100
AcDbPoint
 10
256.24030739113073
 20
763.97057698567698
 30
0.0
  0
ENDBLK
  5
155
100
AcDbEntity
  8
notes
390
0
100
AcDbBlockEnd
  0
BLOCK
  5
156
100
AcDbEntity
  8
notes
390
0
100
AcDbBlockBegin
  2
*D22
 70
               1
 10
0.0
 20
0.0
 30
0.0
  3
*D22
  1

  0
LINE
  5
157
100
AcDbEntity
  8
0
370
              -2
390
0
  6
Continuous
 62
               0
100
AcDbLine
 10
679.74679173741197
 20
-686.81401273212578
 30
0.0
 11
679.74679173741197
 21
-761.81401273212578
 31
0.0
  0
LINE
  5
158
100
AcDbEntity
  8
0
370
              -2
390
0
  6
Continuous
 62
               0
100
AcDbLine
 10
889.74486428447972
 20
-681.81401273212578
 30
0.0
 11
889.74486428447972
 21
-761.81401273212578
 31
0.0
  0
LINE
  5
159
100
AcDbEntity
  8
0
370
              -2
390
0
  6
Continuous
 62
               0
100
AcDbLine
 10
679.74679173741197
 20
-761.81401273212578
 30
0.0
 11
889.74486428447972
 21
-761.81401273212578
 31
0.0
  0
CIRCLE
  5
15A
102
{ACAD_REACTORS
330
15B
102
}
100
AcDbEntity
  8
0
370
              -2
390
0
  6
Continuous
 62
               0
100
AcDbCircle
 10
679.74679173741197
 20
-761.81401273212578
 30
0.0
 40
1.9998779296875
  0
HATCH
  5
15B
100
AcDbEntity
  8
0
370
              -2
390
0
  6
Continuous
 62
               0
100
AcDbHatch
 10
0.0
 20
0.0
 30
0.0
210
0.0
220
0.0
230
1.0
  2
SOLID
 70
               1
 71
               1
 91
        1
 92
        1
 93
        1
 72
               2
 10
679.74679173741197
 20
-761.81401273212578
 40
1.9998779296875
 50
0.0
 51
360.0
 73
               0
 97
        1
330
15A
 75
               0
 76
               1
 98
        1
 10
0.0
 20
0.0
  0
CIRCLE
  5
15C
102
{ACAD_REACTORS
330
15D
102
}
100
AcDbEntity
  8
0
370
              -2
390
0
  6
Continuous
 62
               0
100
AcDbCircle
 10
889.74486428447972
 20
-761.81401273212578
 30
0.0
 40
1.9998779296875
  0
HATCH
  5
15D
100
AcDbEntity
  8
0
370
              -2
390
0
  6
Continuous
 62
               0
100
AcDbHatch
 10
0.0
 20
0.0
 30
0.0
210
0.0
220
0.0
230
1.0
  2
SOLID
 70
               1
 71
               1
 91
        1
 92
        1
 93
        1
 72
               2
 10
889.74486428447972
 20
-761.81401273212578
 40
1.9998779296875
 50
0.0
 51
360.0
 73
               0
 97
        1
330
15C
 75
               0
 76
               1
 98
        1
 10
0.0
 20
0.0
  0
MTEXT
  5
15E
100
AcDbEntity
  8
0
390
0
 62
               0
100
AcDbMText
 10
756.314360942863
 20
-727.93639554462584
 30
0.0
 40
24.432617187500004
 41
0.0
 71
               1
 72
               1
  1
210
  7
ＭＳ ゴシック
 73
               1
 44
0.7828267384257843
  0
POINT
  5
15F
100
AcDbEntity
  8
Defpoints
370
               0
390
0
 62
               0
100
AcDbPoint
 10
889.74486428447972
 20
-656.81401273212578
 30
0.0
  0
POINT
  5
160
100
AcDbEntity
  8
Defpoints
370
               0
390
0
 62
               0
100
AcDbPoint
 10
679.74679173741197
 20
-661.81401273212578
 30
0.0
  0
POINT
  5
161
100
AcDbEntity
  8
Defpoints
370
               0
390
0
 62
               0
100
AcDbPoint
 10
679.74679173741197
 20
-761.81401273212578
 30
0.0
  0
ENDBLK
  5
162
100
AcDbEntity
  8
notes
390
0
100
AcDbBlockEnd
  0
BLOCK
  5
163
100
AcDbEntity
  8
ARJ70-0028
390
0
100
AcDbBlockBegin
  2
グループ-1
 70
               0
 10
0.0
 20
0.0
 30
0.0
  3
グループ-1
  1

  0
LWPOLYLINE
  5
164
100
AcDbEntity
  8
0
370
              15
390
0
  6
Continuous
 62
               7
100
AcDbPolyline
 90
       15
 70
             128
 10
-1711.1466987749502
 20
-672.91472667942185
 42
0.067849977356749
 10
-1720.2267060606318
 20
-606.31038324523706
 10
-1720.2375053734118
 20
-606.27151140683168
 42
0.2792319730571945
 10
-1794.3821275966532
 20
-537.09005575225683
 10
-1795.2534637586518
 20
-536.90780415157815
 10
-1795.8409470257707
 20
-536.8121959540515
 42
0.040353798658154
 10
-1924.0227057798663
 20
-526.45008021477474
 10
-1924.6466987749532
 20
-526.45008021477543
 10
-1925.2706917700439
 20
-526.45008021477554
 42
0.0403537986581508
 10
-2053.4524505241425
 20
-536.81219595405321
 10
-2054.0399337912536
 20
-536.90780415157883
 10
-2054.9112699532475
 20
-537.09005575225672
 42
0.279231973057194
 10
-2129.0558921764887
 20
-606.27151140683168
 10
-2129.0666914892677
 20
-606.31038324523342
 42
0.0678499773567503
 10
-2138.14669877495
 20
-672.91472667942026
  0
LWPOLYLINE
  5
165
100
AcDbEntity
  8
0
370
              15
390
0
  6
Continuous
 62
               7
100
AcDbPolyline
 90
       11
 70
             128
 10
-2126.5343127829597
 20
-737.50564182998232
 42
0.2828417911565236
 10
-2054.350287489915
 20
-805.86125564231634
 10
-2053.4860621187836
 20
-806.04264192625965
 10
-2052.9010451964077
 20
-806.13779758026533
 42
0.040332462811194
 10
-1925.2680313805022
 20
-816.45008021477292
 10
-1924.6466987749541
 20
-816.45008021477338
 10
-1924.0253661694042
 20
-816.45008021477338
 42
0.0403324628111957
 10
-1796.3923523534941
 20
-806.13779758026601
 10
-1795.8073354311141
 20
-806.04264192625965
 10
-1794.9431100599822
 20
-805.86125564231622
 42
0.2828417911565098
 10
-1722.7590847669424
 20
-737.50564182998232
  0
LWPOLYLINE
  5
166
100
AcDbEntity
  8
0
370
              15
390
0
  6
Continuous
 62
               7
100
AcDbPolyline
 90
        3
 70
             128
 10
-1722.7590847669424
 20
-737.50564182998232
 10
-1722.7438564523284
 20
-737.45808252666779
 42
0.0661451914088398
 10
-1711.1466987749502
 20
-672.91472667942026
  0
LWPOLYLINE
  5
167
100
AcDbEntity
  8
0
370
              15
390
0
  6
Continuous
 62
               7
100
AcDbPolyline
 90
        3
 70
             128
 10
-2126.5343127829597
 20
-737.50564182998232
 10
-2126.5495410975741
 20
-737.4580825266662
 42
-0.0661451914088447
 10
-2138.14669877495
 20
-672.91472667942026
  0
ENDBLK
  5
168
100
AcDbEntity
  8
ARJ70-0028
390
0
100
AcDbBlockEnd
  0
ENDSEC
  0
SECTION
  2
ENTITIES
  0
MTEXT
  5
169
100
AcDbEntity
  8
template
390
0
 62
               7
100
AcDbMText
 10
-967.99999999975898
 20
-1147.4176292337004
 30
0.0
 40
16.288411458333332
 41
0.0
 71
               1
 72
               1
  1
品名
  7
ＭＳ ゴシック
 73
               1
 44
0.7828267384257843
  0
MTEXT
  5
16A
100
AcDbEntity
  8
template
390
0
 62
               7
100
AcDbMText
 10
-967.99999999975898
 20
-1232.4176292337004
 30
0.0
 40
16.288411458333332
 41
0.0
 71
               1
 72
               1
  1
仕様
  7
ＭＳ ゴシック
 73
               1
 44
0.7828267384257843
  0
LINE
  5
16B
100
AcDbEntity
  8
template
370
               5
390
0
  6
Continuous
 62
               7
100
AcDbLine
 10
974.99999999975876
 20
-1224.0027073587005
 30
0.0
 11
-975.00000000024102
 21
-1224.0027073587005
 31
0.0
  0
LWPOLYLINE
  5
16C
100
AcDbEntity
  8
template
370
               5
390
0
  6
Continuous
 62
               7
100
AcDbPolyline
 90
        5
 70
             128
 10
975.00000000024124
 20
1405.9972926412995
 10
-974.99999999975898
 20
1405.9972926412995
 10
-974.99999999975898
 20
-1394.0027073587005
 10
975.00000000024124
 20
-1394.0027073587005
 10
975.00000000024124
 20
1405.9972926412995
  0
LINE
  5
16D
100
AcDbEntity
  8
template
370
               5
390
0
  6
Continuous
 62
               7
100
AcDbLine
 10
974.99999999975876
 20
-1139.0027073587005
 30
0.0
 11
-975.00000000024102
 21
-1139.0027073587005
 31
0.0
  0
LINE
  5
16E
100
AcDbEntity
  8
template
370
               5
390
0
  6
Continuous
 62
               7
100
AcDbLine
 10
975.00000000024124
 20
-1309.0027073587005
 30
0.0
 11
222.00000000024124
 21
-1309.0027073587005
 31
0.0
  0
MTEXT
  5
16F
100
AcDbEntity
  8
template
390
0
 62
               7
100
AcDbMText
 10
251.87140625250095
 20
-1338.9131018320079
 30
0.0
 40
24.432617187500004
 41
0.0
 71
               1
 72
               1
  1
大洋金物株式会社 ティーフォルム事業部
  7
ＭＳ ゴシック
 73
               1
 44
0.7828267384257843
  0
INSERT
  5
170
100
AcDbEntity
  8
template
390
0
 62
               7
100
AcDbBlockReference
  2
グループ
 10
1580.1175578424363
 20
1165.5728133428358
 30
0.0
  0
MTEXT
  5
171
100
AcDbEntity
  8
template
390
0
 62
               7
100
AcDbMText
 10
784.00000000049999
 20
-1261.0000901712003
 30
0.0
 40
24.432617187500004
 41
0.0
 71
               1
 72
               1
  1
1:10
  7
ＭＳ ゴシック
 73
               1
 44
0.7828267384257843
  0
MTEXT
  5
172
100
AcDbEntity
  8
template
390
0
 62
               7
100
AcDbMText
 10
731.00000000049999
 20
-1232.4176292337004
 30
0.0
 40
16.288411458333332
 41
0.0
 71
               1
 72
               1
  1
縮尺
  7
ＭＳ ゴシック
 73
               1
 44
0.7828267384257843
  0
LINE
  5
173
100
AcDbEntity
  8
template
370
               5
390
0
  6
Continuous
 62
               7
100
AcDbLine
 10
724.00000000049999
 20
-1309.0027073587005
 30
0.0
 11
724.00000000049999
 21
-1224.0027073587005
 31
0.0
  0
MTEXT
  5
174
100
AcDbEntity
  8
template
390
0
 62
               7
100
AcDbMText
 10
480.00000000049999
 20
-1232.4176292337004
 30
0.0
 40
16.288411458333332
 41
0.0
 71
               1
 72
               1
  1
容量
  7
ＭＳ ゴシック
 73
               1
 44
0.7828267384257843
  0
MTEXT
  5
175
100
AcDbEntity
  8
template
390
0
 62
               7
100
AcDbMText
 10
533.00000000049999
 20
-1261.0000901712003
 30
0.0
 40
24.432617187500004
 41
0.0
 71
               1
 72
               1
  1
6.2L
  7
ＭＳ ゴシック
 73
               1
 44
0.7828267384257843
  0
LINE
  5
176
100
AcDbEntity
  8
template
370
               5
390
0
  6
Continuous
 62
               7
100
AcDbLine
 10
473.00000000049999
 20
-1309.0027073587005
 30
0.0
 11
473.00000000049999
 21
-1224.0027073587005
 31
0.0
  0
MTEXT
  5
177
100
AcDbEntity
  8
template
390
0
 62
               7
100
AcDbMText
 10
229.00000000049999
 20
-1147.4176292337004
 30
0.0
 40
16.288411458333332
 41
0.0
 71
               1
 72
               1
  1
品番
  7
ＭＳ ゴシック
 73
               1
 44
0.7828267384257843
  0
MTEXT
  5
178
100
AcDbEntity
  8
template
390
0
 62
               7
100
AcDbMText
 10
229.00000000049999
 20
-1232.4176292337004
 30
0.0
 40
16.288411458333332
 41
0.0
 71
               1
 72
               1
  1
重量
  7
ＭＳ ゴシック
 73
               1
 44
0.7828267384257843
  0
MTEXT
  5
179
100
AcDbEntity
  8
template
390
0
 62
               7
100
AcDbMText
 10
282.00000000049999
 20
-1176.0000901712003
 30
0.0
 40
24.432617187500004
 41
0.0
 71
               1
 72
               1
  1
ARJ70-0028(旧品番:AQI70-0028)
  7
ＭＳ ゴシック
 73
               1
 44
0.7828267384257843
  0
MTEXT
  5
17A
100
AcDbEntity
  8
template
390
0
 62
               7
100
AcDbMText
 10
282.00000000049999
 20
-1261.0000901712003
 30
0.0
 40
24.432617187500004
 41
0.0
 71
               1
 72
               1
  1
25kg
  7
ＭＳ ゴシック
 73
               1
 44
0.7828267384257843
  0
LINE
  5
17B
100
AcDbEntity
  8
template
370
               5
390
0
  6
Continuous
 62
               7
100
AcDbLine
 10
222.00000000049999
 20
-1394.0027073587005
 30
0.0
 11
222.00000000049999
 21
-1139.0027073587005
 31
0.0
  0
MTEXT
  5
17C
100
AcDbEntity
  8
template
390
0
 62
               7
100
AcDbMText
 10
-974.99999999955617
 20
-1405.8565294155576
 30
0.0
 40
21.717881944444446
 41
0.0
 71
               1
 72
               1
  1
100709SH
  7
ＭＳ ゴシック
 73
               1
 44
0.7828267384257843
  0
MTEXT
  5
17D
100
AcDbEntity
  8
template
390
0
 62
               7
100
AcDbMText
 10
-914.99999999975944
 20
-1176.0000901712003
 30
0.0
 40
24.432617187500004
 41
0.0
 71
               1
 72
               1
  1
洗面器 -POZZI GINORI,500-
  7
ＭＳ ゴシック
 73
               1
 44
0.7828267384257843
  0
MTEXT
  5
17E
100
AcDbEntity
  8
template
390
0
 62
               7
100
AcDbMText
 10
-914.99999999975944
 20
-1261.0000901712003
 30
0.0
 40
24.432617187500004
 41
0.0
 71
               1
 72
               1
  1
壁掛け/オーバーフロー付き/壁取付ボルト付属/陶器/ホワイト
  7
ＭＳ ゴシック
 73
               1
 44
1.3047112307096407
  0
DIMENSION
  5
17F
100
AcDbEntity
  8
notes
370
               5
390
0
  6
Continuous
 62
               7
100
AcDbDimension
  2
*D3
 10
-644.13373814607576
 20
-373.87726687193867
 30
0.0
 11
-719.13373814607576
 21
-373.87726687193867
 31
0.0
 71
               5
 72
               1
 41
1.0
 42
0.0
  3
tform線あり
100
AcDbAlignedDimension
 13
-794.13373814607576
 23
-455.84495690601443
 33
0.0
 14
-644.13373814607576
 24
-481.77726687193854
 34
0.0
100
AcDbRotatedDimension
1001
ACAD
1000
DSTYLE
1002
{
1070
             279
1070
               2
1070
             340
1005
39
1070
             147
1040
5.0
1002
}
  0
DIMENSION
  5
180
100
AcDbEntity
  8
notes
370
               5
390
0
  6
Continuous
 62
               7
100
AcDbDimension
  2
*D4
 10
-793.75969260886632
 20
223.97057698567914
 30
0.0
 11
-676.25969260886632
 21
223.97057698567914
 31
0.0
 71
               5
 72
               1
 41
1.0
 42
0.0
  3
tform線あり
100
AcDbAlignedDimension
 13
-558.75969260886632
 23
386.69990548835085
 33
0.0
 14
-793.75969260886632
 24
412.97057698567914
 34
0.0
100
AcDbRotatedDimension
1001
ACAD
1000
DSTYLE
1002
{
1070
             279
1070
               2
1070
             340
1005
39
1070
             147
1040
5.0
1002
}
  0
DIMENSION
  5
181
100
AcDbEntity
  8
notes
370
               5
390
0
  6
Continuous
 62
               7
100
AcDbDimension
  2
*D5
 10
-558.75969260886632
 20
223.97057698567914
 30
0.0
 11
-343.75969260886768
 21
223.97057698567914
 31
0.0
 71
               5
 72
               1
 41
1.0
 42
0.0
  3
tform線あり
100
AcDbAlignedDimension
 13
-128.75969260886927
 23
386.69990548380451
 33
0.0
 14
-558.75969260886632
 24
386.69990548835085
 34
0.0
100
AcDbRotatedDimension
1001
ACAD
1000
DSTYLE
1002
{
1070
             279
1070
               2
1070
             340
1005
39
1070
             147
1040
5.0
1002
}
  0
DIMENSION
  5
182
100
AcDbEntity
  8
notes
370
               5
390
0
  6
Continuous
 62
               7
100
AcDbDimension
  2
*D6
 10
-644.13373814607576
 20
-373.87726687193867
 30
0.0
 11
-523.13373814607576
 21
-373.87726687193867
 31
0.0
 71
               5
 72
               1
 41
1.0
 42
0.0
  3
tform線あり
100
AcDbAlignedDimension
 13
-402.13373814607576
 23
-481.77726687193854
 33
0.0
 14
-644.13373814607576
 24
-481.77726687193854
 34
0.0
100
AcDbRotatedDimension
1001
ACAD
1000
DSTYLE
1002
{
1070
             279
1070
               2
1070
             340
1005
39
1070
             147
1040
5.0
1002
}
  0
DIMENSION
  5
183
100
AcDbEntity
  8
notes
370
               5
390
0
  6
Continuous
 62
               7
100
AcDbDimension
  2
*D7
 10
-402.13373814607576
 20
-373.87726687193867
 30
0.0
 11
-344.13373814607576
 21
-373.87726687193867
 31
0.0
 71
               5
 72
               1
 41
1.0
 42
0.0
  3
tform線あり
100
AcDbAlignedDimension
 13
-286.13373814607576
 23
-481.77726687193854
 33
0.0
 14
-402.13373814607576
 24
-481.77726687193854
 34
0.0
100
AcDbRotatedDimension
1001
ACAD
1000
DSTYLE
1002
{
1070
             279
1070
               2
1070
             340
1005
39
1070
             147
1040
5.0
1002
}
  0
DIMENSION
  5
184
100
AcDbEntity
  8
notes
370
               5
390
0
  6
Continuous
 62
               7
100
AcDbDimension
  2
*D8
 10
-286.13373814607576
 20
-373.87726687193867
 30
0.0
 11
-165.13373814607576
 21
-373.87726687193867
 31
0.0
 71
               5
 72
               1
 41
1.0
 42
0.0
  3
tform線あり
100
AcDbAlignedDimension
 13
-44.133738146075757
 23
-481.77726687193854
 33
0.0
 14
-286.13373814607576
 24
-481.77726687193854
 34
0.0
100
AcDbRotatedDimension
1001
ACAD
1000
DSTYLE
1002
{
1070
             279
1070
               2
1070
             340
1005
39
1070
             147
1040
5.0
1002
}
  0
DIMENSION
  5
185
100
AcDbEntity
  8
notes
370
               5
390
0
  6
Continuous
 62
               7
100
AcDbDimension
  2
*D9
 10
676.00186262503837
 20
-451.81401273212578
 30
0.0
 11
681.00186262503837
 21
-442.57726687193849
 31
0.0
 70
             128
 71
               5
 72
               1
 41
1.0
 42
0.0
  3
tform線あり
100
AcDbAlignedDimension
 13
672.13115460531139
 23
-616.81401273407505
 33
0.0
 14
672.13115460531139
 24
-451.81401273212578
 34
0.0
 50
90.0
100
AcDbRotatedDimension
1001
ACAD
1000
DSTYLE
1002
{
1070
             279
1070
               2
1070
             340
1005
39
1070
               3
1000
<>(深さ)
1070
             174
1070
               0
1070
             147
1040
5.0
1002
}
  0
DIMENSION
  5
186
100
AcDbEntity
  8
notes
370
               5
390
0
  6
Continuous
 62
               7
100
AcDbDimension
  2
*D10
 10
889.74486428447972
 20
-373.87726687193867
 30
0.0
 11
857.24486428447972
 21
-368.87726687193867
 31
0.0
 70
             128
 71
               5
 72
               1
 41
1.0
 42
0.0
  3
tform線あり
100
AcDbAlignedDimension
 13
824.74486428447972
 23
-451.81401273212578
 33
0.0
 14
889.74486428447972
 24
-451.81401273212578
 34
0.0
100
AcDbRotatedDimension
1001
ACAD
1000
DSTYLE
1002
{
1070
             279
1070
               2
1070
             340
1005
39
1070
             147
1040
5.0
1002
}
  0
DIMENSION
  5
187
100
AcDbEntity
  8
notes
370
               5
390
0
  6
Continuous
 62
               7
100
AcDbDimension
  2
*D11
 10
-355.92925377969141
 20
686.39473582456537
 30
0.0
 11
-181.43373814607526
 21
804.71267663250467
 31
0.0
 70
               3
 71
               5
 72
               1
 41
1.0
 42
0.0
  3
tform線あり
100
AcDbDiametricDimension
 15
-331.59013143804737
 25
711.5464181467886
 35
0.0
 40
129.64616065138222
1001
ACAD
1000
DSTYLE
1002
{
1070
             289
1070
               0
1070
             342
1005
4B
1070
             340
1005
39
1070
              73
1070
               1
1070
              74
1070
               1
1070
               3
1000

1070
             174
1070
               0
1070
             147
1040
5.0
1002
}
  0
DIMENSION
  5
188
100
AcDbEntity
  8
notes
370
               5
390
0
  6
Continuous
 62
               7
100
AcDbDimension
  2
*D12
 10
106.24030739113073
 20
864.10818515142432
 30
0.0
 11
-343.75969260886768
 21
864.10818515142432
 31
0.0
 71
               5
 72
               1
 41
1.0
 42
0.0
  3
tform線あり
100
AcDbAlignedDimension
 13
-793.75969260886632
 23
754.97057698567698
 33
0.0
 14
106.24030739113073
 24
754.97057698567698
 34
0.0
100
AcDbRotatedDimension
1001
ACAD
1000
DSTYLE
1002
{
1070
             279
1070
               2
1070
             340
1005
39
1070
             147
1040
5.0
1002
}
  0
DIMENSION
  5
189
100
AcDbEntity
  8
notes
370
               5
390
0
  6
Continuous
 62
               7
100
AcDbDimension
  2
*D13
 10
-893.38126624011511
 20
763.97057698567698
 30
0.0
 11
-898.38126624011511
 21
701.54665505686876
 31
0.0
 70
             128
 71
               5
 72
               1
 41
1.0
 42
0.0
  3
tform線あり
100
AcDbAlignedDimension
 13
-793.38126624011511
 23
639.12273312806042
 33
0.0
 14
-784.75969260886814
 24
763.97057698567698
 34
0.0
 50
90.0
100
AcDbRotatedDimension
1001
ACAD
1000
DSTYLE
1002
{
1070
             271
1070
               0
1070
             279
1070
               2
1070
             340
1005
39
1070
             147
1040
5.0
1002
}
  0
DIMENSION
  5
18A
100
AcDbEntity
  8
notes
370
               5
390
0
  6
Continuous
 62
               7
100
AcDbDimension
  2
*D14
 10
-893.38126624011511
 20
639.12273312806042
 30
0.0
 11
-893.38126624011511
 21
494.12273312806155
 31
0.0
 71
               5
 72
               1
 41
1.0
 42
0.0
  3
tform線あり
100
AcDbAlignedDimension
 13
-513.75969260886905
 23
349.12273312806269
 33
0.0
 14
-793.38126624011511
 24
639.12273312806042
 34
0.0
 50
90.0
100
AcDbRotatedDimension
1001
ACAD
1000
DSTYLE
1002
{
1070
             279
1070
               2
1070
             340
1005
39
1070
             147
1040
5.0
1002
}
  0
DIMENSION
  5
18B
100
AcDbEntity
  8
notes
370
               5
390
0
  6
Continuous
 62
               7
100
AcDbDimension
  2
*D15
 10
-893.75969260886632
 20
-501.77726687193854
 30
0.0
 11
-898.75969260886632
 21
-476.77726687193854
 31
0.0
 70
             128
 71
               5
 72
               1
 41
1.0
 42
0.0
  3
tform線あり
100
AcDbAlignedDimension
 13
-785.73627852451773
 23
-451.77726687193854
 33
0.0
 14
-699.13373814607576
 24
-501.77726687193854
 34
0.0
 50
90.0
100
AcDbRotatedDimension
1001
ACAD
1000
DSTYLE
1002
{
1070
             279
1070
               2
1070
             340
1005
39
1070
             147
1040
5.0
1002
}
  0
DIMENSION
  5
18C
100
AcDbEntity
  8
notes
370
               5
390
0
  6
Continuous
 62
               7
100
AcDbDimension
  2
*D16
 10
206.24030739113073
 20
763.97057698567698
 30
0.0
 11
211.24030739113073
 21
577.42273312806128
 31
0.0
 70
             128
 71
               5
 72
               1
 41
1.0
 42
0.0
  3
tform線あり
100
AcDbAlignedDimension
 13
97.240307391131864
 23
403.97057698567914
 33
0.0
 14
97.240307391131864
 24
763.97057698567698
 34
0.0
 50
90.0
100
AcDbRotatedDimension
1001
ACAD
1000
DSTYLE
1002
{
1070
             279
1070
               2
1070
             340
1005
39
1070
             147
1040
5.0
1002
}
  0
DIMENSION
  5
18D
100
AcDbEntity
  8
notes
370
               5
390
0
  6
Continuous
 62
               7
100
AcDbDimension
  2
*D17
 10
206.2403073911305
 20
-451.81401273212509
 30
0.0
 11
206.2403073911305
 21
-486.81401273212555
 31
0.0
 71
               5
 72
               1
 41
1.0
 42
0.0
  3
tform線あり
100
AcDbAlignedDimension
 13
101.9761407384849
 23
-521.81401273212578
 33
0.0
 14
100.3757846618937
 24
-451.81401273212509
 34
0.0
 50
90.0
100
AcDbRotatedDimension
1001
ACAD
1000
DSTYLE
1002
{
1070
             279
1070
               2
1070
             340
1005
39
1070
             147
1040
5.0
1002
}
  0
DIMENSION
  5
18E
100
AcDbEntity
  8
notes
370
               5
390
0
  6
Continuous
 62
               7
100
AcDbDimension
  2
*D18
 10
353.12686262503826
 20
-451.81401273212578
 30
0.0
 11
353.12686262503826
 21
-554.31401273212578
 31
0.0
 71
               5
 72
               1
 41
1.0
 42
0.0
  3
tform線あり
100
AcDbAlignedDimension
 13
590.22770861759932
 23
-656.81401273212578
 33
0.0
 14
454.51744492614307
 24
-451.81401273212578
 34
0.0
 50
90.0
100
AcDbRotatedDimension
1001
ACAD
1000
DSTYLE
1002
{
1070
             279
1070
               2
1070
             340
1005
39
1070
             147
1040
5.0
1002
}
  0
DIMENSION
  5
18F
100
AcDbEntity
  8
notes
370
               5
390
0
  6
Continuous
 62
               7
100
AcDbDimension
  2
*D19
 10
353.12686262503848
 20
-656.81401273212578
 30
0.0
 11
348.12686262503848
 21
-671.57726687193849
 31
0.0
 70
             128
 71
               5
 72
               1
 41
1.0
 42
0.0
  3
tform線あり
100
AcDbAlignedDimension
 13
645.74473177661093
 23
-661.86644265945574
 33
0.0
 14
590.22770861759932
 24
-656.81401273212578
 34
0.0
 50
90.0
100
AcDbRotatedDimension
1001
ACAD
1000
DSTYLE
1002
{
1070
             271
1070
               0
1070
             279
1070
               2
1070
             340
1005
39
1070
             174
1070
               0
1070
             147
1040
5.0
1002
}
  0
DIMENSION
  5
190
100
AcDbEntity
  8
notes
370
               5
390
0
  6
Continuous
 62
               7
100
AcDbDimension
  2
*D20
 10
256.2403073911305
 20
-451.81401273212509
 30
0.0
 11
261.2403073911305
 21
-546.57726687193849
 31
0.0
 70
             128
 71
               5
 72
               1
 41
1.0
 42
0.0
  3
tform線あり
100
AcDbAlignedDimension
 13
-309.13373814607576
 23
-661.81401273212578
 33
0.0
 14
100.3757846618937
 24
-451.81401273212509
 34
0.0
 50
90.0
100
AcDbRotatedDimension
1001
ACAD
1000
DSTYLE
1002
{
1070
             279
1070
               2
1070
             340
1005
39
1070
             147
1040
5.0
1002
}
  0
DIMENSION
  5
191
100
AcDbEntity
  8
notes
370
               5
390
0
  6
Continuous
 62
               7
100
AcDbDimension
  2
*D21
 10
256.24030739113073
 20
763.97057698567698
 30
0.0
 11
256.24030739113073
 21
543.97057698567801
 31
0.0
 71
               5
 72
               1
 41
1.0
 42
0.0
  3
tform線あり
100
AcDbAlignedDimension
 13
-293.75969260232796
 23
323.97057698567914
 33
0.0
 14
97.240307391131864
 24
763.97057698567698
 34
0.0
 50
90.0
100
AcDbRotatedDimension
1001
ACAD
1000
DSTYLE
1002
{
1070
             279
1070
               2
1070
             340
1005
39
1070
             147
1040
5.0
1002
}
  0
DIMENSION
  5
192
100
AcDbEntity
  8
notes
370
               5
390
0
  6
Continuous
 62
               7
100
AcDbDimension
  2
*D22
 10
679.74679173741197
 20
-761.81401273212578
 30
0.0
 11
780.12686262503848
 21
-756.81401273212578
 31
0.0
 70
             128
 71
               5
 72
               1
 41
1.0
 42
0.0
  3
tform線あり
100
AcDbAlignedDimension
 13
889.74486428447972
 23
-656.81401273212578
 33
0.0
 14
679.74679173741197
 24
-661.81401273212578
 34
0.0
100
AcDbRotatedDimension
1001
ACAD
1000
DSTYLE
1002
{
1070
             279
1070
               2
1070
             340
1005
39
1070
             147
1040
5.0
1002
}
  0
MTEXT
  5
193
100
AcDbEntity
  8
notes
390
0
 62
               7
100
AcDbMText
 10
-14.121238146075711
 20
-377.57464968443855
 30
0.0
 40
24.432617187500004
 41
0.0
 71
               1
 72
               1
  1
壁取付ボルト穴(4ヶ所)
  7
ＭＳ ゴシック
 73
               1
 44
0.7828267384257843
  0
LINE
  5
194
100
AcDbEntity
  8
notes
370
               5
390
0
  6
Continuous
 62
               7
100
AcDbLine
 10
-44.133738146075757
 20
-501.77726687193854
 30
0.0
 11
-4.7531730898635942
 21
-406.36795572600295
 31
0.0
  0
LWPOLYLINE
  5
195
100
AcDbEntity
  8
ARJ70-0028
370
              15
390
0
  6
Continuous
 62
               7
100
AcDbPolyline
 90
        3
 70
             128
 10
-557.65694803256974
 20
-590.58545721211362
 42
0.1256442184880594
 10
-644.63106766433157
 20
-539.8140127321285
 42
0.0523103532563389
 10
-790.31563767287253
 20
-521.81401273212578
  0
LWPOLYLINE
  5
196
100
AcDbEntity
  8
ARJ70-0028
370
              15
390
0
  6
Continuous
 62
               7
100
AcDbPolyline
 90
        6
 70
             128
 10
-575.50659268391337
 20
-521.81401273212578
 10
-790.31563767287253
 20
-521.81401273212578
 10
-793.70842927005378
 20
-457.07569251334075
 42
-0.4296339059668648
 10
-788.71528159628087
 20
-451.81401273212578
 10
-765.26007412203535
 20
-451.81401273212578
 10
-558.43952864364564
 20
-451.81401273212578
  0
3DFACE
  5
197
100
AcDbEntity
  8
ARJ70-0028
370
              15
390
0
  6
Continuous
 62
               7
100
AcDbFace
 10
-626.01911890402152
 20
403.97057698567914
 30
0.0
 11
-626.01911890402152
 21
403.97057698567914
 31
0.02
 12
-612.44310303428938
 22
403.97057698567914
 32
0.02
 13
-612.44310303428938
 23
403.97057698567914
 33
0.0
  0
3DFACE
  5
198
100
AcDbEntity
  8
ARJ70-0028
370
              15
390
0
  6
Continuous
 62
               7
100
AcDbFace
 10
-784.7596926088645
 20
403.97057698567914
 30
0.0
 11
-784.7596926088645
 21
403.97057698567914
 31
0.02
 12
-626.01911890402152
 22
403.97057698567914
 32
0.02
 13
-626.01911890402152
 23
403.97057698567914
 33
0.0
  0
LWPOLYLINE
  5
199
100
AcDbEntity
  8
ARJ70-0028
370
              15
390
0
  6
Continuous
 62
               7
100
AcDbPolyline
 90
        4
 70
             128
 10
-784.75969260886632
 20
763.97057698567698
 42
0.414213562373095
 10
-793.75969260886632
 20
754.97057698567698
 10
-793.75969260886632
 20
412.97057698567914
 42
0.414213562373095
 10
-784.75969260886632
 20
403.97057698567914
  0
LINE
  5
19A
100
AcDbEntity
  8
ARJ70-0028
370
              15
390
0
  6
Continuous
 62
               7
100
AcDbLine
 10
889.74486428447972
 20
-521.72422677902046
 30
0.0
 11
535.40544767673987
 21
-521.72422677902046
 31
0.0
  0
LINE
  5
19B
100
AcDbEntity
  8
ARJ70-0028
370
              15
390
0
  6
Continuous
 62
               7
100
AcDbLine
 10
713.74889212070048
 20
-656.81401273212578
 30
0.0
 11
889.74486428447972
 21
-656.81401273212578
 31
0.0
  0
LINE
  5
19C
100
AcDbEntity
  8
ARJ70-0028
370
              15
390
0
  6
Continuous
 62
               7
100
AcDbLine
 10
454.51744492614307
 20
-451.81401273212578
 30
0.0
 11
889.74486428447972
 21
-451.81401273212578
 31
0.0
  0
LINE
  5
19D
100
AcDbEntity
  8
ARJ70-0028
370
              15
390
0
  6
Continuous
 62
               7
100
AcDbLine
 10
889.74486428447972
 20
-451.81401273212578
 30
0.0
 11
889.74486428447972
 21
-656.81401273212578
 31
0.0
  0
LWPOLYLINE
  5
19E
100
AcDbEntity
  8
ARJ70-0028
370
              15
390
0
  6
Continuous
 62
               7
100
AcDbPolyline
 90
        3
 70
             128
 10
-130.6825489018056
 20
-590.58545721209725
 42
-0.1256442184879465
 10
-43.708429270056058
 20
-539.81401273212873
 42
-0.0523103532563395
 10
101.9761407384849
 20
-521.81401273212578
  0
LWPOLYLINE
  5
19F
100
AcDbEntity
  8
ARJ70-0028
370
              15
390
0
  6
Continuous
 62
               7
100
AcDbPolyline
 90
        6
 70
             128
 10
-112.83290425047244
 20
-521.81401273212578
 10
101.9761407384849
 20
-521.81401273212578
 10
105.36893233566775
 20
-457.07569251333962
 42
0.4296339059668231
 10
100.37578466189393
 20
-451.81401273212578
 10
76.92057718764795
 20
-451.81401273212578
 10
-129.89996829074016
 20
-451.81401273212578
  0
LWPOLYLINE
  5
1A0
100
AcDbEntity
  8
ARJ70-0028
370
              15
390
0
  6
Continuous
 62
               7
100
AcDbPolyline
 90
        4
 70
             128
 10
-344.1697484671954
 20
-656.81401273212578
 10
-254.65259280031432
 20
-656.81401273212578
 10
-239.1697484671954
 20
-656.81401273212578
 42
0.4044701195477281
 10
-112.83290425047244
 20
-521.81401273212578
  0
CIRCLE
  5
1A1
100
AcDbEntity
  8
ARJ70-0028
370
              15
390
0
  6
Continuous
 62
               7
100
AcDbCircle
 10
-343.75969260886927
 20
698.97057698567698
 30
0.0
 40
17.5
  0
CIRCLE
  5
1A2
100
AcDbEntity
  8
ARJ70-0028
370
              15
390
0
  6
Continuous
 62
               7
100
AcDbCircle
 10
-343.75969260886927
 20
553.97057698567869
 30
0.0
 40
37.5
  0
CIRCLE
  5
1A3
100
AcDbEntity
  8
ARJ70-0028
370
              15
390
0
  6
Continuous
 62
               7
100
AcDbCircle
 10
-343.75969260886927
 20
553.97057698567869
 30
0.0
 40
23.0
  0
LWPOLYLINE
  5
1A4
100
AcDbEntity
  8
ARJ70-0028
370
              15
390
0
  6
Continuous
 62
               7
100
AcDbPolyline
 90
        4
 70
             128
 10
-344.1697484671954
 20
-656.81401273212578
 10
-433.68690413407262
 20
-656.81401273212578
 10
-449.16974846719199
 20
-656.81401273212578
 42
-0.4044514873784006
 10
-575.51010448499164
 20
-521.81401273212578
  0
LWPOLYLINE
  5
1A5
100
AcDbEntity
  8
ARJ70-0028
370
              15
390
0
  6
Continuous
 62
               7
100
AcDbPolyline
 90
        4
 70
             128
 10
-344.1697484671954
 20
-656.81401273212578
 10
-254.65259280031432
 20
-656.81401273212578
 10
-239.1697484671954
 20
-656.81401273212578
 42
0.129042208664083
 10
-174.79194215046527
 20
-636.43605150561962
  0
LINE
  5
1A6
100
AcDbEntity
  8
ARJ70-0028
370
              15
390
0
  6
Continuous
 62
               7
100
AcDbLine
 10
-378.1699213975503
 20
-656.81401273212578
 30
0.0
 11
-344.1697484671954
 21
-656.81401273212578
 31
0.0
  0
LINE
  5
1A7
100
AcDbEntity
  8
ARJ70-0028
370
              15
390
0
  6
Continuous
 62
               7
100
AcDbLine
 10
-310.16957553683733
 20
-656.81401273212578
 30
0.0
 11
-344.1697484671954
 21
-656.81401273212578
 31
0.0
  0
LINE
  5
1A8
100
AcDbEntity
  8
ARJ70-0028
370
              15
390
0
  6
Continuous
 62
               7
100
AcDbLine
 10
-310.16957553683733
 20
-656.81401273212578
 30
0.0
 11
-344.1697484671954
 21
-656.81401273212578
 31
0.0
  0
LWPOLYLINE
  5
1A9
100
AcDbEntity
  8
ARJ70-0028
370
              15
390
0
  6
Continuous
 62
               7
100
AcDbPolyline
 90
        4
 70
             128
 10
97.240307391131864
 20
763.97057698567698
 42
-0.4142135623730655
 10
106.24030739113073
 20
754.97057698567698
 10
106.24030739113073
 20
412.97057698567914
 42
-0.4142135623731321
 10
97.240307391131864
 20
403.97057698567914
  0
3DFACE
  5
1AA
100
AcDbEntity
  8
ARJ70-0028
370
              15
390
0
  6
Continuous
 62
               7
100
AcDbFace
 10
97.240307391131864
 20
403.97057698567914
 30
0.0
 11
97.240307391131864
 21
403.97057698567914
 31
0.02
 12
97.240307391131864
 22
403.97057698567914
 32
0.02
 13
97.240307391131864
 23
403.97057698567914
 33
0.02
  0
3DFACE
  5
1AB
100
AcDbEntity
  8
ARJ70-0028
370
              15
390
0
  6
Continuous
 62
               7
100
AcDbFace
 10
97.240307391131864
 20
763.97057698567698
 30
0.0
 11
97.240307391131864
 21
763.97057698567698
 31
0.02
 12
97.240307391131864
 22
763.97057698567698
 32
0.02
 13
97.240307391131864
 23
763.97057698567698
 33
0.02
  0
LINE
  5
1AC
100
AcDbEntity
  8
ARJ70-0028
370
              15
390
0
  6
Continuous
 62
               7
100
AcDbLine
 10
-563.4104543864737
 20
-451.81401273212578
 30
0.0
 11
-344.1697484671954
 21
-451.81401273212578
 31
0.0
  0
LINE
  5
1AD
100
AcDbEntity
  8
ARJ70-0028
370
              15
390
0
  6
Continuous
 62
               7
100
AcDbLine
 10
-517.11367917477128
 20
-451.81401273212578
 30
0.0
 11
-516.4490595757643
 21
-451.81401273212578
 31
0.0
  0
LINE
  5
1AE
100
AcDbEntity
  8
ARJ70-0028
370
              15
390
0
  6
Continuous
 62
               7
100
AcDbLine
 10
-124.92904254791347
 20
-451.81401273212578
 30
0.0
 11
-344.1697484671954
 21
-451.81401273212578
 31
0.0
  0
LINE
  5
1AF
100
AcDbEntity
  8
ARJ70-0028
370
              15
390
0
  6
STYLE_13
 62
               7
100
AcDbLine
 10
-171.22581775961407
 20
-451.81401273212578
 30
0.0
 11
-171.89043735862242
 21
-451.81401273212578
 31
0.0
  0
LINE
  5
1B0
100
AcDbEntity
  8
ARJ70-0028
370
              15
390
0
  6
Continuous
 62
               7
100
AcDbLine
 10
535.40544767673987
 20
-521.72422677902046
 30
0.0
 11
531.73690312692702
 21
-451.72422677902046
 31
0.0
  0
LINE
  5
1B1
100
AcDbEntity
  8
ARJ70-0028
370
              15
390
0
  6
Continuous
 62
               7
100
AcDbLine
 10
452.90815295194125
 20
-526.64417978492884
 30
0.0
 11
449.52334935397312
 21
-457.05693126996266
 31
0.0
  0
LINE
  5
1B2
100
AcDbEntity
  8
ARJ70-0028
370
              15
390
0
  6
Continuous
 62
               7
100
AcDbLine
 10
535.40544767673987
 20
-521.72422677902046
 30
0.0
 11
531.73690312692702
 21
-451.72422677902046
 31
0.0
  0
ARC
  5
1B3
100
AcDbEntity
  8
ARJ70-0028
370
              15
390
0
  6
Continuous
 62
               7
100
AcDbCircle
 10
585.88145687902966
 20
-523.97951419340779
 30
0.0
 40
133.0000000000002
100
AcDbArc
 50
181.14800231622567
 51
267.14137115461142
  0
LINE
  5
1B4
100
AcDbEntity
  8
ARJ70-0028
370
              15
390
0
  6
Continuous
 62
               7
100
AcDbLine
 10
645.74469135412346
 20
-661.81401273212578
 30
0.0
 11
713.74889212070048
 21
-661.81401273212578
 31
0.0
  0
LINE
  5
1B5
100
AcDbEntity
  8
ARJ70-0028
370
              15
390
0
  6
Continuous
 62
               7
100
AcDbLine
 10
713.74889212070048
 20
-656.81401273212578
 30
0.0
 11
713.74889212070048
 21
-661.81401273212578
 31
0.0
  0
LINE
  5
1B6
100
AcDbEntity
  8
ARJ70-0028
370
              15
390
0
  6
Continuous
 62
               7
100
AcDbLine
 10
645.74473177661093
 20
-661.86644265945574
 30
0.0
 11
645.74083644825805
 21
-656.81401273212578
 31
0.0
  0
LINE
  5
1B7
100
AcDbEntity
  8
ARJ70-0028
370
              15
390
0
  6
Continuous
 62
               7
100
AcDbLine
 10
590.22770861759932
 20
-656.81401273212578
 30
0.0
 11
579.24850896973953
 21
-656.81401273212578
 31
0.0
  0
ARC
  5
1B8
100
AcDbEntity
  8
ARJ70-0028
370
              15
390
0
  6
Continuous
 62
               7
100
AcDbCircle
 10
607.98014598451459
 20
-631.43002712755469
 30
0.0
 40
8.0000000000002132
100
AcDbArc
 50
77.91089559223424
 51
160.00000000001077
  0
LINE
  5
1B9
100
AcDbEntity
  8
ARJ70-0028
370
              15
390
0
  6
Continuous
 62
               7
100
AcDbLine
 10
637.96394628198573
 20
-627.58137619778563
 30
0.0
 11
645.72331840658762
 21
-634.09226248570781
 31
0.0
  0
LINE
  5
1BA
100
AcDbEntity
  8
ARJ70-0028
370
              15
390
0
  6
Continuous
 62
               7
100
AcDbLine
 10
645.74083644825805
 20
-656.81401273212578
 30
0.0
 11
645.72331840658762
 21
-634.09226248570781
 31
0.0
  0
LINE
  5
1BB
100
AcDbEntity
  8
ARJ70-0028
370
              15
390
0
  6
Continuous
 62
               7
100
AcDbLine
 10
645.74083644825805
 20
-656.81401273212578
 30
0.0
 11
645.74469135412346
 21
-661.81401273212578
 31
0.0
  0
ARC
  5
1BC
100
AcDbEntity
  8
ARJ70-0028
370
              15
390
0
  6
Continuous
 62
               7
100
AcDbCircle
 10
651.54213094117949
 20
-428.04282628484179
 30
0.0
 40
200.0
100
AcDbArc
 50
257.91089559223457
 51
266.10714223452641
  0
LINE
  5
1BD
100
AcDbEntity
  8
ARJ70-0028
370
              15
390
0
  6
Continuous
 62
               7
100
AcDbLine
 10
600.46260501822348
 20
-628.6938659809548
 30
0.0
 11
590.22770861759932
 21
-656.81401273212578
 31
0.0
  0
ARC
  5
1BE
100
AcDbEntity
  8
ARJ70-0028
370
              15
390
0
  6
Continuous
 62
               7
100
AcDbCircle
 10
454.51744492614307
 20
-456.81401273212578
 30
0.0
 40
5.0
100
AcDbArc
 50
90.0
 51
182.78473763514575
  0
LINE
  5
1BF
100
AcDbEntity
  8
ARJ70-0028
370
              15
390
0
  6
Continuous
 62
               7
100
AcDbLine
 10
-784.7596926088645
 20
403.97057698567914
 30
0.0
 11
-626.01911890402152
 21
403.97057698567914
 31
0.0
  0
ARC
  5
1C0
100
AcDbEntity
  8
ARJ70-0028
370
              15
390
0
  6
Continuous
 62
               7
100
AcDbCircle
 10
-614.7224628445274
 20
306.90140173302052
 30
0.0
 40
97.466060010851081
100
AcDbArc
 50
43.451252737257725
 51
77.100286069457937
  0
ARC
  5
1C1
100
AcDbEntity
  8
ARJ70-0028
370
              15
390
0
  6
Continuous
 62
               7
100
AcDbCircle
 10
-611.33910714352169
 20
321.39517852473341
 30
0.0
 40
82.582778095138025
100
AcDbArc
 50
77.14351025638922
 51
90.765973134006686
  0
ARC
  5
1C2
100
AcDbEntity
  8
ARJ70-0028
370
              15
390
0
  6
Continuous
 62
               7
100
AcDbCircle
 10
-452.51626037160281
 20
453.5441285532529
 30
0.0
 40
121.24801557058599
100
AcDbArc
 50
221.04123664433348
 51
248.73964369557606
  0
ARC
  5
1C3
100
AcDbEntity
  8
ARJ70-0028
370
              15
390
0
  6
Continuous
 62
               7
100
AcDbCircle
 10
-445.01346894495396
 20
483.73737286237633
 30
0.0
 40
152.15837700194513
100
AcDbArc
 50
250.22949418633442
 51
263.9183509357365
  0
ARC
  5
1C4
100
AcDbEntity
  8
ARJ70-0028
370
              15
390
0
  6
Continuous
 62
               7
100
AcDbCircle
 10
-346.46856831794503
 20
1104.4087670207998
 30
0.0
 40
780.44289123093574
100
AcDbArc
 50
261.55131858615169
 51
270.19887099843362
  0
ARC
  5
1C5
100
AcDbEntity
  8
ARJ70-0028
370
              15
390
0
  6
Continuous
 62
               7
100
AcDbCircle
 10
-72.796922366725767
 20
306.90140173302052
 30
0.0
 40
97.46606001085101
100
AcDbArc
 50
102.89971393054198
 51
136.54874726274227
  0
ARC
  5
1C6
100
AcDbEntity
  8
ARJ70-0028
370
              15
390
0
  6
Continuous
 62
               7
100
AcDbCircle
 10
-76.180278067731706
 20
321.39517852473341
 30
0.0
 40
82.582778095137925
100
AcDbArc
 50
89.234026865993016
 51
102.85648974361047
  0
ARC
  5
1C7
100
AcDbEntity
  8
ARJ70-0028
370
              15
390
0
  6
Continuous
 62
               7
100
AcDbCircle
 10
-235.00312483965217
 20
453.5441285532529
 30
0.0
 40
121.24801557058687
100
AcDbArc
 50
291.26035630442465
 51
318.95876335566703
  0
ARC
  5
1C8
100
AcDbEntity
  8
ARJ70-0028
370
              15
390
0
  6
Continuous
 62
               7
100
AcDbCircle
 10
-242.50591626630217
 20
483.73737286237633
 30
0.0
 40
152.15837700194547
100
AcDbArc
 50
276.08164906426435
 51
289.77050581366638
  0
ARC
  5
1C9
100
AcDbEntity
  8
ARJ70-0028
370
              15
390
0
  6
Continuous
 62
               7
100
AcDbCircle
 10
-341.05081689331155
 20
1104.4087670207998
 30
0.0
 40
780.44289123093586
100
AcDbArc
 50
269.80112900156638
 51
278.44868141384853
  0
INSERT
  5
1CA
100
AcDbEntity
  8
ARJ70-0028
390
0
 62
               7
100
AcDbBlockReference
  2
グループ-1
 10
1580.1175578424363
 20
1165.5728133428358
 30
0.0
  0
POLYLINE
  5
1CB
100
AcDbEntity
  8
ARJ70-0028
370
              15
390
0
  6
Continuous
 62
               7
100
AcDb2dPolyline
 66
               1
 10
0.0
 20
0.0
 30
0.0
 70
               1
 75
               5
  0
VERTEX
  5
1CC
100
AcDbEntity
  8
ARJ70-0028
370
              15
390
0
  6
Continuous
 62
               7
100
AcDbVertex
100
AcDb2dVertex
 10
-379.13373814607576
 20
-656.81401273212578
 30
0.0
  0
VERTEX
  5
1CD
100
AcDbEntity
  8
ARJ70-0028
370
              15
390
0
  6
Continuous
 62
               7
100
AcDbVertex
100
AcDb2dVertex
 10
-309.13373814607576
 20
-656.81401273212578
 30
0.0
  0
VERTEX
  5
1CE
100
AcDbEntity
  8
ARJ70-0028
370
              15
390
0
  6
Continuous
 62
               7
100
AcDbVertex
100
AcDb2dVertex
 10
-309.13373814607576
 20
-661.81401273212578
 30
0.0
  0
VERTEX
  5
1CF
100
AcDbEntity
  8
ARJ70-0028
370
              15
390
0
  6
Continuous
 62
               7
100
AcDbVertex
100
AcDb2dVertex
 10
-379.13373814607576
 20
-661.81401273212578
 30
0.0
  0
SEQEND
  5
1D0
100
AcDbEntity
  8
ARJ70-0028
370
              15
390
0
  6
Continuous
 62
               7
  0
LINE
  5
1D1
100
AcDbEntity
  8
ARJ70-0028
370
              15
390
0
  6
STYLE_13
 62
               7
100
AcDbLine
 10
-402.13373814607576
 20
-481.77726687193854
 30
0.0
 11
-402.13373814607576
 21
-521.77726687193854
 31
0.0
  0
LINE
  5
1D2
100
AcDbEntity
  8
ARJ70-0028
370
              15
390
0
  6
STYLE_13
 62
               7
100
AcDbLine
 10
-422.13373814607576
 20
-501.77726687193854
 30
0.0
 11
-382.13373814607576
 21
-501.77726687193854
 31
0.0
  0
CIRCLE
  5
1D3
100
AcDbEntity
  8
ARJ70-0028
370
              15
390
0
  6
STYLE_13
 62
               7
100
AcDbCircle
 10
-402.13373814607576
 20
-501.77726687193854
 30
0.0
 40
10.000000000000162
  0
LINE
  5
1D4
100
AcDbEntity
  8
ARJ70-0028
370
              15
390
0
  6
STYLE_13
 62
               7
100
AcDbLine
 10
-286.13373814607576
 20
-481.77726687193854
 30
0.0
 11
-286.13373814607576
 21
-521.77726687193854
 31
0.0
  0
LINE
  5
1D5
100
AcDbEntity
  8
ARJ70-0028
370
              15
390
0
  6
STYLE_13
 62
               7
100
AcDbLine
 10
-306.13373814607576
 20
-501.77726687193854
 30
0.0
 11
-266.13373814607576
 21
-501.77726687193854
 31
0.0
  0
CIRCLE
  5
1D6
100
AcDbEntity
  8
ARJ70-0028
370
              15
390
0
  6
STYLE_13
 62
               7
100
AcDbCircle
 10
-286.13373814607576
 20
-501.77726687193854
 30
0.0
 40
10.000000000000162
  0
LINE
  5
1D7
100
AcDbEntity
  8
ARJ70-0028
370
              15
390
0
  6
Continuous
 62
               7
100
AcDbLine
 10
807.24486428447972
 20
-466.57726687193849
 30
0.0
 11
807.24486428447972
 21
-451.57726687193849
 31
0.0
  0
LINE
  5
1D8
100
AcDbEntity
  8
ARJ70-0028
370
              15
390
0
  6
Continuous
 62
               7
100
AcDbLine
 10
842.24486428447972
 20
-466.57726687193849
 30
0.0
 11
842.24486428447972
 21
-451.57726687193849
 31
0.0
  0
LINE
  5
1D9
100
AcDbEntity
  8
ARJ70-0028
370
              15
390
0
  6
STYLE_13
 62
               7
100
AcDbLine
 10
-321.13373814607576
 20
-661.81401273212578
 30
0.0
 11
-321.13373814607576
 21
-616.81447850258178
 31
0.0
  0
LINE
  5
1DA
100
AcDbEntity
  8
ARJ70-0028
370
              15
390
0
  6
STYLE_13
 62
               7
100
AcDbLine
 10
-367.13373814607576
 20
-661.81401273212578
 30
0.0
 11
-367.13373814607576
 21
-616.81447850258178
 31
0.0
  0
LINE
  5
1DB
100
AcDbEntity
  8
ARJ70-0028
370
              15
390
0
  6
STYLE_13
 62
               7
100
AcDbLine
 10
656.74679173741197
 20
-661.81401273212578
 30
0.0
 11
656.74486428447926
 21
-616.81401273407505
 31
0.0
  0
LINE
  5
1DC
100
AcDbEntity
  8
ARJ70-0028
370
              15
390
0
  6
STYLE_13
 62
               7
100
AcDbLine
 10
702.74679173741197
 20
-661.81401273212578
 30
0.0
 11
702.74486428447926
 21
-616.81401273407505
 31
0.0
  0
ARC
  5
1DD
100
AcDbEntity
  8
ARJ70-0028
370
              15
390
0
  6
STYLE_13
 62
               7
100
AcDbCircle
 10
770.06612001844542
 20
-456.81401273407141
 30
0.0
 40
5.0
100
AcDbArc
 50
90.0
 51
178.96227117051092
  0
ARC
  5
1DE
100
AcDbEntity
  8
ARJ70-0028
370
              15
390
0
  6
STYLE_13
 62
               7
100
AcDbCircle
 10
462.97491065003283
 20
-454.53012051635415
 30
0.0
 40
302.09999999999934
100
AcDbArc
 50
353.37999999999994
 51
359.57999999999998
  0
ARC
  5
1DF
100
AcDbEntity
  8
ARJ70-0028
370
              15
390
0
  6
STYLE_13
 62
               7
100
AcDbCircle
 10
462.97559512571797
 20
-454.49509703159765
 30
0.0
 40
302.09999999999962
100
AcDbArc
 50
348.59000000000003
 51
353.3900000000001
  0
ARC
  5
1E0
100
AcDbEntity
  8
ARJ70-0028
370
              15
390
0
  6
STYLE_13
 62
               7
100
AcDbCircle
 10
462.98554184208137
 20
-454.53466858189495
 30
0.0
 40
302.09999999999928
100
AcDbArc
 50
327.50999999999976
 51
348.58999999999997
  0
LINE
  5
1E1
100
AcDbEntity
  8
ARJ70-0028
370
              15
390
0
  6
STYLE_13
 62
               7
100
AcDbLine
 10
642.85004245002597
 20
-616.81401273407505
 30
0.0
 11
717.79885480186226
 21
-616.81401273407505
 31
0.0
  0
ARC
  5
1E2
100
AcDbEntity
  8
ARJ70-0028
370
              15
390
0
  6
STYLE_13
 62
               7
100
AcDbCircle
 10
645.07681796717293
 20
-446.52906851672606
 30
0.0
 40
170.30000000000277
100
AcDbArc
 50
183.30999999999997
 51
269.25000000000006
  0
ARC
  5
1E3
100
AcDbEntity
  8
ARJ70-0028
370
              15
390
0
  6
STYLE_13
 62
               7
100
AcDbCircle
 10
470.07035065738319
 20
-456.78989660649154
 30
0.0
 40
5.0000000000002878
100
AcDbArc
 50
5.2099999999999929
 51
90.0
  0
ARC
  5
1E4
100
AcDbEntity
  8
ARJ70-0028
370
              15
390
0
  6
STYLE_13
 62
               7
100
AcDbCircle
 10
-298.78418947775776
 20
-446.52906851672606
 30
0.0
 40
170.30000000000234
100
AcDbArc
 50
270.74999999999994
 51
356.68999999999994
  0
ARC
  5
1E5
100
AcDbEntity
  8
ARJ70-0028
370
              15
390
0
  6
STYLE_13
 62
               7
100
AcDbCircle
 10
-123.78618088510098
 20
-456.78989660649154
 30
0.0
 40
5.0
100
AcDbArc
 50
90.0
 51
175.08991702375604
  0
ARC
  5
1E6
100
AcDbEntity
  8
ARJ70-0028
370
              15
390
0
  6
STYLE_13
 62
               7
100
AcDbCircle
 10
-388.01030786349475
 20
-446.52906851672606
 30
0.0
 40
170.29999999999617
100
AcDbArc
 50
183.31000000000012
 51
269.25
  0
ARC
  5
1E7
100
AcDbEntity
  8
ARJ70-0028
370
              15
390
0
  6
STYLE_13
 62
               7
100
AcDbCircle
 10
-563.00875639902006
 20
-456.78989660649154
 30
0.0
 40
4.9999999999999618
100
AcDbArc
 50
4.9096515512772108
 51
90.0
  0
LINE
  5
1E8
100
AcDbEntity
  8
ARJ70-0028
370
              15
390
0
  6
STYLE_13
 62
               7
100
AcDbLine
 10
-390.23946598929456
 20
-616.81447850258178
 30
0.0
 11
-296.55503135195795
 21
-616.81447850258178
 31
0.0
  0
LINE
  5
1E9
100
AcDbEntity
  8
ARJ70-0028
370
              15
390
0
  6
STYLE_13
 62
               7
100
AcDbLine
 10
-44.133738146075757
 20
-481.77726687193854
 30
0.0
 11
-44.133738146075757
 21
-521.77726687193854
 31
0.0
  0
LINE
  5
1EA
100
AcDbEntity
  8
ARJ70-0028
370
              15
390
0
  6
STYLE_13
 62
               7
100
AcDbLine
 10
-64.133738146075757
 20
-501.77726687193854
 30
0.0
 11
-24.133738146075757
 21
-501.77726687193854
 31
0.0
  0
CIRCLE
  5
1EB
100
AcDbEntity
  8
ARJ70-0028
370
              15
390
0
  6
STYLE_13
 62
               7
100
AcDbCircle
 10
-44.133738146075757
 20
-501.77726687193854
 30
0.0
 40
10.000000000000162
  0
LINE
  5
1EC
100
AcDbEntity
  8
ARJ70-0028
370
              15
390
0
  6
STYLE_13
 62
               7
100
AcDbLine
 10
-644.13373814607576
 20
-481.77726687193854
 30
0.0
 11
-644.13373814607576
 21
-521.77726687193854
 31
0.0
  0
LINE
  5
1ED
100
AcDbEntity
  8
ARJ70-0028
370
              15
390
0
  6
STYLE_13
 62
               7
100
AcDbLine
 10
-664.13373814607576
 20
-501.77726687193854
 30
0.0
 11
-624.13373814607576
 21
-501.77726687193854
 31
0.0
  0
CIRCLE
  5
1EE
100
AcDbEntity
  8
ARJ70-0028
370
              15
390
0
  6
STYLE_13
 62
               7
100
AcDbCircle
 10
-644.13373814607576
 20
-501.77726687193854
 30
0.0
 40
10.000000000000162
  0
LINE
  5
1EF
100
AcDbEntity
  8
ARJ70-0028
370
              15
390
0
  6
Continuous
 62
               7
100
AcDbLine
 10
-784.75969260886632
 20
763.97057698567698
 30
0.0
 11
97.240307391131864
 21
763.97057698567698
 31
0.0
  0
LINE
  5
1F0
100
AcDbEntity
  8
ARJ70-0028
370
              15
390
0
  6
Continuous
 62
               7
100
AcDbLine
 10
97.240307391131864
 20
403.97057698567914
 30
0.0
 11
-75.076282176963559
 21
403.97057698567914
 31
0.0
  0
ENDSEC
  0
SECTION
  2
OBJECTS
  0
DICTIONARY
  5
19
100
AcDbDictionary
280
               0
281
               1
  3
ACAD_GROUP
350
1A
  3
ACAD_MLINESTYLE
350
1B
  3
ACAD_LAYOUT
350
1E
  3
ACAD_PLOTSETTINGS
350
22
  3
ACAD_PLOTSTYLENAME
350
1F
  0
DICTIONARY
  5
1A
102
{ACAD_REACTORS
330
19
102
}
100
AcDbDictionary
280
               0
281
               1
  0
DICTIONARY
  5
1B
102
{ACAD_REACTORS
330
19
102
}
100
AcDbDictionary
280
               0
281
               1
  3
Standard
350
1C
  0
MLINESTYLE
  5
1C
102
{ACAD_REACTORS
330
1B
102
}
100
AcDbMlineStyle
  2
Standard
 70
               0
  3

 62
               0
 51
90.0
 52
90.0
 71
               2
 49
0.5
 62
             256
  6
ByLayer
 49
-0.5
 62
             256
  6
ByLayer
  0
ACDBDICTIONARYWDFLT
  5
1F
102
{ACAD_REACTORS
330
19
102
}
100
AcDbDictionary
281
               1
  3
Normal
350
1D
100
AcDbDictionaryWithDefault
340
1D
  0
ACDBPLACEHOLDER
  5
1D
102
{ACAD_REACTORS
330
1F
102
}
  0
LAYOUT
  5
20
102
{ACAD_REACTORS
330
1E
102
}
100
AcDbPlotSettings
  1

  2

  4

  6

 40
0.0
 41
0.0
 42
0.0
 43
0.0
 44
0.0
 45
0.0
 46
0.0
 47
0.0
 48
0.0
 49
0.0
140
0.0
141
0.0
142
1.0
143
1.0
 70
            1024
 72
               0
 73
               0
 74
               0
  7

 75
               0
147
1.0
148
0.0
149
0.0
100
AcDbLayout
  1
Model
 70
               0
 71
               0
 10
0.0
 20
0.0
 11
0.0
 21
0.0
 12
0.0
 22
0.0
 32
0.0
 14
0.0
 24
0.0
 34
0.0
 15
0.0
 25
0.0
 35
0.0
146
0.0
 13
0.0
 23
0.0
 33
0.0
 16
0.0
 26
0.0
 36
0.0
 17
0.0
 27
0.0
 37
0.0
 76
               0
330
A
331
0
345
0
346
0
  0
LAYOUT
  5
21
102
{ACAD_REACTORS
330
1E
102
}
100
AcDbPlotSettings
  1

  2

  4

  6

 40
0.0
 41
0.0
 42
0.0
 43
0.0
 44
0.0
 45
0.0
 46
0.0
 47
0.0
 48
0.0
 49
0.0
140
0.0
141
0.0
142
1.0
143
1.0
 70
               0
 72
               0
 73
               0
 74
               0
  7

 75
               0
147
1.0
148
0.0
149
0.0
100
AcDbLayout
  1
Layout1
 70
               0
 71
               0
 10
0.0
 20
0.0
 11
0.0
 21
0.0
 12
0.0
 22
0.0
 32
0.0
 14
0.0
 24
0.0
 34
0.0
 15
0.0
 25
0.0
 35
0.0
146
0.0
 13
0.0
 23
0.0
 33
0.0
 16
0.0
 26
0.0
 36
0.0
 17
0.0
 27
0.0
 37
0.0
 76
               0
330
B
331
0
345
0
346
0
  0
DICTIONARY
  5
1E
102
{ACAD_REACTORS
330
19
102
}
100
AcDbDictionary
280
               0
281
               1
  3
Layout1
350
21
  3
Model
350
20
  0
DICTIONARY
  5
22
102
{ACAD_REACTORS
330
19
102
}
100
AcDbDictionary
280
               0
281
               1
  0
ENDSEC
  0
EOF
