  0
SECTION
  2
HEADER
  9
$ACADVER
  1
AC1015
  9
$ACADMAINTVER
 70
               6
  9
$DWGCODEPAGE
  3
ANSI_932
  9
$INSBASE
 10
0.0
 20
0.0
 30
0.0
  9
$EXTMIN
 10
-975.00000000024124
 20
-1418.7614075562064
 30
-14.834305555555552
  9
$EXTMAX
 10
975.00000000024124
 20
1418.761407556206
 30
14.834305555555552
  9
$LIMMIN
 10
0.0
 20
0.0
  9
$LIMMAX
 10
0.0
 20
0.0
  9
$ORTHOMODE
 70
               0
  9
$REGENMODE
 70
               1
  9
$FILLMODE
 70
               1
  9
$QTEXTMODE
 70
               0
  9
$MIRRTEXT
 70
               1
  9
$LTSCALE
 40
25.399999999999999
  9
$ATTMODE
 70
               1
  9
$TEXTSIZE
 40
0.2
  9
$TRACEWID
 40
1.0
  9
$TEXTSTYLE
  7
Standard
  9
$CLAYER
  8
ARJ70-0104
  9
$CELTYPE
  6
Continuous
  9
$CECOLOR
 62
             256
  9
$CELTSCALE
 40
1.0
  9
$DISPSILH
 70
               0
  9
$DIMSCALE
 40
1.0
  9
$DIMASZ
 40
31.75
  9
$DIMEXO
 40
0.0
  9
$DIMDLI
 40
6.9999999999999396
  9
$DIMRND
 40
0.0
  9
$DIMDLE
 40
0.0
  9
$DIMEXE
 40
19.999999999996199
  9
$DIMTP
 40
0.0
  9
$DIMTM
 40
0.0
  9
$DIMTXT
 40
24.432617187500004
  9
$DIMCEN
 40
0.0
  9
$DIMTSZ
 40
0.0
  9
$DIMTOL
 70
               0
  9
$DIMLIM
 70
               0
  9
$DIMTIH
 70
               0
  9
$DIMTOH
 70
               0
  9
$DIMSE1
 70
               0
  9
$DIMSE2
 70
               0
  9
$DIMTAD
 70
               1
  9
$DIMZIN
 70
              11
  9
$DIMBLK
  1
VW_FILLEDARROW
  9
$DIMASO
 70
               1
  9
$DIMSHO
 70
               1
  9
$DIMPOST
  1
<>
  9
$DIMAPOST
  1
[]
  9
$DIMALT
 70
               0
  9
$DIMALTD
 70
               1
  9
$DIMALTF
 40
1.0
  9
$DIMLFAC
 40
1.0
  9
$DIMTOFL
 70
               0
  9
$DIMTVP
 40
0.0
  9
$DIMTIX
 70
               1
  9
$DIMSOXD
 70
               0
  9
$DIMSAH
 70
               0
  9
$DIMBLK1
  1

  9
$DIMBLK2
  1

  9
$DIMSTYLE
  2
JIS
  9
$DIMCLRD
 70
               0
  9
$DIMCLRE
 70
               0
  9
$DIMCLRT
 70
               0
  9
$DIMTFAC
 40
1.0
  9
$DIMGAP
 40
1.00000000000108
  9
$DIMJUST
 70
               0
  9
$DIMSD1
 70
               0
  9
$DIMSD2
 70
               0
  9
$DIMTOLJ
 70
               1
  9
$DIMTZIN
 70
              11
  9
$DIMALTZ
 70
              11
  9
$DIMALTTZ
 70
              11
  9
$DIMUPT
 70
               0
  9
$DIMDEC
 70
               1
  9
$DIMTDEC
 70
               1
  9
$DIMALTU
 70
               2
  9
$DIMALTTD
 70
               2
  9
$DIMTXSTY
  7
ＭＳ ゴシック
  9
$DIMAUNIT
 70
               0
  9
$DIMADEC
 70
               2
  9
$DIMALTRND
 40
0.0
  9
$DIMAZIN
 70
               0
  9
$DIMDSEP
 70
              46
  9
$DIMATFIT
 70
               0
  9
$DIMFRAC
 70
               2
  9
$DIMLDRBLK
  1

  9
$DIMLUNIT
 70
               2
  9
$DIMLWD
 70
              -2
  9
$DIMLWE
 70
              -2
  9
$DIMTMOVE
 70
               0
  9
$LUNITS
 70
               2
  9
$LUPREC
 70
               4
  9
$SKETCHINC
 40
0.1
  9
$FILLETRAD
 40
0.0
  9
$AUNITS
 70
               0
  9
$AUPREC
 70
               0
  9
$MENU
  1
acad
  9
$ELEVATION
 40
0.0
  9
$PELEVATION
 40
0.0
  9
$THICKNESS
 40
0.0
  9
$LIMCHECK
 70
               0
  9
$CHAMFERA
 40
0.0
  9
$CHAMFERB
 40
0.0
  9
$CHAMFERC
 40
0.0
  9
$CHAMFERD
 40
0.0
  9
$SKPOLY
 70
               0
  9
$TDCREATE
 40
2455582.396898148
  9
$TDUCREATE
 40
0.000000000
  9
$TDUPDATE
 40
2455582.396898148
  9
$TDUUPDATE
 40
0.000000000
  9
$TDINDWG
 40
0.0000000000
  9
$TDUSRTIMER
 40
0.0000000000
  9
$USRTIMER
 70
               1
  9
$ANGBASE
 50
0.0
  9
$ANGDIR
 70
               0
  9
$PDMODE
 70
               1
  9
$PDSIZE
 40
-2.0
  9
$PLINEWID
 40
0.0
  9
$SPLFRAME
 70
               0
  9
$SPLINETYPE
 70
               6
  9
$SPLINESEGS
 70
               8
  9
$HANDSEED
  5
1E9
  9
$SURFTAB1
 70
               6
  9
$SURFTAB2
 70
               6
  9
$SURFTYPE
 70
               6
  9
$SURFU
 70
               6
  9
$SURFV
 70
               6
  9
$UCSBASE
  2

  9
$UCSNAME
  2

  9
$UCSORG
 10
0.0
 20
0.0
 30
0.0
  9
$UCSXDIR
 10
1.0
 20
0.0
 30
0.0
  9
$UCSYDIR
 10
0.0
 20
1.0
 30
0.0
  9
$UCSORTHOREF
  2

  9
$UCSORTHOVIEW
 70
               0
  9
$UCSORGTOP
 10
0.0
 20
0.0
 30
0.0
  9
$UCSORGBOTTOM
 10
0.0
 20
0.0
 30
0.0
  9
$UCSORGLEFT
 10
0.0
 20
0.0
 30
0.0
  9
$UCSORGRIGHT
 10
0.0
 20
0.0
 30
0.0
  9
$UCSORGFRONT
 10
0.0
 20
0.0
 30
0.0
  9
$UCSORGBACK
 10
0.0
 20
0.0
 30
0.0
  9
$PUCSBASE
  2

  9
$PUCSNAME
  2

  9
$PUCSORG
 10
0.0
 20
0.0
 30
0.0
  9
$PUCSXDIR
 10
1.0
 20
0.0
 30
0.0
  9
$PUCSYDIR
 10
0.0
 20
1.0
 30
0.0
  9
$PUCSORTHOREF
  2

  9
$PUCSORTHOVIEW
 70
               0
  9
$PUCSORGTOP
 10
0.0
 20
0.0
 30
0.0
  9
$PUCSORGBOTTOM
 10
0.0
 20
0.0
 30
0.0
  9
$PUCSORGLEFT
 10
0.0
 20
0.0
 30
0.0
  9
$PUCSORGRIGHT
 10
0.0
 20
0.0
 30
0.0
  9
$PUCSORGFRONT
 10
0.0
 20
0.0
 30
0.0
  9
$PUCSORGBACK
 10
0.0
 20
0.0
 30
0.0
  9
$USERI1
 70
               0
  9
$USERI2
 70
               0
  9
$USERI3
 70
               0
  9
$USERI4
 70
               0
  9
$USERI5
 70
               0
  9
$USERR1
 40
0.0
  9
$USERR2
 40
0.0
  9
$USERR3
 40
0.0
  9
$USERR4
 40
0.0
  9
$USERR5
 40
0.0
  9
$WORLDVIEW
 70
               1
  9
$SHADEDGE
 70
               3
  9
$SHADEDIF
 70
              70
  9
$TILEMODE
 70
               1
  9
$MAXACTVP
 70
              64
  9
$PINSBASE
 10
0.0
 20
0.0
 30
0.0
  9
$PLIMCHECK
 70
               0
  9
$PEXTMIN
 10
1.0000000000000000E+20
 20
1.0000000000000000E+20
 30
1.0000000000000000E+20
  9
$PEXTMAX
 10
-1.0000000000000000E+20
 20
-1.0000000000000000E+20
 30
-1.0000000000000000E+20
  9
$PLIMMIN
 10
0.0
 20
0.0
  9
$PLIMMAX
 10
12.0
 20
9.0
  9
$UNITMODE
 70
               0
  9
$VISRETAIN
 70
               0
  9
$PLINEGEN
 70
               1
  9
$PSLTSCALE
 70
               0
  9
$TREEDEPTH
 70
            3020
  9
$CMLSTYLE
  2
Standard
  9
$CMLJUST
 70
               0
  9
$CMLSCALE
 40
1.0
  9
$PROXYGRAPHICS
 70
               0
  9
$MEASUREMENT
 70
               1
  9
$CELWEIGHT
370
               0
  9
$ENDCAPS
280
               0
  9
$JOINSTYLE
280
               0
  9
$LWDISPLAY
290
               1
  9
$INSUNITS
 70
               4
  9
$HYPERLINKBASE
  1

  9
$STYLESHEET
  1

  9
$XEDIT
290
               1
  9
$CEPSNTYPE
380
               0
  9
$PSTYLEMODE
290
               1
  9
$FINGERPRINTGUID
  2

  9
$VERSIONGUID
  2

  9
$EXTNAMES
290
               1
  9
$PSVPSCALE
 40
0.0
  0
ENDSEC
  0
SECTION
  2
CLASSES
  0
CLASS
  1
LWPOLYLINE
  2
AcDbPolyline
  3
AutoCAD 2000
 90
        0
280
               0
281
               1
  0
CLASS
  1
IMAGE
  2
AcDbRasterImage
  3
ISM
 90
      127
280
               0
281
               1
  0
CLASS
  1
OLE2FRAME
  2
AcDbOle2Frame
  3
AutoCAD 2000
 90
        0
280
               0
281
               1
  0
CLASS
  1
HATCH
  2
AcDbHatch
  3
AutoCAD 2000
 90
        0
280
               0
281
               1
  0
CLASS
  1
DICTIONARYVAR
  2
AcDbDictionaryVar
  3
AutoCAD 2000
 90
        0
280
               0
281
               0
  0
CLASS
  1
RASTERVARIABLES
  2
AcDbRasterVariables
  3
ISM
 90
        0
280
               0
281
               0
  0
CLASS
  1
IMAGEDEF
  2
AcDbRasterImageDef
  3
ISM
 90
        0
280
               0
281
               0
  0
CLASS
  1
IMAGEDEF_REACTOR
  2
AcDbRasterImageDefReactor
  3
ISM
 90
        1
280
               0
281
               0
  0
CLASS
  1
IDBUFFER
  2
AcDbIdBuffer
  3
AutoCAD 2000
 90
        0
280
               0
281
               0
  0
CLASS
  1
SPATIAL_FILTER
  2
AcDbSpatialFilter
  3
AutoCAD 2000
 90
        0
280
               0
281
               0
  0
CLASS
  1
XRECORD
  2
AcDbXrecord
  3
AutoCAD 2000
 90
        0
280
               0
281
               0
  0
CLASS
  1
SORTENTSTABLE
  2
AcDbSortentsTable
  3
AutoCAD 2000
 90
        0
280
               0
281
               0
  0
CLASS
  1
LAYER_INDEX
  2
AcDbLayerIndex
  3
AutoCAD 2000
 90
        0
280
               0
281
               0
  0
CLASS
  1
SPATIAL_INDEX
  2
AcDbSpatialIndex
  3
AutoCAD 2000
 90
        0
280
               0
281
               0
  0
CLASS
  1
OBJECT_PTR
  2
CAseDLPNTableRecord
  3
"ASE-LPNTableRecord"
 90
        1
280
               0
281
               0
  0
CLASS
  1
LAYOUT
  2
AcDbLayout
  3
AutoCAD 2000
 90
        0
280
               0
281
               0
  0
CLASS
  1
PLOTSETTINGS
  2
AcDbPlotSettings
  3
AutoCAD 2000
 90
        0
280
               0
281
               0
  0
CLASS
  1
ACDBDICTIONARYWDFLT
  2
AcDbDictionaryWithDefault
  3
AutoCAD 2000
 90
        0
280
               0
281
               0
  0
CLASS
  1
ACDBPLACEHOLDER
  2
AcDbPlaceHolder
  3
AutoCAD 2000
 90
        0
280
               0
281
               0
  0
ENDSEC
  0
SECTION
  2
TABLES
  0
TABLE
  2
VPORT
  5
7
100
AcDbSymbolTable
 70
               1
  0
VPORT
  5
15
100
AcDbSymbolTableRecord
100
AcDbViewportTableRecord
  2
*ACTIVE
 70
               0
 10
0.0
 20
0.0
 11
1.0
 21
1.0
 12
0.0
 22
-0.0000000000002274
 13
0.0
 23
0.0
 14
1.0
 24
1.0
 15
0.0
 25
0.0
 16
0.0
 26
0.0
 36
1.0
 17
0.0
 27
0.0
 37
0.0
 40
2837.5228151124124
 41
0.688564
 42
50.0
 43
0.0
 44
0.0
 50
0.0
 51
0.0
 71
               0
 72
            2000
 73
               1
 74
               1
 75
               0
 76
               0
 77
               0
 78
               0
281
               0
 65
               0
110
0.0
120
0.0
130
0.0
111
1.0
121
0.0
131
0.0
112
0.0
122
1.0
132
0.0
345
0
346
0
 79
               0
146
0.0
  0
ENDTAB
  0
TABLE
  2
LTYPE
  5
4
100
AcDbSymbolTable
 70
              16
  0
LTYPE
  5
11
100
AcDbSymbolTableRecord
100
AcDbLinetypeTableRecord
  2
ByBlock
 70
              64
  3

 72
              65
 73
               0
 40
0.0
  0
LTYPE
  5
12
100
AcDbSymbolTableRecord
100
AcDbLinetypeTableRecord
  2
ByLayer
 70
              64
  3

 72
              65
 73
               0
 40
0.0
  0
LTYPE
  5
13
100
AcDbSymbolTableRecord
100
AcDbLinetypeTableRecord
  2
Continuous
 70
              64
  3
Solid line
 72
              65
 73
               0
 40
0.0
  0
LTYPE
  5
3A
100
AcDbSymbolTableRecord
100
AcDbLinetypeTableRecord
  2
STYLE_01
 70
               0
  3

 72
              65
 73
               4
 40
0.078740157480315
 49
0.0492125984251968
 74
               0
 49
-0.0098425196850394
 74
               0
 49
0.0098425196850394
 74
               0
 49
-0.0098425196850394
 74
               0
  0
LTYPE
  5
3B
100
AcDbSymbolTableRecord
100
AcDbLinetypeTableRecord
  2
STYLE_02
 70
               0
  3

 72
              65
 73
               2
 40
0.0590551181102362
 49
0.0393700787401574
 74
               0
 49
-0.0196850393700788
 74
               0
  0
LTYPE
  5
3C
100
AcDbSymbolTableRecord
100
AcDbLinetypeTableRecord
  2
STYLE_03
 70
               0
  3

 72
              65
 73
               2
 40
0.7499999999999998
 49
0.5
 74
               0
 49
-0.2499999999999998
 74
               0
  0
LTYPE
  5
3D
100
AcDbSymbolTableRecord
100
AcDbLinetypeTableRecord
  2
STYLE_04
 70
               0
  3

 72
              65
 73
               4
 40
0.078740157480315
 49
0.0492125984251968
 74
               0
 49
-0.0098425196850394
 74
               0
 49
0.0098425196850394
 74
               0
 49
-0.0098425196850394
 74
               0
  0
LTYPE
  5
3E
100
AcDbSymbolTableRecord
100
AcDbLinetypeTableRecord
  2
STYLE_05
 70
               0
  3

 72
              65
 73
               2
 40
0.1388854980468748
 49
0.0972137451171874
 74
               0
 49
-0.0416717529296874
 74
               0
  0
LTYPE
  5
3F
100
AcDbSymbolTableRecord
100
AcDbLinetypeTableRecord
  2
STYLE_06
 70
               0
  3

 72
              65
 73
               4
 40
2.0832800000000002
 49
1.25
 74
               0
 49
-0.41656
 74
               0
 49
0.1388600000000001
 74
               0
 49
-0.2778600000000001
 74
               0
  0
LTYPE
  5
40
100
AcDbSymbolTableRecord
100
AcDbLinetypeTableRecord
  2
STYLE_07
 70
               0
  3

 72
              65
 73
               6
 40
3.75
 49
1.25
 74
               0
 49
-0.41656
 74
               0
 49
1.2500000000000002
 74
               0
 49
-0.4167199999999999
 74
               0
 49
0.1388600000000001
 74
               0
 49
-0.2778599999999998
 74
               0
  0
LTYPE
  5
41
100
AcDbSymbolTableRecord
100
AcDbLinetypeTableRecord
  2
STYLE_08
 70
               0
  3

 72
              65
 73
               6
 40
2.5
 49
1.25
 74
               0
 49
-0.41656
 74
               0
 49
0.1388600000000001
 74
               0
 49
-0.2778600000000001
 74
               0
 49
0.1388599999999998
 74
               0
 49
-0.2778600000000001
 74
               0
  0
LTYPE
  5
42
100
AcDbSymbolTableRecord
100
AcDbLinetypeTableRecord
  2
STYLE_09
 70
               0
  3

 72
              65
 73
               4
 40
10.0
 49
7.5
 74
               0
 49
-0.5555699999999997
 74
               0
 49
1.3888600000000006
 74
               0
 49
-0.5555699999999997
 74
               0
  0
LTYPE
  5
43
100
AcDbSymbolTableRecord
100
AcDbLinetypeTableRecord
  2
STYLE_10
 70
               0
  3

 72
              65
 73
               6
 40
11.875
 49
7.5
 74
               0
 49
-0.5555699999999997
 74
               0
 49
1.3888600000000006
 74
               0
 49
-0.5555699999999997
 74
               0
 49
1.25
 74
               0
 49
-0.625
 74
               0
  0
LTYPE
  5
44
100
AcDbSymbolTableRecord
100
AcDbLinetypeTableRecord
  2
STYLE_11
 70
               0
  3

 72
              65
 73
               2
 40
0.1388889763779528
 49
0.0694444881889764
 74
               0
 49
-0.0694444881889764
 74
               0
  0
LTYPE
  5
45
100
AcDbSymbolTableRecord
100
AcDbLinetypeTableRecord
  2
STYLE_12
 70
               0
  3

 72
              65
 73
               2
 40
0.3472222222222222
 49
0.2083333333333333
 74
               0
 49
-0.1388888888888889
 74
               0
  0
LTYPE
  5
46
100
AcDbSymbolTableRecord
100
AcDbLinetypeTableRecord
  2
STYLE_13
 70
               0
  3

 72
              65
 73
               2
 40
0.7874015748031495
 49
0.3937007874015748
 74
               0
 49
-0.3937007874015748
 74
               0
  0
ENDTAB
  0
TABLE
  2
LAYER
  5
2
100
AcDbSymbolTable
 70
               5
  0
LAYER
  5
14
100
AcDbSymbolTableRecord
100
AcDbLayerTableRecord
  2
0
 70
               0
 62
               7
  6
Continuous
290
               1
370
              -3
390
1D
  0
LAYER
  5
47
100
AcDbSymbolTableRecord
100
AcDbLayerTableRecord
  2
Defpoints
 70
               0
 62
               7
  6
Continuous
290
               0
370
              -3
390
1D
  0
LAYER
  5
48
100
AcDbSymbolTableRecord
100
AcDbLayerTableRecord
  2
template
 70
               0
 62
               7
  6
Continuous
290
               1
370
              -3
390
1D
  0
LAYER
  5
49
100
AcDbSymbolTableRecord
100
AcDbLayerTableRecord
  2
notes
 70
               0
 62
               7
  6
Continuous
290
               1
370
              -3
390
1D
  0
LAYER
  5
4A
100
AcDbSymbolTableRecord
100
AcDbLayerTableRecord
  2
ARJ70-0104
 70
               0
 62
               7
  6
Continuous
290
               1
370
              -3
390
1D
  0
ENDTAB
  0
TABLE
  2
STYLE
  5
3
100
AcDbSymbolTable
 70
               2
  0
STYLE
  5
17
100
AcDbSymbolTableRecord
100
AcDbTextStyleTableRecord
  2
Standard
 70
               0
 40
0.0
 41
1.0
 50
0.0
 71
               0
 42
0.0
  3
txt
  4
BIGFONT.SHX
  0
STYLE
  5
39
100
AcDbSymbolTableRecord
100
AcDbTextStyleTableRecord
  2
ＭＳ ゴシック
 70
               0
 40
0.0
 41
1.0
 50
0.0
 71
               0
 42
0.0
  3

  4
ＭＳ ゴシック
1001
ACAD
1000
ＭＳ ゴシック
1071
        0
  0
ENDTAB
  0
TABLE
  2
VIEW
  5
5
100
AcDbSymbolTable
 70
               0
  0
ENDTAB
  0
TABLE
  2
UCS
  5
6
100
AcDbSymbolTable
 70
               0
  0
ENDTAB
  0
TABLE
  2
APPID
  5
8
100
AcDbSymbolTable
 70
               1
  0
APPID
  5
16
100
AcDbSymbolTableRecord
100
AcDbRegAppTableRecord
  2
ACAD
 70
               0
  0
ENDTAB
  0
TABLE
  2
DIMSTYLE
  5
9
100
AcDbSymbolTable
 70
               3
100
AcDbDimStyleTable
 71
               0
  0
DIMSTYLE
105
18
100
AcDbSymbolTableRecord
100
AcDbDimStyleTableRecord
  2
Standard
 70
               0
  3

  4

 40
1.0
 41
0.18
 42
0.0625
 43
0.38
 44
0.18
 45
0.0
 46
0.0
 47
0.0
 48
0.0
 71
               0
 72
               0
 73
               1
 74
               1
 75
               0
 76
               0
 77
               0
 78
               0
 79
               0
140
0.18
141
0.09
142
0.0
143
25.399999999999999
144
1.0
145
0.0
146
1.0
147
0.09
148
0.0
170
               0
171
               2
172
               0
173
               0
174
               0
175
               0
176
               0
177
               0
178
               0
179
               0
271
               4
272
               4
273
               2
274
               2
275
               0
276
               0
277
               2
278
              46
279
               0
280
               0
281
               0
282
               0
283
               1
284
               0
285
               0
286
               0
288
               0
289
               3
340
17
341
0
342
0
343
0
344
0
371
              -2
372
              -2
  0
DIMSTYLE
105
53
100
AcDbSymbolTableRecord
100
AcDbDimStyleTableRecord
  2
tform線あり
 70
               0
  3
<>
  4
[]
 40
1.0
 41
3.999755859375
 42
24.999999999999996
 43
0.9999999999999999
 44
0.0
 45
0.0
 46
0.0
 47
0.0
 48
0.0
 71
               0
 72
               0
 73
               0
 74
               0
 75
               0
 76
               0
 77
               1
 78
              11
 79
               0
140
24.432617187500004
141
0.0
142
0.0
143
1.0
144
1.0
145
0.0
146
1.0
147
0.4999999999999999
148
0.0
170
               0
171
               1
172
               0
173
               0
174
               1
175
               0
176
               0
177
               0
178
               0
179
               2
271
               1
272
               1
273
               2
274
               2
275
               0
276
               2
277
               2
278
              46
279
               0
280
               0
281
               0
282
               0
283
               1
284
              11
285
              11
286
              11
288
               0
289
               0
340
39
341
4B
342
4B
343
0
344
0
371
              -2
372
              -2
  0
DIMSTYLE
105
58
100
AcDbSymbolTableRecord
100
AcDbDimStyleTableRecord
  2
JIS
 70
               0
  3
<>
  4
[]
 40
1.0
 41
31.75
 42
0.0
 43
6.9999999999999396
 44
19.999999999996199
 45
0.0
 46
0.0
 47
0.0
 48
0.0
 71
               0
 72
               0
 73
               0
 74
               0
 75
               0
 76
               0
 77
               1
 78
              11
 79
               0
140
24.432617187500004
141
0.0
142
0.0
143
1.0
144
1.0
145
0.0
146
1.0
147
1.00000000000108
148
0.0
170
               0
171
               1
172
               0
173
               0
174
               1
175
               0
176
               0
177
               0
178
               0
179
               2
271
               1
272
               1
273
               2
274
               2
275
               0
276
               2
277
               2
278
              46
279
               0
280
               0
281
               0
282
               0
283
               1
284
              11
285
              11
286
              11
288
               0
289
               0
340
39
341
54
342
54
343
0
344
0
371
              -2
372
              -2
  0
ENDTAB
  0
TABLE
  2
BLOCK_RECORD
  5
1
100
AcDbSymbolTable
 70
              24
  0
BLOCK_RECORD
  5
A
100
AcDbSymbolTableRecord
100
AcDbBlockTableRecord
  2
*MODEL_SPACE
340
20
  0
BLOCK_RECORD
  5
B
100
AcDbSymbolTableRecord
100
AcDbBlockTableRecord
  2
*PAPER_SPACE
340
21
  0
BLOCK_RECORD
  5
4B
100
AcDbSymbolTableRecord
100
AcDbBlockTableRecord
  2
_DOT
340
0
  0
BLOCK_RECORD
  5
54
100
AcDbSymbolTableRecord
100
AcDbBlockTableRecord
  2
VW_FILLEDARROW
340
0
  0
BLOCK_RECORD
  5
23
100
AcDbSymbolTableRecord
100
AcDbBlockTableRecord
  2
*D2
340
0
  0
BLOCK_RECORD
  5
24
100
AcDbSymbolTableRecord
100
AcDbBlockTableRecord
  2
*D3
340
0
  0
BLOCK_RECORD
  5
25
100
AcDbSymbolTableRecord
100
AcDbBlockTableRecord
  2
*D4
340
0
  0
BLOCK_RECORD
  5
26
100
AcDbSymbolTableRecord
100
AcDbBlockTableRecord
  2
*D5
340
0
  0
BLOCK_RECORD
  5
27
100
AcDbSymbolTableRecord
100
AcDbBlockTableRecord
  2
*D6
340
0
  0
BLOCK_RECORD
  5
28
100
AcDbSymbolTableRecord
100
AcDbBlockTableRecord
  2
*D7
340
0
  0
BLOCK_RECORD
  5
29
100
AcDbSymbolTableRecord
100
AcDbBlockTableRecord
  2
*D8
340
0
  0
BLOCK_RECORD
  5
2A
100
AcDbSymbolTableRecord
100
AcDbBlockTableRecord
  2
*D9
340
0
  0
BLOCK_RECORD
  5
2B
100
AcDbSymbolTableRecord
100
AcDbBlockTableRecord
  2
*D10
340
0
  0
BLOCK_RECORD
  5
2C
100
AcDbSymbolTableRecord
100
AcDbBlockTableRecord
  2
*D11
340
0
  0
BLOCK_RECORD
  5
2D
100
AcDbSymbolTableRecord
100
AcDbBlockTableRecord
  2
*D12
340
0
  0
BLOCK_RECORD
  5
2E
100
AcDbSymbolTableRecord
100
AcDbBlockTableRecord
  2
*D13
340
0
  0
BLOCK_RECORD
  5
2F
100
AcDbSymbolTableRecord
100
AcDbBlockTableRecord
  2
*D14
340
0
  0
BLOCK_RECORD
  5
30
100
AcDbSymbolTableRecord
100
AcDbBlockTableRecord
  2
*D15
340
0
  0
BLOCK_RECORD
  5
31
100
AcDbSymbolTableRecord
100
AcDbBlockTableRecord
  2
*D16
340
0
  0
BLOCK_RECORD
  5
32
100
AcDbSymbolTableRecord
100
AcDbBlockTableRecord
  2
*D17
340
0
  0
BLOCK_RECORD
  5
33
100
AcDbSymbolTableRecord
100
AcDbBlockTableRecord
  2
*D18
340
0
  0
BLOCK_RECORD
  5
34
100
AcDbSymbolTableRecord
100
AcDbBlockTableRecord
  2
*D19
340
0
  0
BLOCK_RECORD
  5
35
100
AcDbSymbolTableRecord
100
AcDbBlockTableRecord
  2
*D20
340
0
  0
BLOCK_RECORD
  5
36
100
AcDbSymbolTableRecord
100
AcDbBlockTableRecord
  2
*D21
340
0
  0
BLOCK_RECORD
  5
37
100
AcDbSymbolTableRecord
100
AcDbBlockTableRecord
  2
グループ
340
0
102
{BLKREFS
331
197
102
}
  0
BLOCK_RECORD
  5
38
100
AcDbSymbolTableRecord
100
AcDbBlockTableRecord
  2
グループ-1
340
0
102
{BLKREFS
331
1C5
102
}
  0
ENDTAB
  0
ENDSEC
  0
SECTION
  2
BLOCKS
  0
BLOCK
  5
D
100
AcDbEntity
  8
0
390
0
100
AcDbBlockBegin
  2
*MODEL_SPACE
 70
               0
 10
0.0
 20
0.0
 30
0.0
  3
*MODEL_SPACE
  1

  0
ENDBLK
  5
E
100
AcDbEntity
  8
0
390
0
100
AcDbBlockEnd
  0
BLOCK
  5
F
100
AcDbEntity
 67
               1
  8
0
390
0
100
AcDbBlockBegin
  2
*PAPER_SPACE
 70
               0
 10
0.0
 20
0.0
 30
0.0
  3
*PAPER_SPACE
  1

  0
ENDBLK
  5
10
100
AcDbEntity
 67
               1
  8
0
390
0
100
AcDbBlockEnd
  0
BLOCK
  5
4C
100
AcDbEntity
  8
0
390
0
100
AcDbBlockBegin
  2
_DOT
 70
               0
 10
0.0
 20
0.0
 30
0.0
  3
_DOT
  1

  0
POLYLINE
  5
4D
100
AcDbEntity
  8
0
370
              -2
390
0
  6
ByBlock
 62
               0
100
AcDb2dPolyline
 66
               1
 10
0.0
 20
0.0
 30
0.0
 70
               1
 40
0.5
 41
0.5
  0
VERTEX
  5
4E
100
AcDbEntity
  8
0
370
              -2
390
0
  6
ByBlock
 62
               0
100
AcDbVertex
100
AcDb2dVertex
 10
-0.25
 20
0.0
 30
0.0
 42
1.0
  0
VERTEX
  5
4F
100
AcDbEntity
  8
0
370
              -2
390
0
  6
ByBlock
 62
               0
100
AcDbVertex
100
AcDb2dVertex
 10
0.25
 20
0.0
 30
0.0
 42
1.0
  0
SEQEND
  5
50
100
AcDbEntity
  8
0
390
0
  0
LINE
  5
51
100
AcDbEntity
  8
0
370
              -2
390
0
  6
ByBlock
 62
               0
100
AcDbLine
 10
-0.5
 20
0.0
 30
0.0
 11
-1.0
 21
0.0
 31
0.0
  0
ENDBLK
  5
52
100
AcDbEntity
  8
0
390
0
100
AcDbBlockEnd
  0
BLOCK
  5
55
100
AcDbEntity
  8
0
370
              -2
390
0
  6
ByBlock
 62
               0
100
AcDbBlockBegin
  2
VW_FILLEDARROW
 70
               0
 10
0.0
 20
0.0
 30
0.0
  3
VW_FILLEDARROW
  1

  0
SOLID
  5
56
100
AcDbEntity
  8
0
370
              -2
390
0
 62
               0
100
AcDbTrace
 10
0.0
 20
0.0
 30
0.0
 11
-0.9921874999999999
 21
-0.2658558393652545
 31
0.0
 12
-0.9921874999999999
 22
0.2658558393652548
 32
0.0
 13
-0.9921874999999999
 23
0.2658558393652548
 33
0.0
  0
ENDBLK
  5
57
100
AcDbEntity
  8
0
390
0
100
AcDbBlockEnd
  0
BLOCK
  5
59
100
AcDbEntity
  8
notes
390
0
100
AcDbBlockBegin
  2
*D2
 70
               1
 10
0.0
 20
0.0
 30
0.0
  3
*D2
  1

  0
LINE
  5
5A
100
AcDbEntity
  8
0
370
              -2
390
0
  6
Continuous
 62
               0
100
AcDbLine
 10
-515.26212250631693
 20
-460.90915079666388
 30
0.0
 11
-515.26212250631693
 21
-335.90915079666388
 31
0.0
  0
LINE
  5
5B
100
AcDbEntity
  8
0
370
              -2
390
0
  6
Continuous
 62
               0
100
AcDbLine
 10
-435.26212250631693
 20
-460.90915079666388
 30
0.0
 11
-435.26212250631693
 21
-335.90915079666388
 31
0.0
  0
LINE
  5
5C
100
AcDbEntity
  8
0
370
              -2
390
0
  6
Continuous
 62
               0
100
AcDbLine
 10
-515.26212250631693
 20
-335.90915079666388
 30
0.0
 11
-435.26212250631693
 21
-335.90915079666388
 31
0.0
  0
CIRCLE
  5
5D
102
{ACAD_REACTORS
330
5E
102
}
100
AcDbEntity
  8
0
370
              -2
390
0
  6
Continuous
 62
               0
100
AcDbCircle
 10
-515.26212250631693
 20
-335.90915079666388
 30
0.0
 40
1.9998779296875
  0
HATCH
  5
5E
100
AcDbEntity
  8
0
370
              -2
390
0
  6
Continuous
 62
               0
100
AcDbHatch
 10
0.0
 20
0.0
 30
0.0
210
0.0
220
0.0
230
1.0
  2
SOLID
 70
               1
 71
               1
 91
        1
 92
        1
 93
        1
 72
               2
 10
-515.26212250631693
 20
-335.90915079666388
 40
1.9998779296875
 50
0.0
 51
360.0
 73
               0
 97
        1
330
5D
 75
               0
 76
               1
 98
        1
 10
0.0
 20
0.0
  0
CIRCLE
  5
5F
102
{ACAD_REACTORS
330
60
102
}
100
AcDbEntity
  8
0
370
              -2
390
0
  6
Continuous
 62
               0
100
AcDbCircle
 10
-435.26212250631693
 20
-335.90915079666388
 30
0.0
 40
1.9998779296875
  0
HATCH
  5
60
100
AcDbEntity
  8
0
370
              -2
390
0
  6
Continuous
 62
               0
100
AcDbHatch
 10
0.0
 20
0.0
 30
0.0
210
0.0
220
0.0
230
1.0
  2
SOLID
 70
               1
 71
               1
 91
        1
 92
        1
 93
        1
 72
               2
 10
-435.26212250631693
 20
-335.90915079666388
 40
1.9998779296875
 50
0.0
 51
360.0
 73
               0
 97
        1
330
5F
 75
               0
 76
               1
 98
        1
 10
0.0
 20
0.0
  0
MTEXT
  5
61
100
AcDbEntity
  8
0
390
0
 62
               0
100
AcDbMText
 10
-491.13712250631693
 20
-302.03153360916394
 30
0.0
 40
24.432617187500004
 41
0.0
 71
               1
 72
               1
  1
80
  7
ＭＳ ゴシック
 73
               1
 44
0.7828267384257843
  0
POINT
  5
62
100
AcDbEntity
  8
Defpoints
370
               0
390
0
 62
               0
100
AcDbPoint
 10
-435.26212250631693
 20
-485.90915079666388
 30
0.0
  0
POINT
  5
63
100
AcDbEntity
  8
Defpoints
370
               0
390
0
 62
               0
100
AcDbPoint
 10
-515.26212250631693
 20
-485.90915079666388
 30
0.0
  0
POINT
  5
64
100
AcDbEntity
  8
Defpoints
370
               0
390
0
 62
               0
100
AcDbPoint
 10
-515.26212250631693
 20
-335.90915079666388
 30
0.0
  0
ENDBLK
  5
65
100
AcDbEntity
  8
notes
390
0
100
AcDbBlockEnd
  0
BLOCK
  5
66
100
AcDbEntity
  8
notes
390
0
100
AcDbBlockBegin
  2
*D3
 70
               1
 10
0.0
 20
0.0
 30
0.0
  3
*D3
  1

  0
LINE
  5
67
100
AcDbEntity
  8
0
370
              -2
390
0
  6
Continuous
 62
               0
100
AcDbLine
 10
-590.21322385947065
 20
-505.90915079666388
 30
0.0
 11
-865.26212250631693
 21
-505.90915079666388
 31
0.0
  0
LINE
  5
68
100
AcDbEntity
  8
0
370
              -2
390
0
  6
Continuous
 62
               0
100
AcDbLine
 10
-782.32011109759128
 20
-435.90915079666388
 30
0.0
 11
-865.26212250631693
 21
-435.90915079666388
 31
0.0
  0
LINE
  5
69
100
AcDbEntity
  8
0
370
              -2
390
0
  6
Continuous
 62
               0
100
AcDbLine
 10
-865.26212250631693
 20
-505.90915079666388
 30
0.0
 11
-865.26212250631693
 21
-435.90915079666388
 31
0.0
  0
CIRCLE
  5
6A
102
{ACAD_REACTORS
330
6B
102
}
100
AcDbEntity
  8
0
370
              -2
390
0
  6
Continuous
 62
               0
100
AcDbCircle
 10
-865.26212250631693
 20
-505.90915079666388
 30
0.0
 40
1.9998779296875
  0
HATCH
  5
6B
100
AcDbEntity
  8
0
370
              -2
390
0
  6
Continuous
 62
               0
100
AcDbHatch
 10
0.0
 20
0.0
 30
0.0
210
0.0
220
0.0
230
1.0
  2
SOLID
 70
               1
 71
               1
 91
        1
 92
        1
 93
        1
 72
               2
 10
-865.26212250631693
 20
-505.90915079666388
 40
1.9998779296875
 50
0.0
 51
360.0
 73
               0
 97
        1
330
6A
 75
               0
 76
               1
 98
        1
 10
0.0
 20
0.0
  0
CIRCLE
  5
6C
102
{ACAD_REACTORS
330
6D
102
}
100
AcDbEntity
  8
0
370
              -2
390
0
  6
Continuous
 62
               0
100
AcDbCircle
 10
-865.26212250631693
 20
-435.90915079666388
 30
0.0
 40
1.9998779296875
  0
HATCH
  5
6D
100
AcDbEntity
  8
0
370
              -2
390
0
  6
Continuous
 62
               0
100
AcDbHatch
 10
0.0
 20
0.0
 30
0.0
210
0.0
220
0.0
230
1.0
  2
SOLID
 70
               1
 71
               1
 91
        1
 92
        1
 93
        1
 72
               2
 10
-865.26212250631693
 20
-435.90915079666388
 40
1.9998779296875
 50
0.0
 51
360.0
 73
               0
 97
        1
330
6C
 75
               0
 76
               1
 98
        1
 10
0.0
 20
0.0
  0
MTEXT
  5
6E
100
AcDbEntity
  8
0
390
0
 62
               0
100
AcDbMText
 10
-899.13973969381709
 20
-486.78415079666388
 30
0.0
 40
24.432617187500004
 41
0.0
 71
               1
 72
               1
  1
70
  7
ＭＳ ゴシック
 11
0.0
 21
1.0
 31
0.0
 73
               1
 44
0.7828267384257843
  0
POINT
  5
6F
100
AcDbEntity
  8
Defpoints
370
               0
390
0
 62
               0
100
AcDbPoint
 10
-757.32011109759128
 20
-435.90915079666388
 30
0.0
  0
POINT
  5
70
100
AcDbEntity
  8
Defpoints
370
               0
390
0
 62
               0
100
AcDbPoint
 10
-565.21322385947065
 20
-505.90915079666388
 30
0.0
  0
POINT
  5
71
100
AcDbEntity
  8
Defpoints
370
               0
390
0
 62
               0
100
AcDbPoint
 10
-865.26212250631693
 20
-505.90915079666388
 30
0.0
  0
ENDBLK
  5
72
100
AcDbEntity
  8
notes
390
0
100
AcDbBlockEnd
  0
BLOCK
  5
73
100
AcDbEntity
  8
notes
390
0
100
AcDbBlockBegin
  2
*D4
 70
               1
 10
0.0
 20
0.0
 30
0.0
  3
*D4
  1

  0
LINE
  5
74
100
AcDbEntity
  8
0
370
              -2
390
0
  6
Continuous
 62
               0
100
AcDbLine
 10
-575.2132238594711
 20
805.01304708688735
 30
0.0
 11
-575.2132238594711
 21
880.01304708688735
 31
0.0
  0
LINE
  5
75
100
AcDbEntity
  8
0
370
              -2
390
0
  6
Continuous
 62
               0
100
AcDbLine
 10
-375.21322385946996
 20
805.01304708688735
 30
0.0
 11
-375.21322385946996
 21
880.01304708688735
 31
0.0
  0
LINE
  5
76
100
AcDbEntity
  8
0
370
              -2
390
0
  6
Continuous
 62
               0
100
AcDbLine
 10
-575.2132238594711
 20
880.01304708688735
 30
0.0
 11
-375.21322385946996
 21
880.01304708688735
 31
0.0
  0
CIRCLE
  5
77
102
{ACAD_REACTORS
330
78
102
}
100
AcDbEntity
  8
0
370
              -2
390
0
  6
Continuous
 62
               0
100
AcDbCircle
 10
-575.2132238594711
 20
880.01304708688735
 30
0.0
 40
1.9998779296875
  0
HATCH
  5
78
100
AcDbEntity
  8
0
370
              -2
390
0
  6
Continuous
 62
               0
100
AcDbHatch
 10
0.0
 20
0.0
 30
0.0
210
0.0
220
0.0
230
1.0
  2
SOLID
 70
               1
 71
               1
 91
        1
 92
        1
 93
        1
 72
               2
 10
-575.2132238594711
 20
880.01304708688735
 40
1.9998779296875
 50
0.0
 51
360.0
 73
               0
 97
        1
330
77
 75
               0
 76
               1
 98
        1
 10
0.0
 20
0.0
  0
CIRCLE
  5
79
102
{ACAD_REACTORS
330
7A
102
}
100
AcDbEntity
  8
0
370
              -2
390
0
  6
Continuous
 62
               0
100
AcDbCircle
 10
-375.21322385946996
 20
880.01304708688735
 30
0.0
 40
1.9998779296875
  0
HATCH
  5
7A
100
AcDbEntity
  8
0
370
              -2
390
0
  6
Continuous
 62
               0
100
AcDbHatch
 10
0.0
 20
0.0
 30
0.0
210
0.0
220
0.0
230
1.0
  2
SOLID
 70
               1
 71
               1
 91
        1
 92
        1
 93
        1
 72
               2
 10
-375.21322385946996
 20
880.01304708688735
 40
1.9998779296875
 50
0.0
 51
360.0
 73
               0
 97
        1
330
79
 75
               0
 76
               1
 98
        1
 10
0.0
 20
0.0
  0
MTEXT
  5
7B
100
AcDbEntity
  8
0
390
0
 62
               0
100
AcDbMText
 10
-499.02572554164612
 20
913.89066427438729
 30
0.0
 40
24.432617187500004
 41
0.0
 71
               1
 72
               1
  1
200
  7
ＭＳ ゴシック
 73
               1
 44
0.7828267384257843
  0
POINT
  5
7C
100
AcDbEntity
  8
Defpoints
370
               0
390
0
 62
               0
100
AcDbPoint
 10
-375.21322385946996
 20
780.01304708688735
 30
0.0
  0
POINT
  5
7D
100
AcDbEntity
  8
Defpoints
370
               0
390
0
 62
               0
100
AcDbPoint
 10
-575.2132238594711
 20
780.01304708688735
 30
0.0
  0
POINT
  5
7E
100
AcDbEntity
  8
Defpoints
370
               0
390
0
 62
               0
100
AcDbPoint
 10
-575.2132238594711
 20
880.01304708688735
 30
0.0
  0
ENDBLK
  5
7F
100
AcDbEntity
  8
notes
390
0
100
AcDbBlockEnd
  0
BLOCK
  5
80
100
AcDbEntity
  8
notes
390
0
100
AcDbBlockBegin
  2
*D5
 70
               1
 10
0.0
 20
0.0
 30
0.0
  3
*D5
  1

  0
LINE
  5
81
100
AcDbEntity
  8
0
370
              -2
390
0
  6
Continuous
 62
               0
100
AcDbLine
 10
-765.26212250631693
 20
505.30874115915447
 30
0.0
 11
-765.26212250631693
 21
932.40720358462522
 31
0.0
  0
LINE
  5
82
100
AcDbEntity
  8
0
370
              -2
390
0
  6
Continuous
 62
               0
100
AcDbLine
 10
-185.26212250631693
 20
505.30874115915435
 30
0.0
 11
-185.26212250631693
 21
932.40720358462522
 31
0.0
  0
LINE
  5
83
100
AcDbEntity
  8
0
370
              -2
390
0
  6
Continuous
 62
               0
100
AcDbLine
 10
-765.26212250631693
 20
932.40720358462522
 30
0.0
 11
-185.26212250631693
 21
932.40720358462522
 31
0.0
  0
CIRCLE
  5
84
102
{ACAD_REACTORS
330
85
102
}
100
AcDbEntity
  8
0
370
              -2
390
0
  6
Continuous
 62
               0
100
AcDbCircle
 10
-765.26212250631693
 20
932.40720358462522
 30
0.0
 40
1.9998779296875
  0
HATCH
  5
85
100
AcDbEntity
  8
0
370
              -2
390
0
  6
Continuous
 62
               0
100
AcDbHatch
 10
0.0
 20
0.0
 30
0.0
210
0.0
220
0.0
230
1.0
  2
SOLID
 70
               1
 71
               1
 91
        1
 92
        1
 93
        1
 72
               2
 10
-765.26212250631693
 20
932.40720358462522
 40
1.9998779296875
 50
0.0
 51
360.0
 73
               0
 97
        1
330
84
 75
               0
 76
               1
 98
        1
 10
0.0
 20
0.0
  0
CIRCLE
  5
86
102
{ACAD_REACTORS
330
87
102
}
100
AcDbEntity
  8
0
370
              -2
390
0
  6
Continuous
 62
               0
100
AcDbCircle
 10
-185.26212250631693
 20
932.40720358462522
 30
0.0
 40
1.9998779296875
  0
HATCH
  5
87
100
AcDbEntity
  8
0
370
              -2
390
0
  6
Continuous
 62
               0
100
AcDbHatch
 10
0.0
 20
0.0
 30
0.0
210
0.0
220
0.0
230
1.0
  2
SOLID
 70
               1
 71
               1
 91
        1
 92
        1
 93
        1
 72
               2
 10
-185.26212250631693
 20
932.40720358462522
 40
1.9998779296875
 50
0.0
 51
360.0
 73
               0
 97
        1
330
86
 75
               0
 76
               1
 98
        1
 10
0.0
 20
0.0
  0
MTEXT
  5
88
100
AcDbEntity
  8
0
390
0
 62
               0
100
AcDbMText
 10
-499.07462418849241
 20
966.28482077212527
 30
0.0
 40
24.432617187500004
 41
0.0
 71
               1
 72
               1
  1
580
  7
ＭＳ ゴシック
 73
               1
 44
0.7828267384257843
  0
POINT
  5
89
100
AcDbEntity
  8
Defpoints
370
               0
390
0
 62
               0
100
AcDbPoint
 10
-185.26212250631693
 20
480.30874115915435
 30
0.0
  0
POINT
  5
8A
100
AcDbEntity
  8
Defpoints
370
               0
390
0
 62
               0
100
AcDbPoint
 10
-765.26212250631693
 20
480.30874115915447
 30
0.0
  0
POINT
  5
8B
100
AcDbEntity
  8
Defpoints
370
               0
390
0
 62
               0
100
AcDbPoint
 10
-765.26212250631693
 20
932.40720358462522
 30
0.0
  0
ENDBLK
  5
8C
100
AcDbEntity
  8
notes
390
0
100
AcDbBlockEnd
  0
BLOCK
  5
8D
100
AcDbEntity
  8
notes
390
0
100
AcDbBlockBegin
  2
*D6
 70
               1
 10
0.0
 20
0.0
 30
0.0
  3
*D6
  1

  0
LINE
  5
8E
100
AcDbEntity
  8
0
370
              -2
390
0
  6
Continuous
 62
               0
100
AcDbLine
 10
-740.26212250631693
 20
372.43399121418065
 30
0.0
 11
-740.26212250631693
 21
180.01304708688747
 31
0.0
  0
LINE
  5
8F
100
AcDbEntity
  8
0
370
              -2
390
0
  6
Continuous
 62
               0
100
AcDbLine
 10
-210.26212250631693
 20
372.43399121418042
 30
0.0
 11
-210.26212250631693
 21
180.01304708688747
 31
0.0
  0
LINE
  5
90
100
AcDbEntity
  8
0
370
              -2
390
0
  6
Continuous
 62
               0
100
AcDbLine
 10
-740.26212250631693
 20
180.01304708688747
 30
0.0
 11
-210.26212250631693
 21
180.01304708688747
 31
0.0
  0
CIRCLE
  5
91
102
{ACAD_REACTORS
330
92
102
}
100
AcDbEntity
  8
0
370
              -2
390
0
  6
Continuous
 62
               0
100
AcDbCircle
 10
-740.26212250631693
 20
180.01304708688747
 30
0.0
 40
1.9998779296875
  0
HATCH
  5
92
100
AcDbEntity
  8
0
370
              -2
390
0
  6
Continuous
 62
               0
100
AcDbHatch
 10
0.0
 20
0.0
 30
0.0
210
0.0
220
0.0
230
1.0
  2
SOLID
 70
               1
 71
               1
 91
        1
 92
        1
 93
        1
 72
               2
 10
-740.26212250631693
 20
180.01304708688747
 40
1.9998779296875
 50
0.0
 51
360.0
 73
               0
 97
        1
330
91
 75
               0
 76
               1
 98
        1
 10
0.0
 20
0.0
  0
CIRCLE
  5
93
102
{ACAD_REACTORS
330
94
102
}
100
AcDbEntity
  8
0
370
              -2
390
0
  6
Continuous
 62
               0
100
AcDbCircle
 10
-210.26212250631693
 20
180.01304708688747
 30
0.0
 40
1.9998779296875
  0
HATCH
  5
94
100
AcDbEntity
  8
0
370
              -2
390
0
  6
Continuous
 62
               0
100
AcDbHatch
 10
0.0
 20
0.0
 30
0.0
210
0.0
220
0.0
230
1.0
  2
SOLID
 70
               1
 71
               1
 91
        1
 92
        1
 93
        1
 72
               2
 10
-210.26212250631693
 20
180.01304708688747
 40
1.9998779296875
 50
0.0
 51
360.0
 73
               0
 97
        1
330
93
 75
               0
 76
               1
 98
        1
 10
0.0
 20
0.0
  0
MTEXT
  5
95
100
AcDbEntity
  8
0
390
0
 62
               0
100
AcDbMText
 10
-499.07462418849241
 20
213.89066427438752
 30
0.0
 40
24.432617187500004
 41
0.0
 71
               1
 72
               1
  1
530
  7
ＭＳ ゴシック
 73
               1
 44
0.7828267384257843
  0
POINT
  5
96
100
AcDbEntity
  8
Defpoints
370
               0
390
0
 62
               0
100
AcDbPoint
 10
-210.26212250631693
 20
397.43399121418042
 30
0.0
  0
POINT
  5
97
100
AcDbEntity
  8
Defpoints
370
               0
390
0
 62
               0
100
AcDbPoint
 10
-740.26212250631693
 20
397.43399121418065
 30
0.0
  0
POINT
  5
98
100
AcDbEntity
  8
Defpoints
370
               0
390
0
 62
               0
100
AcDbPoint
 10
-740.26212250631693
 20
180.01304708688747
 30
0.0
  0
ENDBLK
  5
99
100
AcDbEntity
  8
notes
390
0
100
AcDbBlockEnd
  0
BLOCK
  5
9A
100
AcDbEntity
  8
notes
390
0
100
AcDbBlockBegin
  2
*D7
 70
               1
 10
0.0
 20
0.0
 30
0.0
  3
*D7
  1

  0
LINE
  5
9B
100
AcDbEntity
  8
0
370
              -2
390
0
  6
Continuous
 62
               0
100
AcDbLine
 10
-643.19539582174662
 20
650.06458466141635
 30
0.0
 11
-865.26212250631693
 21
650.06458466141635
 31
0.0
  0
LINE
  5
9C
100
AcDbEntity
  8
0
370
              -2
390
0
  6
Continuous
 62
               0
100
AcDbLine
 10
-641.37189453641372
 20
305.06458466141657
 30
0.0
 11
-865.26212250631693
 21
305.06458466141657
 31
0.0
  0
LINE
  5
9D
100
AcDbEntity
  8
0
370
              -2
390
0
  6
Continuous
 62
               0
100
AcDbLine
 10
-865.26212250631693
 20
650.06458466141635
 30
0.0
 11
-865.26212250631693
 21
305.06458466141657
 31
0.0
  0
CIRCLE
  5
9E
102
{ACAD_REACTORS
330
9F
102
}
100
AcDbEntity
  8
0
370
              -2
390
0
  6
Continuous
 62
               0
100
AcDbCircle
 10
-865.26212250631693
 20
650.06458466141635
 30
0.0
 40
1.9998779296875
  0
HATCH
  5
9F
100
AcDbEntity
  8
0
370
              -2
390
0
  6
Continuous
 62
               0
100
AcDbHatch
 10
0.0
 20
0.0
 30
0.0
210
0.0
220
0.0
230
1.0
  2
SOLID
 70
               1
 71
               1
 91
        1
 92
        1
 93
        1
 72
               2
 10
-865.26212250631693
 20
650.06458466141635
 40
1.9998779296875
 50
0.0
 51
360.0
 73
               0
 97
        1
330
9E
 75
               0
 76
               1
 98
        1
 10
0.0
 20
0.0
  0
CIRCLE
  5
A0
102
{ACAD_REACTORS
330
A1
102
}
100
AcDbEntity
  8
0
370
              -2
390
0
  6
Continuous
 62
               0
100
AcDbCircle
 10
-865.26212250631693
 20
305.06458466141657
 30
0.0
 40
1.9998779296875
  0
HATCH
  5
A1
100
AcDbEntity
  8
0
370
              -2
390
0
  6
Continuous
 62
               0
100
AcDbHatch
 10
0.0
 20
0.0
 30
0.0
210
0.0
220
0.0
230
1.0
  2
SOLID
 70
               1
 71
               1
 91
        1
 92
        1
 93
        1
 72
               2
 10
-865.26212250631693
 20
305.06458466141657
 40
1.9998779296875
 50
0.0
 51
360.0
 73
               0
 97
        1
330
A0
 75
               0
 76
               1
 98
        1
 10
0.0
 20
0.0
  0
MTEXT
  5
A2
100
AcDbEntity
  8
0
390
0
 62
               0
100
AcDbMText
 10
-899.13973969381709
 20
453.75208297924098
 30
0.0
 40
24.432617187500004
 41
0.0
 71
               1
 72
               1
  1
345
  7
ＭＳ ゴシック
 11
0.0
 21
1.0
 31
0.0
 73
               1
 44
0.7828267384257843
  0
POINT
  5
A3
100
AcDbEntity
  8
Defpoints
370
               0
390
0
 62
               0
100
AcDbPoint
 10
-616.37189453641372
 20
305.06458466141657
 30
0.0
  0
POINT
  5
A4
100
AcDbEntity
  8
Defpoints
370
               0
390
0
 62
               0
100
AcDbPoint
 10
-618.19539582174662
 20
650.06458466141635
 30
0.0
  0
POINT
  5
A5
100
AcDbEntity
  8
Defpoints
370
               0
390
0
 62
               0
100
AcDbPoint
 10
-865.26212250631693
 20
650.06458466141635
 30
0.0
  0
ENDBLK
  5
A6
100
AcDbEntity
  8
notes
390
0
100
AcDbBlockEnd
  0
BLOCK
  5
A7
100
AcDbEntity
  8
notes
390
0
100
AcDbBlockBegin
  2
*D8
 70
               1
 10
0.0
 20
0.0
 30
0.0
  3
*D8
  1

  0
LINE
  5
A8
100
AcDbEntity
  8
0
370
              -2
390
0
  6
Continuous
 62
               0
100
AcDbLine
 10
-350.21322385946996
 20
780.01304708688735
 30
0.0
 11
-85.262122506316928
 21
780.01304708688735
 31
0.0
  0
LINE
  5
A9
100
AcDbEntity
  8
0
370
              -2
390
0
  6
Continuous
 62
               0
100
AcDbLine
 10
-396.07672807352969
 20
285.01304708688747
 30
0.0
 11
-85.262122506316928
 21
285.01304708688747
 31
0.0
  0
LINE
  5
AA
100
AcDbEntity
  8
0
370
              -2
390
0
  6
Continuous
 62
               0
100
AcDbLine
 10
-85.262122506316928
 20
780.01304708688735
 30
0.0
 11
-85.262122506316928
 21
285.01304708688747
 31
0.0
  0
CIRCLE
  5
AB
102
{ACAD_REACTORS
330
AC
102
}
100
AcDbEntity
  8
0
370
              -2
390
0
  6
Continuous
 62
               0
100
AcDbCircle
 10
-85.262122506316928
 20
780.01304708688735
 30
0.0
 40
1.9998779296875
  0
HATCH
  5
AC
100
AcDbEntity
  8
0
370
              -2
390
0
  6
Continuous
 62
               0
100
AcDbHatch
 10
0.0
 20
0.0
 30
0.0
210
0.0
220
0.0
230
1.0
  2
SOLID
 70
               1
 71
               1
 91
        1
 92
        1
 93
        1
 72
               2
 10
-85.262122506316928
 20
780.01304708688735
 40
1.9998779296875
 50
0.0
 51
360.0
 73
               0
 97
        1
330
AB
 75
               0
 76
               1
 98
        1
 10
0.0
 20
0.0
  0
CIRCLE
  5
AD
102
{ACAD_REACTORS
330
AE
102
}
100
AcDbEntity
  8
0
370
              -2
390
0
  6
Continuous
 62
               0
100
AcDbCircle
 10
-85.262122506316928
 20
285.01304708688747
 30
0.0
 40
1.9998779296875
  0
HATCH
  5
AE
100
AcDbEntity
  8
0
370
              -2
390
0
  6
Continuous
 62
               0
100
AcDbHatch
 10
0.0
 20
0.0
 30
0.0
210
0.0
220
0.0
230
1.0
  2
SOLID
 70
               1
 71
               1
 91
        1
 92
        1
 93
        1
 72
               2
 10
-85.262122506316928
 20
285.01304708688747
 40
1.9998779296875
 50
0.0
 51
360.0
 73
               0
 97
        1
330
AD
 75
               0
 76
               1
 98
        1
 10
0.0
 20
0.0
  0
MTEXT
  5
AF
100
AcDbEntity
  8
0
390
0
 62
               0
100
AcDbMText
 10
-119.13973969381686
 20
508.70054540471187
 30
0.0
 40
24.432617187500004
 41
0.0
 71
               1
 72
               1
  1
495
  7
ＭＳ ゴシック
 11
0.0
 21
1.0
 31
0.0
 73
               1
 44
0.7828267384257843
  0
POINT
  5
B0
100
AcDbEntity
  8
Defpoints
370
               0
390
0
 62
               0
100
AcDbPoint
 10
-421.07672807352969
 20
285.01304708688747
 30
0.0
  0
POINT
  5
B1
100
AcDbEntity
  8
Defpoints
370
               0
390
0
 62
               0
100
AcDbPoint
 10
-375.21322385946996
 20
780.01304708688735
 30
0.0
  0
POINT
  5
B2
100
AcDbEntity
  8
Defpoints
370
               0
390
0
 62
               0
100
AcDbPoint
 10
-85.262122506316928
 20
780.01304708688735
 30
0.0
  0
ENDBLK
  5
B3
100
AcDbEntity
  8
notes
390
0
100
AcDbBlockEnd
  0
BLOCK
  5
B4
100
AcDbEntity
  8
notes
390
0
100
AcDbBlockBegin
  2
*D9
 70
               1
 10
0.0
 20
0.0
 30
0.0
  3
*D9
  1

  0
LINE
  5
B5
100
AcDbEntity
  8
0
370
              -2
390
0
  6
Continuous
 62
               0
100
AcDbLine
 10
-643.19539582174662
 20
650.06458466141635
 30
0.0
 11
-865.26212250631693
 21
650.06458466141635
 31
0.0
  0
LINE
  5
B6
100
AcDbEntity
  8
0
370
              -2
390
0
  6
Continuous
 62
               0
100
AcDbLine
 10
-600.2132238594711
 20
780.01304708688735
 30
0.0
 11
-865.26212250631693
 21
780.01304708688735
 31
0.0
  0
LINE
  5
B7
100
AcDbEntity
  8
0
370
              -2
390
0
  6
Continuous
 62
               0
100
AcDbLine
 10
-865.26212250631693
 20
650.06458466141635
 30
0.0
 11
-865.26212250631693
 21
780.01304708688735
 31
0.0
  0
CIRCLE
  5
B8
102
{ACAD_REACTORS
330
B9
102
}
100
AcDbEntity
  8
0
370
              -2
390
0
  6
Continuous
 62
               0
100
AcDbCircle
 10
-865.26212250631693
 20
650.06458466141635
 30
0.0
 40
1.9998779296875
  0
HATCH
  5
B9
100
AcDbEntity
  8
0
370
              -2
390
0
  6
Continuous
 62
               0
100
AcDbHatch
 10
0.0
 20
0.0
 30
0.0
210
0.0
220
0.0
230
1.0
  2
SOLID
 70
               1
 71
               1
 91
        1
 92
        1
 93
        1
 72
               2
 10
-865.26212250631693
 20
650.06458466141635
 40
1.9998779296875
 50
0.0
 51
360.0
 73
               0
 97
        1
330
B8
 75
               0
 76
               1
 98
        1
 10
0.0
 20
0.0
  0
CIRCLE
  5
BA
102
{ACAD_REACTORS
330
BB
102
}
100
AcDbEntity
  8
0
370
              -2
390
0
  6
Continuous
 62
               0
100
AcDbCircle
 10
-865.26212250631693
 20
780.01304708688735
 30
0.0
 40
1.9998779296875
  0
HATCH
  5
BB
100
AcDbEntity
  8
0
370
              -2
390
0
  6
Continuous
 62
               0
100
AcDbHatch
 10
0.0
 20
0.0
 30
0.0
210
0.0
220
0.0
230
1.0
  2
SOLID
 70
               1
 71
               1
 91
        1
 92
        1
 93
        1
 72
               2
 10
-865.26212250631693
 20
780.01304708688735
 40
1.9998779296875
 50
0.0
 51
360.0
 73
               0
 97
        1
330
BA
 75
               0
 76
               1
 98
        1
 10
0.0
 20
0.0
  0
MTEXT
  5
BC
100
AcDbEntity
  8
0
390
0
 62
               0
100
AcDbMText
 10
-899.13973969381709
 20
691.22631419197637
 30
0.0
 40
24.432617187500004
 41
0.0
 71
               1
 72
               1
  1
130
  7
ＭＳ ゴシック
 11
0.0
 21
1.0
 31
0.0
 73
               1
 44
0.7828267384257843
  0
POINT
  5
BD
100
AcDbEntity
  8
Defpoints
370
               0
390
0
 62
               0
100
AcDbPoint
 10
-575.2132238594711
 20
780.01304708688735
 30
0.0
  0
POINT
  5
BE
100
AcDbEntity
  8
Defpoints
370
               0
390
0
 62
               0
100
AcDbPoint
 10
-618.19539582174662
 20
650.06458466141635
 30
0.0
  0
POINT
  5
BF
100
AcDbEntity
  8
Defpoints
370
               0
390
0
 62
               0
100
AcDbPoint
 10
-865.26212250631693
 20
650.06458466141635
 30
0.0
  0
ENDBLK
  5
C0
100
AcDbEntity
  8
notes
390
0
100
AcDbBlockEnd
  0
BLOCK
  5
C1
100
AcDbEntity
  8
notes
390
0
100
AcDbBlockBegin
  2
*D10
 70
               1
 10
0.0
 20
0.0
 30
0.0
  3
*D10
  1

  0
LINE
  5
C2
100
AcDbEntity
  8
0
370
              -2
390
0
  6
Continuous
 62
               0
100
AcDbLine
 10
-168.1063366213491
 20
-435.90915079666388
 30
0.0
 11
-86.662122506317019
 21
-435.90915079666388
 31
0.0
  0
LINE
  5
C3
100
AcDbEntity
  8
0
370
              -2
390
0
  6
Continuous
 62
               0
100
AcDbLine
 10
-335.81322385947306
 20
-620.90915079666479
 30
0.0
 11
-86.662122506317019
 21
-620.90915079666479
 31
0.0
  0
LINE
  5
C4
100
AcDbEntity
  8
0
370
              -2
390
0
  6
Continuous
 62
               0
100
AcDbLine
 10
-86.662122506317019
 20
-435.90915079666388
 30
0.0
 11
-86.662122506317019
 21
-620.90915079666479
 31
0.0
  0
CIRCLE
  5
C5
102
{ACAD_REACTORS
330
C6
102
}
100
AcDbEntity
  8
0
370
              -2
390
0
  6
Continuous
 62
               0
100
AcDbCircle
 10
-86.662122506317019
 20
-435.90915079666388
 30
0.0
 40
1.9998779296875
  0
HATCH
  5
C6
100
AcDbEntity
  8
0
370
              -2
390
0
  6
Continuous
 62
               0
100
AcDbHatch
 10
0.0
 20
0.0
 30
0.0
210
0.0
220
0.0
230
1.0
  2
SOLID
 70
               1
 71
               1
 91
        1
 92
        1
 93
        1
 72
               2
 10
-86.662122506317019
 20
-435.90915079666388
 40
1.9998779296875
 50
0.0
 51
360.0
 73
               0
 97
        1
330
C5
 75
               0
 76
               1
 98
        1
 10
0.0
 20
0.0
  0
CIRCLE
  5
C7
102
{ACAD_REACTORS
330
C8
102
}
100
AcDbEntity
  8
0
370
              -2
390
0
  6
Continuous
 62
               0
100
AcDbCircle
 10
-86.662122506317019
 20
-620.90915079666479
 30
0.0
 40
1.9998779296875
  0
HATCH
  5
C8
100
AcDbEntity
  8
0
370
              -2
390
0
  6
Continuous
 62
               0
100
AcDbHatch
 10
0.0
 20
0.0
 30
0.0
210
0.0
220
0.0
230
1.0
  2
SOLID
 70
               1
 71
               1
 91
        1
 92
        1
 93
        1
 72
               2
 10
-86.662122506317019
 20
-620.90915079666479
 40
1.9998779296875
 50
0.0
 51
360.0
 73
               0
 97
        1
330
C7
 75
               0
 76
               1
 98
        1
 10
0.0
 20
0.0
  0
MTEXT
  5
C9
100
AcDbEntity
  8
0
390
0
 62
               0
100
AcDbMText
 10
-120.53973969381695
 20
-552.22165247883981
 30
0.0
 40
24.432617187500004
 41
0.0
 71
               1
 72
               1
  1
185
  7
ＭＳ ゴシック
 11
0.0
 21
1.0
 31
0.0
 73
               1
 44
0.7828267384257843
  0
POINT
  5
CA
100
AcDbEntity
  8
Defpoints
370
               0
390
0
 62
               0
100
AcDbPoint
 10
-360.81322385947306
 20
-620.90915079666479
 30
0.0
  0
POINT
  5
CB
100
AcDbEntity
  8
Defpoints
370
               0
390
0
 62
               0
100
AcDbPoint
 10
-193.1063366213491
 20
-435.90915079666388
 30
0.0
  0
POINT
  5
CC
100
AcDbEntity
  8
Defpoints
370
               0
390
0
 62
               0
100
AcDbPoint
 10
-86.662122506317019
 20
-435.90915079666388
 30
0.0
  0
ENDBLK
  5
CD
100
AcDbEntity
  8
notes
390
0
100
AcDbBlockEnd
  0
BLOCK
  5
CE
100
AcDbEntity
  8
notes
390
0
100
AcDbBlockBegin
  2
*D11
 70
               1
 10
0.0
 20
0.0
 30
0.0
  3
*D11
  1

  0
LINE
  5
CF
100
AcDbEntity
  8
0
370
              -2
390
0
  6
Continuous
 62
               0
100
AcDbLine
 10
533.70603053746004
 20
-435.90915079666388
 30
0.0
 11
542.92327192647031
 21
-435.90915079666388
 31
0.0
  0
LINE
  5
D0
100
AcDbEntity
  8
0
370
              -2
390
0
  6
Continuous
 62
               0
100
AcDbLine
 10
533.70603053746004
 20
-570.90915079666388
 30
0.0
 11
542.92327192647031
 21
-570.90915079666388
 31
0.0
  0
LINE
  5
D1
100
AcDbEntity
  8
0
370
              -2
390
0
  6
Continuous
 62
               0
100
AcDbLine
 10
542.92327192647031
 20
-435.90915079666388
 30
0.0
 11
542.92327192647031
 21
-284.09084920333612
 31
0.0
  0
LINE
  5
D2
100
AcDbEntity
  8
0
370
              -2
390
0
  6
Continuous
 62
               0
100
AcDbLine
 10
542.92327192647031
 20
-435.90915079666388
 30
0.0
 11
542.92327192647031
 21
-570.90915079666388
 31
0.0
  0
CIRCLE
  5
D3
102
{ACAD_REACTORS
330
D4
102
}
100
AcDbEntity
  8
0
370
              -2
390
0
  6
Continuous
 62
               0
100
AcDbCircle
 10
542.92327192647031
 20
-435.90915079666388
 30
0.0
 40
1.9998779296875
  0
HATCH
  5
D4
100
AcDbEntity
  8
0
370
              -2
390
0
  6
Continuous
 62
               0
100
AcDbHatch
 10
0.0
 20
0.0
 30
0.0
210
0.0
220
0.0
230
1.0
  2
SOLID
 70
               1
 71
               1
 91
        1
 92
        1
 93
        1
 72
               2
 10
542.92327192647031
 20
-435.90915079666388
 40
1.9998779296875
 50
0.0
 51
360.0
 73
               0
 97
        1
330
D3
 75
               0
 76
               1
 98
        1
 10
0.0
 20
0.0
  0
CIRCLE
  5
D5
102
{ACAD_REACTORS
330
D6
102
}
100
AcDbEntity
  8
0
370
              -2
390
0
  6
Continuous
 62
               0
100
AcDbCircle
 10
542.92327192647031
 20
-570.90915079666388
 30
0.0
 40
1.9998779296875
  0
HATCH
  5
D6
100
AcDbEntity
  8
0
370
              -2
390
0
  6
Continuous
 62
               0
100
AcDbHatch
 10
0.0
 20
0.0
 30
0.0
210
0.0
220
0.0
230
1.0
  2
SOLID
 70
               1
 71
               1
 91
        1
 92
        1
 93
        1
 72
               2
 10
542.92327192647031
 20
-570.90915079666388
 40
1.9998779296875
 50
0.0
 51
360.0
 73
               0
 97
        1
330
D5
 75
               0
 76
               1
 98
        1
 10
0.0
 20
0.0
  0
MTEXT
  5
D7
100
AcDbEntity
  8
0
390
0
 62
               0
100
AcDbMText
 10
509.04565473897037
 20
-426.96584920333612
 30
0.0
 40
24.432617187500004
 41
0.0
 71
               1
 72
               1
  1
135(深さ)
  7
ＭＳ ゴシック
 11
0.0
 21
1.0
 31
0.0
 73
               1
 44
0.7828267384257843
  0
POINT
  5
D8
100
AcDbEntity
  8
Defpoints
370
               0
390
0
 62
               0
100
AcDbPoint
 10
558.70603053746004
 20
-570.90915079666388
 30
0.0
  0
POINT
  5
D9
100
AcDbEntity
  8
Defpoints
370
               0
390
0
 62
               0
100
AcDbPoint
 10
558.70603053746004
 20
-435.90915079666388
 30
0.0
  0
POINT
  5
DA
100
AcDbEntity
  8
Defpoints
370
               0
390
0
 62
               0
100
AcDbPoint
 10
542.92327192647031
 20
-435.90915079666388
 30
0.0
  0
ENDBLK
  5
DB
100
AcDbEntity
  8
notes
390
0
100
AcDbBlockEnd
  0
BLOCK
  5
DC
100
AcDbEntity
  8
notes
390
0
100
AcDbBlockBegin
  2
*D12
 70
               1
 10
0.0
 20
0.0
 30
0.0
  3
*D12
  1

  0
LINE
  5
DD
100
AcDbEntity
  8
0
370
              -2
390
0
  6
Continuous
 62
               0
100
AcDbLine
 10
276.3807519130803
 20
-435.90915079666388
 30
0.0
 11
195.92327192647122
 21
-435.90915079666388
 31
0.0
  0
LINE
  5
DE
100
AcDbEntity
  8
0
370
              -2
390
0
  6
Continuous
 62
               0
100
AcDbLine
 10
509.125
 20
-615.90915079666479
 30
0.0
 11
195.92327192647122
 21
-615.90915079666479
 31
0.0
  0
LINE
  5
DF
100
AcDbEntity
  8
0
370
              -2
390
0
  6
Continuous
 62
               0
100
AcDbLine
 10
195.92327192647122
 20
-435.90915079666388
 30
0.0
 11
195.92327192647122
 21
-615.90915079666479
 31
0.0
  0
CIRCLE
  5
E0
102
{ACAD_REACTORS
330
E1
102
}
100
AcDbEntity
  8
0
370
              -2
390
0
  6
Continuous
 62
               0
100
AcDbCircle
 10
195.92327192647122
 20
-435.90915079666388
 30
0.0
 40
1.9998779296875
  0
HATCH
  5
E1
100
AcDbEntity
  8
0
370
              -2
390
0
  6
Continuous
 62
               0
100
AcDbHatch
 10
0.0
 20
0.0
 30
0.0
210
0.0
220
0.0
230
1.0
  2
SOLID
 70
               1
 71
               1
 91
        1
 92
        1
 93
        1
 72
               2
 10
195.92327192647122
 20
-435.90915079666388
 40
1.9998779296875
 50
0.0
 51
360.0
 73
               0
 97
        1
330
E0
 75
               0
 76
               1
 98
        1
 10
0.0
 20
0.0
  0
CIRCLE
  5
E2
102
{ACAD_REACTORS
330
E3
102
}
100
AcDbEntity
  8
0
370
              -2
390
0
  6
Continuous
 62
               0
100
AcDbCircle
 10
195.92327192647122
 20
-615.90915079666479
 30
0.0
 40
1.9998779296875
  0
HATCH
  5
E3
100
AcDbEntity
  8
0
370
              -2
390
0
  6
Continuous
 62
               0
100
AcDbHatch
 10
0.0
 20
0.0
 30
0.0
210
0.0
220
0.0
230
1.0
  2
SOLID
 70
               1
 71
               1
 91
        1
 92
        1
 93
        1
 72
               2
 10
195.92327192647122
 20
-615.90915079666479
 40
1.9998779296875
 50
0.0
 51
360.0
 73
               0
 97
        1
330
E2
 75
               0
 76
               1
 98
        1
 10
0.0
 20
0.0
  0
MTEXT
  5
E4
100
AcDbEntity
  8
0
390
0
 62
               0
100
AcDbMText
 10
162.04565473897128
 20
-549.72165247883981
 30
0.0
 40
24.432617187500004
 41
0.0
 71
               1
 72
               1
  1
180
  7
ＭＳ ゴシック
 11
0.0
 21
1.0
 31
0.0
 73
               1
 44
0.7828267384257843
  0
POINT
  5
E5
100
AcDbEntity
  8
Defpoints
370
               0
390
0
 62
               0
100
AcDbPoint
 10
534.125
 20
-615.90915079666479
 30
0.0
  0
POINT
  5
E6
100
AcDbEntity
  8
Defpoints
370
               0
390
0
 62
               0
100
AcDbPoint
 10
301.3807519130803
 20
-435.90915079666388
 30
0.0
  0
POINT
  5
E7
100
AcDbEntity
  8
Defpoints
370
               0
390
0
 62
               0
100
AcDbPoint
 10
195.92327192647122
 20
-435.90915079666388
 30
0.0
  0
ENDBLK
  5
E8
100
AcDbEntity
  8
notes
390
0
100
AcDbBlockEnd
  0
BLOCK
  5
E9
100
AcDbEntity
  8
notes
390
0
100
AcDbBlockBegin
  2
*D13
 70
               1
 10
0.0
 20
0.0
 30
0.0
  3
*D13
  1

  0
LINE
  5
EA
100
AcDbEntity
  8
0
370
              -2
390
0
  6
Continuous
 62
               0
100
AcDbLine
 10
790.77541908044827
 20
-410.90915079666388
 30
0.0
 11
790.77541908044827
 21
-335.90915079666388
 31
0.0
  0
LINE
  5
EB
100
AcDbEntity
  8
0
370
              -2
390
0
  6
Continuous
 62
               0
100
AcDbLine
 10
720.77541908044827
 20
-410.90915079666388
 30
0.0
 11
720.77541908044827
 21
-335.90915079666388
 31
0.0
  0
LINE
  5
EC
100
AcDbEntity
  8
0
370
              -2
390
0
  6
Continuous
 62
               0
100
AcDbLine
 10
790.77541908044827
 20
-335.90915079666388
 30
0.0
 11
720.77541908044827
 21
-335.90915079666388
 31
0.0
  0
CIRCLE
  5
ED
102
{ACAD_REACTORS
330
EE
102
}
100
AcDbEntity
  8
0
370
              -2
390
0
  6
Continuous
 62
               0
100
AcDbCircle
 10
790.77541908044827
 20
-335.90915079666388
 30
0.0
 40
1.9998779296875
  0
HATCH
  5
EE
100
AcDbEntity
  8
0
370
              -2
390
0
  6
Continuous
 62
               0
100
AcDbHatch
 10
0.0
 20
0.0
 30
0.0
210
0.0
220
0.0
230
1.0
  2
SOLID
 70
               1
 71
               1
 91
        1
 92
        1
 93
        1
 72
               2
 10
790.77541908044827
 20
-335.90915079666388
 40
1.9998779296875
 50
0.0
 51
360.0
 73
               0
 97
        1
330
ED
 75
               0
 76
               1
 98
        1
 10
0.0
 20
0.0
  0
CIRCLE
  5
EF
102
{ACAD_REACTORS
330
F0
102
}
100
AcDbEntity
  8
0
370
              -2
390
0
  6
Continuous
 62
               0
100
AcDbCircle
 10
720.77541908044827
 20
-335.90915079666388
 30
0.0
 40
1.9998779296875
  0
HATCH
  5
F0
100
AcDbEntity
  8
0
370
              -2
390
0
  6
Continuous
 62
               0
100
AcDbHatch
 10
0.0
 20
0.0
 30
0.0
210
0.0
220
0.0
230
1.0
  2
SOLID
 70
               1
 71
               1
 91
        1
 92
        1
 93
        1
 72
               2
 10
720.77541908044827
 20
-335.90915079666388
 40
1.9998779296875
 50
0.0
 51
360.0
 73
               0
 97
        1
330
EF
 75
               0
 76
               1
 98
        1
 10
0.0
 20
0.0
  0
MTEXT
  5
F1
100
AcDbEntity
  8
0
390
0
 62
               0
100
AcDbMText
 10
739.90041908044827
 20
-302.03153360916394
 30
0.0
 40
24.432617187500004
 41
0.0
 71
               1
 72
               1
  1
70
  7
ＭＳ ゴシック
 73
               1
 44
0.7828267384257843
  0
POINT
  5
F2
100
AcDbEntity
  8
Defpoints
370
               0
390
0
 62
               0
100
AcDbPoint
 10
720.77541908044827
 20
-435.90915079666388
 30
0.0
  0
POINT
  5
F3
100
AcDbEntity
  8
Defpoints
370
               0
390
0
 62
               0
100
AcDbPoint
 10
790.77541908044827
 20
-435.90915079666388
 30
0.0
  0
POINT
  5
F4
100
AcDbEntity
  8
Defpoints
370
               0
390
0
 62
               0
100
AcDbPoint
 10
790.77541908044827
 20
-335.90915079666388
 30
0.0
  0
ENDBLK
  5
F5
100
AcDbEntity
  8
notes
390
0
100
AcDbBlockEnd
  0
BLOCK
  5
F6
100
AcDbEntity
  8
notes
390
0
100
AcDbBlockBegin
  2
*D14
 70
               1
 10
0.0
 20
0.0
 30
0.0
  3
*D14
  1

  0
LINE
  5
F7
100
AcDbEntity
  8
0
370
              -2
390
0
  6
Continuous
 62
               0
100
AcDbLine
 10
790.77541908044827
 20
-645.90915079666274
 30
0.0
 11
790.77541908044827
 21
-720.90915079666479
 31
0.0
  0
LINE
  5
F8
100
AcDbEntity
  8
0
370
              -2
390
0
  6
Continuous
 62
               0
100
AcDbLine
 10
555.77541908044736
 20
-645.90915079666479
 30
0.0
 11
555.77541908044736
 21
-720.90915079666479
 31
0.0
  0
LINE
  5
F9
100
AcDbEntity
  8
0
370
              -2
390
0
  6
Continuous
 62
               0
100
AcDbLine
 10
790.77541908044827
 20
-720.90915079666479
 30
0.0
 11
555.77541908044736
 21
-720.90915079666479
 31
0.0
  0
CIRCLE
  5
FA
102
{ACAD_REACTORS
330
FB
102
}
100
AcDbEntity
  8
0
370
              -2
390
0
  6
Continuous
 62
               0
100
AcDbCircle
 10
790.77541908044827
 20
-720.90915079666479
 30
0.0
 40
1.9998779296875
  0
HATCH
  5
FB
100
AcDbEntity
  8
0
370
              -2
390
0
  6
Continuous
 62
               0
100
AcDbHatch
 10
0.0
 20
0.0
 30
0.0
210
0.0
220
0.0
230
1.0
  2
SOLID
 70
               1
 71
               1
 91
        1
 92
        1
 93
        1
 72
               2
 10
790.77541908044827
 20
-720.90915079666479
 40
1.9998779296875
 50
0.0
 51
360.0
 73
               0
 97
        1
330
FA
 75
               0
 76
               1
 98
        1
 10
0.0
 20
0.0
  0
CIRCLE
  5
FC
102
{ACAD_REACTORS
330
FD
102
}
100
AcDbEntity
  8
0
370
              -2
390
0
  6
Continuous
 62
               0
100
AcDbCircle
 10
555.77541908044736
 20
-720.90915079666479
 30
0.0
 40
1.9998779296875
  0
HATCH
  5
FD
100
AcDbEntity
  8
0
370
              -2
390
0
  6
Continuous
 62
               0
100
AcDbHatch
 10
0.0
 20
0.0
 30
0.0
210
0.0
220
0.0
230
1.0
  2
SOLID
 70
               1
 71
               1
 91
        1
 92
        1
 93
        1
 72
               2
 10
555.77541908044736
 20
-720.90915079666479
 40
1.9998779296875
 50
0.0
 51
360.0
 73
               0
 97
        1
330
FC
 75
               0
 76
               1
 98
        1
 10
0.0
 20
0.0
  0
MTEXT
  5
FE
100
AcDbEntity
  8
0
390
0
 62
               0
100
AcDbMText
 10
649.46291739827234
 20
-687.03153360916485
 30
0.0
 40
24.432617187500004
 41
0.0
 71
               1
 72
               1
  1
235
  7
ＭＳ ゴシック
 73
               1
 44
0.7828267384257843
  0
POINT
  5
FF
100
AcDbEntity
  8
Defpoints
370
               0
390
0
 62
               0
100
AcDbPoint
 10
555.77541908044736
 20
-620.90915079666479
 30
0.0
  0
POINT
  5
100
100
AcDbEntity
  8
Defpoints
370
               0
390
0
 62
               0
100
AcDbPoint
 10
790.77541908044827
 20
-620.90915079666274
 30
0.0
  0
POINT
  5
101
100
AcDbEntity
  8
Defpoints
370
               0
390
0
 62
               0
100
AcDbPoint
 10
790.77541908044827
 20
-720.90915079666479
 30
0.0
  0
ENDBLK
  5
102
100
AcDbEntity
  8
notes
390
0
100
AcDbBlockEnd
  0
BLOCK
  5
103
100
AcDbEntity
  8
notes
390
0
100
AcDbBlockBegin
  2
*D15
 70
               1
 10
0.0
 20
0.0
 30
0.0
  3
*D15
  1

  0
LINE
  5
104
100
AcDbEntity
  8
0
370
              -2
390
0
  6
Continuous
 62
               0
100
AcDbLine
 10
531.68677614052945
 20
477.01304708688747
 30
0.0
 11
606.68677614052945
 21
477.01304708688747
 31
0.0
  0
LINE
  5
105
100
AcDbEntity
  8
0
370
              -2
390
0
  6
Continuous
 62
               0
100
AcDbLine
 10
531.68677614052945
 20
780.01304708688735
 30
0.0
 11
606.68677614052945
 21
780.01304708688735
 31
0.0
  0
LINE
  5
106
100
AcDbEntity
  8
0
370
              -2
390
0
  6
Continuous
 62
               0
100
AcDbLine
 10
606.68677614052945
 20
477.01304708688747
 30
0.0
 11
606.68677614052945
 21
780.01304708688735
 31
0.0
  0
CIRCLE
  5
107
102
{ACAD_REACTORS
330
108
102
}
100
AcDbEntity
  8
0
370
              -2
390
0
  6
Continuous
 62
               0
100
AcDbCircle
 10
606.68677614052945
 20
477.01304708688747
 30
0.0
 40
1.9998779296875
  0
HATCH
  5
108
100
AcDbEntity
  8
0
370
              -2
390
0
  6
Continuous
 62
               0
100
AcDbHatch
 10
0.0
 20
0.0
 30
0.0
210
0.0
220
0.0
230
1.0
  2
SOLID
 70
               1
 71
               1
 91
        1
 92
        1
 93
        1
 72
               2
 10
606.68677614052945
 20
477.01304708688747
 40
1.9998779296875
 50
0.0
 51
360.0
 73
               0
 97
        1
330
107
 75
               0
 76
               1
 98
        1
 10
0.0
 20
0.0
  0
CIRCLE
  5
109
102
{ACAD_REACTORS
330
10A
102
}
100
AcDbEntity
  8
0
370
              -2
390
0
  6
Continuous
 62
               0
100
AcDbCircle
 10
606.68677614052945
 20
780.01304708688735
 30
0.0
 40
1.9998779296875
  0
HATCH
  5
10A
100
AcDbEntity
  8
0
370
              -2
390
0
  6
Continuous
 62
               0
100
AcDbHatch
 10
0.0
 20
0.0
 30
0.0
210
0.0
220
0.0
230
1.0
  2
SOLID
 70
               1
 71
               1
 91
        1
 92
        1
 93
        1
 72
               2
 10
606.68677614052945
 20
780.01304708688735
 40
1.9998779296875
 50
0.0
 51
360.0
 73
               0
 97
        1
330
109
 75
               0
 76
               1
 98
        1
 10
0.0
 20
0.0
  0
MTEXT
  5
10B
100
AcDbEntity
  8
0
390
0
 62
               0
100
AcDbMText
 10
572.8091589530294
 20
604.70054540471187
 30
0.0
 40
24.432617187500004
 41
0.0
 71
               1
 72
               1
  1
303
  7
ＭＳ ゴシック
 11
0.0
 21
1.0
 31
0.0
 73
               1
 44
0.7828267384257843
  0
POINT
  5
10C
100
AcDbEntity
  8
Defpoints
370
               0
390
0
 62
               0
100
AcDbPoint
 10
506.68677614052945
 20
780.01304708688735
 30
0.0
  0
POINT
  5
10D
100
AcDbEntity
  8
Defpoints
370
               0
390
0
 62
               0
100
AcDbPoint
 10
506.68677614052945
 20
477.01304708688747
 30
0.0
  0
POINT
  5
10E
100
AcDbEntity
  8
Defpoints
370
               0
390
0
 62
               0
100
AcDbPoint
 10
606.68677614052945
 20
477.01304708688747
 30
0.0
  0
ENDBLK
  5
10F
100
AcDbEntity
  8
notes
390
0
100
AcDbBlockEnd
  0
BLOCK
  5
110
100
AcDbEntity
  8
notes
390
0
100
AcDbBlockBegin
  2
*D16
 70
               1
 10
0.0
 20
0.0
 30
0.0
  3
*D16
  1

  0
LINE
  5
111
100
AcDbEntity
  8
0
370
              -2
390
0
  6
Continuous
 62
               0
100
AcDbLine
 10
371.68677614052945
 20
452.01304708688747
 30
0.0
 11
371.68677614052945
 21
377.01304708688747
 31
0.0
  0
LINE
  5
112
100
AcDbEntity
  8
0
370
              -2
390
0
  6
Continuous
 62
               0
100
AcDbLine
 10
506.68677614052945
 20
452.01304708688747
 30
0.0
 11
506.68677614052945
 21
377.01304708688747
 31
0.0
  0
LINE
  5
113
100
AcDbEntity
  8
0
370
              -2
390
0
  6
Continuous
 62
               0
100
AcDbLine
 10
371.68677614052945
 20
377.01304708688747
 30
0.0
 11
506.68677614052945
 21
377.01304708688747
 31
0.0
  0
CIRCLE
  5
114
102
{ACAD_REACTORS
330
115
102
}
100
AcDbEntity
  8
0
370
              -2
390
0
  6
Continuous
 62
               0
100
AcDbCircle
 10
371.68677614052945
 20
377.01304708688747
 30
0.0
 40
1.9998779296875
  0
HATCH
  5
115
100
AcDbEntity
  8
0
370
              -2
390
0
  6
Continuous
 62
               0
100
AcDbHatch
 10
0.0
 20
0.0
 30
0.0
210
0.0
220
0.0
230
1.0
  2
SOLID
 70
               1
 71
               1
 91
        1
 92
        1
 93
        1
 72
               2
 10
371.68677614052945
 20
377.01304708688747
 40
1.9998779296875
 50
0.0
 51
360.0
 73
               0
 97
        1
330
114
 75
               0
 76
               1
 98
        1
 10
0.0
 20
0.0
  0
CIRCLE
  5
116
102
{ACAD_REACTORS
330
117
102
}
100
AcDbEntity
  8
0
370
              -2
390
0
  6
Continuous
 62
               0
100
AcDbCircle
 10
506.68677614052945
 20
377.01304708688747
 30
0.0
 40
1.9998779296875
  0
HATCH
  5
117
100
AcDbEntity
  8
0
370
              -2
390
0
  6
Continuous
 62
               0
100
AcDbHatch
 10
0.0
 20
0.0
 30
0.0
210
0.0
220
0.0
230
1.0
  2
SOLID
 70
               1
 71
               1
 91
        1
 92
        1
 93
        1
 72
               2
 10
506.68677614052945
 20
377.01304708688747
 40
1.9998779296875
 50
0.0
 51
360.0
 73
               0
 97
        1
330
116
 75
               0
 76
               1
 98
        1
 10
0.0
 20
0.0
  0
MTEXT
  5
118
100
AcDbEntity
  8
0
390
0
 62
               0
100
AcDbMText
 10
415.37427445835397
 20
410.89066427438752
 30
0.0
 40
24.432617187500004
 41
0.0
 71
               1
 72
               1
  1
135
  7
ＭＳ ゴシック
 73
               1
 44
0.7828267384257843
  0
POINT
  5
119
100
AcDbEntity
  8
Defpoints
370
               0
390
0
 62
               0
100
AcDbPoint
 10
506.68677614052945
 20
477.01304708688747
 30
0.0
  0
POINT
  5
11A
100
AcDbEntity
  8
Defpoints
370
               0
390
0
 62
               0
100
AcDbPoint
 10
371.68677614052945
 20
477.01304708688747
 30
0.0
  0
POINT
  5
11B
100
AcDbEntity
  8
Defpoints
370
               0
390
0
 62
               0
100
AcDbPoint
 10
371.68677614052945
 20
377.01304708688747
 30
0.0
  0
ENDBLK
  5
11C
100
AcDbEntity
  8
notes
390
0
100
AcDbBlockEnd
  0
BLOCK
  5
11D
100
AcDbEntity
  8
notes
390
0
100
AcDbBlockBegin
  2
*D17
 70
               1
 10
0.0
 20
0.0
 30
0.0
  3
*D17
  1

  0
LINE
  5
11E
100
AcDbEntity
  8
0
370
              -2
390
0
  6
Continuous
 62
               0
100
AcDbLine
 10
308.18677614052945
 20
530.01304708688747
 30
0.0
 11
269.92327192647031
 21
530.01304708688747
 31
0.0
  0
LINE
  5
11F
100
AcDbEntity
  8
0
370
              -2
390
0
  6
Continuous
 62
               0
100
AcDbLine
 10
308.18677614052945
 20
780.01304708688735
 30
0.0
 11
269.92327192647031
 21
780.01304708688735
 31
0.0
  0
LINE
  5
120
100
AcDbEntity
  8
0
370
              -2
390
0
  6
Continuous
 62
               0
100
AcDbLine
 10
269.92327192647031
 20
530.01304708688747
 30
0.0
 11
269.92327192647031
 21
780.01304708688735
 31
0.0
  0
CIRCLE
  5
121
102
{ACAD_REACTORS
330
122
102
}
100
AcDbEntity
  8
0
370
              -2
390
0
  6
Continuous
 62
               0
100
AcDbCircle
 10
269.92327192647031
 20
530.01304708688747
 30
0.0
 40
1.9998779296875
  0
HATCH
  5
122
100
AcDbEntity
  8
0
370
              -2
390
0
  6
Continuous
 62
               0
100
AcDbHatch
 10
0.0
 20
0.0
 30
0.0
210
0.0
220
0.0
230
1.0
  2
SOLID
 70
               1
 71
               1
 91
        1
 92
        1
 93
        1
 72
               2
 10
269.92327192647031
 20
530.01304708688747
 40
1.9998779296875
 50
0.0
 51
360.0
 73
               0
 97
        1
330
121
 75
               0
 76
               1
 98
        1
 10
0.0
 20
0.0
  0
CIRCLE
  5
123
102
{ACAD_REACTORS
330
124
102
}
100
AcDbEntity
  8
0
370
              -2
390
0
  6
Continuous
 62
               0
100
AcDbCircle
 10
269.92327192647031
 20
780.01304708688735
 30
0.0
 40
1.9998779296875
  0
HATCH
  5
124
100
AcDbEntity
  8
0
370
              -2
390
0
  6
Continuous
 62
               0
100
AcDbHatch
 10
0.0
 20
0.0
 30
0.0
210
0.0
220
0.0
230
1.0
  2
SOLID
 70
               1
 71
               1
 91
        1
 92
        1
 93
        1
 72
               2
 10
269.92327192647031
 20
780.01304708688735
 40
1.9998779296875
 50
0.0
 51
360.0
 73
               0
 97
        1
330
123
 75
               0
 76
               1
 98
        1
 10
0.0
 20
0.0
  0
MTEXT
  5
125
100
AcDbEntity
  8
0
390
0
 62
               0
100
AcDbMText
 10
236.04565473897037
 20
631.20054540471187
 30
0.0
 40
24.432617187500004
 41
0.0
 71
               1
 72
               1
  1
250
  7
ＭＳ ゴシック
 11
0.0
 21
1.0
 31
0.0
 73
               1
 44
0.7828267384257843
  0
POINT
  5
126
100
AcDbEntity
  8
Defpoints
370
               0
390
0
 62
               0
100
AcDbPoint
 10
333.18677614052945
 20
780.01304708688735
 30
0.0
  0
POINT
  5
127
100
AcDbEntity
  8
Defpoints
370
               0
390
0
 62
               0
100
AcDbPoint
 10
333.18677614052945
 20
530.01304708688747
 30
0.0
  0
POINT
  5
128
100
AcDbEntity
  8
Defpoints
370
               0
390
0
 62
               0
100
AcDbPoint
 10
269.92327192647031
 20
530.01304708688747
 30
0.0
  0
ENDBLK
  5
129
100
AcDbEntity
  8
notes
390
0
100
AcDbBlockEnd
  0
BLOCK
  5
12A
100
AcDbEntity
  8
notes
390
0
100
AcDbBlockBegin
  2
*D18
 70
               1
 10
0.0
 20
0.0
 30
0.0
  3
*D18
  1

  0
LINE
  5
12B
100
AcDbEntity
  8
0
370
              -2
390
0
  6
Continuous
 62
               0
100
AcDbLine
 10
339.18677614052945
 20
499.01304708688747
 30
0.0
 11
339.18677614052945
 21
327.01304708688747
 31
0.0
  0
LINE
  5
12C
100
AcDbEntity
  8
0
370
              -2
390
0
  6
Continuous
 62
               0
100
AcDbLine
 10
539.18677614052945
 20
499.01304708688747
 30
0.0
 11
539.18677614052945
 21
327.01304708688747
 31
0.0
  0
LINE
  5
12D
100
AcDbEntity
  8
0
370
              -2
390
0
  6
Continuous
 62
               0
100
AcDbLine
 10
339.18677614052945
 20
327.01304708688747
 30
0.0
 11
539.18677614052945
 21
327.01304708688747
 31
0.0
  0
CIRCLE
  5
12E
102
{ACAD_REACTORS
330
12F
102
}
100
AcDbEntity
  8
0
370
              -2
390
0
  6
Continuous
 62
               0
100
AcDbCircle
 10
339.18677614052945
 20
327.01304708688747
 30
0.0
 40
1.9998779296875
  0
HATCH
  5
12F
100
AcDbEntity
  8
0
370
              -2
390
0
  6
Continuous
 62
               0
100
AcDbHatch
 10
0.0
 20
0.0
 30
0.0
210
0.0
220
0.0
230
1.0
  2
SOLID
 70
               1
 71
               1
 91
        1
 92
        1
 93
        1
 72
               2
 10
339.18677614052945
 20
327.01304708688747
 40
1.9998779296875
 50
0.0
 51
360.0
 73
               0
 97
        1
330
12E
 75
               0
 76
               1
 98
        1
 10
0.0
 20
0.0
  0
CIRCLE
  5
130
102
{ACAD_REACTORS
330
131
102
}
100
AcDbEntity
  8
0
370
              -2
390
0
  6
Continuous
 62
               0
100
AcDbCircle
 10
539.18677614052945
 20
327.01304708688747
 30
0.0
 40
1.9998779296875
  0
HATCH
  5
131
100
AcDbEntity
  8
0
370
              -2
390
0
  6
Continuous
 62
               0
100
AcDbHatch
 10
0.0
 20
0.0
 30
0.0
210
0.0
220
0.0
230
1.0
  2
SOLID
 70
               1
 71
               1
 91
        1
 92
        1
 93
        1
 72
               2
 10
539.18677614052945
 20
327.01304708688747
 40
1.9998779296875
 50
0.0
 51
360.0
 73
               0
 97
        1
330
130
 75
               0
 76
               1
 98
        1
 10
0.0
 20
0.0
  0
MTEXT
  5
132
100
AcDbEntity
  8
0
390
0
 62
               0
100
AcDbMText
 10
415.37427445835397
 20
360.89066427438752
 30
0.0
 40
24.432617187500004
 41
0.0
 71
               1
 72
               1
  1
200
  7
ＭＳ ゴシック
 73
               1
 44
0.7828267384257843
  0
POINT
  5
133
100
AcDbEntity
  8
Defpoints
370
               0
390
0
 62
               0
100
AcDbPoint
 10
539.18677614052945
 20
524.01304708688747
 30
0.0
  0
POINT
  5
134
100
AcDbEntity
  8
Defpoints
370
               0
390
0
 62
               0
100
AcDbPoint
 10
339.18677614052945
 20
524.01304708688747
 30
0.0
  0
POINT
  5
135
100
AcDbEntity
  8
Defpoints
370
               0
390
0
 62
               0
100
AcDbPoint
 10
339.18677614052945
 20
327.01304708688747
 30
0.0
  0
ENDBLK
  5
136
100
AcDbEntity
  8
notes
390
0
100
AcDbBlockEnd
  0
BLOCK
  5
137
100
AcDbEntity
  8
notes
390
0
100
AcDbBlockBegin
  2
*D19
 70
               1
 10
0.0
 20
0.0
 30
0.0
  3
*D19
  1

  0
LINE
  5
138
100
AcDbEntity
  8
0
370
              -2
390
0
  6
Continuous
 62
               0
100
AcDbLine
 10
-590.21322385946928
 20
-645.90915079666479
 30
0.0
 11
-590.21322385946928
 21
-720.90915079666479
 31
0.0
  0
LINE
  5
139
100
AcDbEntity
  8
0
370
              -2
390
0
  6
Continuous
 62
               0
100
AcDbLine
 10
-360.21322385944677
 20
-645.90915079665615
 30
0.0
 11
-360.21322385944677
 21
-720.90915079666479
 31
0.0
  0
LINE
  5
13A
100
AcDbEntity
  8
0
370
              -2
390
0
  6
Continuous
 62
               0
100
AcDbLine
 10
-590.21322385946928
 20
-720.90915079666479
 30
0.0
 11
-360.21322385944677
 21
-720.90915079666479
 31
0.0
  0
CIRCLE
  5
13B
102
{ACAD_REACTORS
330
13C
102
}
100
AcDbEntity
  8
0
370
              -2
390
0
  6
Continuous
 62
               0
100
AcDbCircle
 10
-590.21322385946928
 20
-720.90915079666479
 30
0.0
 40
1.9998779296875
  0
HATCH
  5
13C
100
AcDbEntity
  8
0
370
              -2
390
0
  6
Continuous
 62
               0
100
AcDbHatch
 10
0.0
 20
0.0
 30
0.0
210
0.0
220
0.0
230
1.0
  2
SOLID
 70
               1
 71
               1
 91
        1
 92
        1
 93
        1
 72
               2
 10
-590.21322385946928
 20
-720.90915079666479
 40
1.9998779296875
 50
0.0
 51
360.0
 73
               0
 97
        1
330
13B
 75
               0
 76
               1
 98
        1
 10
0.0
 20
0.0
  0
CIRCLE
  5
13D
102
{ACAD_REACTORS
330
13E
102
}
100
AcDbEntity
  8
0
370
              -2
390
0
  6
Continuous
 62
               0
100
AcDbCircle
 10
-360.21322385944677
 20
-720.90915079666479
 30
0.0
 40
1.9998779296875
  0
HATCH
  5
13E
100
AcDbEntity
  8
0
370
              -2
390
0
  6
Continuous
 62
               0
100
AcDbHatch
 10
0.0
 20
0.0
 30
0.0
210
0.0
220
0.0
230
1.0
  2
SOLID
 70
               1
 71
               1
 91
        1
 92
        1
 93
        1
 72
               2
 10
-360.21322385944677
 20
-720.90915079666479
 40
1.9998779296875
 50
0.0
 51
360.0
 73
               0
 97
        1
330
13D
 75
               0
 76
               1
 98
        1
 10
0.0
 20
0.0
  0
MTEXT
  5
13F
100
AcDbEntity
  8
0
390
0
 62
               0
100
AcDbMText
 10
-499.02572554163339
 20
-687.03153360916485
 30
0.0
 40
24.432617187500004
 41
0.0
 71
               1
 72
               1
  1
230
  7
ＭＳ ゴシック
 73
               1
 44
0.7828267384257843
  0
POINT
  5
140
100
AcDbEntity
  8
Defpoints
370
               0
390
0
 62
               0
100
AcDbPoint
 10
-360.21322385944677
 20
-620.90915079665615
 30
0.0
  0
POINT
  5
141
100
AcDbEntity
  8
Defpoints
370
               0
390
0
 62
               0
100
AcDbPoint
 10
-590.21322385946928
 20
-620.90915079666479
 30
0.0
  0
POINT
  5
142
100
AcDbEntity
  8
Defpoints
370
               0
390
0
 62
               0
100
AcDbPoint
 10
-590.21322385946928
 20
-720.90915079666479
 30
0.0
  0
ENDBLK
  5
143
100
AcDbEntity
  8
notes
390
0
100
AcDbBlockEnd
  0
BLOCK
  5
144
100
AcDbEntity
  8
notes
390
0
100
AcDbBlockBegin
  2
*D20
 70
               1
 10
0.0
 20
0.0
 30
0.0
  3
*D20
  1

  0
LINE
  5
145
100
AcDbEntity
  8
0
370
              -2
390
0
  6
Continuous
 62
               0
100
AcDbLine
 10
790.77541908044827
 20
-645.90915079666274
 30
0.0
 11
790.77541908044827
 21
-770.90915079666479
 31
0.0
  0
LINE
  5
146
100
AcDbEntity
  8
0
370
              -2
390
0
  6
Continuous
 62
               0
100
AcDbLine
 10
390.77541908044827
 20
-645.90915079674346
 30
0.0
 11
390.77541908044827
 21
-770.90915079666479
 31
0.0
  0
LINE
  5
147
100
AcDbEntity
  8
0
370
              -2
390
0
  6
Continuous
 62
               0
100
AcDbLine
 10
790.77541908044827
 20
-770.90915079666479
 30
0.0
 11
390.77541908044827
 21
-770.90915079666479
 31
0.0
  0
CIRCLE
  5
148
102
{ACAD_REACTORS
330
149
102
}
100
AcDbEntity
  8
0
370
              -2
390
0
  6
Continuous
 62
               0
100
AcDbCircle
 10
790.77541908044827
 20
-770.90915079666479
 30
0.0
 40
1.9998779296875
  0
HATCH
  5
149
100
AcDbEntity
  8
0
370
              -2
390
0
  6
Continuous
 62
               0
100
AcDbHatch
 10
0.0
 20
0.0
 30
0.0
210
0.0
220
0.0
230
1.0
  2
SOLID
 70
               1
 71
               1
 91
        1
 92
        1
 93
        1
 72
               2
 10
790.77541908044827
 20
-770.90915079666479
 40
1.9998779296875
 50
0.0
 51
360.0
 73
               0
 97
        1
330
148
 75
               0
 76
               1
 98
        1
 10
0.0
 20
0.0
  0
CIRCLE
  5
14A
102
{ACAD_REACTORS
330
14B
102
}
100
AcDbEntity
  8
0
370
              -2
390
0
  6
Continuous
 62
               0
100
AcDbCircle
 10
390.77541908044827
 20
-770.90915079666479
 30
0.0
 40
1.9998779296875
  0
HATCH
  5
14B
100
AcDbEntity
  8
0
370
              -2
390
0
  6
Continuous
 62
               0
100
AcDbHatch
 10
0.0
 20
0.0
 30
0.0
210
0.0
220
0.0
230
1.0
  2
SOLID
 70
               1
 71
               1
 91
        1
 92
        1
 93
        1
 72
               2
 10
390.77541908044827
 20
-770.90915079666479
 40
1.9998779296875
 50
0.0
 51
360.0
 73
               0
 97
        1
330
14A
 75
               0
 76
               1
 98
        1
 10
0.0
 20
0.0
  0
MTEXT
  5
14C
100
AcDbEntity
  8
0
390
0
 62
               0
100
AcDbMText
 10
566.96291739827279
 20
-737.03153360916485
 30
0.0
 40
24.432617187500004
 41
0.0
 71
               1
 72
               1
  1
400
  7
ＭＳ ゴシック
 73
               1
 44
0.7828267384257843
  0
POINT
  5
14D
100
AcDbEntity
  8
Defpoints
370
               0
390
0
 62
               0
100
AcDbPoint
 10
390.77541908044827
 20
-620.90915079674346
 30
0.0
  0
POINT
  5
14E
100
AcDbEntity
  8
Defpoints
370
               0
390
0
 62
               0
100
AcDbPoint
 10
790.77541908044827
 20
-620.90915079666274
 30
0.0
  0
POINT
  5
14F
100
AcDbEntity
  8
Defpoints
370
               0
390
0
 62
               0
100
AcDbPoint
 10
790.77541908044827
 20
-770.90915079666479
 30
0.0
  0
ENDBLK
  5
150
100
AcDbEntity
  8
notes
390
0
100
AcDbBlockEnd
  0
BLOCK
  5
151
100
AcDbEntity
  8
notes
390
0
100
AcDbBlockBegin
  2
*D21
 70
               1
 10
0.0
 20
0.0
 30
0.0
  3
*D21
  1

  0
LINE
  5
152
100
AcDbEntity
  8
0
370
              -2
390
0
  6
Continuous
 62
               0
100
AcDbLine
 10
-462.16380559893719
 20
721.56993231643537
 30
0.0
 11
-341.79093437669167
 21
828.22249146927606
 31
0.0
  0
CIRCLE
  5
153
102
{ACAD_REACTORS
330
154
102
}
100
AcDbEntity
  8
0
370
              -2
390
0
  6
Continuous
 62
               0
100
AcDbCircle
 10
-462.16380559893719
 20
721.56993231643537
 30
0.0
 40
1.9998779296875
  0
HATCH
  5
154
100
AcDbEntity
  8
0
370
              -2
390
0
  6
Continuous
 62
               0
100
AcDbHatch
 10
0.0
 20
0.0
 30
0.0
210
0.0
220
0.0
230
1.0
  2
SOLID
 70
               1
 71
               1
 91
        1
 92
        1
 93
        1
 72
               2
 10
-462.16380559893719
 20
721.56993231643537
 40
1.9998779296875
 50
0.0
 51
360.0
 73
               0
 97
        1
330
153
 75
               0
 76
               1
 98
        1
 10
0.0
 20
0.0
  0
LINE
  5
155
100
AcDbEntity
  8
0
370
              -2
390
0
  6
Continuous
 62
               0
100
AcDbLine
 10
-341.79093437669167
 20
828.22249146927606
 30
0.0
 11
-218.29093437669167
 21
828.22249146927606
 31
0.0
  0
MTEXT
  5
156
100
AcDbEntity
  8
0
390
0
 62
               0
100
AcDbMText
 10
-281.79093437669167
 20
862.100108656776
 30
0.0
 40
24.432617187500004
 41
0.0
 71
               1
 72
               1
  1
φ35
  7
ＭＳ ゴシック
 73
               1
 44
0.7828267384257843
  0
POINT
  5
157
100
AcDbEntity
  8
Defpoints
370
               0
390
0
 62
               0
100
AcDbPoint
 10
-488.36043941369667
 20
698.35923700639773
 30
0.0
  0
POINT
  5
158
100
AcDbEntity
  8
Defpoints
370
               0
390
0
 62
               0
100
AcDbPoint
 10
-462.16380559893719
 20
721.56993231643537
 30
0.0
  0
ENDBLK
  5
159
100
AcDbEntity
  8
notes
390
0
100
AcDbBlockEnd
  0
BLOCK
  5
15A
100
AcDbEntity
  8
notes
390
0
100
AcDbBlockBegin
  2
グループ
 70
               0
 10
0.0
 20
0.0
 30
0.0
  3
グループ
  1

  0
LINE
  5
15B
100
AcDbEntity
  8
0
370
               5
390
0
  6
Continuous
 62
               7
100
AcDbLine
 10
-861.11938590905822
 20
-236.85321052280801
 30
0.0
 11
-898.1193859090622
 21
-273.85321052280801
 31
0.0
  0
LINE
  5
15C
100
AcDbEntity
  8
0
370
               5
390
0
  6
Continuous
 62
               7
100
AcDbLine
 10
-881.1193859090622
 20
-236.85321052280801
 30
0.0
 11
-918.1193859090622
 21
-273.85321052280801
 31
0.0
  0
LINE
  5
15D
100
AcDbEntity
  8
0
370
               5
390
0
  6
Continuous
 62
               7
100
AcDbLine
 10
-901.1193859090622
 20
-236.85321052280801
 30
0.0
 11
-938.1193859090622
 21
-273.85321052280801
 31
0.0
  0
ENDBLK
  5
15E
100
AcDbEntity
  8
notes
390
0
100
AcDbBlockEnd
  0
BLOCK
  5
15F
100
AcDbEntity
  8
ARJ70-0104
390
0
100
AcDbBlockBegin
  2
グループ-1
 70
               0
 10
0.0
 20
0.0
 30
0.0
  3
グループ-1
  1

  0
LINE
  5
160
100
AcDbEntity
  8
0
370
              15
390
0
  6
STYLE_13
 62
               7
100
AcDbLine
 10
-998.61681967463596
 20
-1635.9922276470479
 30
0.0
 11
-1019.7593803189577
 21
-1635.9922276470479
 31
0.0
  0
LINE
  5
161
100
AcDbEntity
  8
0
370
              15
390
0
  6
STYLE_13
 62
               7
100
AcDbLine
 10
-1041.9176578355325
 20
-1635.9922276470479
 30
0.0
 11
-1041.9176578355325
 21
-1669.7754084063602
 31
0.0
  0
LINE
  5
162
100
AcDbEntity
  8
0
370
              15
390
0
  6
STYLE_13
 62
               7
100
AcDbLine
 10
-1041.9176578355325
 20
-1635.9922276470479
 30
0.0
 11
-1019.7593803189577
 21
-1635.9922276470479
 31
0.0
  0
LINE
  5
163
100
AcDbEntity
  8
0
370
              15
390
0
  6
STYLE_13
 62
               7
100
AcDbLine
 10
-998.61681967463596
 20
-1635.9922276470479
 30
0.0
 11
-998.61681967463596
 21
-1669.7754084063602
 31
0.0
  0
ENDBLK
  5
164
100
AcDbEntity
  8
ARJ70-0104
390
0
100
AcDbBlockEnd
  0
ENDSEC
  0
SECTION
  2
ENTITIES
  0
MTEXT
  5
165
100
AcDbEntity
  8
template
390
0
 62
               7
100
AcDbMText
 10
-967.99999999975921
 20
-1134.6535143187939
 30
0.0
 40
16.288411458333332
 41
0.0
 71
               1
 72
               1
  1
品名
  7
ＭＳ ゴシック
 73
               1
 44
0.7828267384257843
  0
MTEXT
  5
166
100
AcDbEntity
  8
template
390
0
 62
               7
100
AcDbMText
 10
-967.99999999975921
 20
-1219.6535143187939
 30
0.0
 40
16.288411458333332
 41
0.0
 71
               1
 72
               1
  1
仕様
  7
ＭＳ ゴシック
 73
               1
 44
0.7828267384257843
  0
MTEXT
  5
167
100
AcDbEntity
  8
template
390
0
 62
               7
100
AcDbMText
 10
-914.99999999975921
 20
-1163.2359752562938
 30
0.0
 40
24.432617187500004
 41
0.0
 71
               1
 72
               1
  1
洗面器 -POZZI GINORI,Join-
  7
ＭＳ ゴシック
 73
               1
 44
0.7828267384257843
  0
LINE
  5
168
100
AcDbEntity
  8
template
370
               5
390
0
  6
Continuous
 62
               7
100
AcDbLine
 10
974.99999999975876
 20
-1211.238592443794
 30
0.0
 11
-975.00000000024124
 21
-1211.238592443794
 31
0.0
  0
LWPOLYLINE
  5
169
100
AcDbEntity
  8
template
370
               5
390
0
  6
Continuous
 62
               7
100
AcDbPolyline
 90
        5
 70
             128
 10
975.00000000024124
 20
1418.761407556206
 10
-974.99999999975921
 20
1418.761407556206
 10
-974.99999999975921
 20
-1381.238592443794
 10
975.00000000024124
 20
-1381.238592443794
 10
975.00000000024124
 20
1418.761407556206
  0
LINE
  5
16A
100
AcDbEntity
  8
template
370
               5
390
0
  6
Continuous
 62
               7
100
AcDbLine
 10
974.99999999975876
 20
-1126.238592443794
 30
0.0
 11
-975.00000000024124
 21
-1126.238592443794
 31
0.0
  0
LINE
  5
16B
100
AcDbEntity
  8
template
370
               5
390
0
  6
Continuous
 62
               7
100
AcDbLine
 10
975.00000000024124
 20
-1296.238592443794
 30
0.0
 11
222.00000000024124
 21
-1296.238592443794
 31
0.0
  0
MTEXT
  5
16C
100
AcDbEntity
  8
template
390
0
 62
               7
100
AcDbMText
 10
-974.99999999955639
 20
-1393.0924145006511
 30
0.0
 40
21.717881944444446
 41
0.0
 71
               1
 72
               1
  1
100713SH
  7
ＭＳ ゴシック
 73
               1
 44
0.7828267384257843
  0
MTEXT
  5
16D
100
AcDbEntity
  8
template
390
0
 62
               7
100
AcDbMText
 10
251.87140625250072
 20
-1326.1489869171014
 30
0.0
 40
24.432617187500004
 41
0.0
 71
               1
 72
               1
  1
大洋金物株式会社 ティーフォルム事業部
  7
ＭＳ ゴシック
 73
               1
 44
0.7828267384257843
  0
LWPOLYLINE
  5
16E
100
AcDbEntity
  8
template
370
              15
390
0
  6
Continuous
 62
               7
100
AcDbPolyline
 90
        8
 70
             129
 10
887.42850780307458
 20
-1321.7256061087796
 10
887.42850780307458
 20
-1327.7229948023555
 10
877.92731088507139
 20
-1327.7229948023555
 10
877.92731088507139
 20
-1352.1739580658641
 10
869.57193362328849
 20
-1352.1739580658641
 10
869.57193362328849
 20
-1327.7229948023555
 10
860.23897667697906
 20
-1327.7229948023555
 10
860.23897667697906
 20
-1321.7256061087796
  0
LWPOLYLINE
  5
16F
100
AcDbEntity
  8
template
370
              15
390
0
  6
Continuous
 62
               7
100
AcDbPolyline
 90
      101
 70
             128
 10
900.15679963363164
 20
-1322.4538546017161
 10
900.17214966241613
 20
-1322.4494938450312
 42
-0.0222221607821848
 10
900.46215423908768
 20
-1322.380869379786
 10
900.4779480030802
 20
-1322.3778659566892
 42
-0.0146883565592263
 10
900.74065070830545
 20
-1322.3358627697398
 42
-0.0127458844182487
 10
901.00528967545711
 20
-1322.3083258016677
 10
901.06774475377119
 20
-1322.3034323790794
 42
-0.0198099018569784
 10
901.45859386323718
 20
-1322.2883472216827
 10
901.5104053326919
 20
-1322.2884009973477
 42
-0.0147617382760061
 10
902.00502879367173
 20
-1322.3035210225926
 10
902.07772024854114
 20
-1322.3078936294801
 42
-0.0162624549005318
 10
902.46787387800555
 20
-1322.3441265047527
 10
902.58940626927745
 20
-1322.3594130637507
 42
-0.0080020874656847
 10
902.73498530035636
 20
-1322.3800959110172
 10
902.77330477094699
 20
-1322.3861671888276
 42
-0.0053821929670658
 10
902.84178887626626
 20
-1322.3977747126501
 10
902.11538317706754
 20
-1324.578703168364
 42
0.0108667757397493
 10
902.04806610694186
 20
-1324.5655160531451
 10
902.01059808374725
 20
-1324.5590183105496
 42
0.0170663203298218
 10
901.86738129683283
 20
-1324.5391887132578
 10
901.79950596414869
 20
-1324.5321415426702
 42
0.0220162375270667
 10
901.5191265562911
 20
-1324.5154591819
 10
901.44127098924218
 20
-1324.514259814634
 42
0.0282606915786226
 10
901.10563466566339
 20
-1324.5280630916027
 10
901.06172139188584
 20
-1324.5323630816069
 42
0.0169677213693494
 10
900.81579689693217
 20
-1324.5649001311581
 42
0.0190576269860638
 10
900.57288893435611
 20
-1324.615047003264
 10
900.56662974624135
 20
-1324.6165899773741
 42
0.02136856428457
 10
900.31624526176154
 20
-1324.6897902624796
 10
900.31075536684739
 20
-1324.6916532585378
 42
0.0237595297580439
 10
900.05726048194731
 20
-1324.7913377804339
 10
900.05215840791902
 20
-1324.7936295559116
 42
0.0261857468812721
 10
899.79998763168828
 20
-1324.9231658932868
 10
899.78956144260178
 20
-1324.9292313677552
 42
0.0272553062017996
 10
899.55313166736357
 20
-1325.084603573699
 10
899.51836865385314
 20
-1325.1102647217917
 42
0.0325996893173164
 10
899.36821331020258
 20
-1325.2370125947623
 10
899.344503881077
 20
-1325.2598306232776
 42
0.0138050960639361
 10
899.2526207248693
 20
-1325.3532802848272
 42
0.0125280103812192
 10
899.16577819203576
 20
-1325.4514436114268
 10
899.14209774712742
 20
-1325.4796021096145
 42
0.0205218024731412
 10
899.01699767161438
 20
-1325.6413954238428
 10
898.99453133112661
 20
-1325.6730551536707
 42
0.016311012958216
 10
898.83882095187641
 20
-1325.9083855887388
 10
898.83609705582433
 20
-1325.9128093507261
 42
0.0131897341890155
 10
898.68929653491944
 20
-1326.1659414430883
 10
898.68759643955195
 20
-1326.1690596822259
 42
0.0107895576069143
 10
898.54981973734016
 20
-1326.4352748918632
 10
898.54908684781617
 20
-1326.4367691245075
 42
0.0091371507205877
 10
898.42060689916525
 20
-1326.7112943222705
 10
898.39086126775749
 20
-1326.7780008294262
 42
0.0135418326353996
 10
898.21914732868584
 20
-1327.1929386146949
 10
898.18554252025137
 20
-1327.2808047569761
 42
0.0092834542411357
 10
898.01431346033064
 20
-1327.7547032552816
 10
897.98869633261563
 20
-1327.8299443250671
 42
0.0054261043577361
 10
897.88105818432007
 20
-1328.1577082981398
 10
897.86353219813486
 20
-1328.2130964603944
 42
0.000822509081035
 10
897.79486214631265
 20
-1328.4313652185192
 10
896.81017301437919
 20
-1331.4562565117758
 10
900.04279685445294
 20
-1331.4562565117758
 10
899.5386044245995
 20
-1333.3607348101282
 10
896.28254814261618
 20
-1333.3607348101282
 10
890.45339911026235
 20
-1352.173957876133
 10
888.62830149995216
 20
-1352.173957876133
 10
894.46297953545309
 20
-1333.3607348101282
 10
892.05786316641274
 20
-1333.3607348101282
 10
892.56205559626619
 20
-1331.4562565117758
 10
894.9906044072161
 20
-1331.4562565117758
 10
895.85075932540485
 20
-1328.8198435110767
 42
-0.0005863560625174
 10
895.88749400358142
 20
-1328.7030170908702
 10
895.96358183726863
 20
-1328.4620247913995
 42
-0.0087522378929397
 10
896.1630499807253
 20
-1327.8667487042535
 10
896.25531425613917
 20
-1327.6066085357397
 42
-0.0077400953829173
 10
896.51324791527009
 20
-1326.9136038581923
 10
896.52901288684996
 20
-1326.8731729748038
 42
-0.0082369946331563
 10
896.77609735746091
 20
-1326.2690939086101
 42
-0.0085725238365023
 10
897.04334345346274
 20
-1325.6736678693255
 10
897.14497305447208
 20
-1325.4572467673365
 42
-0.0168109410600515
 10
897.43191748320123
 20
-1324.8960392412337
 10
897.55776087363665
 20
-1324.6690752082791
 42
-0.0007817726870808
 10
897.6120452237169
 20
-1324.5715309632055
 10
897.61217352973188
 20
-1324.5713012544734
 42
-0.0036626142174497
 10
897.66706139375538
 20
-1324.4747033745002
 42
-0.0080221150677153
 10
897.72418564915972
 20
-1324.3794241397513
 10
897.75488560052327
 20
-1324.3300331906253
 42
-0.0202139325563625
 10
897.88254134032991
 20
-1324.1420515899435
 10
897.93660880551761
 20
-1324.0689727257027
 42
-0.0249323791798369
 10
898.19577159923665
 20
-1323.7529274835483
 10
898.21991141336377
 20
-1323.7263132106359
 42
-0.024213212154049
 10
898.55959215490566
 20
-1323.3864297244322
 10
898.60750372765688
 20
-1323.3429205882453
 42
-0.0251017527866189
 10
898.89148542829719
 20
-1323.1099278424813
 10
898.8929309051116
 20
-1323.108858584902
 42
-0.0130868069039929
 10
899.19119155506826
 20
-1322.90007811636
 10
899.19275337421186
 20
-1322.8990446760845
 42
-0.0290329526397559
 10
899.50386451560428
 20
-1322.7182191744555
 10
899.53371007758949
 20
-1322.7031167916161
 42
-0.0160250190046822
 10
899.79961449135499
 20
-1322.5791006814029
 42
-0.0267600374787773
 10
900.07489056882025
 20
-1322.4783523608548
 10
900.10162648834466
 20
-1322.4701598020283
 42
-0.0049981587689172
 10
900.15679963363164
 20
-1322.4538546017161
 42
-0.0049981587689172
  0
LWPOLYLINE
  5
170
100
AcDbEntity
  8
template
370
              15
390
0
  6
Continuous
 62
               7
100
AcDbPolyline
 90
      118
 70
             128
 10
919.97116719807855
 20
-1331.5302398396029
 10
921.8462891225779
 20
-1331.5302398396029
 10
921.00825021697801
 20
-1334.2118063660032
 42
-0.001058722922689
 10
921.03970603254231
 20
-1334.1749018326568
 10
921.09790012318194
 20
-1334.1069195764721
 42
-0.0071874740401063
 10
921.24827534127962
 20
-1333.9362788844433
 10
921.38999811454221
 20
-1333.7800427431298
 42
-0.0148118053510862
 10
921.84012740725495
 20
-1333.3124288971167
 10
921.92734974215227
 20
-1333.2270315762676
 42
-0.0086273358699782
 10
922.26289854316519
 20
-1332.9096559422469
 10
922.30673225939142
 20
-1332.8696062979138
 42
-0.0103138323117577
 10
922.56475596162466
 20
-1332.6434431605758
 10
922.61053036794635
 20
-1332.6049611133203
 42
-0.0060206748571155
 10
922.78337843206396
 20
-1332.4631664625608
 10
922.7854095629491
 20
-1332.4615407569304
 42
-0.0067069027292507
 10
922.95770237761235
 20
-1332.3273901231346
 10
922.96025114354188
 20
-1332.3254599532565
 42
-0.0076184352023798
 10
923.13115640940964
 20
-1332.2000850780155
 42
-0.0089652861662668
 10
923.30611737214258
 20
-1332.0804518176838
 10
923.34246909228875
 20
-1332.0565406042001
 42
-0.0156916245947438
 10
923.53842858944927
 20
-1331.9362781177256
 42
-0.0023299011060044
 10
923.7386906334076
 20
-1331.8231001781969
 10
923.75407476580904
 20
-1331.8145001831203
 42
-0.0107669341480939
 10
923.98831159091628
 20
-1331.6901000497674
 10
924.01057639198518
 20
-1331.6788832998204
 42
-0.0078058045896521
 10
924.29416650993767
 20
-1331.5415218441822
 10
924.30407359764706
 20
-1331.5369127163135
 42
-0.0181829330464922
 10
924.61438300226666
 20
-1331.4060489752164
 10
924.66843844483139
 20
-1331.3855338552739
 42
-0.0208411536028711
 10
925.01752341227973
 20
-1331.2694433927813
 10
925.03187951239988
 20
-1331.2653249478299
 42
-0.0222799817138403
 10
925.36059930632439
 20
-1331.186683381688
 10
925.36948826956893
 20
-1331.1849713711013
 42
-0.021550952388182
 10
925.68595923784119
 20
-1331.1380556825684
 10
925.72844119888248
 20
-1331.1336181557781
 42
-0.0182545924884929
 10
925.9625499781954
 20
-1331.1177743303865
 10
926.00195099455118
 20
-1331.1165497853071
 42
-0.0072962856517459
 10
926.15787387423234
 20
-1331.1139804567852
 10
926.18697354481071
 20
-1331.1139256213814
 42
-0.0059227516329279
 10
926.28472304394938
 20
-1331.1148993331717
 10
926.3139652613753
 20
-1331.115537099774
 42
-0.0011833111904551
 10
926.3532165451536
 20
-1331.1164861040852
 10
925.55782994954643
 20
-1333.6552200491842
 42
0.0143932051429796
 10
925.53142856719558
 20
-1333.6450210791386
 10
925.52415659477867
 20
-1333.6424498602814
 42
0.023438860349177
 10
925.48232572884353
 20
-1333.6298306245653
 10
925.47364406593385
 20
-1333.627649662561
 42
0.0199162742985518
 10
925.41335523184978
 20
-1333.6150329272255
 10
925.39254129404765
 20
-1333.6115357277977
 42
0.0293643550663715
 10
925.28946643528855
 20
-1333.6003856821444
 10
925.26478125456811
 20
-1333.5991740651257
 42
0.0214606686848288
 10
925.11164033861883
 20
-1333.5982355047081
 10
925.10226842779764
 20
-1333.5985804162524
 42
0.016756405417549
 10
924.93074823669406
 20
-1333.6106574586202
 10
924.92228844393026
 20
-1333.611538799048
 42
0.0137677553235929
 10
924.73493513066478
 20
-1333.6362881075911
 10
924.72758339115774
 20
-1333.6374660275592
 42
0.0118497261490662
 10
924.52708562704754
 20
-1333.6744833777507
 10
924.52093561980917
 20
-1333.6757702404689
 42
0.010642114388872
 10
924.3100547325281
 20
-1333.7246026160424
 10
924.3051459241351
 20
-1333.7258499587283
 42
0.0099746379699835
 10
924.08668745495834
 20
-1333.7860244870471
 10
924.02513941480231
 20
-1333.8043063656737
 42
0.0191613675856048
 10
923.68915495228828
 20
-1333.9182837459603
 10
923.60109517954254
 20
-1333.9519706562846
 42
0.0205274080146518
 10
923.21578840764062
 20
-1334.1177990641113
 10
923.15813912565659
 20
-1334.1454670286848
 42
0.0181256912202837
 10
922.89986218499155
 20
-1334.2811508476616
 10
922.8469068016725
 20
-1334.3114684608795
 42
0.0140709242414757
 10
922.70195186704927
 20
-1334.3999631343108
 10
922.67570299844067
 20
-1334.4170199530199
 42
0.0086667884371497
 10
922.58677683688825
 20
-1334.4770226209089
 42
0.0036408192013812
 10
922.4993435988705
 20
-1334.5392034786905
 10
922.46411672438626
 20
-1334.5646444246145
 42
0.0052260781284458
 10
922.30788802698237
 20
-1334.6799768112583
 10
922.29168117073561
 20
-1334.6922049218665
 42
0.0050024435898177
 10
922.10567782768214
 20
-1334.8354874901243
 10
922.09035967116154
 20
-1334.8475335125745
 42
0.0136138710276424
 10
921.87991840284076
 20
-1335.0225000174842
 10
921.84625052704268
 20
-1335.0520789902021
 42
0.0172815186913914
 10
921.58184698537912
 20
-1335.3010756628264
 10
921.5792846395376
 20
-1335.3036614799726
 42
0.018940385798936
 10
921.32870284095941
 20
-1335.5764667447756
 10
921.29607134742196
 20
-1335.6148106762748
 42
0.0185044199514205
 10
921.1041149084424
 20
-1335.8580592573971
 42
0.0088565243906295
 10
920.92565480181577
 20
-1336.1115756775448
 10
920.91647682216546
 20
-1336.1251170573073
 42
0.0157195347236375
 10
920.73325621582887
 20
-1336.4146392666271
 10
920.68717327390141
 20
-1336.4927914636423
 42
0.0095451879786273
 10
920.52208772376287
 20
-1336.7853861060003
 10
920.51093980483154
 20
-1336.8060567781354
 42
0.0100351706249945
 10
920.37889605567398
 20
-1337.0631123386229
 42
0.0086935915417604
 10
920.25656490387973
 20
-1337.3249454840279
 10
920.25324416246553
 20
-1337.3323878069991
 42
0.0072580174861764
 10
920.13289771052075
 20
-1337.6129797985818
 10
920.12963607721417
 20
-1337.6208998246002
 42
0.0060005122611037
 10
920.01043540886849
 20
-1337.9205094952126
 10
920.00722443052985
 20
-1337.9288710231099
 42
0.0049017786972471
 10
919.88832427167279
 20
-1338.2478000037127
 10
919.88515846528196
 20
-1338.2565529409444
 42
0.0039415167599378
 10
919.76572218722663
 20
-1338.5950950033539
 10
919.76259108457316
 20
-1338.6041982042339
 42
0.0031035838759464
 10
919.64178629888033
 20
-1338.962638066007
 10
919.63867625434978
 20
-1338.9720586873823
 42
0.0025070747147754
 10
919.5157749030368
 20
-1339.3507059043186
 10
919.47848100660894
 20
-1339.4675975695791
 42
0.0029081910287674
 10
919.28646270879563
 20
-1340.0817612278784
 10
919.24565954028105
 20
-1340.2149844701466
 42
0.0009266453732041
 10
918.97724216596339
 20
-1341.0972089300799
 10
918.95635469331808
 20
-1341.1663208093314
 42
-0.0005809993665113
 10
918.67901801273467
 20
-1342.0801289159454
 10
918.61273621446583
 20
-1342.2976138480917
 42
-0.0012018708166935
 10
918.46575190503245
 20
-1342.7757765126257
 10
918.41343205343935
 20
-1342.9445356535798
 42
-0.0002691059606393
 10
918.36986257229842
 20
-1343.0848032738336
 10
915.53690667400906
 20
-1352.173957876133
 10
913.71891778203053
 20
-1352.173957876133
 10
919.97116719807855
 20
-1331.5302398396029
  0
SPLINE
  5
171
100
AcDbEntity
  8
template
370
              15
390
0
  6
Continuous
 62
               7
100
AcDbSpline
210
0.0
220
0.0
230
1.0
 70
              13
 71
               2
 72
             782
 73
             779
 74
               0
 42
0.000001
 43
0.000001
 40
0.0
 40
0.0
 40
0.0
 40
1.0
 40
1.0
 40
2.0
 40
2.0
 40
3.0
 40
3.0
 40
4.0
 40
4.0
 40
5.0
 40
5.0
 40
6.0
 40
6.0
 40
7.0
 40
7.0
 40
8.0
 40
8.0
 40
9.0
 40
9.0
 40
10.0
 40
10.0
 40
11.0
 40
11.0
 40
12.0
 40
12.0
 40
13.0
 40
13.0
 40
14.0
 40
14.0
 40
15.0
 40
15.0
 40
16.0
 40
16.0
 40
17.0
 40
17.0
 40
18.0
 40
18.0
 40
19.0
 40
19.0
 40
20.0
 40
20.0
 40
21.0
 40
21.0
 40
22.0
 40
22.0
 40
23.0
 40
23.0
 40
24.0
 40
24.0
 40
25.0
 40
25.0
 40
26.0
 40
26.0
 40
27.0
 40
27.0
 40
28.0
 40
28.0
 40
29.0
 40
29.0
 40
30.0
 40
30.0
 40
31.0
 40
31.0
 40
32.0
 40
32.0
 40
33.0
 40
33.0
 40
34.0
 40
34.0
 40
35.0
 40
35.0
 40
36.0
 40
36.0
 40
37.0
 40
37.0
 40
38.0
 40
38.0
 40
39.0
 40
39.0
 40
40.0
 40
40.0
 40
41.0
 40
41.0
 40
42.0
 40
42.0
 40
43.0
 40
43.0
 40
44.0
 40
44.0
 40
45.0
 40
45.0
 40
46.0
 40
46.0
 40
47.0
 40
47.0
 40
48.0
 40
48.0
 40
49.0
 40
49.0
 40
50.0
 40
50.0
 40
51.0
 40
51.0
 40
52.0
 40
52.0
 40
53.0
 40
53.0
 40
54.0
 40
54.0
 40
55.0
 40
55.0
 40
56.0
 40
56.0
 40
57.0
 40
57.0
 40
58.0
 40
58.0
 40
59.0
 40
59.0
 40
60.0
 40
60.0
 40
61.0
 40
61.0
 40
62.0
 40
62.0
 40
63.0
 40
63.0
 40
64.0
 40
64.0
 40
65.0
 40
65.0
 40
66.0
 40
66.0
 40
67.0
 40
67.0
 40
68.0
 40
68.0
 40
69.0
 40
69.0
 40
70.0
 40
70.0
 40
71.0
 40
71.0
 40
72.0
 40
72.0
 40
73.0
 40
73.0
 40
74.0
 40
74.0
 40
75.0
 40
75.0
 40
76.0
 40
76.0
 40
77.0
 40
77.0
 40
78.0
 40
78.0
 40
79.0
 40
79.0
 40
80.0
 40
80.0
 40
81.0
 40
81.0
 40
82.0
 40
82.0
 40
83.0
 40
83.0
 40
84.0
 40
84.0
 40
85.0
 40
85.0
 40
86.0
 40
86.0
 40
87.0
 40
87.0
 40
88.0
 40
88.0
 40
89.0
 40
89.0
 40
90.0
 40
90.0
 40
91.0
 40
91.0
 40
92.0
 40
92.0
 40
93.0
 40
93.0
 40
94.0
 40
94.0
 40
95.0
 40
95.0
 40
96.0
 40
96.0
 40
97.0
 40
97.0
 40
98.0
 40
98.0
 40
99.0
 40
99.0
 40
100.0
 40
100.0
 40
101.0
 40
101.0
 40
102.0
 40
102.0
 40
103.0
 40
103.0
 40
104.0
 40
104.0
 40
105.0
 40
105.0
 40
106.0
 40
106.0
 40
107.0
 40
107.0
 40
108.0
 40
108.0
 40
109.0
 40
109.0
 40
110.0
 40
110.0
 40
111.0
 40
111.0
 40
112.0
 40
112.0
 40
113.0
 40
113.0
 40
114.0
 40
114.0
 40
115.0
 40
115.0
 40
116.0
 40
116.0
 40
117.0
 40
117.0
 40
118.0
 40
118.0
 40
119.0
 40
119.0
 40
120.0
 40
120.0
 40
121.0
 40
121.0
 40
122.0
 40
122.0
 40
123.0
 40
123.0
 40
124.0
 40
124.0
 40
125.0
 40
125.0
 40
126.0
 40
126.0
 40
127.0
 40
127.0
 40
128.0
 40
128.0
 40
129.0
 40
129.0
 40
130.0
 40
130.0
 40
131.0
 40
131.0
 40
132.0
 40
132.0
 40
133.0
 40
133.0
 40
134.0
 40
134.0
 40
135.0
 40
135.0
 40
136.0
 40
136.0
 40
137.0
 40
137.0
 40
138.0
 40
138.0
 40
139.0
 40
139.0
 40
140.0
 40
140.0
 40
141.0
 40
141.0
 40
142.0
 40
142.0
 40
143.0
 40
143.0
 40
144.0
 40
144.0
 40
145.0
 40
145.0
 40
146.0
 40
146.0
 40
147.0
 40
147.0
 40
148.0
 40
148.0
 40
149.0
 40
149.0
 40
150.0
 40
150.0
 40
151.0
 40
151.0
 40
152.0
 40
152.0
 40
153.0
 40
153.0
 40
154.0
 40
154.0
 40
155.0
 40
155.0
 40
156.0
 40
156.0
 40
157.0
 40
157.0
 40
158.0
 40
158.0
 40
159.0
 40
159.0
 40
160.0
 40
160.0
 40
161.0
 40
161.0
 40
162.0
 40
162.0
 40
163.0
 40
163.0
 40
164.0
 40
164.0
 40
165.0
 40
165.0
 40
166.0
 40
166.0
 40
167.0
 40
167.0
 40
168.0
 40
168.0
 40
169.0
 40
169.0
 40
170.0
 40
170.0
 40
171.0
 40
171.0
 40
172.0
 40
172.0
 40
173.0
 40
173.0
 40
174.0
 40
174.0
 40
175.0
 40
175.0
 40
176.0
 40
176.0
 40
177.0
 40
177.0
 40
178.0
 40
178.0
 40
179.0
 40
179.0
 40
180.0
 40
180.0
 40
181.0
 40
181.0
 40
182.0
 40
182.0
 40
183.0
 40
183.0
 40
184.0
 40
184.0
 40
185.0
 40
185.0
 40
186.0
 40
186.0
 40
187.0
 40
187.0
 40
188.0
 40
188.0
 40
189.0
 40
189.0
 40
190.0
 40
190.0
 40
191.0
 40
191.0
 40
192.0
 40
192.0
 40
193.0
 40
193.0
 40
194.0
 40
194.0
 40
195.0
 40
195.0
 40
196.0
 40
196.0
 40
197.0
 40
197.0
 40
198.0
 40
198.0
 40
199.0
 40
199.0
 40
200.0
 40
200.0
 40
201.0
 40
201.0
 40
202.0
 40
202.0
 40
203.0
 40
203.0
 40
204.0
 40
204.0
 40
205.0
 40
205.0
 40
206.0
 40
206.0
 40
207.0
 40
207.0
 40
208.0
 40
208.0
 40
209.0
 40
209.0
 40
210.0
 40
210.0
 40
211.0
 40
211.0
 40
212.0
 40
212.0
 40
213.0
 40
213.0
 40
214.0
 40
214.0
 40
215.0
 40
215.0
 40
216.0
 40
216.0
 40
217.0
 40
217.0
 40
218.0
 40
218.0
 40
219.0
 40
219.0
 40
220.0
 40
220.0
 40
221.0
 40
221.0
 40
222.0
 40
222.0
 40
223.0
 40
223.0
 40
224.0
 40
224.0
 40
225.0
 40
225.0
 40
226.0
 40
226.0
 40
227.0
 40
227.0
 40
228.0
 40
228.0
 40
229.0
 40
229.0
 40
230.0
 40
230.0
 40
231.0
 40
231.0
 40
232.0
 40
232.0
 40
233.0
 40
233.0
 40
234.0
 40
234.0
 40
235.0
 40
235.0
 40
236.0
 40
236.0
 40
237.0
 40
237.0
 40
238.0
 40
238.0
 40
239.0
 40
239.0
 40
240.0
 40
240.0
 40
241.0
 40
241.0
 40
242.0
 40
242.0
 40
243.0
 40
243.0
 40
244.0
 40
244.0
 40
245.0
 40
245.0
 40
246.0
 40
246.0
 40
247.0
 40
247.0
 40
248.0
 40
248.0
 40
249.0
 40
249.0
 40
250.0
 40
250.0
 40
251.0
 40
251.0
 40
252.0
 40
252.0
 40
253.0
 40
253.0
 40
254.0
 40
254.0
 40
255.0
 40
255.0
 40
256.0
 40
256.0
 40
257.0
 40
257.0
 40
258.0
 40
258.0
 40
259.0
 40
259.0
 40
260.0
 40
260.0
 40
261.0
 40
261.0
 40
262.0
 40
262.0
 40
263.0
 40
263.0
 40
264.0
 40
264.0
 40
265.0
 40
265.0
 40
266.0
 40
266.0
 40
267.0
 40
267.0
 40
268.0
 40
268.0
 40
269.0
 40
269.0
 40
270.0
 40
270.0
 40
271.0
 40
271.0
 40
272.0
 40
272.0
 40
273.0
 40
273.0
 40
274.0
 40
274.0
 40
275.0
 40
275.0
 40
276.0
 40
276.0
 40
277.0
 40
277.0
 40
278.0
 40
278.0
 40
279.0
 40
279.0
 40
280.0
 40
280.0
 40
281.0
 40
281.0
 40
282.0
 40
282.0
 40
283.0
 40
283.0
 40
284.0
 40
284.0
 40
285.0
 40
285.0
 40
286.0
 40
286.0
 40
287.0
 40
287.0
 40
288.0
 40
288.0
 40
289.0
 40
289.0
 40
290.0
 40
290.0
 40
291.0
 40
291.0
 40
292.0
 40
292.0
 40
293.0
 40
293.0
 40
294.0
 40
294.0
 40
295.0
 40
295.0
 40
296.0
 40
296.0
 40
297.0
 40
297.0
 40
298.0
 40
298.0
 40
299.0
 40
299.0
 40
300.0
 40
300.0
 40
301.0
 40
301.0
 40
302.0
 40
302.0
 40
303.0
 40
303.0
 40
304.0
 40
304.0
 40
305.0
 40
305.0
 40
306.0
 40
306.0
 40
307.0
 40
307.0
 40
308.0
 40
308.0
 40
309.0
 40
309.0
 40
310.0
 40
310.0
 40
311.0
 40
311.0
 40
312.0
 40
312.0
 40
313.0
 40
313.0
 40
314.0
 40
314.0
 40
315.0
 40
315.0
 40
316.0
 40
316.0
 40
317.0
 40
317.0
 40
318.0
 40
318.0
 40
319.0
 40
319.0
 40
320.0
 40
320.0
 40
321.0
 40
321.0
 40
322.0
 40
322.0
 40
323.0
 40
323.0
 40
324.0
 40
324.0
 40
325.0
 40
325.0
 40
326.0
 40
326.0
 40
327.0
 40
327.0
 40
328.0
 40
328.0
 40
329.0
 40
329.0
 40
330.0
 40
330.0
 40
331.0
 40
331.0
 40
332.0
 40
332.0
 40
333.0
 40
333.0
 40
334.0
 40
334.0
 40
335.0
 40
335.0
 40
336.0
 40
336.0
 40
337.0
 40
337.0
 40
338.0
 40
338.0
 40
339.0
 40
339.0
 40
340.0
 40
340.0
 40
341.0
 40
341.0
 40
342.0
 40
342.0
 40
343.0
 40
343.0
 40
344.0
 40
344.0
 40
345.0
 40
345.0
 40
346.0
 40
346.0
 40
347.0
 40
347.0
 40
348.0
 40
348.0
 40
349.0
 40
349.0
 40
350.0
 40
350.0
 40
351.0
 40
351.0
 40
352.0
 40
352.0
 40
353.0
 40
353.0
 40
354.0
 40
354.0
 40
355.0
 40
355.0
 40
356.0
 40
356.0
 40
357.0
 40
357.0
 40
358.0
 40
358.0
 40
359.0
 40
359.0
 40
360.0
 40
360.0
 40
361.0
 40
361.0
 40
362.0
 40
362.0
 40
363.0
 40
363.0
 40
364.0
 40
364.0
 40
365.0
 40
365.0
 40
366.0
 40
366.0
 40
367.0
 40
367.0
 40
368.0
 40
368.0
 40
369.0
 40
369.0
 40
370.0
 40
370.0
 40
371.0
 40
371.0
 40
372.0
 40
372.0
 40
373.0
 40
373.0
 40
374.0
 40
374.0
 40
375.0
 40
375.0
 40
376.0
 40
376.0
 40
377.0
 40
377.0
 40
378.0
 40
378.0
 40
379.0
 40
379.0
 40
380.0
 40
380.0
 40
381.0
 40
381.0
 40
382.0
 40
382.0
 40
383.0
 40
383.0
 40
384.0
 40
384.0
 40
385.0
 40
385.0
 40
386.0
 40
386.0
 40
387.0
 40
387.0
 40
388.0
 40
388.0
 40
389.0
 40
389.0
 40
389.0
 10
930.29987164881118
 20
-1331.5193134762408
 30
0.0
 41
1.0
 10
931.11829575753165
 20
-1331.5193134762408
 30
0.0
 41
1.0
 10
931.93671986625213
 20
-1331.5193134762408
 30
0.0
 41
1.0
 10
931.52296613073543
 20
-1332.8619397404905
 30
0.0
 41
1.0
 10
931.10921239521872
 20
-1334.2045660047402
 30
0.0
 41
1.0
 10
931.1275518903808
 20
-1334.1758652318372
 30
0.0
 41
0.999995726444005
 10
931.14605888722406
 20
-1334.1472721816672
 30
0.0
 41
1.0
 10
931.17648821135799
 20
-1334.1002593032968
 30
0.0
 41
1.0
 10
931.20691753549181
 20
-1334.0532464249263
 30
0.0
 41
1.0
 10
931.28628318059725
 20
-1333.9306276180241
 30
0.0
 41
0.9995394069080827
 10
931.37294157215058
 20
-1333.8130495562805
 30
0.0
 41
1.0
 10
931.40869843441033
 20
-1333.7645346636868
 30
0.0
 41
1.0
 10
931.44445529667007
 20
-1333.7160197710937
 30
0.0
 41
1.0
 10
931.57818196448875
 20
-1333.5345794959662
 30
0.0
 41
0.999446061714343
 10
931.72368244577569
 20
-1333.3624370983175
 30
0.0
 41
1.0
 10
931.72807062675167
 20
-1333.3572454179339
 30
0.0
 41
1.0
 10
931.73245880772765
 20
-1333.3520537375502
 30
0.0
 41
1.0
 10
931.86918292706582
 20
-1333.1902947006661
 30
0.0
 41
0.9994359394934591
 10
932.01645715741495
 20
-1333.0380784995036
 30
0.0
 41
1.0
 10
932.0188405113679
 20
-1333.0356151691308
 30
0.0
 41
1.0
 10
932.02122386532074
 20
-1333.0331518387584
 30
0.0
 41
1.0
 10
932.16373138776453
 20
-1332.8858622983407
 30
0.0
 41
0.9995293688567853
 10
932.31500306874852
 20
-1332.7475890861747
 30
0.0
 41
1.0
 10
932.33429682800988
 20
-1332.7299532005254
 30
0.0
 41
1.0
 10
932.35359058727113
 20
-1332.7123173148761
 30
0.0
 41
1.0
 10
932.4662747497274
 20
-1332.6093158740136
 30
0.0
 41
0.9997087614803768
 10
932.58379763868561
 20
-1332.5118715932131
 30
0.0
 41
1.0
 10
932.6029637118661
 20
-1332.4959800147012
 30
0.0
 41
1.0
 10
932.6221297850467
 20
-1332.4800884361889
 30
0.0
 41
1.0
 10
932.70132052764279
 20
-1332.4144273124134
 30
0.0
 41
0.9999595338698948
 10
932.78167979849582
 20
-1332.3502015817598
 30
0.0
 41
1.0
 10
932.86203906935202
 20
-1332.2859758511045
 30
0.0
 41
0.9999749417513683
 10
932.94329960368259
 20
-1332.2228942971678
 30
0.0
 41
1.0
 10
932.96428574985862
 20
-1332.2066030098558
 30
0.0
 41
1.0
 10
932.98527189603453
 20
-1332.1903117225438
 30
0.0
 41
1.0
 10
933.06983978133394
 20
-1332.1246627127048
 30
0.0
 41
0.999979203711527
 10
933.15524738109684
 20
-1332.0601099310657
 30
0.0
 41
1.0
 10
933.1760722070328
 20
-1332.0443701087893
 30
0.0
 41
1.0
 10
933.19689703296865
 20
-1332.0286302865134
 30
0.0
 41
1.0
 10
933.24065498086475
 20
-1331.9955571494233
 30
0.0
 41
0.9999993373821698
 10
933.28433666700948
 20
-1331.9623833539981
 30
0.0
 41
1.0
 10
933.32801835315706
 20
-1331.9292095585711
 30
0.0
 41
0.9999160953815791
 10
933.37254476407247
 20
-1331.897178493376
 30
0.0
 41
1.0
 10
933.40536665149193
 20
-1331.873567337791
 30
0.0
 41
1.0
 10
933.43818853891139
 20
-1331.8499561822059
 30
0.0
 41
1.0
 10
933.54835872467027
 20
-1331.7707028058385
 30
0.0
 41
0.9980964527233596
 10
933.66744771816957
 20
-1331.7056153329827
 30
0.0
 41
1.0
 10
933.70448032509967
 20
-1331.6853753533883
 30
0.0
 41
1.0
 10
933.74151293202976
 20
-1331.6651353737943
 30
0.0
 41
1.0
 10
933.92083994530196
 20
-1331.5671251230938
 30
0.0
 41
0.9984572810573416
 10
934.10992851165872
 20
-1331.4896028617482
 30
0.0
 41
1.0
 10
934.11357478105333
 20
-1331.488107969411
 30
0.0
 41
1.0
 10
934.11722105044805
 20
-1331.4866130770733
 30
0.0
 41
1.0
 10
934.29901707801673
 20
-1331.4120806004025
 30
0.0
 41
0.9987838528034282
 10
934.48726973657688
 20
-1331.3558149602363
 30
0.0
 41
1.0
 10
934.49150768577601
 20
-1331.3545483065459
 30
0.0
 41
1.0
 10
934.49574563497515
 20
-1331.3532816528555
 30
0.0
 41
1.0
 10
934.67552239513657
 20
-1331.2995493200706
 30
0.0
 41
0.9990652816207111
 10
934.85926832685197
 20
-1331.2615456405288
 30
0.0
 41
1.0
 10
934.86445672787863
 20
-1331.2604725374235
 30
0.0
 41
1.0
 10
934.86964512890518
 20
-1331.2593994343179
 30
0.0
 41
1.0
 10
935.04301425856283
 20
-1331.2235419609869
 30
0.0
 41
0.999290993427
 10
935.21859002502617
 20
-1331.2008315285198
 30
0.0
 41
1.0
 10
935.39416579148144
 20
-1331.1781210960535
 30
0.0
 41
0.9994553539448459
 10
935.57085722457191
 20
-1331.1670417918476
 30
0.0
 41
1.0
 10
935.60629163237013
 20
-1331.1648199037995
 30
0.0
 41
1.0
 10
935.64172604016846
 20
-1331.1625980157519
 30
0.0
 41
1.0
 10
935.8079518067384
 20
-1331.1521749533399
 30
0.0
 41
0.9990928098292556
 10
935.9744615986408
 20
-1331.1559345945743
 30
0.0
 41
1.0
 10
936.01302343392126
 20
-1331.1568052861076
 30
0.0
 41
1.0
 10
936.05158526920161
 20
-1331.1576759776408
 30
0.0
 41
1.0
 10
936.14097139055184
 20
-1331.1596942358092
 30
0.0
 41
0.9998382089206543
 10
936.23022707332973
 20
-1331.1649263623372
 30
0.0
 41
1.0
 10
936.23065697955519
 20
-1331.1649515632398
 30
0.0
 41
1.0
 10
936.23108688578066
 20
-1331.1649767641425
 30
0.0
 41
1.0
 10
936.31948275612137
 20
-1331.1701584888656
 30
0.0
 41
0.9997558016758964
 10
936.40756333331672
 20
-1331.1792410042312
 30
0.0
 41
1.0
 10
936.40803947174163
 20
-1331.1792901017134
 30
0.0
 41
1.0
 10
936.40851561016643
 20
-1331.1793391991955
 30
0.0
 41
1.0
 10
936.49564391051217
 20
-1331.1883235195969
 30
0.0
 41
0.9996565144181067
 10
936.58218176385958
 20
-1331.201860826287
 30
0.0
 41
1.0
 10
936.58264768924187
 20
-1331.2019337120191
 30
0.0
 41
1.0
 10
936.58311361462427
 20
-1331.2020065977513
 30
0.0
 41
1.0
 10
936.66871961720676
 20
-1331.215398132977
 30
0.0
 41
0.999532180686849
 10
936.75334669752965
 20
-1331.2339986214051
 30
0.0
 41
1.0
 10
936.75373589210494
 20
-1331.234084163872
 30
0.0
 41
1.0
 10
936.75412508668012
 20
-1331.2341697063384
 30
0.0
 41
1.0
 10
936.8379737778605
 20
-1331.2525991098355
 30
0.0
 41
0.9993819199220976
 10
936.92032031205395
 20
-1331.276874493095
 30
0.0
 41
1.0
 10
936.92055874555331
 20
-1331.2769447822047
 30
0.0
 41
1.0
 10
936.92079717905267
 20
-1331.2770150713145
 30
0.0
 41
1.0
 10
937.00266684625137
 20
-1331.3011498763562
 30
0.0
 41
0.9992088568505024
 10
937.08235936523829
 20
-1331.3317151121505
 30
0.0
 41
1.0
 10
937.16204035611747
 20
-1331.3622747128838
 30
0.0
 41
0.9990226101772048
 10
937.23871102602448
 20
-1331.3997521444985
 30
0.0
 41
1.0
 10
937.31537016782318
 20
-1331.4372239410523
 30
0.0
 41
0.9988424273972894
 10
937.38807379503601
 20
-1331.4818887163051
 30
0.0
 41
1.0
 10
937.38834150341484
 20
-1331.4820531803771
 30
0.0
 41
1.0
 10
937.38860921179366
 20
-1331.4822176444491
 30
0.0
 41
1.0
 10
937.46184825576609
 20
-1331.5272113478472
 30
0.0
 41
0.9986928844489947
 10
937.53011112247714
 20
-1331.5794470821284
 30
0.0
 41
1.0
 10
937.53069241469848
 20
-1331.5798918953551
 30
0.0
 41
1.0
 10
937.53127370691982
 20
-1331.5803367085819
 30
0.0
 41
1.0
 10
937.60069915807333
 20
-1331.6334620693156
 30
0.0
 41
0.9986007262277268
 10
937.66412532783886
 20
-1331.6936228390082
 30
0.0
 41
1.0
 10
937.66501974329753
 20
-1331.6944712068448
 30
0.0
 41
1.0
 10
937.66591415875621
 20
-1331.695319574681
 30
0.0
 41
1.0
 10
937.73112915943739
 20
-1331.7571770800446
 30
0.0
 41
0.9985581491380315
 10
937.78933677113992
 20
-1331.8256695703176
 30
0.0
 41
1.0
 10
937.79859522473521
 20
-1331.8365639280187
 30
0.0
 41
1.0
 10
937.80785367833062
 20
-1331.8474582857198
 30
0.0
 41
1.0
 10
937.8845781972235
 20
-1331.9377394913945
 30
0.0
 41
0.9970460233521691
 10
937.94657009838295
 20
-1332.0387065755758
 30
0.0
 41
1.0
 10
937.96103946346216
 20
-1332.0622730346563
 30
0.0
 41
1.0
 10
937.97550882854148
 20
-1332.0858394937372
 30
0.0
 41
1.0
 10
938.01524552855449
 20
-1332.1505592177696
 30
0.0
 41
0.9988468816634745
 10
938.0485918993063
 20
-1332.2187916701982
 30
0.0
 41
1.0
 10
938.05562792179717
 20
-1332.2331885913345
 30
0.0
 41
1.0
 10
938.06266394428815
 20
-1332.2475855124708
 30
0.0
 41
1.0
 10
938.08193827005687
 20
-1332.2870241226242
 30
0.0
 41
0.9998431189998719
 10
938.09980359755275
 20
-1332.3271206770664
 30
0.0
 41
1.0
 10
938.11766892506535
 20
-1332.3672172315469
 30
0.0
 41
0.9999989990102984
 10
938.13564764850992
 20
-1332.4072630691808
 30
0.0
 41
1.0
 10
938.14181996008404
 20
-1332.4210112859487
 30
0.0
 41
1.0
 10
938.14799227165815
 20
-1332.4347595027166
 30
0.0
 41
1.0
 10
938.17831561827063
 20
-1332.5023017739304
 30
0.0
 41
0.9998790356322223
 10
938.20652349840816
 20
-1332.5707545258665
 30
0.0
 41
1.0
 10
938.21335867969333
 20
-1332.5873416272962
 30
0.0
 41
1.0
 10
938.22019386097861
 20
-1332.6039287287258
 30
0.0
 41
1.0
 10
938.24375152335529
 20
-1332.661096683602
 30
0.0
 41
0.9998227574560946
 10
938.26514027174483
 20
-1332.7191109918804
 30
0.0
 41
1.0
 10
938.28652902013391
 20
-1332.777125300157
 30
0.0
 41
0.9996797971041732
 10
938.30495530509165
 20
-1332.8361474192707
 30
0.0
 41
1.0
 10
938.30885910781808
 20
-1332.8486518774421
 30
0.0
 41
1.0
 10
938.31276291054451
 20
-1332.8611563356139
 30
0.0
 41
1.0
 10
938.33899680095442
 20
-1332.9451873710682
 30
0.0
 41
0.9979274938733826
 10
938.35422132443375
 20
-1333.0318917297295
 30
0.0
 41
1.0
 10
938.35644501169509
 20
-1333.044555730552
 30
0.0
 41
1.0
 10
938.35866869895654
 20
-1333.0572197313745
 30
0.0
 41
1.0
 10
938.36959863865468
 20
-1333.1194662386656
 30
0.0
 41
0.9994985982138821
 10
938.37656680383145
 20
-1333.1822797398049
 30
0.0
 41
1.0
 10
938.38353496900822
 20
-1333.2450932409433
 30
0.0
 41
0.9996372611200848
 10
938.38711083477619
 20
-1333.3081908196282
 30
0.0
 41
1.0
 10
938.38727941226557
 20
-1333.3111654367108
 30
0.0
 41
1.0
 10
938.38744798975483
 20
-1333.3141400537934
 30
0.0
 41
1.0
 10
938.39136101050121
 20
-1333.3831868666362
 30
0.0
 41
0.9997730630735575
 10
938.39232932398932
 20
-1333.4523376906723
 30
0.0
 41
1.0
 10
938.39238643040744
 20
-1333.4564158698149
 30
0.0
 41
1.0
 10
938.39244353682557
 20
-1333.4604940489576
 30
0.0
 41
1.0
 10
938.39352606315003
 20
-1333.5378012312776
 30
0.0
 41
0.9998772614070001
 10
938.39218597641809
 20
-1333.6151043778377
 30
0.0
 41
1.0
 10
938.39209671321942
 20
-1333.6202535416737
 30
0.0
 41
1.0
 10
938.39200745002063
 20
-1333.6254027055097
 30
0.0
 41
1.0
 10
938.39048883689168
 20
-1333.7130041797345
 30
0.0
 41
0.9999415567326297
 10
938.38707652664539
 20
-1333.8005523414208
 30
0.0
 41
1.0
 10
938.3868352059701
 20
-1333.8067438011572
 30
0.0
 41
1.0
 10
938.38659388529481
 20
-1333.8129352608935
 30
0.0
 41
1.0
 10
938.38269893369818
 20
-1333.9128663420438
 30
0.0
 41
0.9999716810426661
 10
938.37730035057962
 20
-1334.0127274802717
 30
0.0
 41
1.0
 10
938.37408755179035
 20
-1334.072156729937
 30
0.0
 41
1.0
 10
938.3708747530012
 20
-1334.1315859796023
 30
0.0
 41
1.0
 10
938.36280084384998
 20
-1334.2809343808563
 30
0.0
 41
0.9999819129897957
 10
938.35293105223275
 20
-1334.430174858579
 30
0.0
 41
1.0
 10
938.3430612606162
 20
-1334.5794153362904
 30
0.0
 41
1.0
 10
938.34062194005242
 20
-1334.6166083821395
 30
0.0
 41
1.0
 10
938.36332017386485
 20
-1334.5778673848408
 30
0.0
 41
0.9999982128136699
 10
938.38616473266347
 20
-1334.5392124908103
 30
0.0
 41
1.0
 10
938.41307429253595
 20
-1334.4936792767762
 30
0.0
 41
1.0
 10
938.43998385240843
 20
-1334.4481460627417
 30
0.0
 41
1.0
 10
938.51664753093394
 20
-1334.3184247406725
 30
0.0
 41
0.9998609190057095
 10
938.59759484379367
 20
-1334.1913323587464
 30
0.0
 41
1.0
 10
938.62724316527715
 20
-1334.1447826257863
 30
0.0
 41
1.0
 10
938.65689148676074
 20
-1334.0982328928262
 30
0.0
 41
1.0
 10
938.73916370699362
 20
-1333.9690603228378
 30
0.0
 41
0.9999067609730865
 10
938.82493271646058
 20
-1333.842182633392
 30
0.0
 41
1.0
 10
938.82733741966103
 20
-1333.8386253673375
 30
0.0
 41
1.0
 10
938.82974212286149
 20
-1333.8350681012835
 30
0.0
 41
1.0
 10
938.91070172592367
 20
-1333.7153049439521
 30
0.0
 41
0.9998784952150798
 10
938.99535533560606
 20
-1333.5981237272417
 30
0.0
 41
1.0
 10
939.08000894528766
 20
-1333.4809425105327
 30
0.0
 41
0.9998532968284956
 10
939.16862656611363
 20
-1333.3667296020581
 30
0.0
 41
1.0
 10
939.18858835510196
 20
-1333.3410022810417
 30
0.0
 41
1.0
 10
939.2085501440904
 20
-1333.3152749600249
 30
0.0
 41
1.0
 10
939.32703419385064
 20
-1333.1625693490541
 30
0.0
 41
0.9991551975794928
 10
939.4576586434747
 20
-1333.0201097869704
 30
0.0
 41
1.0
 10
939.46116825945683
 20
-1333.0162821853432
 30
0.0
 41
1.0
 10
939.46467787543895
 20
-1333.0124545837166
 30
0.0
 41
1.0
 10
939.58828309310024
 20
-1332.8776502248847
 30
0.0
 41
0.9997418144181212
 10
939.71788523279872
 20
-1332.7486008142746
 30
0.0
 41
1.0
 10
939.84748737249879
 20
-1332.6195514036626
 30
0.0
 41
0.9989238204633292
 10
939.98848992075
 20
-1332.5030664416236
 30
0.0
 41
1.0
 10
940.03373759888916
 20
-1332.4656864500153
 30
0.0
 41
1.0
 10
940.07898527702832
 20
-1332.4283064584065
 30
0.0
 41
1.0
 10
940.21922533425129
 20
-1332.3124514051146
 30
0.0
 41
0.9990825084096926
 10
940.36886526685475
 20
-1332.2090224072817
 30
0.0
 41
1.0
 10
940.37891063090944
 20
-1332.2020791942036
 30
0.0
 41
1.0
 10
940.38895599496414
 20
-1332.195135981126
 30
0.0
 41
1.0
 10
940.51850519945674
 20
-1332.1055934094502
 30
0.0
 41
0.9998164899826296
 10
940.65138940283509
 20
-1332.0210791679324
 30
0.0
 41
1.0
 10
940.66323496336008
 20
-1332.0135454014076
 30
0.0
 41
1.0
 10
940.67508052388519
 20
-1332.0060116348823
 30
0.0
 41
1.0
 10
940.78427360620969
 20
-1331.9365649264168
 30
0.0
 41
0.9997473449131099
 10
940.89647756346085
 20
-1331.8720959686002
 30
0.0
 41
1.0
 10
941.00868152071666
 20
-1331.8076270107808
 30
0.0
 41
0.9999327861144395
 10
941.12235013147915
 20
-1331.7457770190999
 30
0.0
 41
1.0
 10
941.12290213403708
 20
-1331.7454766604224
 30
0.0
 41
1.0
 10
941.12345413659511
 20
-1331.7451763017448
 30
0.0
 41
1.0
 10
941.23822675248255
 20
-1331.6827255927037
 30
0.0
 41
0.9996956420483416
 10
941.35594007832697
 20
-1331.6260121257269
 30
0.0
 41
1.0
 10
941.38638048321491
 20
-1331.6113461489995
 30
0.0
 41
1.0
 10
941.41682088810273
 20
-1331.596680172272
 30
0.0
 41
1.0
 10
941.51979799484695
 20
-1331.5470665138282
 30
0.0
 41
0.9998070570177599
 10
941.62464438379038
 20
-1331.501535926926
 30
0.0
 41
1.0
 10
941.72949077272972
 20
-1331.4560053400255
 30
0.0
 41
0.99978274361474
 10
941.83614370934004
 20
-1331.4148841687138
 30
0.0
 41
1.0
 10
941.85536655897204
 20
-1331.4074725950809
 30
0.0
 41
1.0
 10
941.87458940860392
 20
-1331.4000610214484
 30
0.0
 41
1.0
 10
942.01968804447722
 20
-1331.3441167028714
 30
0.0
 41
0.9988031841976216
 10
942.16955840708295
 20
-1331.3026166387035
 30
0.0
 41
1.0
 10
942.19447565544601
 20
-1331.2957168928965
 30
0.0
 41
1.0
 10
942.21939290380919
 20
-1331.28881714709
 30
0.0
 41
1.0
 10
942.38666292945527
 20
-1331.2424990046834
 30
0.0
 41
0.9984748040550314
 10
942.55801983810397
 20
-1331.2149047724183
 30
0.0
 41
1.0
 10
942.56275897435194
 20
-1331.2141416119052
 30
0.0
 41
1.0
 10
942.5674981105999
 20
-1331.2133784513917
 30
0.0
 41
1.0
 10
942.729376746752
 20
-1331.1873105401532
 30
0.0
 41
0.9984436495478979
 10
942.89315149047775
 20
-1331.1794325863348
 30
0.0
 41
1.0
 10
942.91484869861051
 20
-1331.1783888991354
 30
0.0
 41
1.0
 10
942.93654590674316
 20
-1331.1773452119355
 30
0.0
 41
1.0
 10
943.05692623420384
 20
-1331.1715546325163
 30
0.0
 41
0.9987954789335701
 10
943.17729447911222
 20
-1331.1775911602585
 30
0.0
 41
1.0
 10
943.19725927159936
 20
-1331.1785924045967
 30
0.0
 41
1.0
 10
943.21722406408651
 20
-1331.1795936489348
 30
0.0
 41
1.0
 10
943.29766272401457
 20
-1331.1836276880003
 30
0.0
 41
0.9997941595876929
 10
943.37787150211648
 20
-1331.1909217539219
 30
0.0
 41
1.0
 10
943.45808028021895
 20
-1331.1982158198439
 30
0.0
 41
0.9998589466238009
 10
943.53799882708336
 20
-1331.208199674295
 30
0.0
 41
1.0
 10
943.57040502888287
 20
-1331.2122480312132
 30
0.0
 41
1.0
 10
943.60281123068239
 20
-1331.2162963881315
 30
0.0
 41
1.0
 10
943.74754218114902
 20
-1331.2343769564191
 30
0.0
 41
0.9993495063248933
 10
943.89059342490987
 20
-1331.2628426661595
 30
0.0
 41
1.0
 10
943.92352712206832
 20
-1331.2693961293758
 30
0.0
 41
1.0
 10
943.95646081922678
 20
-1331.2759495925916
 30
0.0
 41
1.0
 10
944.06575464242974
 20
-1331.2976979267269
 30
0.0
 41
0.9996788715561078
 10
944.17380621438451
 20
-1331.3249557260892
 30
0.0
 41
1.0
 10
944.1758692169285
 20
-1331.3254761526637
 30
0.0
 41
1.0
 10
944.17793221947261
 20
-1331.3259965792377
 30
0.0
 41
1.0
 10
944.28185778634702
 20
-1331.3522135254543
 30
0.0
 41
0.9995480654493139
 10
944.38402002157034
 20
-1331.384628482077
 30
0.0
 41
1.0
 10
944.38570966370003
 20
-1331.3851645869913
 30
0.0
 41
1.0
 10
944.3873993058296
 20
-1331.3857006919052
 30
0.0
 41
1.0
 10
944.48618225680048
 20
-1331.4170434387011
 30
0.0
 41
0.9993867959455215
 10
944.58252941524233
 20
-1331.455222807991
 30
0.0
 41
1.0
 10
944.58377236433034
 20
-1331.4557153498886
 30
0.0
 41
1.0
 10
944.58501531341824
 20
-1331.4562078917861
 30
0.0
 41
1.0
 10
944.67887657368851
 20
-1331.4934021772829
 30
0.0
 41
0.999205025652372
 10
944.76947624871821
 20
-1331.5379560765195
 30
0.0
 41
1.0
 10
944.77021093142889
 20
-1331.5383173689793
 30
0.0
 41
1.0
 10
944.77094561413946
 20
-1331.5386786614395
 30
0.0
 41
1.0
 10
944.86007592374926
 20
-1331.5825099757567
 30
0.0
 41
0.9990222350739885
 10
944.94498598514531
 20
-1331.6340432434567
 30
0.0
 41
1.0
 10
944.94516987042675
 20
-1331.6341548463611
 30
0.0
 41
1.0
 10
944.9453537557082
 20
-1331.6342664492649
 30
0.0
 41
1.0
 10
945.02989604653737
 20
-1331.6855765111536
 30
0.0
 41
0.9988642743804662
 10
945.10917058115797
 20
-1331.7447006986799
 30
0.0
 41
1.0
 10
945.18844511577674
 20
-1331.8038248862053
 30
0.0
 41
0.9987681233311767
 10
945.26146890005316
 20
-1331.8705155776061
 30
0.0
 41
1.0
 10
945.26179782801887
 20
-1331.8708159788202
 30
0.0
 41
1.0
 10
945.26212675598458
 20
-1331.8711163800344
 30
0.0
 41
1.0
 10
945.33580839619356
 20
-1331.9384078738649
 30
0.0
 41
0.9987496570898248
 10
945.40240220152089
 20
-1332.012720687952
 30
0.0
 41
1.0
 10
945.40317437128067
 20
-1332.0135823613091
 30
0.0
 41
1.0
 10
945.40394654104045
 20
-1332.0144440346662
 30
0.0
 41
1.0
 10
945.47208468588974
 20
-1332.0904801954703
 30
0.0
 41
0.9988147669827705
 10
945.53250694011388
 20
-1332.1727812023114
 30
0.0
 41
1.0
 10
945.5336262661915
 20
-1332.1743058336638
 30
0.0
 41
1.0
 10
945.53474559226902
 20
-1332.1758304650161
 30
0.0
 41
1.0
 10
945.59740649865068
 20
-1332.2611807345652
 30
0.0
 41
0.9989452636215385
 10
945.65197341161297
 20
-1332.3519194237247
 30
0.0
 41
1.0
 10
945.65332213769761
 20
-1332.3541622047492
 30
0.0
 41
1.0
 10
945.65467086378214
 20
-1332.3564049857737
 30
0.0
 41
1.0
 10
945.71193522891349
 20
-1332.4516292369813
 30
0.0
 41
0.9991046436070949
 10
945.76094444223384
 20
-1332.5513536700037
 30
0.0
 41
1.0
 10
945.76240830382517
 20
-1332.5543323500792
 30
0.0
 41
1.0
 10
945.7638721654165
 20
-1332.5573110301543
 30
0.0
 41
1.0
 10
945.81580910191769
 20
-1332.6629928233242
 30
0.0
 41
0.999276383110199
 10
945.85956223047401
 20
-1332.7723168852822
 30
0.0
 41
1.0
 10
945.86104150013693
 20
-1332.7760130728152
 30
0.0
 41
1.0
 10
945.86252076979997
 20
-1332.7797092603478
 30
0.0
 41
1.0
 10
945.90923243768304
 20
-1332.8964256973741
 30
0.0
 41
0.9994163472882789
 10
945.94786546887235
 20
-1333.0160592858379
 30
0.0
 41
1.0
 10
945.94910362111727
 20
-1333.019893429615
 30
0.0
 41
1.0
 10
945.95034177336231
 20
-1333.0237275733921
 30
0.0
 41
1.0
 10
945.99022533438165
 20
-1333.147233634877
 30
0.0
 41
0.9997268055891437
 10
946.02429339029436
 20
-1333.2724686668298
 30
0.0
 41
1.0
 10
946.025223570565
 20
-1333.2758880329425
 30
0.0
 41
1.0
 10
946.02615375083576
 20
-1333.2793073990556
 30
0.0
 41
1.0
 10
946.05836144620741
 20
-1333.3977036987858
 30
0.0
 41
0.9996701319001254
 10
946.08444706297678
 20
-1333.5175976520436
 30
0.0
 41
1.0
 10
946.11053267974728
 20
-1333.6374916053092
 30
0.0
 41
0.999578545111023
 10
946.12961625708715
 20
-1333.7586973663397
 30
0.0
 41
1.0
 10
946.13383603926081
 20
-1333.7854985211038
 30
0.0
 41
1.0
 10
946.13805582143436
 20
-1333.8122996758684
 30
0.0
 41
1.0
 10
946.16463079737321
 20
-1333.9810856495696
 30
0.0
 41
0.9979925101214855
 10
946.1696563832993
 20
-1334.1518769776635
 30
0.0
 41
1.0
 10
946.17048119572394
 20
-1334.1799077011433
 30
0.0
 41
1.0
 10
946.17130600814858
 20
-1334.2079384246231
 30
0.0
 41
1.0
 10
946.17468196922596
 20
-1334.3226683057496
 30
0.0
 41
0.9995314902262457
 10
946.17103177708714
 20
-1334.4373897895071
 30
0.0
 41
1.0
 10
946.167381584949
 20
-1334.5521112732572
 30
0.0
 41
0.9996245486943862
 10
946.15745248981773
 20
-1334.6664605443839
 30
0.0
 41
1.0
 10
946.15728944182354
 20
-1334.6683383005188
 30
0.0
 41
1.0
 10
946.15712639382934
 20
-1334.6702160566538
 30
0.0
 41
1.0
 10
946.14687120271037
 20
-1334.7883208400458
 30
0.0
 41
0.99972860950007
 10
946.13112587913804
 20
-1334.9058197489462
 30
0.0
 41
1.0
 10
946.13073238648792
 20
-1334.9087561736465
 30
0.0
 41
1.0
 10
946.1303388938378
 20
-1334.9116925983467
 30
0.0
 41
1.0
 10
946.1138065849658
 20
-1335.0350643566435
 30
0.0
 41
0.9998265533968819
 10
946.09269112623372
 20
-1335.1577348314304
 30
0.0
 41
1.0
 10
946.0920145840962
 20
-1335.1616652099397
 30
0.0
 41
1.0
 10
946.09133804195881
 20
-1335.1655955884485
 30
0.0
 41
1.0
 10
946.06886949895102
 20
-1335.2961268202562
 30
0.0
 41
0.9999022530853932
 10
946.042760034342
 20
-1335.4259787888896
 30
0.0
 41
1.0
 10
946.04178139317651
 20
-1335.4308459312774
 30
0.0
 41
1.0
 10
946.04080275201113
 20
-1335.4357130736648
 30
0.0
 41
1.0
 10
946.01273600506852
 20
-1335.5752993270862
 30
0.0
 41
0.9999524761935724
 10
945.98195303623481
 20
-1335.7143118202462
 30
0.0
 41
1.0
 10
945.98067692905965
 20
-1335.7200745795467
 30
0.0
 41
1.0
 10
945.97940082188461
 20
-1335.7258373388472
 30
0.0
 41
1.0
 10
945.94606563869831
 20
-1335.8763753506205
 30
0.0
 41
0.9999813588731406
 10
945.91089463790104
 20
-1336.0264950632813
 30
0.0
 41
1.0
 10
945.90934071244556
 20
-1336.0331276536995
 30
0.0
 41
1.0
 10
945.90778678699007
 20
-1336.0397602441171
 30
0.0
 41
1.0
 10
945.86950793528808
 20
-1336.2031451375892
 30
0.0
 41
0.9999955237655575
 10
945.83025205730553
 20
-1336.3662980412041
 30
0.0
 41
1.0
 10
945.81797042166863
 20
-1336.4173422317376
 30
0.0
 41
1.0
 10
945.80568878603185
 20
-1336.4683864222707
 30
0.0
 41
1.0
 10
945.74186963676448
 20
-1336.7336277069985
 30
0.0
 41
0.9999993604117515
 10
945.67745068960812
 20
-1336.9987239576349
 30
0.0
 41
1.0
 10
945.67273185406441
 20
-1337.0181428656615
 30
0.0
 41
1.0
 10
945.6680130185207
 20
-1337.0375617736881
 30
0.0
 41
1.0
 10
945.5941564002577
 20
-1337.3414958404578
 30
0.0
 41
0.9999659914725463
 10
945.51529680437341
 20
-1337.6441703870123
 30
0.0
 41
1.0
 10
945.51034411544356
 20
-1337.6631795241915
 30
0.0
 41
1.0
 10
945.50539142651371
 20
-1337.6821886613711
 30
0.0
 41
1.0
 10
945.4166264527654
 20
-1338.0228814823004
 30
0.0
 41
0.9999441976025794
 10
945.32068341980391
 20
-1338.3616229075924
 30
0.0
 41
1.0
 10
945.30398290137884
 20
-1338.4205866201187
 30
0.0
 41
1.0
 10
945.28728238295378
 20
-1338.4795503326445
 30
0.0
 41
1.0
 10
945.15793831313886
 20
-1338.9362191830005
 30
0.0
 41
0.9999625120736276
 10
945.02070554581485
 20
-1339.3905797169978
 30
0.0
 41
1.0
 10
944.98491560273101
 20
-1339.5090757436278
 30
0.0
 41
1.0
 10
944.94912565964705
 20
-1339.6275717702583
 30
0.0
 41
1.0
 10
944.87460545560316
 20
-1339.8742988483696
 30
0.0
 41
0.9999793386312552
 10
944.79691943247121
 20
-1340.1200474875873
 30
0.0
 41
1.0
 10
944.71923340933358
 20
-1340.3657961268232
 30
0.0
 41
1.0
 10
944.708453850463
 20
-1340.3998140311983
 30
0.0
 41
1.0
 10
942.85808079719379
 20
-1346.2868859536657
 30
0.0
 41
1.0
 10
941.00770774392458
 20
-1352.173957876133
 30
0.0
 41
1.0
 10
940.04645105390102
 20
-1352.173957876133
 30
0.0
 41
1.0
 10
939.08519436387746
 20
-1352.173957876133
 30
0.0
 41
1.0
 10
940.70413914255596
 20
-1347.0259293743434
 30
0.0
 41
1.0
 10
942.32308392123446
 20
-1341.8779008725542
 30
0.0
 41
1.0
 10
942.36824974440856
 20
-1341.7338696502852
 30
0.0
 41
1.0
 10
942.41341556758255
 20
-1341.5898384280158
 30
0.0
 41
1.0
 10
942.58371998493908
 20
-1341.0467473988733
 30
0.0
 41
0.9999911657883668
 10
942.74945279662586
 20
-1340.5022438674882
 30
0.0
 41
1.0
 10
942.7791487401289
 20
-1340.4046799274288
 30
0.0
 41
1.0
 10
942.80884468363206
 20
-1340.3071159873698
 30
0.0
 41
1.0
 10
942.91518560829866
 20
-1339.9577403361491
 30
0.0
 41
0.99999524281902
 10
943.01936919763102
 20
-1339.6077153117753
 30
0.0
 41
1.0
 10
943.02442866796389
 20
-1339.590717037499
 30
0.0
 41
1.0
 10
943.02948813829676
 20
-1339.5737187632221
 30
0.0
 41
1.0
 10
943.12355278696259
 20
-1339.257690287403
 30
0.0
 41
0.9999931687536656
 10
943.21527862482969
 20
-1338.9409750741547
 30
0.0
 41
1.0
 10
943.22021388929102
 20
-1338.9239343648778
 30
0.0
 41
1.0
 10
943.22514915375223
 20
-1338.9068936556009
 30
0.0
 41
1.0
 10
943.30700446271157
 20
-1338.6242598608565
 30
0.0
 41
0.9999893840805979
 10
943.38625168916019
 20
-1338.3408837316379
 30
0.0
 41
1.0
 10
943.46549891561517
 20
-1338.0575076023974
 30
0.0
 41
0.9999833980061145
 10
943.54147515635862
 20
-1337.7732370193639
 30
0.0
 41
1.0
 10
943.55047909308053
 20
-1337.7395481408867
 30
0.0
 41
1.0
 10
943.55948302980244
 20
-1337.7058592624094
 30
0.0
 41
1.0
 10
943.62844757866833
 20
-1337.4478234301146
 30
0.0
 41
0.9999233658067602
 10
943.69100254989053
 20
-1337.1881592713848
 30
0.0
 41
1.0
 10
943.75355752111068
 20
-1336.9284951126624
 30
0.0
 41
1.0
 10
943.79304093996825
 20
-1336.764688448236
 30
0.0
 41
1.0
 10
943.7980195439452
 20
-1336.7440334863668
 30
0.0
 41
1.0
 10
943.80299814792227
 20
-1336.7233785244975
 30
0.0
 41
1.0
 10
943.83252435882878
 20
-1336.6008817837974
 30
0.0
 41
0.9999868670853019
 10
943.86079344282211
 20
-1336.4780888381647
 30
0.0
 41
1.0
 10
943.86469092998004
 20
-1336.4611592507472
 30
0.0
 41
1.0
 10
943.86858841713786
 20
-1336.4442296633297
 30
0.0
 41
1.0
 10
943.88906252681579
 20
-1336.3552958925302
 30
0.0
 41
0.9999778173346333
 10
943.9083501249338
 20
-1336.2660972752888
 30
0.0
 41
1.0
 10
943.92763772304943
 20
-1336.1768986580582
 30
0.0
 41
0.9999602692861676
 10
943.94533208168104
 20
-1336.0873703696266
 30
0.0
 41
1.0
 10
943.94853591375818
 20
-1336.0711599147435
 30
0.0
 41
1.0
 10
943.9517397458352
 20
-1336.0549494598604
 30
0.0
 41
1.0
 10
943.97584176862051
 20
-1335.9330002616657
 30
0.0
 41
0.9995617985320718
 10
943.99268511583989
 20
-1335.8098385139565
 30
0.0
 41
1.0
 10
943.99514960574618
 20
-1335.7918176965904
 30
0.0
 41
1.0
 10
943.99761409565247
 20
-1335.7737968792244
 30
0.0
 41
1.0
 10
944.0178973567007
 20
-1335.6254818295229
 30
0.0
 41
0.9991121410639861
 10
944.02562271028887
 20
-1335.4759857307181
 30
0.0
 41
1.0
 10
944.02654150031344
 20
-1335.4582058941428
 30
0.0
 41
1.0
 10
944.0274602903379
 20
-1335.4404260575675
 30
0.0
 41
1.0
 10
944.03334806387693
 20
-1335.3264896319142
 30
0.0
 41
0.9989792494906258
 10
944.0289289717598
 20
-1335.2124867960138
 30
0.0
 41
1.0
 10
944.02828099989119
 20
-1335.1957705500886
 30
0.0
 41
1.0
 10
944.02763302802271
 20
-1335.1790543041634
 30
0.0
 41
1.0
 10
944.02450987964232
 20
-1335.0984839601142
 30
0.0
 41
0.9997820295394315
 10
944.01802588226678
 20
-1335.0181142383713
 30
0.0
 41
1.0
 10
944.01154188489079
 20
-1334.9377445166228
 30
0.0
 41
0.9998335105973286
 10
944.0021296893791
 20
-1334.8576649001743
 30
0.0
 41
1.0
 10
944.00053476470293
 20
-1334.8440951696925
 30
0.0
 41
1.0
 10
943.99893984002676
 20
-1334.8305254392112
 30
0.0
 41
1.0
 10
943.98633779516263
 20
-1334.7233063617955
 30
0.0
 41
0.9996876457878738
 10
943.96839388236424
 20
-1334.6168509340796
 30
0.0
 41
1.0
 10
943.96616221921897
 20
-1334.6036111988383
 30
0.0
 41
1.0
 10
943.96393055607371
 20
-1334.5903714635965
 30
0.0
 41
1.0
 10
943.95013473465247
 20
-1334.5085253196376
 30
0.0
 41
0.9995547496494904
 10
943.93148141275981
 20
-1334.427647822446
 30
0.0
 41
1.0
 10
943.93110745588865
 20
-1334.4260264117411
 30
0.0
 41
1.0
 10
943.93073349901738
 20
-1334.4244050010361
 30
0.0
 41
1.0
 10
943.91282809086795
 20
-1334.3467703252568
 30
0.0
 41
0.9994899427174099
 10
943.8900031821878
 20
-1334.2704370424203
 30
0.0
 41
1.0
 10
943.88954465544657
 20
-1334.2689035926301
 30
0.0
 41
1.0
 10
943.88908612870546
 20
-1334.2673701428403
 30
0.0
 41
1.0
 10
943.86717827350913
 20
-1334.1941037595871
 30
0.0
 41
0.9993784877589855
 10
943.84016263840181
 20
-1334.1225630544268
 30
0.0
 41
1.0
 10
943.83963094742535
 20
-1334.1211550717076
 30
0.0
 41
1.0
 10
943.83909925644878
 20
-1334.1197470889879
 30
0.0
 41
1.0
 10
943.8131470032946
 20
-1334.051022349267
 30
0.0
 41
0.9992430832255197
 10
943.7819304681359
 20
-1333.9845231971995
 30
0.0
 41
1.0
 10
943.78134835207925
 20
-1333.9832831420822
 30
0.0
 41
1.0
 10
943.7807662360226
 20
-1333.9820430869645
 30
0.0
 41
1.0
 10
943.75071393297594
 20
-1333.9180240451296
 30
0.0
 41
0.9990789632797835
 10
943.71528330619992
 20
-1333.8568174333814
 30
0.0
 41
1.0
 10
943.71468760001812
 20
-1333.8557883475223
 30
0.0
 41
1.0
 10
943.71409189383621
 20
-1333.8547592616633
 30
0.0
 41
1.0
 10
943.67985267942265
 20
-1333.7956108216308
 30
0.0
 41
0.9988874801120423
 10
943.64019340339121
 20
-1333.739951109214
 30
0.0
 41
1.0
 10
943.639637877327
 20
-1333.7391714575392
 30
0.0
 41
1.0
 10
943.6390823512628
 20
-1333.7383918058645
 30
0.0
 41
1.0
 10
943.60053412735863
 20
-1333.6842913967953
 30
0.0
 41
0.9986762060692128
 10
943.55663165608303
 20
-1333.6344376823572
 30
0.0
 41
1.0
 10
943.55618769575176
 20
-1333.6339335405414
 30
0.0
 41
1.0
 10
943.55574373542049
 20
-1333.6334293987261
 30
0.0
 41
1.0
 10
943.51272918480709
 20
-1333.5845839679182
 30
0.0
 41
0.998462164248734
 10
943.46457162802903
 20
-1333.540800667447
 30
0.0
 41
1.0
 10
943.46432499351238
 20
-1333.5405764352831
 30
0.0
 41
1.0
 10
943.46407835899572
 20
-1333.5403522031197
 30
0.0
 41
1.0
 10
943.41641407125087
 20
-1333.4970173669758
 30
0.0
 41
0.9982724693854203
 10
943.36399543940979
 20
-1333.4595730164579
 30
0.0
 41
1.0
 10
943.31157680756826
 20
-1333.4221286659404
 30
0.0
 41
0.9981399180161846
 10
943.25499074417689
 20
-1333.3913421464977
 30
0.0
 41
1.0
 10
943.25494508209749
 20
-1333.3913173033402
 30
0.0
 41
1.0
 10
943.25489942001809
 20
-1333.3912924601823
 30
0.0
 41
1.0
 10
943.19822203246667
 20
-1333.3604562544242
 30
0.0
 41
0.9980927086836886
 10
943.13817668139961
 20
-1333.3368394455715
 30
0.0
 41
1.0
 10
943.1377365116889
 20
-1333.3366663196971
 30
0.0
 41
1.0
 10
943.13729634197807
 20
-1333.3364931938222
 30
0.0
 41
1.0
 10
943.07637065148788
 20
-1333.3125301332193
 30
0.0
 41
0.9981411356559352
 10
943.01298213008852
 20
-1333.2961574917144
 30
0.0
 41
1.0
 10
943.01210001338723
 20
-1333.2959296495087
 30
0.0
 41
1.0
 10
943.01121789668605
 20
-1333.2957018073034
 30
0.0
 41
1.0
 10
942.9460651418832
 20
-1333.2788734813867
 30
0.0
 41
0.9983031812935007
 10
942.87939771288814
 20
-1333.2697341202102
 30
0.0
 41
1.0
 10
942.87052668748629
 20
-1333.2685180015392
 30
0.0
 41
1.0
 10
942.86165566208444
 20
-1333.2673018828682
 30
0.0
 41
1.0
 10
942.8073060195785
 20
-1333.2598511528768
 30
0.0
 41
0.9983887708263951
 10
942.75246217028416
 20
-1333.2586064792436
 30
0.0
 41
1.0
 10
942.7443987650671
 20
-1333.2584234813689
 30
0.0
 41
1.0
 10
942.73633535985005
 20
-1333.2582404834939
 30
0.0
 41
1.0
 10
942.69761832099175
 20
-1333.2573618056099
 30
0.0
 41
0.9998869563076419
 10
942.65889236778867
 20
-1333.2576476749696
 30
0.0
 41
1.0
 10
942.6201664145749
 20
-1333.2579335443293
 30
0.0
 41
0.9999972320145489
 10
942.58144223535191
 20
-1333.2584016438586
 30
0.0
 41
1.0
 10
942.56208921878351
 20
-1333.258635583948
 30
0.0
 41
1.0
 10
942.54273620221511
 20
-1333.258869524037
 30
0.0
 41
1.0
 10
942.46530598983816
 20
-1333.2598055037452
 30
0.0
 41
0.9997304945087581
 10
942.38800268359387
 20
-1333.2643345975321
 30
0.0
 41
1.0
 10
942.37895304189612
 20
-1333.2648648035215
 30
0.0
 41
1.0
 10
942.36990340019838
 20
-1333.2653950095114
 30
0.0
 41
1.0
 10
942.27450081055417
 20
-1333.2709845152772
 30
0.0
 41
0.9997888306415694
 10
942.17940847471311
 20
-1333.2804894797659
 30
0.0
 41
1.0
 10
942.17068741313869
 20
-1333.281361194398
 30
0.0
 41
1.0
 10
942.16196635156416
 20
-1333.2822329090304
 30
0.0
 41
1.0
 10
942.04943189257722
 20
-1333.2934813027837
 30
0.0
 41
0.9984170238190606
 10
941.93887274522683
 20
-1333.317297384719
 30
0.0
 41
1.0
 10
941.90249161423822
 20
-1333.3251344205255
 30
0.0
 41
1.0
 10
941.86611048324971
 20
-1333.332971456332
 30
0.0
 41
1.0
 10
941.7509194148289
 20
-1333.3577853228412
 30
0.0
 41
0.9976592854198142
 10
941.64019124842537
 20
-1333.3980839999886
 30
0.0
 41
1.0
 10
941.52946308202081
 20
-1333.4383826771355
 30
0.0
 41
0.9993255074352442
 10
941.42199128323136
 20
-1333.4866995756274
 30
0.0
 41
1.0
 10
941.41736610430712
 20
-1333.4887789518275
 30
0.0
 41
1.0
 10
941.41274092538299
 20
-1333.4908583280276
 30
0.0
 41
1.0
 10
941.29601876874665
 20
-1333.5433339789188
 30
0.0
 41
0.9976475078275786
 10
941.18757142443712
 20
-1333.6112819685763
 30
0.0
 41
1.0
 10
941.16922903029911
 20
-1333.6227744473931
 30
0.0
 41
1.0
 10
941.15088663616109
 20
-1333.6342669262094
 30
0.0
 41
1.0
 10
941.06668444461275
 20
-1333.6870240469752
 30
0.0
 41
0.999513133640618
 10
940.98593672965603
 20
-1333.7449302589284
 30
0.0
 41
1.0
 10
940.90518901470034
 20
-1333.8028364708807
 30
0.0
 41
0.9995810107607194
 10
940.82792736696865
 20
-1333.8653181533482
 30
0.0
 41
1.0
 10
940.82495733575911
 20
-1333.8677200248126
 30
0.0
 41
1.0
 10
940.82198730454957
 20
-1333.8701218962765
 30
0.0
 41
1.0
 10
940.73878559440038
 20
-1333.9374073216718
 30
0.0
 41
0.9996617837954734
 10
940.65919490726492
 20
-1334.0089277772322
 30
0.0
 41
1.0
 10
940.6470641563875
 20
-1334.0198285102233
 30
0.0
 41
1.0
 10
940.63493340551008
 20
-1334.0307292432144
 30
0.0
 41
1.0
 10
940.56665787811266
 20
-1334.0920818586874
 30
0.0
 41
0.9997267750052494
 10
940.50132436983017
 20
-1334.1565583952115
 30
0.0
 41
1.0
 10
940.43599086154495
 20
-1334.2210349317384
 30
0.0
 41
0.9999667288958067
 10
940.37171791840331
 20
-1334.2865687386275
 30
0.0
 41
1.0
 10
940.30289047062638
 20
-1334.3567463973873
 30
0.0
 41
1.0
 10
940.23406302284957
 20
-1334.4269240561475
 30
0.0
 41
1.0
 10
940.03213518415237
 20
-1334.6328131805585
 30
0.0
 41
0.9988205335175113
 10
939.85112956717239
 20
-1334.8573174126204
 30
0.0
 41
1.0
 10
939.82048960226814
 20
-1334.8953206630499
 30
0.0
 41
1.0
 10
939.78984963736389
 20
-1334.9333239134789
 30
0.0
 41
1.0
 10
939.54756409057245
 20
-1335.2338346464026
 30
0.0
 41
0.999707782675468
 10
939.32008613946937
 20
-1335.5457044406162
 30
0.0
 41
1.0
 10
939.31836272433907
 20
-1335.5480672239955
 30
0.0
 41
1.0
 10
939.31663930920877
 20
-1335.5504300073749
 30
0.0
 41
1.0
 10
939.08571452784304
 20
-1335.8670253683495
 30
0.0
 41
0.9989147567078807
 10
938.88525102495862
 20
-1336.2037348295357
 30
0.0
 41
1.0
 10
938.86050987965302
 20
-1336.2452914100859
 30
0.0
 41
1.0
 10
938.83576873434743
 20
-1336.286847990636
 30
0.0
 41
1.0
 10
938.68055743570983
 20
-1336.5475493750896
 30
0.0
 41
0.9997476598181164
 10
938.53721244819849
 20
-1336.8149591236752
 30
0.0
 41
1.0
 10
938.39386746068965
 20
-1337.0823688722562
 30
0.0
 41
0.9996258967110214
 10
938.26535920875665
 20
-1337.3572168088822
 30
0.0
 41
1.0
 10
938.25215929930584
 20
-1337.3854482089805
 30
0.0
 41
1.0
 10
938.23895938985504
 20
-1337.4136796090784
 30
0.0
 41
1.0
 10
938.09875066885547
 20
-1337.713552007031
 30
0.0
 41
0.9998735413944223
 10
937.96814932213715
 20
-1338.0177316064942
 30
0.0
 41
1.0
 10
937.96470649407513
 20
-1338.0257501919623
 30
0.0
 41
1.0
 10
937.96126366601311
 20
-1338.0337687774304
 30
0.0
 41
1.0
 10
937.83754797541371
 20
-1338.3219112059683
 30
0.0
 41
0.999937741885677
 10
937.72029317324211
 20
-1338.6127426736366
 30
0.0
 41
1.0
 10
937.60303837106744
 20
-1338.9035741413113
 30
0.0
 41
0.9999508299504386
 10
937.49157442769172
 20
-1339.1966738181291
 30
0.0
 41
1.0
 10
937.48849365902822
 20
-1339.2047748440955
 30
0.0
 41
1.0
 10
937.48541289036473
 20
-1339.2128758700619
 30
0.0
 41
1.0
 10
937.36778740966531
 20
-1339.5221775988034
 30
0.0
 41
0.9999609228439268
 10
937.25564880678849
 20
-1339.8335106148265
 30
0.0
 41
1.0
 10
937.25269279643885
 20
-1339.841717455236
 30
0.0
 41
1.0
 10
937.24973678608922
 20
-1339.8499242956455
 30
0.0
 41
1.0
 10
937.1316861625188
 20
-1340.1776709924711
 30
0.0
 41
0.9999674607401405
 10
937.0189386364483
 20
-1340.5072796124732
 30
0.0
 41
1.0
 10
936.96754024588495
 20
-1340.6575388081674
 30
0.0
 41
1.0
 10
936.91614185532171
 20
-1340.8077980038615
 30
0.0
 41
1.0
 10
936.80013124856123
 20
-1341.1469459863715
 30
0.0
 41
0.9999287532305885
 10
936.69224984459402
 20
-1341.4887667253374
 30
0.0
 41
1.0
 10
936.64577258846975
 20
-1341.6360292696613
 30
0.0
 41
1.0
 10
936.59929533234549
 20
-1341.7832918139852
 30
0.0
 41
1.0
 10
936.58436844063567
 20
-1341.8305874642742
 30
0.0
 41
0.9999998224214161
 10
936.56949793189301
 20
-1341.8779008725542
 30
0.0
 41
1.0
 10
934.94884179509745
 20
-1347.0259293743434
 30
0.0
 41
1.0
 10
933.32818565830189
 20
-1352.173957876133
 30
0.0
 41
1.0
 10
932.42287721441107
 20
-1352.173957876133
 30
0.0
 41
1.0
 10
931.51756877052026
 20
-1352.173957876133
 30
0.0
 41
1.0
 10
933.36965318190619
 20
-1346.2868859536657
 30
0.0
 41
1.0
 10
935.22173759329212
 20
-1340.3998140311983
 30
0.0
 41
1.0
 10
935.23185935159495
 20
-1340.3677708177484
 30
0.0
 41
1.0
 10
935.30446702044469
 20
-1340.1374712759225
 30
0.0
 41
1.0
 10
935.37707468929716
 20
-1339.907171734088
 30
0.0
 41
0.9999825681972778
 10
935.44695772850571
 20
-1339.6760308390326
 30
0.0
 41
1.0
 10
935.49524879066678
 20
-1339.5163062555357
 30
0.0
 41
1.0
 10
935.54353985282785
 20
-1339.3565816720388
 30
0.0
 41
1.0
 10
935.64069220614385
 20
-1339.0352464502671
 30
0.0
 41
0.9999672528959804
 10
935.73263101176678
 20
-1338.712380904682
 30
0.0
 41
1.0
 10
935.7354198954356
 20
-1338.7025870592952
 30
0.0
 41
1.0
 10
935.73820877910453
 20
-1338.6927932139083
 30
0.0
 41
1.0
 10
935.82456981739369
 20
-1338.3895153590834
 30
0.0
 41
0.9999899749140564
 10
935.90821142692482
 20
-1338.0854762706426
 30
0.0
 41
1.0
 10
935.91831734594302
 20
-1338.048741032962
 30
0.0
 41
1.0
 10
935.92842326496111
 20
-1338.0120057952813
 30
0.0
 41
1.0
 10
935.99185303645982
 20
-1337.7814371821901
 30
0.0
 41
0.9999214200502448
 10
936.04948246483718
 20
-1337.5493508399809
 30
0.0
 41
1.0
 10
936.0622483170182
 20
-1337.4979399545832
 30
0.0
 41
1.0
 10
936.07501416919922
 20
-1337.4465290691851
 30
0.0
 41
1.0
 10
936.10711189321501
 20
-1337.3172644977717
 30
0.0
 41
0.9999828681672255
 10
936.13769414521039
 20
-1337.1876330233044
 30
0.0
 41
1.0
 10
936.16827639720532
 20
-1337.0580015488385
 30
0.0
 41
0.9999389844476434
 10
936.19598738599677
 20
-1336.9277260929298
 30
0.0
 41
1.0
 10
936.20312512971623
 20
-1336.8941699890961
 30
0.0
 41
1.0
 10
936.21026287343557
 20
-1336.8606138852624
 30
0.0
 41
1.0
 10
936.25224934966423
 20
-1336.6632262216931
 30
0.0
 41
0.9998933699440089
 10
936.28845361406798
 20
-1336.4646966139253
 30
0.0
 41
1.0
 10
936.28982643928407
 20
-1336.4571685932301
 30
0.0
 41
1.0
 10
936.29119926450016
 20
-1336.4496405725354
 30
0.0
 41
1.0
 10
936.33014917933519
 20
-1336.2360549233831
 30
0.0
 41
0.9996850305193885
 10
936.35833285559397
 20
-1336.0207839179448
 30
0.0
 41
1.0
 10
936.36032788896296
 20
-1336.0055455638249
 30
0.0
 41
1.0
 10
936.36232292233205
 20
-1335.990307209705
 30
0.0
 41
1.0
 10
936.38973078479125
 20
-1335.7809619825489
 30
0.0
 41
0.9994697936706255
 10
936.40345534401092
 20
-1335.5702767872176
 30
0.0
 41
1.0
 10
936.40393241326058
 20
-1335.5629533150063
 30
0.0
 41
1.0
 10
936.40440948251023
 20
-1335.5556298427955
 30
0.0
 41
1.0
 10
936.4171799032307
 20
-1335.3595915918841
 30
0.0
 41
0.999180489313689
 10
936.41405158695773
 20
-1335.1631627419138
 30
0.0
 41
1.0
 10
936.4139677081356
 20
-1335.157895940501
 30
0.0
 41
1.0
 10
936.41388382931348
 20
-1335.1526291390883
 30
0.0
 41
1.0
 10
936.41092327068475
 20
-1334.9667338919412
 30
0.0
 41
0.9988448329322081
 10
936.39013172506111
 20
-1334.7819813021069
 30
0.0
 41
1.0
 10
936.38853765135786
 20
-1334.7678164463346
 30
0.0
 41
1.0
 10
936.38694357765473
 20
-1334.7536515905622
 30
0.0
 41
1.0
 10
936.36934017943724
 20
-1334.5972287122736
 30
0.0
 41
0.9985503209459188
 10
936.33502390713784
 20
-1334.4436045281841
 30
0.0
 41
1.0
 10
936.32743791506709
 20
-1334.4096442007863
 30
0.0
 41
1.0
 10
936.31985192299646
 20
-1334.375683873388
 30
0.0
 41
1.0
 10
936.30070763483843
 20
-1334.2899803440955
 30
0.0
 41
0.9991036781371273
 10
936.2743827731872
 20
-1334.2062032567696
 30
0.0
 41
1.0
 10
936.27040054773011
 20
-1334.1935300942555
 30
0.0
 41
1.0
 10
936.26641832227301
 20
-1334.1808569317418
 30
0.0
 41
1.0
 10
936.24805791153392
 20
-1334.1224261694379
 30
0.0
 41
0.9998874504367147
 10
936.22795270385757
 20
-1334.0645725672216
 30
0.0
 41
1.0
 10
936.20784749617837
 20
-1334.0067189649967
 30
0.0
 41
0.9994041637544294
 10
936.18379888324546
 20
-1333.9503902611104
 30
0.0
 41
1.0
 10
936.17960209902139
 20
-1333.9405601966282
 30
0.0
 41
1.0
 10
936.17540531479733
 20
-1333.930730132146
 30
0.0
 41
1.0
 10
936.1475264838017
 20
-1333.8654299661766
 30
0.0
 41
0.9991846840702771
 10
936.11447012710914
 20
-1333.802591934897
 30
0.0
 41
1.0
 10
936.11333352071449
 20
-1333.8004313184429
 30
0.0
 41
1.0
 10
936.11219691431984
 20
-1333.7982707019887
 30
0.0
 41
1.0
 10
936.08141377041568
 20
-1333.7397539036165
 30
0.0
 41
0.9989253167925521
 10
936.04534434636105
 20
-1333.6843389752266
 30
0.0
 41
1.0
 10
936.04429022168586
 20
-1333.6827194804628
 30
0.0
 41
1.0
 10
936.04323609701066
 20
-1333.6810999856989
 30
0.0
 41
1.0
 10
936.00927492230574
 20
-1333.6289240468359
 30
0.0
 41
0.9986467172835651
 10
935.97007776966871
 20
-1333.5805580132069
 30
0.0
 41
1.0
 10
935.96920364096923
 20
-1333.5794794109302
 30
0.0
 41
1.0
 10
935.96832951226975
 20
-1333.5784008086534
 30
0.0
 41
1.0
 10
935.93088061703293
 20
-1333.5321919795792
 30
0.0
 41
0.9984001104269035
 10
935.88845388651418
 20
-1333.4905068722087
 30
0.0
 41
1.0
 10
935.8878667484048
 20
-1333.4899299973272
 30
0.0
 41
1.0
 10
935.88727961029531
 20
-1333.4893531224461
 30
0.0
 41
1.0
 10
935.84602715599647
 20
-1333.4488217648395
 30
0.0
 41
0.9982442159084809
 10
935.80027105466149
 20
-1333.4134532035796
 30
0.0
 41
1.0
 10
935.80005625919853
 20
-1333.4132871709353
 30
0.0
 41
1.0
 10
935.79984146373545
 20
-1333.413121138291
 30
0.0
 41
1.0
 10
935.75451495332402
 20
-1333.3780846423174
 30
0.0
 41
0.9982450060832635
 10
935.70536397425417
 20
-1333.3486528592857
 30
0.0
 41
1.0
 10
935.65621299518511
 20
-1333.3192210762541
 30
0.0
 41
0.9983922639636075
 10
935.60404668902231
 20
-1333.2955414416006
 30
0.0
 41
1.0
 10
935.60381981169553
 20
-1333.2954384561181
 30
0.0
 41
1.0
 10
935.60359293436863
 20
-1333.2953354706356
 30
0.0
 41
1.0
 10
935.55097287355329
 20
-1333.2714498650175
 30
0.0
 41
0.9986517147148812
 10
935.49615990068355
 20
-1333.2531487458955
 30
0.0
 41
1.0
 10
935.49548197925742
 20
-1333.2529223994648
 30
0.0
 41
1.0
 10
935.49480405783117
 20
-1333.2526960530336
 30
0.0
 41
1.0
 10
935.43863524210803
 20
-1333.2339422410491
 30
0.0
 41
0.9989435598956484
 10
935.38098185495778
 20
-1333.2204245388152
 30
0.0
 41
1.0
 10
935.37990173537514
 20
-1333.2201712885621
 30
0.0
 41
1.0
 10
935.37882161579262
 20
-1333.2199180383086
 30
0.0
 41
1.0
 10
935.31900798947675
 20
-1333.2058938355676
 30
0.0
 41
0.9992249241239752
 10
935.25827648057714
 20
-1333.1966184928524
 30
0.0
 41
1.0
 10
935.25686279228785
 20
-1333.196402584445
 30
0.0
 41
1.0
 10
935.25544910399844
 20
-1333.1961866760371
 30
0.0
 41
1.0
 10
935.19189021852139
 20
-1333.1864795165066
 30
0.0
 41
0.9994396597833929
 10
935.1278242819875
 20
-1333.1810465941608
 30
0.0
 41
1.0
 10
935.10868361450707
 20
-1333.1794234264421
 30
0.0
 41
1.0
 10
935.08954294702653
 20
-1333.177800258723
 30
0.0
 41
1.0
 10
934.98719567553417
 20
-1333.1691210009403
 30
0.0
 41
0.9987693403121
 10
934.88449205194763
 20
-1333.1706240643935
 30
0.0
 41
1.0
 10
934.87423771772001
 20
-1333.1707741361674
 30
0.0
 41
1.0
 10
934.86398338349238
 20
-1333.1709242079419
 30
0.0
 41
1.0
 10
934.75442761731347
 20
-1333.172527552229
 30
0.0
 41
0.9989753644965898
 10
934.64546561729696
 20
-1333.1840305591541
 30
0.0
 41
1.0
 10
934.53650361728239
 20
-1333.1955335660791
 30
0.0
 41
0.9983190067306652
 10
934.42960480631905
 20
-1333.2195685578649
 30
0.0
 41
1.0
 10
934.42070385471061
 20
-1333.221569836428
 30
0.0
 41
1.0
 10
934.41180290310206
 20
-1333.223571114991
 30
0.0
 41
1.0
 10
934.28710218892161
 20
-1333.2516086639039
 30
0.0
 41
0.9985539388302632
 10
934.16613243524182
 20
-1333.2928723399505
 30
0.0
 41
1.0
 10
934.16378700428345
 20
-1333.2936723837656
 30
0.0
 41
1.0
 10
934.16144157332496
 20
-1333.2944724275808
 30
0.0
 41
1.0
 10
934.03578095772946
 20
-1333.3373361912568
 30
0.0
 41
0.9988468746493896
 10
933.91481061543027
 20
-1333.392054276318
 30
0.0
 41
1.0
 10
933.91162779343949
 20
-1333.393493950879
 30
0.0
 41
1.0
 10
933.90844497144872
 20
-1333.39493362544
 30
0.0
 41
1.0
 10
933.78110898516968
 20
-1333.4525310596227
 30
0.0
 41
0.9991322885918953
 10
933.6590084011109
 20
-1333.520526391806
 30
0.0
 41
1.0
 10
933.64140639006928
 20
-1333.5303285937948
 30
0.0
 41
1.0
 10
933.62380437902766
 20
-1333.5401307957832
 30
0.0
 41
1.0
 10
933.52162769797019
 20
-1333.5970309115642
 30
0.0
 41
0.9993860037850049
 10
933.42368669389589
 20
-1333.660946927153
 30
0.0
 41
1.0
 10
933.41806838104412
 20
-1333.6646134218477
 30
0.0
 41
1.0
 10
933.41245006819224
 20
-1333.6682799165424
 30
0.0
 41
1.0
 10
933.32574568982136
 20
-1333.7248629427427
 30
0.0
 41
0.9998821494953361
 10
933.24081931400974
 20
-1333.7840811728183
 30
0.0
 41
1.0
 10
933.15589293819608
 20
-1333.8432994028954
 30
0.0
 41
0.9997976482744008
 10
933.07341730779672
 20
-1333.9058858109343
 30
0.0
 41
1.0
 10
933.05878104299006
 20
-1333.9169925007154
 30
0.0
 41
1.0
 10
933.04414477818341
 20
-1333.9280991904966
 30
0.0
 41
1.0
 10
932.93239661816426
 20
-1334.0128989781024
 30
0.0
 41
0.9998091630800889
 10
932.82404634013449
 20
-1334.1019993288055
 30
0.0
 41
1.0
 10
932.81104058766107
 20
-1334.1126944292487
 30
0.0
 41
1.0
 10
932.79803483518765
 20
-1334.1233895296914
 30
0.0
 41
1.0
 10
932.66367305220479
 20
-1334.2338800812854
 30
0.0
 41
0.9995035112317477
 10
932.53653717443899
 20
-1334.3526138983025
 30
0.0
 41
1.0
 10
932.52688986405178
 20
-1334.36162364446
 30
0.0
 41
1.0
 10
932.51724255366469
 20
-1334.370633390618
 30
0.0
 41
1.0
 10
932.39381949090273
 20
-1334.485899762371
 30
0.0
 41
0.9994630424299392
 10
932.27821108511819
 20
-1334.6090025056069
 30
0.0
 41
1.0
 10
932.27452824634702
 20
-1334.6129240851196
 30
0.0
 41
1.0
 10
932.27084540757596
 20
-1334.6168456646324
 30
0.0
 41
1.0
 10
932.16260267933478
 20
-1334.7321052488414
 30
0.0
 41
0.9995160693749898
 10
932.06173664980224
 20
-1334.8538726667143
 30
0.0
 41
1.0
 10
932.0598029297222
 20
-1334.8562070909215
 30
0.0
 41
1.0
 10
932.05786920964215
 20
-1334.8585415151288
 30
0.0
 41
1.0
 10
931.96087062027038
 20
-1334.9756400845868
 30
0.0
 41
0.9996561470514612
 10
931.87014440160442
 20
-1335.0976628470362
 30
0.0
 41
1.0
 10
931.86398673570113
 20
-1335.10594463608
 30
0.0
 41
1.0
 10
931.85782906979784
 20
-1335.1142264251243
 30
0.0
 41
1.0
 10
931.77941818293664
 20
-1335.2196856094879
 30
0.0
 41
0.9998349055173529
 10
931.70489090100637
 20
-1335.3279241931491
 30
0.0
 41
1.0
 10
931.63036361907893
 20
-1335.4361627768058
 30
0.0
 41
0.9999728109558745
 10
931.55744072316759
 20
-1335.5454887023616
 30
0.0
 41
1.0
 10
931.55612550775402
 20
-1335.547460471867
 30
0.0
 41
1.0
 10
931.55481029234045
 20
-1335.5494322413724
 30
0.0
 41
1.0
 10
931.4792569656031
 20
-1335.6627017059382
 30
0.0
 41
0.9999972147324929
 10
931.40423915522626
 20
-1335.7763265487779
 30
0.0
 41
1.0
 10
931.39926761260722
 20
-1335.7838566372452
 30
0.0
 41
1.0
 10
931.39429606998806
 20
-1335.791386725713
 30
0.0
 41
1.0
 10
931.30933517436347
 20
-1335.9200717455019
 30
0.0
 41
0.9999371979003284
 10
931.22727982496417
 20
-1336.0506286592722
 30
0.0
 41
1.0
 10
931.22377094060266
 20
-1336.0562115873367
 30
0.0
 41
1.0
 10
931.22026205624104
 20
-1336.0617945154017
 30
0.0
 41
1.0
 10
931.13118893811247
 20
-1336.2035172853107
 30
0.0
 41
0.9998272025610462
 10
931.04744554723197
 20
-1336.3484531620502
 30
0.0
 41
1.0
 10
931.03223037520718
 20
-1336.3747862765081
 30
0.0
 41
1.0
 10
931.01701520318238
 20
-1336.401119390966
 30
0.0
 41
1.0
 10
930.90284146825252
 20
-1336.5987214966208
 30
0.0
 41
0.9995217214837728
 10
930.80110177869631
 20
-1336.8030038244847
 30
0.0
 41
1.0
 10
930.79345821606057
 20
-1336.8183512741889
 30
0.0
 41
1.0
 10
930.78581465342484
 20
-1336.8336987238931
 30
0.0
 41
1.0
 10
930.69890936083857
 20
-1337.0081951819679
 30
0.0
 41
0.9998269762606844
 10
930.61855489456468
 20
-1337.1858034686948
 30
0.0
 41
1.0
 10
930.53820042828966
 20
-1337.3634117554243
 30
0.0
 41
0.9998944747388463
 10
930.46303963372827
 20
-1337.5432794810463
 30
0.0
 41
1.0
 10
930.45808596413747
 20
-1337.5551341359628
 30
0.0
 41
1.0
 10
930.45313229454666
 20
-1337.5669887908793
 30
0.0
 41
1.0
 10
930.37248523399512
 20
-1337.7599857308942
 30
0.0
 41
0.9999506734410254
 10
930.29568770508877
 20
-1337.9545465357573
 30
0.0
 41
1.0
 10
930.2810877398183
 20
-1337.9915344575625
 30
0.0
 41
1.0
 10
930.26648777454784
 20
-1338.0285223793671
 30
0.0
 41
1.0
 10
930.21889017618787
 20
-1338.1491073406069
 30
0.0
 41
0.9999912393924136
 10
930.17230373216273
 20
-1338.2700865433094
 30
0.0
 41
1.0
 10
930.12571728814646
 20
-1338.3910657459892
 30
0.0
 41
0.9999927113998002
 10
930.08005599374906
 20
-1338.5123971534995
 30
0.0
 41
1.0
 10
930.06608756234982
 20
-1338.5495141355027
 30
0.0
 41
1.0
 10
930.05211913095059
 20
-1338.5866311175055
 30
0.0
 41
1.0
 10
929.97852097376199
 20
-1338.7821964890022
 30
0.0
 41
0.9999487550948356
 10
929.90889734878817
 20
-1338.9792118541905
 30
0.0
 41
1.0
 10
929.88530373884976
 20
-1339.0459751644876
 30
0.0
 41
1.0
 10
929.86171012891134
 20
-1339.1127384747847
 30
0.0
 41
1.0
 10
929.76702449454035
 20
-1339.38067230961
 30
0.0
 41
0.9999808436948831
 10
929.67566290590344
 20
-1339.6497577408622
 30
0.0
 41
1.0
 10
929.58430131726209
 20
-1339.9188431721273
 30
0.0
 41
0.9999873932906503
 10
929.49564660854435
 20
-1340.1888325271393
 30
0.0
 41
1.0
 10
929.47555425167479
 20
-1340.250021859893
 30
0.0
 41
1.0
 10
929.45546189480524
 20
-1340.3112111926462
 30
0.0
 41
1.0
 10
929.32662247234566
 20
-1340.7035792131742
 30
0.0
 41
0.9999794883043293
 10
929.20281968738766
 20
-1341.0975654194517
 30
0.0
 41
1.0
 10
929.19166742795892
 20
-1341.1330560296606
 30
0.0
 41
1.0
 10
929.18051516853029
 20
-1341.1685466398694
 30
0.0
 41
1.0
 10
929.03795700462922
 20
-1341.6222193919666
 30
0.0
 41
0.999998276183196
 10
928.89708456460266
 20
-1342.0764184141267
 30
0.0
 41
1.0
 10
927.30894423203006
 20
-1347.1251881451299
 30
0.0
 41
1.0
 10
925.72080389945745
 20
-1352.173957876133
 30
0.0
 41
1.0
 10
924.77205328798107
 20
-1352.173957876133
 30
0.0
 41
1.0
 10
923.82330267650468
 20
-1352.173957876133
 30
0.0
 41
1.0
 10
927.06158716265793
 20
-1341.8466356761869
 30
0.0
 41
1.0
 10
930.29987164881118
 20
-1331.5193134762408
 30
0.0
 41
1.0
  0
LWPOLYLINE
  5
172
100
AcDbEntity
  8
template
370
              15
390
0
  6
Continuous
 62
               7
100
AcDbPolyline
 90
      232
 70
             128
 10
904.59632587498413
 20
-1332.603656307756
 42
0.000437080068545
 10
904.54344870098066
 20
-1332.6723229469226
 10
904.50416446978466
 20
-1332.7234300599089
 42
0.003048199217756
 10
904.37382575265656
 20
-1332.8951517522651
 10
904.33531408091505
 20
-1332.9465385360413
 42
0.0042058245757714
 10
904.13132903024552
 20
-1333.2235442811148
 10
904.07892390774452
 20
-1333.2959771278956
 42
0.012094889874573
 10
903.78287999098245
 20
-1333.7267267324455
 10
903.6866874918602
 20
-1333.8742074676707
 42
0.0141601263947327
 10
903.38304344493918
 20
-1334.3698768044046
 10
903.34350617750977
 20
-1334.4387207718423
 42
0.0071131081306257
 10
903.13823385427474
 20
-1334.8082235706747
 42
0.0068458791001319
 10
902.9433543274323
 20
-1335.1833151341493
 10
902.93654246497385
 20
-1335.1968768478746
 42
0.0064120880291669
 10
902.73840021493106
 20
-1335.60430132279
 10
902.73086552941254
 20
-1335.6203131795146
 42
0.0058857236448425
 10
902.52811013754228
 20
-1336.0646892905461
 10
902.51993521124689
 20
-1336.0831794441833
 42
0.0053189741895674
 10
902.31123089858045
 20
-1336.5691429180993
 10
902.302483092898
 20
-1336.5901247962979
 42
0.0047503650420625
 10
902.08650936674701
 20
-1337.1223242295082
 10
902.07724111839923
 20
-1337.145800605615
 42
0.0042071762173254
 10
901.85269373467156
 20
-1337.7288941996853
 10
901.84294433232287
 20
-1337.7548603745549
 42
0.0036680086484977
 10
901.60848968900837
 20
-1338.3934957590927
 10
901.59828190916301
 20
-1338.4219442934304
 42
0.0032573142631024
 10
901.35264962319809
 20
-1339.1207969531783
 10
901.28399910235294
 20
-1339.3202600372447
 42
0.0026133366650359
 10
900.93555390359757
 20
-1340.3501233209086
 10
900.87229711610291
 20
-1340.5403541562832
 42
0.0020592950737341
 10
900.65843404712984
 20
-1341.1924578089147
 10
900.65538225596447
 20
-1341.2018942973314
 42
0.0025609928528888
 10
900.45356175448092
 20
-1341.8370395196903
 10
900.45097038734957
 20
-1341.8453418606455
 42
0.0031362356246337
 10
900.26147960167725
 20
-1342.4661047168102
 10
900.25934855875107
 20
-1342.4732460230171
 42
0.003722991802414
 10
900.08254817182342
 20
-1343.0822313249955
 10
900.08086958261811
 20
-1343.088178215166
 42
0.0043077623708313
 10
899.91712878055193
 20
-1343.6879969469392
 42
0.0047654161820821
 10
899.76430005803707
 20
-1344.290683035837
 10
899.72983544919691
 20
-1344.432244812991
 42
0.0112969368443365
 10
899.53397109105276
 20
-1345.3239369736179
 10
899.50596470195671
 20
-1345.466765019713
 42
0.0130056762571932
 10
899.30512745831004
 20
-1346.6537060913583
 10
899.28458770816269
 20
-1346.7977842048367
 42
0.0138721532145251
 10
899.180884703625
 20
-1347.7046136906606
 10
899.16158921571696
 20
-1347.9281114125879
 42
0.0071254697009313
 10
899.12824256979457
 20
-1348.391298421433
 10
899.1232815956306
 20
-1348.4773024160063
 42
0.0028881799199329
 10
899.10814330234143
 20
-1348.769044125836
 42
0.0060297297132821
 10
899.09821110256598
 20
-1349.0609930619435
 10
899.09714882089884
 20
-1349.109385433881
 42
0.022952316414636
 10
899.1048798486845
 20
-1349.4321402801675
 10
899.10910562220511
 20
-1349.4925438141863
 42
0.0123673300674585
 10
899.1281842687232
 20
-1349.6936645393585
 42
0.0128577674464705
 10
899.15737965912899
 20
-1349.8935623892817
 10
899.1645055325165
 20
-1349.9348912038818
 42
0.0285717853766131
 10
899.22899953421177
 20
-1350.2130073551939
 10
899.24266805787829
 20
-1350.2596621246716
 42
0.031628309915095
 10
899.35847863779293
 20
-1350.5786766264987
 10
899.36152732954849
 20
-1350.5856629988243
 42
0.0338984824242063
 10
899.51095904051567
 20
-1350.8732289630134
 10
899.51326776988412
 20
-1350.8770199922869
 42
0.0350228718350422
 10
899.6956280605591
 20
-1351.134071976966
 10
899.69651331233297
 20
-1351.1351510547283
 42
0.034747674752869
 10
899.91093799957423
 20
-1351.3623361019499
 42
0.033133770191549
 10
900.15418132532261
 20
-1351.5584647640289
 10
900.15528142383675
 20
-1351.5592374672001
 42
0.0305233319080327
 10
900.42382611940809
 20
-1351.7243656372902
 10
900.42705616391129
 20
-1351.7260896491539
 42
0.0273744481158291
 10
900.71960987548528
 20
-1351.862227793044
 10
900.72471441062305
 20
-1351.8642713775139
 42
0.0240964406203585
 10
901.04019148627231
 20
-1351.9732551037964
 10
901.04677481547878
 20
-1351.9751798434704
 42
0.0209636179808624
 10
901.38417496812849
 20
-1352.0586479914018
 10
901.39180742858014
 20
-1352.0601999044038
 42
0.0181388704691299
 10
901.75012982057399
 20
-1352.1196159976171
 10
901.75841066895669
 20
-1352.1206821814349
 42
0.0156086547590407
 10
902.13659803315579
 20
-1352.1574183680123
 10
902.17979328547528
 20
-1352.1602568704911
 42
0.0137148329021324
 10
902.50746643077139
 20
-1352.1727771257424
 10
902.55340262071934
 20
-1352.1732715588578
 42
0.0051057823885129
 10
902.78954820728961
 20
-1352.1734018132661
 42
0.0052256693305868
 10
903.02564549104261
 20
-1352.1686529888029
 10
903.09587227481768
 20
-1352.1665060227879
 42
0.0161507179047446
 10
903.47160935292334
 20
-1352.1428556524611
 10
903.49162231329205
 20
-1352.140945457174
 42
0.0101216737841724
 10
903.90564953478895
 20
-1352.0929525268075
 10
903.93970282420958
 20
-1352.0883048299988
 42
0.0245291776394556
 10
904.41649247976045
 20
-1351.9992297519225
 10
904.50131579528488
 20
-1351.9790338315765
 42
0.0143509212559666
 10
904.8579468992242
 20
-1351.8832291977978
 42
0.0156557857036289
 10
905.20816296395287
 20
-1351.7662179819786
 10
905.2156641784461
 20
-1351.7634478202249
 42
0.0170137333629419
 10
905.57226017412358
 20
-1351.6177902053555
 10
905.57936409653496
 20
-1351.6146023697902
 42
0.018310536440872
 10
905.93871376470406
 20
-1351.4372673279645
 10
905.94566052933999
 20
-1351.4335168930938
 42
0.0194899958152252
 10
906.30414127032202
 20
-1351.2215379112045
 10
906.31115514966075
 20
-1351.2170125689081
 42
0.0204869852951032
 10
906.66516945175931
 20
-1350.9674925538188
 10
906.67243506034174
 20
-1350.9619124884739
 42
0.0212516938557578
 10
907.01842499144664
 20
-1350.6720084915819
 10
907.06494168552695
 20
-1350.629541181484
 42
0.0215248918253409
 10
907.32496785441299
 20
-1350.3707769024909
 10
907.36999758879517
 20
-1350.3219327811394
 42
0.0114578554959781
 10
907.52478974247094
 20
-1350.146109847683
 10
907.53598427845884
 20
-1350.132791084136
 42
0.006153130514249
 10
907.66245892445204
 20
-1349.9785015508319
 42
0.0006325587120519
 10
907.78683740859833
 20
-1349.8224981751628
 10
907.80987754365526
 20
-1349.7935246544967
 42
0.004189776155197
 10
907.9783329476345
 20
-1349.5780052784262
 10
908.03679506752007
 20
-1349.5019039314498
 42
0.0092993880042052
 10
908.31340699474447
 20
-1349.1276251675649
 10
908.39580148794141
 20
-1349.0116881639992
 42
0.0159321727085023
 10
908.74240797058519
 20
-1348.489513943241
 10
908.78676410597825
 20
-1348.4178343789845
 42
0.0085547317023549
 10
909.02127587129996
 20
-1348.0239594297664
 42
0.0084601156890009
 10
909.2422520487421
 20
-1347.6223325807341
 10
909.25036752257233
 20
-1347.6069728984612
 42
0.0081429654285802
 10
909.47361679300843
 20
-1347.1672513859235
 10
909.48247695719385
 20
-1347.1490725439012
 42
0.0076574581324798
 10
909.7088844677628
 20
-1346.6658896686436
 10
909.71836410848425
 20
-1346.6448251903453
 42
0.0070682724199491
 10
909.94880901629381
 20
-1346.1127878855573
 10
909.95879930027274
 20
-1346.0887986965522
 42
0.0064559514447877
 10
910.19413250845309
 20
-1345.5024864300367
 10
910.20454186661948
 20
-1345.4755515045908
 42
0.0058311413906815
 10
910.44558860338259
 20
-1344.8295194102066
 10
910.45634368076981
 20
-1344.7996350690469
 42
0.0052312425819972
 10
910.70392495881117
 20
-1344.0884326552105
 10
910.71496879519043
 20
-1344.0556059431424
 42
0.0046680544799027
 10
910.96989722292437
 20
-1343.2737796273891
 10
911.01188937297093
 20
-1343.1407963900879
 42
0.0041666856439528
 10
911.21517538536341
 20
-1342.4778276150901
 10
911.25283782602378
 20
-1342.3512465074482
 42
0.0015170975154851
 10
911.37402440444032
 20
-1341.9393781559424
 42
-0.0004887993111917
 10
911.49436417755533
 20
-1341.5272597439284
 10
911.57084143505847
 20
-1341.2663023579594
 42
0.0002583378927045
 10
911.84405600515674
 20
-1340.3322456546634
 10
911.92582885468858
 20
-1340.0521463952341
 42
0.0006636169673407
 10
912.11969661471062
 20
-1339.3847934716105
 10
912.12479326906873
 20
-1339.3671618886924
 42
0.0010589131320117
 10
912.30624196997428
 20
-1338.7344305456818
 10
912.31122404045152
 20
-1338.7169176386733
 42
0.0015655524458558
 10
912.4794942476376
 20
-1338.1183009594606
 10
912.48432444804871
 20
-1338.1009088005389
 42
0.0021640440481038
 10
912.63861442003861
 20
-1337.5358817825067
 10
912.64324863947013
 20
-1337.5186170525067
 42
0.0028763871847636
 10
912.7827643575215
 20
-1336.986649101666
 10
912.78715022169013
 20
-1336.9695251235062
 42
0.0037310511944803
 10
912.9111069135256
 20
-1336.4700775294873
 10
912.91518213381437
 20
-1336.4531172582429
 42
0.0047652197768551
 10
913.02280603432303
 20
-1335.9856394899366
 10
913.02649663364525
 20
-1335.9688799347914
 42
0.006027669929843
 10
913.11702673280013
 20
-1335.5328041396424
 10
913.1202454230895
 20
-1335.5163029253317
 42
0.0075824337759727
 10
913.1929347325048
 20
-1335.1110357609073
 10
913.19558010988555
 20
-1335.094880813454
 42
0.0095130624603087
 10
913.24969534551622
 20
-1334.7197914603853
 10
913.25668156939878
 20
-1334.6638579022683
 42
0.0121054653225062
 10
913.28327289997662
 20
-1334.3989620737943
 10
913.28413938973642
 20
-1334.3875586308618
 42
0.0069050827384308
 10
913.29922820777392
 20
-1334.1446174040211
 10
913.30036350744228
 20
-1334.1210911469798
 42
0.0169063976692603
 10
913.30319078642276
 20
-1333.9248984196756
 10
913.30202013489145
 20
-1333.8645626583248
 42
0.0052007732875166
 10
913.29976668629843
 20
-1333.7889692681742
 42
0.0054038123291421
 10
913.27980317445906
 20
-1333.6689509721618
 10
913.27471731858918
 20
-1333.6402924855834
 42
0.0112050460460731
 10
913.23933295653012
 20
-1333.4639660472417
 10
913.22150799449003
 20
-1333.3844244605234
 42
0.0240764468003903
 10
913.13061062834424
 20
-1333.0541874250239
 10
913.11205186552991
 20
-1332.9975672600267
 42
0.0256812331840674
 10
912.96868894534089
 20
-1332.6258430537714
 10
912.96327951951923
 20
-1332.6137117187809
 42
0.0268360501218648
 10
912.79385227866965
 20
-1332.2827185847605
 10
912.78831587103468
 20
-1332.2731989144481
 42
0.0274670231723795
 10
912.59611489462122
 20
-1331.980911539531
 10
912.59073359465776
 20
-1331.9736323919888
 42
0.0275035967098952
 10
912.37916071509676
 20
-1331.7181165016855
 10
912.3740912141302
 20
-1331.7126374140548
 42
0.0269557673532265
 10
912.14668767069065
 20
-1331.4919951280926
 10
912.14194461290913
 20
-1331.4878651736331
 42
0.0259124802208008
 10
911.90238978147727
 20
-1331.3001746464797
 10
911.89785893629607
 20
-1331.2969891441498
 42
0.0245162152998389
 10
911.64994258320064
 20
-1331.1402561350392
 10
911.64541603688144
 20
-1331.1376959378413
 42
0.0229282588848113
 10
911.39299648004908
 20
-1331.0098277453394
 10
911.38821598621644
 20
-1331.0076754455795
 42
0.0212984135700533
 10
911.13517803375055
 20
-1330.9064765283351
 10
911.12987374878912
 20
-1330.9046129655781
 42
0.0197555462344544
 10
910.88009541105805
 20
-1330.8277975476099
 42
0.0183511896785322
 10
910.62516668559329
 20
-1330.7702146406446
 10
910.53880148886685
 20
-1330.7540118502588
 42
0.0338057877154606
 10
910.25329413961151
 20
-1330.7202034451193
 10
910.16228873458147
 20
-1330.715623789858
 42
0.0091990524458377
 10
910.05644162593558
 20
-1330.7122479339355
 42
0.0028333980746649
 10
909.95052770999769
 20
-1330.7114198264189
 10
909.94961225689337
 20
-1330.7114178565948
 42
-0.0023619827838237
 10
909.84186624182553
 20
-1330.7106770155169
 10
909.8054610716116
 20
-1330.7102547090535
 42
0.0008824598476098
 10
909.62490508191331
 20
-1330.7084789308165
 10
909.58104364935571
 20
-1330.7081249692897
 42
0.0038132665759648
 10
909.31276075348353
 20
-1330.7080060332228
 10
909.2962270986834
 20
-1330.7081247993665
 42
0.006066556934091
 10
908.99494660707853
 20
-1330.7139450987875
 10
908.98069627506675
 20
-1330.7143934067549
 42
0.0080356953332369
 10
908.65123755872662
 20
-1330.7300611288219
 10
908.63916754364027
 20
-1330.7308297117625
 42
0.009899639910232
 10
908.28640445899191
 20
-1330.7603149409601
 10
908.2763587496147
 20
-1330.7613552371586
 42
0.0117740981369644
 10
907.90520189127585
 20
-1330.8086474846868
 10
907.8969791947834
 20
-1330.809892601259
 42
0.0137435215144968
 10
907.51239037528296
 20
-1330.8789895748241
 10
907.50573333617501
 20
-1330.8803754710543
 42
0.0158359869382637
 10
907.11273624237447
 20
-1330.9752675595346
 10
907.10732305550539
 20
-1330.9767575004057
 42
0.018055412402631
 10
906.71100801089926
 20
-1331.1013955166422
 10
906.70645122280951
 20
-1331.1030115529106
 42
0.0203657431281365
 10
906.31197370499592
 20
-1331.261271894427
 10
906.30783016599082
 20
-1331.263133515868
 42
0.0226819684655133
 10
905.92039410978794
 20
-1331.4587760945392
 10
905.91619431876904
 20
-1331.4611416864595
 42
0.0248634984608431
 10
905.54101237758846
 20
-1331.6977683324062
 10
905.49281744880443
 20
-1331.731625374232
 42
0.0267044190884367
 10
905.21852475188734
 20
-1331.9470657501001
 42
0.0139303002201997
 10
904.96235758594548
 20
-1332.1843045910155
 10
904.95750420022762
 20
-1332.1890572538723
 42
0.0283460963435159
 10
904.71343160600122
 20
-1332.4567879143165
 10
904.67376310084387
 20
-1332.5055894917905
 42
0.0070695364826324
 10
904.59632587498413
 20
-1332.603656307756
 42
0.0070695364826324
  0
LWPOLYLINE
  5
173
100
AcDbEntity
  8
template
370
              15
390
0
  6
Continuous
 62
               7
100
AcDbPolyline
 90
      226
 70
             128
 10
901.06750543773774
 20
-1348.3252451139401
 42
-0.0026277636624618
 10
901.06742755393759
 20
-1348.2584731882225
 10
901.06764491216973
 20
-1348.2053179707536
 42
-0.0088680296743685
 10
901.07142152846245
 20
-1348.0323021883573
 10
901.07376788757517
 20
-1347.973022162897
 42
-0.0077381705621827
 10
901.08981399833806
 20
-1347.6817616671005
 10
901.09068190951132
 20
-1347.6694734334137
 42
-0.0068872530532227
 10
901.1173139892602
 20
-1347.3542516813382
 10
901.11851821344555
 20
-1347.3420107023262
 42
-0.0062130021487163
 10
901.15611193027325
 20
-1347.0031410110892
 10
901.15761583380856
 20
-1346.9909671391711
 42
-0.0056726929670513
 10
901.20653769331125
 20
-1346.6287719170559
 10
901.20831113895531
 20
-1346.6166781168126
 42
-0.0052341884490632
 10
901.26892172521593
 20
-1346.23148486129
 10
901.27093971399188
 20
-1346.219479931302
 42
-0.0049768450168619
 10
901.34367839541824
 20
-1345.8116353638688
 10
901.36792741013994
 20
-1345.6830873808635
 42
-0.0089029805622319
 10
901.50500826193468
 20
-1345.0213119334412
 10
901.53775363725322
 20
-1344.8762805029178
 42
-0.0080318257097855
 10
901.76730225159474
 20
-1343.9305708710608
 10
901.77928717804218
 20
-1343.8844402358736
 42
-0.0074265721319123
 10
902.06329871689218
 20
-1342.8543756574927
 10
902.0831782600103
 20
-1342.7862415968989
 42
-0.006971192270121
 10
902.41048283851558
 20
-1341.7199738565755
 10
902.47043478562148
 20
-1341.5339524982037
 42
-0.0052070422892878
 10
902.69986001088034
 20
-1340.8466804211739
 10
902.71714120305137
 20
-1340.79665314056
 42
-0.0009167004449074
 10
902.92023309034198
 20
-1340.2121972924028
 42
-0.0025162726943931
 10
903.12733072060553
 20
-1339.6291560282375
 10
903.1645553324106
 20
-1339.5260064823328
 42
-0.0028212681458074
 10
903.41273125137309
 20
-1338.8502758501636
 10
903.42256201412602
 20
-1338.8239684054811
 42
-0.0031964916825409
 10
903.65885427178603
 20
-1338.2037636433597
 10
903.66848872578453
 20
-1338.1789536532178
 42
-0.0036281836456345
 10
903.89359468688622
 20
-1337.6115129723235
 10
903.90303309704348
 20
-1337.5882155408208
 42
-0.0041269166833001
 10
904.11765079370286
 20
-1337.0707746448425
 10
904.15028375012469
 20
-1336.993896198479
 42
-0.0047472213054123
 10
904.30732855567726
 20
-1336.6334747305978
 10
904.31422263688387
 20
-1336.6180541332692
 42
-0.0025651659995639
 10
904.46258067073563
 20
-1336.2907260775178
 42
-0.0057144634994623
 10
904.61633036450951
 20
-1335.9659164041495
 10
904.64436106990854
 20
-1335.9084080217599
 42
-0.0065388068377649
 10
904.82782809764808
 20
-1335.5441755250959
 10
904.8362865534267
 20
-1335.5279159457259
 42
-0.0074510843020819
 10
905.01246879930443
 20
-1335.2012276646033
 10
905.02064846983797
 20
-1335.1865868873301
 42
-0.0084648979859666
 10
905.19028232293545
 20
-1334.8946778763734
 10
905.1981384494228
 20
-1334.8816708847239
 42
-0.0095638542804498
 10
905.36197389701772
 20
-1334.621782012744
 10
905.36944884068919
 20
-1334.6104126512892
 42
-0.0107191626803813
 10
905.52825042107702
 20
-1334.3798014167446
 10
905.53526715480518
 20
-1334.3700653243841
 42
-0.0118458573893823
 10
905.6898152533206
 20
-1334.1659931290692
 42
-0.012918451817666
 10
905.85426787692325
 20
-1333.9698326128973
 10
905.88441264928736
 20
-1333.9357065339968
 42
-0.021774257963003
 10
906.06102497162067
 20
-1333.7524997637493
 10
906.07177051607334
 20
-1333.7422829305538
 42
-0.009726656865725
 10
906.23782813493676
 20
-1333.5904353561091
 42
-0.0187720905713029
 10
906.41217571082643
 20
-1333.4483665027201
 10
906.44288170150116
 20
-1333.4252074203232
 42
-0.0179428207519272
 10
906.67530242149655
 20
-1333.2626552432121
 10
906.67895474841418
 20
-1333.2602913083233
 42
-0.0170047877696332
 10
906.91471838594271
 20
-1333.1188307941729
 10
906.91850137468998
 20
-1333.1167324891362
 42
-0.0160190788359639
 10
907.15540992232457
 20
-1332.9950811871486
 42
-0.0151102861490279
 10
907.39944170476804
 20
-1332.8883984110948
 10
907.45182820698301
 20
-1332.8673582781989
 42
-0.0271945441894063
 10
907.81049076603472
 20
-1332.7454934674952
 10
907.87955556653401
 20
-1332.7261439262256
 42
-0.023759659402085
 10
908.29535241355188
 20
-1332.6306932142452
 10
908.3634152672812
 20
-1332.6184385261186
 42
-0.0213715440559953
 10
908.64929019872761
 20
-1332.5794914946086
 10
908.70943736493666
 20
-1332.5739017799087
 42
-0.0101465655812554
 10
908.87692989693971
 20
-1332.5617582366435
 10
908.88627028312646
 20
-1332.5612713216469
 42
-0.010037591088601
 10
909.0354243837005
 20
-1332.5564955037212
 10
909.0456836533773
 20
-1332.5563730647068
 42
-0.0103625633383572
 10
909.17439164803579
 20
-1332.5575044982334
 10
909.19665729931342
 20
-1332.5581618566985
 42
-0.0115689250208351
 10
909.28070803683067
 20
-1332.5625913629433
 42
-0.0072438037430284
 10
909.36454631626191
 20
-1332.5701805626923
 10
909.38134682574264
 20
-1332.5719471054172
 42
-0.0217917313131235
 10
909.49791658905281
 20
-1332.5893669981374
 10
909.56351667962724
 20
-1332.6021136065533
 42
-0.0332943556744591
 10
909.76790884465129
 20
-1332.6561538978594
 10
909.79808141319995
 20
-1332.6663219749776
 42
-0.0184824084821841
 10
909.93658646966674
 20
-1332.7187729903644
 42
-0.0198002050680027
 10
910.0706608101724
 20
-1332.781657050567
 10
910.072547447543
 20
-1332.7826348374438
 42
-0.0212242342985743
 10
910.20468638994328
 20
-1332.8583975762358
 10
910.20650168548843
 20
-1332.8595433784453
 42
-0.0226090605794983
 10
910.33500558670903
 20
-1332.949023022009
 10
910.33685002844754
 20
-1332.9504352749973
 42
-0.0238457052236413
 10
910.46003210974015
 20
-1333.0544311708591
 10
910.4619848382996
 20
-1333.0562460486258
 42
-0.0248160564140661
 10
910.57818634560033
 20
-1333.1755206498347
 10
910.58028997900226
 20
-1333.1779059835389
 42
-0.0254109591448066
 10
910.68789519686663
 20
-1333.3131943695012
 10
910.69014321878228
 20
-1333.3163359179039
 42
-0.0255528488297934
 10
910.78758989758103
 20
-1333.4683629721412
 10
910.78992099749553
 20
-1333.472444583746
 42
-0.0252146793215372
 10
910.87570202350469
 20
-1333.6419468297427
 10
910.87800426266222
 20
-1333.6471289116557
 42
-0.0244265635954794
 10
910.95065895642358
 20
-1333.8348754837016
 10
910.95990535789258
 20
-1333.862740902041
 42
-0.0231319612891683
 10
911.00582813688413
 20
-1334.0260419488413
 42
-0.0112130424346328
 10
911.04046415942196
 20
-1334.1922455490271
 10
911.0416666845349
 20
-1334.1987421359177
 42
-0.0210527881253096
 10
911.06735315990534
 20
-1334.3797977813547
 10
911.07086375472761
 20
-1334.415203329906
 42
-0.0190029892420191
 10
911.08630522827218
 20
-1334.6687391761802
 10
911.08711520471616
 20
-1334.7042147905472
 42
-0.0137974553662469
 10
911.08556635188086
 20
-1335.0292461972736
 10
911.08472089692532
 20
-1335.0553649418648
 42
-0.0081336634217948
 10
911.06986156170251
 20
-1335.3607124094729
 42
-0.0073526923570809
 10
911.04555302832875
 20
-1335.6654606537495
 10
911.04429160454515
 20
-1335.678797328424
 42
-0.0066886138685063
 10
911.00855601849867
 20
-1336.0093833719216
 10
911.00689892902881
 20
-1336.0230049909128
 42
-0.0061359187359272
 10
910.9590483269784
 20
-1336.3797689710091
 10
910.95701082590506
 20
-1336.393663773842
 42
-0.0056698610063743
 10
910.89636049513729
 20
-1336.7769423426844
 10
910.89395506181495
 20
-1336.7911014619108
 42
-0.0052721077279735
 10
910.81982286101697
 20
-1337.2012288015803
 10
910.81705971217366
 20
-1337.2156454369747
 42
-0.0049289272184148
 10
910.72876559407518
 20
-1337.6529539480894
 10
910.72565309939102
 20
-1337.6676228009128
 42
-0.0047415956709464
 10
910.62241510785873
 20
-1338.1324195583225
 10
910.58764689749887
 20
-1338.2822266537064
 42
-0.0084404470904818
 10
910.3976304539276
 20
-1339.0424506782356
 10
910.39150376594137
 20
-1339.0653148023912
 42
-0.0039635940255769
 10
910.17005008165404
 20
-1339.8663036666499
 10
910.15667328647783
 20
-1339.9132352832303
 42
-0.0072475040839406
 10
909.88922639861642
 20
-1340.8024549996148
 10
909.8190140717868
 20
-1341.0241953495943
 42
-0.0051345458828789
 10
909.53225469972847
 20
-1341.8985205374038
 10
909.51072843296549
 20
-1341.9619468045203
 42
-0.0019150016605946
 10
909.25519502609427
 20
-1342.7054959247598
 10
909.24872742170078
 20
-1342.7240833896731
 42
-0.0021524362752139
 10
909.00024937063426
 20
-1343.428409211389
 10
908.99103894993641
 20
-1343.4541627896942
 42
-0.0024331286817305
 10
908.75478369090183
 20
-1344.1047620978088
 10
908.74573573835346
 20
-1344.1293054041575
 42
-0.0027449721784708
 10
908.52112116751584
 20
-1344.7284352830879
 10
908.51223116012397
 20
-1344.7517578729389
 42
-0.003108322977061
 10
908.29868867351365
 20
-1345.3016819105196
 10
908.28995254183712
 20
-1345.3237716263798
 42
-0.0035311343278513
 10
908.08691135624633
 20
-1345.8267547521077
 10
908.07832601709902
 20
-1345.847597475617
 42
-0.004024564095105
 10
907.88521421330427
 20
-1346.3059067982103
 10
907.87677809970262
 20
-1346.325486166279
 42
-0.0046015135854403
 10
907.69302180653744
 20
-1346.7413911959247
 10
907.68473562871009
 20
-1346.7596883353749
 42
-0.0052768638270394
 10
907.50975810975353
 20
-1347.1354612196469
 10
907.50162589912713
 20
-1347.1524545581888
 42
-0.0060672675641059
 10
907.33484628636063
 20
-1347.4903701813041
 10
907.32687680588151
 20
-1347.5060354402967
 42
-0.0069904648868099
 10
907.16770841187758
 20
-1347.8083712469652
 10
907.15991701226619
 20
-1347.8226817961936
 42
-0.0080637022770486
 10
907.00776515192092
 20
-1348.0917170993457
 10
907.00017611928797
 20
-1348.1046449649493
 42
-0.0093006455663901
 10
906.85443544275824
 20
-1348.3426593634495
 10
906.84708477601453
 20
-1348.3541773326228
 42
-0.0107060778049182
 10
906.70713623257609
 20
-1348.5634476500018
 10
906.70007446430088
 20
-1348.5735331925612
 42
-0.0122723111430729
 10
906.56528074609832
 20
-1348.7563265220565
 10
906.56495452254524
 20
-1348.7567469098649
 42
-0.0141836319625396
 10
906.42137291957022
 20
-1348.9313166676961
 10
906.41442516392146
 20
-1348.9392916679571
 42
-0.0175957477211473
 10
906.27451899588357
 20
-1349.0889125563654
 42
-0.008046635965836
 10
906.12705523085151
 20
-1349.2312350845182
 10
906.08102068633593
 20
-1349.2742555226077
 42
-0.0269600260403217
 10
905.82774044035295
 20
-1349.4865787811173
 10
905.76117330405702
 20
-1349.5365301957404
 42
-0.0178362839752271
 10
905.52122881440005
 20
-1349.7035481219932
 10
905.51398384340234
 20
-1349.7082166341961
 42
-0.0174650732646056
 10
905.27764764595838
 20
-1349.8490775991572
 42
-0.0169240130170179
 10
905.03218140010131
 20
-1349.9733698589343
 10
904.98619524454284
 20
-1349.9947318145018
 42
-0.0318883036834703
 10
904.63584438892201
 20
-1350.1310701240122
 10
904.56747885375387
 20
-1350.1527707444889
 42
-0.0284435909898298
 10
904.19142872746704
 20
-1350.2489881799625
 10
904.15627056696314
 20
-1350.2558817757917
 42
-0.0243909341002682
 10
903.84282710604953
 20
-1350.3016028068209
 10
903.79254637927909
 20
-1350.3064483537223
 42
-0.0196639292930905
 10
903.5769508017512
 20
-1350.3186966392359
 10
903.52512673059675
 20
-1350.3195998999727
 42
-0.010050151069316
 10
903.41270344892348
 20
-1350.3192995016193
 10
903.38104358754913
 20
-1350.3185784297334
 42
-0.0019752031111041
 10
903.33195125089799
 20
-1350.3172662695247
 10
903.32919094767658
 20
-1350.3171815776982
 42
0.006537875203206
 10
903.28561437292115
 20
-1350.3164146864833
 42
-0.0167974694692726
 10
903.24208354999166
 20
-1350.3147547879576
 10
903.23800421072724
 20
-1350.3144617770627
 42
-0.0081283276246128
 10
903.1864444129933
 20
-1350.309914783425
 10
903.17470483911018
 20
-1350.3086868658461
 42
-0.0126703440177559
 10
903.0999865433198
 20
-1350.2989520747751
 10
903.07719867563992
 20
-1350.2953938188593
 42
-0.011785208845055
 10
902.95765968981709
 20
-1350.273830823704
 10
902.90227923804446
 20
-1350.2624872834676
 42
-0.0251774592280642
 10
902.67543519903074
 20
-1350.2039892740331
 10
902.63071600917931
 20
-1350.1900224546976
 42
-0.0146525199865764
 10
902.44432302164705
 20
-1350.1257559275014
 42
-0.0166929435852
 10
902.26234536552022
 20
-1350.0499487944467
 10
902.25768873424727
 20
-1350.0478238938326
 42
-0.019168435844239
 10
902.0725051029998
 20
-1349.9545878100434
 10
902.0691725172411
 20
-1349.9527465624892
 42
-0.0221181781817193
 10
901.88586221333549
 20
-1349.8406130641165
 10
901.88351240933036
 20
-1349.8390287661277
 42
-0.0254984685394514
 10
901.70722225894872
 20
-1349.7066176161607
 10
901.6847401112442
 20
-1349.6878653072226
 42
-0.0292492648798078
 10
901.55997117240008
 20
-1349.5707725075786
 42
-0.0159048957482262
 10
901.44613117494578
 20
-1349.4427525159745
 10
901.44481238437072
 20
-1349.4411709029596
 42
-0.0343813379542949
 10
901.34217512274415
 20
-1349.2992995771897
 10
901.31068359138328
 20
-1349.2487961850952
 42
-0.0369117275705242
 10
901.22479108948642
 20
-1349.0853189441473
 42
-0.019175137991401
 10
901.15759770393038
 20
-1348.9129143381442
 10
901.15583438016984
 20
-1348.9078209934664
 42
-0.0378178042225326
 10
901.10603966138615
 20
-1348.7188802173882
 10
901.10004436565566
 20
-1348.6863195991896
 42
-0.0184846046482325
 10
901.07932716636094
 20
-1348.5445667786435
 42
-0.0179866351323912
 10
901.06899416128738
 20
-1348.4016759655656
 10
901.06893771884143
 20
-1348.4001182789498
 42
-0.0085497186139916
 10
901.06750543773774
 20
-1348.3252451139401
 42
-0.0085497186139916
  0
MTEXT
  5
174
100
AcDbEntity
  8
template
390
0
 62
               7
100
AcDbMText
 10
784.00000000049977
 20
-1248.2359752562938
 30
0.0
 40
24.432617187500004
 41
0.0
 71
               1
 72
               1
  1
1:10
  7
ＭＳ ゴシック
 73
               1
 44
0.7828267384257843
  0
MTEXT
  5
175
100
AcDbEntity
  8
template
390
0
 62
               7
100
AcDbMText
 10
731.00000000049977
 20
-1219.6535143187939
 30
0.0
 40
16.288411458333332
 41
0.0
 71
               1
 72
               1
  1
縮尺
  7
ＭＳ ゴシック
 73
               1
 44
0.7828267384257843
  0
LINE
  5
176
100
AcDbEntity
  8
template
370
               5
390
0
  6
Continuous
 62
               7
100
AcDbLine
 10
724.00000000049977
 20
-1296.238592443794
 30
0.0
 11
724.00000000049977
 21
-1211.238592443794
 31
0.0
  0
MTEXT
  5
177
100
AcDbEntity
  8
template
390
0
 62
               7
100
AcDbMText
 10
480.00000000049999
 20
-1219.6535143187939
 30
0.0
 40
16.288411458333332
 41
0.0
 71
               1
 72
               1
  1
容量
  7
ＭＳ ゴシック
 73
               1
 44
0.7828267384257843
  0
MTEXT
  5
178
100
AcDbEntity
  8
template
390
0
 62
               7
100
AcDbMText
 10
533.00000000049999
 20
-1248.2359752562938
 30
0.0
 40
24.432617187500004
 41
0.0
 71
               1
 72
               1
  1
5.1L
  7
ＭＳ ゴシック
 73
               1
 44
0.7828267384257843
  0
LINE
  5
179
100
AcDbEntity
  8
template
370
               5
390
0
  6
Continuous
 62
               7
100
AcDbLine
 10
473.00000000049999
 20
-1296.238592443794
 30
0.0
 11
473.00000000049999
 21
-1211.238592443794
 31
0.0
  0
MTEXT
  5
17A
100
AcDbEntity
  8
template
390
0
 62
               7
100
AcDbMText
 10
229.00000000049999
 20
-1134.6535143187939
 30
0.0
 40
16.288411458333332
 41
0.0
 71
               1
 72
               1
  1
品番
  7
ＭＳ ゴシック
 73
               1
 44
0.7828267384257843
  0
MTEXT
  5
17B
100
AcDbEntity
  8
template
390
0
 62
               7
100
AcDbMText
 10
229.00000000049999
 20
-1219.6535143187939
 30
0.0
 40
16.288411458333332
 41
0.0
 71
               1
 72
               1
  1
重量
  7
ＭＳ ゴシック
 73
               1
 44
0.7828267384257843
  0
MTEXT
  5
17C
100
AcDbEntity
  8
template
390
0
 62
               7
100
AcDbMText
 10
282.00000000049999
 20
-1163.2359752562938
 30
0.0
 40
24.432617187500004
 41
0.0
 71
               1
 72
               1
  1
ARJ70-0104(旧品番:AQI70-0104)
  7
ＭＳ ゴシック
 73
               1
 44
0.7828267384257843
  0
MTEXT
  5
17D
100
AcDbEntity
  8
template
390
0
 62
               7
100
AcDbMText
 10
282.00000000049999
 20
-1248.2359752562938
 30
0.0
 40
24.432617187500004
 41
0.0
 71
               1
 72
               1
  1
15kg
  7
ＭＳ ゴシック
 73
               1
 44
0.7828267384257843
  0
LINE
  5
17E
100
AcDbEntity
  8
template
370
               5
390
0
  6
Continuous
 62
               7
100
AcDbLine
 10
222.00000000049999
 20
-1381.238592443794
 30
0.0
 11
222.00000000049999
 21
-1126.238592443794
 31
0.0
  0
MTEXT
  5
17F
100
AcDbEntity
  8
template
390
0
 62
               7
100
AcDbMText
 10
-914.99999999975967
 20
-1248.2359752562938
 30
0.0
 40
24.432617187500004
 41
0.0
 71
               1
 72
               1
  1
カウンタートップ/オーバーフロー付き/壁取付ボルト,カウンタ ー固定金具,\P型紙付属/陶器/ホワイト
  7
ＭＳ ゴシック
 73
               1
 44
1.3047112307096407
  0
DIMENSION
  5
180
100
AcDbEntity
  8
notes
370
               5
390
0
  6
Continuous
 62
               7
100
AcDbDimension
  2
*D2
 10
-515.26212250631693
 20
-335.90915079666388
 30
0.0
 11
-475.26212250631693
 21
-335.90915079666388
 31
0.0
 71
               5
 72
               1
 41
1.0
 42
0.0
  3
tform線あり
100
AcDbAlignedDimension
 13
-435.26212250631693
 23
-485.90915079666388
 33
0.0
 14
-515.26212250631693
 24
-485.90915079666388
 34
0.0
100
AcDbRotatedDimension
1001
ACAD
1000
DSTYLE
1002
{
1070
             279
1070
               2
1070
             340
1005
39
1070
             147
1040
5.0
1002
}
  0
DIMENSION
  5
181
100
AcDbEntity
  8
notes
370
               5
390
0
  6
Continuous
 62
               7
100
AcDbDimension
  2
*D3
 10
-865.26212250631693
 20
-505.90915079666388
 30
0.0
 11
-865.26212250631693
 21
-470.90915079666388
 31
0.0
 71
               5
 72
               1
 41
1.0
 42
0.0
  3
tform線あり
100
AcDbAlignedDimension
 13
-757.32011109759128
 23
-435.90915079666388
 33
0.0
 14
-565.21322385947065
 24
-505.90915079666388
 34
0.0
 50
90.0
100
AcDbRotatedDimension
1001
ACAD
1000
DSTYLE
1002
{
1070
             279
1070
               2
1070
             340
1005
39
1070
             147
1040
5.0
1002
}
  0
DIMENSION
  5
182
100
AcDbEntity
  8
notes
370
               5
390
0
  6
Continuous
 62
               7
100
AcDbDimension
  2
*D4
 10
-575.2132238594711
 20
880.01304708688735
 30
0.0
 11
-475.21322385947065
 21
880.01304708688735
 31
0.0
 71
               5
 72
               1
 41
1.0
 42
0.0
  3
tform線あり
100
AcDbAlignedDimension
 13
-375.21322385946996
 23
780.01304708688735
 33
0.0
 14
-575.2132238594711
 24
780.01304708688735
 34
0.0
100
AcDbRotatedDimension
1001
ACAD
1000
DSTYLE
1002
{
1070
             279
1070
               2
1070
             340
1005
39
1070
             147
1040
5.0
1002
}
  0
DIMENSION
  5
183
100
AcDbEntity
  8
notes
370
               5
390
0
  6
Continuous
 62
               7
100
AcDbDimension
  2
*D5
 10
-765.26212250631693
 20
932.40720358462522
 30
0.0
 11
-475.26212250631693
 21
932.40720358462522
 31
0.0
 71
               5
 72
               1
 41
1.0
 42
0.0
  3
tform線あり
100
AcDbAlignedDimension
 13
-185.26212250631693
 23
480.30874115915435
 33
0.0
 14
-765.26212250631693
 24
480.30874115915447
 34
0.0
100
AcDbRotatedDimension
1001
ACAD
1000
DSTYLE
1002
{
1070
             279
1070
               2
1070
             340
1005
39
1070
             147
1040
5.0
1002
}
  0
DIMENSION
  5
184
100
AcDbEntity
  8
notes
370
               5
390
0
  6
Continuous
 62
               7
100
AcDbDimension
  2
*D6
 10
-740.26212250631693
 20
180.01304708688747
 30
0.0
 11
-475.26212250631693
 21
180.01304708688747
 31
0.0
 71
               5
 72
               1
 41
1.0
 42
0.0
  3
tform線あり
100
AcDbAlignedDimension
 13
-210.26212250631693
 23
397.43399121418042
 33
0.0
 14
-740.26212250631693
 24
397.43399121418065
 34
0.0
100
AcDbRotatedDimension
1001
ACAD
1000
DSTYLE
1002
{
1070
             279
1070
               2
1070
             340
1005
39
1070
             147
1040
5.0
1002
}
  0
DIMENSION
  5
185
100
AcDbEntity
  8
notes
370
               5
390
0
  6
Continuous
 62
               7
100
AcDbDimension
  2
*D7
 10
-865.26212250631693
 20
650.06458466141635
 30
0.0
 11
-865.26212250631693
 21
477.56458466141646
 31
0.0
 71
               5
 72
               1
 41
1.0
 42
0.0
  3
tform線あり
100
AcDbAlignedDimension
 13
-616.37189453641372
 23
305.06458466141657
 33
0.0
 14
-618.19539582174662
 24
650.06458466141635
 34
0.0
 50
90.0
100
AcDbRotatedDimension
1001
ACAD
1000
DSTYLE
1002
{
1070
             279
1070
               2
1070
             340
1005
39
1070
             147
1040
5.0
1002
}
  0
DIMENSION
  5
186
100
AcDbEntity
  8
notes
370
               5
390
0
  6
Continuous
 62
               7
100
AcDbDimension
  2
*D8
 10
-85.262122506316928
 20
780.01304708688735
 30
0.0
 11
-85.262122506316928
 21
532.51304708688735
 31
0.0
 71
               5
 72
               1
 41
1.0
 42
0.0
  3
tform線あり
100
AcDbAlignedDimension
 13
-421.07672807352969
 23
285.01304708688747
 33
0.0
 14
-375.21322385946996
 24
780.01304708688735
 34
0.0
 50
90.0
100
AcDbRotatedDimension
1001
ACAD
1000
DSTYLE
1002
{
1070
             279
1070
               2
1070
             340
1005
39
1070
             147
1040
5.0
1002
}
  0
DIMENSION
  5
187
100
AcDbEntity
  8
notes
370
               5
390
0
  6
Continuous
 62
               7
100
AcDbDimension
  2
*D9
 10
-865.26212250631693
 20
650.06458466141635
 30
0.0
 11
-865.26212250631693
 21
715.03881587415185
 31
0.0
 71
               5
 72
               1
 41
1.0
 42
0.0
  3
tform線あり
100
AcDbAlignedDimension
 13
-575.2132238594711
 23
780.01304708688735
 33
0.0
 14
-618.19539582174662
 24
650.06458466141635
 34
0.0
 50
90.0
100
AcDbRotatedDimension
1001
ACAD
1000
DSTYLE
1002
{
1070
             271
1070
               0
1070
             279
1070
               2
1070
             340
1005
39
1070
             147
1040
5.0
1002
}
  0
DIMENSION
  5
188
100
AcDbEntity
  8
notes
370
               5
390
0
  6
Continuous
 62
               7
100
AcDbDimension
  2
*D10
 10
-86.662122506317019
 20
-435.90915079666388
 30
0.0
 11
-86.662122506317019
 21
-528.40915079666433
 31
0.0
 71
               5
 72
               1
 41
1.0
 42
0.0
  3
tform線あり
100
AcDbAlignedDimension
 13
-360.81322385947306
 23
-620.90915079666479
 33
0.0
 14
-193.1063366213491
 24
-435.90915079666388
 34
0.0
 50
90.0
100
AcDbRotatedDimension
1001
ACAD
1000
DSTYLE
1002
{
1070
             279
1070
               2
1070
             340
1005
39
1070
             147
1040
5.0
1002
}
  0
DIMENSION
  5
189
100
AcDbEntity
  8
notes
370
               5
390
0
  6
Continuous
 62
               7
100
AcDbDimension
  2
*D11
 10
542.92327192647031
 20
-435.90915079666388
 30
0.0
 11
537.92327192647031
 21
-426.96584920333612
 31
0.0
 70
             128
 71
               5
 72
               1
 41
1.0
 42
0.0
  3
tform線あり
100
AcDbAlignedDimension
 13
558.70603053746004
 23
-570.90915079666388
 33
0.0
 14
558.70603053746004
 24
-435.90915079666388
 34
0.0
 50
90.0
100
AcDbRotatedDimension
1001
ACAD
1000
DSTYLE
1002
{
1070
             279
1070
               2
1070
             340
1005
39
1070
               3
1000
<>(深さ)
1070
             174
1070
               0
1070
             147
1040
5.0
1002
}
  0
DIMENSION
  5
18A
100
AcDbEntity
  8
notes
370
               5
390
0
  6
Continuous
 62
               7
100
AcDbDimension
  2
*D12
 10
195.92327192647122
 20
-435.90915079666388
 30
0.0
 11
195.92327192647122
 21
-525.90915079666433
 31
0.0
 71
               5
 72
               1
 41
1.0
 42
0.0
  3
tform線あり
100
AcDbAlignedDimension
 13
534.125
 23
-615.90915079666479
 33
0.0
 14
301.3807519130803
 24
-435.90915079666388
 34
0.0
 50
90.0
100
AcDbRotatedDimension
1001
ACAD
1000
DSTYLE
1002
{
1070
             279
1070
               2
1070
             340
1005
39
1070
             147
1040
5.0
1002
}
  0
DIMENSION
  5
18B
100
AcDbEntity
  8
notes
370
               5
390
0
  6
Continuous
 62
               7
100
AcDbDimension
  2
*D13
 10
790.77541908044827
 20
-335.90915079666388
 30
0.0
 11
755.77541908044827
 21
-335.90915079666388
 31
0.0
 71
               5
 72
               1
 41
1.0
 42
0.0
  3
tform線あり
100
AcDbAlignedDimension
 13
720.77541908044827
 23
-435.90915079666388
 33
0.0
 14
790.77541908044827
 24
-435.90915079666388
 34
0.0
100
AcDbRotatedDimension
1001
ACAD
1000
DSTYLE
1002
{
1070
             279
1070
               2
1070
             340
1005
39
1070
             147
1040
5.0
1002
}
  0
DIMENSION
  5
18C
100
AcDbEntity
  8
notes
370
               5
390
0
  6
Continuous
 62
               7
100
AcDbDimension
  2
*D14
 10
790.77541908044827
 20
-720.90915079666479
 30
0.0
 11
673.27541908044782
 21
-720.90915079666479
 31
0.0
 71
               5
 72
               1
 41
1.0
 42
0.0
  3
tform線あり
100
AcDbAlignedDimension
 13
555.77541908044736
 23
-620.90915079666479
 33
0.0
 14
790.77541908044827
 24
-620.90915079666274
 34
0.0
100
AcDbRotatedDimension
1001
ACAD
1000
DSTYLE
1002
{
1070
             279
1070
               2
1070
             340
1005
39
1070
             147
1040
5.0
1002
}
  0
DIMENSION
  5
18D
100
AcDbEntity
  8
notes
370
               5
390
0
  6
Continuous
 62
               7
100
AcDbDimension
  2
*D15
 10
606.68677614052945
 20
477.01304708688747
 30
0.0
 11
606.68677614052945
 21
628.51304708688735
 31
0.0
 71
               5
 72
               1
 41
1.0
 42
0.0
  3
tform線あり
100
AcDbAlignedDimension
 13
506.68677614052945
 23
780.01304708688735
 33
0.0
 14
506.68677614052945
 24
477.01304708688747
 34
0.0
 50
90.0
100
AcDbRotatedDimension
1001
ACAD
1000
DSTYLE
1002
{
1070
             279
1070
               2
1070
             340
1005
39
1070
             147
1040
5.0
1002
}
  0
DIMENSION
  5
18E
100
AcDbEntity
  8
notes
370
               5
390
0
  6
Continuous
 62
               7
100
AcDbDimension
  2
*D16
 10
371.68677614052945
 20
377.01304708688747
 30
0.0
 11
439.18677614052945
 21
377.01304708688747
 31
0.0
 71
               5
 72
               1
 41
1.0
 42
0.0
  3
tform線あり
100
AcDbAlignedDimension
 13
506.68677614052945
 23
477.01304708688747
 33
0.0
 14
371.68677614052945
 24
477.01304708688747
 34
0.0
100
AcDbRotatedDimension
1001
ACAD
1000
DSTYLE
1002
{
1070
             279
1070
               2
1070
             340
1005
39
1070
             147
1040
5.0
1002
}
  0
DIMENSION
  5
18F
100
AcDbEntity
  8
notes
370
               5
390
0
  6
Continuous
 62
               7
100
AcDbDimension
  2
*D17
 10
269.92327192647031
 20
530.01304708688747
 30
0.0
 11
269.92327192647031
 21
655.01304708688735
 31
0.0
 71
               5
 72
               1
 41
1.0
 42
0.0
  3
tform線あり
100
AcDbAlignedDimension
 13
333.18677614052945
 23
780.01304708688735
 33
0.0
 14
333.18677614052945
 24
530.01304708688747
 34
0.0
 50
90.0
100
AcDbRotatedDimension
1001
ACAD
1000
DSTYLE
1002
{
1070
             279
1070
               2
1070
             340
1005
39
1070
             147
1040
5.0
1002
}
  0
DIMENSION
  5
190
100
AcDbEntity
  8
notes
370
               5
390
0
  6
Continuous
 62
               7
100
AcDbDimension
  2
*D18
 10
339.18677614052945
 20
327.01304708688747
 30
0.0
 11
439.18677614052945
 21
327.01304708688747
 31
0.0
 71
               5
 72
               1
 41
1.0
 42
0.0
  3
tform線あり
100
AcDbAlignedDimension
 13
539.18677614052945
 23
524.01304708688747
 33
0.0
 14
339.18677614052945
 24
524.01304708688747
 34
0.0
100
AcDbRotatedDimension
1001
ACAD
1000
DSTYLE
1002
{
1070
             279
1070
               2
1070
             340
1005
39
1070
             147
1040
5.0
1002
}
  0
DIMENSION
  5
191
100
AcDbEntity
  8
notes
370
               5
390
0
  6
Continuous
 62
               7
100
AcDbDimension
  2
*D19
 10
-590.21322385946928
 20
-720.90915079666479
 30
0.0
 11
-475.21322385945791
 21
-720.90915079666479
 31
0.0
 71
               5
 72
               1
 41
1.0
 42
0.0
  3
tform線あり
100
AcDbAlignedDimension
 13
-360.21322385944677
 23
-620.90915079665615
 33
0.0
 14
-590.21322385946928
 24
-620.90915079666479
 34
0.0
100
AcDbRotatedDimension
1001
ACAD
1000
DSTYLE
1002
{
1070
             279
1070
               2
1070
             340
1005
39
1070
             147
1040
5.0
1002
}
  0
DIMENSION
  5
192
100
AcDbEntity
  8
notes
370
               5
390
0
  6
Continuous
 62
               7
100
AcDbDimension
  2
*D20
 10
790.77541908044827
 20
-770.90915079666479
 30
0.0
 11
590.77541908044827
 21
-770.90915079666479
 31
0.0
 71
               5
 72
               1
 41
1.0
 42
0.0
  3
tform線あり
100
AcDbAlignedDimension
 13
390.77541908044827
 23
-620.90915079674346
 33
0.0
 14
790.77541908044827
 24
-620.90915079666274
 34
0.0
100
AcDbRotatedDimension
1001
ACAD
1000
DSTYLE
1002
{
1070
             279
1070
               2
1070
             340
1005
39
1070
             147
1040
5.0
1002
}
  0
DIMENSION
  5
193
100
AcDbEntity
  8
notes
370
               5
390
0
  6
Continuous
 62
               7
100
AcDbDimension
  2
*D21
 10
-488.36043941369667
 20
698.35923700639773
 30
0.0
 11
-281.79093437669144
 21
828.22249146927606
 31
0.0
 70
               3
 71
               5
 72
               1
 41
1.0
 42
0.0
  3
tform線あり
100
AcDbDiametricDimension
 15
-462.16380559893719
 25
721.56993231643537
 35
0.0
 40
160.8241166620775
1001
ACAD
1000
DSTYLE
1002
{
1070
             289
1070
               0
1070
             342
1005
4B
1070
             340
1005
39
1070
              73
1070
               1
1070
              74
1070
               1
1070
               3
1000

1070
             174
1070
               0
1070
             147
1040
5.0
1002
}
  0
MTEXT
  5
194
100
AcDbEntity
  8
notes
390
0
 62
               7
100
AcDbMText
 10
-325.28083708122267
 20
-349.0941602780556
 30
0.0
 40
24.432617187500004
 41
0.0
 71
               1
 72
               1
  1
壁取付ボルト穴(2ヶ所)
  7
ＭＳ ゴシック
 73
               1
 44
0.7828267384257843
  0
MTEXT
  5
195
100
AcDbEntity
  8
notes
390
0
 62
               7
100
AcDbMText
 10
301.92743859313691
 20
1028.8184542215045
 30
0.0
 40
24.432617187500004
 41
0.0
 71
               1
 72
               1
  1
カウンター切込寸法
  7
ＭＳ ゴシック
 73
               1
 44
0.7828267384257843
  0
LINE
  5
196
100
AcDbEntity
  8
notes
370
               5
390
0
  6
Continuous
 62
               7
100
AcDbLine
 10
-435.26212250631693
 20
-505.90915079666388
 30
0.0
 11
-293.55780120485247
 21
-392.40639538386881
 31
0.0
  0
INSERT
  5
197
100
AcDbEntity
  8
notes
390
0
 62
               7
100
AcDbBlockReference
  2
グループ
 10
1576.0426578355325
 20
1053.8662576096954
 30
0.0
  0
LINE
  5
198
100
AcDbEntity
  8
notes
370
               5
390
0
  6
Continuous
 62
               7
100
AcDbLine
 10
149.18677614052945
 20
780.01304708688735
 30
0.0
 11
729.18677614052945
 21
780.01304708688735
 31
0.0
  0
MTEXT
  5
199
100
AcDbEntity
  8
notes
390
0
 62
               7
100
AcDbMText
 10
10.219020503488764
 20
169.15411870115247
 30
0.0
 40
24.432617187500004
 41
860.0
 71
               1
 72
               1
  1
※陶器製品には寸法公差があります。\P  洗面器の収め方をご確認の上、必ず現物を合わせて\P  固定金具の穴あけ、カウンターの切込を行ってください。
  7
ＭＳ ゴシック
 73
               1
 44
1.0437689845677123
  0
MTEXT
  5
19A
100
AcDbEntity
  8
notes
390
0
 62
               7
100
AcDbMText
 10
531.92327192647031
 20
274.16176798416393
 30
0.0
 40
24.432617187500004
 41
0.0
 71
               1
 72
               1
  1
φ12(固定金具用2ヶ所)
  7
ＭＳ ゴシック
 73
               1
 44
0.7828267384257843
  0
LINE
  5
19B
100
AcDbEntity
  8
notes
370
               5
390
0
  6
Continuous
 62
               7
100
AcDbLine
 10
539.18677614052945
 20
524.01304708688747
 30
0.0
 11
574.22651641302332
 21
282.03415079666388
 31
0.0
  0
MTEXT
  5
19C
100
AcDbEntity
  8
notes
390
0
 62
               7
100
AcDbMText
 10
10.219020503488764
 20
20.304797893765908
 30
0.0
 40
24.432617187500004
 41
0.0
 71
               1
 72
               1
  1
※設置する際は壁固定が必要です。
  7
ＭＳ ゴシック
 73
               1
 44
0.7828267384257843
  0
CIRCLE
  5
19D
100
AcDbEntity
  8
ARJ70-0104
370
              15
390
0
  6
Continuous
 62
               7
100
AcDbCircle
 10
-475.26212250631693
 20
538.42542790089476
 30
0.0
 40
35.0
  0
LINE
  5
19E
100
AcDbEntity
  8
ARJ70-0104
370
              15
390
0
  6
Continuous
 62
               7
100
AcDbLine
 10
-590.21322385946928
 20
-620.90915079666479
 30
0.0
 11
-360.2132238594711
 21
-620.90915079666479
 31
0.0
  0
LINE
  5
19F
100
AcDbEntity
  8
ARJ70-0104
370
              15
390
0
  6
Continuous
 62
               7
100
AcDbLine
 10
-757.32011109759128
 20
-435.90915079666388
 30
0.0
 11
-193.1063366213491
 21
-435.90915079666388
 31
0.0
  0
ARC
  5
1A0
100
AcDbEntity
  8
ARJ70-0104
370
              15
390
0
  6
Continuous
 62
               7
100
AcDbCircle
 10
-580.2132238594711
 20
667.61837238987346
 30
0.0
 40
5.0000000000000746
100
AcDbArc
 50
284.44475111864699
 51
0.0
  0
LINE
  5
1A1
100
AcDbEntity
  8
ARJ70-0104
370
              15
390
0
  6
Continuous
 62
               7
100
AcDbLine
 10
-575.2132238594711
 20
667.32068897267368
 30
0.0
 11
-575.2132238594711
 21
780.01304708688735
 31
0.0
  0
ARC
  5
1A2
100
AcDbEntity
  8
ARJ70-0104
370
              15
390
0
  6
Continuous
 62
               7
100
AcDbCircle
 10
-434.32018755178296
 20
-298.74848780844263
 30
0.0
 40
357.89681689872884
100
AcDbArc
 50
203.78552126704298
 51
244.17773346853019
  0
ARC
  5
1A3
100
AcDbEntity
  8
ARJ70-0104
370
              15
390
0
  6
Continuous
 62
               7
100
AcDbCircle
 10
-757.32011109759128
 20
-440.90915079666388
 30
0.0
 40
5.0
100
AcDbArc
 50
90.0
 51
205.90191786808413
  0
ARC
  5
1A4
100
AcDbEntity
  8
ARJ70-0104
370
              15
390
0
  6
Continuous
 62
               7
100
AcDbCircle
 10
-370.21322385946905
 20
667.58361909230575
 30
0.0
 40
5.0
100
AcDbArc
 50
180.0
 51
255.55606675174849
  0
SPLINE
  5
1A5
100
AcDbEntity
  8
ARJ70-0104
370
              15
390
0
  6
Continuous
 62
               7
100
AcDbSpline
210
0.0
220
0.0
230
1.0
 70
               9
 71
               2
 72
              65
 73
              62
 74
               0
 42
0.000001
 43
0.000001
 40
0.0
 40
0.0
 40
0.0
 40
1.0
 40
1.0
 40
2.0
 40
2.0
 40
3.0
 40
3.0
 40
4.0
 40
4.0
 40
5.0
 40
6.0
 40
7.0
 40
8.0
 40
9.0
 40
10.0
 40
11.0
 40
12.0
 40
13.0
 40
14.0
 40
15.0
 40
16.0
 40
17.0
 40
18.0
 40
19.0
 40
20.0
 40
21.0
 40
22.0
 40
23.0
 40
24.0
 40
25.0
 40
26.0
 40
27.0
 40
28.0
 40
29.0
 40
30.0
 40
31.0
 40
32.0
 40
33.0
 40
34.0
 40
35.0
 40
36.0
 40
37.0
 40
38.0
 40
39.0
 40
40.0
 40
41.0
 40
42.0
 40
43.0
 40
44.0
 40
45.0
 40
46.0
 40
47.0
 40
48.0
 40
48.0
 40
49.0
 40
49.0
 40
50.0
 40
50.0
 40
51.0
 40
51.0
 40
52.0
 40
52.0
 40
52.0
 10
-462.71946553448629
 20
637.99287001910682
 30
0.0
 10
-462.71946553448629
 20
637.99603900537397
 30
0.0
 10
-462.71946553448629
 20
637.99920799164113
 30
0.0
 10
-462.71946553448652
 20
638.08160163458831
 30
0.0
 10
-462.71946553448629
 20
638.16399527753595
 30
0.0
 10
-462.71946553448629
 20
638.1671642638031
 30
0.0
 10
-462.71946553448629
 20
638.17033325007026
 30
0.0
 10
-462.7308370285848
 20
638.20399469404776
 30
0.0
 10
-462.74220852268309
 20
638.23765613802527
 30
0.0
 10
-463.08110319781053
 20
639.08300704254327
 30
0.0
 10
-464.19399786906342
 20
639.65485947302079
 30
0.0
 10
-465.47346538581519
 20
640.23239334830544
 30
0.0
 10
-467.42410306051511
 20
640.7638055303795
 30
0.0
 10
-468.7367743034863
 20
640.99752761414277
 30
0.0
 10
-469.05225268634854
 20
641.04848972517959
 30
0.0
 10
-470.24648042791728
 20
641.22557124579191
 30
0.0
 10
-471.9816569712109
 20
641.38961265850196
 30
0.0
 10
-473.62818840034174
 20
641.52565202816743
 30
0.0
 10
-475.32394166607696
 20
641.52130498083955
 30
0.0
 10
-475.83435023147126
 20
641.51052283964589
 30
0.0
 10
-477.816034025411
 20
641.44301693877117
 30
0.0
 10
-479.12047508181945
 20
641.33112078183501
 30
0.0
 10
-480.51081435648643
 20
641.19513419465363
 30
0.0
 10
-481.73626982306791
 20
640.99153320096946
 30
0.0
 10
-482.99703521817833
 20
640.76599736794958
 30
0.0
 10
-484.8008715906974
 20
640.28144352684888
 30
0.0
 10
-485.9313947074445
 20
639.78941188425495
 30
0.0
 10
-486.21600735313018
 20
639.66005507919829
 30
0.0
 10
-487.18976853064601
 20
639.17468936023636
 30
0.0
 10
-487.52148038463906
 20
638.70095849879374
 30
0.0
 10
-487.58265455880542
 20
638.57742273650967
 30
0.0
 10
-487.76543709953216
 20
638.00187596186072
 30
0.0
 10
-487.58573105788787
 20
637.40176181939239
 30
0.0
 10
-487.36235399040766
 20
636.90162372471275
 30
0.0
 10
-486.2189503424745
 20
636.31974516584012
 30
0.0
 10
-485.93352277247391
 20
636.19180679415751
 30
0.0
 10
-484.96275516602304
 20
635.77412614805087
 30
0.0
 10
-483.1770507869544
 20
635.25016463495751
 30
0.0
 10
-481.73626982275459
 20
634.99420683711003
 30
0.0
 10
-480.5138586198957
 20
634.79043133841071
 30
0.0
 10
-479.12083102004749
 20
634.65465763404234
 30
0.0
 10
-477.81484228710929
 20
634.54190601424318
 30
0.0
 10
-475.84123816753777
 20
634.47308044689692
 30
0.0
 10
-474.24171471253362
 20
634.43756223051298
 30
0.0
 10
-472.51405787601311
 20
634.55036863919224
 30
0.0
 10
-471.98852261784145
 20
634.59405542748311
 30
0.0
 10
-470.26074706423969
 20
634.75826909458203
 30
0.0
 10
-469.05231747952257
 20
634.93722714420221
 30
0.0
 10
-468.73713269442442
 20
634.98815189679055
 30
0.0
 10
-467.43953877836407
 20
635.21959223573242
 30
0.0
 10
-465.4764882509196
 20
635.75368608597785
 30
0.0
 10
-464.19652572830046
 20
636.33497542442512
 30
0.0
 10
-463.0897534158687
 20
636.90934264798364
 30
0.0
 10
-462.74254446038617
 20
637.74868517554989
 30
0.0
 10
-462.73100499743623
 20
637.78204598184664
 30
0.0
 10
-462.71946553448629
 20
637.81540678814338
 30
0.0
 10
-462.71946553448629
 20
637.81857577441053
 30
0.0
 10
-462.71946553448629
 20
637.82174476067769
 30
0.0
 10
-462.71946553448606
 20
637.9041384036251
 30
0.0
 10
-462.71946553448629
 20
637.98653204657251
 30
0.0
 10
-462.71946553448629
 20
637.98970103283966
 30
0.0
 10
-462.71946553448629
 20
637.99287001910682
 30
0.0
  0
CIRCLE
  5
1A6
100
AcDbEntity
  8
ARJ70-0104
370
              15
390
0
  6
Continuous
 62
               7
100
AcDbCircle
 10
-475.2132238594711
 20
538.42542790089476
 30
0.0
 40
22.5
  0
CIRCLE
  5
1A7
100
AcDbEntity
  8
ARJ70-0104
370
              15
390
0
  6
Continuous
 62
               7
100
AcDbCircle
 10
-475.2132238594711
 20
538.42542790089476
 30
0.0
 40
22.5
  0
SPLINE
  5
1A8
100
AcDbEntity
  8
ARJ70-0104
370
              15
390
0
  6
Continuous
 62
               7
100
AcDbSpline
210
0.0
220
0.0
230
1.0
 70
               9
 71
               2
 72
              65
 73
              62
 74
               0
 42
0.000001
 43
0.000001
 40
0.0
 40
0.0
 40
0.0
 40
1.0
 40
1.0
 40
2.0
 40
2.0
 40
3.0
 40
3.0
 40
4.0
 40
4.0
 40
5.0
 40
6.0
 40
7.0
 40
8.0
 40
9.0
 40
10.0
 40
11.0
 40
12.0
 40
13.0
 40
14.0
 40
15.0
 40
16.0
 40
17.0
 40
18.0
 40
19.0
 40
20.0
 40
21.0
 40
22.0
 40
23.0
 40
24.0
 40
25.0
 40
26.0
 40
27.0
 40
28.0
 40
29.0
 40
30.0
 40
31.0
 40
32.0
 40
33.0
 40
34.0
 40
35.0
 40
36.0
 40
37.0
 40
38.0
 40
39.0
 40
40.0
 40
41.0
 40
42.0
 40
43.0
 40
44.0
 40
45.0
 40
46.0
 40
47.0
 40
48.0
 40
48.0
 40
49.0
 40
49.0
 40
50.0
 40
50.0
 40
51.0
 40
51.0
 40
52.0
 40
52.0
 40
52.0
 10
-462.71322385947133
 20
637.99285312030599
 30
0.0
 10
-462.71322385947133
 20
637.99602210657315
 30
0.0
 10
-462.71322385947133
 20
637.99919109284031
 30
0.0
 10
-462.71322385947155
 20
638.08158473578726
 30
0.0
 10
-462.71322385947133
 20
638.1639783787349
 30
0.0
 10
-462.71322385947133
 20
638.16714736500217
 30
0.0
 10
-462.71322385947133
 20
638.17031635126943
 30
0.0
 10
-462.72459535356961
 20
638.20397779524694
 30
0.0
 10
-462.73596684766812
 20
638.23763923922445
 30
0.0
 10
-463.07486152279694
 20
639.08299014374154
 30
0.0
 10
-464.18775619404846
 20
639.65484257421997
 30
0.0
 10
-465.46722371080091
 20
640.23237644950461
 30
0.0
 10
-467.41786138549924
 20
640.76378863157936
 30
0.0
 10
-468.73053262847179
 20
640.99751071534172
 30
0.0
 10
-469.04601101133358
 20
641.04847282637922
 30
0.0
 10
-470.24023875290277
 20
641.225554346992
 30
0.0
 10
-471.97541529619616
 20
641.38959575970091
 30
0.0
 10
-473.62194672532792
 20
641.52563512936661
 30
0.0
 10
-475.31769999106177
 20
641.5212880820385
 30
0.0
 10
-475.82810855645653
 20
641.51050594084506
 30
0.0
 10
-477.80979235039536
 20
641.44300003997012
 30
0.0
 10
-479.11423340680426
 20
641.33110388303419
 30
0.0
 10
-480.5045726814717
 20
641.19511729585236
 30
0.0
 10
-481.73002814805318
 20
640.99151630216841
 30
0.0
 10
-482.99079354316268
 20
640.76598046914899
 30
0.0
 10
-484.79462991568403
 20
640.28142662804873
 30
0.0
 10
-485.92515303242931
 20
639.78939498545344
 30
0.0
 10
-486.20976567811545
 20
639.66003818039724
 30
0.0
 10
-487.18352685563127
 20
639.17467246143462
 30
0.0
 10
-487.51523870962387
 20
638.70094159999246
 30
0.0
 10
-487.57641288379068
 20
638.5774058377084
 30
0.0
 10
-487.75919542451743
 20
638.00185906305944
 30
0.0
 10
-487.57948938287268
 20
637.40174492059157
 30
0.0
 10
-487.35611231539337
 20
636.90160682591215
 30
0.0
 10
-486.21270866746022
 20
636.31972826703861
 30
0.0
 10
-485.92728109745917
 20
636.19178989535715
 30
0.0
 10
-484.95651349100831
 20
635.77410924924936
 30
0.0
 10
-483.17080911193921
 20
635.25014773615669
 30
0.0
 10
-481.7300281477394
 20
634.99418993830898
 30
0.0
 10
-480.50761694488051
 20
634.79041443960944
 30
0.0
 10
-479.11458934503321
 20
634.65464073524129
 30
0.0
 10
-477.80860061209501
 20
634.5418891154419
 30
0.0
 10
-475.83499649252258
 20
634.47306354809564
 30
0.0
 10
-474.23547303751798
 20
634.43754533171261
 30
0.0
 10
-472.50781620099838
 20
634.55035174039119
 30
0.0
 10
-471.98228094282581
 20
634.59403852868274
 30
0.0
 10
-470.25450538922519
 20
634.75825219578098
 30
0.0
 10
-469.04607580450806
 20
634.93721024540093
 30
0.0
 10
-468.73089101940991
 20
634.98813499798973
 30
0.0
 10
-467.43329710334933
 20
635.21957533693205
 30
0.0
 10
-465.47024657590418
 20
635.75366918717748
 30
0.0
 10
-464.1902840532855
 20
636.33495852562385
 30
0.0
 10
-463.08351174085306
 20
636.90932574918236
 30
0.0
 10
-462.73630278537121
 20
637.74866827674907
 30
0.0
 10
-462.72476332242127
 20
637.78202908304581
 30
0.0
 10
-462.71322385947133
 20
637.81538988934255
 30
0.0
 10
-462.71322385947133
 20
637.81855887560971
 30
0.0
 10
-462.71322385947133
 20
637.82172786187687
 30
0.0
 10
-462.71322385947155
 20
637.90412150482405
 30
0.0
 10
-462.71322385947133
 20
637.98651514777146
 30
0.0
 10
-462.71322385947133
 20
637.98968413403873
 30
0.0
 10
-462.71322385947133
 20
637.99285312030599
 30
0.0
  0
CIRCLE
  5
1A9
100
AcDbEntity
  8
ARJ70-0104
370
              15
390
0
  6
Continuous
 62
               7
100
AcDbCircle
 10
-475.26212250631693
 20
709.96458466141644
 30
0.0
 40
17.499999999999826
  0
LINE
  5
1AA
100
AcDbEntity
  8
ARJ70-0104
370
              15
390
0
  6
Continuous
 62
               7
100
AcDbLine
 10
-375.21322385946996
 20
780.01304708688735
 30
0.0
 11
-375.21322385946996
 21
667.32092512800614
 31
0.0
  0
ARC
  5
1AB
100
AcDbEntity
  8
ARJ70-0104
370
              15
390
0
  6
Continuous
 62
               7
100
AcDbCircle
 10
-516.10626016715719
 20
-298.74848780844263
 30
0.0
 40
357.89681689872907
100
AcDbArc
 50
295.82226653146972
 51
336.21447873295693
  0
LINE
  5
1AC
100
AcDbEntity
  8
ARJ70-0104
370
              15
390
0
  6
Continuous
 62
               7
100
AcDbLine
 10
-407.7132238594711
 20
-620.90915079666479
 30
0.0
 11
-360.81322385947306
 21
-620.90915079666479
 31
0.0
  0
ARC
  5
1AD
100
AcDbEntity
  8
ARJ70-0104
370
              15
390
0
  6
Continuous
 62
               7
100
AcDbCircle
 10
-193.1063366213491
 20
-440.90915079666388
 30
0.0
 40
5.0000000000000648
100
AcDbArc
 50
334.09808213191593
 51
90.000000000000014
  0
LINE
  5
1AE
100
AcDbEntity
  8
ARJ70-0104
370
              15
390
0
  6
STYLE_13
 62
               7
100
AcDbLine
 10
-515.26212250631693
 20
-525.90915079666388
 30
0.0
 11
-515.26212250631693
 21
-485.90915079666388
 31
0.0
  0
SPLINE
  5
1AF
100
AcDbEntity
  8
ARJ70-0104
370
              15
390
0
  6
Continuous
 62
               7
100
AcDbSpline
210
0.0
220
0.0
230
1.0
 70
               9
 71
               2
 72
              17
 73
              14
 74
               0
 42
0.000001
 43
0.000001
 40
0.0
 40
0.0
 40
0.0
 40
1.0
 40
2.0
 40
3.0
 40
4.0
 40
5.0
 40
6.0
 40
7.0
 40
8.0
 40
9.0
 40
10.0
 40
11.0
 40
12.0
 40
12.0
 40
12.0
 10
-607.76212250631693
 20
627.28890330477088
 30
0.0
 10
-546.26865850056424
 20
650.06458466141635
 30
0.0
 10
-404.25558651206939
 20
650.06458466141635
 30
0.0
 10
-281.26865850056447
 20
604.51322194812553
 30
0.0
 10
-210.26212250631693
 20
525.61594737470728
 30
0.0
 10
-210.26212250631693
 20
434.51322194812553
 30
0.0
 10
-281.26865850056447
 20
355.61594737470728
 30
0.0
 10
-404.25558651206939
 20
310.06458466141646
 30
0.0
 10
-546.26865850056424
 20
310.06458466141646
 30
0.0
 10
-669.25558651206961
 20
355.61594737470728
 30
0.0
 10
-740.26212250631693
 20
434.51322194812553
 30
0.0
 10
-740.26212250631693
 20
525.61594737470728
 30
0.0
 10
-669.25558651206961
 20
604.51322194812553
 30
0.0
 10
-607.76212250631693
 20
627.28890330477088
 30
0.0
  0
SPLINE
  5
1B0
100
AcDbEntity
  8
ARJ70-0104
370
              15
390
0
  6
Continuous
 62
               7
100
AcDbSpline
210
0.0
220
0.0
230
1.0
 70
               8
 71
               2
 72
              19
 73
              16
 74
               0
 42
0.000001
 43
0.000001
 40
0.0
 40
0.0
 40
0.0
 40
1.0
 40
1.0
 40
2.0
 40
3.0
 40
4.0
 40
5.0
 40
6.0
 40
7.0
 40
8.0
 40
9.0
 40
10.0
 40
11.0
 40
11.0
 40
12.0
 40
12.0
 40
12.0
 10
-578.94145737217718
 20
662.77857828606011
 30
0.0
 10
-600.07041637213138
 20
657.28369798076733
 30
0.0
 10
-620.26212250631693
 20
649.43332137439143
 30
0.0
 10
-687.55685670129128
 20
623.26965776192924
 30
0.0
 10
-765.26212250631693
 20
532.6360683840785
 30
0.0
 10
-765.26212250631693
 20
427.98141393423032
 30
0.0
 10
-687.55685670129174
 20
337.34782455637946
 30
0.0
 10
-552.96738831134303
 20
285.02049733145532
 30
0.0
 10
-397.55685670129151
 20
285.02049733145532
 30
0.0
 10
-262.96738831134257
 20
337.34782455637946
 30
0.0
 10
-185.26212250631693
 20
427.9814139342302
 30
0.0
 10
-185.26212250631693
 20
532.6360683840785
 30
0.0
 10
-262.96738831134257
 20
623.26965776192912
 30
0.0
 10
-330.26212250631693
 20
649.43332137439143
 30
0.0
 10
-350.53091040806089
 20
657.31366676600987
 30
0.0
 10
-371.74412075349892
 20
662.82049733145527
 30
0.0
  0
LINE
  5
1B1
100
AcDbEntity
  8
ARJ70-0104
370
              15
390
0
  6
Continuous
 62
               7
100
AcDbLine
 10
-575.2132238594711
 20
780.01304708688735
 30
0.0
 11
-375.21322385946996
 21
780.01304708688735
 31
0.0
  0
LINE
  5
1B2
100
AcDbEntity
  8
ARJ70-0104
370
              15
390
0
  6
STYLE_13
 62
               7
100
AcDbLine
 10
520.96167585643957
 20
-570.90915079666388
 30
0.0
 11
592.48899332556925
 21
-570.90915079666388
 31
0.0
  0
LINE
  5
1B3
100
AcDbEntity
  8
ARJ70-0104
370
              15
390
0
  6
STYLE_13
 62
               7
100
AcDbLine
 10
677.19305359444661
 20
-435.90915079666388
 30
0.0
 11
633.49684726506985
 21
-435.90915079666388
 31
0.0
  0
LINE
  5
1B4
100
AcDbEntity
  8
ARJ70-0104
370
              15
390
0
  6
Continuous
 62
               7
100
AcDbLine
 10
711.81939818582646
 20
-435.90915079666388
 30
0.0
 11
677.19305359444661
 21
-435.90915079666388
 31
0.0
  0
ARC
  5
1B5
100
AcDbEntity
  8
ARJ70-0104
370
              15
390
0
  6
STYLE_13
 62
               7
100
AcDbCircle
 10
669.24512228823301
 20
-441.77359993155005
 30
0.0
 40
5.864449134886172
100
AcDbArc
 50
89.999999999997797
 51
179.99999999999335
  0
LINE
  5
1B6
100
AcDbEntity
  8
ARJ70-0104
370
              15
390
0
  6
STYLE_13
 62
               7
100
AcDbLine
 10
522.25909635237599
 20
-570.90915079666388
 30
0.0
 11
534.125
 21
-582.12597003735254
 31
0.0
  0
ARC
  5
1B7
100
AcDbEntity
  8
ARJ70-0104
370
              15
390
0
  6
STYLE_13
 62
               7
100
AcDbCircle
 10
317.79461300726484
 20
-441.65181399683115
 30
0.0
 40
5.7439791275402756
100
AcDbArc
 50
24.873628833898401
 51
91.227561984603852
  0
LINE
  5
1B8
100
AcDbEntity
  8
ARJ70-0104
370
              15
390
0
  6
Continuous
 62
               7
100
AcDbLine
 10
669.02313549919222
 20
-435.90915079666388
 30
0.0
 11
320.77541908044918
 21
-435.90915079666388
 31
0.0
  0
LINE
  5
1B9
100
AcDbEntity
  8
ARJ70-0104
370
              15
390
0
  6
Continuous
 62
               7
100
AcDbLine
 10
388.77541908044918
 20
-620.90915079666479
 30
0.0
 11
790.77541908044827
 21
-620.90915079666479
 31
0.0
  0
LINE
  5
1BA
100
AcDbEntity
  8
ARJ70-0104
370
              15
390
0
  6
Continuous
 62
               7
100
AcDbLine
 10
790.77541908044827
 20
-435.90915079666388
 30
0.0
 11
790.77541908044827
 21
-620.90915079666479
 31
0.0
  0
LINE
  5
1BB
100
AcDbEntity
  8
ARJ70-0104
370
              15
390
0
  6
Continuous
 62
               7
100
AcDbLine
 10
790.77541908044736
 20
-435.90915079666388
 30
0.0
 11
790.77541908044827
 21
-620.90915079666274
 31
0.0
  0
LINE
  5
1BC
100
AcDbEntity
  8
ARJ70-0104
370
              15
390
0
  6
Continuous
 62
               7
100
AcDbLine
 10
765.77541908044736
 20
-620.90915079666274
 30
0.0
 11
790.77541908044827
 21
-620.90915079666274
 31
0.0
  0
LINE
  5
1BD
100
AcDbEntity
  8
ARJ70-0104
370
              15
390
0
  6
Continuous
 62
               7
100
AcDbLine
 10
790.77541908044827
 20
-435.90915079666388
 30
0.0
 11
669.02313549919222
 21
-435.90915079666388
 31
0.0
  0
ARC
  5
1BE
100
AcDbEntity
  8
ARJ70-0104
370
              15
390
0
  6
Continuous
 62
               7
100
AcDbCircle
 10
569.03624437028725
 20
-414.63420327524886
 30
0.0
 40
273.94035684640482
100
AcDbArc
 50
185.63419727362418
 51
228.85023913705763
  0
LINE
  5
1BF
100
AcDbEntity
  8
ARJ70-0104
370
              15
390
0
  6
Continuous
 62
               7
100
AcDbLine
 10
320.77541908044918
 20
-435.90915079666388
 30
0.0
 11
301.3807519130803
 21
-435.90915079666388
 31
0.0
  0
ARC
  5
1C0
100
AcDbEntity
  8
ARJ70-0104
370
              15
390
0
  6
Continuous
 62
               7
100
AcDbCircle
 10
301.3807519130803
 20
-440.90915079666388
 30
0.0
 40
4.9999999999997726
100
AcDbArc
 50
90.0
 51
187.11913552527622
  0
LINE
  5
1C1
100
AcDbEntity
  8
ARJ70-0104
370
              15
390
0
  6
Continuous
 62
               7
100
AcDbLine
 10
320.77541908044918
 20
-435.90915079666388
 30
0.0
 11
301.3807519130803
 21
-435.90915079666388
 31
0.0
  0
LINE
  5
1C2
100
AcDbEntity
  8
ARJ70-0104
370
              15
390
0
  6
STYLE_13
 62
               7
100
AcDbLine
 10
663.38067315334683
 20
-441.77359993154937
 30
0.0
 11
629.77541908044827
 21
-535.90915079666388
 31
0.0
  0
ARC
  5
1C3
100
AcDbEntity
  8
ARJ70-0104
370
              15
390
0
  6
STYLE_13
 62
               7
100
AcDbCircle
 10
569.00933473297891
 20
-506.59363583869708
 30
0.0
 40
67.467891801764125
100
AcDbArc
 50
295.41352465926877
 51
334.24584254906358
  0
ARC
  5
1C4
100
AcDbEntity
  8
ARJ70-0104
370
              15
390
0
  6
STYLE_13
 62
               7
100
AcDbCircle
 10
538.74459237151973
 20
-329.53579210589896
 30
0.0
 40
242.02754059289006
100
AcDbArc
 50
206.95266251059687
 51
265.78640907877559
  0
INSERT
  5
1C5
100
AcDbEntity
  8
ARJ70-0104
390
0
 62
               7
100
AcDbBlockReference
  2
グループ-1
 10
1576.0426578355325
 20
1053.8662576096954
 30
0.0
  0
LINE
  5
1C6
100
AcDbEntity
  8
ARJ70-0104
370
              15
390
0
  6
STYLE_13
 62
               7
100
AcDbLine
 10
589.19715890935481
 20
-570.90915079666388
 30
0.0
 11
577.3312552617308
 21
-582.12597003735254
 31
0.0
  0
ARC
  5
1C7
100
AcDbEntity
  8
ARJ70-0104
370
              15
390
0
  6
STYLE_13
 62
               7
100
AcDbCircle
 10
622.76688882772214
 20
-645.00065704709141
 30
0.0
 40
81.341736305842815
100
AcDbArc
 50
107.75416245773538
 51
114.37455420740274
  0
LINE
  5
1C8
100
AcDbEntity
  8
ARJ70-0104
370
              15
390
0
  6
Continuous
 62
               7
100
AcDbLine
 10
738.27541908044827
 20
-435.90915079666388
 30
0.0
 11
738.27541908044827
 21
-450.90915079666388
 31
0.0
  0
LINE
  5
1C9
100
AcDbEntity
  8
ARJ70-0104
370
              15
390
0
  6
Continuous
 62
               7
100
AcDbLine
 10
703.27541908044827
 20
-435.90915079666388
 30
0.0
 11
703.27541908044827
 21
-450.90915079666388
 31
0.0
  0
ARC
  5
1CA
100
AcDbEntity
  8
ARJ70-0104
370
              15
390
0
  6
STYLE_13
 62
               7
100
AcDbCircle
 10
-207.19638319556725
 20
-441.65181399683115
 30
0.0
 40
5.7439791275401859
100
AcDbArc
 50
88.772438015396148
 51
155.12637116610162
  0
ARC
  5
1CB
100
AcDbEntity
  8
ARJ70-0104
370
              15
390
0
  6
STYLE_13
 62
               7
100
AcDbCircle
 10
-428.14636255982327
 20
-329.53579210589896
 30
0.0
 40
242.02754059288989
100
AcDbArc
 50
274.21359092122441
 51
333.04733748940322
  0
ARC
  5
1CC
100
AcDbEntity
  8
ARJ70-0104
370
              15
390
0
  6
STYLE_13
 62
               7
100
AcDbCircle
 10
-743.34237150988588
 20
-441.65181399683115
 30
0.0
 40
5.7439791275402756
100
AcDbArc
 50
24.873628833898401
 51
91.227561984603852
  0
ARC
  5
1CD
100
AcDbEntity
  8
ARJ70-0104
370
              15
390
0
  6
STYLE_13
 62
               7
100
AcDbCircle
 10
-522.39239214563008
 20
-329.53579210589896
 30
0.0
 40
242.02754059289046
100
AcDbArc
 50
206.95266251059681
 51
265.78640907877565
  0
LINE
  5
1CE
100
AcDbEntity
  8
ARJ70-0104
370
              15
390
0
  6
STYLE_13
 62
               7
100
AcDbLine
 10
-540.17530866071024
 20
-570.90915079666388
 30
0.0
 11
-410.36344604474357
 21
-570.90915079666388
 31
0.0
  0
ARC
  5
1CF
100
AcDbEntity
  8
ARJ70-0104
370
               5
390
0
  6
STYLE_13
 62
               7
100
AcDbCircle
 10
334.18677614052899
 20
667.61837238987346
 30
0.0
 40
4.9999999999999609
100
AcDbArc
 50
284.44475111864199
 51
0.0
  0
LINE
  5
1D0
100
AcDbEntity
  8
ARJ70-0104
370
               5
390
0
  6
STYLE_13
 62
               7
100
AcDbLine
 10
339.18677614052899
 20
667.32068897267368
 30
0.0
 11
339.18677614052899
 21
780.01304708688735
 31
0.0
  0
ARC
  5
1D1
100
AcDbEntity
  8
ARJ70-0104
370
               5
390
0
  6
STYLE_13
 62
               7
100
AcDbCircle
 10
544.18677614053081
 20
667.58361909230575
 30
0.0
 40
5.0
100
AcDbArc
 50
180.0
 51
255.55606675174849
  0
CIRCLE
  5
1D2
100
AcDbEntity
  8
ARJ70-0104
370
               5
390
0
  6
STYLE_13
 62
               7
100
AcDbCircle
 10
439.18677614052876
 20
538.42542790089476
 30
0.0
 40
22.5
  0
CIRCLE
  5
1D3
100
AcDbEntity
  8
ARJ70-0104
370
               5
390
0
  6
STYLE_13
 62
               7
100
AcDbCircle
 10
439.18677614052876
 20
538.42542790089476
 30
0.0
 40
22.5
  0
CIRCLE
  5
1D4
100
AcDbEntity
  8
ARJ70-0104
370
               5
390
0
  6
STYLE_13
 62
               7
100
AcDbCircle
 10
439.13787749368294
 20
709.96458466141644
 30
0.0
 40
15.000000000000078
  0
LINE
  5
1D5
100
AcDbEntity
  8
ARJ70-0104
370
               5
390
0
  6
STYLE_13
 62
               7
100
AcDbLine
 10
539.1867761405299
 20
780.01304708688735
 30
0.0
 11
539.1867761405299
 21
667.32092512800614
 31
0.0
  0
SPLINE
  5
1D6
100
AcDbEntity
  8
ARJ70-0104
370
               5
390
0
  6
STYLE_13
 62
               7
100
AcDbSpline
210
0.0
220
0.0
230
1.0
 70
               8
 71
               2
 72
              19
 73
              16
 74
               0
 42
0.000001
 43
0.000001
 40
0.0
 40
0.0
 40
0.0
 40
1.0
 40
1.0
 40
2.0
 40
3.0
 40
4.0
 40
5.0
 40
6.0
 40
7.0
 40
8.0
 40
9.0
 40
10.0
 40
11.0
 40
11.0
 40
12.0
 40
12.0
 40
12.0
 10
335.45854262782245
 20
662.77802839953779
 30
0.0
 10
314.32958362786871
 20
657.21106723949265
 30
0.0
 10
294.13787749368316
 20
649.25771080016762
 30
0.0
 10
226.84314329870881
 20
622.75083693891895
 30
0.0
 10
149.13787749368316
 20
530.92833238391427
 30
0.0
 10
149.13787749368316
 20
424.90083693891904
 30
0.0
 10
226.84314329870836
 20
333.07833238391424
 30
0.0
 10
361.43261168865706
 20
280.06458466141657
 30
0.0
 10
516.84314329870836
 20
280.06458466141646
 30
0.0
 10
651.43261168865729
 20
333.07833238391413
 30
0.0
 10
729.13787749368294
 20
424.90083693891893
 30
0.0
 10
729.13787749368294
 20
530.92833238391415
 30
0.0
 10
651.4326116886574
 20
622.75083693891884
 30
0.0
 10
584.13787749368305
 20
649.25771080016762
 30
0.0
 10
563.86908959193909
 20
657.24142914988761
 30
0.0
 10
542.65587924650094
 20
662.82049733145527
 30
0.0
  0
LINE
  5
1D7
100
AcDbEntity
  8
ARJ70-0104
370
               5
390
0
  6
STYLE_03
 62
               7
100
AcDbLine
 10
339.18677614052899
 20
780.01304708688735
 30
0.0
 11
539.1867761405299
 21
780.01304708688735
 31
0.0
  0
POLYLINE
  5
1D8
100
AcDbEntity
  8
ARJ70-0104
370
              15
390
0
  6
Continuous
 62
               7
100
AcDb2dPolyline
 66
               1
 10
0.0
 20
0.0
 30
0.0
 70
               1
 75
               5
  0
VERTEX
  5
1D9
100
AcDbEntity
  8
ARJ70-0104
370
              15
390
0
  6
Continuous
 62
               7
100
AcDbVertex
100
AcDb2dVertex
 10
371.68677614052945
 20
780.01304708688735
 30
0.0
  0
VERTEX
  5
1DA
100
AcDbEntity
  8
ARJ70-0104
370
              15
390
0
  6
Continuous
 62
               7
100
AcDbVertex
100
AcDb2dVertex
 10
506.68677614052945
 20
780.01304708688735
 30
0.0
  0
VERTEX
  5
1DB
100
AcDbEntity
  8
ARJ70-0104
370
              15
390
0
  6
Continuous
 62
               7
100
AcDbVertex
100
AcDb2dVertex
 10
506.68677614052945
 20
477.01304708688747
 30
0.0
  0
VERTEX
  5
1DC
100
AcDbEntity
  8
ARJ70-0104
370
              15
390
0
  6
Continuous
 62
               7
100
AcDbVertex
100
AcDb2dVertex
 10
371.68677614052945
 20
477.01304708688747
 30
0.0
  0
SEQEND
  5
1DD
100
AcDbEntity
  8
ARJ70-0104
370
              15
390
0
  6
Continuous
 62
               7
  0
CIRCLE
  5
1DE
100
AcDbEntity
  8
ARJ70-0104
370
              15
390
0
  6
Continuous
 62
               7
100
AcDbCircle
 10
339.18677614052945
 20
530.01304708688747
 30
0.0
 40
6.0
  0
CIRCLE
  5
1DF
100
AcDbEntity
  8
ARJ70-0104
370
              15
390
0
  6
Continuous
 62
               7
100
AcDbCircle
 10
539.18677614052945
 20
530.01304708688747
 30
0.0
 40
6.0
  0
LINE
  5
1E0
100
AcDbEntity
  8
ARJ70-0104
370
              15
390
0
  6
STYLE_13
 62
               7
100
AcDbLine
 10
-495.26212250631693
 20
-505.90915079666388
 30
0.0
 11
-535.26212250631693
 21
-505.90915079666388
 31
0.0
  0
CIRCLE
  5
1E1
100
AcDbEntity
  8
ARJ70-0104
370
              15
390
0
  6
STYLE_13
 62
               7
100
AcDbCircle
 10
-515.26212250631693
 20
-505.90915079666388
 30
0.0
 40
10.0
  0
LINE
  5
1E2
100
AcDbEntity
  8
ARJ70-0104
370
              15
390
0
  6
STYLE_13
 62
               7
100
AcDbLine
 10
-415.26212250631693
 20
-505.90915079666388
 30
0.0
 11
-455.26212250631693
 21
-505.90915079666388
 31
0.0
  0
CIRCLE
  5
1E3
100
AcDbEntity
  8
ARJ70-0104
370
              15
390
0
  6
STYLE_13
 62
               7
100
AcDbCircle
 10
-435.26212250631693
 20
-505.90915079666388
 30
0.0
 40
10.0
  0
LINE
  5
1E4
100
AcDbEntity
  8
ARJ70-0104
370
              15
390
0
  6
STYLE_13
 62
               7
100
AcDbLine
 10
-435.26212250631693
 20
-525.90915079666388
 30
0.0
 11
-435.26212250631693
 21
-485.90915079666388
 31
0.0
  0
LINE
  5
1E5
100
AcDbEntity
  8
ARJ70-0104
370
              15
390
0
  6
STYLE_13
 62
               7
100
AcDbLine
 10
-455.02217043407632
 20
-570.90915079666388
 30
0.0
 11
-454.96937735272672
 21
-615.90915079666388
 31
0.0
  0
LINE
  5
1E6
100
AcDbEntity
  8
ARJ70-0104
370
              15
390
0
  6
STYLE_13
 62
               7
100
AcDbLine
 10
-498.26937735272691
 20
-570.90915079666388
 30
0.0
 11
-498.26937735272691
 21
-615.90915079666388
 31
0.0
  0
LINE
  5
1E7
100
AcDbEntity
  8
ARJ70-0104
370
              15
390
0
  6
STYLE_13
 62
               7
100
AcDbLine
 10
534.125
 20
-615.90915079666479
 30
0.0
 11
577.42583816089655
 21
-615.90915079666479
 31
0.0
  0
LINE
  5
1E8
100
AcDbEntity
  8
ARJ70-0104
370
              15
390
0
  6
STYLE_13
 62
               7
100
AcDbLine
 10
-498.26937735272691
 20
-615.90915079666388
 30
0.0
 11
-454.96937735272672
 21
-615.90915079666388
 31
0.0
  0
ENDSEC
  0
SECTION
  2
OBJECTS
  0
DICTIONARY
  5
19
100
AcDbDictionary
280
               0
281
               1
  3
ACAD_GROUP
350
1A
  3
ACAD_MLINESTYLE
350
1B
  3
ACAD_LAYOUT
350
1E
  3
ACAD_PLOTSETTINGS
350
22
  3
ACAD_PLOTSTYLENAME
350
1F
  0
DICTIONARY
  5
1A
102
{ACAD_REACTORS
330
19
102
}
100
AcDbDictionary
280
               0
281
               1
  0
DICTIONARY
  5
1B
102
{ACAD_REACTORS
330
19
102
}
100
AcDbDictionary
280
               0
281
               1
  3
Standard
350
1C
  0
MLINESTYLE
  5
1C
102
{ACAD_REACTORS
330
1B
102
}
100
AcDbMlineStyle
  2
Standard
 70
               0
  3

 62
               0
 51
90.0
 52
90.0
 71
               2
 49
0.5
 62
             256
  6
ByLayer
 49
-0.5
 62
             256
  6
ByLayer
  0
ACDBDICTIONARYWDFLT
  5
1F
102
{ACAD_REACTORS
330
19
102
}
100
AcDbDictionary
281
               1
  3
Normal
350
1D
100
AcDbDictionaryWithDefault
340
1D
  0
ACDBPLACEHOLDER
  5
1D
102
{ACAD_REACTORS
330
1F
102
}
  0
LAYOUT
  5
20
102
{ACAD_REACTORS
330
1E
102
}
100
AcDbPlotSettings
  1

  2

  4

  6

 40
0.0
 41
0.0
 42
0.0
 43
0.0
 44
0.0
 45
0.0
 46
0.0
 47
0.0
 48
0.0
 49
0.0
140
0.0
141
0.0
142
1.0
143
1.0
 70
            1024
 72
               0
 73
               0
 74
               0
  7

 75
               0
147
1.0
148
0.0
149
0.0
100
AcDbLayout
  1
Model
 70
               0
 71
               0
 10
0.0
 20
0.0
 11
0.0
 21
0.0
 12
0.0
 22
0.0
 32
0.0
 14
0.0
 24
0.0
 34
0.0
 15
0.0
 25
0.0
 35
0.0
146
0.0
 13
0.0
 23
0.0
 33
0.0
 16
0.0
 26
0.0
 36
0.0
 17
0.0
 27
0.0
 37
0.0
 76
               0
330
A
331
0
345
0
346
0
  0
LAYOUT
  5
21
102
{ACAD_REACTORS
330
1E
102
}
100
AcDbPlotSettings
  1

  2

  4

  6

 40
0.0
 41
0.0
 42
0.0
 43
0.0
 44
0.0
 45
0.0
 46
0.0
 47
0.0
 48
0.0
 49
0.0
140
0.0
141
0.0
142
1.0
143
1.0
 70
               0
 72
               0
 73
               0
 74
               0
  7

 75
               0
147
1.0
148
0.0
149
0.0
100
AcDbLayout
  1
Layout1
 70
               0
 71
               0
 10
0.0
 20
0.0
 11
0.0
 21
0.0
 12
0.0
 22
0.0
 32
0.0
 14
0.0
 24
0.0
 34
0.0
 15
0.0
 25
0.0
 35
0.0
146
0.0
 13
0.0
 23
0.0
 33
0.0
 16
0.0
 26
0.0
 36
0.0
 17
0.0
 27
0.0
 37
0.0
 76
               0
330
B
331
0
345
0
346
0
  0
DICTIONARY
  5
1E
102
{ACAD_REACTORS
330
19
102
}
100
AcDbDictionary
280
               0
281
               1
  3
Layout1
350
21
  3
Model
350
20
  0
DICTIONARY
  5
22
102
{ACAD_REACTORS
330
19
102
}
100
AcDbDictionary
280
               0
281
               1
  0
ENDSEC
  0
EOF
