  0
SECTION
  2
HEADER
  9
$ACADVER
  1
AC1015
  9
$ACADMAINTVER
 70
               6
  9
$DWGCODEPAGE
  3
ANSI_932
  9
$INSBASE
 10
0.0
 20
0.0
 30
0.0
  9
$EXTMIN
 10
-975.00000000048203
 20
-1418.7614075562758
 30
-14.834305555555554
  9
$EXTMAX
 10
975.00000000000023
 20
1418.7614075561364
 30
14.834305555555554
  9
$LIMMIN
 10
0.0
 20
0.0
  9
$LIMMAX
 10
0.0
 20
0.0
  9
$ORTHOMODE
 70
               0
  9
$REGENMODE
 70
               1
  9
$FILLMODE
 70
               1
  9
$QTEXTMODE
 70
               0
  9
$MIRRTEXT
 70
               1
  9
$LTSCALE
 40
25.399999999999999
  9
$ATTMODE
 70
               1
  9
$TEXTSIZE
 40
0.2
  9
$TRACEWID
 40
1.0
  9
$TEXTSTYLE
  7
Standard
  9
$CLAYER
  8
template
  9
$CELTYPE
  6
Continuous
  9
$CECOLOR
 62
             256
  9
$CELTSCALE
 40
1.0
  9
$DISPSILH
 70
               0
  9
$DIMSCALE
 40
1.0
  9
$DIMASZ
 40
31.75
  9
$DIMEXO
 40
0.0
  9
$DIMDLI
 40
6.9999999999999396
  9
$DIMRND
 40
0.0
  9
$DIMDLE
 40
0.0
  9
$DIMEXE
 40
19.999999999996199
  9
$DIMTP
 40
0.0
  9
$DIMTM
 40
0.0
  9
$DIMTXT
 40
24.432617187500004
  9
$DIMCEN
 40
0.0
  9
$DIMTSZ
 40
0.0
  9
$DIMTOL
 70
               0
  9
$DIMLIM
 70
               0
  9
$DIMTIH
 70
               0
  9
$DIMTOH
 70
               0
  9
$DIMSE1
 70
               0
  9
$DIMSE2
 70
               0
  9
$DIMTAD
 70
               1
  9
$DIMZIN
 70
              11
  9
$DIMBLK
  1
VW_FILLEDARROW
  9
$DIMASO
 70
               1
  9
$DIMSHO
 70
               1
  9
$DIMPOST
  1
<>
  9
$DIMAPOST
  1
[]
  9
$DIMALT
 70
               0
  9
$DIMALTD
 70
               1
  9
$DIMALTF
 40
1.0
  9
$DIMLFAC
 40
1.0
  9
$DIMTOFL
 70
               0
  9
$DIMTVP
 40
0.0
  9
$DIMTIX
 70
               1
  9
$DIMSOXD
 70
               0
  9
$DIMSAH
 70
               0
  9
$DIMBLK1
  1

  9
$DIMBLK2
  1

  9
$DIMSTYLE
  2
JIS
  9
$DIMCLRD
 70
               0
  9
$DIMCLRE
 70
               0
  9
$DIMCLRT
 70
               0
  9
$DIMTFAC
 40
1.0
  9
$DIMGAP
 40
1.00000000000108
  9
$DIMJUST
 70
               0
  9
$DIMSD1
 70
               0
  9
$DIMSD2
 70
               0
  9
$DIMTOLJ
 70
               1
  9
$DIMTZIN
 70
              11
  9
$DIMALTZ
 70
              11
  9
$DIMALTTZ
 70
              11
  9
$DIMUPT
 70
               0
  9
$DIMDEC
 70
               1
  9
$DIMTDEC
 70
               1
  9
$DIMALTU
 70
               2
  9
$DIMALTTD
 70
               2
  9
$DIMTXSTY
  7
ＭＳ ゴシック
  9
$DIMAUNIT
 70
               0
  9
$DIMADEC
 70
               2
  9
$DIMALTRND
 40
0.0
  9
$DIMAZIN
 70
               0
  9
$DIMDSEP
 70
              46
  9
$DIMATFIT
 70
               0
  9
$DIMFRAC
 70
               2
  9
$DIMLDRBLK
  1

  9
$DIMLUNIT
 70
               2
  9
$DIMLWD
 70
              -2
  9
$DIMLWE
 70
              -2
  9
$DIMTMOVE
 70
               0
  9
$LUNITS
 70
               2
  9
$LUPREC
 70
               4
  9
$SKETCHINC
 40
0.1
  9
$FILLETRAD
 40
0.0
  9
$AUNITS
 70
               0
  9
$AUPREC
 70
               0
  9
$MENU
  1
acad
  9
$ELEVATION
 40
0.0
  9
$PELEVATION
 40
0.0
  9
$THICKNESS
 40
0.0
  9
$LIMCHECK
 70
               0
  9
$CHAMFERA
 40
0.0
  9
$CHAMFERB
 40
0.0
  9
$CHAMFERC
 40
0.0
  9
$CHAMFERD
 40
0.0
  9
$SKPOLY
 70
               0
  9
$TDCREATE
 40
2456003.695173611
  9
$TDUCREATE
 40
0.000000000
  9
$TDUPDATE
 40
2456003.695173611
  9
$TDUUPDATE
 40
0.000000000
  9
$TDINDWG
 40
0.0000000000
  9
$TDUSRTIMER
 40
0.0000000000
  9
$USRTIMER
 70
               1
  9
$ANGBASE
 50
0.0
  9
$ANGDIR
 70
               0
  9
$PDMODE
 70
               1
  9
$PDSIZE
 40
-2.0
  9
$PLINEWID
 40
0.0
  9
$SPLFRAME
 70
               0
  9
$SPLINETYPE
 70
               6
  9
$SPLINESEGS
 70
               8
  9
$HANDSEED
  5
173
  9
$SURFTAB1
 70
               6
  9
$SURFTAB2
 70
               6
  9
$SURFTYPE
 70
               6
  9
$SURFU
 70
               6
  9
$SURFV
 70
               6
  9
$UCSBASE
  2

  9
$UCSNAME
  2

  9
$UCSORG
 10
0.0
 20
0.0
 30
0.0
  9
$UCSXDIR
 10
1.0
 20
0.0
 30
0.0
  9
$UCSYDIR
 10
0.0
 20
1.0
 30
0.0
  9
$UCSORTHOREF
  2

  9
$UCSORTHOVIEW
 70
               0
  9
$UCSORGTOP
 10
0.0
 20
0.0
 30
0.0
  9
$UCSORGBOTTOM
 10
0.0
 20
0.0
 30
0.0
  9
$UCSORGLEFT
 10
0.0
 20
0.0
 30
0.0
  9
$UCSORGRIGHT
 10
0.0
 20
0.0
 30
0.0
  9
$UCSORGFRONT
 10
0.0
 20
0.0
 30
0.0
  9
$UCSORGBACK
 10
0.0
 20
0.0
 30
0.0
  9
$PUCSBASE
  2

  9
$PUCSNAME
  2

  9
$PUCSORG
 10
0.0
 20
0.0
 30
0.0
  9
$PUCSXDIR
 10
1.0
 20
0.0
 30
0.0
  9
$PUCSYDIR
 10
0.0
 20
1.0
 30
0.0
  9
$PUCSORTHOREF
  2

  9
$PUCSORTHOVIEW
 70
               0
  9
$PUCSORGTOP
 10
0.0
 20
0.0
 30
0.0
  9
$PUCSORGBOTTOM
 10
0.0
 20
0.0
 30
0.0
  9
$PUCSORGLEFT
 10
0.0
 20
0.0
 30
0.0
  9
$PUCSORGRIGHT
 10
0.0
 20
0.0
 30
0.0
  9
$PUCSORGFRONT
 10
0.0
 20
0.0
 30
0.0
  9
$PUCSORGBACK
 10
0.0
 20
0.0
 30
0.0
  9
$USERI1
 70
               0
  9
$USERI2
 70
               0
  9
$USERI3
 70
               0
  9
$USERI4
 70
               0
  9
$USERI5
 70
               0
  9
$USERR1
 40
0.0
  9
$USERR2
 40
0.0
  9
$USERR3
 40
0.0
  9
$USERR4
 40
0.0
  9
$USERR5
 40
0.0
  9
$WORLDVIEW
 70
               1
  9
$SHADEDGE
 70
               3
  9
$SHADEDIF
 70
              70
  9
$TILEMODE
 70
               1
  9
$MAXACTVP
 70
              64
  9
$PINSBASE
 10
0.0
 20
0.0
 30
0.0
  9
$PLIMCHECK
 70
               0
  9
$PEXTMIN
 10
1.0000000000000000E+20
 20
1.0000000000000000E+20
 30
1.0000000000000000E+20
  9
$PEXTMAX
 10
-1.0000000000000000E+20
 20
-1.0000000000000000E+20
 30
-1.0000000000000000E+20
  9
$PLIMMIN
 10
0.0
 20
0.0
  9
$PLIMMAX
 10
12.0
 20
9.0
  9
$UNITMODE
 70
               0
  9
$VISRETAIN
 70
               0
  9
$PLINEGEN
 70
               1
  9
$PSLTSCALE
 70
               0
  9
$TREEDEPTH
 70
            3020
  9
$CMLSTYLE
  2
Standard
  9
$CMLJUST
 70
               0
  9
$CMLSCALE
 40
1.0
  9
$PROXYGRAPHICS
 70
               0
  9
$MEASUREMENT
 70
               1
  9
$CELWEIGHT
370
               0
  9
$ENDCAPS
280
               0
  9
$JOINSTYLE
280
               0
  9
$LWDISPLAY
290
               1
  9
$INSUNITS
 70
               4
  9
$HYPERLINKBASE
  1

  9
$STYLESHEET
  1

  9
$XEDIT
290
               1
  9
$CEPSNTYPE
380
               0
  9
$PSTYLEMODE
290
               1
  9
$FINGERPRINTGUID
  2

  9
$VERSIONGUID
  2

  9
$EXTNAMES
290
               1
  9
$PSVPSCALE
 40
0.0
  0
ENDSEC
  0
SECTION
  2
CLASSES
  0
CLASS
  1
LWPOLYLINE
  2
AcDbPolyline
  3
AutoCAD 2000
 90
        0
280
               0
281
               1
  0
CLASS
  1
IMAGE
  2
AcDbRasterImage
  3
ISM
 90
      127
280
               0
281
               1
  0
CLASS
  1
OLE2FRAME
  2
AcDbOle2Frame
  3
AutoCAD 2000
 90
        0
280
               0
281
               1
  0
CLASS
  1
HATCH
  2
AcDbHatch
  3
AutoCAD 2000
 90
        0
280
               0
281
               1
  0
CLASS
  1
DICTIONARYVAR
  2
AcDbDictionaryVar
  3
AutoCAD 2000
 90
        0
280
               0
281
               0
  0
CLASS
  1
RASTERVARIABLES
  2
AcDbRasterVariables
  3
ISM
 90
        0
280
               0
281
               0
  0
CLASS
  1
IMAGEDEF
  2
AcDbRasterImageDef
  3
ISM
 90
        0
280
               0
281
               0
  0
CLASS
  1
IMAGEDEF_REACTOR
  2
AcDbRasterImageDefReactor
  3
ISM
 90
        1
280
               0
281
               0
  0
CLASS
  1
IDBUFFER
  2
AcDbIdBuffer
  3
AutoCAD 2000
 90
        0
280
               0
281
               0
  0
CLASS
  1
SPATIAL_FILTER
  2
AcDbSpatialFilter
  3
AutoCAD 2000
 90
        0
280
               0
281
               0
  0
CLASS
  1
XRECORD
  2
AcDbXrecord
  3
AutoCAD 2000
 90
        0
280
               0
281
               0
  0
CLASS
  1
SORTENTSTABLE
  2
AcDbSortentsTable
  3
AutoCAD 2000
 90
        0
280
               0
281
               0
  0
CLASS
  1
LAYER_INDEX
  2
AcDbLayerIndex
  3
AutoCAD 2000
 90
        0
280
               0
281
               0
  0
CLASS
  1
SPATIAL_INDEX
  2
AcDbSpatialIndex
  3
AutoCAD 2000
 90
        0
280
               0
281
               0
  0
CLASS
  1
OBJECT_PTR
  2
CAseDLPNTableRecord
  3
"ASE-LPNTableRecord"
 90
        1
280
               0
281
               0
  0
CLASS
  1
LAYOUT
  2
AcDbLayout
  3
AutoCAD 2000
 90
        0
280
               0
281
               0
  0
CLASS
  1
PLOTSETTINGS
  2
AcDbPlotSettings
  3
AutoCAD 2000
 90
        0
280
               0
281
               0
  0
CLASS
  1
ACDBDICTIONARYWDFLT
  2
AcDbDictionaryWithDefault
  3
AutoCAD 2000
 90
        0
280
               0
281
               0
  0
CLASS
  1
ACDBPLACEHOLDER
  2
AcDbPlaceHolder
  3
AutoCAD 2000
 90
        0
280
               0
281
               0
  0
ENDSEC
  0
SECTION
  2
TABLES
  0
TABLE
  2
VPORT
  5
7
100
AcDbSymbolTable
 70
               1
  0
VPORT
  5
15
100
AcDbSymbolTableRecord
100
AcDbViewportTableRecord
  2
*ACTIVE
 70
               0
 10
0.0
 20
0.0
 11
1.0
 21
1.0
 12
-0.0000000002409024
 22
-0.0000000000698037
 13
0.0
 23
0.0
 14
1.0
 24
1.0
 15
0.0
 25
0.0
 16
0.0
 26
0.0
 36
1.0
 17
0.0
 27
0.0
 37
0.0
 40
2837.522815112412
 41
0.688564
 42
50.0
 43
0.0
 44
0.0
 50
0.0
 51
0.0
 71
               0
 72
            2000
 73
               1
 74
               1
 75
               0
 76
               0
 77
               0
 78
               0
281
               0
 65
               0
110
0.0
120
0.0
130
0.0
111
1.0
121
0.0
131
0.0
112
0.0
122
1.0
132
0.0
345
0
346
0
 79
               0
146
0.0
  0
ENDTAB
  0
TABLE
  2
LTYPE
  5
4
100
AcDbSymbolTable
 70
              16
  0
LTYPE
  5
11
100
AcDbSymbolTableRecord
100
AcDbLinetypeTableRecord
  2
ByBlock
 70
              64
  3

 72
              65
 73
               0
 40
0.0
  0
LTYPE
  5
12
100
AcDbSymbolTableRecord
100
AcDbLinetypeTableRecord
  2
ByLayer
 70
              64
  3

 72
              65
 73
               0
 40
0.0
  0
LTYPE
  5
13
100
AcDbSymbolTableRecord
100
AcDbLinetypeTableRecord
  2
Continuous
 70
              64
  3
Solid line
 72
              65
 73
               0
 40
0.0
  0
LTYPE
  5
33
100
AcDbSymbolTableRecord
100
AcDbLinetypeTableRecord
  2
STYLE_01
 70
               0
  3

 72
              65
 73
               2
 40
0.7499999999999998
 49
0.4999999999999999
 74
               0
 49
-0.2499999999999999
 74
               0
  0
LTYPE
  5
34
100
AcDbSymbolTableRecord
100
AcDbLinetypeTableRecord
  2
STYLE_02
 70
               0
  3

 72
              65
 73
               2
 40
0.0590551181102362
 49
0.0393700787401574
 74
               0
 49
-0.0196850393700788
 74
               0
  0
LTYPE
  5
35
100
AcDbSymbolTableRecord
100
AcDbLinetypeTableRecord
  2
STYLE_03
 70
               0
  3

 72
              65
 73
               2
 40
0.7499999999999998
 49
0.5
 74
               0
 49
-0.2499999999999998
 74
               0
  0
LTYPE
  5
36
100
AcDbSymbolTableRecord
100
AcDbLinetypeTableRecord
  2
STYLE_04
 70
               0
  3

 72
              65
 73
               4
 40
0.078740157480315
 49
0.0492125984251968
 74
               0
 49
-0.0098425196850394
 74
               0
 49
0.0098425196850394
 74
               0
 49
-0.0098425196850394
 74
               0
  0
LTYPE
  5
37
100
AcDbSymbolTableRecord
100
AcDbLinetypeTableRecord
  2
STYLE_05
 70
               0
  3

 72
              65
 73
               2
 40
0.41656
 49
0.13885
 74
               0
 49
-0.27771
 74
               0
  0
LTYPE
  5
38
100
AcDbSymbolTableRecord
100
AcDbLinetypeTableRecord
  2
STYLE_06
 70
               0
  3

 72
              65
 73
               4
 40
2.0832800000000002
 49
1.25
 74
               0
 49
-0.41656
 74
               0
 49
0.1388600000000001
 74
               0
 49
-0.2778600000000001
 74
               0
  0
LTYPE
  5
39
100
AcDbSymbolTableRecord
100
AcDbLinetypeTableRecord
  2
STYLE_07
 70
               0
  3

 72
              65
 73
               6
 40
3.75
 49
1.25
 74
               0
 49
-0.41656
 74
               0
 49
1.2500000000000002
 74
               0
 49
-0.4167199999999999
 74
               0
 49
0.1388600000000001
 74
               0
 49
-0.2778599999999998
 74
               0
  0
LTYPE
  5
3A
100
AcDbSymbolTableRecord
100
AcDbLinetypeTableRecord
  2
STYLE_08
 70
               0
  3

 72
              65
 73
               6
 40
2.5
 49
1.25
 74
               0
 49
-0.41656
 74
               0
 49
0.1388600000000001
 74
               0
 49
-0.2778600000000001
 74
               0
 49
0.1388599999999998
 74
               0
 49
-0.2778600000000001
 74
               0
  0
LTYPE
  5
3B
100
AcDbSymbolTableRecord
100
AcDbLinetypeTableRecord
  2
STYLE_09
 70
               0
  3

 72
              65
 73
               4
 40
10.0
 49
7.5
 74
               0
 49
-0.5555699999999997
 74
               0
 49
1.3888600000000006
 74
               0
 49
-0.5555699999999997
 74
               0
  0
LTYPE
  5
3C
100
AcDbSymbolTableRecord
100
AcDbLinetypeTableRecord
  2
STYLE_10
 70
               0
  3

 72
              65
 73
               6
 40
11.875
 49
7.5
 74
               0
 49
-0.5555699999999997
 74
               0
 49
1.3888600000000006
 74
               0
 49
-0.5555699999999997
 74
               0
 49
1.25
 74
               0
 49
-0.625
 74
               0
  0
LTYPE
  5
3D
100
AcDbSymbolTableRecord
100
AcDbLinetypeTableRecord
  2
STYLE_11
 70
               0
  3

 72
              65
 73
               2
 40
0.1388889763779528
 49
0.0694444881889764
 74
               0
 49
-0.0694444881889764
 74
               0
  0
LTYPE
  5
3E
100
AcDbSymbolTableRecord
100
AcDbLinetypeTableRecord
  2
STYLE_12
 70
               0
  3

 72
              65
 73
               2
 40
0.3472222222222222
 49
0.2083333333333333
 74
               0
 49
-0.1388888888888889
 74
               0
  0
LTYPE
  5
3F
100
AcDbSymbolTableRecord
100
AcDbLinetypeTableRecord
  2
STYLE_13
 70
               0
  3

 72
              65
 73
               2
 40
0.7874015748031495
 49
0.3937007874015748
 74
               0
 49
-0.3937007874015748
 74
               0
  0
ENDTAB
  0
TABLE
  2
LAYER
  5
2
100
AcDbSymbolTable
 70
               5
  0
LAYER
  5
14
100
AcDbSymbolTableRecord
100
AcDbLayerTableRecord
  2
0
 70
               0
 62
               7
  6
Continuous
290
               1
370
              -3
390
1D
  0
LAYER
  5
40
100
AcDbSymbolTableRecord
100
AcDbLayerTableRecord
  2
Defpoints
 70
               0
 62
               7
  6
Continuous
290
               0
370
              -3
390
1D
  0
LAYER
  5
41
100
AcDbSymbolTableRecord
100
AcDbLayerTableRecord
  2
template
 70
               0
 62
               7
  6
Continuous
290
               1
370
              -3
390
1D
  0
LAYER
  5
42
100
AcDbSymbolTableRecord
100
AcDbLayerTableRecord
  2
notes
 70
               0
 62
               7
  6
Continuous
290
               1
370
              -3
390
1D
  0
LAYER
  5
43
100
AcDbSymbolTableRecord
100
AcDbLayerTableRecord
  2
ARJ70-0105
 70
               0
 62
               7
  6
Continuous
290
               1
370
              -3
390
1D
  0
ENDTAB
  0
TABLE
  2
STYLE
  5
3
100
AcDbSymbolTable
 70
               2
  0
STYLE
  5
17
100
AcDbSymbolTableRecord
100
AcDbTextStyleTableRecord
  2
Standard
 70
               0
 40
0.0
 41
1.0
 50
0.0
 71
               0
 42
0.0
  3
txt
  4
BIGFONT.SHX
  0
STYLE
  5
32
100
AcDbSymbolTableRecord
100
AcDbTextStyleTableRecord
  2
ＭＳ ゴシック
 70
               0
 40
0.0
 41
1.0
 50
0.0
 71
               0
 42
0.0
  3

  4
ＭＳ ゴシック
1001
ACAD
1000
ＭＳ ゴシック
1071
        0
  0
ENDTAB
  0
TABLE
  2
VIEW
  5
5
100
AcDbSymbolTable
 70
               0
  0
ENDTAB
  0
TABLE
  2
UCS
  5
6
100
AcDbSymbolTable
 70
               0
  0
ENDTAB
  0
TABLE
  2
APPID
  5
8
100
AcDbSymbolTable
 70
               1
  0
APPID
  5
16
100
AcDbSymbolTableRecord
100
AcDbRegAppTableRecord
  2
ACAD
 70
               0
  0
ENDTAB
  0
TABLE
  2
DIMSTYLE
  5
9
100
AcDbSymbolTable
 70
               3
100
AcDbDimStyleTable
 71
               0
  0
DIMSTYLE
105
18
100
AcDbSymbolTableRecord
100
AcDbDimStyleTableRecord
  2
Standard
 70
               0
  3

  4

 40
1.0
 41
0.18
 42
0.0625
 43
0.38
 44
0.18
 45
0.0
 46
0.0
 47
0.0
 48
0.0
 71
               0
 72
               0
 73
               1
 74
               1
 75
               0
 76
               0
 77
               0
 78
               0
 79
               0
140
0.18
141
0.09
142
0.0
143
25.399999999999999
144
1.0
145
0.0
146
1.0
147
0.09
148
0.0
170
               0
171
               2
172
               0
173
               0
174
               0
175
               0
176
               0
177
               0
178
               0
179
               0
271
               4
272
               4
273
               2
274
               2
275
               0
276
               0
277
               2
278
              46
279
               0
280
               0
281
               0
282
               0
283
               1
284
               0
285
               0
286
               0
288
               0
289
               3
340
17
341
0
342
0
343
0
344
0
371
              -2
372
              -2
  0
DIMSTYLE
105
4C
100
AcDbSymbolTableRecord
100
AcDbDimStyleTableRecord
  2
tform線あり
 70
               0
  3
<>
  4
[]
 40
1.0
 41
3.999755859375
 42
24.999999999999996
 43
0.9999999999999999
 44
0.0
 45
0.0
 46
0.0
 47
0.0
 48
0.0
 71
               0
 72
               0
 73
               0
 74
               0
 75
               0
 76
               0
 77
               1
 78
              11
 79
               0
140
24.432617187500004
141
0.0
142
0.0
143
1.0
144
1.0
145
0.0
146
1.0
147
0.4999999999999999
148
0.0
170
               0
171
               1
172
               0
173
               0
174
               1
175
               0
176
               0
177
               0
178
               0
179
               2
271
               1
272
               1
273
               2
274
               2
275
               0
276
               2
277
               2
278
              46
279
               0
280
               0
281
               0
282
               0
283
               1
284
              11
285
              11
286
              11
288
               0
289
               0
340
32
341
44
342
44
343
0
344
0
371
              -2
372
              -2
  0
DIMSTYLE
105
51
100
AcDbSymbolTableRecord
100
AcDbDimStyleTableRecord
  2
JIS
 70
               0
  3
<>
  4
[]
 40
1.0
 41
31.75
 42
0.0
 43
6.9999999999999396
 44
19.999999999996199
 45
0.0
 46
0.0
 47
0.0
 48
0.0
 71
               0
 72
               0
 73
               0
 74
               0
 75
               0
 76
               0
 77
               1
 78
              11
 79
               0
140
24.432617187500004
141
0.0
142
0.0
143
1.0
144
1.0
145
0.0
146
1.0
147
1.00000000000108
148
0.0
170
               0
171
               1
172
               0
173
               0
174
               1
175
               0
176
               0
177
               0
178
               0
179
               2
271
               1
272
               1
273
               2
274
               2
275
               0
276
               2
277
               2
278
              46
279
               0
280
               0
281
               0
282
               0
283
               1
284
              11
285
              11
286
              11
288
               0
289
               0
340
32
341
4D
342
4D
343
0
344
0
371
              -2
372
              -2
  0
ENDTAB
  0
TABLE
  2
BLOCK_RECORD
  5
1
100
AcDbSymbolTable
 70
              17
  0
BLOCK_RECORD
  5
A
100
AcDbSymbolTableRecord
100
AcDbBlockTableRecord
  2
*MODEL_SPACE
340
20
  0
BLOCK_RECORD
  5
B
100
AcDbSymbolTableRecord
100
AcDbBlockTableRecord
  2
*PAPER_SPACE
340
21
  0
BLOCK_RECORD
  5
44
100
AcDbSymbolTableRecord
100
AcDbBlockTableRecord
  2
_DOT
340
0
  0
BLOCK_RECORD
  5
4D
100
AcDbSymbolTableRecord
100
AcDbBlockTableRecord
  2
VW_FILLEDARROW
340
0
  0
BLOCK_RECORD
  5
23
100
AcDbSymbolTableRecord
100
AcDbBlockTableRecord
  2
グループ
340
0
102
{BLKREFS
331
11A
102
}
  0
BLOCK_RECORD
  5
24
100
AcDbSymbolTableRecord
100
AcDbBlockTableRecord
  2
*D3
340
0
  0
BLOCK_RECORD
  5
25
100
AcDbSymbolTableRecord
100
AcDbBlockTableRecord
  2
*D4
340
0
  0
BLOCK_RECORD
  5
26
100
AcDbSymbolTableRecord
100
AcDbBlockTableRecord
  2
*D5
340
0
  0
BLOCK_RECORD
  5
27
100
AcDbSymbolTableRecord
100
AcDbBlockTableRecord
  2
*D6
340
0
  0
BLOCK_RECORD
  5
28
100
AcDbSymbolTableRecord
100
AcDbBlockTableRecord
  2
*D7
340
0
  0
BLOCK_RECORD
  5
29
100
AcDbSymbolTableRecord
100
AcDbBlockTableRecord
  2
*D8
340
0
  0
BLOCK_RECORD
  5
2A
100
AcDbSymbolTableRecord
100
AcDbBlockTableRecord
  2
*D9
340
0
  0
BLOCK_RECORD
  5
2B
100
AcDbSymbolTableRecord
100
AcDbBlockTableRecord
  2
*D10
340
0
  0
BLOCK_RECORD
  5
2C
100
AcDbSymbolTableRecord
100
AcDbBlockTableRecord
  2
*D11
340
0
  0
BLOCK_RECORD
  5
2D
100
AcDbSymbolTableRecord
100
AcDbBlockTableRecord
  2
*D12
340
0
  0
BLOCK_RECORD
  5
2E
100
AcDbSymbolTableRecord
100
AcDbBlockTableRecord
  2
*D13
340
0
  0
BLOCK_RECORD
  5
2F
100
AcDbSymbolTableRecord
100
AcDbBlockTableRecord
  2
*D14
340
0
  0
BLOCK_RECORD
  5
30
100
AcDbSymbolTableRecord
100
AcDbBlockTableRecord
  2
*D15
340
0
  0
BLOCK_RECORD
  5
31
100
AcDbSymbolTableRecord
100
AcDbBlockTableRecord
  2
*D16
340
0
  0
ENDTAB
  0
ENDSEC
  0
SECTION
  2
BLOCKS
  0
BLOCK
  5
D
100
AcDbEntity
  8
0
390
0
100
AcDbBlockBegin
  2
*MODEL_SPACE
 70
               0
 10
0.0
 20
0.0
 30
0.0
  3
*MODEL_SPACE
  1

  0
ENDBLK
  5
E
100
AcDbEntity
  8
0
390
0
100
AcDbBlockEnd
  0
BLOCK
  5
F
100
AcDbEntity
 67
               1
  8
0
390
0
100
AcDbBlockBegin
  2
*PAPER_SPACE
 70
               0
 10
0.0
 20
0.0
 30
0.0
  3
*PAPER_SPACE
  1

  0
ENDBLK
  5
10
100
AcDbEntity
 67
               1
  8
0
390
0
100
AcDbBlockEnd
  0
BLOCK
  5
45
100
AcDbEntity
  8
0
390
0
100
AcDbBlockBegin
  2
_DOT
 70
               0
 10
0.0
 20
0.0
 30
0.0
  3
_DOT
  1

  0
POLYLINE
  5
46
100
AcDbEntity
  8
0
370
              -2
390
0
  6
ByBlock
 62
               0
100
AcDb2dPolyline
 66
               1
 10
0.0
 20
0.0
 30
0.0
 70
               1
 40
0.5
 41
0.5
  0
VERTEX
  5
47
100
AcDbEntity
  8
0
370
              -2
390
0
  6
ByBlock
 62
               0
100
AcDbVertex
100
AcDb2dVertex
 10
-0.25
 20
0.0
 30
0.0
 42
1.0
  0
VERTEX
  5
48
100
AcDbEntity
  8
0
370
              -2
390
0
  6
ByBlock
 62
               0
100
AcDbVertex
100
AcDb2dVertex
 10
0.25
 20
0.0
 30
0.0
 42
1.0
  0
SEQEND
  5
49
100
AcDbEntity
  8
0
390
0
  0
LINE
  5
4A
100
AcDbEntity
  8
0
370
              -2
390
0
  6
ByBlock
 62
               0
100
AcDbLine
 10
-0.5
 20
0.0
 30
0.0
 11
-1.0
 21
0.0
 31
0.0
  0
ENDBLK
  5
4B
100
AcDbEntity
  8
0
390
0
100
AcDbBlockEnd
  0
BLOCK
  5
4E
100
AcDbEntity
  8
0
370
              -2
390
0
  6
ByBlock
 62
               0
100
AcDbBlockBegin
  2
VW_FILLEDARROW
 70
               0
 10
0.0
 20
0.0
 30
0.0
  3
VW_FILLEDARROW
  1

  0
SOLID
  5
4F
100
AcDbEntity
  8
0
370
              -2
390
0
 62
               0
100
AcDbTrace
 10
0.0
 20
0.0
 30
0.0
 11
-0.9921874999999999
 21
-0.2658558393652545
 31
0.0
 12
-0.9921874999999999
 22
0.2658558393652548
 32
0.0
 13
-0.9921874999999999
 23
0.2658558393652548
 33
0.0
  0
ENDBLK
  5
50
100
AcDbEntity
  8
0
390
0
100
AcDbBlockEnd
  0
BLOCK
  5
52
100
AcDbEntity
  8
template
390
0
100
AcDbBlockBegin
  2
グループ
 70
               0
 10
0.0
 20
0.0
 30
0.0
  3
グループ
  1

  0
LWPOLYLINE
  5
53
100
AcDbEntity
  8
0
370
              15
390
0
  6
Continuous
 62
               7
100
AcDbPolyline
 90
        8
 70
             129
 10
-695.35883117097046
 20
-2315.3406631754292
 10
-695.35883117097046
 20
-2321.3380518690051
 10
-704.86002808897376
 20
-2321.3380518690051
 10
-704.86002808897376
 20
-2345.7890151325137
 10
-713.21540535075655
 20
-2345.7890151325137
 10
-713.21540535075655
 20
-2321.3380518690051
 10
-722.54836229706598
 20
-2321.3380518690051
 10
-722.54836229706598
 20
-2315.3406631754292
  0
LWPOLYLINE
  5
54
100
AcDbEntity
  8
0
370
              15
390
0
  6
Continuous
 62
               7
100
AcDbPolyline
 90
      101
 70
             128
 10
-682.63053934041352
 20
-2316.0689116683657
 10
-682.61518931162732
 20
-2316.0645509116803
 42
-0.0222221607819673
 10
-682.32518473495747
 20
-2315.9959264464355
 10
-682.30939097097382
 20
-2315.9929230233406
 42
-0.01468835656004
 10
-682.0466882657397
 20
-2315.9509198363894
 42
-0.0127458844179109
 10
-681.78204929858305
 20
-2315.9233828683168
 10
-681.71959422027385
 20
-2315.9184894457289
 42
-0.0198099018563315
 10
-681.32874511079535
 20
-2315.9034042883322
 10
-681.27693364135325
 20
-2315.9034580639973
 42
-0.014761738276693
 10
-680.78231018037616
 20
-2315.9185780892426
 10
-680.70961872550777
 20
-2315.9229506961296
 42
-0.0162624549004314
 10
-680.31946509603949
 20
-2315.9591835714018
 10
-680.19793270477737
 20
-2315.9744701303989
 42
-0.00800208746737
 10
-680.05235367368869
 20
-2315.9951529776672
 10
-680.01403420308668
 20
-2316.0012242554794
 42
-0.0053821929683913
 10
-679.94555009777889
 20
-2316.0128317792996
 10
-680.6719557969775
 20
-2318.1937602350135
 42
0.0108667757415662
 10
-680.73927286710671
 20
-2318.1805731197942
 10
-680.77674089029779
 20
-2318.1740753771992
 42
0.0170663203324107
 10
-680.91995767722324
 20
-2318.1542457799064
 10
-680.98783300989635
 20
-2318.1471986093202
 42
0.0220162375275397
 10
-681.2682124177511
 20
-2318.1305162485496
 10
-681.3460679848049
 20
-2318.1293168812831
 42
0.0282606915781849
 10
-681.68170430838165
 20
-2318.1431201582523
 10
-681.72561758214943
 20
-2318.1474201482556
 42
0.0169677213696364
 10
-681.97154207711287
 20
-2318.1799571978081
 42
0.0190576269871577
 10
-682.21445003969052
 20
-2318.230104069914
 10
-682.22070922780381
 20
-2318.2316470440237
 42
0.0213685642850397
 10
-682.47109371228305
 20
-2318.3048473291292
 10
-682.47658360719777
 20
-2318.3067103251879
 42
0.0237595297599432
 10
-682.73007849209773
 20
-2318.4063948470839
 10
-682.73518056612613
 20
-2318.4086866225616
 42
0.0261857468810643
 10
-682.98735134235199
 20
-2318.5382229599331
 10
-682.99777753144065
 20
-2318.5442884344025
 42
0.0272553062005141
 10
-683.23420730668158
 20
-2318.6996606403486
 10
-683.2689703201919
 20
-2318.7253217884413
 42
0.0325996893181834
 10
-683.41912566384258
 20
-2318.8520696614123
 10
-683.44283509296736
 20
-2318.8748876899267
 42
0.0138050960637439
 10
-683.53471824917574
 20
-2318.9683373514763
 42
0.0125280103802626
 10
-683.62156078200519
 20
-2319.0665006780719
 10
-683.64524122691762
 20
-2319.094659176264
 42
0.0205218024736435
 10
-683.77034130243248
 20
-2319.2564524904951
 10
-683.79280764291843
 20
-2319.2881122203203
 42
0.0163110129582016
 10
-683.94851802216874
 20
-2319.5234426553884
 10
-683.95124191822072
 20
-2319.5278664173757
 42
0.0131897341895114
 10
-684.09804243912595
 20
-2319.7809985097392
 10
-684.09974253449309
 20
-2319.7841167488759
 42
0.0107895576075706
 10
-684.23751923670409
 20
-2320.0503319585114
 10
-684.23825212622887
 20
-2320.0518261911575
 42
0.009137150722246
 10
-684.36673207487684
 20
-2320.3263513889133
 10
-684.39647770628767
 20
-2320.3930578960758
 42
0.0135418326347719
 10
-684.56819164536091
 20
-2320.8079956813485
 10
-684.60179645379321
 20
-2320.8958618236247
 42
0.0092834542412023
 10
-684.7730255137144
 20
-2321.3697603219312
 10
-684.79864264143384
 20
-2321.4450013917299
 42
0.0054261043586953
 10
-684.90628078972509
 20
-2321.7727653647898
 10
-684.92380677592166
 20
-2321.8281535270803
 42
0.0008225090814737
 10
-684.9924768277325
 20
-2322.0464222851688
 10
-685.97716595966597
 20
-2325.0713135784254
 10
-682.7445421195921
 20
-2325.0713135784254
 10
-683.24873454944554
 20
-2326.9757918767777
 10
-686.50479083142886
 20
-2326.9757918767777
 10
-692.33393986378269
 20
-2345.7890149427826
 10
-694.159037474093
 20
-2345.7890149427826
 10
-688.32435943859207
 20
-2326.9757918767777
 10
-690.72947580763241
 20
-2326.9757918767777
 10
-690.22528337777896
 20
-2325.0713135784254
 10
-687.79673456682895
 20
-2325.0713135784254
 10
-686.9365796486403
 20
-2322.4349005777262
 42
-0.000586356064683
 10
-686.89984497044713
 20
-2322.318074157467
 10
-686.82375713677641
 20
-2322.077081858049
 42
-0.0087522378924218
 10
-686.62428899332031
 20
-2321.4818057709049
 10
-686.53202471790541
 20
-2321.2216656023879
 42
-0.0077400953824761
 10
-686.27409105877496
 20
-2320.5286609248415
 10
-686.25832608719531
 20
-2320.4882300414538
 42
-0.0082369946331124
 10
-686.01124161658413
 20
-2319.8841509752601
 42
-0.0085725238365072
 10
-685.74399552058128
 20
-2319.2887249359728
 10
-685.64236591957354
 20
-2319.072303833987
 42
-0.0168109410597239
 10
-685.35542149084381
 20
-2318.5110963078832
 10
-685.22957810041032
 20
-2318.2841322749318
 42
-0.0007817726858914
 10
-685.17529375032814
 20
-2318.1865880298546
 10
-685.17516544430828
 20
-2318.1863583211134
 42
-0.0036626142157597
 10
-685.12027758028967
 20
-2318.0897604411498
 42
-0.0080221150675024
 10
-685.06315332488327
 20
-2317.9944812063973
 10
-685.03245337352178
 20
-2317.9450902572744
 42
-0.0202139325572382
 10
-684.90479763371718
 20
-2317.7571086565958
 10
-684.85073016852743
 20
-2317.6840297923522
 42
-0.024932379179843
 10
-684.59156737480828
 20
-2317.3679845501979
 10
-684.56742756068127
 20
-2317.3413702772855
 42
-0.0242132121534937
 10
-684.22774681913768
 20
-2317.00148679108
 10
-684.17983524638998
 20
-2316.9579776548967
 42
-0.025101752785665
 10
-683.89585354574797
 20
-2316.7249849091304
 10
-683.89440806893253
 20
-2316.7239156515502
 42
-0.0130868069030076
 10
-683.5961474189769
 20
-2316.5151351830091
 10
-683.59458559983614
 20
-2316.5141017427354
 42
-0.0290329526392142
 10
-683.28347445844088
 20
-2316.3332762411051
 10
-683.25362889645066
 20
-2316.3181738582634
 42
-0.016025019004058
 10
-682.98772448269006
 20
-2316.194157748052
 42
-0.0267600374770722
 10
-682.7124484052174
 20
-2316.0934094275021
 10
-682.68571248570049
 20
-2316.0852168686779
 42
-0.0049981587688714
 10
-682.63053934041352
 20
-2316.0689116683657
 42
-0.0049981587688714
  0
LWPOLYLINE
  5
55
100
AcDbEntity
  8
0
370
              15
390
0
  6
Continuous
 62
               7
100
AcDbPolyline
 90
      118
 70
             128
 10
-662.81617177596661
 20
-2325.1452969062525
 10
-660.94104985146714
 20
-2325.1452969062525
 10
-661.77908875706703
 20
-2327.8268634326528
 42
-0.0010587229249829
 10
-661.74763294155628
 20
-2327.7899588993691
 10
-661.6894388508631
 20
-2327.7219766431217
 42
-0.0071874740423774
 10
-661.53906363276496
 20
-2327.5513359510924
 10
-661.39734085950283
 20
-2327.3950998097794
 42
-0.0148118053510947
 10
-660.9472115667902
 20
-2326.9274859637662
 10
-660.85998923189322
 20
-2326.8420886429176
 42
-0.0086273358693426
 10
-660.52444043087985
 20
-2326.5247130088965
 10
-660.48060671464953
 20
-2326.4846633645593
 42
-0.0103138323112084
 10
-660.2225830124205
 20
-2326.2585002272253
 10
-660.17680860610017
 20
-2326.2200181799708
 42
-0.0060206748575604
 10
-660.0039605419812
 20
-2326.0782235292108
 10
-660.00192941110038
 20
-2326.0765978235836
 42
-0.0067069027302523
 10
-659.82963659643269
 20
-2325.9424471897846
 10
-659.82708783051169
 20
-2325.9405170199129
 42
-0.0076184352047958
 10
-659.6561825646354
 20
-2325.8151421446655
 42
-0.008965286168704
 10
-659.48122160190769
 20
-2325.695508884337
 10
-659.44486988175345
 20
-2325.6715976708479
 42
-0.0156916245935221
 10
-659.24891038459577
 20
-2325.5513351843751
 42
-0.0023299011055546
 10
-659.04864834060402
 20
-2325.4381572448274
 10
-659.03326420823612
 20
-2325.4295572497695
 42
-0.01076693414868
 10
-658.79902738313274
 20
-2325.3051571164192
 10
-658.77676258205997
 20
-2325.2939403664705
 42
-0.0078058045903394
 10
-658.49317246411158
 20
-2325.156578910834
 10
-658.48326537639809
 20
-2325.1519697829635
 42
-0.0181829330470088
 10
-658.17295597178463
 20
-2325.0211060418683
 10
-658.11890052921149
 20
-2325.0005909219226
 42
-0.0208411536032526
 10
-657.76981556176543
 20
-2324.8845004594314
 10
-657.75545946163697
 20
-2324.8803820144776
 42
-0.0222799817134072
 10
-657.42673966772077
 20
-2324.8017404483371
 10
-657.417850704481
 20
-2324.8000284377517
 42
-0.0215509523878404
 10
-657.10137973620385
 20
-2324.7531127492175
 10
-657.05889777516154
 20
-2324.7486752224272
 42
-0.0182545924876966
 10
-656.82478899584976
 20
-2324.7328313970361
 10
-656.78538797950637
 20
-2324.7316068519572
 42
-0.0072962856525611
 10
-656.62946509981271
 20
-2324.7290375234347
 10
-656.60036542925582
 20
-2324.728982688031
 42
-0.0059227516340364
 10
-656.50261593009577
 20
-2324.7299563998213
 10
-656.47337371255514
 20
-2324.7305941664263
 42
-0.0011833111899274
 10
-656.43412242889144
 20
-2324.7315431707348
 10
-657.22950902449861
 20
-2327.2702771158338
 42
0.014393205153954
 10
-657.25591040684765
 20
-2327.2600781457895
 10
-657.26318237926648
 20
-2327.2575069269315
 42
0.0234388603607208
 10
-657.30501324520651
 20
-2327.244887691214
 10
-657.3136949081113
 20
-2327.242706729211
 42
0.0199162742977265
 10
-657.37398374218617
 20
-2327.2300899938764
 10
-657.39479767999751
 20
-2327.2265927944472
 42
0.0293643550677984
 10
-657.49787253875513
 20
-2327.2154427487944
 10
-657.52255771947694
 20
-2327.2142311317757
 42
0.0214606686894464
 10
-657.67569863543667
 20
-2327.2132925713586
 10
-657.6850705462474
 20
-2327.2136374829024
 42
0.0167564054187807
 10
-657.85659073735167
 20
-2327.2257145252697
 10
-657.86505053011479
 20
-2327.2265958656972
 42
0.013767755324071
 10
-658.05240384338617
 20
-2327.251345174242
 10
-658.05975558288742
 20
-2327.2525230942092
 42
0.011849726149205
 10
-658.260253346995
 20
-2327.2895404443993
 10
-658.26640335423599
 20
-2327.290827307118
 42
0.0106421143893214
 10
-658.47728424153422
 20
-2327.3396596826965
 10
-658.48219304991005
 20
-2327.3409070253783
 42
0.0099746379718333
 10
-658.70065151908375
 20
-2327.4010815536963
 10
-658.76219955924284
 20
-2327.4193634323237
 42
0.0191613675859881
 10
-659.09818402175699
 20
-2327.5333408126098
 10
-659.18624379450625
 20
-2327.5670277229351
 42
0.0205274080143048
 10
-659.57155056640454
 20
-2327.7328561307609
 10
-659.62919984838743
 20
-2327.7605240953335
 42
0.0181256912194983
 10
-659.88747678905349
 20
-2327.8962079143112
 10
-659.94043217236901
 20
-2327.9265255275268
 42
0.0140709242413928
 10
-660.08538710699577
 20
-2328.0150202009604
 10
-660.11163597561517
 20
-2328.0320770196763
 42
0.008666788441102
 10
-660.20056213715679
 20
-2328.0920796875589
 42
0.0036408192018558
 10
-660.28799537519524
 20
-2328.1542605453546
 10
-660.32322224965878
 20
-2328.1797014912636
 42
0.0052260781266054
 10
-660.47945094704551
 20
-2328.2950338778946
 10
-660.49565780330954
 20
-2328.3072619885161
 42
0.0050024435905738
 10
-660.68166114636892
 20
-2328.4505445567788
 10
-660.69697930288351
 20
-2328.4625905792241
 42
0.0136138710275572
 10
-660.90742057120667
 20
-2328.6375570841356
 10
-660.94108844700236
 20
-2328.6671360568516
 42
0.0172815186919831
 10
-661.205491988669
 20
-2328.9161327294792
 10
-661.20805433450755
 20
-2328.9187185466221
 42
0.018940385799756
 10
-661.45863613308711
 20
-2329.191523811427
 10
-661.49126762662229
 20
-2329.2298677429235
 42
0.0185044199503867
 10
-661.68322406560264
 20
-2329.4731163240467
 42
0.0088565243895315
 10
-661.86168417223007
 20
-2329.7266327441957
 10
-661.87086215187958
 20
-2329.7401741239569
 42
0.0157195347231497
 10
-662.05408275821446
 20
-2330.0296963332739
 10
-662.10016570014477
 20
-2330.1078485302937
 42
0.0095451879789036
 10
-662.26525125028218
 20
-2330.4004431726498
 10
-662.27639916921441
 20
-2330.4211138447868
 42
0.010035170625173
 10
-662.40844291837107
 20
-2330.6781694052725
 42
0.0086935915430075
 10
-662.53077407016713
 20
-2330.9400025506811
 10
-662.53409481157962
 20
-2330.9474448736487
 42
0.0072580174867482
 10
-662.65444126352475
 20
-2331.2280368652323
 10
-662.65770289683087
 20
-2331.2359568912498
 42
0.0060005122613789
 10
-662.77690356517405
 20
-2331.5355665618558
 10
-662.7801145435152
 20
-2331.5439280897594
 42
0.0049017786979521
 10
-662.89901470237373
 20
-2331.8628570703672
 10
-662.90218050876308
 20
-2331.8716100075944
 42
0.0039415167601508
 10
-663.02161678682091
 20
-2332.2101520700112
 10
-663.02474788947188
 20
-2332.2192552708839
 42
0.0031035838768586
 10
-663.14555267516141
 20
-2332.5776951326461
 10
-663.14866271969538
 20
-2332.5871157540319
 42
0.0025070747157994
 10
-663.27156407101006
 20
-2332.9657629709736
 10
-663.3088579674361
 20
-2333.0826546362287
 42
0.0029081910279681
 10
-663.50087626524748
 20
-2333.6968182945216
 10
-663.54167943376399
 20
-2333.8300415367962
 42
0.0009266453733314
 10
-663.81009680807415
 20
-2334.7122659967049
 10
-663.8309842807148
 20
-2334.781377875941
 42
-0.0005809993664755
 10
-664.10832096131048
 20
-2335.6951859825949
 10
-664.17460275957285
 20
-2335.9126709147199
 42
-0.0012018708168956
 10
-664.32158706901259
 20
-2336.3908335792753
 10
-664.37390692061922
 20
-2336.559592720273
 42
-0.0002691059594274
 10
-664.41747640174674
 20
-2336.6998603404832
 10
-667.25043230003598
 20
-2345.7890149427826
 10
-669.06842119201451
 20
-2345.7890149427826
 10
-662.81617177596661
 20
-2325.1452969062525
  0
SPLINE
  5
56
100
AcDbEntity
  8
0
370
              15
390
0
  6
Continuous
 62
               7
100
AcDbSpline
210
0.0
220
0.0
230
1.0
 70
              13
 71
               2
 72
             782
 73
             779
 74
               0
 42
0.000001
 43
0.000001
 40
0.0
 40
0.0
 40
0.0
 40
1.0
 40
1.0
 40
2.0
 40
2.0
 40
3.0
 40
3.0
 40
4.0
 40
4.0
 40
5.0
 40
5.0
 40
6.0
 40
6.0
 40
7.0
 40
7.0
 40
8.0
 40
8.0
 40
9.0
 40
9.0
 40
10.0
 40
10.0
 40
11.0
 40
11.0
 40
12.0
 40
12.0
 40
13.0
 40
13.0
 40
14.0
 40
14.0
 40
15.0
 40
15.0
 40
16.0
 40
16.0
 40
17.0
 40
17.0
 40
18.0
 40
18.0
 40
19.0
 40
19.0
 40
20.0
 40
20.0
 40
21.0
 40
21.0
 40
22.0
 40
22.0
 40
23.0
 40
23.0
 40
24.0
 40
24.0
 40
25.0
 40
25.0
 40
26.0
 40
26.0
 40
27.0
 40
27.0
 40
28.0
 40
28.0
 40
29.0
 40
29.0
 40
30.0
 40
30.0
 40
31.0
 40
31.0
 40
32.0
 40
32.0
 40
33.0
 40
33.0
 40
34.0
 40
34.0
 40
35.0
 40
35.0
 40
36.0
 40
36.0
 40
37.0
 40
37.0
 40
38.0
 40
38.0
 40
39.0
 40
39.0
 40
40.0
 40
40.0
 40
41.0
 40
41.0
 40
42.0
 40
42.0
 40
43.0
 40
43.0
 40
44.0
 40
44.0
 40
45.0
 40
45.0
 40
46.0
 40
46.0
 40
47.0
 40
47.0
 40
48.0
 40
48.0
 40
49.0
 40
49.0
 40
50.0
 40
50.0
 40
51.0
 40
51.0
 40
52.0
 40
52.0
 40
53.0
 40
53.0
 40
54.0
 40
54.0
 40
55.0
 40
55.0
 40
56.0
 40
56.0
 40
57.0
 40
57.0
 40
58.0
 40
58.0
 40
59.0
 40
59.0
 40
60.0
 40
60.0
 40
61.0
 40
61.0
 40
62.0
 40
62.0
 40
63.0
 40
63.0
 40
64.0
 40
64.0
 40
65.0
 40
65.0
 40
66.0
 40
66.0
 40
67.0
 40
67.0
 40
68.0
 40
68.0
 40
69.0
 40
69.0
 40
70.0
 40
70.0
 40
71.0
 40
71.0
 40
72.0
 40
72.0
 40
73.0
 40
73.0
 40
74.0
 40
74.0
 40
75.0
 40
75.0
 40
76.0
 40
76.0
 40
77.0
 40
77.0
 40
78.0
 40
78.0
 40
79.0
 40
79.0
 40
80.0
 40
80.0
 40
81.0
 40
81.0
 40
82.0
 40
82.0
 40
83.0
 40
83.0
 40
84.0
 40
84.0
 40
85.0
 40
85.0
 40
86.0
 40
86.0
 40
87.0
 40
87.0
 40
88.0
 40
88.0
 40
89.0
 40
89.0
 40
90.0
 40
90.0
 40
91.0
 40
91.0
 40
92.0
 40
92.0
 40
93.0
 40
93.0
 40
94.0
 40
94.0
 40
95.0
 40
95.0
 40
96.0
 40
96.0
 40
97.0
 40
97.0
 40
98.0
 40
98.0
 40
99.0
 40
99.0
 40
100.0
 40
100.0
 40
101.0
 40
101.0
 40
102.0
 40
102.0
 40
103.0
 40
103.0
 40
104.0
 40
104.0
 40
105.0
 40
105.0
 40
106.0
 40
106.0
 40
107.0
 40
107.0
 40
108.0
 40
108.0
 40
109.0
 40
109.0
 40
110.0
 40
110.0
 40
111.0
 40
111.0
 40
112.0
 40
112.0
 40
113.0
 40
113.0
 40
114.0
 40
114.0
 40
115.0
 40
115.0
 40
116.0
 40
116.0
 40
117.0
 40
117.0
 40
118.0
 40
118.0
 40
119.0
 40
119.0
 40
120.0
 40
120.0
 40
121.0
 40
121.0
 40
122.0
 40
122.0
 40
123.0
 40
123.0
 40
124.0
 40
124.0
 40
125.0
 40
125.0
 40
126.0
 40
126.0
 40
127.0
 40
127.0
 40
128.0
 40
128.0
 40
129.0
 40
129.0
 40
130.0
 40
130.0
 40
131.0
 40
131.0
 40
132.0
 40
132.0
 40
133.0
 40
133.0
 40
134.0
 40
134.0
 40
135.0
 40
135.0
 40
136.0
 40
136.0
 40
137.0
 40
137.0
 40
138.0
 40
138.0
 40
139.0
 40
139.0
 40
140.0
 40
140.0
 40
141.0
 40
141.0
 40
142.0
 40
142.0
 40
143.0
 40
143.0
 40
144.0
 40
144.0
 40
145.0
 40
145.0
 40
146.0
 40
146.0
 40
147.0
 40
147.0
 40
148.0
 40
148.0
 40
149.0
 40
149.0
 40
150.0
 40
150.0
 40
151.0
 40
151.0
 40
152.0
 40
152.0
 40
153.0
 40
153.0
 40
154.0
 40
154.0
 40
155.0
 40
155.0
 40
156.0
 40
156.0
 40
157.0
 40
157.0
 40
158.0
 40
158.0
 40
159.0
 40
159.0
 40
160.0
 40
160.0
 40
161.0
 40
161.0
 40
162.0
 40
162.0
 40
163.0
 40
163.0
 40
164.0
 40
164.0
 40
165.0
 40
165.0
 40
166.0
 40
166.0
 40
167.0
 40
167.0
 40
168.0
 40
168.0
 40
169.0
 40
169.0
 40
170.0
 40
170.0
 40
171.0
 40
171.0
 40
172.0
 40
172.0
 40
173.0
 40
173.0
 40
174.0
 40
174.0
 40
175.0
 40
175.0
 40
176.0
 40
176.0
 40
177.0
 40
177.0
 40
178.0
 40
178.0
 40
179.0
 40
179.0
 40
180.0
 40
180.0
 40
181.0
 40
181.0
 40
182.0
 40
182.0
 40
183.0
 40
183.0
 40
184.0
 40
184.0
 40
185.0
 40
185.0
 40
186.0
 40
186.0
 40
187.0
 40
187.0
 40
188.0
 40
188.0
 40
189.0
 40
189.0
 40
190.0
 40
190.0
 40
191.0
 40
191.0
 40
192.0
 40
192.0
 40
193.0
 40
193.0
 40
194.0
 40
194.0
 40
195.0
 40
195.0
 40
196.0
 40
196.0
 40
197.0
 40
197.0
 40
198.0
 40
198.0
 40
199.0
 40
199.0
 40
200.0
 40
200.0
 40
201.0
 40
201.0
 40
202.0
 40
202.0
 40
203.0
 40
203.0
 40
204.0
 40
204.0
 40
205.0
 40
205.0
 40
206.0
 40
206.0
 40
207.0
 40
207.0
 40
208.0
 40
208.0
 40
209.0
 40
209.0
 40
210.0
 40
210.0
 40
211.0
 40
211.0
 40
212.0
 40
212.0
 40
213.0
 40
213.0
 40
214.0
 40
214.0
 40
215.0
 40
215.0
 40
216.0
 40
216.0
 40
217.0
 40
217.0
 40
218.0
 40
218.0
 40
219.0
 40
219.0
 40
220.0
 40
220.0
 40
221.0
 40
221.0
 40
222.0
 40
222.0
 40
223.0
 40
223.0
 40
224.0
 40
224.0
 40
225.0
 40
225.0
 40
226.0
 40
226.0
 40
227.0
 40
227.0
 40
228.0
 40
228.0
 40
229.0
 40
229.0
 40
230.0
 40
230.0
 40
231.0
 40
231.0
 40
232.0
 40
232.0
 40
233.0
 40
233.0
 40
234.0
 40
234.0
 40
235.0
 40
235.0
 40
236.0
 40
236.0
 40
237.0
 40
237.0
 40
238.0
 40
238.0
 40
239.0
 40
239.0
 40
240.0
 40
240.0
 40
241.0
 40
241.0
 40
242.0
 40
242.0
 40
243.0
 40
243.0
 40
244.0
 40
244.0
 40
245.0
 40
245.0
 40
246.0
 40
246.0
 40
247.0
 40
247.0
 40
248.0
 40
248.0
 40
249.0
 40
249.0
 40
250.0
 40
250.0
 40
251.0
 40
251.0
 40
252.0
 40
252.0
 40
253.0
 40
253.0
 40
254.0
 40
254.0
 40
255.0
 40
255.0
 40
256.0
 40
256.0
 40
257.0
 40
257.0
 40
258.0
 40
258.0
 40
259.0
 40
259.0
 40
260.0
 40
260.0
 40
261.0
 40
261.0
 40
262.0
 40
262.0
 40
263.0
 40
263.0
 40
264.0
 40
264.0
 40
265.0
 40
265.0
 40
266.0
 40
266.0
 40
267.0
 40
267.0
 40
268.0
 40
268.0
 40
269.0
 40
269.0
 40
270.0
 40
270.0
 40
271.0
 40
271.0
 40
272.0
 40
272.0
 40
273.0
 40
273.0
 40
274.0
 40
274.0
 40
275.0
 40
275.0
 40
276.0
 40
276.0
 40
277.0
 40
277.0
 40
278.0
 40
278.0
 40
279.0
 40
279.0
 40
280.0
 40
280.0
 40
281.0
 40
281.0
 40
282.0
 40
282.0
 40
283.0
 40
283.0
 40
284.0
 40
284.0
 40
285.0
 40
285.0
 40
286.0
 40
286.0
 40
287.0
 40
287.0
 40
288.0
 40
288.0
 40
289.0
 40
289.0
 40
290.0
 40
290.0
 40
291.0
 40
291.0
 40
292.0
 40
292.0
 40
293.0
 40
293.0
 40
294.0
 40
294.0
 40
295.0
 40
295.0
 40
296.0
 40
296.0
 40
297.0
 40
297.0
 40
298.0
 40
298.0
 40
299.0
 40
299.0
 40
300.0
 40
300.0
 40
301.0
 40
301.0
 40
302.0
 40
302.0
 40
303.0
 40
303.0
 40
304.0
 40
304.0
 40
305.0
 40
305.0
 40
306.0
 40
306.0
 40
307.0
 40
307.0
 40
308.0
 40
308.0
 40
309.0
 40
309.0
 40
310.0
 40
310.0
 40
311.0
 40
311.0
 40
312.0
 40
312.0
 40
313.0
 40
313.0
 40
314.0
 40
314.0
 40
315.0
 40
315.0
 40
316.0
 40
316.0
 40
317.0
 40
317.0
 40
318.0
 40
318.0
 40
319.0
 40
319.0
 40
320.0
 40
320.0
 40
321.0
 40
321.0
 40
322.0
 40
322.0
 40
323.0
 40
323.0
 40
324.0
 40
324.0
 40
325.0
 40
325.0
 40
326.0
 40
326.0
 40
327.0
 40
327.0
 40
328.0
 40
328.0
 40
329.0
 40
329.0
 40
330.0
 40
330.0
 40
331.0
 40
331.0
 40
332.0
 40
332.0
 40
333.0
 40
333.0
 40
334.0
 40
334.0
 40
335.0
 40
335.0
 40
336.0
 40
336.0
 40
337.0
 40
337.0
 40
338.0
 40
338.0
 40
339.0
 40
339.0
 40
340.0
 40
340.0
 40
341.0
 40
341.0
 40
342.0
 40
342.0
 40
343.0
 40
343.0
 40
344.0
 40
344.0
 40
345.0
 40
345.0
 40
346.0
 40
346.0
 40
347.0
 40
347.0
 40
348.0
 40
348.0
 40
349.0
 40
349.0
 40
350.0
 40
350.0
 40
351.0
 40
351.0
 40
352.0
 40
352.0
 40
353.0
 40
353.0
 40
354.0
 40
354.0
 40
355.0
 40
355.0
 40
356.0
 40
356.0
 40
357.0
 40
357.0
 40
358.0
 40
358.0
 40
359.0
 40
359.0
 40
360.0
 40
360.0
 40
361.0
 40
361.0
 40
362.0
 40
362.0
 40
363.0
 40
363.0
 40
364.0
 40
364.0
 40
365.0
 40
365.0
 40
366.0
 40
366.0
 40
367.0
 40
367.0
 40
368.0
 40
368.0
 40
369.0
 40
369.0
 40
370.0
 40
370.0
 40
371.0
 40
371.0
 40
372.0
 40
372.0
 40
373.0
 40
373.0
 40
374.0
 40
374.0
 40
375.0
 40
375.0
 40
376.0
 40
376.0
 40
377.0
 40
377.0
 40
378.0
 40
378.0
 40
379.0
 40
379.0
 40
380.0
 40
380.0
 40
381.0
 40
381.0
 40
382.0
 40
382.0
 40
383.0
 40
383.0
 40
384.0
 40
384.0
 40
385.0
 40
385.0
 40
386.0
 40
386.0
 40
387.0
 40
387.0
 40
388.0
 40
388.0
 40
389.0
 40
389.0
 40
389.0
 10
-652.48746732523398
 20
-2325.1343705428903
 30
0.0
 41
1.0
 10
-651.6690432165135
 20
-2325.1343705428903
 30
0.0
 41
1.0
 10
-650.85061910779302
 20
-2325.1343705428903
 30
0.0
 41
1.0
 10
-651.26437284330973
 20
-2326.47699680714
 30
0.0
 41
1.0
 10
-651.67812657882655
 20
-2327.8196230713897
 30
0.0
 41
1.0
 10
-651.65978708364878
 20
-2327.7909222984626
 30
0.0
 41
0.9999957264343997
 10
-651.64128008682462
 20
-2327.7623292483222
 30
0.0
 41
1.0
 10
-651.61085076268887
 20
-2327.7153163699491
 30
0.0
 41
1.0
 10
-651.58042143855323
 20
-2327.6683034915759
 30
0.0
 41
1.0
 10
-651.50105579344881
 20
-2327.5456846846751
 30
0.0
 41
0.9995394069081088
 10
-651.41439740189628
 20
-2327.4281066229323
 30
0.0
 41
1.0
 10
-651.37864053963631
 20
-2327.3795917303387
 30
0.0
 41
1.0
 10
-651.34288367737645
 20
-2327.3310768377446
 30
0.0
 41
1.0
 10
-651.20915700955663
 20
-2327.1496365626158
 30
0.0
 41
0.9994460617142913
 10
-651.06365652826958
 20
-2326.9774941649675
 30
0.0
 41
1.0
 10
-651.05926834729462
 20
-2326.9723024845853
 30
0.0
 41
1.0
 10
-651.05488016631978
 20
-2326.9671108042025
 30
0.0
 41
1.0
 10
-650.91815604698081
 20
-2326.8053517673166
 30
0.0
 41
0.9994359394934113
 10
-650.77088181663021
 20
-2326.6531355661532
 30
0.0
 41
1.0
 10
-650.76849846267896
 20
-2326.6506722357822
 30
0.0
 41
1.0
 10
-650.7661151087276
 20
-2326.6482089054111
 30
0.0
 41
1.0
 10
-650.62360758628279
 20
-2326.5009193649921
 30
0.0
 41
0.9995293688567299
 10
-650.47233590529663
 20
-2326.3626461528247
 30
0.0
 41
1.0
 10
-650.45304214603425
 20
-2326.3450102671745
 30
0.0
 41
1.0
 10
-650.43374838677198
 20
-2326.3273743815244
 30
0.0
 41
1.0
 10
-650.32106422431593
 20
-2326.2243729406619
 30
0.0
 41
0.9997087614802603
 10
-650.20354133535943
 20
-2326.1269286598626
 30
0.0
 41
1.0
 10
-650.18437526218361
 20
-2326.1110370813544
 30
0.0
 41
1.0
 10
-650.16520918900778
 20
-2326.0951455028462
 30
0.0
 41
1.0
 10
-650.08601844640407
 20
-2326.0294843790643
 30
0.0
 41
0.9999595338692856
 10
-650.00565917554923
 20
-2325.9652586484099
 30
0.0
 41
1.0
 10
-649.92529990469552
 20
-2325.9010329177554
 30
0.0
 41
0.9999749417496594
 10
-649.84403937035222
 20
-2325.8379513638092
 30
0.0
 41
1.0
 10
-649.82305322418426
 20
-2325.8216600765036
 30
0.0
 41
1.0
 10
-649.80206707801631
 20
-2325.8053687891975
 30
0.0
 41
1.0
 10
-649.71749919272679
 20
-2325.7397197793662
 30
0.0
 41
0.9999792037120738
 10
-649.6320915929482
 20
-2325.6751669977157
 30
0.0
 41
1.0
 10
-649.61126676701326
 20
-2325.6594271754402
 30
0.0
 41
1.0
 10
-649.59044194107832
 20
-2325.6436873531643
 30
0.0
 41
1.0
 10
-649.54668399315847
 20
-2325.6106142160561
 30
0.0
 41
0.9999993373861974
 10
-649.50300230703556
 20
-2325.5774404206477
 30
0.0
 41
1.0
 10
-649.45932062089719
 20
-2325.544266625227
 30
0.0
 41
0.9999160953817373
 10
-649.41479420997814
 20
-2325.5122355600292
 30
0.0
 41
1.0
 10
-649.38197232255595
 20
-2325.4886244044428
 30
0.0
 41
1.0
 10
-649.34915043513377
 20
-2325.4650132488559
 30
0.0
 41
1.0
 10
-649.23898024937603
 20
-2325.3857598724881
 30
0.0
 41
0.998096452723072
 10
-649.11989125587638
 20
-2325.3206723996332
 30
0.0
 41
1.0
 10
-649.08285864894856
 20
-2325.3004324200401
 30
0.0
 41
1.0
 10
-649.04582604202062
 20
-2325.2801924404471
 30
0.0
 41
1.0
 10
-648.86649902874728
 20
-2325.1821821897452
 30
0.0
 41
0.9984572810571609
 10
-648.67741046238643
 20
-2325.1046599283982
 30
0.0
 41
1.0
 10
-648.67376419298898
 20
-2325.1031650360596
 30
0.0
 41
1.0
 10
-648.67011792359165
 20
-2325.1016701437211
 30
0.0
 41
1.0
 10
-648.4883218960257
 20
-2325.0271376670512
 30
0.0
 41
0.9987838528034032
 10
-648.30006923746828
 20
-2324.9708720268859
 30
0.0
 41
1.0
 10
-648.29583128826812
 20
-2324.969605373195
 30
0.0
 41
1.0
 10
-648.29159333906784
 20
-2324.9683387195046
 30
0.0
 41
1.0
 10
-648.11181657890779
 20
-2324.9146063867197
 30
0.0
 41
0.9990652816207704
 10
-647.92807064719318
 20
-2324.8766027071779
 30
0.0
 41
1.0
 10
-647.92288224616323
 20
-2324.8755296040717
 30
0.0
 41
1.0
 10
-647.91769384513327
 20
-2324.8744565009656
 30
0.0
 41
1.0
 10
-647.74432471547925
 20
-2324.8385990276365
 30
0.0
 41
0.9992909934269837
 10
-647.56874894901898
 20
-2324.8158885951698
 30
0.0
 41
1.0
 10
-647.39317318256292
 20
-2324.793178162703
 30
0.0
 41
0.9994553539448359
 10
-647.21648174947211
 20
-2324.7820988584967
 30
0.0
 41
1.0
 10
-647.18104734167196
 20
-2324.7798769704486
 30
0.0
 41
1.0
 10
-647.14561293387192
 20
-2324.7776550824005
 30
0.0
 41
1.0
 10
-646.97938716730471
 20
-2324.7672320199895
 30
0.0
 41
0.9990928098293666
 10
-646.81287737540424
 20
-2324.7709916612239
 30
0.0
 41
1.0
 10
-646.77431554013594
 20
-2324.7718623527567
 30
0.0
 41
1.0
 10
-646.73575370486765
 20
-2324.7727330442895
 30
0.0
 41
1.0
 10
-646.64636758350491
 20
-2324.7747513024583
 30
0.0
 41
0.9998382089205373
 10
-646.55711190071543
 20
-2324.7799834289863
 30
0.0
 41
1.0
 10
-646.55668199449701
 20
-2324.7800086298885
 30
0.0
 41
1.0
 10
-646.5562520882786
 20
-2324.7800338307907
 30
0.0
 41
1.0
 10
-646.46785621793072
 20
-2324.7852155555147
 30
0.0
 41
0.9997558016757869
 10
-646.37977564072844
 20
-2324.7942980708813
 30
0.0
 41
1.0
 10
-646.37929950230182
 20
-2324.7943471683639
 30
0.0
 41
1.0
 10
-646.37882336387509
 20
-2324.794396265846
 30
0.0
 41
1.0
 10
-646.29169506353082
 20
-2324.8033805862469
 30
0.0
 41
0.9996565144180246
 10
-646.20515721018546
 20
-2324.8169178929365
 30
0.0
 41
1.0
 10
-646.20469128481113
 20
-2324.8169907786673
 30
0.0
 41
1.0
 10
-646.20422535943692
 20
-2324.8170636643981
 30
0.0
 41
1.0
 10
-646.11861935684738
 20
-2324.8304551996248
 30
0.0
 41
0.9995321806866888
 10
-646.03399227651551
 20
-2324.8490556880552
 30
0.0
 41
1.0
 10
-646.03360308194056
 20
-2324.8491412305216
 30
0.0
 41
1.0
 10
-646.03321388736572
 20
-2324.849226772988
 30
0.0
 41
1.0
 10
-645.94936519618454
 20
-2324.8676561764851
 30
0.0
 41
0.9993819199219595
 10
-645.86701866199132
 20
-2324.891931559745
 30
0.0
 41
1.0
 10
-645.86678022849333
 20
-2324.8920018488543
 30
0.0
 41
1.0
 10
-645.86654179499544
 20
-2324.8920721379636
 30
0.0
 41
1.0
 10
-645.78467212779606
 20
-2324.9162069430049
 30
0.0
 41
0.9992088568504673
 10
-645.70497960880687
 20
-2324.9467721787996
 30
0.0
 41
1.0
 10
-645.6252986179278
 20
-2324.9773317795334
 30
0.0
 41
0.9990226101774561
 10
-645.54862794802068
 20
-2325.0148092111476
 30
0.0
 41
1.0
 10
-645.47196880622323
 20
-2325.0522810077009
 30
0.0
 41
0.9988424273974393
 10
-645.39926517901222
 20
-2325.0969457829528
 30
0.0
 41
1.0
 10
-645.39899747063191
 20
-2325.0971102470257
 30
0.0
 41
1.0
 10
-645.39872976225161
 20
-2325.0972747110986
 30
0.0
 41
1.0
 10
-645.32549071827896
 20
-2325.1422684144973
 30
0.0
 41
0.9986928844491454
 10
-645.25722785156802
 20
-2325.1945041487779
 30
0.0
 41
1.0
 10
-645.25664655934679
 20
-2325.1949489620047
 30
0.0
 41
1.0
 10
-645.25606526712545
 20
-2325.1953937752314
 30
0.0
 41
1.0
 10
-645.18663981597058
 20
-2325.2485191359665
 30
0.0
 41
0.9986007262278495
 10
-645.12321364620448
 20
-2325.3086799056591
 30
0.0
 41
1.0
 10
-645.12231923074671
 20
-2325.3095282734948
 30
0.0
 41
1.0
 10
-645.12142481528895
 20
-2325.3103766413305
 30
0.0
 41
1.0
 10
-645.0562098146097
 20
-2325.3722341466919
 30
0.0
 41
0.9985581491380676
 10
-644.99800220290763
 20
-2325.440726636964
 30
0.0
 41
1.0
 10
-644.98874374931108
 20
-2325.4516209946669
 30
0.0
 41
1.0
 10
-644.97948529571454
 20
-2325.4625153523693
 30
0.0
 41
1.0
 10
-644.90276077682017
 20
-2325.5527965580459
 30
0.0
 41
0.9970460233520854
 10
-644.84076887566107
 20
-2325.6537636422277
 30
0.0
 41
1.0
 10
-644.82629951058175
 20
-2325.6773301013086
 30
0.0
 41
1.0
 10
-644.81183014550231
 20
-2325.7008965603895
 30
0.0
 41
1.0
 10
-644.7720934454909
 20
-2325.7656162844196
 30
0.0
 41
0.9988468816636862
 10
-644.73874707473897
 20
-2325.8338487368478
 30
0.0
 41
1.0
 10
-644.73171105224719
 20
-2325.8482456579859
 30
0.0
 41
1.0
 10
-644.72467502975542
 20
-2325.8626425791235
 30
0.0
 41
1.0
 10
-644.70540070398977
 20
-2325.9020811892701
 30
0.0
 41
0.9998431189996845
 10
-644.68753537649241
 20
-2325.9421777437165
 30
0.0
 41
1.0
 10
-644.66967004898265
 20
-2325.9822742981901
 30
0.0
 41
0.9999989989844634
 10
-644.65169132554115
 20
-2326.0223201358172
 30
0.0
 41
1.0
 10
-644.64551901396408
 20
-2326.0360683525914
 30
0.0
 41
1.0
 10
-644.639346702387
 20
-2326.0498165693662
 30
0.0
 41
1.0
 10
-644.60902335577487
 20
-2326.11735884058
 30
0.0
 41
0.9998790356322254
 10
-644.58081547563484
 20
-2326.1858115925215
 30
0.0
 41
1.0
 10
-644.57398029435285
 20
-2326.202398693943
 30
0.0
 41
1.0
 10
-644.56714511307098
 20
-2326.2189857953645
 30
0.0
 41
1.0
 10
-644.54358745068919
 20
-2326.2761537502533
 30
0.0
 41
0.9998227574561256
 10
-644.52219870230033
 20
-2326.3341680585299
 30
0.0
 41
1.0
 10
-644.50080995391158
 20
-2326.3921823668056
 30
0.0
 41
0.9996797971041379
 10
-644.48238366895396
 20
-2326.4512044859189
 30
0.0
 41
1.0
 10
-644.47847986622742
 20
-2326.4637089440912
 30
0.0
 41
1.0
 10
-644.47457606350076
 20
-2326.4762134022635
 30
0.0
 41
1.0
 10
-644.44834217309005
 20
-2326.5602444377228
 30
0.0
 41
0.9979274938737354
 10
-644.43311764961072
 20
-2326.6469487963827
 30
0.0
 41
1.0
 10
-644.43089396234973
 20
-2326.6596127972034
 30
0.0
 41
1.0
 10
-644.42867027508862
 20
-2326.6722767980241
 30
0.0
 41
1.0
 10
-644.41774033539048
 20
-2326.7345233053152
 30
0.0
 41
0.9994985982138784
 10
-644.4107721702137
 20
-2326.7973368064545
 30
0.0
 41
1.0
 10
-644.40380400503659
 20
-2326.8601503075965
 30
0.0
 41
0.9996372611200731
 10
-644.40022813926885
 20
-2326.9232478862805
 30
0.0
 41
1.0
 10
-644.40005956177959
 20
-2326.9262225033617
 30
0.0
 41
1.0
 10
-644.39989098429032
 20
-2326.929197120443
 30
0.0
 41
1.0
 10
-644.39597796354394
 20
-2326.9982439332903
 30
0.0
 41
0.9997730630736036
 10
-644.39500965005584
 20
-2327.06739475733
 30
0.0
 41
1.0
 10
-644.39495254363783
 20
-2327.0714729364681
 30
0.0
 41
1.0
 10
-644.3948954372197
 20
-2327.0755511156067
 30
0.0
 41
1.0
 10
-644.39381291089524
 20
-2327.1528582979304
 30
0.0
 41
0.9998772614068681
 10
-644.39515299762706
 20
-2327.230161444485
 30
0.0
 41
1.0
 10
-644.39524226082585
 20
-2327.2353106083219
 30
0.0
 41
1.0
 10
-644.39533152402464
 20
-2327.2404597721588
 30
0.0
 41
1.0
 10
-644.39685013715359
 20
-2327.328061246395
 30
0.0
 41
0.9999415567327299
 10
-644.40026244739954
 20
-2327.4156094080608
 30
0.0
 41
1.0
 10
-644.40050376807494
 20
-2327.4218008678017
 30
0.0
 41
1.0
 10
-644.40074508875045
 20
-2327.4279923275431
 30
0.0
 41
1.0
 10
-644.40464004034732
 20
-2327.5279234087034
 30
0.0
 41
0.9999716810426649
 10
-644.41003862346497
 20
-2327.6277845469112
 30
0.0
 41
1.0
 10
-644.41325142225401
 20
-2327.6872137965738
 30
0.0
 41
1.0
 10
-644.41646422104316
 20
-2327.7466430462364
 30
0.0
 41
1.0
 10
-644.42453813019495
 20
-2327.8959914475081
 30
0.0
 41
0.9999819129908636
 10
-644.43440792181241
 20
-2328.0452319252286
 30
0.0
 41
1.0
 10
-644.44427771342896
 20
-2328.1944724029399
 30
0.0
 41
1.0
 10
-644.44671703399285
 20
-2328.231665448789
 30
0.0
 41
1.0
 10
-644.42401880018383
 20
-2328.1929244514968
 30
0.0
 41
0.9999982128114555
 10
-644.40117424138907
 20
-2328.1542695574726
 30
0.0
 41
1.0
 10
-644.37426468151284
 20
-2328.1087363434317
 30
0.0
 41
1.0
 10
-644.34735512163672
 20
-2328.0632031293912
 30
0.0
 41
1.0
 10
-644.27069144310894
 20
-2327.9334818073185
 30
0.0
 41
0.999860919005637
 10
-644.18974413024694
 20
-2327.8063894253892
 30
0.0
 41
1.0
 10
-644.16009580876425
 20
-2327.7598396924304
 30
0.0
 41
1.0
 10
-644.13044748728169
 20
-2327.7132899594721
 30
0.0
 41
1.0
 10
-644.04817526704414
 20
-2327.5841173894764
 30
0.0
 41
0.9999067609732252
 10
-643.96240625758446
 20
-2327.4572397000416
 30
0.0
 41
1.0
 10
-643.96000155438219
 20
-2327.4536824339848
 30
0.0
 41
1.0
 10
-643.95759685117991
 20
-2327.450125167928
 30
0.0
 41
1.0
 10
-643.87663724811773
 20
-2327.3303620105962
 30
0.0
 41
0.9998784952148261
 10
-643.79198363843909
 20
-2327.2131807938913
 30
0.0
 41
1.0
 10
-643.70733002876057
 20
-2327.0959995771864
 30
0.0
 41
0.9998532968281026
 10
-643.61871240793789
 20
-2326.9817866687158
 30
0.0
 41
1.0
 10
-643.59875061894513
 20
-2326.9560593476936
 30
0.0
 41
1.0
 10
-643.57878882995226
 20
-2326.9303320266708
 30
0.0
 41
1.0
 10
-643.46030478019463
 20
-2326.7776264157037
 30
0.0
 41
0.9991551975795227
 10
-643.32968033057045
 20
-2326.6351668536199
 30
0.0
 41
1.0
 10
-643.32617071459185
 20
-2326.6313392519969
 30
0.0
 41
1.0
 10
-643.32266109861337
 20
-2326.6275116503739
 30
0.0
 41
1.0
 10
-643.19905588094718
 20
-2326.4927072915366
 30
0.0
 41
0.9997418144180372
 10
-643.06945374124643
 20
-2326.3636578809242
 30
0.0
 41
1.0
 10
-642.9398516015458
 20
-2326.2346084703117
 30
0.0
 41
0.9989238204633628
 10
-642.79884905329379
 20
-2326.1181235082718
 30
0.0
 41
1.0
 10
-642.75360137515395
 20
-2326.0807435166626
 30
0.0
 41
1.0
 10
-642.70835369701399
 20
-2326.0433635250538
 30
0.0
 41
1.0
 10
-642.56811363979511
 20
-2325.9275084717647
 30
0.0
 41
0.9990825084096155
 10
-642.41847370719029
 20
-2325.8240794739313
 30
0.0
 41
1.0
 10
-642.40842834313651
 20
-2325.8171362608537
 30
0.0
 41
1.0
 10
-642.39838297908273
 20
-2325.8101930477765
 30
0.0
 41
1.0
 10
-642.26883377458807
 20
-2325.7206504760993
 30
0.0
 41
0.9998164899825848
 10
-642.13594957121006
 20
-2325.636136234582
 30
0.0
 41
1.0
 10
-642.12410401068405
 20
-2325.6286024680562
 30
0.0
 41
1.0
 10
-642.11225845015815
 20
-2325.6210687015305
 30
0.0
 41
1.0
 10
-642.00306536783387
 20
-2325.5516219930655
 30
0.0
 41
0.9997473449131547
 10
-641.89086141058442
 20
-2325.4871530352498
 30
0.0
 41
1.0
 10
-641.77865745333429
 20
-2325.4226840774336
 30
0.0
 41
0.9999327861146101
 10
-641.66498884256907
 20
-2325.3608340857513
 30
0.0
 41
1.0
 10
-641.66443684000956
 20
-2325.3605337270728
 30
0.0
 41
1.0
 10
-641.66388483745004
 20
-2325.3602333683943
 30
0.0
 41
1.0
 10
-641.54911222156761
 20
-2325.297782659356
 30
0.0
 41
0.9996956420483534
 10
-641.43139889572774
 20
-2325.2410691923815
 30
0.0
 41
1.0
 10
-641.40095849083207
 20
-2325.22640321565
 30
0.0
 41
1.0
 10
-641.3705180859364
 20
-2325.2117372389184
 30
0.0
 41
1.0
 10
-641.26754097919411
 20
-2325.162123580476
 30
0.0
 41
0.9998070570177169
 10
-641.16269459025477
 20
-2325.1165929935755
 30
0.0
 41
1.0
 10
-641.05784820131248
 20
-2325.0710624066737
 30
0.0
 41
0.9997827436147745
 10
-640.95119526470353
 20
-2325.029941235362
 30
0.0
 41
1.0
 10
-640.93197241507232
 20
-2325.02252966173
 30
0.0
 41
1.0
 10
-640.91274956544112
 20
-2325.0151180880976
 30
0.0
 41
1.0
 10
-640.76765092956646
 20
-2324.9591737695205
 30
0.0
 41
0.9988031841977642
 10
-640.61778056696153
 20
-2324.9176737053526
 30
0.0
 41
1.0
 10
-640.59286331859926
 20
-2324.9107739595461
 30
0.0
 41
1.0
 10
-640.56794607023687
 20
-2324.9038742137395
 30
0.0
 41
1.0
 10
-640.40067604458943
 20
-2324.857556071333
 30
0.0
 41
0.9984748040550776
 10
-640.22931913594118
 20
-2324.8299618390679
 30
0.0
 41
1.0
 10
-640.22457999969333
 20
-2324.8291986785543
 30
0.0
 41
1.0
 10
-640.2198408634456
 20
-2324.8284355180413
 30
0.0
 41
1.0
 10
-640.05796222729339
 20
-2324.8023676068028
 30
0.0
 41
0.9984436495479095
 10
-639.89418748356752
 20
-2324.7944896529843
 30
0.0
 41
1.0
 10
-639.87249027543658
 20
-2324.7934459657845
 30
0.0
 41
1.0
 10
-639.85079306730563
 20
-2324.7924022785851
 30
0.0
 41
1.0
 10
-639.73041273984325
 20
-2324.7866116991659
 30
0.0
 41
0.9987954789335664
 10
-639.61004449493294
 20
-2324.7926482269081
 30
0.0
 41
1.0
 10
-639.59007970242942
 20
-2324.7936494712471
 30
0.0
 41
1.0
 10
-639.57011490992591
 20
-2324.7946507155862
 30
0.0
 41
1.0
 10
-639.48967625001433
 20
-2324.7986847546513
 30
0.0
 41
0.9997941595878599
 10
-639.40946747192868
 20
-2324.8059788205715
 30
0.0
 41
1.0
 10
-639.32925869383735
 20
-2324.8132728864921
 30
0.0
 41
0.9998589466235438
 10
-639.24934014698567
 20
-2324.8232567409418
 30
0.0
 41
1.0
 10
-639.21693394517422
 20
-2324.8273050978614
 30
0.0
 41
1.0
 10
-639.18452774336276
 20
-2324.831353454781
 30
0.0
 41
1.0
 10
-639.039796792895
 20
-2324.8494340230686
 30
0.0
 41
0.9993495063248583
 10
-638.89674554913267
 20
-2324.87789973281
 30
0.0
 41
1.0
 10
-638.86381185196967
 20
-2324.8844531960267
 30
0.0
 41
1.0
 10
-638.83087815480667
 20
-2324.8910066592439
 30
0.0
 41
1.0
 10
-638.72158433160905
 20
-2324.9127549933778
 30
0.0
 41
0.9996788715560758
 10
-638.61353275966064
 20
-2324.9400127927393
 30
0.0
 41
1.0
 10
-638.61146975712484
 20
-2324.9405332193114
 30
0.0
 41
1.0
 10
-638.60940675458903
 20
-2324.9410536458836
 30
0.0
 41
1.0
 10
-638.50548118770769
 20
-2324.9672705921012
 30
0.0
 41
0.9995480654492478
 10
-638.40331895247482
 20
-2324.9996855487261
 30
0.0
 41
1.0
 10
-638.40162931034217
 20
-2325.0002216536413
 30
0.0
 41
1.0
 10
-638.39993966820953
 20
-2325.0007577585561
 30
0.0
 41
1.0
 10
-638.30115671724263
 20
-2325.032100505352
 30
0.0
 41
0.9993867959457117
 10
-638.20480955880282
 20
-2325.0702798746406
 30
0.0
 41
1.0
 10
-638.20356660971663
 20
-2325.0707724165377
 30
0.0
 41
1.0
 10
-638.20232366063044
 20
-2325.0712649584343
 30
0.0
 41
1.0
 10
-638.10846240035892
 20
-2325.1084592439315
 30
0.0
 41
0.9992050256522796
 10
-638.01786272532695
 20
-2325.1530131431691
 30
0.0
 41
1.0
 10
-638.0171280426166
 20
-2325.1533744356288
 30
0.0
 41
1.0
 10
-638.01639335990626
 20
-2325.1537357280886
 30
0.0
 41
1.0
 10
-637.92726305029578
 20
-2325.1975670424063
 30
0.0
 41
0.9990222350741067
 10
-637.84235298889985
 20
-2325.2491003101059
 30
0.0
 41
1.0
 10
-637.84216910361511
 20
-2325.249211913012
 30
0.0
 41
1.0
 10
-637.84198521833025
 20
-2325.2493235159181
 30
0.0
 41
1.0
 10
-637.7574429275046
 20
-2325.3006335778059
 30
0.0
 41
0.9988642743805702
 10
-637.6781683928873
 20
-2325.35975776533
 30
0.0
 41
1.0
 10
-637.5988938582683
 20
-2325.4188819528549
 30
0.0
 41
0.9987681233310141
 10
-637.5258700739904
 20
-2325.485572644257
 30
0.0
 41
1.0
 10
-637.52554114602549
 20
-2325.4858730454707
 30
0.0
 41
1.0
 10
-637.52521221806046
 20
-2325.486173446684
 30
0.0
 41
1.0
 10
-637.45153057785376
 20
-2325.5534649405117
 30
0.0
 41
0.9987496570897453
 10
-637.38493677252791
 20
-2325.6277777545974
 30
0.0
 41
1.0
 10
-637.3841646027663
 20
-2325.6286394279568
 30
0.0
 41
1.0
 10
-637.3833924330047
 20
-2325.6295011013158
 30
0.0
 41
1.0
 10
-637.31525428815485
 20
-2325.7055372621207
 30
0.0
 41
0.9988147669827948
 10
-637.25483203392992
 20
-2325.7878382689628
 30
0.0
 41
1.0
 10
-637.25371270785308
 20
-2325.7893629003142
 30
0.0
 41
1.0
 10
-637.25259338177614
 20
-2325.7908875316657
 30
0.0
 41
1.0
 10
-637.18993247539743
 20
-2325.8762378012102
 30
0.0
 41
0.9989452636214947
 10
-637.1353655624356
 20
-2325.9669764903688
 30
0.0
 41
1.0
 10
-637.13401683634925
 20
-2325.969219271396
 30
0.0
 41
1.0
 10
-637.13266811026301
 20
-2325.9714620524232
 30
0.0
 41
1.0
 10
-637.07540374513019
 20
-2326.066686303634
 30
0.0
 41
0.9991046436071338
 10
-637.02639453180814
 20
-2326.1664107366601
 30
0.0
 41
1.0
 10
-637.0249306702184
 20
-2326.169389416732
 30
0.0
 41
1.0
 10
-637.02346680862865
 20
-2326.1723680968039
 30
0.0
 41
1.0
 10
-636.97152987212667
 20
-2326.2780498899751
 30
0.0
 41
0.9992763831101248
 10
-636.92777674357228
 20
-2326.387373951929
 30
0.0
 41
1.0
 10
-636.92629747390879
 20
-2326.3910701394634
 30
0.0
 41
1.0
 10
-636.92481820424518
 20
-2326.3947663269973
 30
0.0
 41
1.0
 10
-636.87810653636461
 20
-2326.5114827640168
 30
0.0
 41
0.9994163472883021
 10
-636.83947350517531
 20
-2326.6311163524797
 30
0.0
 41
1.0
 10
-636.83823535292731
 20
-2326.6349504962664
 30
0.0
 41
1.0
 10
-636.83699720067921
 20
-2326.6387846400535
 30
0.0
 41
1.0
 10
-636.7971136396626
 20
-2326.7622907015302
 30
0.0
 41
0.9997268055890848
 10
-636.76304558375091
 20
-2326.8875257334794
 30
0.0
 41
1.0
 10
-636.76211540348152
 20
-2326.890945099588
 30
0.0
 41
1.0
 10
-636.76118522321212
 20
-2326.8943644656961
 30
0.0
 41
1.0
 10
-636.72897752783933
 20
-2327.012760765429
 30
0.0
 41
0.9996701319000874
 10
-636.70289191106849
 20
-2327.1326547186936
 30
0.0
 41
1.0
 10
-636.67680629429822
 20
-2327.2525486719564
 30
0.0
 41
0.9995785451109744
 10
-636.65772271695903
 20
-2327.3737544329842
 30
0.0
 41
1.0
 10
-636.65350293478514
 20
-2327.4005555877502
 30
0.0
 41
1.0
 10
-636.64928315261113
 20
-2327.4273567425166
 30
0.0
 41
1.0
 10
-636.62270817667229
 20
-2327.5961427162215
 30
0.0
 41
0.9979925101217017
 10
-636.61768259074586
 20
-2327.7669340443135
 30
0.0
 41
1.0
 10
-636.61685777832122
 20
-2327.7949647677951
 30
0.0
 41
1.0
 10
-636.61603296589658
 20
-2327.8229954912767
 30
0.0
 41
1.0
 10
-636.61265700481931
 20
-2327.9377253724015
 30
0.0
 41
0.9995314902262645
 10
-636.61630719695802
 20
-2328.0524468561571
 30
0.0
 41
1.0
 10
-636.61995738909661
 20
-2328.1671683399068
 30
0.0
 41
0.9996245486944926
 10
-636.62988648422743
 20
-2328.2815176110339
 30
0.0
 41
1.0
 10
-636.63004953222162
 20
-2328.2833953671689
 30
0.0
 41
1.0
 10
-636.63021258021581
 20
-2328.2852731233033
 30
0.0
 41
1.0
 10
-636.64046777133547
 20
-2328.4033779067004
 30
0.0
 41
0.9997286095001009
 10
-636.65621309490632
 20
-2328.5208768155903
 30
0.0
 41
1.0
 10
-636.65660658755678
 20
-2328.5238132402933
 30
0.0
 41
1.0
 10
-636.65700008020735
 20
-2328.5267496649963
 30
0.0
 41
1.0
 10
-636.67353238908072
 20
-2328.6501214233022
 30
0.0
 41
0.9998265533969205
 10
-636.69464784781258
 20
-2328.7727918980854
 30
0.0
 41
1.0
 10
-636.69532438994952
 20
-2328.7767222765915
 30
0.0
 41
1.0
 10
-636.69600093208646
 20
-2328.780652655098
 30
0.0
 41
1.0
 10
-636.71846947509164
 20
-2328.911183886893
 30
0.0
 41
0.9999022530853413
 10
-636.74457893970271
 20
-2329.0410358555373
 30
0.0
 41
1.0
 10
-636.74555758086831
 20
-2329.0459029979261
 30
0.0
 41
1.0
 10
-636.74653622203402
 20
-2329.0507701403149
 30
0.0
 41
1.0
 10
-636.774602968973
 20
-2329.1903563937199
 30
0.0
 41
0.9999524761934329
 10
-636.80538593780784
 20
-2329.3293688868853
 30
0.0
 41
1.0
 10
-636.80666204498414
 20
-2329.3351316461913
 30
0.0
 41
1.0
 10
-636.80793815216043
 20
-2329.3408944054972
 30
0.0
 41
1.0
 10
-636.84127333534479
 20
-2329.4914324172614
 30
0.0
 41
0.9999813588733985
 10
-636.87644433614412
 20
-2329.6415521299314
 30
0.0
 41
1.0
 10
-636.87799826159949
 20
-2329.648184720349
 30
0.0
 41
1.0
 10
-636.87955218705497
 20
-2329.6548173107667
 30
0.0
 41
1.0
 10
-636.91783103875866
 20
-2329.8182022042461
 30
0.0
 41
0.9999955237696675
 10
-636.95708691674315
 20
-2329.9813551078691
 30
0.0
 41
1.0
 10
-636.96936855237823
 20
-2330.0323992983949
 30
0.0
 41
1.0
 10
-636.98165018801319
 20
-2330.0834434889202
 30
0.0
 41
1.0
 10
-637.04546933727897
 20
-2330.3486847736422
 30
0.0
 41
0.9999993604470768
 10
-637.10988828443919
 20
-2330.6137810242935
 30
0.0
 41
1.0
 10
-637.11460711998188
 20
-2330.6331999323156
 30
0.0
 41
1.0
 10
-637.11932595552446
 20
-2330.6526188403377
 30
0.0
 41
1.0
 10
-637.19318257378472
 20
-2330.956552907096
 30
0.0
 41
0.9999659914729222
 10
-637.27204216967289
 20
-2331.2592274536664
 30
0.0
 41
1.0
 10
-637.27699485860217
 20
-2331.2782365908433
 30
0.0
 41
1.0
 10
-637.28194754753144
 20
-2331.2972457280207
 30
0.0
 41
1.0
 10
-637.37071252127612
 20
-2331.6379385489377
 30
0.0
 41
0.9999441976024145
 10
-637.46665555423965
 20
-2331.9766799742365
 30
0.0
 41
1.0
 10
-637.48335607266552
 20
-2332.0356436867651
 30
0.0
 41
1.0
 10
-637.50005659109138
 20
-2332.0946073992941
 30
0.0
 41
1.0
 10
-637.62940066090323
 20
-2332.5512762496392
 30
0.0
 41
0.9999625120733123
 10
-637.76663342822769
 20
-2333.0056367836382
 30
0.0
 41
1.0
 10
-637.80242337131165
 20
-2333.1241328102687
 30
0.0
 41
1.0
 10
-637.8382133143956
 20
-2333.2426288368997
 30
0.0
 41
1.0
 10
-637.91273351843324
 20
-2333.4893559149905
 30
0.0
 41
0.9999793386314296
 10
-637.99041954157406
 20
-2333.7351045542368
 30
0.0
 41
1.0
 10
-638.06810556471157
 20
-2333.9808531934727
 30
0.0
 41
1.0
 10
-638.07888512358227
 20
-2334.0148710978478
 30
0.0
 41
1.0
 10
-639.92925817685136
 20
-2339.9019430203152
 30
0.0
 41
1.0
 10
-641.77963123012057
 20
-2345.7890149427826
 30
0.0
 41
1.0
 10
-642.74088792014413
 20
-2345.7890149427826
 30
0.0
 41
1.0
 10
-643.70214461016769
 20
-2345.7890149427826
 30
0.0
 41
1.0
 10
-642.08319983148931
 20
-2340.6409864409934
 30
0.0
 41
1.0
 10
-640.46425505281081
 20
-2335.4929579392037
 30
0.0
 41
1.0
 10
-640.41908922963808
 20
-2335.3489267169389
 30
0.0
 41
1.0
 10
-640.37392340646534
 20
-2335.2048954946736
 30
0.0
 41
1.0
 10
-640.20361898910824
 20
-2334.6618044655297
 30
0.0
 41
0.9999911657886352
 10
-640.0378861774193
 20
-2334.1173009341378
 30
0.0
 41
1.0
 10
-640.00819023391887
 20
-2334.019736994087
 30
0.0
 41
1.0
 10
-639.97849429041833
 20
-2333.9221730540366
 30
0.0
 41
1.0
 10
-639.87215336573354
 20
-2333.5727974027568
 30
0.0
 41
0.9999952428201102
 10
-639.76796977641402
 20
-2333.2227723784245
 30
0.0
 41
1.0
 10
-639.76291030608002
 20
-2333.2057741041444
 30
0.0
 41
1.0
 10
-639.75785083574601
 20
-2333.188775829864
 30
0.0
 41
1.0
 10
-639.66378618708609
 20
-2332.8727473540648
 30
0.0
 41
0.9999931687496618
 10
-639.57206034921546
 20
-2332.5560321408047
 30
0.0
 41
1.0
 10
-639.56712508475698
 20
-2332.5389914315374
 30
0.0
 41
1.0
 10
-639.56218982029861
 20
-2332.5219507222705
 30
0.0
 41
1.0
 10
-639.48033451134245
 20
-2332.2393169275369
 30
0.0
 41
0.9999893840783171
 10
-639.40108728488497
 20
-2331.9559407982874
 30
0.0
 41
1.0
 10
-639.32184005842441
 20
-2331.6725646690284
 30
0.0
 41
0.999983398007226
 10
-639.24586381768677
 20
-2331.3882940860144
 30
0.0
 41
1.0
 10
-639.23685988096418
 20
-2331.3546052075344
 30
0.0
 41
1.0
 10
-639.22785594424147
 20
-2331.3209163290544
 30
0.0
 41
1.0
 10
-639.15889139537512
 20
-2331.0628804967573
 30
0.0
 41
0.9999233658065976
 10
-639.09633642415463
 20
-2330.8032163380344
 30
0.0
 41
1.0
 10
-639.03378145293436
 20
-2330.543552179312
 30
0.0
 41
1.0
 10
-638.99429803407679
 20
-2330.3797455148861
 30
0.0
 41
1.0
 10
-638.989319430102
 20
-2330.3590905530264
 30
0.0
 41
1.0
 10
-638.98434082612721
 20
-2330.3384355911662
 30
0.0
 41
1.0
 10
-638.95481461522354
 20
-2330.2159388504774
 30
0.0
 41
0.9999868670856356
 10
-638.92654553122304
 20
-2330.0931459048143
 30
0.0
 41
1.0
 10
-638.92264804406409
 20
-2330.0762163173918
 30
0.0
 41
1.0
 10
-638.91875055690502
 20
-2330.0592867299692
 30
0.0
 41
1.0
 10
-638.89827644722254
 20
-2329.9703529591502
 30
0.0
 41
0.9999778173344643
 10
-638.87898884911147
 20
-2329.8811543419383
 30
0.0
 41
1.0
 10
-638.85970125099755
 20
-2329.791955724716
 30
0.0
 41
0.9999602692866084
 10
-638.84200689236479
 20
-2329.7024274362798
 30
0.0
 41
1.0
 10
-638.83880306028732
 20
-2329.6862169813949
 30
0.0
 41
1.0
 10
-638.83559922820996
 20
-2329.6700065265104
 30
0.0
 41
1.0
 10
-638.8114972054243
 20
-2329.5480573283139
 30
0.0
 41
0.9995617985320898
 10
-638.79465385820549
 20
-2329.4248955806088
 30
0.0
 41
1.0
 10
-638.79218936829898
 20
-2329.4068747632405
 30
0.0
 41
1.0
 10
-638.78972487839235
 20
-2329.3888539458721
 30
0.0
 41
1.0
 10
-638.76944161734446
 20
-2329.2405388961743
 30
0.0
 41
0.9991121410639551
 10
-638.76171626375617
 20
-2329.0910427973677
 30
0.0
 41
1.0
 10
-638.7607974737316
 20
-2329.073262960791
 30
0.0
 41
1.0
 10
-638.75987868370703
 20
-2329.0554831242143
 30
0.0
 41
1.0
 10
-638.753990910168
 20
-2328.9415466985633
 30
0.0
 41
0.9989792494905737
 10
-638.75841000228525
 20
-2328.8275438626633
 30
0.0
 41
1.0
 10
-638.75905797415385
 20
-2328.8108276167368
 30
0.0
 41
1.0
 10
-638.75970594602245
 20
-2328.7941113708102
 30
0.0
 41
1.0
 10
-638.76282909440215
 20
-2328.7135410267706
 30
0.0
 41
0.9997820295394043
 10
-638.76931309177826
 20
-2328.6331713050208
 30
0.0
 41
1.0
 10
-638.77579708915414
 20
-2328.5528015832733
 30
0.0
 41
0.9998335105974098
 10
-638.78520928466651
 20
-2328.4727219668193
 30
0.0
 41
1.0
 10
-638.78680420934245
 20
-2328.4591522363398
 30
0.0
 41
1.0
 10
-638.78839913401839
 20
-2328.4455825058603
 30
0.0
 41
1.0
 10
-638.80100117888219
 20
-2328.3383634284482
 30
0.0
 41
0.9996876457879452
 10
-638.81894509168058
 20
-2328.2319080007314
 30
0.0
 41
1.0
 10
-638.82117675482596
 20
-2328.2186682654901
 30
0.0
 41
1.0
 10
-638.82340841797122
 20
-2328.2054285302484
 30
0.0
 41
1.0
 10
-638.83720423939178
 20
-2328.1235823862917
 30
0.0
 41
0.9995547496495022
 10
-638.85585756128535
 20
-2328.0427048890951
 30
0.0
 41
1.0
 10
-638.85623151815639
 20
-2328.0410834783911
 30
0.0
 41
1.0
 10
-638.85660547502732
 20
-2328.0394620676871
 30
0.0
 41
1.0
 10
-638.87451088317755
 20
-2327.9618273919068
 30
0.0
 41
0.9994899427176734
 10
-638.89733579185736
 20
-2327.8854941090694
 30
0.0
 41
1.0
 10
-638.89779431859802
 20
-2327.883960659281
 30
0.0
 41
1.0
 10
-638.89825284533879
 20
-2327.8824272094926
 30
0.0
 41
1.0
 10
-638.92016070053592
 20
-2327.8091608262371
 30
0.0
 41
0.99937848775905
 10
-638.94717633564323
 20
-2327.7376201210764
 30
0.0
 41
1.0
 10
-638.94770802661992
 20
-2327.7362121383567
 30
0.0
 41
1.0
 10
-638.94823971759661
 20
-2327.7348041556365
 30
0.0
 41
1.0
 10
-638.97419197074987
 20
-2327.6660794159175
 30
0.0
 41
0.9992430832254763
 10
-639.00540850590914
 20
-2327.599580263849
 30
0.0
 41
1.0
 10
-639.00599062196625
 20
-2327.5983402087304
 30
0.0
 41
1.0
 10
-639.00657273802335
 20
-2327.5971001536122
 30
0.0
 41
1.0
 10
-639.03662504106876
 20
-2327.5330811117797
 30
0.0
 41
0.9990789632797482
 10
-639.07205566784523
 20
-2327.4718745000309
 30
0.0
 41
1.0
 10
-639.07265137402646
 20
-2327.4708454141728
 30
0.0
 41
1.0
 10
-639.07324708020781
 20
-2327.4698163283151
 30
0.0
 41
1.0
 10
-639.10748629462114
 20
-2327.4106678882831
 30
0.0
 41
0.9988874801122712
 10
-639.14714557065395
 20
-2327.3550081758635
 30
0.0
 41
1.0
 10
-639.1477010967194
 20
-2327.354228524187
 30
0.0
 41
1.0
 10
-639.14825662278497
 20
-2327.3534488725104
 30
0.0
 41
1.0
 10
-639.1868048466871
 20
-2327.2993484634444
 30
0.0
 41
0.9986762060693448
 10
-639.23070731796224
 20
-2327.2494947490068
 30
0.0
 41
1.0
 10
-639.23115127829385
 20
-2327.2489906071905
 30
0.0
 41
1.0
 10
-639.23159523862546
 20
-2327.2484864653748
 30
0.0
 41
1.0
 10
-639.27460978923784
 20
-2327.1996410345687
 30
0.0
 41
0.9984621642489531
 10
-639.32276734601624
 20
-2327.1558577340966
 30
0.0
 41
1.0
 10
-639.32301398053255
 20
-2327.1556335019332
 30
0.0
 41
1.0
 10
-639.32326061504887
 20
-2327.1554092697702
 30
0.0
 41
1.0
 10
-639.37092490279292
 20
-2327.1120744336263
 30
0.0
 41
0.9982724693850978
 10
-639.42334353463548
 20
-2327.0746300831079
 30
0.0
 41
1.0
 10
-639.47576216647712
 20
-2327.0371857325895
 30
0.0
 41
0.9981399180155539
 10
-639.53234822987088
 20
-2327.0063992131463
 30
0.0
 41
1.0
 10
-639.53239389194903
 20
-2327.0063743699893
 30
0.0
 41
1.0
 10
-639.53243955402718
 20
-2327.0063495268323
 30
0.0
 41
1.0
 10
-639.58911694157666
 20
-2326.9755133210747
 30
0.0
 41
0.9980927086836263
 10
-639.64916229264213
 20
-2326.9518965122224
 30
0.0
 41
1.0
 10
-639.64960246235466
 20
-2326.9517233863471
 30
0.0
 41
1.0
 10
-639.6500426320672
 20
-2326.9515502604718
 30
0.0
 41
1.0
 10
-639.71096832255478
 20
-2326.9275871998702
 30
0.0
 41
0.9981411356563275
 10
-639.774356843953
 20
-2326.9112145583645
 30
0.0
 41
1.0
 10
-639.77523896065611
 20
-2326.9109867161587
 30
0.0
 41
1.0
 10
-639.77612107735922
 20
-2326.9107588739525
 30
0.0
 41
1.0
 10
-639.84127383216139
 20
-2326.8939305480362
 30
0.0
 41
0.9983031812936017
 10
-639.90794126115577
 20
-2326.8847911868602
 30
0.0
 41
1.0
 10
-639.9168122865583
 20
-2326.8835750681892
 30
0.0
 41
1.0
 10
-639.92568331196094
 20
-2326.8823589495178
 30
0.0
 41
1.0
 10
-639.98003295446654
 20
-2326.8749082195263
 30
0.0
 41
0.9983887708266523
 10
-640.03487680376099
 20
-2326.8736635458927
 30
0.0
 41
1.0
 10
-640.04294020897999
 20
-2326.8734805480181
 30
0.0
 41
1.0
 10
-640.05100361419898
 20
-2326.873297550143
 30
0.0
 41
1.0
 10
-640.08972065305534
 20
-2326.8724188722595
 30
0.0
 41
0.9998869563078676
 10
-640.12844660625649
 20
-2326.8727047416191
 30
0.0
 41
1.0
 10
-640.1671725594905
 20
-2326.8729906109793
 30
0.0
 41
0.9999972320191485
 10
-640.20589673873303
 20
-2326.8734587105087
 30
0.0
 41
1.0
 10
-640.22524975528154
 20
-2326.8736926505981
 30
0.0
 41
1.0
 10
-640.24460277182993
 20
-2326.873926590687
 30
0.0
 41
1.0
 10
-640.32203298420461
 20
-2326.8748625703947
 30
0.0
 41
0.9997304945086717
 10
-640.3993362904464
 20
-2326.8793916641812
 30
0.0
 41
1.0
 10
-640.40838593214653
 20
-2326.8799218701706
 30
0.0
 41
1.0
 10
-640.41743557384677
 20
-2326.8804520761605
 30
0.0
 41
1.0
 10
-640.51283816348973
 20
-2326.8860415819267
 30
0.0
 41
0.9997888306416793
 10
-640.60793049932829
 20
-2326.8955465464151
 30
0.0
 41
1.0
 10
-640.61665156090464
 20
-2326.8964182610475
 30
0.0
 41
1.0
 10
-640.625372622481
 20
-2326.89728997568
 30
0.0
 41
1.0
 10
-640.73790708146919
 20
-2326.9085383694332
 30
0.0
 41
0.998417023818996
 10
-640.84846622881992
 20
-2326.9323544513691
 30
0.0
 41
1.0
 10
-640.88484735980649
 20
-2326.9401914871751
 30
0.0
 41
1.0
 10
-640.92122849079306
 20
-2326.9480285229811
 30
0.0
 41
1.0
 10
-641.03641955921421
 20
-2326.9728423894908
 30
0.0
 41
0.9976592854199029
 10
-641.14714772561979
 20
-2327.0131410666381
 30
0.0
 41
1.0
 10
-641.25787589202707
 20
-2327.0534397437864
 30
0.0
 41
0.9993255074352401
 10
-641.36534769082004
 20
-2327.1017566422797
 30
0.0
 41
1.0
 10
-641.3699728697411
 20
-2327.1038360184784
 30
0.0
 41
1.0
 10
-641.37459804866216
 20
-2327.1059153946771
 30
0.0
 41
1.0
 10
-641.49132020529885
 20
-2327.1583910455688
 30
0.0
 41
0.9976475078275153
 10
-641.59976754960769
 20
-2327.2263390352259
 30
0.0
 41
1.0
 10
-641.61810994374491
 20
-2327.2378315140418
 30
0.0
 41
1.0
 10
-641.63645233788213
 20
-2327.2493239928576
 30
0.0
 41
1.0
 10
-641.7206545294323
 20
-2327.3020811136248
 30
0.0
 41
0.999513133640713
 10
-641.80140224438912
 20
-2327.359987325578
 30
0.0
 41
1.0
 10
-641.88214995934788
 20
-2327.4178935375321
 30
0.0
 41
0.9995810107605945
 10
-641.95941160707594
 20
-2327.4803752199982
 30
0.0
 41
1.0
 10
-641.96238163828571
 20
-2327.4827770914626
 30
0.0
 41
1.0
 10
-641.96535166949548
 20
-2327.4851789629265
 30
0.0
 41
1.0
 10
-642.04855337964295
 20
-2327.55246438832
 30
0.0
 41
0.9996617837955015
 10
-642.12814406677353
 20
-2327.6239848438754
 30
0.0
 41
1.0
 10
-642.14027481765311
 20
-2327.6348855768683
 30
0.0
 41
1.0
 10
-642.15240556853269
 20
-2327.6457863098613
 30
0.0
 41
1.0
 10
-642.2206810959309
 20
-2327.7071389253356
 30
0.0
 41
0.9997267750052776
 10
-642.28601460421487
 20
-2327.7716154618611
 30
0.0
 41
1.0
 10
-642.35134811251055
 20
-2327.8360919983979
 30
0.0
 41
0.9999667288967215
 10
-642.41562105565504
 20
-2327.9016258052911
 30
0.0
 41
1.0
 10
-642.48444850342526
 20
-2327.9718034640446
 30
0.0
 41
1.0
 10
-642.55327595119547
 20
-2328.0419811227976
 30
0.0
 41
1.0
 10
-642.75520378989199
 20
-2328.2478702472076
 30
0.0
 41
0.9988205335174852
 10
-642.93620940687208
 20
-2328.4723744792691
 30
0.0
 41
1.0
 10
-642.96684937177656
 20
-2328.510377729699
 30
0.0
 41
1.0
 10
-642.99748933668116
 20
-2328.5483809801285
 30
0.0
 41
1.0
 10
-643.23977488346952
 20
-2328.8488917130485
 30
0.0
 41
0.9997077826755224
 10
-643.46725283457624
 20
-2329.1607615072667
 30
0.0
 41
1.0
 10
-643.4689762497062
 20
-2329.1631242906456
 30
0.0
 41
1.0
 10
-643.47069966483627
 20
-2329.1654870740244
 30
0.0
 41
1.0
 10
-643.70162444620337
 20
-2329.4820824350018
 30
0.0
 41
0.9989147567079023
 10
-643.90208794908631
 20
-2329.8187918961858
 30
0.0
 41
1.0
 10
-643.92682909439327
 20
-2329.8603484767382
 30
0.0
 41
1.0
 10
-643.95157023970023
 20
-2329.9019050572906
 30
0.0
 41
1.0
 10
-644.10678153833987
 20
-2330.1626064417474
 30
0.0
 41
0.9997476598181956
 10
-644.25012652584678
 20
-2330.4300161903247
 30
0.0
 41
1.0
 10
-644.39347151335812
 20
-2330.6974259389103
 30
0.0
 41
0.9996258967109472
 10
-644.52197976528805
 20
-2330.9722738755313
 30
0.0
 41
1.0
 10
-644.53517967473908
 20
-2331.0005052756296
 30
0.0
 41
1.0
 10
-644.54837958419012
 20
-2331.0287366757284
 30
0.0
 41
1.0
 10
-644.68858830518832
 20
-2331.3286090736779
 30
0.0
 41
0.9998735413945813
 10
-644.81918965190789
 20
-2331.6327886731433
 30
0.0
 41
1.0
 10
-644.82263247996752
 20
-2331.6408072586055
 30
0.0
 41
1.0
 10
-644.82607530802704
 20
-2331.6488258440681
 30
0.0
 41
1.0
 10
-644.94979099862871
 20
-2331.9369682726124
 30
0.0
 41
0.9999377418862285
 10
-645.06704580080304
 20
-2332.2277997402862
 30
0.0
 41
1.0
 10
-645.18430060297783
 20
-2332.5186312079613
 30
0.0
 41
0.999950829950324
 10
-645.29576454635344
 20
-2332.8117308847786
 30
0.0
 41
1.0
 10
-645.29884531501693
 20
-2332.8198319107451
 30
0.0
 41
1.0
 10
-645.30192608368043
 20
-2332.8279329367115
 30
0.0
 41
1.0
 10
-645.41955156438405
 20
-2333.1372346654643
 30
0.0
 41
0.9999609228431381
 10
-645.53169016725644
 20
-2333.4485676814752
 30
0.0
 41
1.0
 10
-645.53464617760619
 20
-2333.4567745218851
 30
0.0
 41
1.0
 10
-645.53760218795605
 20
-2333.464981362295
 30
0.0
 41
1.0
 10
-645.65565281152408
 20
-2333.7927280591157
 30
0.0
 41
0.999967460739532
 10
-645.76840033759822
 20
-2334.1223366791264
 30
0.0
 41
1.0
 10
-645.81979872816032
 20
-2334.2725958748174
 30
0.0
 41
1.0
 10
-645.87119711872242
 20
-2334.4228550705084
 30
0.0
 41
1.0
 10
-645.98720772548313
 20
-2334.7620030530202
 30
0.0
 41
0.999928753230841
 10
-646.09508912945103
 20
-2335.103823791987
 30
0.0
 41
1.0
 10
-646.14156638556892
 20
-2335.2510863362904
 30
0.0
 41
1.0
 10
-646.1880436416867
 20
-2335.3983488805939
 30
0.0
 41
1.0
 10
-646.20297053337208
 20
-2335.4456445308056
 30
0.0
 41
0.9999998224187159
 10
-646.21784104215226
 20
-2335.4929579392037
 30
0.0
 41
1.0
 10
-647.8384971789477
 20
-2340.6409864409934
 30
0.0
 41
1.0
 10
-649.45915331574315
 20
-2345.7890149427826
 30
0.0
 41
1.0
 10
-650.36446175963408
 20
-2345.7890149427826
 30
0.0
 41
1.0
 10
-651.26977020352501
 20
-2345.7890149427826
 30
0.0
 41
1.0
 10
-649.41768579213897
 20
-2339.9019430203152
 30
0.0
 41
1.0
 10
-647.56560138075292
 20
-2334.0148710978478
 30
0.0
 41
1.0
 10
-647.55547962245021
 20
-2333.9828278843979
 30
0.0
 41
1.0
 10
-647.48287195360047
 20
-2333.7525283425721
 30
0.0
 41
1.0
 10
-647.41026428474424
 20
-2333.5222288007262
 30
0.0
 41
0.9999825681968523
 10
-647.34038124553751
 20
-2333.2910879056753
 30
0.0
 41
1.0
 10
-647.29209018337599
 20
-2333.1313633221771
 30
0.0
 41
1.0
 10
-647.24379912121447
 20
-2332.9716387386788
 30
0.0
 41
1.0
 10
-647.14664676790198
 20
-2332.650303516918
 30
0.0
 41
0.9999672528960457
 10
-647.05470796227837
 20
-2332.3274379713312
 30
0.0
 41
1.0
 10
-647.05191907860853
 20
-2332.3176441259411
 30
0.0
 41
1.0
 10
-647.04913019493881
 20
-2332.3078502805511
 30
0.0
 41
1.0
 10
-646.96276915665089
 20
-2332.0045724257316
 30
0.0
 41
0.9999899749127695
 10
-646.87912754712033
 20
-2331.7005333372927
 30
0.0
 41
1.0
 10
-646.86902162810145
 20
-2331.6637980996093
 30
0.0
 41
1.0
 10
-646.85891570908257
 20
-2331.6270628619259
 30
0.0
 41
1.0
 10
-646.795485937585
 20
-2331.3964942488374
 30
0.0
 41
0.9999214200503293
 10
-646.73785650920786
 20
-2331.1644079066309
 30
0.0
 41
1.0
 10
-646.72509065702707
 20
-2331.1129970212337
 30
0.0
 41
1.0
 10
-646.71232480484628
 20
-2331.0615861358365
 30
0.0
 41
1.0
 10
-646.68022708083231
 20
-2330.9323215644308
 30
0.0
 41
0.9999828681674839
 10
-646.64964482883477
 20
-2330.802690089954
 30
0.0
 41
1.0
 10
-646.6190625768412
 20
-2330.673058615494
 30
0.0
 41
0.9999389844480332
 10
-646.59135158805111
 20
-2330.5427831595912
 30
0.0
 41
1.0
 10
-646.58421384433041
 20
-2330.5092270557516
 30
0.0
 41
1.0
 10
-646.5770761006097
 20
-2330.4756709519115
 30
0.0
 41
1.0
 10
-646.53508962437866
 20
-2330.2782832883313
 30
0.0
 41
0.9998933699441431
 10
-646.49888535997695
 20
-2330.0797536805735
 30
0.0
 41
1.0
 10
-646.49751253476097
 20
-2330.0722256598792
 30
0.0
 41
1.0
 10
-646.4961397095451
 20
-2330.0646976391849
 30
0.0
 41
1.0
 10
-646.45718979470985
 20
-2329.8511119900318
 30
0.0
 41
0.9996850305193086
 10
-646.42900611845164
 20
-2329.635840984598
 30
0.0
 41
1.0
 10
-646.42701108508231
 20
-2329.6206026304753
 30
0.0
 41
1.0
 10
-646.42501605171287
 20
-2329.6053642763532
 30
0.0
 41
1.0
 10
-646.39760818925322
 20
-2329.3960190491953
 30
0.0
 41
0.9994697936706217
 10
-646.38388363003423
 20
-2329.1853338538676
 30
0.0
 41
1.0
 10
-646.38340656078458
 20
-2329.1780103816568
 30
0.0
 41
1.0
 10
-646.38292949153492
 20
-2329.170686909446
 30
0.0
 41
1.0
 10
-646.37015907081457
 20
-2328.9746486585341
 30
0.0
 41
0.9991804893136836
 10
-646.37328738708743
 20
-2328.7782198085633
 30
0.0
 41
1.0
 10
-646.37337126590955
 20
-2328.7729530071501
 30
0.0
 41
1.0
 10
-646.37345514473168
 20
-2328.7676862057369
 30
0.0
 41
1.0
 10
-646.37641570336041
 20
-2328.5817909585894
 30
0.0
 41
0.9988448329322108
 10
-646.39720724898393
 20
-2328.3970383687565
 30
0.0
 41
1.0
 10
-646.39880132268706
 20
-2328.3828735129846
 30
0.0
 41
1.0
 10
-646.40039539639019
 20
-2328.3687086572127
 30
0.0
 41
1.0
 10
-646.41799879460802
 20
-2328.2122857789204
 30
0.0
 41
0.9985503209458075
 10
-646.4523150669072
 20
-2328.0586615948337
 30
0.0
 41
1.0
 10
-646.45990105897874
 20
-2328.0247012674317
 30
0.0
 41
1.0
 10
-646.46748705105028
 20
-2327.9907409400303
 30
0.0
 41
1.0
 10
-646.48663133920775
 20
-2327.9050374107401
 30
0.0
 41
0.9991036781368973
 10
-646.51295620085807
 20
-2327.8212603234192
 30
0.0
 41
1.0
 10
-646.51693842631335
 20
-2327.808587160911
 30
0.0
 41
1.0
 10
-646.52092065176873
 20
-2327.7959139984023
 30
0.0
 41
1.0
 10
-646.53928106250771
 20
-2327.7374832360993
 30
0.0
 41
0.9998874504369897
 10
-646.55938627018759
 20
-2327.6796296338712
 30
0.0
 41
1.0
 10
-646.5794914778678
 20
-2327.6217760316435
 30
0.0
 41
0.9994041637544295
 10
-646.60354009080299
 20
-2327.5654473277518
 30
0.0
 41
1.0
 10
-646.60773687502592
 20
-2327.5556172632723
 30
0.0
 41
1.0
 10
-646.61193365924896
 20
-2327.5457871987928
 30
0.0
 41
1.0
 10
-646.63981249024278
 20
-2327.4804870328271
 30
0.0
 41
0.9991846840701358
 10
-646.67286884693601
 20
-2327.417649001547
 30
0.0
 41
1.0
 10
-646.67400545333078
 20
-2327.4154883850924
 30
0.0
 41
1.0
 10
-646.67514205972554
 20
-2327.4133277686383
 30
0.0
 41
1.0
 10
-646.70592520362868
 20
-2327.3548109702674
 30
0.0
 41
0.9989253167923781
 10
-646.74199462768411
 20
-2327.2993960418762
 30
0.0
 41
1.0
 10
-646.74304875235771
 20
-2327.2977765471151
 30
0.0
 41
1.0
 10
-646.74410287703142
 20
-2327.2961570523535
 30
0.0
 41
1.0
 10
-646.77806405173885
 20
-2327.2439811134864
 30
0.0
 41
0.9986467172836412
 10
-646.81726120437634
 20
-2327.1956150798565
 30
0.0
 41
1.0
 10
-646.81813533307741
 20
-2327.1945364775775
 30
0.0
 41
1.0
 10
-646.81900946177859
 20
-2327.1934578752989
 30
0.0
 41
1.0
 10
-646.85645835701359
 20
-2327.1472490462274
 30
0.0
 41
0.9984001104268293
 10
-646.89888508753097
 20
-2327.1055639388583
 30
0.0
 41
1.0
 10
-646.89947222564001
 20
-2327.1049870639772
 30
0.0
 41
1.0
 10
-646.90005936374894
 20
-2327.1044101890966
 30
0.0
 41
1.0
 10
-646.94131181804801
 20
-2327.0638788314895
 30
0.0
 41
0.9982442159081868
 10
-646.98706791938366
 20
-2327.0285102702292
 30
0.0
 41
1.0
 10
-646.98728271484481
 20
-2327.0283442375867
 30
0.0
 41
1.0
 10
-646.98749751030596
 20
-2327.0281782049437
 30
0.0
 41
1.0
 10
-647.03282402071829
 20
-2326.9931417089697
 30
0.0
 41
0.9982450060835603
 10
-647.0819749997911
 20
-2326.9637099259353
 30
0.0
 41
1.0
 10
-647.131125978863
 20
-2326.9342781429018
 30
0.0
 41
0.9983922639636386
 10
-647.18329228502887
 20
-2326.9105985082469
 30
0.0
 41
1.0
 10
-647.1835191623527
 20
-2326.9104955227658
 30
0.0
 41
1.0
 10
-647.18374603967663
 20
-2326.9103925372847
 30
0.0
 41
1.0
 10
-647.2363661004897
 20
-2326.8865069316685
 30
0.0
 41
0.9986517147149607
 10
-647.29117907335774
 20
-2326.8682058125469
 30
0.0
 41
1.0
 10
-647.2918569947858
 20
-2326.8679794661152
 30
0.0
 41
1.0
 10
-647.29253491621398
 20
-2326.8677531196836
 30
0.0
 41
1.0
 10
-647.34870373193701
 20
-2326.8489993076987
 30
0.0
 41
0.9989435598955522
 10
-647.40635711908851
 20
-2326.8354816054643
 30
0.0
 41
1.0
 10
-647.40743723867058
 20
-2326.8352283552113
 30
0.0
 41
1.0
 10
-647.40851735825254
 20
-2326.8349751049582
 30
0.0
 41
1.0
 10
-647.46833098456739
 20
-2326.8209509022176
 30
0.0
 41
0.999224924124008
 10
-647.52906249346461
 20
-2326.8116755595024
 30
0.0
 41
1.0
 10
-647.5304761817556
 20
-2326.8114596510945
 30
0.0
 41
1.0
 10
-647.53188987004671
 20
-2326.8112437426867
 30
0.0
 41
1.0
 10
-647.59544875552228
 20
-2326.8015365831561
 30
0.0
 41
0.9994396597833829
 10
-647.65951469205561
 20
-2326.7961036608108
 30
0.0
 41
1.0
 10
-647.67865535953717
 20
-2326.7944804930921
 30
0.0
 41
1.0
 10
-647.69779602701874
 20
-2326.792857325373
 30
0.0
 41
1.0
 10
-647.80014329851065
 20
-2326.7841780675899
 30
0.0
 41
0.9987693403120989
 10
-647.90284692209718
 20
-2326.7856811310426
 30
0.0
 41
1.0
 10
-647.91310125632822
 20
-2326.7858312028166
 30
0.0
 41
1.0
 10
-647.92335559055925
 20
-2326.785981274591
 30
0.0
 41
1.0
 10
-648.03291135673487
 20
-2326.7875846188786
 30
0.0
 41
0.9989753644966325
 10
-648.14187335674819
 20
-2326.7990876258036
 30
0.0
 41
1.0
 10
-648.25083535676288
 20
-2326.8105906327287
 30
0.0
 41
0.9983190067305522
 10
-648.35773416772622
 20
-2326.834625624515
 30
0.0
 41
1.0
 10
-648.36663511933466
 20
-2326.836626903078
 30
0.0
 41
1.0
 10
-648.3755360709431
 20
-2326.8386281816411
 30
0.0
 41
1.0
 10
-648.50023678512196
 20
-2326.866665730553
 30
0.0
 41
0.9985539388303033
 10
-648.62120653879936
 20
-2326.9079294065982
 30
0.0
 41
1.0
 10
-648.62355196975977
 20
-2326.9087294504143
 30
0.0
 41
1.0
 10
-648.62589740072008
 20
-2326.9095294942299
 30
0.0
 41
1.0
 10
-648.7515580163207
 20
-2326.9523932579082
 30
0.0
 41
0.9988468746493665
 10
-648.87252835862159
 20
-2327.0071113429708
 30
0.0
 41
1.0
 10
-648.87571118060896
 20
-2327.0085510175304
 30
0.0
 41
1.0
 10
-648.87889400259633
 20
-2327.0099906920896
 30
0.0
 41
1.0
 10
-649.00622998887445
 20
-2327.0675881262719
 30
0.0
 41
0.9991322885918348
 10
-649.12833057293187
 20
-2327.1355834584547
 30
0.0
 41
1.0
 10
-649.1459325839744
 20
-2327.1453856604439
 30
0.0
 41
1.0
 10
-649.16353459501693
 20
-2327.1551878624327
 30
0.0
 41
1.0
 10
-649.26571127607576
 20
-2327.2120879782142
 30
0.0
 41
0.9993860037849227
 10
-649.36365228014927
 20
-2327.276003993803
 30
0.0
 41
1.0
 10
-649.36927059300092
 20
-2327.2796704884977
 30
0.0
 41
1.0
 10
-649.37488890585246
 20
-2327.2833369831919
 30
0.0
 41
1.0
 10
-649.46159328422539
 20
-2327.3399200093927
 30
0.0
 41
0.9998821494953649
 10
-649.54651966003553
 20
-2327.3991382394679
 30
0.0
 41
1.0
 10
-649.63144603584965
 20
-2327.4583564695454
 30
0.0
 41
0.9997976482743551
 10
-649.71392166625424
 20
-2327.5209428775884
 30
0.0
 41
1.0
 10
-649.72855793105805
 20
-2327.5320495673673
 30
0.0
 41
1.0
 10
-649.74319419586175
 20
-2327.5431562571462
 30
0.0
 41
1.0
 10
-649.85494235586987
 20
-2327.6279560447438
 30
0.0
 41
0.9998091630800714
 10
-649.96329263389498
 20
-2327.7170563954428
 30
0.0
 41
1.0
 10
-649.97629838637624
 20
-2327.7277514958923
 30
0.0
 41
1.0
 10
-649.98930413885751
 20
-2327.7384465963414
 30
0.0
 41
1.0
 10
-650.12366592183605
 20
-2327.8489371479318
 30
0.0
 41
0.9995035112317381
 10
-650.25080179959753
 20
-2327.9676709649443
 30
0.0
 41
1.0
 10
-650.26044910998849
 20
-2327.9766807111055
 30
0.0
 41
1.0
 10
-650.27009642037933
 20
-2327.9856904572671
 30
0.0
 41
1.0
 10
-650.39351948314345
 20
-2328.1009568290219
 30
0.0
 41
0.9994630424299096
 10
-650.50912788892697
 20
-2328.2240595722565
 30
0.0
 41
1.0
 10
-650.51281072769893
 20
-2328.2279811517701
 30
0.0
 41
1.0
 10
-650.5164935664709
 20
-2328.2319027312838
 30
0.0
 41
1.0
 10
-650.62473629471208
 20
-2328.3471623154928
 30
0.0
 41
0.9995160693749656
 10
-650.72560232424291
 20
-2328.4689297333643
 30
0.0
 41
1.0
 10
-650.72753604432353
 20
-2328.4712641575725
 30
0.0
 41
1.0
 10
-650.72946976440414
 20
-2328.4735985817802
 30
0.0
 41
1.0
 10
-650.82646835377739
 20
-2328.59069715124
 30
0.0
 41
0.9996561470514407
 10
-650.91719457244074
 20
-2328.7127199136858
 30
0.0
 41
1.0
 10
-650.92335223834289
 20
-2328.7210017027282
 30
0.0
 41
1.0
 10
-650.92950990424492
 20
-2328.7292834917707
 30
0.0
 41
1.0
 10
-651.00792079110408
 20
-2328.8347426761316
 30
0.0
 41
0.9998349055172865
 10
-651.0824480730389
 20
-2328.9429812597982
 30
0.0
 41
1.0
 10
-651.15697535497088
 20
-2329.0512198434617
 30
0.0
 41
0.999972810955947
 10
-651.22989825087961
 20
-2329.1605457690143
 30
0.0
 41
1.0
 10
-651.23121346629216
 20
-2329.1625175385179
 30
0.0
 41
1.0
 10
-651.23252868170471
 20
-2329.164489308022
 30
0.0
 41
1.0
 10
-651.30808200844149
 20
-2329.2777587725868
 30
0.0
 41
0.9999972147301851
 10
-651.38309981881753
 20
-2329.3913836154256
 30
0.0
 41
1.0
 10
-651.38807136143737
 20
-2329.3989137038943
 30
0.0
 41
1.0
 10
-651.3930429040571
 20
-2329.4064437923626
 30
0.0
 41
1.0
 10
-651.478003799676
 20
-2329.5351288121437
 30
0.0
 41
0.9999371979008751
 10
-651.5600591490745
 20
-2329.6656857259118
 30
0.0
 41
1.0
 10
-651.56356803343931
 20
-2329.6712686539813
 30
0.0
 41
1.0
 10
-651.56707691780412
 20
-2329.6768515820513
 30
0.0
 41
1.0
 10
-651.65615003593427
 20
-2329.818574351963
 30
0.0
 41
0.9998272025610434
 10
-651.73989342681546
 20
-2329.9635102287034
 30
0.0
 41
1.0
 10
-651.75510859883912
 20
-2329.9898433431595
 30
0.0
 41
1.0
 10
-651.77032377086289
 20
-2330.0161764576155
 30
0.0
 41
1.0
 10
-651.88449750579264
 20
-2330.2137785632708
 30
0.0
 41
0.9995217214838368
 10
-651.98623719534942
 20
-2330.4180608911352
 30
0.0
 41
1.0
 10
-651.99388075798367
 20
-2330.4334083408366
 30
0.0
 41
1.0
 10
-652.00152432061793
 20
-2330.4487557905381
 30
0.0
 41
1.0
 10
-652.08842961320659
 20
-2330.6232522486175
 30
0.0
 41
0.9998269762607096
 10
-652.16878407948047
 20
-2330.8008605353443
 30
0.0
 41
1.0
 10
-652.24913854575266
 20
-2330.9784688220675
 30
0.0
 41
0.999894474738825
 10
-652.32429934031757
 20
-2331.1583365476977
 30
0.0
 41
1.0
 10
-652.32925300990883
 20
-2331.1701912026156
 30
0.0
 41
1.0
 10
-652.3342066795002
 20
-2331.182045857533
 30
0.0
 41
1.0
 10
-652.4148537400506
 20
-2331.3750427975456
 30
0.0
 41
0.9999506734410674
 10
-652.49165126895628
 20
-2331.5696036024074
 30
0.0
 41
1.0
 10
-652.50625123422458
 20
-2331.606591524207
 30
0.0
 41
1.0
 10
-652.52085119949288
 20
-2331.6435794460062
 30
0.0
 41
1.0
 10
-652.568448797869
 20
-2331.7641644072864
 30
0.0
 41
0.9999912393951984
 10
-652.61503524188242
 20
-2331.8851436099594
 30
0.0
 41
1.0
 10
-652.66162168590893
 20
-2332.0061228126651
 30
0.0
 41
0.9999927113981202
 10
-652.70728298029633
 20
-2332.1274542201495
 30
0.0
 41
1.0
 10
-652.72125141169545
 20
-2332.1645712021518
 30
0.0
 41
1.0
 10
-652.73521984309446
 20
-2332.2016881841546
 30
0.0
 41
1.0
 10
-652.80881800028715
 20
-2332.3972535556627
 30
0.0
 41
0.9999487550947724
 10
-652.87844162525755
 20
-2332.5942689208423
 30
0.0
 41
1.0
 10
-652.90203523519506
 20
-2332.6610322311367
 30
0.0
 41
1.0
 10
-652.92562884513256
 20
-2332.7277955414311
 30
0.0
 41
1.0
 10
-653.02031447949798
 20
-2332.9957293762418
 30
0.0
 41
0.9999808436925812
 10
-653.11167606814161
 20
-2333.2648148075123
 30
0.0
 41
1.0
 10
-653.20303765678591
 20
-2333.5339002387859
 30
0.0
 41
0.9999873932918556
 10
-653.29169236550035
 20
-2333.8038895937875
 30
0.0
 41
1.0
 10
-653.31178472237002
 20
-2333.8650789265416
 30
0.0
 41
1.0
 10
-653.3318770792398
 20
-2333.9262682592957
 30
0.0
 41
1.0
 10
-653.46071650170074
 20
-2334.3186362798269
 30
0.0
 41
0.9999794883030689
 10
-653.58451928665966
 20
-2334.7126224861086
 30
0.0
 41
1.0
 10
-653.59567154608999
 20
-2334.7481130963224
 30
0.0
 41
1.0
 10
-653.60682380552021
 20
-2334.7836037065363
 30
0.0
 41
1.0
 10
-653.74938196942048
 20
-2335.2372764586326
 30
0.0
 41
0.9999982761799675
 10
-653.89025440944238
 20
-2335.6914754807763
 30
0.0
 41
1.0
 10
-655.47839474201498
 20
-2340.7402452117794
 30
0.0
 41
1.0
 10
-657.06653507458759
 20
-2345.7890149427826
 30
0.0
 41
1.0
 10
-658.01528568606398
 20
-2345.7890149427826
 30
0.0
 41
1.0
 10
-658.96403629754036
 20
-2345.7890149427826
 30
0.0
 41
1.0
 10
-655.72575181138723
 20
-2335.4616927428365
 30
0.0
 41
1.0
 10
-652.48746732523398
 20
-2325.1343705428903
 30
0.0
 41
1.0
  0
LWPOLYLINE
  5
57
100
AcDbEntity
  8
0
370
              15
390
0
  6
Continuous
 62
               7
100
AcDbPolyline
 90
      232
 70
             128
 10
-678.19101309906102
 20
-2326.2187133744055
 42
0.0004370800697515
 10
-678.24389027308291
 20
-2326.2873800135967
 10
-678.2831745042605
 20
-2326.3384871265584
 42
0.0030481992175193
 10
-678.41351322139599
 20
-2326.5102088189246
 10
-678.4520248931301
 20
-2326.5615956026909
 42
0.0042058245752071
 10
-678.65600994380122
 20
-2326.8386013477661
 10
-678.70841506630063
 20
-2326.9110341945452
 42
0.0120948898742486
 10
-679.00445898305986
 20
-2327.3417837990905
 10
-679.10065148218553
 20
-2327.4892645343211
 42
0.0141601263948715
 10
-679.40429552910598
 20
-2327.9849338710542
 10
-679.44383279653323
 20
-2328.0537778384883
 42
0.0071131081307321
 10
-679.64910511977041
 20
-2328.4232806373243
 42
0.0068458791001988
 10
-679.84398464661444
 20
-2328.7983722008025
 10
-679.85079650907119
 20
-2328.8119339145242
 42
0.0064120880291269
 10
-680.04893875911569
 20
-2329.2193583894432
 10
-680.0564734446325
 20
-2329.2353702461642
 42
0.0058857236447906
 10
-680.2592288365031
 20
-2329.6797463571966
 10
-680.26740376279815
 20
-2329.6982365108333
 42
0.0053189741895713
 10
-680.47610807546732
 20
-2330.1841999847547
 10
-680.48485588114704
 20
-2330.205181862947
 42
0.0047503650419223
 10
-680.70082960729997
 20
-2330.7373812961623
 10
-680.71009785564593
 20
-2330.760857672265
 42
0.0042071762171522
 10
-680.93464523937291
 20
-2331.3439512663326
 10
-680.94439464172228
 20
-2331.3699174412041
 42
0.003668008648458
 10
-681.17884928503645
 20
-2332.0085528257414
 10
-681.18905706488215
 20
-2332.03700136008
 42
0.003257314262638
 10
-681.43468935084752
 20
-2332.7358540198297
 10
-681.50333987168744
 20
-2332.9353171038806
 42
0.0026133366647412
 10
-681.85178507044748
 20
-2333.9651803875581
 10
-681.91504185795111
 20
-2334.1554112229601
 42
0.0020592950744383
 10
-682.12890492691531
 20
-2334.8075148755643
 10
-682.13195671807625
 20
-2334.8169513639673
 42
0.00256099285326
 10
-682.33377721956424
 20
-2335.4520965863398
 10
-682.33636858669718
 20
-2335.4603989273005
 42
0.0031362356242376
 10
-682.5258593723679
 20
-2336.0811617834597
 10
-682.52799041529238
 20
-2336.0883030896612
 42
0.003722991802865
 10
-682.70479080222162
 20
-2336.6972883916451
 10
-682.70646939142944
 20
-2336.7032352818246
 42
0.0043077623711068
 10
-682.87021019349311
 20
-2337.3030540135887
 42
0.0047654161820734
 10
-683.02303891600661
 20
-2337.9057401024811
 10
-683.05750352484824
 20
-2338.0473018796411
 42
0.0112969368444858
 10
-683.25336788299205
 20
-2338.9389940402662
 10
-683.28137427208844
 20
-2339.081822086363
 42
0.013005676257199
 10
-683.48221151573512
 20
-2340.2687631580075
 10
-683.50275126588201
 20
-2340.4128412714831
 42
0.0138721532144951
 10
-683.60645427042004
 20
-2341.3196707573106
 10
-683.62574975832831
 20
-2341.5431684792402
 42
0.0071254697007287
 10
-683.65909640425048
 20
-2342.0063554880826
 10
-683.6640573784141
 20
-2342.09235948265
 42
0.0028881799200218
 10
-683.67919567170361
 20
-2342.3841011924851
 42
0.0060297297137402
 10
-683.68912787147917
 20
-2342.6760501286017
 10
-683.6901901531462
 20
-2342.7244425005283
 42
0.0229523164143961
 10
-683.68245912536054
 20
-2343.0471973468166
 10
-683.67823335183971
 20
-2343.1076008808395
 42
0.0123673300660034
 10
-683.65915470532184
 20
-2343.3087216060076
 42
0.0128577674474998
 10
-683.62995931491491
 20
-2343.5086194559381
 10
-683.62283344152854
 20
-2343.5499482705318
 42
0.0285717853760635
 10
-683.55833943983237
 20
-2343.8280644218466
 10
-683.5446709161663
 20
-2343.8747191913226
 42
0.0316283099166568
 10
-683.42886033625223
 20
-2344.1937336931483
 10
-683.42581164449666
 20
-2344.2007200654739
 42
0.0338984824241059
 10
-683.27637993352948
 20
-2344.488286029663
 10
-683.27407120415921
 20
-2344.4920770589397
 42
0.0350228718352984
 10
-683.09171091348605
 20
-2344.7491290436155
 10
-683.09082566171173
 20
-2344.7502081213788
 42
0.0347476747525973
 10
-682.87640097447093
 20
-2344.9773931685995
 42
0.0331337701908477
 10
-682.63315764872402
 20
-2345.1735218306776
 10
-682.6320575502084
 20
-2345.1742945338497
 42
0.0305233319081311
 10
-682.36351285463252
 20
-2345.3394227039425
 10
-682.36028281013387
 20
-2345.3411467158039
 42
0.0273744481144745
 10
-682.06772909856409
 20
-2345.4772848596922
 10
-682.06262456342199
 20
-2345.4793284441639
 42
0.0240964406199682
 10
-681.74714748777251
 20
-2345.588312170446
 10
-681.74056415856626
 20
-2345.59023691012
 42
0.0209636179808657
 10
-681.40316400591246
 20
-2345.6737050580523
 10
-681.39553154546502
 20
-2345.6752569710534
 42
0.0181388704691192
 10
-681.03720915346287
 20
-2345.734673064268
 10
-681.02892830508836
 20
-2345.7357392480844
 42
0.015608654758662
 10
-680.65074094089675
 20
-2345.7724754346614
 10
-680.60754568856817
 20
-2345.7753139371407
 42
0.0137148329031045
 10
-680.27987254327365
 20
-2345.7878341923915
 10
-680.23393635330683
 20
-2345.7883286255069
 42
0.0051057823893407
 10
-679.99779076675543
 20
-2345.7884588799161
 42
0.0052256693308803
 10
-679.76169348296378
 20
-2345.7837100554511
 10
-679.69146669922736
 20
-2345.7815630894374
 42
0.0161507179045717
 10
-679.31572962112637
 20
-2345.7579127191111
 10
-679.29571666075299
 20
-2345.7560025238236
 42
0.0101216737833241
 10
-678.88168943927747
 20
-2345.7080095934602
 10
-678.84763614983558
 20
-2345.7033618966484
 42
0.0245291776394556
 10
-678.37084649428448
 20
-2345.6142868185721
 10
-678.28602317877198
 20
-2345.5940908982293
 42
0.0143509212549842
 10
-677.92939207482084
 20
-2345.4982862644474
 42
0.0156557857039998
 10
-677.57917601008512
 20
-2345.3812750486254
 10
-677.57167479559894
 20
-2345.3785048868745
 42
0.0170137333634249
 10
-677.21507879991873
 20
-2345.2328472720037
 10
-677.20797487751008
 20
-2345.2296594364398
 42
0.0183105364408307
 10
-676.84862520934371
 20
-2345.0523243946154
 10
-676.84167844470505
 20
-2345.0485739597434
 42
0.0194899958155194
 10
-676.48319770371893
 20
-2344.8365949778513
 10
-676.47618382438441
 20
-2344.8320696355577
 42
0.0204869852944833
 10
-676.12216952229278
 20
-2344.5825496204739
 10
-676.11490391370342
 20
-2344.5769695551235
 42
0.0212516938561615
 10
-675.76891398259465
 20
-2344.2870655582283
 10
-675.72239728851844
 20
-2344.2445982481336
 42
0.0215248918257536
 10
-675.46237111963205
 20
-2343.9858339691405
 10
-675.41734138525237
 20
-2343.9369898477917
 42
0.0114578554954297
 10
-675.26254923157421
 20
-2343.7611669143325
 10
-675.2513546955937
 20
-2343.7478481507947
 42
0.0061531305131595
 10
-675.12488004959312
 20
-2343.5935586174814
 42
0.0006325587118216
 10
-675.00050156543728
 20
-2343.4375552418005
 10
-674.97746143038989
 20
-2343.4085817211462
 42
0.0041897761562074
 10
-674.80900602640975
 20
-2343.1930623450748
 10
-674.75054390652497
 20
-2343.1169609980993
 42
0.0092993880042291
 10
-674.47393197930194
 20
-2342.7426822342163
 10
-674.39153748610363
 20
-2342.6267452306488
 42
0.0159321727087918
 10
-674.04493100345996
 20
-2342.1045710098906
 10
-674.0005748680735
 20
-2342.0328914456445
 42
0.0085547317015987
 10
-673.76606310274519
 20
-2341.6390164964159
 42
0.0084601156885809
 10
-673.54508692530283
 20
-2341.2373896473837
 10
-673.53697145147271
 20
-2341.2220299651108
 42
0.0081429654281643
 10
-673.31372218103729
 20
-2340.7823084525739
 10
-673.30486201685119
 20
-2340.7641296105503
 42
0.0076574581330998
 10
-673.07845450628338
 20
-2340.2809467352949
 10
-673.06897486556079
 20
-2340.2598822569944
 42
0.0070682724202643
 10
-672.83852995775101
 20
-2339.7278449522064
 10
-672.8285396737723
 20
-2339.7038557632018
 42
0.0064559514446673
 10
-672.59320646559138
 20
-2339.1175434966844
 10
-672.58279710742568
 20
-2339.0906085712404
 42
0.0058311413906874
 10
-672.34175037066268
 20
-2338.4445764768561
 10
-672.33099529327535
 20
-2338.414692135696
 42
0.0052312425819123
 10
-672.08341401523376
 20
-2337.7034897218596
 10
-672.07237017885473
 20
-2337.6706630097924
 42
0.0046680544796425
 10
-671.81744175112146
 20
-2336.8888366940409
 10
-671.77544960107309
 20
-2336.7558534567338
 42
0.0041666856444474
 10
-671.57216358868163
 20
-2336.0928846817396
 10
-671.53450114802843
 20
-2335.9663035741219
 42
0.0015170975148493
 10
-671.41331456960484
 20
-2335.5544352225925
 42
-0.0004887993112201
 10
-671.29297479650188
 20
-2335.1423168106194
 10
-671.21649753898669
 20
-2334.8813594246094
 42
0.0002583378930268
 10
-670.94328296895549
 20
-2333.9473027215436
 10
-670.86151011936045
 20
-2333.6672034618973
 42
0.0006636169668074
 10
-670.66764235933442
 20
-2332.99985053826
 10
-670.66254570498506
 20
-2332.982218955372
 42
0.0010589131326145
 10
-670.48109700407076
 20
-2332.3494876123314
 10
-670.47611493358579
 20
-2332.3319747052956
 42
0.0015655524459444
 10
-670.30784472640744
 20
-2331.7333580261102
 10
-670.30301452599679
 20
-2331.7159658671899
 42
0.0021640440475074
 10
-670.14872455400655
 20
-2331.1509388491559
 10
-670.14409033457252
 20
-2331.1336741191467
 42
0.0028763871851688
 10
-670.00457461652354
 20
-2330.6017061683151
 10
-670.00018875235696
 20
-2330.584582190163
 42
0.0037310511943966
 10
-669.87623206051944
 20
-2330.0851345961369
 10
-669.87215684022954
 20
-2330.0681743248879
 42
0.0047652197766352
 10
-669.76453293972202
 20
-2329.6006965565862
 10
-669.76084234039956
 20
-2329.5839370014401
 42
0.0060276699305776
 10
-669.67031224124503
 20
-2329.147861206292
 10
-669.66709355095634
 20
-2329.1313599919849
 42
0.0075824337761512
 10
-669.59440424154036
 20
-2328.7260928275568
 10
-669.59175886415926
 20
-2328.7099378801013
 42
0.009513062461525
 10
-669.53764362852894
 20
-2328.3348485270344
 10
-669.5306574046466
 20
-2328.2789149689202
 42
0.0121054653226283
 10
-669.50406607406842
 20
-2328.0140191404444
 10
-669.50319958430862
 20
-2328.0026156975123
 42
0.0069050827382831
 10
-669.48811076627112
 20
-2327.7596744706707
 10
-669.48697546660242
 20
-2327.7361482136234
 42
0.0169063976693774
 10
-669.4841481876224
 20
-2327.5399554863252
 10
-669.48531883915382
 20
-2327.4796197249643
 42
0.0052007732929127
 10
-669.48757228774662
 20
-2327.4040263348238
 42
0.0054038123284473
 10
-669.50753579958416
 20
-2327.2840080388214
 10
-669.51262165545586
 20
-2327.2553495522329
 42
0.0112050460453116
 10
-669.54800601751572
 20
-2327.0790231138876
 10
-669.56583097955513
 20
-2326.999481527173
 42
0.0240764468021972
 10
-669.65672834570205
 20
-2326.6692444916698
 10
-669.67528710851423
 20
-2326.6126243266795
 42
0.0256812331837724
 10
-669.81865002870427
 20
-2326.2409001204205
 10
-669.82405945452535
 20
-2326.2287687854318
 42
0.0268360501213656
 10
-669.99348669537551
 20
-2325.89777565141
 10
-669.99902310301229
 20
-2325.888255981095
 42
0.0274670231740636
 10
-670.19122407942382
 20
-2325.5959686061806
 10
-670.19660537938728
 20
-2325.5886894586379
 42
0.0275035967095227
 10
-670.40817825894828
 20
-2325.333173568335
 10
-670.41324775991677
 20
-2325.3276944807026
 42
0.0269557673524897
 10
-670.64065130335439
 20
-2325.1070521947422
 10
-670.645394361135
 20
-2325.1029222402831
 42
0.0259124802207243
 10
-670.88494919256777
 20
-2324.9152317131293
 10
-670.88948003775442
 20
-2324.9120462107958
 42
0.024516215300412
 10
-671.13739639084451
 20
-2324.7553132016883
 10
-671.14192293717088
 20
-2324.7527530044863
 42
0.0229282588837037
 10
-671.39434249399608
 20
-2324.6248848119885
 10
-671.39912298782758
 20
-2324.622732512229
 42
0.0212984135685506
 10
-671.65216094029461
 20
-2324.5215335949842
 10
-671.65746522526581
 20
-2324.5196700322235
 42
0.0197555462345047
 10
-671.90724356298711
 20
-2324.4428546142599
 42
0.0183511896787824
 10
-672.16217228844641
 20
-2324.385271707295
 10
-672.2485374851716
 20
-2324.3690689169093
 42
0.0338057877138968
 10
-672.53404483443353
 20
-2324.3352605117689
 10
-672.62505023949655
 20
-2324.3306808565062
 42
0.0091990524521647
 10
-672.73089734810947
 20
-2324.3273050005855
 42
0.0028333980787964
 10
-672.83681126404326
 20
-2324.326476893069
 10
-672.83772671715178
 20
-2324.3264749232449
 42
-0.0023619827805803
 10
-672.94547273226237
 20
-2324.325734082166
 10
-672.98187790243355
 20
-2324.3253117757031
 42
0.0008824598483883
 10
-673.16243389239196
 20
-2324.3235359974638
 10
-673.20629532468934
 20
-2324.3231820359392
 42
0.0038132665759703
 10
-673.47457822054491
 20
-2324.3230630998723
 10
-673.49111187536164
 20
-2324.3231818660161
 42
0.0060665569341185
 10
-673.79239236694173
 20
-2324.3290021654366
 10
-673.80664269897829
 20
-2324.3294504734044
 42
0.0080356953335875
 10
-674.13610141534161
 20
-2324.3451181954729
 10
-674.14817143040477
 20
-2324.345886778412
 42
0.0098996399101065
 10
-674.50093451503744
 20
-2324.3753720076083
 10
-674.51098022443034
 20
-2324.3764123038081
 42
0.0117740981371177
 10
-674.88213708277465
 20
-2324.4237045513373
 10
-674.89035977926164
 20
-2324.4249496679085
 42
0.0137435215136227
 10
-675.27494859875264
 20
-2324.4940466414714
 10
-675.28160563787014
 20
-2324.4954325377039
 42
0.0158359869380607
 10
-675.67460273166409
 20
-2324.5903246261823
 10
-675.68001591853977
 20
-2324.5918145670553
 42
0.0180554124026076
 10
-676.07633096315692
 20
-2324.7164525832954
 10
-676.08088775123554
 20
-2324.7180686195602
 42
0.0203657431288337
 10
-676.47536526904673
 20
-2324.8763289610761
 10
-676.47950880805422
 20
-2324.8781905825181
 42
0.0226819684657481
 10
-676.86694486425745
 20
-2325.0738331611888
 10
-676.871144655276
 20
-2325.0761987531087
 42
0.0248634984599764
 10
-677.24632659645772
 20
-2325.3128253990562
 10
-677.29452152524061
 20
-2325.3466824408815
 42
0.0267044190883695
 10
-677.5688142221577
 20
-2325.5621228167497
 42
0.0139303002210362
 10
-677.8249813880991
 20
-2325.7993616576646
 10
-677.82983477381742
 20
-2325.8041143205219
 42
0.0283460963439
 10
-678.0739073680445
 20
-2326.0718449809669
 10
-678.11357587320117
 20
-2326.1206465584401
 42
0.0070695364826481
 10
-678.19101309906102
 20
-2326.2187133744055
 42
0.0070695364826481
  0
LWPOLYLINE
  5
58
100
AcDbEntity
  8
0
370
              15
390
0
  6
Continuous
 62
               7
100
AcDbPolyline
 90
      226
 70
             128
 10
-681.71983353630742
 20
-2341.9403021805897
 42
-0.0026277636622848
 10
-681.71991142010756
 20
-2341.8735302548694
 10
-681.71969406187543
 20
-2341.8203750374032
 42
-0.0088680296720494
 10
-681.71591744558248
 20
-2341.6473592550005
 10
-681.71357108646998
 20
-2341.5880792295466
 42
-0.007738170562041
 10
-681.69752497570687
 20
-2341.2968187337492
 10
-681.69665706453372
 20
-2341.2845305000633
 42
-0.0068872530534787
 10
-681.67002498478632
 20
-2340.9693087480014
 10
-681.66882076059949
 20
-2340.9570677689753
 42
-0.0062130021493329
 10
-681.63122704377156
 20
-2340.6181980777355
 10
-681.62972314023659
 20
-2340.6060242058206
 42
-0.0056726929671088
 10
-681.58080128073448
 20
-2340.2438289837087
 10
-681.57902783508985
 20
-2340.2317351834618
 42
-0.005234188448745
 10
-681.51841724882991
 20
-2339.8465419279437
 10
-681.51639926005328
 20
-2339.8345369979515
 42
-0.0049768450170752
 10
-681.44366057862692
 20
-2339.4266924305193
 10
-681.4194115639051
 20
-2339.2981444475126
 42
-0.0089029805627293
 10
-681.28233071211071
 20
-2338.6363690000921
 10
-681.24958533679182
 20
-2338.4913375695669
 42
-0.0080318257096499
 10
-681.0200367224511
 20
-2337.5456279377131
 10
-681.00805179600286
 20
-2337.4994973025232
 42
-0.0074265721320039
 10
-680.72404025715207
 20
-2336.46943272414
 10
-680.70416071403758
 20
-2336.401298663558
 42
-0.0069711922702713
 10
-680.37685613552958
 20
-2335.3350309232255
 10
-680.31690418842663
 20
-2335.1490095648624
 42
-0.0052070422894877
 10
-680.08747896316481
 20
-2334.4617374878235
 10
-680.07019777100015
 20
-2334.4117102072282
 42
-0.0009167004448772
 10
-679.86710588370306
 20
-2333.8272543590519
 42
-0.0025162726944207
 10
-679.66000825344338
 20
-2333.2442130948975
 10
-679.62278364163353
 20
-2333.1410635489801
 42
-0.0028212681458591
 10
-679.37460772267195
 20
-2332.4653329168132
 10
-679.36477695992141
 20
-2332.439025472137
 42
-0.0031964916826473
 10
-679.12848470225902
 20
-2331.8188207100093
 10
-679.11885024826233
 20
-2331.7940107198719
 42
-0.0036281836449345
 10
-678.89374428715882
 20
-2331.226570038973
 10
-678.88430587699963
 20
-2331.2032726074658
 42
-0.0041269166832396
 10
-678.66968818034218
 20
-2330.685831711492
 10
-678.63705522392058
 20
-2330.608953265129
 42
-0.0047472213058976
 10
-678.48001041836778
 20
-2330.2485317972478
 10
-678.47311633716163
 20
-2330.2331111999201
 42
-0.0025651659995206
 10
-678.32475830330941
 20
-2329.9057831441669
 42
-0.0057144634994987
 10
-678.17100860953951
 20
-2329.5809734708077
 10
-678.14297790413787
 20
-2329.5234650884126
 42
-0.0065388068370326
 10
-677.95951087639708
 20
-2329.1592325917454
 10
-677.95105242061777
 20
-2329.1429730123741
 42
-0.0074510843020661
 10
-677.77487017474073
 20
-2328.8162847312533
 10
-677.76669050420912
 20
-2328.8016439539833
 42
-0.0084648979857649
 10
-677.5970566511096
 20
-2328.509734943023
 10
-677.58920052462076
 20
-2328.4967279513708
 42
-0.0095638542799853
 10
-677.42536507702732
 20
-2328.2368390793936
 10
-677.41789013335665
 20
-2328.2254697179396
 42
-0.0107191626812776
 10
-677.25908855296802
 20
-2327.9948584833942
 10
-677.2520718192352
 20
-2327.9851223910268
 42
-0.0118458573897
 10
-677.09752372072444
 20
-2327.7810501957192
 42
-0.0129184518201513
 10
-676.93307109712214
 20
-2327.5848896795478
 10
-676.9029263247578
 20
-2327.5507636006469
 42
-0.0217742579636636
 10
-676.72631400242449
 20
-2327.3675568303988
 10
-676.71556845797409
 20
-2327.3573399972056
 42
-0.0097266568653688
 10
-676.54951083910828
 20
-2327.2054924227587
 42
-0.0187720905720302
 10
-676.37516326321759
 20
-2327.0634235693688
 10
-676.34445727254933
 20
-2327.0402644869769
 42
-0.0179428207523098
 10
-676.11203655254849
 20
-2326.8777123098616
 10
-676.10838422562779
 20
-2326.8753483749706
 42
-0.0170047877698456
 10
-675.87262058810234
 20
-2326.7338878608225
 10
-675.8688375993604
 20
-2326.731789555789
 42
-0.0160190788369733
 10
-675.63192905172048
 20
-2326.6101382537981
 42
-0.0151102861488605
 10
-675.38789726926632
 20
-2326.5034554777403
 10
-675.33551076706203
 20
-2326.482415344849
 42
-0.0271945441889495
 10
-674.97684820800873
 20
-2326.3605505341438
 10
-674.90778340752149
 20
-2326.3412009928779
 42
-0.0237596594021286
 10
-674.49198656049316
 20
-2326.2457502808948
 10
-674.42392370676669
 20
-2326.2334955927686
 42
-0.0213715440561362
 10
-674.13804877531743
 20
-2326.1945485612582
 10
-674.07790160910872
 20
-2326.1889588465583
 42
-0.0101465655825231
 10
-673.91040907710533
 20
-2326.1768153032936
 10
-673.90106869091812
 20
-2326.176328388297
 42
-0.0100375910901674
 10
-673.75191459034454
 20
-2326.1715525703707
 10
-673.74165532065535
 20
-2326.1714301313564
 42
-0.0103625633379505
 10
-673.61294732600936
 20
-2326.1725615648829
 10
-673.59068167474504
 20
-2326.1732189233476
 42
-0.0115689250250029
 10
-673.50663093721448
 20
-2326.1776484295933
 42
-0.0072438037420732
 10
-673.42279265776347
 20
-2326.1852376293436
 10
-673.40599214830252
 20
-2326.1870041720667
 42
-0.0217917313131465
 10
-673.28942238498803
 20
-2326.2044240647879
 10
-673.22382229441575
 20
-2326.2171706732033
 42
-0.0332943556750319
 10
-673.01943012939387
 20
-2326.271210964509
 10
-672.98925756084532
 20
-2326.2813790416271
 42
-0.0184824084810359
 10
-672.85075250437831
 20
-2326.333830057014
 42
-0.0198002050697226
 10
-672.71667816388458
 20
-2326.3967141172106
 10
-672.71479152650204
 20
-2326.3976919040933
 42
-0.0212242342985635
 10
-672.58265258410722
 20
-2326.4734546428822
 10
-672.58083728855672
 20
-2326.4746004450949
 42
-0.0226090605787304
 10
-672.45233338733919
 20
-2326.5640800886563
 10
-672.4504889455975
 20
-2326.5654923416469
 42
-0.0238457052226801
 10
-672.32730686430511
 20
-2326.6694882375086
 10
-672.32535413574556
 20
-2326.6713031152754
 42
-0.024816056414828
 10
-672.20915262844426
 20
-2326.7905777164847
 10
-672.2070489950429
 20
-2326.7929630501885
 42
-0.0254109591451844
 10
-672.099443777175
 20
-2326.9282514361553
 10
-672.09719575526287
 20
-2326.9313929845534
 42
-0.0255528488292715
 10
-671.9997490764656
 20
-2327.0834200387876
 10
-671.99741797654951
 20
-2327.0875016503951
 42
-0.0252146793212022
 10
-671.91163695054172
 20
-2327.2570038963891
 10
-671.90933471138283
 20
-2327.2621859783048
 42
-0.0244265635942584
 10
-671.83668001762123
 20
-2327.4499325503516
 10
-671.82743361615303
 20
-2327.4777979686887
 42
-0.0231319612890322
 10
-671.78151083716091
 20
-2327.6410990154909
 42
-0.0112130424362951
 10
-671.74687481462342
 20
-2327.8073026156749
 10
-671.74567228951014
 20
-2327.8137992025668
 42
-0.0210527881230862
 10
-671.71998581413948
 20
-2327.9948548480074
 10
-671.71647521931754
 20
-2328.0302603965556
 42
-0.0190029892421068
 10
-671.70103374577297
 20
-2328.2837962428271
 10
-671.70022376932889
 20
-2328.3192718571972
 42
-0.0137974553658539
 10
-671.70177262216464
 20
-2328.6443032639345
 10
-671.70261807711995
 20
-2328.6704220085226
 42
-0.0081336634211471
 10
-671.71747741234253
 20
-2328.9757694761224
 42
-0.0073526923574311
 10
-671.74178594571697
 20
-2329.2805177204054
 10
-671.74304736949989
 20
-2329.2938543950736
 42
-0.0066886138688031
 10
-671.77878295554672
 20
-2329.6244404385729
 10
-671.78044004501635
 20
-2329.6380620575619
 42
-0.0061359187361183
 10
-671.82829064706709
 20
-2329.9948260376609
 10
-671.8303281481401
 20
-2330.0087208404912
 42
-0.0056698610066056
 10
-671.8909784789073
 20
-2330.3919994093308
 10
-671.89338391223009
 20
-2330.4061585285599
 42
-0.005272107726977
 10
-671.96751611302955
 20
-2330.8162858682367
 10
-671.9702792618715
 20
-2330.8307025036238
 42
-0.004928927218343
 10
-672.05857337997145
 20
-2331.2680110147458
 10
-672.06168587465413
 20
-2331.2826798675624
 42
-0.0047415956709391
 10
-672.1649238661862
 20
-2331.747476624972
 10
-672.19969207654617
 20
-2331.8972837203564
 42
-0.0084404470899284
 10
-672.38970852011903
 20
-2332.6575077448911
 10
-672.39583520810368
 20
-2332.6803718690408
 42
-0.0039635940254963
 10
-672.61728889238657
 20
-2333.4813607332844
 10
-672.63066568756722
 20
-2333.5282923498798
 42
-0.0072475040834015
 10
-672.89811257543158
 20
-2334.4175120662744
 10
-672.968324902257
 20
-2334.6392524162402
 42
-0.0051345458830248
 10
-673.25508427431657
 20
-2335.5135776040534
 10
-673.27661054108603
 20
-2335.5770038711889
 42
-0.0019150016599352
 10
-673.53214394795077
 20
-2336.3205529914094
 10
-673.53861155234188
 20
-2336.3391404563163
 42
-0.0021524362750947
 10
-673.78708960341078
 20
-2337.043466278039
 10
-673.79630002410659
 20
-2337.0692198563383
 42
-0.002433128681836
 10
-674.03255528314321
 20
-2337.7198191644584
 10
-674.04160323569442
 20
-2337.7443624708148
 42
-0.002744972178802
 10
-674.2662178065292
 20
-2338.3434923497371
 10
-674.27510781391516
 20
-2338.366814939573
 42
-0.0031083229767664
 10
-674.48865030053139
 20
-2338.9167389771692
 10
-674.49738643221065
 20
-2338.9388286930362
 42
-0.003531134328769
 10
-674.70042761779882
 20
-2339.4418118187568
 10
-674.70901295694546
 20
-2339.4626545422648
 42
-0.0040245640949619
 10
-674.90212476074089
 20
-2339.9209638648599
 10
-674.91056087434436
 20
-2339.9405432329331
 42
-0.0046015135852457
 10
-675.09431716750771
 20
-2340.3564482625743
 10
-675.10260334533587
 20
-2340.3747454020258
 42
-0.0052768638273274
 10
-675.27758086429162
 20
-2340.7505182862965
 10
-675.28571307491791
 20
-2340.7675116248383
 42
-0.0060672675641047
 10
-675.45249268768453
 20
-2341.1054272479537
 10
-675.4604621681649
 20
-2341.1210925069486
 42
-0.00699046488762
 10
-675.61963056216746
 20
-2341.4234283136147
 10
-675.62742196177885
 20
-2341.4377388628432
 42
-0.0080637022757876
 10
-675.77957382212412
 20
-2341.7067741659953
 10
-675.78716285475673
 20
-2341.7197020315984
 42
-0.0093006455661035
 10
-675.93290353128691
 20
-2341.957716430099
 10
-675.94025419803074
 20
-2341.9692343992724
 42
-0.0107060778049649
 10
-676.08020274146907
 20
-2342.1785047166513
 10
-676.08726450974973
 20
-2342.1885902592189
 42
-0.0122723111414435
 10
-676.22205822794672
 20
-2342.3713835887065
 10
-676.22238445150185
 20
-2342.3718039765176
 42
-0.0141836319626042
 10
-676.36596605447494
 20
-2342.5463737343453
 10
-676.37291381012585
 20
-2342.554348734609
 42
-0.0175957477205827
 10
-676.51281997816159
 20
-2342.7039696230149
 42
-0.0080466359674179
 10
-676.66028374319319
 20
-2342.8462921511673
 10
-676.70631828770922
 20
-2342.8893125892573
 42
-0.0269600260400492
 10
-676.95959853369038
 20
-2343.1016358477655
 10
-677.02616566998449
 20
-2343.1515872623868
 42
-0.017836283976978
 10
-677.266110159645
 20
-2343.3186051886428
 10
-677.27335513064736
 20
-2343.3232737008489
 42
-0.0174650732638808
 10
-677.50969132808677
 20
-2343.4641346658068
 42
-0.0169240130175236
 10
-677.75515757393941
 20
-2343.5884269255821
 10
-677.8011437295022
 20
-2343.6097888811514
 42
-0.0318883036832975
 10
-678.15149458512258
 20
-2343.7461271906618
 10
-678.21986012028663
 20
-2343.7678278111371
 42
-0.028443590990658
 10
-678.595910246578
 20
-2343.8640452466116
 10
-678.63106840707678
 20
-2343.87093884244
 42
-0.0243909341019872
 10
-678.94451186799552
 20
-2343.9166598734701
 10
-678.99479259476402
 20
-2343.9215054203714
 42
-0.0196639292938299
 10
-679.21038817229396
 20
-2343.9337537058855
 10
-679.26221224344727
 20
-2343.9346569666222
 42
-0.010050151067306
 10
-679.37463552512168
 20
-2343.9343565682693
 10
-679.40629538650478
 20
-2343.933635496383
 42
-0.0019752031133876
 10
-679.45538772314706
 20
-2343.9323233361738
 10
-679.45814802637597
 20
-2343.9322386443473
 42
0.0065378752019141
 10
-679.5017246011239
 20
-2343.9314717531329
 42
-0.0167974694740938
 10
-679.54525542404929
 20
-2343.9298118546071
 10
-679.5493347633178
 20
-2343.9295188437118
 42
-0.0081283276325199
 10
-679.60089456103401
 20
-2343.9249718500764
 10
-679.61263413493498
 20
-2343.9237439324957
 42
-0.0126703440196153
 10
-679.68735243072138
 20
-2343.9140091414251
 10
-679.71014029840512
 20
-2343.9104508855089
 42
-0.0117852088442249
 10
-679.8296792842292
 20
-2343.8888878903535
 10
-679.88505973600058
 20
-2343.8775443501172
 42
-0.0251774592306261
 10
-680.11190377500748
 20
-2343.8190463406841
 10
-680.15662296486539
 20
-2343.8050795213467
 42
-0.0146525199890965
 10
-680.34301595239799
 20
-2343.7408129941505
 42
-0.0166929435872507
 10
-680.52499360852153
 20
-2343.6650058610976
 10
-680.52965023979777
 20
-2343.6628809604822
 42
-0.0191684358431467
 10
-680.71483387104388
 20
-2343.5696448766944
 10
-680.71816645680406
 20
-2343.5678036291392
 42
-0.0221181781806352
 10
-680.90147676071092
 20
-2343.4556701307652
 10
-680.90382656471468
 20
-2343.4540858327773
 42
-0.0254984685390132
 10
-681.0801167151003
 20
-2343.3216746828075
 10
-681.10259886280471
 20
-2343.302922373869
 42
-0.0292492648803698
 10
-681.22736780164496
 20
-2343.1858295742281
 42
-0.0159048957499792
 10
-681.34120779909438
 20
-2343.0578095826295
 10
-681.34252658967443
 20
-2343.0562279696087
 42
-0.0343813379564731
 10
-681.44516385129862
 20
-2342.9143566438424
 10
-681.47665538266028
 20
-2342.8638532517471
 42
-0.0369117275705749
 10
-681.56254788455874
 20
-2342.7003760107973
 42
-0.0191751379925904
 10
-681.62974127011501
 20
-2342.5279714047933
 10
-681.63150459387521
 20
-2342.5228780601165
 42
-0.0378178042214276
 10
-681.68129931265992
 20
-2342.3339372840328
 10
-681.68729460838972
 20
-2342.3013766658382
 42
-0.0184846046471927
 10
-681.70801180768422
 20
-2342.159623845293
 42
-0.0179866351324333
 10
-681.71834481275778
 20
-2342.0167330322142
 10
-681.71840125520362
 20
-2342.0151753455993
 42
-0.0085497186138544
 10
-681.71983353630742
 20
-2341.9403021805897
 42
-0.0085497186138544
  0
ENDBLK
  5
59
100
AcDbEntity
  8
template
390
0
100
AcDbBlockEnd
  0
BLOCK
  5
5A
100
AcDbEntity
  8
notes
390
0
100
AcDbBlockBegin
  2
*D3
 70
               1
 10
0.0
 20
0.0
 30
0.0
  3
*D3
  1

  0
LINE
  5
5B
100
AcDbEntity
  8
0
370
              -2
390
0
  6
Continuous
 62
               0
100
AcDbLine
 10
-804.32808964001651
 20
672.68000776540441
 30
0.0
 11
-804.32808964001651
 21
942.686000368946
 31
0.0
  0
LINE
  5
5C
100
AcDbEntity
  8
0
370
              -2
390
0
  6
Continuous
 62
               0
100
AcDbLine
 10
-224.32808964002015
 20
672.68000776540441
 30
0.0
 11
-224.32808964002015
 21
942.686000368946
 31
0.0
  0
LINE
  5
5D
100
AcDbEntity
  8
0
370
              -2
390
0
  6
Continuous
 62
               0
100
AcDbLine
 10
-804.32808964001651
 20
942.686000368946
 30
0.0
 11
-224.32808964002015
 21
942.686000368946
 31
0.0
  0
CIRCLE
  5
5E
102
{ACAD_REACTORS
330
5F
102
}
100
AcDbEntity
  8
0
370
              -2
390
0
  6
Continuous
 62
               0
100
AcDbCircle
 10
-804.32808964001651
 20
942.686000368946
 30
0.0
 40
1.9998779296875
  0
HATCH
  5
5F
100
AcDbEntity
  8
0
370
              -2
390
0
  6
Continuous
 62
               0
100
AcDbHatch
 10
0.0
 20
0.0
 30
0.0
210
0.0
220
0.0
230
1.0
  2
SOLID
 70
               1
 71
               1
 91
        1
 92
        1
 93
        1
 72
               2
 10
-804.32808964001651
 20
942.686000368946
 40
1.9998779296875
 50
0.0
 51
360.0
 73
               0
 97
        1
330
5E
 75
               0
 76
               1
 98
        1
 10
0.0
 20
0.0
  0
CIRCLE
  5
60
102
{ACAD_REACTORS
330
61
102
}
100
AcDbEntity
  8
0
370
              -2
390
0
  6
Continuous
 62
               0
100
AcDbCircle
 10
-224.32808964002015
 20
942.686000368946
 30
0.0
 40
1.9998779296875
  0
HATCH
  5
61
100
AcDbEntity
  8
0
370
              -2
390
0
  6
Continuous
 62
               0
100
AcDbHatch
 10
0.0
 20
0.0
 30
0.0
210
0.0
220
0.0
230
1.0
  2
SOLID
 70
               1
 71
               1
 91
        1
 92
        1
 93
        1
 72
               2
 10
-224.32808964002015
 20
942.686000368946
 40
1.9998779296875
 50
0.0
 51
360.0
 73
               0
 97
        1
330
60
 75
               0
 76
               1
 98
        1
 10
0.0
 20
0.0
  0
MTEXT
  5
62
100
AcDbEntity
  8
0
390
0
 62
               0
100
AcDbMText
 10
-538.14059132219381
 20
976.56361755644605
 30
0.0
 40
24.432617187500004
 41
0.0
 71
               1
 72
               1
  1
580
  7
ＭＳ ゴシック
 73
               1
 44
0.7828267384257843
  0
POINT
  5
63
100
AcDbEntity
  8
Defpoints
370
               0
390
0
 62
               0
100
AcDbPoint
 10
-224.32808964002015
 20
647.68000776540441
 30
0.0
  0
POINT
  5
64
100
AcDbEntity
  8
Defpoints
370
               0
390
0
 62
               0
100
AcDbPoint
 10
-804.32808964001651
 20
647.68000776540441
 30
0.0
  0
POINT
  5
65
100
AcDbEntity
  8
Defpoints
370
               0
390
0
 62
               0
100
AcDbPoint
 10
-804.32808964001651
 20
942.686000368946
 30
0.0
  0
ENDBLK
  5
66
100
AcDbEntity
  8
notes
390
0
100
AcDbBlockEnd
  0
BLOCK
  5
67
100
AcDbEntity
  8
notes
390
0
100
AcDbBlockBegin
  2
*D4
 70
               1
 10
0.0
 20
0.0
 30
0.0
  3
*D4
  1

  0
LINE
  5
68
100
AcDbEntity
  8
0
370
              -2
390
0
  6
Continuous
 62
               0
100
AcDbLine
 10
-489.32808964002015
 20
842.686000368946
 30
0.0
 11
-124.32808964002015
 21
842.686000368946
 31
0.0
  0
LINE
  5
69
100
AcDbEntity
  8
0
370
              -2
390
0
  6
Continuous
 62
               0
100
AcDbLine
 10
-489.32808964002015
 20
452.67401516186283
 30
0.0
 11
-124.32808964002015
 21
452.67401516186283
 31
0.0
  0
LINE
  5
6A
100
AcDbEntity
  8
0
370
              -2
390
0
  6
Continuous
 62
               0
100
AcDbLine
 10
-124.32808964002015
 20
842.686000368946
 30
0.0
 11
-124.32808964002015
 21
452.67401516186283
 31
0.0
  0
CIRCLE
  5
6B
102
{ACAD_REACTORS
330
6C
102
}
100
AcDbEntity
  8
0
370
              -2
390
0
  6
Continuous
 62
               0
100
AcDbCircle
 10
-124.32808964002015
 20
842.686000368946
 30
0.0
 40
1.9998779296875
  0
HATCH
  5
6C
100
AcDbEntity
  8
0
370
              -2
390
0
  6
Continuous
 62
               0
100
AcDbHatch
 10
0.0
 20
0.0
 30
0.0
210
0.0
220
0.0
230
1.0
  2
SOLID
 70
               1
 71
               1
 91
        1
 92
        1
 93
        1
 72
               2
 10
-124.32808964002015
 20
842.686000368946
 40
1.9998779296875
 50
0.0
 51
360.0
 73
               0
 97
        1
330
6B
 75
               0
 76
               1
 98
        1
 10
0.0
 20
0.0
  0
CIRCLE
  5
6D
102
{ACAD_REACTORS
330
6E
102
}
100
AcDbEntity
  8
0
370
              -2
390
0
  6
Continuous
 62
               0
100
AcDbCircle
 10
-124.32808964002015
 20
452.67401516186283
 30
0.0
 40
1.9998779296875
  0
HATCH
  5
6E
100
AcDbEntity
  8
0
370
              -2
390
0
  6
Continuous
 62
               0
100
AcDbHatch
 10
0.0
 20
0.0
 30
0.0
210
0.0
220
0.0
230
1.0
  2
SOLID
 70
               1
 71
               1
 91
        1
 92
        1
 93
        1
 72
               2
 10
-124.32808964002015
 20
452.67401516186283
 40
1.9998779296875
 50
0.0
 51
360.0
 73
               0
 97
        1
330
6D
 75
               0
 76
               1
 98
        1
 10
0.0
 20
0.0
  0
MTEXT
  5
6F
100
AcDbEntity
  8
0
390
0
 62
               0
100
AcDbMText
 10
-158.20570682752009
 20
623.86750608322882
 30
0.0
 40
24.432617187500004
 41
0.0
 71
               1
 72
               1
  1
390
  7
ＭＳ ゴシック
 11
0.0
 21
1.0
 31
0.0
 73
               1
 44
0.7828267384257843
  0
POINT
  5
70
100
AcDbEntity
  8
Defpoints
370
               0
390
0
 62
               0
100
AcDbPoint
 10
-514.32808964002015
 20
452.67401516186283
 30
0.0
  0
POINT
  5
71
100
AcDbEntity
  8
Defpoints
370
               0
390
0
 62
               0
100
AcDbPoint
 10
-514.32808964002015
 20
842.686000368946
 30
0.0
  0
POINT
  5
72
100
AcDbEntity
  8
Defpoints
370
               0
390
0
 62
               0
100
AcDbPoint
 10
-124.32808964002015
 20
842.686000368946
 30
0.0
  0
ENDBLK
  5
73
100
AcDbEntity
  8
notes
390
0
100
AcDbBlockEnd
  0
BLOCK
  5
74
100
AcDbEntity
  8
notes
390
0
100
AcDbBlockBegin
  2
*D5
 70
               1
 10
0.0
 20
0.0
 30
0.0
  3
*D5
  1

  0
LINE
  5
75
100
AcDbEntity
  8
0
370
              -2
390
0
  6
Continuous
 62
               0
100
AcDbLine
 10
-207.32795685145811
 20
-374.73588508516218
 30
0.0
 11
-124.75779535272136
 21
-374.73588508516218
 31
0.0
  0
LINE
  5
76
100
AcDbEntity
  8
0
370
              -2
390
0
  6
Continuous
 62
               0
100
AcDbLine
 10
-264.57802324573731
 20
-544.73588508516218
 30
0.0
 11
-124.75779535272136
 21
-544.73588508516218
 31
0.0
  0
LINE
  5
77
100
AcDbEntity
  8
0
370
              -2
390
0
  6
Continuous
 62
               0
100
AcDbLine
 10
-124.75779535272136
 20
-374.73588508516218
 30
0.0
 11
-124.75779535272136
 21
-544.73588508516218
 31
0.0
  0
CIRCLE
  5
78
102
{ACAD_REACTORS
330
79
102
}
100
AcDbEntity
  8
0
370
              -2
390
0
  6
Continuous
 62
               0
100
AcDbCircle
 10
-124.75779535272136
 20
-374.73588508516218
 30
0.0
 40
1.9998779296875
  0
HATCH
  5
79
100
AcDbEntity
  8
0
370
              -2
390
0
  6
Continuous
 62
               0
100
AcDbHatch
 10
0.0
 20
0.0
 30
0.0
210
0.0
220
0.0
230
1.0
  2
SOLID
 70
               1
 71
               1
 91
        1
 92
        1
 93
        1
 72
               2
 10
-124.75779535272136
 20
-374.73588508516218
 40
1.9998779296875
 50
0.0
 51
360.0
 73
               0
 97
        1
330
78
 75
               0
 76
               1
 98
        1
 10
0.0
 20
0.0
  0
CIRCLE
  5
7A
102
{ACAD_REACTORS
330
7B
102
}
100
AcDbEntity
  8
0
370
              -2
390
0
  6
Continuous
 62
               0
100
AcDbCircle
 10
-124.75779535272136
 20
-544.73588508516218
 30
0.0
 40
1.9998779296875
  0
HATCH
  5
7B
100
AcDbEntity
  8
0
370
              -2
390
0
  6
Continuous
 62
               0
100
AcDbHatch
 10
0.0
 20
0.0
 30
0.0
210
0.0
220
0.0
230
1.0
  2
SOLID
 70
               1
 71
               1
 91
        1
 92
        1
 93
        1
 72
               2
 10
-124.75779535272136
 20
-544.73588508516218
 40
1.9998779296875
 50
0.0
 51
360.0
 73
               0
 97
        1
330
7A
 75
               0
 76
               1
 98
        1
 10
0.0
 20
0.0
  0
MTEXT
  5
7C
100
AcDbEntity
  8
0
390
0
 62
               0
100
AcDbMText
 10
-158.6354125402213
 20
-483.54838676733766
 30
0.0
 40
24.432617187500004
 41
0.0
 71
               1
 72
               1
  1
170
  7
ＭＳ ゴシック
 11
0.0
 21
1.0
 31
0.0
 73
               1
 44
0.7828267384257843
  0
POINT
  5
7D
100
AcDbEntity
  8
Defpoints
370
               0
390
0
 62
               0
100
AcDbPoint
 10
-289.57802324573731
 20
-544.73588508516218
 30
0.0
  0
POINT
  5
7E
100
AcDbEntity
  8
Defpoints
370
               0
390
0
 62
               0
100
AcDbPoint
 10
-232.32795685145811
 20
-374.73588508516218
 30
0.0
  0
POINT
  5
7F
100
AcDbEntity
  8
Defpoints
370
               0
390
0
 62
               0
100
AcDbPoint
 10
-124.75779535272136
 20
-374.73588508516218
 30
0.0
  0
ENDBLK
  5
80
100
AcDbEntity
  8
notes
390
0
100
AcDbBlockEnd
  0
BLOCK
  5
81
100
AcDbEntity
  8
notes
390
0
100
AcDbBlockBegin
  2
*D6
 70
               1
 10
0.0
 20
0.0
 30
0.0
  3
*D6
  1

  0
LINE
  5
82
100
AcDbEntity
  8
0
370
              -2
390
0
  6
Continuous
 62
               0
100
AcDbLine
 10
477.89520055910998
 20
-569.73588508516218
 30
0.0
 11
477.89520055910998
 21
-644.73588508516218
 31
0.0
  0
LINE
  5
83
100
AcDbEntity
  8
0
370
              -2
390
0
  6
Continuous
 62
               0
100
AcDbLine
 10
637.8952005591093
 20
-407.13588508516227
 30
0.0
 11
637.8952005591093
 21
-644.73588508516218
 31
0.0
  0
LINE
  5
84
100
AcDbEntity
  8
0
370
              -2
390
0
  6
Continuous
 62
               0
100
AcDbLine
 10
477.89520055910998
 20
-644.73588508516218
 30
0.0
 11
637.8952005591093
 21
-644.73588508516218
 31
0.0
  0
CIRCLE
  5
85
102
{ACAD_REACTORS
330
86
102
}
100
AcDbEntity
  8
0
370
              -2
390
0
  6
Continuous
 62
               0
100
AcDbCircle
 10
477.89520055910998
 20
-644.73588508516218
 30
0.0
 40
1.9998779296875
  0
HATCH
  5
86
100
AcDbEntity
  8
0
370
              -2
390
0
  6
Continuous
 62
               0
100
AcDbHatch
 10
0.0
 20
0.0
 30
0.0
210
0.0
220
0.0
230
1.0
  2
SOLID
 70
               1
 71
               1
 91
        1
 92
        1
 93
        1
 72
               2
 10
477.89520055910998
 20
-644.73588508516218
 40
1.9998779296875
 50
0.0
 51
360.0
 73
               0
 97
        1
330
85
 75
               0
 76
               1
 98
        1
 10
0.0
 20
0.0
  0
CIRCLE
  5
87
102
{ACAD_REACTORS
330
88
102
}
100
AcDbEntity
  8
0
370
              -2
390
0
  6
Continuous
 62
               0
100
AcDbCircle
 10
637.8952005591093
 20
-644.73588508516218
 30
0.0
 40
1.9998779296875
  0
HATCH
  5
88
100
AcDbEntity
  8
0
370
              -2
390
0
  6
Continuous
 62
               0
100
AcDbHatch
 10
0.0
 20
0.0
 30
0.0
210
0.0
220
0.0
230
1.0
  2
SOLID
 70
               1
 71
               1
 91
        1
 92
        1
 93
        1
 72
               2
 10
637.8952005591093
 20
-644.73588508516218
 40
1.9998779296875
 50
0.0
 51
360.0
 73
               0
 97
        1
330
87
 75
               0
 76
               1
 98
        1
 10
0.0
 20
0.0
  0
MTEXT
  5
89
100
AcDbEntity
  8
0
390
0
 62
               0
100
AcDbMText
 10
498.18749831782452
 20
-610.85826789766224
 30
0.0
 40
24.432617187500004
 41
0.0
 71
               1
 72
               1
  1
160
  7
ＭＳ ゴシック
 73
               1
 44
0.7828267384257843
  0
POINT
  5
8A
100
AcDbEntity
  8
Defpoints
370
               0
390
0
 62
               0
100
AcDbPoint
 10
637.8952005591093
 20
-382.13588508516227
 30
0.0
  0
POINT
  5
8B
100
AcDbEntity
  8
Defpoints
370
               0
390
0
 62
               0
100
AcDbPoint
 10
477.89520055910998
 20
-544.73588508516218
 30
0.0
  0
POINT
  5
8C
100
AcDbEntity
  8
Defpoints
370
               0
390
0
 62
               0
100
AcDbPoint
 10
477.89520055910998
 20
-644.73588508516218
 30
0.0
  0
ENDBLK
  5
8D
100
AcDbEntity
  8
notes
390
0
100
AcDbBlockEnd
  0
BLOCK
  5
8E
100
AcDbEntity
  8
notes
390
0
100
AcDbBlockBegin
  2
*D7
 70
               1
 10
0.0
 20
0.0
 30
0.0
  3
*D7
  1

  0
LINE
  5
8F
100
AcDbEntity
  8
0
370
              -2
390
0
  6
Continuous
 62
               0
100
AcDbLine
 10
475.43116261468913
 20
-499.73588508516218
 30
0.0
 11
471.35196062293198
 21
-499.73588508516218
 31
0.0
  0
LINE
  5
90
100
AcDbEntity
  8
0
370
              -2
390
0
  6
Continuous
 62
               0
100
AcDbLine
 10
475.43116261468913
 20
-374.73588508516218
 30
0.0
 11
471.35196062293198
 21
-374.73588508516218
 31
0.0
  0
LINE
  5
91
100
AcDbEntity
  8
0
370
              -2
390
0
  6
Continuous
 62
               0
100
AcDbLine
 10
471.35196062293198
 20
-374.73588508516218
 30
0.0
 11
471.35196062293198
 21
-216.86088508516218
 31
0.0
  0
LINE
  5
92
100
AcDbEntity
  8
0
370
              -2
390
0
  6
Continuous
 62
               0
100
AcDbLine
 10
471.35196062293198
 20
-499.73588508516218
 30
0.0
 11
471.35196062293198
 21
-374.73588508516218
 31
0.0
  0
CIRCLE
  5
93
102
{ACAD_REACTORS
330
94
102
}
100
AcDbEntity
  8
0
370
              -2
390
0
  6
Continuous
 62
               0
100
AcDbCircle
 10
471.35196062293198
 20
-499.73588508516218
 30
0.0
 40
1.9998779296875
  0
HATCH
  5
94
100
AcDbEntity
  8
0
370
              -2
390
0
  6
Continuous
 62
               0
100
AcDbHatch
 10
0.0
 20
0.0
 30
0.0
210
0.0
220
0.0
230
1.0
  2
SOLID
 70
               1
 71
               1
 91
        1
 92
        1
 93
        1
 72
               2
 10
471.35196062293198
 20
-499.73588508516218
 40
1.9998779296875
 50
0.0
 51
360.0
 73
               0
 97
        1
330
93
 75
               0
 76
               1
 98
        1
 10
0.0
 20
0.0
  0
CIRCLE
  5
95
102
{ACAD_REACTORS
330
96
102
}
100
AcDbEntity
  8
0
370
              -2
390
0
  6
Continuous
 62
               0
100
AcDbCircle
 10
471.35196062293198
 20
-374.73588508516218
 30
0.0
 40
1.9998779296875
  0
HATCH
  5
96
100
AcDbEntity
  8
0
370
              -2
390
0
  6
Continuous
 62
               0
100
AcDbHatch
 10
0.0
 20
0.0
 30
0.0
210
0.0
220
0.0
230
1.0
  2
SOLID
 70
               1
 71
               1
 91
        1
 92
        1
 93
        1
 72
               2
 10
471.35196062293198
 20
-374.73588508516218
 40
1.9998779296875
 50
0.0
 51
360.0
 73
               0
 97
        1
330
95
 75
               0
 76
               1
 98
        1
 10
0.0
 20
0.0
  0
MTEXT
  5
97
100
AcDbEntity
  8
0
390
0
 62
               0
100
AcDbMText
 10
437.47434343543205
 20
-359.73588508516218
 30
0.0
 40
24.432617187500004
 41
0.0
 71
               1
 72
               1
  1
125(深さ)
  7
ＭＳ ゴシック
 11
0.0
 21
1.0
 31
0.0
 73
               1
 44
0.7828267384257843
  0
POINT
  5
98
100
AcDbEntity
  8
Defpoints
370
               0
390
0
 62
               0
100
AcDbPoint
 10
450.43116261468913
 20
-374.73588508516218
 30
0.0
  0
POINT
  5
99
100
AcDbEntity
  8
Defpoints
370
               0
390
0
 62
               0
100
AcDbPoint
 10
450.43116261468913
 20
-499.73588508516218
 30
0.0
  0
POINT
  5
9A
100
AcDbEntity
  8
Defpoints
370
               0
390
0
 62
               0
100
AcDbPoint
 10
471.35196062293198
 20
-499.73588508516218
 30
0.0
  0
ENDBLK
  5
9B
100
AcDbEntity
  8
notes
390
0
100
AcDbBlockEnd
  0
BLOCK
  5
9C
100
AcDbEntity
  8
notes
390
0
100
AcDbBlockBegin
  2
*D8
 70
               1
 10
0.0
 20
0.0
 30
0.0
  3
*D8
  1

  0
LINE
  5
9D
100
AcDbEntity
  8
0
370
              -2
390
0
  6
Continuous
 62
               0
100
AcDbLine
 10
-771.82808964001833
 20
529.58055003394202
 30
0.0
 11
-771.82808964001833
 21
352.67401516186283
 31
0.0
  0
LINE
  5
9E
100
AcDbEntity
  8
0
370
              -2
390
0
  6
Continuous
 62
               0
100
AcDbLine
 10
-256.82808964001833
 20
529.58055003394202
 30
0.0
 11
-256.82808964001833
 21
352.67401516186283
 31
0.0
  0
LINE
  5
9F
100
AcDbEntity
  8
0
370
              -2
390
0
  6
Continuous
 62
               0
100
AcDbLine
 10
-771.82808964001833
 20
352.67401516186283
 30
0.0
 11
-256.82808964001833
 21
352.67401516186283
 31
0.0
  0
CIRCLE
  5
A0
102
{ACAD_REACTORS
330
A1
102
}
100
AcDbEntity
  8
0
370
              -2
390
0
  6
Continuous
 62
               0
100
AcDbCircle
 10
-771.82808964001833
 20
352.67401516186283
 30
0.0
 40
1.9998779296875
  0
HATCH
  5
A1
100
AcDbEntity
  8
0
370
              -2
390
0
  6
Continuous
 62
               0
100
AcDbHatch
 10
0.0
 20
0.0
 30
0.0
210
0.0
220
0.0
230
1.0
  2
SOLID
 70
               1
 71
               1
 91
        1
 92
        1
 93
        1
 72
               2
 10
-771.82808964001833
 20
352.67401516186283
 40
1.9998779296875
 50
0.0
 51
360.0
 73
               0
 97
        1
330
A0
 75
               0
 76
               1
 98
        1
 10
0.0
 20
0.0
  0
CIRCLE
  5
A2
102
{ACAD_REACTORS
330
A3
102
}
100
AcDbEntity
  8
0
370
              -2
390
0
  6
Continuous
 62
               0
100
AcDbCircle
 10
-256.82808964001833
 20
352.67401516186283
 30
0.0
 40
1.9998779296875
  0
HATCH
  5
A3
100
AcDbEntity
  8
0
370
              -2
390
0
  6
Continuous
 62
               0
100
AcDbHatch
 10
0.0
 20
0.0
 30
0.0
210
0.0
220
0.0
230
1.0
  2
SOLID
 70
               1
 71
               1
 91
        1
 92
        1
 93
        1
 72
               2
 10
-256.82808964001833
 20
352.67401516186283
 40
1.9998779296875
 50
0.0
 51
360.0
 73
               0
 97
        1
330
A2
 75
               0
 76
               1
 98
        1
 10
0.0
 20
0.0
  0
MTEXT
  5
A4
100
AcDbEntity
  8
0
390
0
 62
               0
100
AcDbMText
 10
-538.14059132219381
 20
386.55163234936288
 30
0.0
 40
24.432617187500004
 41
0.0
 71
               1
 72
               1
  1
515
  7
ＭＳ ゴシック
 73
               1
 44
0.7828267384257843
  0
POINT
  5
A5
100
AcDbEntity
  8
Defpoints
370
               0
390
0
 62
               0
100
AcDbPoint
 10
-256.82808964001833
 20
554.58055003394202
 30
0.0
  0
POINT
  5
A6
100
AcDbEntity
  8
Defpoints
370
               0
390
0
 62
               0
100
AcDbPoint
 10
-771.82808964001833
 20
554.58055003394202
 30
0.0
  0
POINT
  5
A7
100
AcDbEntity
  8
Defpoints
370
               0
390
0
 62
               0
100
AcDbPoint
 10
-771.82808964001833
 20
352.67401516186283
 30
0.0
  0
ENDBLK
  5
A8
100
AcDbEntity
  8
notes
390
0
100
AcDbBlockEnd
  0
BLOCK
  5
A9
100
AcDbEntity
  8
notes
390
0
100
AcDbBlockBegin
  2
*D9
 70
               1
 10
0.0
 20
0.0
 30
0.0
  3
*D9
  1

  0
LINE
  5
AA
100
AcDbEntity
  8
0
370
              -2
390
0
  6
Continuous
 62
               0
100
AcDbLine
 10
-688.81575298257167
 20
810.18000776540441
 30
0.0
 11
-904.32808964001651
 21
810.18000776540441
 31
0.0
  0
LINE
  5
AB
100
AcDbEntity
  8
0
370
              -2
390
0
  6
Continuous
 62
               0
100
AcDbLine
 10
-688.81575298257167
 20
485.18000776540441
 30
0.0
 11
-904.32808964001651
 21
485.18000776540441
 31
0.0
  0
LINE
  5
AC
100
AcDbEntity
  8
0
370
              -2
390
0
  6
Continuous
 62
               0
100
AcDbLine
 10
-904.32808964001651
 20
810.18000776540441
 30
0.0
 11
-904.32808964001651
 21
485.18000776540441
 31
0.0
  0
CIRCLE
  5
AD
102
{ACAD_REACTORS
330
AE
102
}
100
AcDbEntity
  8
0
370
              -2
390
0
  6
Continuous
 62
               0
100
AcDbCircle
 10
-904.32808964001651
 20
810.18000776540441
 30
0.0
 40
1.9998779296875
  0
HATCH
  5
AE
100
AcDbEntity
  8
0
370
              -2
390
0
  6
Continuous
 62
               0
100
AcDbHatch
 10
0.0
 20
0.0
 30
0.0
210
0.0
220
0.0
230
1.0
  2
SOLID
 70
               1
 71
               1
 91
        1
 92
        1
 93
        1
 72
               2
 10
-904.32808964001651
 20
810.18000776540441
 40
1.9998779296875
 50
0.0
 51
360.0
 73
               0
 97
        1
330
AD
 75
               0
 76
               1
 98
        1
 10
0.0
 20
0.0
  0
CIRCLE
  5
AF
102
{ACAD_REACTORS
330
B0
102
}
100
AcDbEntity
  8
0
370
              -2
390
0
  6
Continuous
 62
               0
100
AcDbCircle
 10
-904.32808964001651
 20
485.18000776540441
 30
0.0
 40
1.9998779296875
  0
HATCH
  5
B0
100
AcDbEntity
  8
0
370
              -2
390
0
  6
Continuous
 62
               0
100
AcDbHatch
 10
0.0
 20
0.0
 30
0.0
210
0.0
220
0.0
230
1.0
  2
SOLID
 70
               1
 71
               1
 91
        1
 92
        1
 93
        1
 72
               2
 10
-904.32808964001651
 20
485.18000776540441
 40
1.9998779296875
 50
0.0
 51
360.0
 73
               0
 97
        1
330
AF
 75
               0
 76
               1
 98
        1
 10
0.0
 20
0.0
  0
MTEXT
  5
B1
100
AcDbEntity
  8
0
390
0
 62
               0
100
AcDbMText
 10
-938.20570682751668
 20
623.86750608322882
 30
0.0
 40
24.432617187500004
 41
0.0
 71
               1
 72
               1
  1
325
  7
ＭＳ ゴシック
 11
0.0
 21
1.0
 31
0.0
 73
               1
 44
0.7828267384257843
  0
POINT
  5
B2
100
AcDbEntity
  8
Defpoints
370
               0
390
0
 62
               0
100
AcDbPoint
 10
-663.81575298257167
 20
485.18000776540441
 30
0.0
  0
POINT
  5
B3
100
AcDbEntity
  8
Defpoints
370
               0
390
0
 62
               0
100
AcDbPoint
 10
-663.81575298257167
 20
810.18000776540441
 30
0.0
  0
POINT
  5
B4
100
AcDbEntity
  8
Defpoints
370
               0
390
0
 62
               0
100
AcDbPoint
 10
-904.32808964001651
 20
810.18000776540441
 30
0.0
  0
ENDBLK
  5
B5
100
AcDbEntity
  8
notes
390
0
100
AcDbBlockEnd
  0
BLOCK
  5
B6
100
AcDbEntity
  8
notes
390
0
100
AcDbBlockBegin
  2
*D10
 70
               1
 10
0.0
 20
0.0
 30
0.0
  3
*D10
  1

  0
LINE
  5
B7
100
AcDbEntity
  8
0
370
              -2
390
0
  6
Continuous
 62
               0
100
AcDbLine
 10
536.41158724348406
 20
742.686000368946
 30
0.0
 11
621.11807464548428
 21
742.686000368946
 31
0.0
  0
LINE
  5
B8
100
AcDbEntity
  8
0
370
              -2
390
0
  6
Continuous
 62
               0
100
AcDbLine
 10
536.41158724348406
 20
622.686000368946
 30
0.0
 11
621.11807464548428
 21
622.686000368946
 31
0.0
  0
LINE
  5
B9
100
AcDbEntity
  8
0
370
              -2
390
0
  6
Continuous
 62
               0
100
AcDbLine
 10
621.11807464548428
 20
742.686000368946
 30
0.0
 11
621.11807464548428
 21
622.686000368946
 31
0.0
  0
CIRCLE
  5
BA
102
{ACAD_REACTORS
330
BB
102
}
100
AcDbEntity
  8
0
370
              -2
390
0
  6
Continuous
 62
               0
100
AcDbCircle
 10
621.11807464548428
 20
742.686000368946
 30
0.0
 40
1.9998779296875
  0
HATCH
  5
BB
100
AcDbEntity
  8
0
370
              -2
390
0
  6
Continuous
 62
               0
100
AcDbHatch
 10
0.0
 20
0.0
 30
0.0
210
0.0
220
0.0
230
1.0
  2
SOLID
 70
               1
 71
               1
 91
        1
 92
        1
 93
        1
 72
               2
 10
621.11807464548428
 20
742.686000368946
 40
1.9998779296875
 50
0.0
 51
360.0
 73
               0
 97
        1
330
BA
 75
               0
 76
               1
 98
        1
 10
0.0
 20
0.0
  0
CIRCLE
  5
BC
102
{ACAD_REACTORS
330
BD
102
}
100
AcDbEntity
  8
0
370
              -2
390
0
  6
Continuous
 62
               0
100
AcDbCircle
 10
621.11807464548428
 20
622.686000368946
 30
0.0
 40
1.9998779296875
  0
HATCH
  5
BD
100
AcDbEntity
  8
0
370
              -2
390
0
  6
Continuous
 62
               0
100
AcDbHatch
 10
0.0
 20
0.0
 30
0.0
210
0.0
220
0.0
230
1.0
  2
SOLID
 70
               1
 71
               1
 91
        1
 92
        1
 93
        1
 72
               2
 10
621.11807464548428
 20
622.686000368946
 40
1.9998779296875
 50
0.0
 51
360.0
 73
               0
 97
        1
330
BC
 75
               0
 76
               1
 98
        1
 10
0.0
 20
0.0
  0
MTEXT
  5
BE
100
AcDbEntity
  8
0
390
0
 62
               0
100
AcDbMText
 10
587.24045745798423
 20
658.87349868677052
 30
0.0
 40
24.432617187500004
 41
0.0
 71
               1
 72
               1
  1
120
  7
ＭＳ ゴシック
 11
0.0
 21
1.0
 31
0.0
 73
               1
 44
0.7828267384257843
  0
POINT
  5
BF
100
AcDbEntity
  8
Defpoints
370
               0
390
0
 62
               0
100
AcDbPoint
 10
511.41158724348406
 20
622.686000368946
 30
0.0
  0
POINT
  5
C0
100
AcDbEntity
  8
Defpoints
370
               0
390
0
 62
               0
100
AcDbPoint
 10
511.41158724348406
 20
742.686000368946
 30
0.0
  0
POINT
  5
C1
100
AcDbEntity
  8
Defpoints
370
               0
390
0
 62
               0
100
AcDbPoint
 10
621.11807464548428
 20
742.686000368946
 30
0.0
  0
ENDBLK
  5
C2
100
AcDbEntity
  8
notes
390
0
100
AcDbBlockEnd
  0
BLOCK
  5
C3
100
AcDbEntity
  8
notes
390
0
100
AcDbBlockBegin
  2
*D11
 70
               1
 10
0.0
 20
0.0
 30
0.0
  3
*D11
  1

  0
LINE
  5
C4
100
AcDbEntity
  8
0
370
              -2
390
0
  6
Continuous
 62
               0
100
AcDbLine
 10
333.91152084920645
 20
722.43971116371449
 30
0.0
 11
333.91152084920645
 21
942.686000368946
 31
0.0
  0
LINE
  5
C5
100
AcDbEntity
  8
0
370
              -2
390
0
  6
Continuous
 62
               0
100
AcDbLine
 10
553.91158724348406
 20
722.43971116371426
 30
0.0
 11
553.91158724348406
 21
942.686000368946
 31
0.0
  0
LINE
  5
C6
100
AcDbEntity
  8
0
370
              -2
390
0
  6
Continuous
 62
               0
100
AcDbLine
 10
333.91152084920645
 20
942.686000368946
 30
0.0
 11
553.91158724348406
 21
942.686000368946
 31
0.0
  0
CIRCLE
  5
C7
102
{ACAD_REACTORS
330
C8
102
}
100
AcDbEntity
  8
0
370
              -2
390
0
  6
Continuous
 62
               0
100
AcDbCircle
 10
333.91152084920645
 20
942.686000368946
 30
0.0
 40
1.9998779296875
  0
HATCH
  5
C8
100
AcDbEntity
  8
0
370
              -2
390
0
  6
Continuous
 62
               0
100
AcDbHatch
 10
0.0
 20
0.0
 30
0.0
210
0.0
220
0.0
230
1.0
  2
SOLID
 70
               1
 71
               1
 91
        1
 92
        1
 93
        1
 72
               2
 10
333.91152084920645
 20
942.686000368946
 40
1.9998779296875
 50
0.0
 51
360.0
 73
               0
 97
        1
330
C7
 75
               0
 76
               1
 98
        1
 10
0.0
 20
0.0
  0
CIRCLE
  5
C9
102
{ACAD_REACTORS
330
CA
102
}
100
AcDbEntity
  8
0
370
              -2
390
0
  6
Continuous
 62
               0
100
AcDbCircle
 10
553.91158724348406
 20
942.686000368946
 30
0.0
 40
1.9998779296875
  0
HATCH
  5
CA
100
AcDbEntity
  8
0
370
              -2
390
0
  6
Continuous
 62
               0
100
AcDbHatch
 10
0.0
 20
0.0
 30
0.0
210
0.0
220
0.0
230
1.0
  2
SOLID
 70
               1
 71
               1
 91
        1
 92
        1
 93
        1
 72
               2
 10
553.91158724348406
 20
942.686000368946
 40
1.9998779296875
 50
0.0
 51
360.0
 73
               0
 97
        1
330
C9
 75
               0
 76
               1
 98
        1
 10
0.0
 20
0.0
  0
MTEXT
  5
CB
100
AcDbEntity
  8
0
390
0
 62
               0
100
AcDbMText
 10
420.09905236416989
 20
976.56361755644605
 30
0.0
 40
24.432617187500004
 41
0.0
 71
               1
 72
               1
  1
220
  7
ＭＳ ゴシック
 73
               1
 44
0.7828267384257843
  0
POINT
  5
CC
100
AcDbEntity
  8
Defpoints
370
               0
390
0
 62
               0
100
AcDbPoint
 10
553.91158724348406
 20
697.43971116371426
 30
0.0
  0
POINT
  5
CD
100
AcDbEntity
  8
Defpoints
370
               0
390
0
 62
               0
100
AcDbPoint
 10
333.91152084920645
 20
697.43971116371449
 30
0.0
  0
POINT
  5
CE
100
AcDbEntity
  8
Defpoints
370
               0
390
0
 62
               0
100
AcDbPoint
 10
333.91152084920645
 20
942.686000368946
 30
0.0
  0
ENDBLK
  5
CF
100
AcDbEntity
  8
notes
390
0
100
AcDbBlockEnd
  0
BLOCK
  5
D0
100
AcDbEntity
  8
notes
390
0
100
AcDbBlockBegin
  2
*D12
 70
               1
 10
0.0
 20
0.0
 30
0.0
  3
*D12
  1

  0
LINE
  5
D1
100
AcDbEntity
  8
0
370
              -2
390
0
  6
Continuous
 62
               0
100
AcDbLine
 10
302.16152084920645
 20
697.686000368946
 30
0.0
 11
275.5
 21
697.686000368946
 31
0.0
  0
LINE
  5
D2
100
AcDbEntity
  8
0
370
              -2
390
0
  6
Continuous
 62
               0
100
AcDbLine
 10
396.41152084920623
 20
682.686000368946
 30
0.0
 11
275.5
 21
682.686000368946
 31
0.0
  0
LINE
  5
D3
100
AcDbEntity
  8
0
370
              -2
390
0
  6
Continuous
 62
               0
100
AcDbLine
 10
275.5
 20
697.686000368946
 30
0.0
 11
275.5
 21
682.686000368946
 31
0.0
  0
CIRCLE
  5
D4
102
{ACAD_REACTORS
330
D5
102
}
100
AcDbEntity
  8
0
370
              -2
390
0
  6
Continuous
 62
               0
100
AcDbCircle
 10
275.5
 20
697.686000368946
 30
0.0
 40
1.9998779296875
  0
HATCH
  5
D5
100
AcDbEntity
  8
0
370
              -2
390
0
  6
Continuous
 62
               0
100
AcDbHatch
 10
0.0
 20
0.0
 30
0.0
210
0.0
220
0.0
230
1.0
  2
SOLID
 70
               1
 71
               1
 91
        1
 92
        1
 93
        1
 72
               2
 10
275.5
 20
697.686000368946
 40
1.9998779296875
 50
0.0
 51
360.0
 73
               0
 97
        1
330
D4
 75
               0
 76
               1
 98
        1
 10
0.0
 20
0.0
  0
CIRCLE
  5
D6
102
{ACAD_REACTORS
330
D7
102
}
100
AcDbEntity
  8
0
370
              -2
390
0
  6
Continuous
 62
               0
100
AcDbCircle
 10
275.5
 20
682.686000368946
 30
0.0
 40
1.9998779296875
  0
HATCH
  5
D7
100
AcDbEntity
  8
0
370
              -2
390
0
  6
Continuous
 62
               0
100
AcDbHatch
 10
0.0
 20
0.0
 30
0.0
210
0.0
220
0.0
230
1.0
  2
SOLID
 70
               1
 71
               1
 91
        1
 92
        1
 93
        1
 72
               2
 10
275.5
 20
682.686000368946
 40
1.9998779296875
 50
0.0
 51
360.0
 73
               0
 97
        1
330
D6
 75
               0
 76
               1
 98
        1
 10
0.0
 20
0.0
  0
MTEXT
  5
D8
100
AcDbEntity
  8
0
390
0
 62
               0
100
AcDbMText
 10
241.62238281250006
 20
674.311000368946
 30
0.0
 40
24.432617187500004
 41
0.0
 71
               1
 72
               1
  1
15
  7
ＭＳ ゴシック
 11
0.0
 21
1.0
 31
0.0
 73
               1
 44
0.7828267384257843
  0
POINT
  5
D9
100
AcDbEntity
  8
Defpoints
370
               0
390
0
 62
               0
100
AcDbPoint
 10
421.41152084920623
 20
682.686000368946
 30
0.0
  0
POINT
  5
DA
100
AcDbEntity
  8
Defpoints
370
               0
390
0
 62
               0
100
AcDbPoint
 10
327.16152084920645
 20
697.686000368946
 30
0.0
  0
POINT
  5
DB
100
AcDbEntity
  8
Defpoints
370
               0
390
0
 62
               0
100
AcDbPoint
 10
275.5
 20
697.686000368946
 30
0.0
  0
ENDBLK
  5
DC
100
AcDbEntity
  8
notes
390
0
100
AcDbBlockEnd
  0
BLOCK
  5
DD
100
AcDbEntity
  8
notes
390
0
100
AcDbBlockBegin
  2
*D13
 70
               1
 10
0.0
 20
0.0
 30
0.0
  3
*D13
  1

  0
LINE
  5
DE
100
AcDbEntity
  8
0
370
              -2
390
0
  6
Continuous
 62
               0
100
AcDbLine
 10
351.41158724348406
 20
682.686000368946
 30
0.0
 11
275.5
 21
682.686000368946
 31
0.0
  0
LINE
  5
DF
100
AcDbEntity
  8
0
370
              -2
390
0
  6
Continuous
 62
               0
100
AcDbLine
 10
412.16152084920645
 20
592.686000368946
 30
0.0
 11
275.5
 21
592.686000368946
 31
0.0
  0
LINE
  5
E0
100
AcDbEntity
  8
0
370
              -2
390
0
  6
Continuous
 62
               0
100
AcDbLine
 10
275.5
 20
682.686000368946
 30
0.0
 11
275.5
 21
592.686000368946
 31
0.0
  0
CIRCLE
  5
E1
102
{ACAD_REACTORS
330
E2
102
}
100
AcDbEntity
  8
0
370
              -2
390
0
  6
Continuous
 62
               0
100
AcDbCircle
 10
275.5
 20
682.686000368946
 30
0.0
 40
1.9998779296875
  0
HATCH
  5
E2
100
AcDbEntity
  8
0
370
              -2
390
0
  6
Continuous
 62
               0
100
AcDbHatch
 10
0.0
 20
0.0
 30
0.0
210
0.0
220
0.0
230
1.0
  2
SOLID
 70
               1
 71
               1
 91
        1
 92
        1
 93
        1
 72
               2
 10
275.5
 20
682.686000368946
 40
1.9998779296875
 50
0.0
 51
360.0
 73
               0
 97
        1
330
E1
 75
               0
 76
               1
 98
        1
 10
0.0
 20
0.0
  0
CIRCLE
  5
E3
102
{ACAD_REACTORS
330
E4
102
}
100
AcDbEntity
  8
0
370
              -2
390
0
  6
Continuous
 62
               0
100
AcDbCircle
 10
275.5
 20
592.686000368946
 30
0.0
 40
1.9998779296875
  0
HATCH
  5
E4
100
AcDbEntity
  8
0
370
              -2
390
0
  6
Continuous
 62
               0
100
AcDbHatch
 10
0.0
 20
0.0
 30
0.0
210
0.0
220
0.0
230
1.0
  2
SOLID
 70
               1
 71
               1
 91
        1
 92
        1
 93
        1
 72
               2
 10
275.5
 20
592.686000368946
 40
1.9998779296875
 50
0.0
 51
360.0
 73
               0
 97
        1
330
E3
 75
               0
 76
               1
 98
        1
 10
0.0
 20
0.0
  0
MTEXT
  5
E5
100
AcDbEntity
  8
0
390
0
 62
               0
100
AcDbMText
 10
241.62238281250006
 20
621.811000368946
 30
0.0
 40
24.432617187500004
 41
0.0
 71
               1
 72
               1
  1
90
  7
ＭＳ ゴシック
 11
0.0
 21
1.0
 31
0.0
 73
               1
 44
0.7828267384257843
  0
POINT
  5
E6
100
AcDbEntity
  8
Defpoints
370
               0
390
0
 62
               0
100
AcDbPoint
 10
437.16152084920645
 20
592.686000368946
 30
0.0
  0
POINT
  5
E7
100
AcDbEntity
  8
Defpoints
370
               0
390
0
 62
               0
100
AcDbPoint
 10
376.41158724348406
 20
682.686000368946
 30
0.0
  0
POINT
  5
E8
100
AcDbEntity
  8
Defpoints
370
               0
390
0
 62
               0
100
AcDbPoint
 10
275.5
 20
682.686000368946
 30
0.0
  0
ENDBLK
  5
E9
100
AcDbEntity
  8
notes
390
0
100
AcDbBlockEnd
  0
BLOCK
  5
EA
100
AcDbEntity
  8
notes
390
0
100
AcDbBlockBegin
  2
*D14
 70
               1
 10
0.0
 20
0.0
 30
0.0
  3
*D14
  1

  0
LINE
  5
EB
100
AcDbEntity
  8
0
370
              -2
390
0
  6
Continuous
 62
               0
100
AcDbLine
 10
376.41158724348406
 20
597.686000368946
 30
0.0
 11
376.41158724348406
 21
520.0
 31
0.0
  0
LINE
  5
EC
100
AcDbEntity
  8
0
370
              -2
390
0
  6
Continuous
 62
               0
100
AcDbLine
 10
511.41158724348406
 20
597.686000368946
 30
0.0
 11
511.41158724348406
 21
520.0
 31
0.0
  0
LINE
  5
ED
100
AcDbEntity
  8
0
370
              -2
390
0
  6
Continuous
 62
               0
100
AcDbLine
 10
376.41158724348406
 20
520.0
 30
0.0
 11
511.41158724348406
 21
520.0
 31
0.0
  0
CIRCLE
  5
EE
102
{ACAD_REACTORS
330
EF
102
}
100
AcDbEntity
  8
0
370
              -2
390
0
  6
Continuous
 62
               0
100
AcDbCircle
 10
376.41158724348406
 20
520.0
 30
0.0
 40
1.9998779296875
  0
HATCH
  5
EF
100
AcDbEntity
  8
0
370
              -2
390
0
  6
Continuous
 62
               0
100
AcDbHatch
 10
0.0
 20
0.0
 30
0.0
210
0.0
220
0.0
230
1.0
  2
SOLID
 70
               1
 71
               1
 91
        1
 92
        1
 93
        1
 72
               2
 10
376.41158724348406
 20
520.0
 40
1.9998779296875
 50
0.0
 51
360.0
 73
               0
 97
        1
330
EE
 75
               0
 76
               1
 98
        1
 10
0.0
 20
0.0
  0
CIRCLE
  5
F0
102
{ACAD_REACTORS
330
F1
102
}
100
AcDbEntity
  8
0
370
              -2
390
0
  6
Continuous
 62
               0
100
AcDbCircle
 10
511.41158724348406
 20
520.0
 30
0.0
 40
1.9998779296875
  0
HATCH
  5
F1
100
AcDbEntity
  8
0
370
              -2
390
0
  6
Continuous
 62
               0
100
AcDbHatch
 10
0.0
 20
0.0
 30
0.0
210
0.0
220
0.0
230
1.0
  2
SOLID
 70
               1
 71
               1
 91
        1
 92
        1
 93
        1
 72
               2
 10
511.41158724348406
 20
520.0
 40
1.9998779296875
 50
0.0
 51
360.0
 73
               0
 97
        1
330
F0
 75
               0
 76
               1
 98
        1
 10
0.0
 20
0.0
  0
MTEXT
  5
F2
100
AcDbEntity
  8
0
390
0
 62
               0
100
AcDbMText
 10
420.09908556130858
 20
553.87761718749994
 30
0.0
 40
24.432617187500004
 41
0.0
 71
               1
 72
               1
  1
135
  7
ＭＳ ゴシック
 73
               1
 44
0.7828267384257843
  0
POINT
  5
F3
100
AcDbEntity
  8
Defpoints
370
               0
390
0
 62
               0
100
AcDbPoint
 10
511.41158724348406
 20
622.686000368946
 30
0.0
  0
POINT
  5
F4
100
AcDbEntity
  8
Defpoints
370
               0
390
0
 62
               0
100
AcDbPoint
 10
376.41158724348406
 20
622.686000368946
 30
0.0
  0
POINT
  5
F5
100
AcDbEntity
  8
Defpoints
370
               0
390
0
 62
               0
100
AcDbPoint
 10
376.41158724348406
 20
520.0
 30
0.0
  0
ENDBLK
  5
F6
100
AcDbEntity
  8
notes
390
0
100
AcDbBlockEnd
  0
BLOCK
  5
F7
100
AcDbEntity
  8
notes
390
0
100
AcDbBlockBegin
  2
*D15
 70
               1
 10
0.0
 20
0.0
 30
0.0
  3
*D15
  1

  0
LINE
  5
F8
100
AcDbEntity
  8
0
370
              -2
390
0
  6
Continuous
 62
               0
100
AcDbLine
 10
-739.08881679900423
 20
-569.73588508516218
 30
0.0
 11
-739.08881679900423
 21
-644.73588508516218
 31
0.0
  0
LINE
  5
F9
100
AcDbEntity
  8
0
370
              -2
390
0
  6
Continuous
 62
               0
100
AcDbLine
 10
-289.08881679900423
 20
-569.73588508516218
 30
0.0
 11
-289.08881679900423
 21
-644.73588508516218
 31
0.0
  0
LINE
  5
FA
100
AcDbEntity
  8
0
370
              -2
390
0
  6
Continuous
 62
               0
100
AcDbLine
 10
-739.08881679900423
 20
-644.73588508516218
 30
0.0
 11
-289.08881679900423
 21
-644.73588508516218
 31
0.0
  0
CIRCLE
  5
FB
102
{ACAD_REACTORS
330
FC
102
}
100
AcDbEntity
  8
0
370
              -2
390
0
  6
Continuous
 62
               0
100
AcDbCircle
 10
-739.08881679900423
 20
-644.73588508516218
 30
0.0
 40
1.9998779296875
  0
HATCH
  5
FC
100
AcDbEntity
  8
0
370
              -2
390
0
  6
Continuous
 62
               0
100
AcDbHatch
 10
0.0
 20
0.0
 30
0.0
210
0.0
220
0.0
230
1.0
  2
SOLID
 70
               1
 71
               1
 91
        1
 92
        1
 93
        1
 72
               2
 10
-739.08881679900423
 20
-644.73588508516218
 40
1.9998779296875
 50
0.0
 51
360.0
 73
               0
 97
        1
330
FB
 75
               0
 76
               1
 98
        1
 10
0.0
 20
0.0
  0
CIRCLE
  5
FD
102
{ACAD_REACTORS
330
FE
102
}
100
AcDbEntity
  8
0
370
              -2
390
0
  6
Continuous
 62
               0
100
AcDbCircle
 10
-289.08881679900423
 20
-644.73588508516218
 30
0.0
 40
1.9998779296875
  0
HATCH
  5
FE
100
AcDbEntity
  8
0
370
              -2
390
0
  6
Continuous
 62
               0
100
AcDbHatch
 10
0.0
 20
0.0
 30
0.0
210
0.0
220
0.0
230
1.0
  2
SOLID
 70
               1
 71
               1
 91
        1
 92
        1
 93
        1
 72
               2
 10
-289.08881679900423
 20
-644.73588508516218
 40
1.9998779296875
 50
0.0
 51
360.0
 73
               0
 97
        1
330
FD
 75
               0
 76
               1
 98
        1
 10
0.0
 20
0.0
  0
MTEXT
  5
FF
100
AcDbEntity
  8
0
390
0
 62
               0
100
AcDbMText
 10
-537.90131848117971
 20
-610.85826789766224
 30
0.0
 40
24.432617187500004
 41
0.0
 71
               1
 72
               1
  1
450
  7
ＭＳ ゴシック
 73
               1
 44
0.7828267384257843
  0
POINT
  5
100
100
AcDbEntity
  8
Defpoints
370
               0
390
0
 62
               0
100
AcDbPoint
 10
-289.08881679900423
 20
-544.73588508516218
 30
0.0
  0
POINT
  5
101
100
AcDbEntity
  8
Defpoints
370
               0
390
0
 62
               0
100
AcDbPoint
 10
-739.08881679900423
 20
-544.73588508516218
 30
0.0
  0
POINT
  5
102
100
AcDbEntity
  8
Defpoints
370
               0
390
0
 62
               0
100
AcDbPoint
 10
-739.08881679900423
 20
-644.73588508516218
 30
0.0
  0
ENDBLK
  5
103
100
AcDbEntity
  8
notes
390
0
100
AcDbBlockEnd
  0
BLOCK
  5
104
100
AcDbEntity
  8
notes
390
0
100
AcDbBlockBegin
  2
*D16
 70
               1
 10
0.0
 20
0.0
 30
0.0
  3
*D16
  1

  0
LINE
  5
105
100
AcDbEntity
  8
0
370
              -2
390
0
  6
Continuous
 62
               0
100
AcDbLine
 10
318.65086008449634
 20
-569.73588508516218
 30
0.0
 11
318.65086008449634
 21
-694.73588508516218
 31
0.0
  0
LINE
  5
106
100
AcDbEntity
  8
0
370
              -2
390
0
  6
Continuous
 62
               0
100
AcDbLine
 10
568.65086008449634
 20
-569.73588508516218
 30
0.0
 11
568.65086008449634
 21
-694.73588508516218
 31
0.0
  0
LINE
  5
107
100
AcDbEntity
  8
0
370
              -2
390
0
  6
Continuous
 62
               0
100
AcDbLine
 10
318.65086008449634
 20
-694.73588508516218
 30
0.0
 11
568.65086008449634
 21
-694.73588508516218
 31
0.0
  0
CIRCLE
  5
108
102
{ACAD_REACTORS
330
109
102
}
100
AcDbEntity
  8
0
370
              -2
390
0
  6
Continuous
 62
               0
100
AcDbCircle
 10
318.65086008449634
 20
-694.73588508516218
 30
0.0
 40
1.9998779296875
  0
HATCH
  5
109
100
AcDbEntity
  8
0
370
              -2
390
0
  6
Continuous
 62
               0
100
AcDbHatch
 10
0.0
 20
0.0
 30
0.0
210
0.0
220
0.0
230
1.0
  2
SOLID
 70
               1
 71
               1
 91
        1
 92
        1
 93
        1
 72
               2
 10
318.65086008449634
 20
-694.73588508516218
 40
1.9998779296875
 50
0.0
 51
360.0
 73
               0
 97
        1
330
108
 75
               0
 76
               1
 98
        1
 10
0.0
 20
0.0
  0
CIRCLE
  5
10A
102
{ACAD_REACTORS
330
10B
102
}
100
AcDbEntity
  8
0
370
              -2
390
0
  6
Continuous
 62
               0
100
AcDbCircle
 10
568.65086008449634
 20
-694.73588508516218
 30
0.0
 40
1.9998779296875
  0
HATCH
  5
10B
100
AcDbEntity
  8
0
370
              -2
390
0
  6
Continuous
 62
               0
100
AcDbHatch
 10
0.0
 20
0.0
 30
0.0
210
0.0
220
0.0
230
1.0
  2
SOLID
 70
               1
 71
               1
 91
        1
 92
        1
 93
        1
 72
               2
 10
568.65086008449634
 20
-694.73588508516218
 40
1.9998779296875
 50
0.0
 51
360.0
 73
               0
 97
        1
330
10A
 75
               0
 76
               1
 98
        1
 10
0.0
 20
0.0
  0
MTEXT
  5
10C
100
AcDbEntity
  8
0
390
0
 62
               0
100
AcDbMText
 10
419.83835840232086
 20
-660.85826789766224
 30
0.0
 40
24.432617187500004
 41
0.0
 71
               1
 72
               1
  1
250
  7
ＭＳ ゴシック
 73
               1
 44
0.7828267384257843
  0
POINT
  5
10D
100
AcDbEntity
  8
Defpoints
370
               0
390
0
 62
               0
100
AcDbPoint
 10
568.65086008449634
 20
-544.73588508516218
 30
0.0
  0
POINT
  5
10E
100
AcDbEntity
  8
Defpoints
370
               0
390
0
 62
               0
100
AcDbPoint
 10
318.65086008449634
 20
-544.73588508516218
 30
0.0
  0
POINT
  5
10F
100
AcDbEntity
  8
Defpoints
370
               0
390
0
 62
               0
100
AcDbPoint
 10
318.65086008449634
 20
-694.73588508516218
 30
0.0
  0
ENDBLK
  5
110
100
AcDbEntity
  8
notes
390
0
100
AcDbBlockEnd
  0
ENDSEC
  0
SECTION
  2
ENTITIES
  0
MTEXT
  5
111
100
AcDbEntity
  8
template
390
0
 62
               7
100
AcDbMText
 10
-968.0
 20
-1134.6535143188632
 30
0.0
 40
16.288411458333332
 41
0.0
 71
               1
 72
               1
  1
品名
  7
ＭＳ ゴシック
 73
               1
 44
0.7828267384257843
  0
MTEXT
  5
112
100
AcDbEntity
  8
template
390
0
 62
               7
100
AcDbMText
 10
-968.0
 20
-1219.6535143188632
 30
0.0
 40
16.288411458333332
 41
0.0
 71
               1
 72
               1
  1
仕様
  7
ＭＳ ゴシック
 73
               1
 44
0.7828267384257843
  0
MTEXT
  5
113
100
AcDbEntity
  8
template
390
0
 62
               7
100
AcDbMText
 10
-915.0
 20
-1163.2359752563632
 30
0.0
 40
24.432617187500004
 41
0.0
 71
               1
 72
               1
  1
洗面器 -POZZI GINORI,Join-
  7
ＭＳ ゴシック
 73
               1
 44
0.7828267384257843
  0
LINE
  5
114
100
AcDbEntity
  8
template
370
               5
390
0
  6
Continuous
 62
               7
100
AcDbLine
 10
974.99999999951774
 20
-1211.2385924438634
 30
0.0
 11
-975.00000000048203
 21
-1211.2385924438634
 31
0.0
  0
LWPOLYLINE
  5
115
100
AcDbEntity
  8
template
370
               5
390
0
  6
Continuous
 62
               7
100
AcDbPolyline
 90
        5
 70
             128
 10
975.00000000000023
 20
1418.7614075561364
 10
-975.0
 20
1418.7614075561364
 10
-975.0
 20
-1381.2385924438634
 10
975.00000000000023
 20
-1381.2385924438634
 10
975.00000000000023
 20
1418.7614075561364
  0
LINE
  5
116
100
AcDbEntity
  8
template
370
               5
390
0
  6
Continuous
 62
               7
100
AcDbLine
 10
974.99999999951774
 20
-1126.2385924438634
 30
0.0
 11
-975.00000000048203
 21
-1126.2385924438634
 31
0.0
  0
LINE
  5
117
100
AcDbEntity
  8
template
370
               5
390
0
  6
Continuous
 62
               7
100
AcDbLine
 10
975.00000000000023
 20
-1296.2385924438634
 30
0.0
 11
222.00000000000023
 21
-1296.2385924438634
 31
0.0
  0
MTEXT
  5
118
100
AcDbEntity
  8
template
390
0
 62
               7
100
AcDbMText
 10
-974.99999999979718
 20
-1393.0924145007205
 30
0.0
 40
21.717881944444446
 41
0.0
 71
               1
 72
               1
  1
120316SO
  7
ＭＳ ゴシック
 73
               1
 44
0.7828267384257843
  0
MTEXT
  5
119
100
AcDbEntity
  8
template
390
0
 62
               7
100
AcDbMText
 10
251.87140625225993
 20
-1326.1489869171708
 30
0.0
 40
24.432617187500004
 41
0.0
 71
               1
 72
               1
  1
大洋金物株式会社 ティーフォルム事業部
  7
ＭＳ ゴシック
 73
               1
 44
0.7828267384257843
  0
INSERT
  5
11A
100
AcDbEntity
  8
template
390
0
 62
               7
100
AcDbBlockReference
  2
グループ
 10
1582.7873389738043
 20
993.61505706658022
 30
0.0
  0
MTEXT
  5
11B
100
AcDbEntity
  8
template
390
0
 62
               7
100
AcDbMText
 10
784.00000000025898
 20
-1248.2359752563632
 30
0.0
 40
24.432617187500004
 41
0.0
 71
               1
 72
               1
  1
1:10
  7
ＭＳ ゴシック
 73
               1
 44
0.7828267384257843
  0
MTEXT
  5
11C
100
AcDbEntity
  8
template
390
0
 62
               7
100
AcDbMText
 10
731.00000000025898
 20
-1219.6535143188632
 30
0.0
 40
16.288411458333332
 41
0.0
 71
               1
 72
               1
  1
縮尺
  7
ＭＳ ゴシック
 73
               1
 44
0.7828267384257843
  0
LINE
  5
11D
100
AcDbEntity
  8
template
370
               5
390
0
  6
Continuous
 62
               7
100
AcDbLine
 10
724.00000000025898
 20
-1296.2385924438634
 30
0.0
 11
724.00000000025898
 21
-1211.2385924438634
 31
0.0
  0
MTEXT
  5
11E
100
AcDbEntity
  8
template
390
0
 62
               7
100
AcDbMText
 10
480.00000000025898
 20
-1219.6535143188632
 30
0.0
 40
16.288411458333332
 41
0.0
 71
               1
 72
               1
  1
容量
  7
ＭＳ ゴシック
 73
               1
 44
0.7828267384257843
  0
MTEXT
  5
11F
100
AcDbEntity
  8
template
390
0
 62
               7
100
AcDbMText
 10
533.00000000025898
 20
-1248.2359752563632
 30
0.0
 40
24.432617187500004
 41
0.0
 71
               1
 72
               1
  1
3.5L
  7
ＭＳ ゴシック
 73
               1
 44
0.7828267384257843
  0
LINE
  5
120
100
AcDbEntity
  8
template
370
               5
390
0
  6
Continuous
 62
               7
100
AcDbLine
 10
473.00000000025898
 20
-1296.2385924438634
 30
0.0
 11
473.00000000025898
 21
-1211.2385924438634
 31
0.0
  0
MTEXT
  5
121
100
AcDbEntity
  8
template
390
0
 62
               7
100
AcDbMText
 10
229.00000000025898
 20
-1134.6535143188632
 30
0.0
 40
16.288411458333332
 41
0.0
 71
               1
 72
               1
  1
品番
  7
ＭＳ ゴシック
 73
               1
 44
0.7828267384257843
  0
MTEXT
  5
122
100
AcDbEntity
  8
template
390
0
 62
               7
100
AcDbMText
 10
229.00000000025898
 20
-1219.6535143188632
 30
0.0
 40
16.288411458333332
 41
0.0
 71
               1
 72
               1
  1
重量
  7
ＭＳ ゴシック
 73
               1
 44
0.7828267384257843
  0
MTEXT
  5
123
100
AcDbEntity
  8
template
390
0
 62
               7
100
AcDbMText
 10
282.00000000025898
 20
-1163.2359752563632
 30
0.0
 40
24.432617187500004
 41
0.0
 71
               1
 72
               1
  1
ARJ70-0105
  7
ＭＳ ゴシック
 73
               1
 44
0.7828267384257843
  0
MTEXT
  5
124
100
AcDbEntity
  8
template
390
0
 62
               7
100
AcDbMText
 10
282.00000000025898
 20
-1248.2359752563632
 30
0.0
 40
24.432617187500004
 41
0.0
 71
               1
 72
               1
  1
12kg
  7
ＭＳ ゴシック
 73
               1
 44
0.7828267384257843
  0
LINE
  5
125
100
AcDbEntity
  8
template
370
               5
390
0
  6
Continuous
 62
               7
100
AcDbLine
 10
222.00000000025898
 20
-1381.2385924438634
 30
0.0
 11
222.00000000025898
 21
-1126.2385924438634
 31
0.0
  0
MTEXT
  5
126
100
AcDbEntity
  8
template
390
0
 62
               7
100
AcDbMText
 10
-915.00000000000045
 20
-1248.2359752563632
 30
0.0
 40
24.432617187500004
 41
0.0
 71
               1
 72
               1
  1
カウンター置き/オーバーフロー付/カウンター固定金具、型紙付属/\P背面釉薬あり/\P陶器/ホワイト
  7
ＭＳ ゴシック
 73
               1
 44
1.1742401076386764
  0
DIMENSION
  5
127
100
AcDbEntity
  8
notes
370
               5
390
0
  6
Continuous
 62
               7
100
AcDbDimension
  2
*D3
 10
-804.32808964001651
 20
942.686000368946
 30
0.0
 11
-514.32808964001833
 21
947.686000368946
 31
0.0
 70
             128
 71
               5
 72
               1
 41
1.0
 42
0.0
  3
tform線あり
100
AcDbAlignedDimension
 13
-224.32808964002015
 23
647.68000776540441
 33
0.0
 14
-804.32808964001651
 24
647.68000776540441
 34
0.0
100
AcDbRotatedDimension
1001
ACAD
1000
DSTYLE
1002
{
1070
             279
1070
               2
1070
             340
1005
32
1070
             147
1040
5.0
1002
}
  0
DIMENSION
  5
128
100
AcDbEntity
  8
notes
370
               5
390
0
  6
Continuous
 62
               7
100
AcDbDimension
  2
*D4
 10
-124.32808964002015
 20
842.686000368946
 30
0.0
 11
-124.32808964002015
 21
647.68000776540441
 31
0.0
 71
               5
 72
               1
 41
1.0
 42
0.0
  3
tform線あり
100
AcDbAlignedDimension
 13
-514.32808964002015
 23
452.67401516186283
 33
0.0
 14
-514.32808964002015
 24
842.686000368946
 34
0.0
 50
90.0
100
AcDbRotatedDimension
1001
ACAD
1000
DSTYLE
1002
{
1070
             279
1070
               2
1070
             340
1005
32
1070
             147
1040
5.0
1002
}
  0
DIMENSION
  5
129
100
AcDbEntity
  8
notes
370
               5
390
0
  6
Continuous
 62
               7
100
AcDbDimension
  2
*D5
 10
-124.75779535272136
 20
-374.73588508516218
 30
0.0
 11
-124.75779535272136
 21
-459.73588508516218
 31
0.0
 71
               5
 72
               1
 41
1.0
 42
0.0
  3
tform線あり
100
AcDbAlignedDimension
 13
-289.57802324573731
 23
-544.73588508516218
 33
0.0
 14
-232.32795685145811
 24
-374.73588508516218
 34
0.0
 50
90.0
100
AcDbRotatedDimension
1001
ACAD
1000
DSTYLE
1002
{
1070
             279
1070
               2
1070
             340
1005
32
1070
             147
1040
5.0
1002
}
  0
DIMENSION
  5
12A
100
AcDbEntity
  8
notes
370
               5
390
0
  6
Continuous
 62
               7
100
AcDbDimension
  2
*D6
 10
477.89520055910998
 20
-644.73588508516218
 30
0.0
 11
522.0
 21
-639.73588508516218
 31
0.0
 70
             128
 71
               5
 72
               1
 41
1.0
 42
0.0
  3
tform線あり
100
AcDbAlignedDimension
 13
637.8952005591093
 23
-382.13588508516227
 33
0.0
 14
477.89520055910998
 24
-544.73588508516218
 34
0.0
100
AcDbRotatedDimension
1001
ACAD
1000
DSTYLE
1002
{
1070
             279
1070
               2
1070
             340
1005
32
1070
             147
1040
5.0
1002
}
  0
DIMENSION
  5
12B
100
AcDbEntity
  8
notes
370
               5
390
0
  6
Continuous
 62
               7
100
AcDbDimension
  2
*D7
 10
471.35196062293198
 20
-499.73588508516218
 30
0.0
 11
476.35196062293198
 21
-359.73588508516218
 31
0.0
 70
             128
 71
               5
 72
               1
 41
1.0
 42
0.0
  3
tform線あり
100
AcDbAlignedDimension
 13
450.43116261468913
 23
-374.73588508516218
 33
0.0
 14
450.43116261468913
 24
-499.73588508516218
 34
0.0
 50
90.0
100
AcDbRotatedDimension
1001
ACAD
1000
DSTYLE
1002
{
1070
             279
1070
               2
1070
             340
1005
32
1070
               3
1000
<>(深さ)
1070
             174
1070
               0
1070
             147
1040
5.0
1002
}
  0
DIMENSION
  5
12C
100
AcDbEntity
  8
notes
370
               5
390
0
  6
Continuous
 62
               7
100
AcDbDimension
  2
*D8
 10
-771.82808964001833
 20
352.67401516186283
 30
0.0
 11
-514.32808964001833
 21
352.67401516186283
 31
0.0
 71
               5
 72
               1
 41
1.0
 42
0.0
  3
tform線あり
100
AcDbAlignedDimension
 13
-256.82808964001833
 23
554.58055003394202
 33
0.0
 14
-771.82808964001833
 24
554.58055003394202
 34
0.0
100
AcDbRotatedDimension
1001
ACAD
1000
DSTYLE
1002
{
1070
             279
1070
               2
1070
             340
1005
32
1070
             147
1040
5.0
1002
}
  0
DIMENSION
  5
12D
100
AcDbEntity
  8
notes
370
               5
390
0
  6
Continuous
 62
               7
100
AcDbDimension
  2
*D9
 10
-904.32808964001651
 20
810.18000776540441
 30
0.0
 11
-909.32808964001651
 21
647.68000776540441
 31
0.0
 70
             128
 71
               5
 72
               1
 41
1.0
 42
0.0
  3
tform線あり
100
AcDbAlignedDimension
 13
-663.81575298257167
 23
485.18000776540441
 33
0.0
 14
-663.81575298257167
 24
810.18000776540441
 34
0.0
 50
90.0
100
AcDbRotatedDimension
1001
ACAD
1000
DSTYLE
1002
{
1070
             279
1070
               2
1070
             340
1005
32
1070
             147
1040
5.0
1002
}
  0
MTEXT
  5
12E
100
AcDbEntity
  8
notes
390
0
 62
               7
100
AcDbMText
 10
40.0
 20
310.14107161426512
 30
0.0
 40
24.432617187500004
 41
860.0
 71
               1
 72
               1
  1
※陶器製品には寸法公差があります。\P  洗面器の収め方をご確認の上、必ず現物を合わせて\P  固定金具の穴あけ、カウンターの切込を行ってください。
  7
ＭＳ ゴシック
 73
               1
 44
1.0437689845677123
  0
MTEXT
  5
12F
100
AcDbEntity
  8
notes
390
0
 62
               7
100
AcDbMText
 10
40.0
 20
310.14107161426512
 30
0.0
 40
24.432617187500004
 41
860.0
 71
               1
 72
               1
  1
※陶器製品には寸法公差があります。\P  洗面器の収め方をご確認の上、必ず現物を合わせて\P  固定金具の穴あけ、カウンターの切込を行ってください。
  7
ＭＳ ゴシック
 73
               1
 44
1.0437689845677123
  0
MTEXT
  5
130
100
AcDbEntity
  8
notes
390
0
 62
               7
100
AcDbMText
 10
306.24307464548428
 20
1048.8776171874999
 30
0.0
 40
24.432617187500004
 41
0.0
 71
               1
 72
               1
  1
カウンター切込寸法
  7
ＭＳ ゴシック
 73
               1
 44
0.7828267384257843
  0
DIMENSION
  5
131
100
AcDbEntity
  8
notes
370
               5
390
0
  6
Continuous
 62
               7
100
AcDbDimension
  2
*D10
 10
621.11807464548428
 20
742.686000368946
 30
0.0
 11
621.11807464548428
 21
682.686000368946
 31
0.0
 71
               5
 72
               1
 41
1.0
 42
0.0
  3
tform線あり
100
AcDbAlignedDimension
 13
511.41158724348406
 23
622.686000368946
 33
0.0
 14
511.41158724348406
 24
742.686000368946
 34
0.0
 50
90.0
100
AcDbRotatedDimension
1001
ACAD
1000
DSTYLE
1002
{
1070
             279
1070
               2
1070
             340
1005
32
1070
             147
1040
5.0
1002
}
  0
MTEXT
  5
132
100
AcDbEntity
  8
notes
390
0
 62
               7
100
AcDbMText
 10
653.82232606846514
 20
469.14872089727646
 30
0.0
 40
24.432617187500004
 41
0.0
 71
               1
 72
               1
  1
固定金具用3ヶ所
  7
ＭＳ ゴシック
 73
               1
 44
0.7828267384257843
  0
LINE
  5
133
100
AcDbEntity
  8
notes
370
               5
390
0
  6
Continuous
 62
               7
100
AcDbLine
 10
553.91158724348406
 20
683.93971116371472
 30
0.0
 11
669.93288551870501
 21
482.98492779092862
 31
0.0
  0
DIMENSION
  5
134
100
AcDbEntity
  8
notes
370
               5
390
0
  6
Continuous
 62
               7
100
AcDbDimension
  2
*D11
 10
333.91152084920645
 20
942.686000368946
 30
0.0
 11
443.91155404634537
 21
942.686000368946
 31
0.0
 71
               5
 72
               1
 41
1.0
 42
0.0
  3
tform線あり
100
AcDbAlignedDimension
 13
553.91158724348406
 23
697.43971116371426
 33
0.0
 14
333.91152084920645
 24
697.43971116371449
 34
0.0
100
AcDbRotatedDimension
1001
ACAD
1000
DSTYLE
1002
{
1070
             279
1070
               2
1070
             340
1005
32
1070
             147
1040
5.0
1002
}
  0
DIMENSION
  5
135
100
AcDbEntity
  8
notes
370
               5
390
0
  6
Continuous
 62
               7
100
AcDbDimension
  2
*D12
 10
275.5
 20
697.686000368946
 30
0.0
 11
275.5
 21
690.186000368946
 31
0.0
 71
               5
 72
               1
 41
1.0
 42
0.0
  3
tform線あり
100
AcDbAlignedDimension
 13
421.41152084920623
 23
682.686000368946
 33
0.0
 14
327.16152084920645
 24
697.686000368946
 34
0.0
 50
90.0
100
AcDbRotatedDimension
1001
ACAD
1000
DSTYLE
1002
{
1070
             279
1070
               2
1070
             340
1005
32
1070
             147
1040
5.0
1002
}
  0
DIMENSION
  5
136
100
AcDbEntity
  8
notes
370
               5
390
0
  6
Continuous
 62
               7
100
AcDbDimension
  2
*D13
 10
275.5
 20
682.686000368946
 30
0.0
 11
275.5
 21
637.686000368946
 31
0.0
 71
               5
 72
               1
 41
1.0
 42
0.0
  3
tform線あり
100
AcDbAlignedDimension
 13
437.16152084920645
 23
592.686000368946
 33
0.0
 14
376.41158724348406
 24
682.686000368946
 34
0.0
 50
90.0
100
AcDbRotatedDimension
1001
ACAD
1000
DSTYLE
1002
{
1070
             279
1070
               2
1070
             340
1005
32
1070
             147
1040
5.0
1002
}
  0
DIMENSION
  5
137
100
AcDbEntity
  8
notes
370
               5
390
0
  6
Continuous
 62
               7
100
AcDbDimension
  2
*D14
 10
376.41158724348406
 20
520.0
 30
0.0
 11
443.91158724348406
 21
520.0
 31
0.0
 71
               5
 72
               1
 41
1.0
 42
0.0
  3
tform線あり
100
AcDbAlignedDimension
 13
511.41158724348406
 23
622.686000368946
 33
0.0
 14
376.41158724348406
 24
622.686000368946
 34
0.0
100
AcDbRotatedDimension
1001
ACAD
1000
DSTYLE
1002
{
1070
             279
1070
               2
1070
             340
1005
32
1070
             147
1040
5.0
1002
}
  0
DIMENSION
  5
138
100
AcDbEntity
  8
notes
370
               5
390
0
  6
Continuous
 62
               7
100
AcDbDimension
  2
*D15
 10
-739.08881679900423
 20
-644.73588508516218
 30
0.0
 11
-514.08881679900423
 21
-644.73588508516218
 31
0.0
 71
               5
 72
               1
 41
1.0
 42
0.0
  3
tform線あり
100
AcDbAlignedDimension
 13
-289.08881679900423
 23
-544.73588508516218
 33
0.0
 14
-739.08881679900423
 24
-544.73588508516218
 34
0.0
100
AcDbRotatedDimension
1001
ACAD
1000
DSTYLE
1002
{
1070
             279
1070
               2
1070
             340
1005
32
1070
             147
1040
5.0
1002
}
  0
DIMENSION
  5
139
100
AcDbEntity
  8
notes
370
               5
390
0
  6
Continuous
 62
               7
100
AcDbDimension
  2
*D16
 10
318.65086008449634
 20
-694.73588508516218
 30
0.0
 11
443.65086008449634
 21
-694.73588508516218
 31
0.0
 71
               5
 72
               1
 41
1.0
 42
0.0
  3
tform線あり
100
AcDbAlignedDimension
 13
568.65086008449634
 23
-544.73588508516218
 33
0.0
 14
318.65086008449634
 24
-544.73588508516218
 34
0.0
100
AcDbRotatedDimension
1001
ACAD
1000
DSTYLE
1002
{
1070
             279
1070
               2
1070
             340
1005
32
1070
             147
1040
5.0
1002
}
  0
CIRCLE
  5
13A
100
AcDbEntity
  8
ARJ70-0105
370
              15
390
0
  6
Continuous
 62
               7
100
AcDbCircle
 10
-514.32802324574277
 20
682.686000368946
 30
0.0
 40
22.499999999999091
  0
CIRCLE
  5
13B
100
AcDbEntity
  8
ARJ70-0105
370
              15
390
0
  6
Continuous
 62
               7
100
AcDbCircle
 10
-514.32802324574277
 20
682.686000368946
 30
0.0
 40
34.999999999999091
  0
LINE
  5
13C
100
AcDbEntity
  8
ARJ70-0105
370
              15
390
0
  6
Continuous
 62
               7
100
AcDbLine
 10
-803.68937190839551
 20
-385.86822021494368
 30
0.0
 11
-739.07802324573731
 21
-544.73588508516218
 31
0.0
  0
ARC
  5
13D
100
AcDbEntity
  8
ARJ70-0105
370
              15
390
0
  6
STYLE_01
 62
               7
100
AcDbCircle
 10
-500.44608552730233
 20
-184.68122981920055
 30
0.0
 40
310.95793909763006
100
AcDbArc
 50
274.59701712030449
 51
321.48166578388907
  0
LINE
  5
13E
100
AcDbEntity
  8
ARJ70-0105
370
              15
390
0
  6
Continuous
 62
               7
100
AcDbLine
 10
-796.32808964001651
 20
-374.73588508516218
 30
0.0
 11
-232.32795685145811
 21
-374.73588508516218
 31
0.0
  0
SPLINE
  5
13F
100
AcDbEntity
  8
ARJ70-0105
370
              15
390
0
  6
Continuous
 62
               7
100
AcDbSpline
210
0.0
220
0.0
230
1.0
 70
               9
 71
               2
 72
              28
 73
              25
 74
               0
 42
0.000001
 43
0.000001
 40
0.0
 40
0.0
 40
0.0
 40
1.0
 40
2.0
 40
3.0
 40
4.0
 40
5.0
 40
5.0
 40
6.0
 40
7.0
 40
8.0
 40
9.0
 40
10.0
 40
10.0
 40
11.0
 40
12.0
 40
13.0
 40
14.0
 40
15.0
 40
15.0
 40
16.0
 40
17.0
 40
18.0
 40
19.0
 40
20.0
 40
20.0
 40
20.0
 10
-804.32808964001651
 20
647.68000776540441
 30
0.0
 10
-804.26696680908481
 20
627.67762118514997
 30
0.0
 10
-789.31588223141671
 20
579.74631341270708
 30
0.0
 10
-748.34957419861439
 20
528.93239420168504
 30
0.0
 10
-686.54966391823427
 20
488.1484593835072
 30
0.0
 10
-583.85883842140811
 20
452.50634701977674
 30
0.0
 10
-514.32808964002015
 20
452.67401516186283
 30
0.0
 10
-444.6027661735061
 20
452.43000776540418
 30
0.0
 10
-341.96214169770383
 20
488.08451005846666
 30
0.0
 10
-280.08125473706787
 20
528.91396687274346
 30
0.0
 10
-239.12687140638627
 20
579.87265160494701
 30
0.0
 10
-224.38921247095186
 20
627.67762118514997
 30
0.0
 10
-224.32808964002015
 20
647.68000776540441
 30
0.0
 10
-224.38921247095277
 20
667.68239434565885
 30
0.0
 10
-239.34029704861996
 20
715.61370211810208
 30
0.0
 10
-280.30660508142319
 20
766.42762132912367
 30
0.0
 10
-342.10651536180239
 20
807.21155614730208
 30
0.0
 10
-444.79734085862901
 20
842.85366851103277
 30
0.0
 10
-514.32808964002015
 20
842.686000368946
 30
0.0
 10
-584.05341310653148
 20
842.93000776540418
 30
0.0
 10
-686.69403758233329
 20
807.27550547234262
 30
0.0
 10
-748.57492454296926
 20
766.44604865806582
 30
0.0
 10
-789.52930787365131
 20
715.48736392586204
 30
0.0
 10
-804.26696680908435
 20
667.68239434565885
 30
0.0
 10
-804.32808964001651
 20
647.68000776540441
 30
0.0
  0
SPLINE
  5
140
100
AcDbEntity
  8
ARJ70-0105
370
              15
390
0
  6
Continuous
 62
               7
100
AcDbSpline
210
0.0
220
0.0
230
1.0
 70
               9
 71
               2
 72
              28
 73
              25
 74
               0
 42
0.000001
 43
0.000001
 40
0.0
 40
0.0
 40
0.0
 40
1.0
 40
2.0
 40
3.0
 40
4.0
 40
5.0
 40
5.0
 40
6.0
 40
7.0
 40
8.0
 40
9.0
 40
10.0
 40
10.0
 40
11.0
 40
12.0
 40
13.0
 40
14.0
 40
15.0
 40
15.0
 40
16.0
 40
17.0
 40
18.0
 40
19.0
 40
20.0
 40
20.0
 40
20.0
 10
-774.32808964001651
 20
647.68631279839269
 30
0.0
 10
-774.26278922180927
 20
630.85504611927263
 30
0.0
 10
-760.72210857709388
 20
590.49122657288308
 30
0.0
 10
-723.90009608801256
 20
547.93506403413994
 30
0.0
 10
-668.53766354785967
 20
513.84645448730498
 30
0.0
 10
-576.48269805401196
 20
484.02183676183313
 30
0.0
 10
-514.32808964002015
 20
484.18631279839269
 30
0.0
 10
-452.01902608563796
 20
483.94840295177073
 30
0.0
 10
-359.99321365109699
 20
513.77639788312536
 30
0.0
 10
-304.54481287597309
 20
547.8952755086716
 30
0.0
 10
-267.71191559875069
 20
590.59217368427335
 30
0.0
 10
-254.39339005822785
 20
630.85504611927263
 30
0.0
 10
-254.32808964002015
 20
647.68631279839269
 30
0.0
 10
-254.39339005822831
 20
664.51757947751275
 30
0.0
 10
-267.93407070294279
 20
704.8813990239023
 30
0.0
 10
-304.75608319202456
 20
747.43756156264544
 30
0.0
 10
-360.11851573217746
 20
781.52617110948052
 30
0.0
 10
-452.17348122602516
 20
811.35078883495237
 30
0.0
 10
-514.32808964002015
 20
811.18631279839269
 30
0.0
 10
-576.63715319439962
 20
811.4242226450142
 30
0.0
 10
-668.66296562894058
 20
781.59622771366026
 30
0.0
 10
-724.11136640406403
 20
747.47735008811401
 30
0.0
 10
-760.94426368128597
 20
704.78045191251204
 30
0.0
 10
-774.26278922180973
 20
664.51757947751275
 30
0.0
 10
-774.32808964001651
 20
647.68631279839269
 30
0.0
  0
ARC
  5
141
100
AcDbEntity
  8
ARJ70-0105
370
              15
390
0
  6
Continuous
 62
               7
100
AcDbCircle
 10
-796.32808964001651
 20
-382.73588508516218
 30
0.0
 40
8.0
100
AcDbArc
 50
90.0
 51
203.05047444957273
  0
LINE
  5
142
100
AcDbEntity
  8
ARJ70-0105
370
              15
390
0
  6
Continuous
 62
               7
100
AcDbLine
 10
-224.96667458307911
 20
-385.86822021494368
 30
0.0
 11
-289.57802324573731
 21
-544.73588508516218
 31
0.0
  0
ARC
  5
143
100
AcDbEntity
  8
ARJ70-0105
370
              15
390
0
  6
Continuous
 62
               7
100
AcDbCircle
 10
-232.32795685145811
 20
-382.73588508516218
 30
0.0
 40
7.9999999999997646
100
AcDbArc
 50
336.94952555053709
 51
90.000000000000014
  0
LINE
  5
144
100
AcDbEntity
  8
ARJ70-0105
370
              15
390
0
  6
Continuous
 62
               7
100
AcDbLine
 10
-739.07802324573731
 20
-544.73588508516218
 30
0.0
 11
-289.57802324573731
 21
-544.73588508516218
 31
0.0
  0
LINE
  5
145
100
AcDbEntity
  8
ARJ70-0105
370
              15
390
0
  6
Continuous
 62
               7
100
AcDbLine
 10
636.77286951186238
 20
-385.86822021494368
 30
0.0
 11
569.1723144024711
 21
-544.73588508516218
 31
0.0
  0
ARC
  5
146
100
AcDbEntity
  8
ARJ70-0105
370
              15
390
0
  6
Continuous
 62
               7
100
AcDbCircle
 10
629.41158724348338
 20
-382.73588508516218
 30
0.0
 40
7.9999999999999343
100
AcDbArc
 50
336.94952555042602
 51
90.0
  0
LINE
  5
147
100
AcDbEntity
  8
ARJ70-0105
370
              15
390
0
  6
Continuous
 62
               7
100
AcDbLine
 10
251.05030497510506
 20
-385.86822021494368
 30
0.0
 11
318.65086008449634
 21
-544.73588508516218
 31
0.0
  0
ARC
  5
148
100
AcDbEntity
  8
ARJ70-0105
370
              15
390
0
  6
Continuous
 62
               7
100
AcDbCircle
 10
258.41158724348406
 20
-382.73588508516218
 30
0.0
 40
8.0
100
AcDbArc
 50
90.0
 51
203.05047444946175
  0
LINE
  5
149
100
AcDbEntity
  8
ARJ70-0105
370
              15
390
0
  6
Continuous
 62
               7
100
AcDbLine
 10
629.41158724348338
 20
-374.73588508516218
 30
0.0
 11
258.41158724348406
 21
-374.73588508516218
 31
0.0
  0
LINE
  5
14A
100
AcDbEntity
  8
ARJ70-0105
370
              15
390
0
  6
Continuous
 62
               7
100
AcDbLine
 10
569.1723144024711
 20
-544.73588508516218
 30
0.0
 11
318.65086008449634
 21
-544.73588508516218
 31
0.0
  0
LINE
  5
14B
100
AcDbEntity
  8
ARJ70-0105
370
              15
390
0
  6
STYLE_01
 62
               7
100
AcDbLine
 10
-551.80821406280302
 20
-494.72930671193058
 30
0.0
 11
-476.84796521719909
 21
-494.74246345839379
 31
0.0
  0
LINE
  5
14C
100
AcDbEntity
  8
ARJ70-0105
370
              15
390
0
  6
STYLE_01
 62
               7
100
AcDbLine
 10
-536.81842023800846
 20
-507.58512206286719
 30
0.0
 11
-491.84227092928268
 21
-507.59301611074511
 31
0.0
  0
LINE
  5
14D
100
AcDbEntity
  8
ARJ70-0105
370
              15
390
0
  6
STYLE_01
 62
               7
100
AcDbLine
 10
-536.81842023781201
 20
-507.58512206312184
 30
0.0
 11
-536.82405834224619
 21
-539.70808736866343
 31
0.0
  0
LINE
  5
14E
100
AcDbEntity
  8
ARJ70-0105
370
              15
390
0
  6
STYLE_01
 62
               7
100
AcDbLine
 10
-491.84790903349131
 20
-539.71598141653408
 30
0.0
 11
-491.8422709290935
 21
-507.59301611101432
 31
0.0
  0
ARC
  5
14F
100
AcDbEntity
  8
ARJ70-0105
370
              15
390
0
  6
STYLE_01
 62
               7
100
AcDbCircle
 10
-512.89897308276977
 20
-467.85047765164813
 30
0.0
 40
44.976149999234245
100
AcDbArc
 50
297.91588699990297
 51
321.63286883937513
  0
ARC
  5
150
100
AcDbEntity
  8
ARJ70-0105
370
              15
390
0
  6
STYLE_01
 62
               7
100
AcDbCircle
 10
-475.28328889809518
 20
-497.62918266156771
 30
0.0
 40
2.9999999999999569
100
AcDbArc
 50
94.597017120304699
 51
141.63286883938719
  0
ARC
  5
151
100
AcDbEntity
  8
ARJ70-0105
370
              15
390
0
  6
STYLE_01
 62
               7
100
AcDbCircle
 10
-515.74776845432871
 20
-467.84997764158356
 30
0.0
 40
44.976149999233286
100
AcDbArc
 50
218.36916137536534
 51
242.06400031271656
  0
ARC
  5
152
100
AcDbEntity
  8
ARJ70-0105
370
              15
390
0
  6
STYLE_01
 62
               7
100
AcDbCircle
 10
-553.36239743881015
 20
-497.63001550436707
 30
0.0
 40
2.9999999999996851
100
AcDbArc
 50
38.369161375035972
 51
85.404879656164027
  0
ARC
  5
153
100
AcDbEntity
  8
ARJ70-0105
370
              15
390
0
  6
STYLE_01
 62
               7
100
AcDbCircle
 10
-250.42904522626759
 20
-382.73588508516218
 30
0.0
 40
8.0
100
AcDbArc
 50
90.0
 51
141.614980078287
  0
ARC
  5
154
100
AcDbEntity
  8
ARJ70-0105
370
              15
390
0
  6
STYLE_01
 62
               7
100
AcDbCircle
 10
-528.20996096417548
 20
-184.68122981920055
 30
0.0
 40
310.95793909762796
100
AcDbArc
 50
217.67566096734396
 51
265.40487965616472
  0
ARC
  5
155
100
AcDbEntity
  8
ARJ70-0105
370
              15
390
0
  6
STYLE_01
 62
               7
100
AcDbCircle
 10
-778.22700126520704
 20
-382.73588508516218
 30
0.0
 40
7.9999999999997966
100
AcDbArc
 50
38.385019922140522
 51
90.0
  0
LINE
  5
156
100
AcDbEntity
  8
ARJ70-0105
370
              15
390
0
  6
STYLE_01
 62
               7
100
AcDbLine
 10
514.89171166627693
 20
-494.72930671193058
 30
0.0
 11
439.93146282066937
 21
-494.74246345839379
 31
0.0
  0
LINE
  5
157
100
AcDbEntity
  8
ARJ70-0105
370
              15
390
0
  6
STYLE_01
 62
               7
100
AcDbLine
 10
499.90191784148101
 20
-507.58512206286719
 30
0.0
 11
454.92576853275295
 21
-507.59301611074511
 31
0.0
  0
LINE
  5
158
100
AcDbEntity
  8
ARJ70-0105
370
              15
390
0
  6
STYLE_01
 62
               7
100
AcDbLine
 10
499.90191784148101
 20
-507.58512206286719
 30
0.0
 11
499.90755594571874
 21
-539.70808736866343
 31
0.0
  0
LINE
  5
159
100
AcDbEntity
  8
ARJ70-0105
370
              15
390
0
  6
STYLE_01
 62
               7
100
AcDbLine
 10
454.93140663696158
 20
-539.71598141653408
 30
0.0
 11
454.92576853256378
 21
-507.59301611101432
 31
0.0
  0
ARC
  5
15A
100
AcDbEntity
  8
ARJ70-0105
370
              15
390
0
  6
STYLE_01
 62
               7
100
AcDbCircle
 10
475.98247068624096
 20
-467.85047765164813
 30
0.0
 40
44.976149999234686
100
AcDbArc
 50
218.53038451824233
 51
242.08411300009482
  0
ARC
  5
15B
100
AcDbEntity
  8
ARJ70-0105
370
              15
390
0
  6
STYLE_01
 62
               7
100
AcDbCircle
 10
438.45178779969774
 20
-497.73624032919975
 30
0.0
 40
3.0000000000001701
100
AcDbArc
 50
38.530384518136387
 51
89.508179173727612
  0
ARC
  5
15C
100
AcDbEntity
  8
ARJ70-0105
370
              15
390
0
  6
STYLE_01
 62
               7
100
AcDbCircle
 10
478.83126605780035
 20
-467.84997764158356
 30
0.0
 40
44.97614999923475
100
AcDbArc
 50
297.93599968728495
 51
321.55011289876671
  0
ARC
  5
15D
100
AcDbEntity
  8
ARJ70-0105
370
              15
390
0
  6
STYLE_01
 62
               7
100
AcDbCircle
 10
516.40389974202026
 20
-497.6829822971747
 30
0.0
 40
3.0000000000000253
100
AcDbArc
 50
93.071543599373598
 51
141.5501128987639
  0
ARC
  5
15E
100
AcDbEntity
  8
ARJ70-0105
370
              15
390
0
  6
STYLE_01
 62
               7
100
AcDbCircle
 10
439.90232953384748
 20
-328.75625078331245
 30
0.0
 40
165.98621523145198
100
AcDbArc
 50
198.07443967432465
 51
269.50817917372763
  0
ARC
  5
15F
100
AcDbEntity
  8
ARJ70-0105
370
              15
390
0
  6
STYLE_01
 62
               7
100
AcDbCircle
 10
393.07771849780602
 20
-315.70907628806413
 30
0.0
 40
222.31322879210379
100
AcDbArc
 50
309.20558385717641
 51
343.08069440221885
  0
ARC
  5
160
100
AcDbEntity
  8
ARJ70-0105
370
              15
390
0
  6
STYLE_01
 62
               7
100
AcDbCircle
 10
514.63516386657921
 20
-464.72105346350395
 30
0.0
 40
30.009349872922602
100
AcDbArc
 50
273.07154359937448
 51
309.20253852868689
  0
LINE
  5
161
100
AcDbEntity
  8
ARJ70-0105
370
              15
390
0
  6
STYLE_01
 62
               7
100
AcDbLine
 10
514.89171166654614
 20
-494.72930671156314
 30
0.0
 11
514.63983798031313
 21
-494.72930671156314
 31
0.0
  0
ARC
  5
162
100
AcDbEntity
  8
ARJ70-0105
370
              15
390
0
  6
STYLE_01
 62
               7
100
AcDbCircle
 10
613.42197247126592
 20
-382.73588508516218
 30
0.0
 40
8.0
100
AcDbArc
 50
90.0
 51
163.0806944021241
  0
LINE
  5
163
100
AcDbEntity
  8
ARJ70-0105
370
              15
390
0
  6
STYLE_01
 62
               7
100
AcDbLine
 10
499.90755594571874
 20
-539.70808736866343
 30
0.0
 11
454.93140594395118
 21
-539.71203300719094
 31
0.0
  0
LINE
  5
164
100
AcDbEntity
  8
ARJ70-0105
370
              15
390
0
  6
STYLE_01
 62
               7
100
AcDbLine
 10
-536.82405834224619
 20
-539.70808736866343
 30
0.0
 11
-491.84790903349131
 21
-539.71598141653408
 31
0.0
  0
ARC
  5
165
100
AcDbEntity
  8
ARJ70-0105
370
              15
390
0
  6
STYLE_01
 62
               7
100
AcDbCircle
 10
274.5015974580665
 20
-382.73588508516218
 30
0.0
 40
8.0000000000000036
100
AcDbArc
 50
18.07443967437165
 51
90.0
  0
CIRCLE
  5
166
100
AcDbEntity
  8
ARJ70-0105
370
               5
390
0
  6
STYLE_13
 62
               7
100
AcDbCircle
 10
443.91152084920645
 20
682.686000368946
 30
0.0
 40
22.500000000000227
  0
SPLINE
  5
167
100
AcDbEntity
  8
ARJ70-0105
370
               5
390
0
  6
STYLE_13
 62
               7
100
AcDbSpline
210
0.0
220
0.0
230
1.0
 70
               9
 71
               2
 72
              28
 73
              25
 74
               0
 42
0.000001
 43
0.000001
 40
0.0
 40
0.0
 40
0.0
 40
1.0
 40
2.0
 40
3.0
 40
4.0
 40
5.0
 40
5.0
 40
6.0
 40
7.0
 40
8.0
 40
9.0
 40
10.0
 40
10.0
 40
11.0
 40
12.0
 40
13.0
 40
14.0
 40
15.0
 40
15.0
 40
16.0
 40
17.0
 40
18.0
 40
19.0
 40
20.0
 40
20.0
 40
20.0
 10
153.91152084920668
 20
647.72177920932495
 30
0.0
 10
153.97264368013862
 20
627.7193926290704
 30
0.0
 10
168.92372825780672
 20
579.78808485662751
 30
0.0
 10
209.89003629060926
 20
528.97416564560547
 30
0.0
 10
271.68994657098915
 20
488.19023082742768
 30
0.0
 10
374.38077206781531
 20
452.54811846369705
 30
0.0
 10
443.91152084920668
 20
452.71578660578325
 30
0.0
 10
513.63684431572096
 20
452.47177920932472
 30
0.0
 10
616.27746879152255
 20
488.12628150238709
 30
0.0
 10
678.15835575215851
 20
528.95573831666388
 30
0.0
 10
719.11273908284011
 20
579.91442304886743
 30
0.0
 10
733.85039801827452
 20
627.7193926290704
 30
0.0
 10
733.91152084920623
 20
647.72177920932495
 30
0.0
 10
733.85039801827361
 20
667.72416578957927
 30
0.0
 10
718.89931344060642
 20
715.65547356202251
 30
0.0
 10
677.93300540780319
 20
766.46939277304421
 30
0.0
 10
616.13309512742399
 20
807.25332759122261
 30
0.0
 10
513.44226963059805
 20
842.89543995495319
 30
0.0
 10
443.91152084920668
 20
842.72777181286654
 30
0.0
 10
374.18619738269194
 20
842.97177920932472
 30
0.0
 10
271.54557290689036
 20
807.31727691626315
 30
0.0
 10
209.66468594625417
 20
766.48782010198624
 30
0.0
 10
168.71030261557189
 20
715.52913536978258
 30
0.0
 10
153.97264368013907
 20
667.72416578957927
 30
0.0
 10
153.91152084920668
 20
647.72177920932495
 30
0.0
  0
SPLINE
  5
168
100
AcDbEntity
  8
ARJ70-0105
370
               5
390
0
  6
STYLE_13
 62
               7
100
AcDbSpline
210
0.0
220
0.0
230
1.0
 70
               9
 71
               2
 72
              28
 73
              25
 74
               0
 42
0.000001
 43
0.000001
 40
0.0
 40
0.0
 40
0.0
 40
1.0
 40
2.0
 40
3.0
 40
4.0
 40
5.0
 40
5.0
 40
6.0
 40
7.0
 40
8.0
 40
9.0
 40
10.0
 40
10.0
 40
11.0
 40
12.0
 40
13.0
 40
14.0
 40
15.0
 40
15.0
 40
16.0
 40
17.0
 40
18.0
 40
19.0
 40
20.0
 40
20.0
 40
20.0
 10
183.91152084920668
 20
641.98111525185686
 30
0.0
 10
183.97682126741415
 20
625.1498485727368
 30
0.0
 10
197.51750191212955
 20
584.78602902634725
 30
0.0
 10
234.33951440121086
 20
542.22986648760411
 30
0.0
 10
289.70194694136376
 20
508.14125694076915
 30
0.0
 10
381.75691243521146
 20
478.3166392152973
 30
0.0
 10
443.91152084920668
 20
478.48111525185686
 30
0.0
 10
506.2205844035891
 20
478.2432054052349
 30
0.0
 10
598.24639683812939
 20
508.07120033658953
 30
0.0
 10
653.69479761325329
 20
542.19007796213577
 30
0.0
 10
690.52769489047569
 20
584.88697613773752
 30
0.0
 10
703.84622043099853
 20
625.1498485727368
 30
0.0
 10
703.91152084920623
 20
641.98111525185686
 30
0.0
 10
703.84622043099807
 20
658.81238193097693
 30
0.0
 10
690.30553978628359
 20
699.17620147736648
 30
0.0
 10
653.48352729720182
 20
741.73236401610961
 30
0.0
 10
598.12109475704892
 20
775.82097356294469
 30
0.0
 10
506.0661292632019
 20
805.64559128841654
 30
0.0
 10
443.91152084920668
 20
805.48111525185686
 30
0.0
 10
381.60245729482381
 20
805.71902509847837
 30
0.0
 10
289.57664486028284
 20
775.89103016712443
 30
0.0
 10
234.12824408515939
 20
741.77215254157818
 30
0.0
 10
197.29534680793745
 20
699.07525436597621
 30
0.0
 10
183.9768212674137
 20
658.81238193097693
 30
0.0
 10
183.91152084920668
 20
641.98111525185686
 30
0.0
  0
CIRCLE
  5
169
100
AcDbEntity
  8
ARJ70-0105
370
              15
390
0
  6
Continuous
 62
               7
100
AcDbCircle
 10
333.91152084920645
 20
697.686000368946
 30
0.0
 40
6.75
  0
CIRCLE
  5
16A
100
AcDbEntity
  8
ARJ70-0105
370
              15
390
0
  6
Continuous
 62
               7
100
AcDbCircle
 10
553.91158724348406
 20
690.68971116371449
 30
0.0
 40
6.7499999999997726
  0
CIRCLE
  5
16B
100
AcDbEntity
  8
ARJ70-0105
370
              15
390
0
  6
Continuous
 62
               7
100
AcDbCircle
 10
443.91152084920645
 20
592.686000368946
 30
0.0
 40
6.75
  0
SPLINE
  5
16C
100
AcDbEntity
  8
ARJ70-0105
370
              15
390
0
  6
Continuous
 62
               7
100
AcDbSpline
210
0.0
220
0.0
230
1.0
 70
               9
 71
               2
 72
              17
 73
              14
 74
               0
 42
0.000001
 43
0.000001
 40
0.0
 40
0.0
 40
0.0
 40
1.0
 40
2.0
 40
3.0
 40
4.0
 40
5.0
 40
6.0
 40
7.0
 40
8.0
 40
9.0
 40
10.0
 40
11.0
 40
12.0
 40
12.0
 40
12.0
 10
-520.32808964000469
 20
793.58084178109777
 30
0.0
 10
-517.54347994917862
 20
793.94927192069053
 30
0.0
 10
-511.11269933083213
 20
793.94927192069053
 30
0.0
 10
-505.54347994917953
 20
793.21241164150501
 30
0.0
 10
-502.32808964000606
 20
791.93613219987617
 30
0.0
 10
-502.32808964000606
 20
790.46241164150501
 30
0.0
 10
-505.54347994917953
 20
789.18613219987617
 30
0.0
 10
-511.11269933083213
 20
788.44927192069053
 30
0.0
 10
-517.54347994917862
 20
788.44927192069053
 30
0.0
 10
-523.11269933083122
 20
789.18613219987617
 30
0.0
 10
-526.32808964000469
 20
790.46241164150501
 30
0.0
 10
-526.32808964000469
 20
791.93613219987617
 30
0.0
 10
-523.11269933083122
 20
793.21241164150501
 30
0.0
 10
-520.32808964000469
 20
793.58084178109777
 30
0.0
  0
POLYLINE
  5
16D
100
AcDbEntity
  8
ARJ70-0105
370
              15
390
0
  6
Continuous
 62
               7
100
AcDb2dPolyline
 66
               1
 10
0.0
 20
0.0
 30
0.0
 70
               1
 75
               5
  0
VERTEX
  5
16E
100
AcDbEntity
  8
ARJ70-0105
370
              15
390
0
  6
Continuous
 62
               7
100
AcDbVertex
100
AcDb2dVertex
 10
376.41158724348406
 20
742.686000368946
 30
0.0
  0
VERTEX
  5
16F
100
AcDbEntity
  8
ARJ70-0105
370
              15
390
0
  6
Continuous
 62
               7
100
AcDbVertex
100
AcDb2dVertex
 10
511.41158724348406
 20
742.686000368946
 30
0.0
  0
VERTEX
  5
170
100
AcDbEntity
  8
ARJ70-0105
370
              15
390
0
  6
Continuous
 62
               7
100
AcDbVertex
100
AcDb2dVertex
 10
511.41158724348406
 20
622.686000368946
 30
0.0
  0
VERTEX
  5
171
100
AcDbEntity
  8
ARJ70-0105
370
              15
390
0
  6
Continuous
 62
               7
100
AcDbVertex
100
AcDb2dVertex
 10
376.41158724348406
 20
622.686000368946
 30
0.0
  0
SEQEND
  5
172
100
AcDbEntity
  8
ARJ70-0105
370
              15
390
0
  6
Continuous
 62
               7
  0
ENDSEC
  0
SECTION
  2
OBJECTS
  0
DICTIONARY
  5
19
100
AcDbDictionary
280
               0
281
               1
  3
ACAD_GROUP
350
1A
  3
ACAD_MLINESTYLE
350
1B
  3
ACAD_LAYOUT
350
1E
  3
ACAD_PLOTSETTINGS
350
22
  3
ACAD_PLOTSTYLENAME
350
1F
  0
DICTIONARY
  5
1A
102
{ACAD_REACTORS
330
19
102
}
100
AcDbDictionary
280
               0
281
               1
  0
DICTIONARY
  5
1B
102
{ACAD_REACTORS
330
19
102
}
100
AcDbDictionary
280
               0
281
               1
  3
Standard
350
1C
  0
MLINESTYLE
  5
1C
102
{ACAD_REACTORS
330
1B
102
}
100
AcDbMlineStyle
  2
Standard
 70
               0
  3

 62
               0
 51
90.0
 52
90.0
 71
               2
 49
0.5
 62
             256
  6
ByLayer
 49
-0.5
 62
             256
  6
ByLayer
  0
ACDBDICTIONARYWDFLT
  5
1F
102
{ACAD_REACTORS
330
19
102
}
100
AcDbDictionary
281
               1
  3
Normal
350
1D
100
AcDbDictionaryWithDefault
340
1D
  0
ACDBPLACEHOLDER
  5
1D
102
{ACAD_REACTORS
330
1F
102
}
  0
LAYOUT
  5
20
102
{ACAD_REACTORS
330
1E
102
}
100
AcDbPlotSettings
  1

  2

  4

  6

 40
0.0
 41
0.0
 42
0.0
 43
0.0
 44
0.0
 45
0.0
 46
0.0
 47
0.0
 48
0.0
 49
0.0
140
0.0
141
0.0
142
1.0
143
1.0
 70
            1024
 72
               0
 73
               0
 74
               0
  7

 75
               0
147
1.0
148
0.0
149
0.0
100
AcDbLayout
  1
Model
 70
               0
 71
               0
 10
0.0
 20
0.0
 11
0.0
 21
0.0
 12
0.0
 22
0.0
 32
0.0
 14
0.0
 24
0.0
 34
0.0
 15
0.0
 25
0.0
 35
0.0
146
0.0
 13
0.0
 23
0.0
 33
0.0
 16
0.0
 26
0.0
 36
0.0
 17
0.0
 27
0.0
 37
0.0
 76
               0
330
A
331
0
345
0
346
0
  0
LAYOUT
  5
21
102
{ACAD_REACTORS
330
1E
102
}
100
AcDbPlotSettings
  1

  2

  4

  6

 40
0.0
 41
0.0
 42
0.0
 43
0.0
 44
0.0
 45
0.0
 46
0.0
 47
0.0
 48
0.0
 49
0.0
140
0.0
141
0.0
142
1.0
143
1.0
 70
               0
 72
               0
 73
               0
 74
               0
  7

 75
               0
147
1.0
148
0.0
149
0.0
100
AcDbLayout
  1
Layout1
 70
               0
 71
               0
 10
0.0
 20
0.0
 11
0.0
 21
0.0
 12
0.0
 22
0.0
 32
0.0
 14
0.0
 24
0.0
 34
0.0
 15
0.0
 25
0.0
 35
0.0
146
0.0
 13
0.0
 23
0.0
 33
0.0
 16
0.0
 26
0.0
 36
0.0
 17
0.0
 27
0.0
 37
0.0
 76
               0
330
B
331
0
345
0
346
0
  0
DICTIONARY
  5
1E
102
{ACAD_REACTORS
330
19
102
}
100
AcDbDictionary
280
               0
281
               1
  3
Layout1
350
21
  3
Model
350
20
  0
DICTIONARY
  5
22
102
{ACAD_REACTORS
330
19
102
}
100
AcDbDictionary
280
               0
281
               1
  0
ENDSEC
  0
EOF
