  0
SECTION
  2
HEADER
  9
$ACADVER
  1
AC1015
  9
$ACADMAINTVER
 70
               6
  9
$DWGCODEPAGE
  3
ANSI_932
  9
$INSBASE
 10
0.0
 20
0.0
 30
0.0
  9
$EXTMIN
 10
-975.00000000024011
 20
-1418.761407556206
 30
-14.834305555555556
  9
$EXTMAX
 10
975.00000000024284
 20
1418.7614075562064
 30
14.834305555555556
  9
$LIMMIN
 10
0.0
 20
0.0
  9
$LIMMAX
 10
0.0
 20
0.0
  9
$ORTHOMODE
 70
               0
  9
$REGENMODE
 70
               1
  9
$FILLMODE
 70
               1
  9
$QTEXTMODE
 70
               0
  9
$MIRRTEXT
 70
               1
  9
$LTSCALE
 40
25.399999999999999
  9
$ATTMODE
 70
               1
  9
$TEXTSIZE
 40
0.2
  9
$TRACEWID
 40
1.0
  9
$TEXTSTYLE
  7
Standard
  9
$CLAYER
  8
notes
  9
$CELTYPE
  6
Continuous
  9
$CECOLOR
 62
             256
  9
$CELTSCALE
 40
1.0
  9
$DISPSILH
 70
               0
  9
$DIMSCALE
 40
1.0
  9
$DIMASZ
 40
31.75
  9
$DIMEXO
 40
0.0
  9
$DIMDLI
 40
6.9999999999999396
  9
$DIMRND
 40
0.0
  9
$DIMDLE
 40
0.0
  9
$DIMEXE
 40
19.999999999996199
  9
$DIMTP
 40
0.0
  9
$DIMTM
 40
0.0
  9
$DIMTXT
 40
24.432617187500004
  9
$DIMCEN
 40
0.0
  9
$DIMTSZ
 40
0.0
  9
$DIMTOL
 70
               0
  9
$DIMLIM
 70
               0
  9
$DIMTIH
 70
               0
  9
$DIMTOH
 70
               0
  9
$DIMSE1
 70
               0
  9
$DIMSE2
 70
               0
  9
$DIMTAD
 70
               1
  9
$DIMZIN
 70
              11
  9
$DIMBLK
  1
VW_FILLEDARROW
  9
$DIMASO
 70
               1
  9
$DIMSHO
 70
               1
  9
$DIMPOST
  1
<>
  9
$DIMAPOST
  1
[]
  9
$DIMALT
 70
               0
  9
$DIMALTD
 70
               1
  9
$DIMALTF
 40
1.0
  9
$DIMLFAC
 40
1.0
  9
$DIMTOFL
 70
               0
  9
$DIMTVP
 40
0.0
  9
$DIMTIX
 70
               1
  9
$DIMSOXD
 70
               0
  9
$DIMSAH
 70
               0
  9
$DIMBLK1
  1

  9
$DIMBLK2
  1

  9
$DIMSTYLE
  2
JIS
  9
$DIMCLRD
 70
               0
  9
$DIMCLRE
 70
               0
  9
$DIMCLRT
 70
               0
  9
$DIMTFAC
 40
1.0
  9
$DIMGAP
 40
1.00000000000108
  9
$DIMJUST
 70
               0
  9
$DIMSD1
 70
               0
  9
$DIMSD2
 70
               0
  9
$DIMTOLJ
 70
               1
  9
$DIMTZIN
 70
              11
  9
$DIMALTZ
 70
              11
  9
$DIMALTTZ
 70
              11
  9
$DIMUPT
 70
               0
  9
$DIMDEC
 70
               1
  9
$DIMTDEC
 70
               1
  9
$DIMALTU
 70
               2
  9
$DIMALTTD
 70
               2
  9
$DIMTXSTY
  7
ＭＳ ゴシック
  9
$DIMAUNIT
 70
               0
  9
$DIMADEC
 70
               2
  9
$DIMALTRND
 40
0.0
  9
$DIMAZIN
 70
               0
  9
$DIMDSEP
 70
              46
  9
$DIMATFIT
 70
               0
  9
$DIMFRAC
 70
               2
  9
$DIMLDRBLK
  1

  9
$DIMLUNIT
 70
               2
  9
$DIMLWD
 70
              -2
  9
$DIMLWE
 70
              -2
  9
$DIMTMOVE
 70
               0
  9
$LUNITS
 70
               2
  9
$LUPREC
 70
               4
  9
$SKETCHINC
 40
0.1
  9
$FILLETRAD
 40
0.0
  9
$AUNITS
 70
               0
  9
$AUPREC
 70
               0
  9
$MENU
  1
acad
  9
$ELEVATION
 40
0.0
  9
$PELEVATION
 40
0.0
  9
$THICKNESS
 40
0.0
  9
$LIMCHECK
 70
               0
  9
$CHAMFERA
 40
0.0
  9
$CHAMFERB
 40
0.0
  9
$CHAMFERC
 40
0.0
  9
$CHAMFERD
 40
0.0
  9
$SKPOLY
 70
               0
  9
$TDCREATE
 40
2455569.425092592
  9
$TDUCREATE
 40
0.000000000
  9
$TDUPDATE
 40
2455569.425092592
  9
$TDUUPDATE
 40
0.000000000
  9
$TDINDWG
 40
0.0000000000
  9
$TDUSRTIMER
 40
0.0000000000
  9
$USRTIMER
 70
               1
  9
$ANGBASE
 50
0.0
  9
$ANGDIR
 70
               0
  9
$PDMODE
 70
               1
  9
$PDSIZE
 40
-2.0
  9
$PLINEWID
 40
0.0
  9
$SPLFRAME
 70
               0
  9
$SPLINETYPE
 70
               6
  9
$SPLINESEGS
 70
               8
  9
$HANDSEED
  5
27E
  9
$SURFTAB1
 70
               6
  9
$SURFTAB2
 70
               6
  9
$SURFTYPE
 70
               6
  9
$SURFU
 70
               6
  9
$SURFV
 70
               6
  9
$UCSBASE
  2

  9
$UCSNAME
  2

  9
$UCSORG
 10
0.0
 20
0.0
 30
0.0
  9
$UCSXDIR
 10
1.0
 20
0.0
 30
0.0
  9
$UCSYDIR
 10
0.0
 20
1.0
 30
0.0
  9
$UCSORTHOREF
  2

  9
$UCSORTHOVIEW
 70
               0
  9
$UCSORGTOP
 10
0.0
 20
0.0
 30
0.0
  9
$UCSORGBOTTOM
 10
0.0
 20
0.0
 30
0.0
  9
$UCSORGLEFT
 10
0.0
 20
0.0
 30
0.0
  9
$UCSORGRIGHT
 10
0.0
 20
0.0
 30
0.0
  9
$UCSORGFRONT
 10
0.0
 20
0.0
 30
0.0
  9
$UCSORGBACK
 10
0.0
 20
0.0
 30
0.0
  9
$PUCSBASE
  2

  9
$PUCSNAME
  2

  9
$PUCSORG
 10
0.0
 20
0.0
 30
0.0
  9
$PUCSXDIR
 10
1.0
 20
0.0
 30
0.0
  9
$PUCSYDIR
 10
0.0
 20
1.0
 30
0.0
  9
$PUCSORTHOREF
  2

  9
$PUCSORTHOVIEW
 70
               0
  9
$PUCSORGTOP
 10
0.0
 20
0.0
 30
0.0
  9
$PUCSORGBOTTOM
 10
0.0
 20
0.0
 30
0.0
  9
$PUCSORGLEFT
 10
0.0
 20
0.0
 30
0.0
  9
$PUCSORGRIGHT
 10
0.0
 20
0.0
 30
0.0
  9
$PUCSORGFRONT
 10
0.0
 20
0.0
 30
0.0
  9
$PUCSORGBACK
 10
0.0
 20
0.0
 30
0.0
  9
$USERI1
 70
               0
  9
$USERI2
 70
               0
  9
$USERI3
 70
               0
  9
$USERI4
 70
               0
  9
$USERI5
 70
               0
  9
$USERR1
 40
0.0
  9
$USERR2
 40
0.0
  9
$USERR3
 40
0.0
  9
$USERR4
 40
0.0
  9
$USERR5
 40
0.0
  9
$WORLDVIEW
 70
               1
  9
$SHADEDGE
 70
               3
  9
$SHADEDIF
 70
              70
  9
$TILEMODE
 70
               1
  9
$MAXACTVP
 70
              64
  9
$PINSBASE
 10
0.0
 20
0.0
 30
0.0
  9
$PLIMCHECK
 70
               0
  9
$PEXTMIN
 10
1.0000000000000000E+20
 20
1.0000000000000000E+20
 30
1.0000000000000000E+20
  9
$PEXTMAX
 10
-1.0000000000000000E+20
 20
-1.0000000000000000E+20
 30
-1.0000000000000000E+20
  9
$PLIMMIN
 10
0.0
 20
0.0
  9
$PLIMMAX
 10
12.0
 20
9.0
  9
$UNITMODE
 70
               0
  9
$VISRETAIN
 70
               0
  9
$PLINEGEN
 70
               1
  9
$PSLTSCALE
 70
               0
  9
$TREEDEPTH
 70
            3020
  9
$CMLSTYLE
  2
Standard
  9
$CMLJUST
 70
               0
  9
$CMLSCALE
 40
1.0
  9
$PROXYGRAPHICS
 70
               0
  9
$MEASUREMENT
 70
               1
  9
$CELWEIGHT
370
               0
  9
$ENDCAPS
280
               0
  9
$JOINSTYLE
280
               0
  9
$LWDISPLAY
290
               1
  9
$INSUNITS
 70
               4
  9
$HYPERLINKBASE
  1

  9
$STYLESHEET
  1

  9
$XEDIT
290
               1
  9
$CEPSNTYPE
380
               0
  9
$PSTYLEMODE
290
               1
  9
$FINGERPRINTGUID
  2

  9
$VERSIONGUID
  2

  9
$EXTNAMES
290
               1
  9
$PSVPSCALE
 40
0.0
  0
ENDSEC
  0
SECTION
  2
CLASSES
  0
CLASS
  1
LWPOLYLINE
  2
AcDbPolyline
  3
AutoCAD 2000
 90
        0
280
               0
281
               1
  0
CLASS
  1
IMAGE
  2
AcDbRasterImage
  3
ISM
 90
      127
280
               0
281
               1
  0
CLASS
  1
OLE2FRAME
  2
AcDbOle2Frame
  3
AutoCAD 2000
 90
        0
280
               0
281
               1
  0
CLASS
  1
HATCH
  2
AcDbHatch
  3
AutoCAD 2000
 90
        0
280
               0
281
               1
  0
CLASS
  1
DICTIONARYVAR
  2
AcDbDictionaryVar
  3
AutoCAD 2000
 90
        0
280
               0
281
               0
  0
CLASS
  1
RASTERVARIABLES
  2
AcDbRasterVariables
  3
ISM
 90
        0
280
               0
281
               0
  0
CLASS
  1
IMAGEDEF
  2
AcDbRasterImageDef
  3
ISM
 90
        0
280
               0
281
               0
  0
CLASS
  1
IMAGEDEF_REACTOR
  2
AcDbRasterImageDefReactor
  3
ISM
 90
        1
280
               0
281
               0
  0
CLASS
  1
IDBUFFER
  2
AcDbIdBuffer
  3
AutoCAD 2000
 90
        0
280
               0
281
               0
  0
CLASS
  1
SPATIAL_FILTER
  2
AcDbSpatialFilter
  3
AutoCAD 2000
 90
        0
280
               0
281
               0
  0
CLASS
  1
XRECORD
  2
AcDbXrecord
  3
AutoCAD 2000
 90
        0
280
               0
281
               0
  0
CLASS
  1
SORTENTSTABLE
  2
AcDbSortentsTable
  3
AutoCAD 2000
 90
        0
280
               0
281
               0
  0
CLASS
  1
LAYER_INDEX
  2
AcDbLayerIndex
  3
AutoCAD 2000
 90
        0
280
               0
281
               0
  0
CLASS
  1
SPATIAL_INDEX
  2
AcDbSpatialIndex
  3
AutoCAD 2000
 90
        0
280
               0
281
               0
  0
CLASS
  1
OBJECT_PTR
  2
CAseDLPNTableRecord
  3
"ASE-LPNTableRecord"
 90
        1
280
               0
281
               0
  0
CLASS
  1
LAYOUT
  2
AcDbLayout
  3
AutoCAD 2000
 90
        0
280
               0
281
               0
  0
CLASS
  1
PLOTSETTINGS
  2
AcDbPlotSettings
  3
AutoCAD 2000
 90
        0
280
               0
281
               0
  0
CLASS
  1
ACDBDICTIONARYWDFLT
  2
AcDbDictionaryWithDefault
  3
AutoCAD 2000
 90
        0
280
               0
281
               0
  0
CLASS
  1
ACDBPLACEHOLDER
  2
AcDbPlaceHolder
  3
AutoCAD 2000
 90
        0
280
               0
281
               0
  0
ENDSEC
  0
SECTION
  2
TABLES
  0
TABLE
  2
VPORT
  5
7
100
AcDbSymbolTable
 70
               1
  0
VPORT
  5
15
100
AcDbSymbolTableRecord
100
AcDbViewportTableRecord
  2
*ACTIVE
 70
               0
 10
0.0
 20
0.0
 11
1.0
 21
1.0
 12
0.0000000000013642
 22
0.0000000000002274
 13
0.0
 23
0.0
 14
1.0
 24
1.0
 15
0.0
 25
0.0
 16
0.0
 26
0.0
 36
1.0
 17
0.0
 27
0.0
 37
0.0
 40
2837.5228151124124
 41
0.688564
 42
50.0
 43
0.0
 44
0.0
 50
0.0
 51
0.0
 71
               0
 72
            2000
 73
               1
 74
               1
 75
               0
 76
               0
 77
               0
 78
               0
281
               0
 65
               0
110
0.0
120
0.0
130
0.0
111
1.0
121
0.0
131
0.0
112
0.0
122
1.0
132
0.0
345
0
346
0
 79
               0
146
0.0
  0
ENDTAB
  0
TABLE
  2
LTYPE
  5
4
100
AcDbSymbolTable
 70
              16
  0
LTYPE
  5
11
100
AcDbSymbolTableRecord
100
AcDbLinetypeTableRecord
  2
ByBlock
 70
              64
  3

 72
              65
 73
               0
 40
0.0
  0
LTYPE
  5
12
100
AcDbSymbolTableRecord
100
AcDbLinetypeTableRecord
  2
ByLayer
 70
              64
  3

 72
              65
 73
               0
 40
0.0
  0
LTYPE
  5
13
100
AcDbSymbolTableRecord
100
AcDbLinetypeTableRecord
  2
Continuous
 70
              64
  3
Solid line
 72
              65
 73
               0
 40
0.0
  0
LTYPE
  5
3B
100
AcDbSymbolTableRecord
100
AcDbLinetypeTableRecord
  2
STYLE_01
 70
               0
  3

 72
              65
 73
               2
 40
0.3749999999999999
 49
0.25
 74
               0
 49
-0.1249999999999999
 74
               0
  0
LTYPE
  5
3C
100
AcDbSymbolTableRecord
100
AcDbLinetypeTableRecord
  2
STYLE_02
 70
               0
  3

 72
              65
 73
               2
 40
0.0590551181102362
 49
0.0393700787401574
 74
               0
 49
-0.0196850393700788
 74
               0
  0
LTYPE
  5
3D
100
AcDbSymbolTableRecord
100
AcDbLinetypeTableRecord
  2
STYLE_03
 70
               0
  3

 72
              65
 73
               2
 40
0.7499999999999998
 49
0.5
 74
               0
 49
-0.2499999999999998
 74
               0
  0
LTYPE
  5
3E
100
AcDbSymbolTableRecord
100
AcDbLinetypeTableRecord
  2
STYLE_04
 70
               0
  3

 72
              65
 73
               4
 40
1.9999999999999998
 49
1.25
 74
               0
 49
-0.2499999999999999
 74
               0
 49
0.2499999999999999
 74
               0
 49
-0.2499999999999999
 74
               0
  0
LTYPE
  5
3F
100
AcDbSymbolTableRecord
100
AcDbLinetypeTableRecord
  2
STYLE_05
 70
               0
  3

 72
              65
 73
               2
 40
0.41656
 49
0.13885
 74
               0
 49
-0.27771
 74
               0
  0
LTYPE
  5
40
100
AcDbSymbolTableRecord
100
AcDbLinetypeTableRecord
  2
STYLE_06
 70
               0
  3

 72
              65
 73
               4
 40
2.0832800000000002
 49
1.25
 74
               0
 49
-0.41656
 74
               0
 49
0.1388600000000001
 74
               0
 49
-0.2778600000000001
 74
               0
  0
LTYPE
  5
41
100
AcDbSymbolTableRecord
100
AcDbLinetypeTableRecord
  2
STYLE_07
 70
               0
  3

 72
              65
 73
               6
 40
3.75
 49
1.25
 74
               0
 49
-0.41656
 74
               0
 49
1.2500000000000002
 74
               0
 49
-0.4167199999999999
 74
               0
 49
0.1388600000000001
 74
               0
 49
-0.2778599999999998
 74
               0
  0
LTYPE
  5
42
100
AcDbSymbolTableRecord
100
AcDbLinetypeTableRecord
  2
STYLE_08
 70
               0
  3

 72
              65
 73
               6
 40
2.5
 49
1.25
 74
               0
 49
-0.41656
 74
               0
 49
0.1388600000000001
 74
               0
 49
-0.2778600000000001
 74
               0
 49
0.1388599999999998
 74
               0
 49
-0.2778600000000001
 74
               0
  0
LTYPE
  5
43
100
AcDbSymbolTableRecord
100
AcDbLinetypeTableRecord
  2
STYLE_09
 70
               0
  3

 72
              65
 73
               4
 40
10.0
 49
7.5
 74
               0
 49
-0.5555699999999997
 74
               0
 49
1.3888600000000006
 74
               0
 49
-0.5555699999999997
 74
               0
  0
LTYPE
  5
44
100
AcDbSymbolTableRecord
100
AcDbLinetypeTableRecord
  2
STYLE_10
 70
               0
  3

 72
              65
 73
               6
 40
11.875
 49
7.5
 74
               0
 49
-0.5555699999999997
 74
               0
 49
1.3888600000000006
 74
               0
 49
-0.5555699999999997
 74
               0
 49
1.25
 74
               0
 49
-0.625
 74
               0
  0
LTYPE
  5
45
100
AcDbSymbolTableRecord
100
AcDbLinetypeTableRecord
  2
STYLE_11
 70
               0
  3

 72
              65
 73
               2
 40
0.1388889763779528
 49
0.0694444881889764
 74
               0
 49
-0.0694444881889764
 74
               0
  0
LTYPE
  5
46
100
AcDbSymbolTableRecord
100
AcDbLinetypeTableRecord
  2
STYLE_12
 70
               0
  3

 72
              65
 73
               2
 40
0.3472222222222222
 49
0.2083333333333333
 74
               0
 49
-0.1388888888888889
 74
               0
  0
LTYPE
  5
47
100
AcDbSymbolTableRecord
100
AcDbLinetypeTableRecord
  2
STYLE_13
 70
               0
  3

 72
              65
 73
               2
 40
0.7874015748031495
 49
0.3937007874015748
 74
               0
 49
-0.3937007874015748
 74
               0
  0
ENDTAB
  0
TABLE
  2
LAYER
  5
2
100
AcDbSymbolTable
 70
               5
  0
LAYER
  5
14
100
AcDbSymbolTableRecord
100
AcDbLayerTableRecord
  2
0
 70
               0
 62
               7
  6
Continuous
290
               1
370
              -3
390
1D
  0
LAYER
  5
48
100
AcDbSymbolTableRecord
100
AcDbLayerTableRecord
  2
Defpoints
 70
               0
 62
               7
  6
Continuous
290
               0
370
              -3
390
1D
  0
LAYER
  5
49
100
AcDbSymbolTableRecord
100
AcDbLayerTableRecord
  2
template
 70
               0
 62
               7
  6
Continuous
290
               1
370
              -3
390
1D
  0
LAYER
  5
4A
100
AcDbSymbolTableRecord
100
AcDbLayerTableRecord
  2
notes
 70
               0
 62
               7
  6
Continuous
290
               1
370
              -3
390
1D
  0
LAYER
  5
4B
100
AcDbSymbolTableRecord
100
AcDbLayerTableRecord
  2
ARJ70-0205
 70
               0
 62
               7
  6
Continuous
290
               1
370
              -3
390
1D
  0
ENDTAB
  0
TABLE
  2
STYLE
  5
3
100
AcDbSymbolTable
 70
               2
  0
STYLE
  5
17
100
AcDbSymbolTableRecord
100
AcDbTextStyleTableRecord
  2
Standard
 70
               0
 40
0.0
 41
1.0
 50
0.0
 71
               0
 42
0.0
  3
txt
  4
BIGFONT.SHX
  0
STYLE
  5
3A
100
AcDbSymbolTableRecord
100
AcDbTextStyleTableRecord
  2
ＭＳ ゴシック
 70
               0
 40
0.0
 41
1.0
 50
0.0
 71
               0
 42
0.0
  3

  4
ＭＳ ゴシック
1001
ACAD
1000
ＭＳ ゴシック
1071
        0
  0
ENDTAB
  0
TABLE
  2
VIEW
  5
5
100
AcDbSymbolTable
 70
               0
  0
ENDTAB
  0
TABLE
  2
UCS
  5
6
100
AcDbSymbolTable
 70
               0
  0
ENDTAB
  0
TABLE
  2
APPID
  5
8
100
AcDbSymbolTable
 70
               1
  0
APPID
  5
16
100
AcDbSymbolTableRecord
100
AcDbRegAppTableRecord
  2
ACAD
 70
               0
  0
ENDTAB
  0
TABLE
  2
DIMSTYLE
  5
9
100
AcDbSymbolTable
 70
               3
100
AcDbDimStyleTable
 71
               0
  0
DIMSTYLE
105
18
100
AcDbSymbolTableRecord
100
AcDbDimStyleTableRecord
  2
Standard
 70
               0
  3

  4

 40
1.0
 41
0.18
 42
0.0625
 43
0.38
 44
0.18
 45
0.0
 46
0.0
 47
0.0
 48
0.0
 71
               0
 72
               0
 73
               1
 74
               1
 75
               0
 76
               0
 77
               0
 78
               0
 79
               0
140
0.18
141
0.09
142
0.0
143
25.399999999999999
144
1.0
145
0.0
146
1.0
147
0.09
148
0.0
170
               0
171
               2
172
               0
173
               0
174
               0
175
               0
176
               0
177
               0
178
               0
179
               0
271
               4
272
               4
273
               2
274
               2
275
               0
276
               0
277
               2
278
              46
279
               0
280
               0
281
               0
282
               0
283
               1
284
               0
285
               0
286
               0
288
               0
289
               3
340
17
341
0
342
0
343
0
344
0
371
              -2
372
              -2
  0
DIMSTYLE
105
54
100
AcDbSymbolTableRecord
100
AcDbDimStyleTableRecord
  2
tform線あり
 70
               0
  3
<>
  4
[]
 40
1.0
 41
3.999755859375
 42
24.999999999999996
 43
0.9999999999999999
 44
0.0
 45
0.0
 46
0.0
 47
0.0
 48
0.0
 71
               0
 72
               0
 73
               0
 74
               0
 75
               0
 76
               0
 77
               1
 78
              11
 79
               0
140
24.432617187500004
141
0.0
142
0.0
143
1.0
144
1.0
145
0.0
146
1.0
147
0.4999999999999999
148
0.0
170
               0
171
               1
172
               0
173
               0
174
               1
175
               0
176
               0
177
               0
178
               0
179
               2
271
               1
272
               1
273
               2
274
               2
275
               0
276
               2
277
               2
278
              46
279
               0
280
               0
281
               0
282
               0
283
               1
284
              11
285
              11
286
              11
288
               0
289
               0
340
3A
341
4C
342
4C
343
0
344
0
371
              -2
372
              -2
  0
DIMSTYLE
105
59
100
AcDbSymbolTableRecord
100
AcDbDimStyleTableRecord
  2
JIS
 70
               0
  3
<>
  4
[]
 40
1.0
 41
31.75
 42
0.0
 43
6.9999999999999396
 44
19.999999999996199
 45
0.0
 46
0.0
 47
0.0
 48
0.0
 71
               0
 72
               0
 73
               0
 74
               0
 75
               0
 76
               0
 77
               1
 78
              11
 79
               0
140
24.432617187500004
141
0.0
142
0.0
143
1.0
144
1.0
145
0.0
146
1.0
147
1.00000000000108
148
0.0
170
               0
171
               1
172
               0
173
               0
174
               1
175
               0
176
               0
177
               0
178
               0
179
               2
271
               1
272
               1
273
               2
274
               2
275
               0
276
               2
277
               2
278
              46
279
               0
280
               0
281
               0
282
               0
283
               1
284
              11
285
              11
286
              11
288
               0
289
               0
340
3A
341
55
342
55
343
0
344
0
371
              -2
372
              -2
  0
ENDTAB
  0
TABLE
  2
BLOCK_RECORD
  5
1
100
AcDbSymbolTable
 70
              25
  0
BLOCK_RECORD
  5
A
100
AcDbSymbolTableRecord
100
AcDbBlockTableRecord
  2
*MODEL_SPACE
340
20
  0
BLOCK_RECORD
  5
B
100
AcDbSymbolTableRecord
100
AcDbBlockTableRecord
  2
*PAPER_SPACE
340
21
  0
BLOCK_RECORD
  5
4C
100
AcDbSymbolTableRecord
100
AcDbBlockTableRecord
  2
_DOT
340
0
  0
BLOCK_RECORD
  5
55
100
AcDbSymbolTableRecord
100
AcDbBlockTableRecord
  2
VW_FILLEDARROW
340
0
  0
BLOCK_RECORD
  5
23
100
AcDbSymbolTableRecord
100
AcDbBlockTableRecord
  2
*D2
340
0
  0
BLOCK_RECORD
  5
24
100
AcDbSymbolTableRecord
100
AcDbBlockTableRecord
  2
*D3
340
0
  0
BLOCK_RECORD
  5
25
100
AcDbSymbolTableRecord
100
AcDbBlockTableRecord
  2
*D4
340
0
  0
BLOCK_RECORD
  5
26
100
AcDbSymbolTableRecord
100
AcDbBlockTableRecord
  2
*D5
340
0
  0
BLOCK_RECORD
  5
27
100
AcDbSymbolTableRecord
100
AcDbBlockTableRecord
  2
*D6
340
0
  0
BLOCK_RECORD
  5
28
100
AcDbSymbolTableRecord
100
AcDbBlockTableRecord
  2
*D7
340
0
  0
BLOCK_RECORD
  5
29
100
AcDbSymbolTableRecord
100
AcDbBlockTableRecord
  2
*D8
340
0
  0
BLOCK_RECORD
  5
2A
100
AcDbSymbolTableRecord
100
AcDbBlockTableRecord
  2
*D9
340
0
  0
BLOCK_RECORD
  5
2B
100
AcDbSymbolTableRecord
100
AcDbBlockTableRecord
  2
*D10
340
0
  0
BLOCK_RECORD
  5
2C
100
AcDbSymbolTableRecord
100
AcDbBlockTableRecord
  2
*D11
340
0
  0
BLOCK_RECORD
  5
2D
100
AcDbSymbolTableRecord
100
AcDbBlockTableRecord
  2
*D12
340
0
  0
BLOCK_RECORD
  5
2E
100
AcDbSymbolTableRecord
100
AcDbBlockTableRecord
  2
*D13
340
0
  0
BLOCK_RECORD
  5
2F
100
AcDbSymbolTableRecord
100
AcDbBlockTableRecord
  2
*D14
340
0
  0
BLOCK_RECORD
  5
30
100
AcDbSymbolTableRecord
100
AcDbBlockTableRecord
  2
*D15
340
0
  0
BLOCK_RECORD
  5
31
100
AcDbSymbolTableRecord
100
AcDbBlockTableRecord
  2
*D16
340
0
  0
BLOCK_RECORD
  5
32
100
AcDbSymbolTableRecord
100
AcDbBlockTableRecord
  2
*D17
340
0
  0
BLOCK_RECORD
  5
33
100
AcDbSymbolTableRecord
100
AcDbBlockTableRecord
  2
*D18
340
0
  0
BLOCK_RECORD
  5
34
100
AcDbSymbolTableRecord
100
AcDbBlockTableRecord
  2
*D19
340
0
  0
BLOCK_RECORD
  5
35
100
AcDbSymbolTableRecord
100
AcDbBlockTableRecord
  2
*D20
340
0
  0
BLOCK_RECORD
  5
36
100
AcDbSymbolTableRecord
100
AcDbBlockTableRecord
  2
*D21
340
0
  0
BLOCK_RECORD
  5
37
100
AcDbSymbolTableRecord
100
AcDbBlockTableRecord
  2
*D22
340
0
  0
BLOCK_RECORD
  5
38
100
AcDbSymbolTableRecord
100
AcDbBlockTableRecord
  2
*D23
340
0
  0
BLOCK_RECORD
  5
39
100
AcDbSymbolTableRecord
100
AcDbBlockTableRecord
  2
グループ
340
0
102
{BLKREFS
331
27D
102
}
  0
ENDTAB
  0
ENDSEC
  0
SECTION
  2
BLOCKS
  0
BLOCK
  5
D
100
AcDbEntity
  8
0
390
0
100
AcDbBlockBegin
  2
*MODEL_SPACE
 70
               0
 10
0.0
 20
0.0
 30
0.0
  3
*MODEL_SPACE
  1

  0
ENDBLK
  5
E
100
AcDbEntity
  8
0
390
0
100
AcDbBlockEnd
  0
BLOCK
  5
F
100
AcDbEntity
 67
               1
  8
0
390
0
100
AcDbBlockBegin
  2
*PAPER_SPACE
 70
               0
 10
0.0
 20
0.0
 30
0.0
  3
*PAPER_SPACE
  1

  0
ENDBLK
  5
10
100
AcDbEntity
 67
               1
  8
0
390
0
100
AcDbBlockEnd
  0
BLOCK
  5
4D
100
AcDbEntity
  8
0
390
0
100
AcDbBlockBegin
  2
_DOT
 70
               0
 10
0.0
 20
0.0
 30
0.0
  3
_DOT
  1

  0
POLYLINE
  5
4E
100
AcDbEntity
  8
0
370
              -2
390
0
  6
ByBlock
 62
               0
100
AcDb2dPolyline
 66
               1
 10
0.0
 20
0.0
 30
0.0
 70
               1
 40
0.5
 41
0.5
  0
VERTEX
  5
4F
100
AcDbEntity
  8
0
370
              -2
390
0
  6
ByBlock
 62
               0
100
AcDbVertex
100
AcDb2dVertex
 10
-0.25
 20
0.0
 30
0.0
 42
1.0
  0
VERTEX
  5
50
100
AcDbEntity
  8
0
370
              -2
390
0
  6
ByBlock
 62
               0
100
AcDbVertex
100
AcDb2dVertex
 10
0.25
 20
0.0
 30
0.0
 42
1.0
  0
SEQEND
  5
51
100
AcDbEntity
  8
0
390
0
  0
LINE
  5
52
100
AcDbEntity
  8
0
370
              -2
390
0
  6
ByBlock
 62
               0
100
AcDbLine
 10
-0.5
 20
0.0
 30
0.0
 11
-1.0
 21
0.0
 31
0.0
  0
ENDBLK
  5
53
100
AcDbEntity
  8
0
390
0
100
AcDbBlockEnd
  0
BLOCK
  5
56
100
AcDbEntity
  8
0
370
              -2
390
0
  6
ByBlock
 62
               0
100
AcDbBlockBegin
  2
VW_FILLEDARROW
 70
               0
 10
0.0
 20
0.0
 30
0.0
  3
VW_FILLEDARROW
  1

  0
SOLID
  5
57
100
AcDbEntity
  8
0
370
              -2
390
0
 62
               0
100
AcDbTrace
 10
0.0
 20
0.0
 30
0.0
 11
-0.9921874999999999
 21
-0.2658558393652545
 31
0.0
 12
-0.9921874999999999
 22
0.2658558393652548
 32
0.0
 13
-0.9921874999999999
 23
0.2658558393652548
 33
0.0
  0
ENDBLK
  5
58
100
AcDbEntity
  8
0
390
0
100
AcDbBlockEnd
  0
BLOCK
  5
5A
100
AcDbEntity
  8
notes
390
0
100
AcDbBlockBegin
  2
*D2
 70
               1
 10
0.0
 20
0.0
 30
0.0
  3
*D2
  1

  0
LINE
  5
5B
100
AcDbEntity
  8
0
370
              -2
390
0
  6
Continuous
 62
               0
100
AcDbLine
 10
125.0
 20
870.0
 30
0.0
 11
230.0
 21
870.0
 31
0.0
  0
LINE
  5
5C
100
AcDbEntity
  8
0
370
              -2
390
0
  6
Continuous
 62
               0
100
AcDbLine
 10
125.0
 20
340.0
 30
0.0
 11
230.0
 21
340.0
 31
0.0
  0
LINE
  5
5D
100
AcDbEntity
  8
0
370
              -2
390
0
  6
Continuous
 62
               0
100
AcDbLine
 10
230.0
 20
870.0
 30
0.0
 11
230.0
 21
340.0
 31
0.0
  0
CIRCLE
  5
5E
102
{ACAD_REACTORS
330
5F
102
}
100
AcDbEntity
  8
0
370
              -2
390
0
  6
Continuous
 62
               0
100
AcDbCircle
 10
230.0
 20
870.0
 30
0.0
 40
1.9998779296875
  0
HATCH
  5
5F
100
AcDbEntity
  8
0
370
              -2
390
0
  6
Continuous
 62
               0
100
AcDbHatch
 10
0.0
 20
0.0
 30
0.0
210
0.0
220
0.0
230
1.0
  2
SOLID
 70
               1
 71
               1
 91
        1
 92
        1
 93
        1
 72
               2
 10
230.0
 20
870.0
 40
1.9998779296875
 50
0.0
 51
360.0
 73
               0
 97
        1
330
5E
 75
               0
 76
               1
 98
        1
 10
0.0
 20
0.0
  0
CIRCLE
  5
60
102
{ACAD_REACTORS
330
61
102
}
100
AcDbEntity
  8
0
370
              -2
390
0
  6
Continuous
 62
               0
100
AcDbCircle
 10
230.0
 20
340.0
 30
0.0
 40
1.9998779296875
  0
HATCH
  5
61
100
AcDbEntity
  8
0
370
              -2
390
0
  6
Continuous
 62
               0
100
AcDbHatch
 10
0.0
 20
0.0
 30
0.0
210
0.0
220
0.0
230
1.0
  2
SOLID
 70
               1
 71
               1
 91
        1
 92
        1
 93
        1
 72
               2
 10
230.0
 20
340.0
 40
1.9998779296875
 50
0.0
 51
360.0
 73
               0
 97
        1
330
60
 75
               0
 76
               1
 98
        1
 10
0.0
 20
0.0
  0
MTEXT
  5
62
100
AcDbEntity
  8
0
390
0
 62
               0
100
AcDbMText
 10
196.12238281250029
 20
581.18749831782452
 30
0.0
 40
24.432617187500004
 41
0.0
 71
               1
 72
               1
  1
530
  7
ＭＳ ゴシック
 11
0.0
 21
1.0
 31
0.0
 73
               1
 44
0.7828267384257843
  0
POINT
  5
63
100
AcDbEntity
  8
Defpoints
370
               0
390
0
 62
               0
100
AcDbPoint
 10
100.0
 20
340.0
 30
0.0
  0
POINT
  5
64
100
AcDbEntity
  8
Defpoints
370
               0
390
0
 62
               0
100
AcDbPoint
 10
100.0
 20
870.0
 30
0.0
  0
POINT
  5
65
100
AcDbEntity
  8
Defpoints
370
               0
390
0
 62
               0
100
AcDbPoint
 10
230.0
 20
870.0
 30
0.0
  0
ENDBLK
  5
66
100
AcDbEntity
  8
notes
390
0
100
AcDbBlockEnd
  0
BLOCK
  5
67
100
AcDbEntity
  8
notes
390
0
100
AcDbBlockBegin
  2
*D3
 70
               1
 10
0.0
 20
0.0
 30
0.0
  3
*D3
  1

  0
LINE
  5
68
100
AcDbEntity
  8
0
370
              -2
390
0
  6
Continuous
 62
               0
100
AcDbLine
 10
918.28811950091495
 20
-330.92219788355078
 30
0.0
 11
918.28811950091495
 21
-260.87591285395001
 31
0.0
  0
LINE
  5
69
100
AcDbEntity
  8
0
370
              -2
390
0
  6
Continuous
 62
               0
100
AcDbLine
 10
838.28811950091495
 20
-320.92219788355078
 30
0.0
 11
838.28811950091495
 21
-260.87591285395001
 31
0.0
  0
LINE
  5
6A
100
AcDbEntity
  8
0
370
              -2
390
0
  6
Continuous
 62
               0
100
AcDbLine
 10
918.28811950091495
 20
-260.87591285395001
 30
0.0
 11
838.28811950091495
 21
-260.87591285395001
 31
0.0
  0
CIRCLE
  5
6B
102
{ACAD_REACTORS
330
6C
102
}
100
AcDbEntity
  8
0
370
              -2
390
0
  6
Continuous
 62
               0
100
AcDbCircle
 10
918.28811950091495
 20
-260.87591285395001
 30
0.0
 40
1.9998779296875
  0
HATCH
  5
6C
100
AcDbEntity
  8
0
370
              -2
390
0
  6
Continuous
 62
               0
100
AcDbHatch
 10
0.0
 20
0.0
 30
0.0
210
0.0
220
0.0
230
1.0
  2
SOLID
 70
               1
 71
               1
 91
        1
 92
        1
 93
        1
 72
               2
 10
918.28811950091495
 20
-260.87591285395001
 40
1.9998779296875
 50
0.0
 51
360.0
 73
               0
 97
        1
330
6B
 75
               0
 76
               1
 98
        1
 10
0.0
 20
0.0
  0
CIRCLE
  5
6D
102
{ACAD_REACTORS
330
6E
102
}
100
AcDbEntity
  8
0
370
              -2
390
0
  6
Continuous
 62
               0
100
AcDbCircle
 10
838.28811950091495
 20
-260.87591285395001
 30
0.0
 40
1.9998779296875
  0
HATCH
  5
6E
100
AcDbEntity
  8
0
370
              -2
390
0
  6
Continuous
 62
               0
100
AcDbHatch
 10
0.0
 20
0.0
 30
0.0
210
0.0
220
0.0
230
1.0
  2
SOLID
 70
               1
 71
               1
 91
        1
 92
        1
 93
        1
 72
               2
 10
838.28811950091495
 20
-260.87591285395001
 40
1.9998779296875
 50
0.0
 51
360.0
 73
               0
 97
        1
330
6D
 75
               0
 76
               1
 98
        1
 10
0.0
 20
0.0
  0
MTEXT
  5
6F
100
AcDbEntity
  8
0
390
0
 62
               0
100
AcDbMText
 10
862.41311950091495
 20
-226.99829566645008
 30
0.0
 40
24.432617187500004
 41
0.0
 71
               1
 72
               1
  1
80
  7
ＭＳ ゴシック
 73
               1
 44
0.7828267384257843
  0
POINT
  5
70
100
AcDbEntity
  8
Defpoints
370
               0
390
0
 62
               0
100
AcDbPoint
 10
838.28811950091495
 20
-345.92219788355078
 30
0.0
  0
POINT
  5
71
100
AcDbEntity
  8
Defpoints
370
               0
390
0
 62
               0
100
AcDbPoint
 10
918.28811950091495
 20
-355.92219788355078
 30
0.0
  0
POINT
  5
72
100
AcDbEntity
  8
Defpoints
370
               0
390
0
 62
               0
100
AcDbPoint
 10
918.28811950091495
 20
-260.87591285395001
 30
0.0
  0
ENDBLK
  5
73
100
AcDbEntity
  8
notes
390
0
100
AcDbBlockEnd
  0
BLOCK
  5
74
100
AcDbEntity
  8
notes
390
0
100
AcDbBlockBegin
  2
*D4
 70
               1
 10
0.0
 20
0.0
 30
0.0
  3
*D4
  1

  0
LINE
  5
75
100
AcDbEntity
  8
0
370
              -2
390
0
  6
Continuous
 62
               0
100
AcDbLine
 10
-305.58883963501194
 20
799.9281648321637
 30
0.0
 11
-168.85938709862239
 21
894.12408714604976
 31
0.0
  0
CIRCLE
  5
76
102
{ACAD_REACTORS
330
77
102
}
100
AcDbEntity
  8
0
370
              -2
390
0
  6
Continuous
 62
               0
100
AcDbCircle
 10
-305.58883963501194
 20
799.9281648321637
 30
0.0
 40
1.9998779296875
  0
HATCH
  5
77
100
AcDbEntity
  8
0
370
              -2
390
0
  6
Continuous
 62
               0
100
AcDbHatch
 10
0.0
 20
0.0
 30
0.0
210
0.0
220
0.0
230
1.0
  2
SOLID
 70
               1
 71
               1
 91
        1
 92
        1
 93
        1
 72
               2
 10
-305.58883963501194
 20
799.9281648321637
 40
1.9998779296875
 50
0.0
 51
360.0
 73
               0
 97
        1
330
76
 75
               0
 76
               1
 98
        1
 10
0.0
 20
0.0
  0
LINE
  5
78
100
AcDbEntity
  8
0
370
              -2
390
0
  6
Continuous
 62
               0
100
AcDbLine
 10
-168.85938709862239
 20
894.12408714604976
 30
0.0
 11
-45.359387098622392
 21
894.12408714604976
 31
0.0
  0
MTEXT
  5
79
100
AcDbEntity
  8
0
390
0
 62
               0
100
AcDbMText
 10
-108.85938709862239
 20
928.0017043335497
 30
0.0
 40
24.432617187500004
 41
0.0
 71
               1
 72
               1
  1
φ35
  7
ＭＳ ゴシック
 73
               1
 44
0.7828267384257843
  0
POINT
  5
7A
100
AcDbEntity
  8
Defpoints
370
               0
390
0
 62
               0
100
AcDbPoint
 10
-334.41116036498624
 20
780.07183516782891
 30
0.0
  0
POINT
  5
7B
100
AcDbEntity
  8
Defpoints
370
               0
390
0
 62
               0
100
AcDbPoint
 10
-305.58883963501194
 20
799.9281648321637
 30
0.0
  0
ENDBLK
  5
7C
100
AcDbEntity
  8
notes
390
0
100
AcDbBlockEnd
  0
BLOCK
  5
7D
100
AcDbEntity
  8
notes
390
0
100
AcDbBlockBegin
  2
*D5
 70
               1
 10
0.0
 20
0.0
 30
0.0
  3
*D5
  1

  0
LINE
  5
7E
100
AcDbEntity
  8
0
370
              -2
390
0
  6
Continuous
 62
               0
100
AcDbLine
 10
-770.0
 20
845.0
 30
0.0
 11
-770.0
 21
1020.0
 31
0.0
  0
LINE
  5
7F
100
AcDbEntity
  8
0
370
              -2
390
0
  6
Continuous
 62
               0
100
AcDbLine
 10
130.0
 20
845.0
 30
0.0
 11
130.0
 21
1020.0
 31
0.0
  0
LINE
  5
80
100
AcDbEntity
  8
0
370
              -2
390
0
  6
Continuous
 62
               0
100
AcDbLine
 10
-770.0
 20
1020.0
 30
0.0
 11
130.0
 21
1020.0
 31
0.0
  0
CIRCLE
  5
81
102
{ACAD_REACTORS
330
82
102
}
100
AcDbEntity
  8
0
370
              -2
390
0
  6
Continuous
 62
               0
100
AcDbCircle
 10
-770.0
 20
1020.0
 30
0.0
 40
1.9998779296875
  0
HATCH
  5
82
100
AcDbEntity
  8
0
370
              -2
390
0
  6
Continuous
 62
               0
100
AcDbHatch
 10
0.0
 20
0.0
 30
0.0
210
0.0
220
0.0
230
1.0
  2
SOLID
 70
               1
 71
               1
 91
        1
 92
        1
 93
        1
 72
               2
 10
-770.0
 20
1020.0
 40
1.9998779296875
 50
0.0
 51
360.0
 73
               0
 97
        1
330
81
 75
               0
 76
               1
 98
        1
 10
0.0
 20
0.0
  0
CIRCLE
  5
83
102
{ACAD_REACTORS
330
84
102
}
100
AcDbEntity
  8
0
370
              -2
390
0
  6
Continuous
 62
               0
100
AcDbCircle
 10
130.0
 20
1020.0
 30
0.0
 40
1.9998779296875
  0
HATCH
  5
84
100
AcDbEntity
  8
0
370
              -2
390
0
  6
Continuous
 62
               0
100
AcDbHatch
 10
0.0
 20
0.0
 30
0.0
210
0.0
220
0.0
230
1.0
  2
SOLID
 70
               1
 71
               1
 91
        1
 92
        1
 93
        1
 72
               2
 10
130.0
 20
1020.0
 40
1.9998779296875
 50
0.0
 51
360.0
 73
               0
 97
        1
330
83
 75
               0
 76
               1
 98
        1
 10
0.0
 20
0.0
  0
MTEXT
  5
85
100
AcDbEntity
  8
0
390
0
 62
               0
100
AcDbMText
 10
-343.81250168217593
 20
1053.8776171874999
 30
0.0
 40
24.432617187500004
 41
0.0
 71
               1
 72
               1
  1
900
  7
ＭＳ ゴシック
 73
               1
 44
0.7828267384257843
  0
POINT
  5
86
100
AcDbEntity
  8
Defpoints
370
               0
390
0
 62
               0
100
AcDbPoint
 10
130.0
 20
820.0
 30
0.0
  0
POINT
  5
87
100
AcDbEntity
  8
Defpoints
370
               0
390
0
 62
               0
100
AcDbPoint
 10
-770.0
 20
820.0
 30
0.0
  0
POINT
  5
88
100
AcDbEntity
  8
Defpoints
370
               0
390
0
 62
               0
100
AcDbPoint
 10
-770.0
 20
1020.0
 30
0.0
  0
ENDBLK
  5
89
100
AcDbEntity
  8
notes
390
0
100
AcDbBlockEnd
  0
BLOCK
  5
8A
100
AcDbEntity
  8
notes
390
0
100
AcDbBlockBegin
  2
*D6
 70
               1
 10
0.0
 20
0.0
 30
0.0
  3
*D6
  1

  0
LINE
  5
8B
100
AcDbEntity
  8
0
370
              -2
390
0
  6
Continuous
 62
               0
100
AcDbLine
 10
-419.99999999999909
 20
818.94106900000043
 30
0.0
 11
-419.99999999999909
 21
908.0
 31
0.0
  0
LINE
  5
8C
100
AcDbEntity
  8
0
370
              -2
390
0
  6
Continuous
 62
               0
100
AcDbLine
 10
-319.99999999999909
 20
835.49999999999636
 30
0.0
 11
-319.99999999999909
 21
908.0
 31
0.0
  0
LINE
  5
8D
100
AcDbEntity
  8
0
370
              -2
390
0
  6
Continuous
 62
               0
100
AcDbLine
 10
-419.99999999999909
 20
908.0
 30
0.0
 11
-319.99999999999909
 21
908.0
 31
0.0
  0
CIRCLE
  5
8E
102
{ACAD_REACTORS
330
8F
102
}
100
AcDbEntity
  8
0
370
              -2
390
0
  6
Continuous
 62
               0
100
AcDbCircle
 10
-419.99999999999909
 20
908.0
 30
0.0
 40
1.9998779296875
  0
HATCH
  5
8F
100
AcDbEntity
  8
0
370
              -2
390
0
  6
Continuous
 62
               0
100
AcDbHatch
 10
0.0
 20
0.0
 30
0.0
210
0.0
220
0.0
230
1.0
  2
SOLID
 70
               1
 71
               1
 91
        1
 92
        1
 93
        1
 72
               2
 10
-419.99999999999909
 20
908.0
 40
1.9998779296875
 50
0.0
 51
360.0
 73
               0
 97
        1
330
8E
 75
               0
 76
               1
 98
        1
 10
0.0
 20
0.0
  0
CIRCLE
  5
90
102
{ACAD_REACTORS
330
91
102
}
100
AcDbEntity
  8
0
370
              -2
390
0
  6
Continuous
 62
               0
100
AcDbCircle
 10
-319.99999999999909
 20
908.0
 30
0.0
 40
1.9998779296875
  0
HATCH
  5
91
100
AcDbEntity
  8
0
370
              -2
390
0
  6
Continuous
 62
               0
100
AcDbHatch
 10
0.0
 20
0.0
 30
0.0
210
0.0
220
0.0
230
1.0
  2
SOLID
 70
               1
 71
               1
 91
        1
 92
        1
 93
        1
 72
               2
 10
-319.99999999999909
 20
908.0
 40
1.9998779296875
 50
0.0
 51
360.0
 73
               0
 97
        1
330
90
 75
               0
 76
               1
 98
        1
 10
0.0
 20
0.0
  0
MTEXT
  5
92
100
AcDbEntity
  8
0
390
0
 62
               0
100
AcDbMText
 10
-393.81250168217503
 20
941.87761718749994
 30
0.0
 40
24.432617187500004
 41
0.0
 71
               1
 72
               1
  1
100
  7
ＭＳ ゴシック
 73
               1
 44
0.7828267384257843
  0
POINT
  5
93
100
AcDbEntity
  8
Defpoints
370
               0
390
0
 62
               0
100
AcDbPoint
 10
-319.99999999999909
 20
810.49999999999636
 30
0.0
  0
POINT
  5
94
100
AcDbEntity
  8
Defpoints
370
               0
390
0
 62
               0
100
AcDbPoint
 10
-419.99999999999909
 20
793.94106900000043
 30
0.0
  0
POINT
  5
95
100
AcDbEntity
  8
Defpoints
370
               0
390
0
 62
               0
100
AcDbPoint
 10
-419.99999999999909
 20
908.0
 30
0.0
  0
ENDBLK
  5
96
100
AcDbEntity
  8
notes
390
0
100
AcDbBlockEnd
  0
BLOCK
  5
97
100
AcDbEntity
  8
notes
390
0
100
AcDbBlockBegin
  2
*D7
 70
               1
 10
0.0
 20
0.0
 30
0.0
  3
*D7
  1

  0
LINE
  5
98
100
AcDbEntity
  8
0
370
              -2
390
0
  6
Continuous
 62
               0
100
AcDbLine
 10
-319.99999999999909
 20
835.49999999999636
 30
0.0
 11
-319.99999999999909
 21
908.0
 31
0.0
  0
LINE
  5
99
100
AcDbEntity
  8
0
370
              -2
390
0
  6
Continuous
 62
               0
100
AcDbLine
 10
-220.00924802674399
 20
818.94106900000043
 30
0.0
 11
-220.00924802674399
 21
908.0
 31
0.0
  0
LINE
  5
9A
100
AcDbEntity
  8
0
370
              -2
390
0
  6
Continuous
 62
               0
100
AcDbLine
 10
-319.99999999999909
 20
908.0
 30
0.0
 11
-220.00924802674399
 21
908.0
 31
0.0
  0
CIRCLE
  5
9B
102
{ACAD_REACTORS
330
9C
102
}
100
AcDbEntity
  8
0
370
              -2
390
0
  6
Continuous
 62
               0
100
AcDbCircle
 10
-319.99999999999909
 20
908.0
 30
0.0
 40
1.9998779296875
  0
HATCH
  5
9C
100
AcDbEntity
  8
0
370
              -2
390
0
  6
Continuous
 62
               0
100
AcDbHatch
 10
0.0
 20
0.0
 30
0.0
210
0.0
220
0.0
230
1.0
  2
SOLID
 70
               1
 71
               1
 91
        1
 92
        1
 93
        1
 72
               2
 10
-319.99999999999909
 20
908.0
 40
1.9998779296875
 50
0.0
 51
360.0
 73
               0
 97
        1
330
9B
 75
               0
 76
               1
 98
        1
 10
0.0
 20
0.0
  0
CIRCLE
  5
9D
102
{ACAD_REACTORS
330
9E
102
}
100
AcDbEntity
  8
0
370
              -2
390
0
  6
Continuous
 62
               0
100
AcDbCircle
 10
-220.00924802674399
 20
908.0
 30
0.0
 40
1.9998779296875
  0
HATCH
  5
9E
100
AcDbEntity
  8
0
370
              -2
390
0
  6
Continuous
 62
               0
100
AcDbHatch
 10
0.0
 20
0.0
 30
0.0
210
0.0
220
0.0
230
1.0
  2
SOLID
 70
               1
 71
               1
 91
        1
 92
        1
 93
        1
 72
               2
 10
-220.00924802674399
 20
908.0
 40
1.9998779296875
 50
0.0
 51
360.0
 73
               0
 97
        1
330
9D
 75
               0
 76
               1
 98
        1
 10
0.0
 20
0.0
  0
MTEXT
  5
9F
100
AcDbEntity
  8
0
390
0
 62
               0
100
AcDbMText
 10
-293.81712569554747
 20
941.87761718749994
 30
0.0
 40
24.432617187500004
 41
0.0
 71
               1
 72
               1
  1
100
  7
ＭＳ ゴシック
 73
               1
 44
0.7828267384257843
  0
POINT
  5
A0
100
AcDbEntity
  8
Defpoints
370
               0
390
0
 62
               0
100
AcDbPoint
 10
-220.00924802674399
 20
793.94106900000043
 30
0.0
  0
POINT
  5
A1
100
AcDbEntity
  8
Defpoints
370
               0
390
0
 62
               0
100
AcDbPoint
 10
-319.99999999999909
 20
810.49999999999636
 30
0.0
  0
POINT
  5
A2
100
AcDbEntity
  8
Defpoints
370
               0
390
0
 62
               0
100
AcDbPoint
 10
-319.99999999999909
 20
908.0
 30
0.0
  0
ENDBLK
  5
A3
100
AcDbEntity
  8
notes
390
0
100
AcDbBlockEnd
  0
BLOCK
  5
A4
100
AcDbEntity
  8
notes
390
0
100
AcDbBlockBegin
  2
*D8
 70
               1
 10
0.0
 20
0.0
 30
0.0
  3
*D8
  1

  0
LINE
  5
A5
100
AcDbEntity
  8
0
370
              -2
390
0
  6
Continuous
 62
               0
100
AcDbLine
 10
-739.99999999999909
 20
895.0
 30
0.0
 11
-739.99999999999909
 21
970.0
 31
0.0
  0
LINE
  5
A6
100
AcDbEntity
  8
0
370
              -2
390
0
  6
Continuous
 62
               0
100
AcDbLine
 10
100.0
 20
895.0
 30
0.0
 11
100.0
 21
970.0
 31
0.0
  0
LINE
  5
A7
100
AcDbEntity
  8
0
370
              -2
390
0
  6
Continuous
 62
               0
100
AcDbLine
 10
-739.99999999999909
 20
970.0
 30
0.0
 11
100.0
 21
970.0
 31
0.0
  0
CIRCLE
  5
A8
102
{ACAD_REACTORS
330
A9
102
}
100
AcDbEntity
  8
0
370
              -2
390
0
  6
Continuous
 62
               0
100
AcDbCircle
 10
-739.99999999999909
 20
970.0
 30
0.0
 40
1.9998779296875
  0
HATCH
  5
A9
100
AcDbEntity
  8
0
370
              -2
390
0
  6
Continuous
 62
               0
100
AcDbHatch
 10
0.0
 20
0.0
 30
0.0
210
0.0
220
0.0
230
1.0
  2
SOLID
 70
               1
 71
               1
 91
        1
 92
        1
 93
        1
 72
               2
 10
-739.99999999999909
 20
970.0
 40
1.9998779296875
 50
0.0
 51
360.0
 73
               0
 97
        1
330
A8
 75
               0
 76
               1
 98
        1
 10
0.0
 20
0.0
  0
CIRCLE
  5
AA
102
{ACAD_REACTORS
330
AB
102
}
100
AcDbEntity
  8
0
370
              -2
390
0
  6
Continuous
 62
               0
100
AcDbCircle
 10
100.0
 20
970.0
 30
0.0
 40
1.9998779296875
  0
HATCH
  5
AB
100
AcDbEntity
  8
0
370
              -2
390
0
  6
Continuous
 62
               0
100
AcDbHatch
 10
0.0
 20
0.0
 30
0.0
210
0.0
220
0.0
230
1.0
  2
SOLID
 70
               1
 71
               1
 91
        1
 92
        1
 93
        1
 72
               2
 10
100.0
 20
970.0
 40
1.9998779296875
 50
0.0
 51
360.0
 73
               0
 97
        1
330
AA
 75
               0
 76
               1
 98
        1
 10
0.0
 20
0.0
  0
MTEXT
  5
AC
100
AcDbEntity
  8
0
390
0
 62
               0
100
AcDbMText
 10
-343.81250168217503
 20
1003.8776171874999
 30
0.0
 40
24.432617187500004
 41
0.0
 71
               1
 72
               1
  1
840
  7
ＭＳ ゴシック
 73
               1
 44
0.7828267384257843
  0
POINT
  5
AD
100
AcDbEntity
  8
Defpoints
370
               0
390
0
 62
               0
100
AcDbPoint
 10
100.0
 20
870.0
 30
0.0
  0
POINT
  5
AE
100
AcDbEntity
  8
Defpoints
370
               0
390
0
 62
               0
100
AcDbPoint
 10
-739.99999999999909
 20
870.0
 30
0.0
  0
POINT
  5
AF
100
AcDbEntity
  8
Defpoints
370
               0
390
0
 62
               0
100
AcDbPoint
 10
-739.99999999999909
 20
970.0
 30
0.0
  0
ENDBLK
  5
B0
100
AcDbEntity
  8
notes
390
0
100
AcDbBlockEnd
  0
BLOCK
  5
B1
100
AcDbEntity
  8
notes
390
0
100
AcDbBlockBegin
  2
*D9
 70
               1
 10
0.0
 20
0.0
 30
0.0
  3
*D9
  1

  0
LINE
  5
B2
100
AcDbEntity
  8
0
370
              -2
390
0
  6
Continuous
 62
               0
100
AcDbLine
 10
-764.99999999999909
 20
870.0
 30
0.0
 11
-870.0
 21
870.0
 31
0.0
  0
LINE
  5
B3
100
AcDbEntity
  8
0
370
              -2
390
0
  6
Continuous
 62
               0
100
AcDbLine
 10
-795.0
 20
725.0
 30
0.0
 11
-870.0
 21
725.0
 31
0.0
  0
LINE
  5
B4
100
AcDbEntity
  8
0
370
              -2
390
0
  6
Continuous
 62
               0
100
AcDbLine
 10
-870.0
 20
870.0
 30
0.0
 11
-870.0
 21
725.0
 31
0.0
  0
CIRCLE
  5
B5
102
{ACAD_REACTORS
330
B6
102
}
100
AcDbEntity
  8
0
370
              -2
390
0
  6
Continuous
 62
               0
100
AcDbCircle
 10
-870.0
 20
870.0
 30
0.0
 40
1.9998779296875
  0
HATCH
  5
B6
100
AcDbEntity
  8
0
370
              -2
390
0
  6
Continuous
 62
               0
100
AcDbHatch
 10
0.0
 20
0.0
 30
0.0
210
0.0
220
0.0
230
1.0
  2
SOLID
 70
               1
 71
               1
 91
        1
 92
        1
 93
        1
 72
               2
 10
-870.0
 20
870.0
 40
1.9998779296875
 50
0.0
 51
360.0
 73
               0
 97
        1
330
B5
 75
               0
 76
               1
 98
        1
 10
0.0
 20
0.0
  0
CIRCLE
  5
B7
102
{ACAD_REACTORS
330
B8
102
}
100
AcDbEntity
  8
0
370
              -2
390
0
  6
Continuous
 62
               0
100
AcDbCircle
 10
-870.0
 20
725.0
 30
0.0
 40
1.9998779296875
  0
HATCH
  5
B8
100
AcDbEntity
  8
0
370
              -2
390
0
  6
Continuous
 62
               0
100
AcDbHatch
 10
0.0
 20
0.0
 30
0.0
210
0.0
220
0.0
230
1.0
  2
SOLID
 70
               1
 71
               1
 91
        1
 92
        1
 93
        1
 72
               2
 10
-870.0
 20
725.0
 40
1.9998779296875
 50
0.0
 51
360.0
 73
               0
 97
        1
330
B7
 75
               0
 76
               1
 98
        1
 10
0.0
 20
0.0
  0
MTEXT
  5
B9
100
AcDbEntity
  8
0
390
0
 62
               0
100
AcDbMText
 10
-903.87761718749971
 20
773.68749831782452
 30
0.0
 40
24.432617187500004
 41
0.0
 71
               1
 72
               1
  1
145
  7
ＭＳ ゴシック
 11
0.0
 21
1.0
 31
0.0
 73
               1
 44
0.7828267384257843
  0
POINT
  5
BA
100
AcDbEntity
  8
Defpoints
370
               0
390
0
 62
               0
100
AcDbPoint
 10
-770.0
 20
725.0
 30
0.0
  0
POINT
  5
BB
100
AcDbEntity
  8
Defpoints
370
               0
390
0
 62
               0
100
AcDbPoint
 10
-739.99999999999909
 20
870.0
 30
0.0
  0
POINT
  5
BC
100
AcDbEntity
  8
Defpoints
370
               0
390
0
 62
               0
100
AcDbPoint
 10
-870.0
 20
870.0
 30
0.0
  0
ENDBLK
  5
BD
100
AcDbEntity
  8
notes
390
0
100
AcDbBlockEnd
  0
BLOCK
  5
BE
100
AcDbEntity
  8
notes
390
0
100
AcDbBlockBegin
  2
*D10
 70
               1
 10
0.0
 20
0.0
 30
0.0
  3
*D10
  1

  0
LINE
  5
BF
100
AcDbEntity
  8
0
370
              -2
390
0
  6
Continuous
 62
               0
100
AcDbLine
 10
-795.0
 20
725.0
 30
0.0
 11
-870.0
 21
725.0
 31
0.0
  0
LINE
  5
C0
100
AcDbEntity
  8
0
370
              -2
390
0
  6
Continuous
 62
               0
100
AcDbLine
 10
-795.0
 20
420.0
 30
0.0
 11
-870.0
 21
420.0
 31
0.0
  0
LINE
  5
C1
100
AcDbEntity
  8
0
370
              -2
390
0
  6
Continuous
 62
               0
100
AcDbLine
 10
-870.0
 20
725.0
 30
0.0
 11
-870.0
 21
420.0
 31
0.0
  0
CIRCLE
  5
C2
102
{ACAD_REACTORS
330
C3
102
}
100
AcDbEntity
  8
0
370
              -2
390
0
  6
Continuous
 62
               0
100
AcDbCircle
 10
-870.0
 20
725.0
 30
0.0
 40
1.9998779296875
  0
HATCH
  5
C3
100
AcDbEntity
  8
0
370
              -2
390
0
  6
Continuous
 62
               0
100
AcDbHatch
 10
0.0
 20
0.0
 30
0.0
210
0.0
220
0.0
230
1.0
  2
SOLID
 70
               1
 71
               1
 91
        1
 92
        1
 93
        1
 72
               2
 10
-870.0
 20
725.0
 40
1.9998779296875
 50
0.0
 51
360.0
 73
               0
 97
        1
330
C2
 75
               0
 76
               1
 98
        1
 10
0.0
 20
0.0
  0
CIRCLE
  5
C4
102
{ACAD_REACTORS
330
C5
102
}
100
AcDbEntity
  8
0
370
              -2
390
0
  6
Continuous
 62
               0
100
AcDbCircle
 10
-870.0
 20
420.0
 30
0.0
 40
1.9998779296875
  0
HATCH
  5
C5
100
AcDbEntity
  8
0
370
              -2
390
0
  6
Continuous
 62
               0
100
AcDbHatch
 10
0.0
 20
0.0
 30
0.0
210
0.0
220
0.0
230
1.0
  2
SOLID
 70
               1
 71
               1
 91
        1
 92
        1
 93
        1
 72
               2
 10
-870.0
 20
420.0
 40
1.9998779296875
 50
0.0
 51
360.0
 73
               0
 97
        1
330
C4
 75
               0
 76
               1
 98
        1
 10
0.0
 20
0.0
  0
MTEXT
  5
C6
100
AcDbEntity
  8
0
390
0
 62
               0
100
AcDbMText
 10
-903.87761718749971
 20
548.68749831782452
 30
0.0
 40
24.432617187500004
 41
0.0
 71
               1
 72
               1
  1
305
  7
ＭＳ ゴシック
 11
0.0
 21
1.0
 31
0.0
 73
               1
 44
0.7828267384257843
  0
POINT
  5
C7
100
AcDbEntity
  8
Defpoints
370
               0
390
0
 62
               0
100
AcDbPoint
 10
-770.0
 20
420.0
 30
0.0
  0
POINT
  5
C8
100
AcDbEntity
  8
Defpoints
370
               0
390
0
 62
               0
100
AcDbPoint
 10
-770.0
 20
725.0
 30
0.0
  0
POINT
  5
C9
100
AcDbEntity
  8
Defpoints
370
               0
390
0
 62
               0
100
AcDbPoint
 10
-870.0
 20
725.0
 30
0.0
  0
ENDBLK
  5
CA
100
AcDbEntity
  8
notes
390
0
100
AcDbBlockEnd
  0
BLOCK
  5
CB
100
AcDbEntity
  8
notes
390
0
100
AcDbBlockBegin
  2
*D11
 70
               1
 10
0.0
 20
0.0
 30
0.0
  3
*D11
  1

  0
LINE
  5
CC
100
AcDbEntity
  8
0
370
              -2
390
0
  6
Continuous
 62
               0
100
AcDbLine
 10
-595.0
 20
315.0
 30
0.0
 11
-595.0
 21
240.0
 31
0.0
  0
LINE
  5
CD
100
AcDbEntity
  8
0
370
              -2
390
0
  6
Continuous
 62
               0
100
AcDbLine
 10
-45.000000000000909
 20
315.0
 30
0.0
 11
-45.000000000000909
 21
240.0
 31
0.0
  0
LINE
  5
CE
100
AcDbEntity
  8
0
370
              -2
390
0
  6
Continuous
 62
               0
100
AcDbLine
 10
-595.0
 20
240.0
 30
0.0
 11
-45.000000000000909
 21
240.0
 31
0.0
  0
CIRCLE
  5
CF
102
{ACAD_REACTORS
330
D0
102
}
100
AcDbEntity
  8
0
370
              -2
390
0
  6
Continuous
 62
               0
100
AcDbCircle
 10
-595.0
 20
240.0
 30
0.0
 40
1.9998779296875
  0
HATCH
  5
D0
100
AcDbEntity
  8
0
370
              -2
390
0
  6
Continuous
 62
               0
100
AcDbHatch
 10
0.0
 20
0.0
 30
0.0
210
0.0
220
0.0
230
1.0
  2
SOLID
 70
               1
 71
               1
 91
        1
 92
        1
 93
        1
 72
               2
 10
-595.0
 20
240.0
 40
1.9998779296875
 50
0.0
 51
360.0
 73
               0
 97
        1
330
CF
 75
               0
 76
               1
 98
        1
 10
0.0
 20
0.0
  0
CIRCLE
  5
D1
102
{ACAD_REACTORS
330
D2
102
}
100
AcDbEntity
  8
0
370
              -2
390
0
  6
Continuous
 62
               0
100
AcDbCircle
 10
-45.000000000000909
 20
240.0
 30
0.0
 40
1.9998779296875
  0
HATCH
  5
D2
100
AcDbEntity
  8
0
370
              -2
390
0
  6
Continuous
 62
               0
100
AcDbHatch
 10
0.0
 20
0.0
 30
0.0
210
0.0
220
0.0
230
1.0
  2
SOLID
 70
               1
 71
               1
 91
        1
 92
        1
 93
        1
 72
               2
 10
-45.000000000000909
 20
240.0
 40
1.9998779296875
 50
0.0
 51
360.0
 73
               0
 97
        1
330
D1
 75
               0
 76
               1
 98
        1
 10
0.0
 20
0.0
  0
MTEXT
  5
D3
100
AcDbEntity
  8
0
390
0
 62
               0
100
AcDbMText
 10
-343.81250168217684
 20
273.87761718750005
 30
0.0
 40
24.432617187500004
 41
0.0
 71
               1
 72
               1
  1
550
  7
ＭＳ ゴシック
 73
               1
 44
0.7828267384257843
  0
POINT
  5
D4
100
AcDbEntity
  8
Defpoints
370
               0
390
0
 62
               0
100
AcDbPoint
 10
-45.000000000000909
 20
340.0
 30
0.0
  0
POINT
  5
D5
100
AcDbEntity
  8
Defpoints
370
               0
390
0
 62
               0
100
AcDbPoint
 10
-595.0
 20
340.0
 30
0.0
  0
POINT
  5
D6
100
AcDbEntity
  8
Defpoints
370
               0
390
0
 62
               0
100
AcDbPoint
 10
-595.0
 20
240.0
 30
0.0
  0
ENDBLK
  5
D7
100
AcDbEntity
  8
notes
390
0
100
AcDbBlockEnd
  0
BLOCK
  5
D8
100
AcDbEntity
  8
notes
390
0
100
AcDbBlockBegin
  2
*D12
 70
               1
 10
0.0
 20
0.0
 30
0.0
  3
*D12
  1

  0
LINE
  5
D9
100
AcDbEntity
  8
0
370
              -2
390
0
  6
Continuous
 62
               0
100
AcDbLine
 10
-45.000000000000909
 20
315.0
 30
0.0
 11
-45.000000000000909
 21
240.0
 31
0.0
  0
LINE
  5
DA
100
AcDbEntity
  8
0
370
              -2
390
0
  6
Continuous
 62
               0
100
AcDbLine
 10
130.0
 20
350.0
 30
0.0
 11
130.0
 21
240.0
 31
0.0
  0
LINE
  5
DB
100
AcDbEntity
  8
0
370
              -2
390
0
  6
Continuous
 62
               0
100
AcDbLine
 10
-45.000000000000909
 20
240.0
 30
0.0
 11
130.0
 21
240.0
 31
0.0
  0
CIRCLE
  5
DC
102
{ACAD_REACTORS
330
DD
102
}
100
AcDbEntity
  8
0
370
              -2
390
0
  6
Continuous
 62
               0
100
AcDbCircle
 10
-45.000000000000909
 20
240.0
 30
0.0
 40
1.9998779296875
  0
HATCH
  5
DD
100
AcDbEntity
  8
0
370
              -2
390
0
  6
Continuous
 62
               0
100
AcDbHatch
 10
0.0
 20
0.0
 30
0.0
210
0.0
220
0.0
230
1.0
  2
SOLID
 70
               1
 71
               1
 91
        1
 92
        1
 93
        1
 72
               2
 10
-45.000000000000909
 20
240.0
 40
1.9998779296875
 50
0.0
 51
360.0
 73
               0
 97
        1
330
DC
 75
               0
 76
               1
 98
        1
 10
0.0
 20
0.0
  0
CIRCLE
  5
DE
102
{ACAD_REACTORS
330
DF
102
}
100
AcDbEntity
  8
0
370
              -2
390
0
  6
Continuous
 62
               0
100
AcDbCircle
 10
130.0
 20
240.0
 30
0.0
 40
1.9998779296875
  0
HATCH
  5
DF
100
AcDbEntity
  8
0
370
              -2
390
0
  6
Continuous
 62
               0
100
AcDbHatch
 10
0.0
 20
0.0
 30
0.0
210
0.0
220
0.0
230
1.0
  2
SOLID
 70
               1
 71
               1
 91
        1
 92
        1
 93
        1
 72
               2
 10
130.0
 20
240.0
 40
1.9998779296875
 50
0.0
 51
360.0
 73
               0
 97
        1
330
DE
 75
               0
 76
               1
 98
        1
 10
0.0
 20
0.0
  0
MTEXT
  5
E0
100
AcDbEntity
  8
0
390
0
 62
               0
100
AcDbMText
 10
18.687498317823156
 20
273.87761718750005
 30
0.0
 40
24.432617187500004
 41
0.0
 71
               1
 72
               1
  1
175
  7
ＭＳ ゴシック
 73
               1
 44
0.7828267384257843
  0
POINT
  5
E1
100
AcDbEntity
  8
Defpoints
370
               0
390
0
 62
               0
100
AcDbPoint
 10
130.0
 20
375.0
 30
0.0
  0
POINT
  5
E2
100
AcDbEntity
  8
Defpoints
370
               0
390
0
 62
               0
100
AcDbPoint
 10
-45.000000000000909
 20
340.0
 30
0.0
  0
POINT
  5
E3
100
AcDbEntity
  8
Defpoints
370
               0
390
0
 62
               0
100
AcDbPoint
 10
-45.000000000000909
 20
240.0
 30
0.0
  0
ENDBLK
  5
E4
100
AcDbEntity
  8
notes
390
0
100
AcDbBlockEnd
  0
BLOCK
  5
E5
100
AcDbEntity
  8
notes
390
0
100
AcDbBlockBegin
  2
*D13
 70
               1
 10
0.0
 20
0.0
 30
0.0
  3
*D13
  1

  0
LINE
  5
E6
100
AcDbEntity
  8
0
370
              -2
390
0
  6
Continuous
 62
               0
100
AcDbLine
 10
-180.00924802674399
 20
780.0
 30
0.0
 11
-153.50924802674399
 21
780.0
 31
0.0
  0
LINE
  5
E7
100
AcDbEntity
  8
0
370
              -2
390
0
  6
Continuous
 62
               0
100
AcDbLine
 10
-180.00924802674399
 20
870.0
 30
0.0
 11
-153.50924802674399
 21
870.0
 31
0.0
  0
LINE
  5
E8
100
AcDbEntity
  8
0
370
              -2
390
0
  6
Continuous
 62
               0
100
AcDbLine
 10
-153.50924802674399
 20
780.0
 30
0.0
 11
-153.50924802674399
 21
735.37408714604976
 31
0.0
  0
LINE
  5
E9
100
AcDbEntity
  8
0
370
              -2
390
0
  6
Continuous
 62
               0
100
AcDbLine
 10
-153.50924802674399
 20
780.0
 30
0.0
 11
-153.50924802674399
 21
870.0
 31
0.0
  0
CIRCLE
  5
EA
102
{ACAD_REACTORS
330
EB
102
}
100
AcDbEntity
  8
0
370
              -2
390
0
  6
Continuous
 62
               0
100
AcDbCircle
 10
-153.50924802674399
 20
780.0
 30
0.0
 40
1.9998779296875
  0
HATCH
  5
EB
100
AcDbEntity
  8
0
370
              -2
390
0
  6
Continuous
 62
               0
100
AcDbHatch
 10
0.0
 20
0.0
 30
0.0
210
0.0
220
0.0
230
1.0
  2
SOLID
 70
               1
 71
               1
 91
        1
 92
        1
 93
        1
 72
               2
 10
-153.50924802674399
 20
780.0
 40
1.9998779296875
 50
0.0
 51
360.0
 73
               0
 97
        1
330
EA
 75
               0
 76
               1
 98
        1
 10
0.0
 20
0.0
  0
CIRCLE
  5
EC
102
{ACAD_REACTORS
330
ED
102
}
100
AcDbEntity
  8
0
370
              -2
390
0
  6
Continuous
 62
               0
100
AcDbCircle
 10
-153.50924802674399
 20
870.0
 30
0.0
 40
1.9998779296875
  0
HATCH
  5
ED
100
AcDbEntity
  8
0
370
              -2
390
0
  6
Continuous
 62
               0
100
AcDbHatch
 10
0.0
 20
0.0
 30
0.0
210
0.0
220
0.0
230
1.0
  2
SOLID
 70
               1
 71
               1
 91
        1
 92
        1
 93
        1
 72
               2
 10
-153.50924802674399
 20
870.0
 40
1.9998779296875
 50
0.0
 51
360.0
 73
               0
 97
        1
330
EC
 75
               0
 76
               1
 98
        1
 10
0.0
 20
0.0
  0
MTEXT
  5
EE
100
AcDbEntity
  8
0
390
0
 62
               0
100
AcDbMText
 10
-187.3868652142437
 20
735.37408714604976
 30
0.0
 40
24.432617187500004
 41
0.0
 71
               1
 72
               1
  1
90
  7
ＭＳ ゴシック
 11
0.0
 21
1.0
 31
0.0
 73
               1
 44
0.7828267384257843
  0
POINT
  5
EF
100
AcDbEntity
  8
Defpoints
370
               0
390
0
 62
               0
100
AcDbPoint
 10
-205.00924802674399
 20
870.0
 30
0.0
  0
POINT
  5
F0
100
AcDbEntity
  8
Defpoints
370
               0
390
0
 62
               0
100
AcDbPoint
 10
-205.00924802674399
 20
780.0
 30
0.0
  0
POINT
  5
F1
100
AcDbEntity
  8
Defpoints
370
               0
390
0
 62
               0
100
AcDbPoint
 10
-153.50924802674399
 20
780.0
 30
0.0
  0
ENDBLK
  5
F2
100
AcDbEntity
  8
notes
390
0
100
AcDbBlockEnd
  0
BLOCK
  5
F3
100
AcDbEntity
  8
notes
390
0
100
AcDbBlockBegin
  2
*D14
 70
               1
 10
0.0
 20
0.0
 30
0.0
  3
*D14
  1

  0
LINE
  5
F4
100
AcDbEntity
  8
0
370
              -2
390
0
  6
Continuous
 62
               0
100
AcDbLine
 10
-620.00341567008309
 20
-360.8346290014988
 30
0.0
 11
-620.00341567008309
 21
-245.92219788355078
 31
0.0
  0
LINE
  5
F5
100
AcDbEntity
  8
0
370
              -2
390
0
  6
Continuous
 62
               0
100
AcDbLine
 10
-460.00341567008309
 20
-365.8346290014988
 30
0.0
 11
-460.00341567008309
 21
-245.92219788355078
 31
0.0
  0
LINE
  5
F6
100
AcDbEntity
  8
0
370
              -2
390
0
  6
Continuous
 62
               0
100
AcDbLine
 10
-620.00341567008309
 20
-245.92219788355078
 30
0.0
 11
-460.00341567008309
 21
-245.92219788355078
 31
0.0
  0
CIRCLE
  5
F7
102
{ACAD_REACTORS
330
F8
102
}
100
AcDbEntity
  8
0
370
              -2
390
0
  6
Continuous
 62
               0
100
AcDbCircle
 10
-620.00341567008309
 20
-245.92219788355078
 30
0.0
 40
1.9998779296875
  0
HATCH
  5
F8
100
AcDbEntity
  8
0
370
              -2
390
0
  6
Continuous
 62
               0
100
AcDbHatch
 10
0.0
 20
0.0
 30
0.0
210
0.0
220
0.0
230
1.0
  2
SOLID
 70
               1
 71
               1
 91
        1
 92
        1
 93
        1
 72
               2
 10
-620.00341567008309
 20
-245.92219788355078
 40
1.9998779296875
 50
0.0
 51
360.0
 73
               0
 97
        1
330
F7
 75
               0
 76
               1
 98
        1
 10
0.0
 20
0.0
  0
CIRCLE
  5
F9
102
{ACAD_REACTORS
330
FA
102
}
100
AcDbEntity
  8
0
370
              -2
390
0
  6
Continuous
 62
               0
100
AcDbCircle
 10
-460.00341567008309
 20
-245.92219788355078
 30
0.0
 40
1.9998779296875
  0
HATCH
  5
FA
100
AcDbEntity
  8
0
370
              -2
390
0
  6
Continuous
 62
               0
100
AcDbHatch
 10
0.0
 20
0.0
 30
0.0
210
0.0
220
0.0
230
1.0
  2
SOLID
 70
               1
 71
               1
 91
        1
 92
        1
 93
        1
 72
               2
 10
-460.00341567008309
 20
-245.92219788355078
 40
1.9998779296875
 50
0.0
 51
360.0
 73
               0
 97
        1
330
F9
 75
               0
 76
               1
 98
        1
 10
0.0
 20
0.0
  0
MTEXT
  5
FB
100
AcDbEntity
  8
0
390
0
 62
               0
100
AcDbMText
 10
-563.81591735225902
 20
-212.04458069605084
 30
0.0
 40
24.432617187500004
 41
0.0
 71
               1
 72
               1
  1
160
  7
ＭＳ ゴシック
 73
               1
 44
0.7828267384257843
  0
POINT
  5
FC
100
AcDbEntity
  8
Defpoints
370
               0
390
0
 62
               0
100
AcDbPoint
 10
-460.00341567008309
 20
-390.8346290014988
 30
0.0
  0
POINT
  5
FD
100
AcDbEntity
  8
Defpoints
370
               0
390
0
 62
               0
100
AcDbPoint
 10
-620.00341567008309
 20
-385.8346290014988
 30
0.0
  0
POINT
  5
FE
100
AcDbEntity
  8
Defpoints
370
               0
390
0
 62
               0
100
AcDbPoint
 10
-620.00341567008309
 20
-245.92219788355078
 30
0.0
  0
ENDBLK
  5
FF
100
AcDbEntity
  8
notes
390
0
100
AcDbBlockEnd
  0
BLOCK
  5
100
100
AcDbEntity
  8
notes
390
0
100
AcDbBlockBegin
  2
*D15
 70
               1
 10
0.0
 20
0.0
 30
0.0
  3
*D15
  1

  0
LINE
  5
101
100
AcDbEntity
  8
0
370
              -2
390
0
  6
Continuous
 62
               0
100
AcDbLine
 10
-460.00341567008309
 20
-365.8346290014988
 30
0.0
 11
-460.00341567008309
 21
-245.92219788355078
 31
0.0
  0
LINE
  5
102
100
AcDbEntity
  8
0
370
              -2
390
0
  6
Continuous
 62
               0
100
AcDbLine
 10
-180.00341567008218
 20
-365.8346290014988
 30
0.0
 11
-180.00341567008218
 21
-245.92219788355078
 31
0.0
  0
LINE
  5
103
100
AcDbEntity
  8
0
370
              -2
390
0
  6
Continuous
 62
               0
100
AcDbLine
 10
-460.00341567008309
 20
-245.92219788355078
 30
0.0
 11
-180.00341567008218
 21
-245.92219788355078
 31
0.0
  0
CIRCLE
  5
104
102
{ACAD_REACTORS
330
105
102
}
100
AcDbEntity
  8
0
370
              -2
390
0
  6
Continuous
 62
               0
100
AcDbCircle
 10
-460.00341567008309
 20
-245.92219788355078
 30
0.0
 40
1.9998779296875
  0
HATCH
  5
105
100
AcDbEntity
  8
0
370
              -2
390
0
  6
Continuous
 62
               0
100
AcDbHatch
 10
0.0
 20
0.0
 30
0.0
210
0.0
220
0.0
230
1.0
  2
SOLID
 70
               1
 71
               1
 91
        1
 92
        1
 93
        1
 72
               2
 10
-460.00341567008309
 20
-245.92219788355078
 40
1.9998779296875
 50
0.0
 51
360.0
 73
               0
 97
        1
330
104
 75
               0
 76
               1
 98
        1
 10
0.0
 20
0.0
  0
CIRCLE
  5
106
102
{ACAD_REACTORS
330
107
102
}
100
AcDbEntity
  8
0
370
              -2
390
0
  6
Continuous
 62
               0
100
AcDbCircle
 10
-180.00341567008218
 20
-245.92219788355078
 30
0.0
 40
1.9998779296875
  0
HATCH
  5
107
100
AcDbEntity
  8
0
370
              -2
390
0
  6
Continuous
 62
               0
100
AcDbHatch
 10
0.0
 20
0.0
 30
0.0
210
0.0
220
0.0
230
1.0
  2
SOLID
 70
               1
 71
               1
 91
        1
 92
        1
 93
        1
 72
               2
 10
-180.00341567008218
 20
-245.92219788355078
 40
1.9998779296875
 50
0.0
 51
360.0
 73
               0
 97
        1
330
106
 75
               0
 76
               1
 98
        1
 10
0.0
 20
0.0
  0
MTEXT
  5
108
100
AcDbEntity
  8
0
390
0
 62
               0
100
AcDbMText
 10
-343.81591735225902
 20
-212.04458069605084
 30
0.0
 40
24.432617187500004
 41
0.0
 71
               1
 72
               1
  1
280
  7
ＭＳ ゴシック
 73
               1
 44
0.7828267384257843
  0
POINT
  5
109
100
AcDbEntity
  8
Defpoints
370
               0
390
0
 62
               0
100
AcDbPoint
 10
-180.00341567008218
 20
-390.8346290014988
 30
0.0
  0
POINT
  5
10A
100
AcDbEntity
  8
Defpoints
370
               0
390
0
 62
               0
100
AcDbPoint
 10
-460.00341567008309
 20
-390.8346290014988
 30
0.0
  0
POINT
  5
10B
100
AcDbEntity
  8
Defpoints
370
               0
390
0
 62
               0
100
AcDbPoint
 10
-460.00341567008309
 20
-245.92219788355078
 30
0.0
  0
ENDBLK
  5
10C
100
AcDbEntity
  8
notes
390
0
100
AcDbBlockEnd
  0
BLOCK
  5
10D
100
AcDbEntity
  8
notes
390
0
100
AcDbBlockBegin
  2
*D16
 70
               1
 10
0.0
 20
0.0
 30
0.0
  3
*D16
  1

  0
LINE
  5
10E
100
AcDbEntity
  8
0
370
              -2
390
0
  6
Continuous
 62
               0
100
AcDbLine
 10
-180.00341567008218
 20
-365.8346290014988
 30
0.0
 11
-180.00341567008218
 21
-245.92219788355078
 31
0.0
  0
LINE
  5
10F
100
AcDbEntity
  8
0
370
              -2
390
0
  6
Continuous
 62
               0
100
AcDbLine
 10
-20.003415670083086
 20
-365.8346290014988
 30
0.0
 11
-20.003415670083086
 21
-245.92219788355078
 31
0.0
  0
LINE
  5
110
100
AcDbEntity
  8
0
370
              -2
390
0
  6
Continuous
 62
               0
100
AcDbLine
 10
-180.00341567008218
 20
-245.92219788355078
 30
0.0
 11
-20.003415670083086
 21
-245.92219788355078
 31
0.0
  0
CIRCLE
  5
111
102
{ACAD_REACTORS
330
112
102
}
100
AcDbEntity
  8
0
370
              -2
390
0
  6
Continuous
 62
               0
100
AcDbCircle
 10
-180.00341567008218
 20
-245.92219788355078
 30
0.0
 40
1.9998779296875
  0
HATCH
  5
112
100
AcDbEntity
  8
0
370
              -2
390
0
  6
Continuous
 62
               0
100
AcDbHatch
 10
0.0
 20
0.0
 30
0.0
210
0.0
220
0.0
230
1.0
  2
SOLID
 70
               1
 71
               1
 91
        1
 92
        1
 93
        1
 72
               2
 10
-180.00341567008218
 20
-245.92219788355078
 40
1.9998779296875
 50
0.0
 51
360.0
 73
               0
 97
        1
330
111
 75
               0
 76
               1
 98
        1
 10
0.0
 20
0.0
  0
CIRCLE
  5
113
102
{ACAD_REACTORS
330
114
102
}
100
AcDbEntity
  8
0
370
              -2
390
0
  6
Continuous
 62
               0
100
AcDbCircle
 10
-20.003415670083086
 20
-245.92219788355078
 30
0.0
 40
1.9998779296875
  0
HATCH
  5
114
100
AcDbEntity
  8
0
370
              -2
390
0
  6
Continuous
 62
               0
100
AcDbHatch
 10
0.0
 20
0.0
 30
0.0
210
0.0
220
0.0
230
1.0
  2
SOLID
 70
               1
 71
               1
 91
        1
 92
        1
 93
        1
 72
               2
 10
-20.003415670083086
 20
-245.92219788355078
 40
1.9998779296875
 50
0.0
 51
360.0
 73
               0
 97
        1
330
113
 75
               0
 76
               1
 98
        1
 10
0.0
 20
0.0
  0
MTEXT
  5
115
100
AcDbEntity
  8
0
390
0
 62
               0
100
AcDbMText
 10
-123.81591735225902
 20
-212.04458069605084
 30
0.0
 40
24.432617187500004
 41
0.0
 71
               1
 72
               1
  1
160
  7
ＭＳ ゴシック
 73
               1
 44
0.7828267384257843
  0
POINT
  5
116
100
AcDbEntity
  8
Defpoints
370
               0
390
0
 62
               0
100
AcDbPoint
 10
-20.003415670083086
 20
-390.8346290014988
 30
0.0
  0
POINT
  5
117
100
AcDbEntity
  8
Defpoints
370
               0
390
0
 62
               0
100
AcDbPoint
 10
-180.00341567008218
 20
-390.8346290014988
 30
0.0
  0
POINT
  5
118
100
AcDbEntity
  8
Defpoints
370
               0
390
0
 62
               0
100
AcDbPoint
 10
-180.00341567008218
 20
-245.92219788355078
 30
0.0
  0
ENDBLK
  5
119
100
AcDbEntity
  8
notes
390
0
100
AcDbBlockEnd
  0
BLOCK
  5
11A
100
AcDbEntity
  8
notes
390
0
100
AcDbBlockBegin
  2
*D17
 70
               1
 10
0.0
 20
0.0
 30
0.0
  3
*D17
  1

  0
LINE
  5
11B
100
AcDbEntity
  8
0
370
              -2
390
0
  6
Continuous
 62
               0
100
AcDbLine
 10
683.15437239461244
 20
-485.92212825374281
 30
0.0
 11
676.14061290137761
 21
-485.92212825374281
 31
0.0
  0
LINE
  5
11C
100
AcDbEntity
  8
0
370
              -2
390
0
  6
Continuous
 62
               0
100
AcDbLine
 10
683.15437239461244
 20
-345.92219788355078
 30
0.0
 11
676.14061290137761
 21
-345.92219788355078
 31
0.0
  0
LINE
  5
11D
100
AcDbEntity
  8
0
370
              -2
390
0
  6
Continuous
 62
               0
100
AcDbLine
 10
676.14061290137761
 20
-345.92219788355078
 30
0.0
 11
676.14061290137761
 21
-193.00091285395001
 31
0.0
  0
LINE
  5
11E
100
AcDbEntity
  8
0
370
              -2
390
0
  6
Continuous
 62
               0
100
AcDbLine
 10
676.14061290137761
 20
-485.92212825374281
 30
0.0
 11
676.14061290137761
 21
-345.92219788355078
 31
0.0
  0
CIRCLE
  5
11F
102
{ACAD_REACTORS
330
120
102
}
100
AcDbEntity
  8
0
370
              -2
390
0
  6
Continuous
 62
               0
100
AcDbCircle
 10
676.14061290137761
 20
-485.92212825374281
 30
0.0
 40
1.9998779296875
  0
HATCH
  5
120
100
AcDbEntity
  8
0
370
              -2
390
0
  6
Continuous
 62
               0
100
AcDbHatch
 10
0.0
 20
0.0
 30
0.0
210
0.0
220
0.0
230
1.0
  2
SOLID
 70
               1
 71
               1
 91
        1
 92
        1
 93
        1
 72
               2
 10
676.14061290137761
 20
-485.92212825374281
 40
1.9998779296875
 50
0.0
 51
360.0
 73
               0
 97
        1
330
11F
 75
               0
 76
               1
 98
        1
 10
0.0
 20
0.0
  0
CIRCLE
  5
121
102
{ACAD_REACTORS
330
122
102
}
100
AcDbEntity
  8
0
370
              -2
390
0
  6
Continuous
 62
               0
100
AcDbCircle
 10
676.14061290137761
 20
-345.92219788355078
 30
0.0
 40
1.9998779296875
  0
HATCH
  5
122
100
AcDbEntity
  8
0
370
              -2
390
0
  6
Continuous
 62
               0
100
AcDbHatch
 10
0.0
 20
0.0
 30
0.0
210
0.0
220
0.0
230
1.0
  2
SOLID
 70
               1
 71
               1
 91
        1
 92
        1
 93
        1
 72
               2
 10
676.14061290137761
 20
-345.92219788355078
 40
1.9998779296875
 50
0.0
 51
360.0
 73
               0
 97
        1
330
121
 75
               0
 76
               1
 98
        1
 10
0.0
 20
0.0
  0
MTEXT
  5
123
100
AcDbEntity
  8
0
390
0
 62
               0
100
AcDbMText
 10
642.2629957138779
 20
-335.87591285395001
 30
0.0
 40
24.432617187500004
 41
0.0
 71
               1
 72
               1
  1
140(深さ)
  7
ＭＳ ゴシック
 11
0.0
 21
1.0
 31
0.0
 73
               1
 44
0.7828267384257843
  0
POINT
  5
124
100
AcDbEntity
  8
Defpoints
370
               0
390
0
 62
               0
100
AcDbPoint
 10
658.15437239461244
 20
-345.92219788355078
 30
0.0
  0
POINT
  5
125
100
AcDbEntity
  8
Defpoints
370
               0
390
0
 62
               0
100
AcDbPoint
 10
658.15437239461244
 20
-485.92212825374281
 30
0.0
  0
POINT
  5
126
100
AcDbEntity
  8
Defpoints
370
               0
390
0
 62
               0
100
AcDbPoint
 10
676.14061290137761
 20
-485.92212825374281
 30
0.0
  0
ENDBLK
  5
127
100
AcDbEntity
  8
notes
390
0
100
AcDbBlockEnd
  0
BLOCK
  5
128
100
AcDbEntity
  8
notes
390
0
100
AcDbBlockBegin
  2
*D18
 70
               1
 10
0.0
 20
0.0
 30
0.0
  3
*D18
  1

  0
LINE
  5
129
100
AcDbEntity
  8
0
370
              -2
390
0
  6
Continuous
 62
               0
100
AcDbLine
 10
-660.00341567008309
 20
-405.90000000000009
 30
0.0
 11
-870.0
 21
-405.90000000000009
 31
0.0
  0
LINE
  5
12A
100
AcDbEntity
  8
0
370
              -2
390
0
  6
Continuous
 62
               0
100
AcDbLine
 10
-784.80924802674417
 20
-345.90000000000009
 30
0.0
 11
-870.0
 21
-345.90000000000009
 31
0.0
  0
LINE
  5
12B
100
AcDbEntity
  8
0
370
              -2
390
0
  6
Continuous
 62
               0
100
AcDbLine
 10
-870.0
 20
-405.90000000000009
 30
0.0
 11
-870.0
 21
-345.90000000000009
 31
0.0
  0
CIRCLE
  5
12C
102
{ACAD_REACTORS
330
12D
102
}
100
AcDbEntity
  8
0
370
              -2
390
0
  6
Continuous
 62
               0
100
AcDbCircle
 10
-870.0
 20
-405.90000000000009
 30
0.0
 40
1.9998779296875
  0
HATCH
  5
12D
100
AcDbEntity
  8
0
370
              -2
390
0
  6
Continuous
 62
               0
100
AcDbHatch
 10
0.0
 20
0.0
 30
0.0
210
0.0
220
0.0
230
1.0
  2
SOLID
 70
               1
 71
               1
 91
        1
 92
        1
 93
        1
 72
               2
 10
-870.0
 20
-405.90000000000009
 40
1.9998779296875
 50
0.0
 51
360.0
 73
               0
 97
        1
330
12C
 75
               0
 76
               1
 98
        1
 10
0.0
 20
0.0
  0
CIRCLE
  5
12E
102
{ACAD_REACTORS
330
12F
102
}
100
AcDbEntity
  8
0
370
              -2
390
0
  6
Continuous
 62
               0
100
AcDbCircle
 10
-870.0
 20
-345.90000000000009
 30
0.0
 40
1.9998779296875
  0
HATCH
  5
12F
100
AcDbEntity
  8
0
370
              -2
390
0
  6
Continuous
 62
               0
100
AcDbHatch
 10
0.0
 20
0.0
 30
0.0
210
0.0
220
0.0
230
1.0
  2
SOLID
 70
               1
 71
               1
 91
        1
 92
        1
 93
        1
 72
               2
 10
-870.0
 20
-345.90000000000009
 40
1.9998779296875
 50
0.0
 51
360.0
 73
               0
 97
        1
330
12E
 75
               0
 76
               1
 98
        1
 10
0.0
 20
0.0
  0
MTEXT
  5
130
100
AcDbEntity
  8
0
390
0
 62
               0
100
AcDbMText
 10
-903.87761718749971
 20
-391.77500000000009
 30
0.0
 40
24.432617187500004
 41
0.0
 71
               1
 72
               1
  1
60
  7
ＭＳ ゴシック
 11
0.0
 21
1.0
 31
0.0
 73
               1
 44
0.7828267384257843
  0
POINT
  5
131
100
AcDbEntity
  8
Defpoints
370
               0
390
0
 62
               0
100
AcDbPoint
 10
-759.80924802674417
 20
-345.90000000000009
 30
0.0
  0
POINT
  5
132
100
AcDbEntity
  8
Defpoints
370
               0
390
0
 62
               0
100
AcDbPoint
 10
-635.00341567008309
 20
-405.90000000000009
 30
0.0
  0
POINT
  5
133
100
AcDbEntity
  8
Defpoints
370
               0
390
0
 62
               0
100
AcDbPoint
 10
-870.0
 20
-405.90000000000009
 30
0.0
  0
ENDBLK
  5
134
100
AcDbEntity
  8
notes
390
0
100
AcDbBlockEnd
  0
BLOCK
  5
135
100
AcDbEntity
  8
notes
390
0
100
AcDbBlockBegin
  2
*D19
 70
               1
 10
0.0
 20
0.0
 30
0.0
  3
*D19
  1

  0
LINE
  5
136
100
AcDbEntity
  8
0
370
              -2
390
0
  6
Continuous
 62
               0
100
AcDbLine
 10
368.34104493761606
 20
-345.92219788355078
 30
0.0
 11
288.34268778306887
 21
-345.92219788355078
 31
0.0
  0
LINE
  5
137
100
AcDbEntity
  8
0
370
              -2
390
0
  6
Continuous
 62
               0
100
AcDbLine
 10
368.34104493761606
 20
-465.92219788355169
 30
0.0
 11
288.34268778306887
 21
-465.92219788355169
 31
0.0
  0
LINE
  5
138
100
AcDbEntity
  8
0
370
              -2
390
0
  6
Continuous
 62
               0
100
AcDbLine
 10
288.34268778306887
 20
-345.92219788355078
 30
0.0
 11
288.34268778306887
 21
-465.92219788355169
 31
0.0
  0
CIRCLE
  5
139
102
{ACAD_REACTORS
330
13A
102
}
100
AcDbEntity
  8
0
370
              -2
390
0
  6
Continuous
 62
               0
100
AcDbCircle
 10
288.34268778306887
 20
-345.92219788355078
 30
0.0
 40
1.9998779296875
  0
HATCH
  5
13A
100
AcDbEntity
  8
0
370
              -2
390
0
  6
Continuous
 62
               0
100
AcDbHatch
 10
0.0
 20
0.0
 30
0.0
210
0.0
220
0.0
230
1.0
  2
SOLID
 70
               1
 71
               1
 91
        1
 92
        1
 93
        1
 72
               2
 10
288.34268778306887
 20
-345.92219788355078
 40
1.9998779296875
 50
0.0
 51
360.0
 73
               0
 97
        1
330
139
 75
               0
 76
               1
 98
        1
 10
0.0
 20
0.0
  0
CIRCLE
  5
13B
102
{ACAD_REACTORS
330
13C
102
}
100
AcDbEntity
  8
0
370
              -2
390
0
  6
Continuous
 62
               0
100
AcDbCircle
 10
288.34268778306887
 20
-465.92219788355169
 30
0.0
 40
1.9998779296875
  0
HATCH
  5
13C
100
AcDbEntity
  8
0
370
              -2
390
0
  6
Continuous
 62
               0
100
AcDbHatch
 10
0.0
 20
0.0
 30
0.0
210
0.0
220
0.0
230
1.0
  2
SOLID
 70
               1
 71
               1
 91
        1
 92
        1
 93
        1
 72
               2
 10
288.34268778306887
 20
-465.92219788355169
 40
1.9998779296875
 50
0.0
 51
360.0
 73
               0
 97
        1
330
13B
 75
               0
 76
               1
 98
        1
 10
0.0
 20
0.0
  0
MTEXT
  5
13D
100
AcDbEntity
  8
0
390
0
 62
               0
100
AcDbMText
 10
254.46507059556916
 20
-429.73469956572671
 30
0.0
 40
24.432617187500004
 41
0.0
 71
               1
 72
               1
  1
120
  7
ＭＳ ゴシック
 11
0.0
 21
1.0
 31
0.0
 73
               1
 44
0.7828267384257843
  0
POINT
  5
13E
100
AcDbEntity
  8
Defpoints
370
               0
390
0
 62
               0
100
AcDbPoint
 10
393.34104493761606
 20
-465.92219788355169
 30
0.0
  0
POINT
  5
13F
100
AcDbEntity
  8
Defpoints
370
               0
390
0
 62
               0
100
AcDbPoint
 10
393.34104493761606
 20
-345.92219788355078
 30
0.0
  0
POINT
  5
140
100
AcDbEntity
  8
Defpoints
370
               0
390
0
 62
               0
100
AcDbPoint
 10
288.34268778306887
 20
-345.92219788355078
 30
0.0
  0
ENDBLK
  5
141
100
AcDbEntity
  8
notes
390
0
100
AcDbBlockEnd
  0
BLOCK
  5
142
100
AcDbEntity
  8
notes
390
0
100
AcDbBlockBegin
  2
*D20
 70
               1
 10
0.0
 20
0.0
 30
0.0
  3
*D20
  1

  0
LINE
  5
143
100
AcDbEntity
  8
0
370
              -2
390
0
  6
Continuous
 62
               0
100
AcDbLine
 10
368.34104493761606
 20
-465.92219788355169
 30
0.0
 11
288.34268778306887
 21
-465.92219788355169
 31
0.0
  0
LINE
  5
144
100
AcDbEntity
  8
0
370
              -2
390
0
  6
Continuous
 62
               0
100
AcDbLine
 10
613.21759421712795
 20
-530.92212825374281
 30
0.0
 11
288.34268778306887
 21
-530.92212825374281
 31
0.0
  0
LINE
  5
145
100
AcDbEntity
  8
0
370
              -2
390
0
  6
Continuous
 62
               0
100
AcDbLine
 10
288.34268778306887
 20
-465.92219788355169
 30
0.0
 11
288.34268778306887
 21
-530.92212825374281
 31
0.0
  0
CIRCLE
  5
146
102
{ACAD_REACTORS
330
147
102
}
100
AcDbEntity
  8
0
370
              -2
390
0
  6
Continuous
 62
               0
100
AcDbCircle
 10
288.34268778306887
 20
-465.92219788355169
 30
0.0
 40
1.9998779296875
  0
HATCH
  5
147
100
AcDbEntity
  8
0
370
              -2
390
0
  6
Continuous
 62
               0
100
AcDbHatch
 10
0.0
 20
0.0
 30
0.0
210
0.0
220
0.0
230
1.0
  2
SOLID
 70
               1
 71
               1
 91
        1
 92
        1
 93
        1
 72
               2
 10
288.34268778306887
 20
-465.92219788355169
 40
1.9998779296875
 50
0.0
 51
360.0
 73
               0
 97
        1
330
146
 75
               0
 76
               1
 98
        1
 10
0.0
 20
0.0
  0
CIRCLE
  5
148
102
{ACAD_REACTORS
330
149
102
}
100
AcDbEntity
  8
0
370
              -2
390
0
  6
Continuous
 62
               0
100
AcDbCircle
 10
288.34268778306887
 20
-530.92212825374281
 30
0.0
 40
1.9998779296875
  0
HATCH
  5
149
100
AcDbEntity
  8
0
370
              -2
390
0
  6
Continuous
 62
               0
100
AcDbHatch
 10
0.0
 20
0.0
 30
0.0
210
0.0
220
0.0
230
1.0
  2
SOLID
 70
               1
 71
               1
 91
        1
 92
        1
 93
        1
 72
               2
 10
288.34268778306887
 20
-530.92212825374281
 40
1.9998779296875
 50
0.0
 51
360.0
 73
               0
 97
        1
330
148
 75
               0
 76
               1
 98
        1
 10
0.0
 20
0.0
  0
MTEXT
  5
14A
100
AcDbEntity
  8
0
390
0
 62
               0
100
AcDbMText
 10
254.46507059556916
 20
-514.29716306864725
 30
0.0
 40
24.432617187500004
 41
0.0
 71
               1
 72
               1
  1
65
  7
ＭＳ ゴシック
 11
0.0
 21
1.0
 31
0.0
 73
               1
 44
0.7828267384257843
  0
POINT
  5
14B
100
AcDbEntity
  8
Defpoints
370
               0
390
0
 62
               0
100
AcDbPoint
 10
638.21759421712795
 20
-530.92212825374281
 30
0.0
  0
POINT
  5
14C
100
AcDbEntity
  8
Defpoints
370
               0
390
0
 62
               0
100
AcDbPoint
 10
393.34104493761606
 20
-465.92219788355169
 30
0.0
  0
POINT
  5
14D
100
AcDbEntity
  8
Defpoints
370
               0
390
0
 62
               0
100
AcDbPoint
 10
288.34268778306887
 20
-465.92219788355169
 30
0.0
  0
ENDBLK
  5
14E
100
AcDbEntity
  8
notes
390
0
100
AcDbBlockEnd
  0
BLOCK
  5
14F
100
AcDbEntity
  8
notes
390
0
100
AcDbBlockBegin
  2
*D21
 70
               1
 10
0.0
 20
0.0
 30
0.0
  3
*D21
  1

  0
LINE
  5
150
100
AcDbEntity
  8
0
370
              -2
390
0
  6
Continuous
 62
               0
100
AcDbLine
 10
918.28811950091495
 20
-546.87438808220895
 30
0.0
 11
918.28811950091495
 21
-630.92212825374304
 31
0.0
  0
LINE
  5
151
100
AcDbEntity
  8
0
370
              -2
390
0
  6
Continuous
 62
               0
100
AcDbLine
 10
678.28811950091495
 20
-555.92212825374281
 30
0.0
 11
678.28811950091495
 21
-630.92212825374304
 31
0.0
  0
LINE
  5
152
100
AcDbEntity
  8
0
370
              -2
390
0
  6
Continuous
 62
               0
100
AcDbLine
 10
918.28811950091495
 20
-630.92212825374304
 30
0.0
 11
678.28811950091495
 21
-630.92212825374304
 31
0.0
  0
CIRCLE
  5
153
102
{ACAD_REACTORS
330
154
102
}
100
AcDbEntity
  8
0
370
              -2
390
0
  6
Continuous
 62
               0
100
AcDbCircle
 10
918.28811950091495
 20
-630.92212825374304
 30
0.0
 40
1.9998779296875
  0
HATCH
  5
154
100
AcDbEntity
  8
0
370
              -2
390
0
  6
Continuous
 62
               0
100
AcDbHatch
 10
0.0
 20
0.0
 30
0.0
210
0.0
220
0.0
230
1.0
  2
SOLID
 70
               1
 71
               1
 91
        1
 92
        1
 93
        1
 72
               2
 10
918.28811950091495
 20
-630.92212825374304
 40
1.9998779296875
 50
0.0
 51
360.0
 73
               0
 97
        1
330
153
 75
               0
 76
               1
 98
        1
 10
0.0
 20
0.0
  0
CIRCLE
  5
155
102
{ACAD_REACTORS
330
156
102
}
100
AcDbEntity
  8
0
370
              -2
390
0
  6
Continuous
 62
               0
100
AcDbCircle
 10
678.28811950091495
 20
-630.92212825374304
 30
0.0
 40
1.9998779296875
  0
HATCH
  5
156
100
AcDbEntity
  8
0
370
              -2
390
0
  6
Continuous
 62
               0
100
AcDbHatch
 10
0.0
 20
0.0
 30
0.0
210
0.0
220
0.0
230
1.0
  2
SOLID
 70
               1
 71
               1
 91
        1
 92
        1
 93
        1
 72
               2
 10
678.28811950091495
 20
-630.92212825374304
 40
1.9998779296875
 50
0.0
 51
360.0
 73
               0
 97
        1
330
155
 75
               0
 76
               1
 98
        1
 10
0.0
 20
0.0
  0
MTEXT
  5
157
100
AcDbEntity
  8
0
390
0
 62
               0
100
AcDbMText
 10
774.47561781873901
 20
-597.0445110662431
 30
0.0
 40
24.432617187500004
 41
0.0
 71
               1
 72
               1
  1
240
  7
ＭＳ ゴシック
 73
               1
 44
0.7828267384257843
  0
POINT
  5
158
100
AcDbEntity
  8
Defpoints
370
               0
390
0
 62
               0
100
AcDbPoint
 10
678.28811950091495
 20
-530.92212825374281
 30
0.0
  0
POINT
  5
159
100
AcDbEntity
  8
Defpoints
370
               0
390
0
 62
               0
100
AcDbPoint
 10
918.28811950091495
 20
-521.87438808220895
 30
0.0
  0
POINT
  5
15A
100
AcDbEntity
  8
Defpoints
370
               0
390
0
 62
               0
100
AcDbPoint
 10
918.28811950091495
 20
-630.92212825374304
 30
0.0
  0
ENDBLK
  5
15B
100
AcDbEntity
  8
notes
390
0
100
AcDbBlockEnd
  0
BLOCK
  5
15C
100
AcDbEntity
  8
notes
390
0
100
AcDbBlockBegin
  2
*D22
 70
               1
 10
0.0
 20
0.0
 30
0.0
  3
*D22
  1

  0
LINE
  5
15D
100
AcDbEntity
  8
0
370
              -2
390
0
  6
Continuous
 62
               0
100
AcDbLine
 10
137.71732832991802
 20
-345.92219788355078
 30
0.0
 11
229.93946980972487
 21
-345.92219788355078
 31
0.0
  0
LINE
  5
15E
100
AcDbEntity
  8
0
370
              -2
390
0
  6
Continuous
 62
               0
100
AcDbLine
 10
-261.00341567008218
 20
-530.92212825374281
 30
0.0
 11
229.93946980972487
 21
-530.92212825374281
 31
0.0
  0
LINE
  5
15F
100
AcDbEntity
  8
0
370
              -2
390
0
  6
Continuous
 62
               0
100
AcDbLine
 10
229.93946980972487
 20
-345.92219788355078
 30
0.0
 11
229.93946980972487
 21
-530.92212825374281
 31
0.0
  0
CIRCLE
  5
160
102
{ACAD_REACTORS
330
161
102
}
100
AcDbEntity
  8
0
370
              -2
390
0
  6
Continuous
 62
               0
100
AcDbCircle
 10
229.93946980972487
 20
-345.92219788355078
 30
0.0
 40
1.9998779296875
  0
HATCH
  5
161
100
AcDbEntity
  8
0
370
              -2
390
0
  6
Continuous
 62
               0
100
AcDbHatch
 10
0.0
 20
0.0
 30
0.0
210
0.0
220
0.0
230
1.0
  2
SOLID
 70
               1
 71
               1
 91
        1
 92
        1
 93
        1
 72
               2
 10
229.93946980972487
 20
-345.92219788355078
 40
1.9998779296875
 50
0.0
 51
360.0
 73
               0
 97
        1
330
160
 75
               0
 76
               1
 98
        1
 10
0.0
 20
0.0
  0
CIRCLE
  5
162
102
{ACAD_REACTORS
330
163
102
}
100
AcDbEntity
  8
0
370
              -2
390
0
  6
Continuous
 62
               0
100
AcDbCircle
 10
229.93946980972487
 20
-530.92212825374281
 30
0.0
 40
1.9998779296875
  0
HATCH
  5
163
100
AcDbEntity
  8
0
370
              -2
390
0
  6
Continuous
 62
               0
100
AcDbHatch
 10
0.0
 20
0.0
 30
0.0
210
0.0
220
0.0
230
1.0
  2
SOLID
 70
               1
 71
               1
 91
        1
 92
        1
 93
        1
 72
               2
 10
229.93946980972487
 20
-530.92212825374281
 40
1.9998779296875
 50
0.0
 51
360.0
 73
               0
 97
        1
330
162
 75
               0
 76
               1
 98
        1
 10
0.0
 20
0.0
  0
MTEXT
  5
164
100
AcDbEntity
  8
0
390
0
 62
               0
100
AcDbMText
 10
196.06185262222516
 20
-462.23466475082228
 30
0.0
 40
24.432617187500004
 41
0.0
 71
               1
 72
               1
  1
185
  7
ＭＳ ゴシック
 11
0.0
 21
1.0
 31
0.0
 73
               1
 44
0.7828267384257843
  0
POINT
  5
165
100
AcDbEntity
  8
Defpoints
370
               0
390
0
 62
               0
100
AcDbPoint
 10
-286.00341567008218
 20
-530.92212825374281
 30
0.0
  0
POINT
  5
166
100
AcDbEntity
  8
Defpoints
370
               0
390
0
 62
               0
100
AcDbPoint
 10
112.71732832991802
 20
-345.92219788355078
 30
0.0
  0
POINT
  5
167
100
AcDbEntity
  8
Defpoints
370
               0
390
0
 62
               0
100
AcDbPoint
 10
229.93946980972487
 20
-345.92219788355078
 30
0.0
  0
ENDBLK
  5
168
100
AcDbEntity
  8
notes
390
0
100
AcDbBlockEnd
  0
BLOCK
  5
169
100
AcDbEntity
  8
notes
390
0
100
AcDbBlockBegin
  2
*D23
 70
               1
 10
0.0
 20
0.0
 30
0.0
  3
*D23
  1

  0
LINE
  5
16A
100
AcDbEntity
  8
0
370
              -2
390
0
  6
Continuous
 62
               0
100
AcDbLine
 10
-620.00341567008309
 20
-360.8346290014988
 30
0.0
 11
-620.00341567008309
 21
-245.87591285395001
 31
0.0
  0
LINE
  5
16B
100
AcDbEntity
  8
0
370
              -2
390
0
  6
Continuous
 62
               0
100
AcDbLine
 10
-770.00341567008309
 20
-325.96813677085174
 30
0.0
 11
-770.00341567008309
 21
-245.87591285395001
 31
0.0
  0
LINE
  5
16C
100
AcDbEntity
  8
0
370
              -2
390
0
  6
Continuous
 62
               0
100
AcDbLine
 10
-620.00341567008309
 20
-245.87591285395001
 30
0.0
 11
-770.00341567008309
 21
-245.87591285395001
 31
0.0
  0
CIRCLE
  5
16D
102
{ACAD_REACTORS
330
16E
102
}
100
AcDbEntity
  8
0
370
              -2
390
0
  6
Continuous
 62
               0
100
AcDbCircle
 10
-620.00341567008309
 20
-245.87591285395001
 30
0.0
 40
1.9998779296875
  0
HATCH
  5
16E
100
AcDbEntity
  8
0
370
              -2
390
0
  6
Continuous
 62
               0
100
AcDbHatch
 10
0.0
 20
0.0
 30
0.0
210
0.0
220
0.0
230
1.0
  2
SOLID
 70
               1
 71
               1
 91
        1
 92
        1
 93
        1
 72
               2
 10
-620.00341567008309
 20
-245.87591285395001
 40
1.9998779296875
 50
0.0
 51
360.0
 73
               0
 97
        1
330
16D
 75
               0
 76
               1
 98
        1
 10
0.0
 20
0.0
  0
CIRCLE
  5
16F
102
{ACAD_REACTORS
330
170
102
}
100
AcDbEntity
  8
0
370
              -2
390
0
  6
Continuous
 62
               0
100
AcDbCircle
 10
-770.00341567008309
 20
-245.87591285395001
 30
0.0
 40
1.9998779296875
  0
HATCH
  5
170
100
AcDbEntity
  8
0
370
              -2
390
0
  6
Continuous
 62
               0
100
AcDbHatch
 10
0.0
 20
0.0
 30
0.0
210
0.0
220
0.0
230
1.0
  2
SOLID
 70
               1
 71
               1
 91
        1
 92
        1
 93
        1
 72
               2
 10
-770.00341567008309
 20
-245.87591285395001
 40
1.9998779296875
 50
0.0
 51
360.0
 73
               0
 97
        1
330
16F
 75
               0
 76
               1
 98
        1
 10
0.0
 20
0.0
  0
MTEXT
  5
171
100
AcDbEntity
  8
0
390
0
 62
               0
100
AcDbMText
 10
-718.81591735225902
 20
-211.99829566645008
 30
0.0
 40
24.432617187500004
 41
0.0
 71
               1
 72
               1
  1
150
  7
ＭＳ ゴシック
 73
               1
 44
0.7828267384257843
  0
POINT
  5
172
100
AcDbEntity
  8
Defpoints
370
               0
390
0
 62
               0
100
AcDbPoint
 10
-770.00341567008309
 20
-350.96813677085174
 30
0.0
  0
POINT
  5
173
100
AcDbEntity
  8
Defpoints
370
               0
390
0
 62
               0
100
AcDbPoint
 10
-620.00341567008309
 20
-385.8346290014988
 30
0.0
  0
POINT
  5
174
100
AcDbEntity
  8
Defpoints
370
               0
390
0
 62
               0
100
AcDbPoint
 10
-620.00341567008309
 20
-245.87591285395001
 30
0.0
  0
ENDBLK
  5
175
100
AcDbEntity
  8
notes
390
0
100
AcDbBlockEnd
  0
BLOCK
  5
176
100
AcDbEntity
  8
ARJ70-0205
390
0
100
AcDbBlockBegin
  2
グループ
 70
               0
 10
0.0
 20
0.0
 30
0.0
  3
グループ
  1

  0
LINE
  5
177
100
AcDbEntity
  8
0
370
              15
390
0
  6
STYLE_13
 62
               7
100
AcDbLine
 10
-5829.3875470982857
 20
-1540.5979031701063
 30
0.0
 11
-5789.3875470982857
 21
-1540.5979031701063
 31
0.0
  0
CIRCLE
  5
178
100
AcDbEntity
  8
0
370
              15
390
0
  6
STYLE_13
 62
               7
100
AcDbCircle
 10
-5809.3875470982857
 20
-1540.5979031701063
 30
0.0
 40
10.0
  0
LINE
  5
179
100
AcDbEntity
  8
0
370
              15
390
0
  6
STYLE_13
 62
               7
100
AcDbLine
 10
-5809.3875470982857
 20
-1520.5979031701063
 30
0.0
 11
-5809.3875470982857
 21
-1560.5979031701063
 31
0.0
  0
LINE
  5
17A
100
AcDbEntity
  8
0
370
              15
390
0
  6
STYLE_13
 62
               7
100
AcDbLine
 10
-5669.3875470982857
 20
-1540.5979031701063
 30
0.0
 11
-5629.3875470982857
 21
-1540.5979031701063
 31
0.0
  0
CIRCLE
  5
17B
100
AcDbEntity
  8
0
370
              15
390
0
  6
STYLE_13
 62
               7
100
AcDbCircle
 10
-5649.3875470982857
 20
-1540.5979031701063
 30
0.0
 40
10.0
  0
LINE
  5
17C
100
AcDbEntity
  8
0
370
              15
390
0
  6
STYLE_13
 62
               7
100
AcDbLine
 10
-5649.3875470982857
 20
-1520.5979031701063
 30
0.0
 11
-5649.3875470982857
 21
-1560.5979031701063
 31
0.0
  0
LINE
  5
17D
100
AcDbEntity
  8
0
370
              15
390
0
  6
STYLE_13
 62
               7
100
AcDbLine
 10
-5389.3875470982857
 20
-1540.5979031701063
 30
0.0
 11
-5349.3875470982857
 21
-1540.5979031701063
 31
0.0
  0
CIRCLE
  5
17E
100
AcDbEntity
  8
0
370
              15
390
0
  6
STYLE_13
 62
               7
100
AcDbCircle
 10
-5369.3875470982857
 20
-1540.5979031701063
 30
0.0
 40
10.0
  0
LINE
  5
17F
100
AcDbEntity
  8
0
370
              15
390
0
  6
STYLE_13
 62
               7
100
AcDbLine
 10
-5369.3875470982857
 20
-1520.5979031701063
 30
0.0
 11
-5369.3875470982857
 21
-1560.5979031701063
 31
0.0
  0
LINE
  5
180
100
AcDbEntity
  8
0
370
              15
390
0
  6
STYLE_13
 62
               7
100
AcDbLine
 10
-5229.3875470982857
 20
-1540.5979031701063
 30
0.0
 11
-5189.3875470982857
 21
-1540.5979031701063
 31
0.0
  0
CIRCLE
  5
181
100
AcDbEntity
  8
0
370
              15
390
0
  6
STYLE_13
 62
               7
100
AcDbCircle
 10
-5209.3875470982857
 20
-1540.5979031701063
 30
0.0
 40
10.0
  0
LINE
  5
182
100
AcDbEntity
  8
0
370
              15
390
0
  6
STYLE_13
 62
               7
100
AcDbLine
 10
-5209.3875470982857
 20
-1520.5979031701063
 30
0.0
 11
-5209.3875470982857
 21
-1560.5979031701063
 31
0.0
  0
ENDBLK
  5
183
100
AcDbEntity
  8
ARJ70-0205
390
0
100
AcDbBlockEnd
  0
ENDSEC
  0
SECTION
  2
ENTITIES
  0
MTEXT
  5
184
100
AcDbEntity
  8
template
390
0
 62
               7
100
AcDbMText
 10
-967.99999999975807
 20
-1134.6535143187934
 30
0.0
 40
16.288411458333332
 41
0.0
 71
               1
 72
               1
  1
品名
  7
ＭＳ ゴシック
 73
               1
 44
0.7828267384257843
  0
MTEXT
  5
185
100
AcDbEntity
  8
template
390
0
 62
               7
100
AcDbMText
 10
-967.99999999975807
 20
-1219.6535143187934
 30
0.0
 40
16.288411458333332
 41
0.0
 71
               1
 72
               1
  1
仕様
  7
ＭＳ ゴシック
 73
               1
 44
0.7828267384257843
  0
LINE
  5
186
100
AcDbEntity
  8
template
370
               5
390
0
  6
Continuous
 62
               7
100
AcDbLine
 10
974.99999999975989
 20
-1211.2385924437936
 30
0.0
 11
-975.00000000024011
 21
-1211.2385924437936
 31
0.0
  0
LWPOLYLINE
  5
187
100
AcDbEntity
  8
template
370
               5
390
0
  6
Continuous
 62
               7
100
AcDbPolyline
 90
        5
 70
             128
 10
975.00000000024284
 20
1418.7614075562064
 10
-974.99999999975807
 20
1418.7614075562064
 10
-974.99999999975807
 20
-1381.2385924437936
 10
975.00000000024284
 20
-1381.2385924437936
 10
975.00000000024284
 20
1418.7614075562064
  0
LINE
  5
188
100
AcDbEntity
  8
template
370
               5
390
0
  6
Continuous
 62
               7
100
AcDbLine
 10
974.99999999975989
 20
-1126.2385924437936
 30
0.0
 11
-975.00000000024011
 21
-1126.2385924437936
 31
0.0
  0
LINE
  5
189
100
AcDbEntity
  8
template
370
               5
390
0
  6
Continuous
 62
               7
100
AcDbLine
 10
975.00000000024284
 20
-1296.2385924437936
 30
0.0
 11
222.00000000024284
 21
-1296.2385924437936
 31
0.0
  0
MTEXT
  5
18A
100
AcDbEntity
  8
template
390
0
 62
               7
100
AcDbMText
 10
-974.99999999955435
 20
-1393.0924145006506
 30
0.0
 40
21.717881944444446
 41
0.0
 71
               1
 72
               1
  1
100713SH
  7
ＭＳ ゴシック
 73
               1
 44
0.7828267384257843
  0
MTEXT
  5
18B
100
AcDbEntity
  8
template
390
0
 62
               7
100
AcDbMText
 10
251.87140625250231
 20
-1326.148986917101
 30
0.0
 40
24.432617187500004
 41
0.0
 71
               1
 72
               1
  1
大洋金物株式会社 ティーフォルム事業部
  7
ＭＳ ゴシック
 73
               1
 44
0.7828267384257843
  0
LWPOLYLINE
  5
18C
100
AcDbEntity
  8
template
370
              15
390
0
  6
Continuous
 62
               7
100
AcDbPolyline
 90
        8
 70
             129
 10
887.42850780307617
 20
-1321.7256061087792
 10
887.42850780307617
 20
-1327.7229948023551
 10
877.92731088507298
 20
-1327.7229948023551
 10
877.92731088507298
 20
-1352.1739580658636
 10
869.57193362329053
 20
-1352.1739580658636
 10
869.57193362329053
 20
-1327.7229948023551
 10
860.23897667698111
 20
-1327.7229948023551
 10
860.23897667698111
 20
-1321.7256061087792
  0
LWPOLYLINE
  5
18D
100
AcDbEntity
  8
template
370
              15
390
0
  6
Continuous
 62
               7
100
AcDbPolyline
 90
      101
 70
             128
 10
900.15679963363345
 20
-1322.4538546017156
 10
900.17214966241954
 20
-1322.4494938450302
 42
-0.022222160781509
 10
900.46215423908961
 20
-1322.380869379786
 10
900.47794800308111
 20
-1322.3778659566892
 42
-0.0146883565583293
 10
900.74065070830693
 20
-1322.3358627697398
 42
-0.0127458844196035
 10
901.00528967545597
 20
-1322.3083258016677
 10
901.06774475377279
 20
-1322.3034323790789
 42
-0.0198099018565768
 10
901.45859386325628
 20
-1322.2883472216827
 10
901.51040533269315
 20
-1322.2884009973477
 42
-0.0147617382764173
 10
902.00502879366832
 20
-1322.3035210225921
 10
902.07772024854694
 20
-1322.3078936294801
 42
-0.0162624548999697
 10
902.46787387800669
 20
-1322.3441265047522
 10
902.58940626928597
 20
-1322.3594130637516
 42
-0.0080020874654592
 10
902.73498530035795
 20
-1322.3800959110172
 10
902.77330477096712
 20
-1322.3861671888303
 42
-0.0053821929659815
 10
902.84178887626786
 20
-1322.3977747126496
 10
902.11538317706982
 20
-1324.5787031683635
 42
0.0108667757374712
 10
902.04806610692503
 20
-1324.565516053141
 10
902.01059808374885
 20
-1324.5590183105492
 42
0.0170663203306502
 10
901.86738129683727
 20
-1324.5391887132578
 10
901.79950596415074
 20
-1324.5321415426702
 42
0.0220162375258844
 10
901.51912655629621
 20
-1324.5154591819
 10
901.44127098924127
 20
-1324.5142598146335
 42
0.0282606915782235
 10
901.10563466566509
 20
-1324.5280630916027
 10
901.06172139189403
 20
-1324.532363081606
 42
0.0169677213686276
 10
900.81579689693444
 20
-1324.5649001311581
 42
0.0190576269865207
 10
900.57288893435089
 20
-1324.6150470032653
 10
900.56662974624305
 20
-1324.6165899773737
 42
0.0213685642844922
 10
900.31624526176256
 20
-1324.6897902624792
 10
900.31075536684875
 20
-1324.6916532585374
 42
0.0237595297592694
 10
900.05726048194811
 20
-1324.7913377804343
 10
900.05215840792061
 20
-1324.7936295559111
 42
0.0261857468848731
 10
899.79998763168805
 20
-1324.9231658932881
 10
899.78956144260337
 20
-1324.9292313677552
 42
0.0272553062018169
 10
899.55313166736505
 20
-1325.0846035736986
 10
899.51836865385212
 20
-1325.1102647217936
 42
0.0325996893167863
 10
899.36821331020383
 20
-1325.2370125947623
 10
899.34450388108689
 20
-1325.2598306232694
 42
0.0138050960605553
 10
899.25262072487112
 20
-1325.3532802848267
 42
0.0125280103800376
 10
899.16577819205122
 20
-1325.4514436114109
 10
899.1420977471289
 20
-1325.4796021096145
 42
0.0205218024740235
 10
899.01699767161426
 20
-1325.6413954238456
 10
898.9945313311282
 20
-1325.6730551536702
 42
0.0163110129577442
 10
898.83882095188164
 20
-1325.9083855887334
 10
898.83609705582603
 20
-1325.9128093507256
 42
0.0131897341905727
 10
898.68929653492887
 20
-1326.1659414430737
 10
898.687596439554
 20
-1326.1690596822255
 42
0.0107895576084733
 10
898.54981973733902
 20
-1326.4352748918704
 10
898.54908684781822
 20
-1326.4367691245075
 42
0.009137150723321
 10
898.4206068991607
 20
-1326.7112943222842
 10
898.39086126775965
 20
-1326.7780008294258
 42
0.0135418326360651
 10
898.21914732868208
 20
-1327.1929386147108
 10
898.18554252025478
 20
-1327.2808047569724
 42
0.0092834542409937
 10
898.01431346033223
 20
-1327.7547032552811
 10
897.98869633262984
 20
-1327.8299443250289
 42
0.0054261043569495
 10
897.88105818432177
 20
-1328.1577082981394
 10
897.86353219817556
 20
-1328.2130964602702
 42
0.0008225090817689
 10
897.7948621463147
 20
-1328.4313652185187
 10
896.81017301438078
 20
-1331.4562565117753
 10
900.04279685445454
 20
-1331.4562565117753
 10
899.53860442460154
 20
-1333.3607348101282
 10
896.282548142618
 20
-1333.3607348101282
 10
890.4533991102644
 20
-1352.173957876133
 10
888.62830149995352
 20
-1352.173957876133
 10
894.46297953545491
 20
-1333.3607348101282
 10
892.05786316641479
 20
-1333.3607348101282
 10
892.56205559626778
 20
-1331.4562565117753
 10
894.99060440721769
 20
-1331.4562565117753
 10
895.85075932540622
 20
-1328.8198435110767
 42
-0.0005863560584584
 10
895.88749400363031
 20
-1328.703017090721
 10
895.96358183727079
 20
-1328.4620247913995
 42
-0.0087522378928445
 10
896.16304998072701
 20
-1327.8667487042544
 10
896.25531425613735
 20
-1327.6066085357502
 42
-0.0077400953830724
 10
896.51324791527168
 20
-1326.9136038581919
 10
896.52901288685007
 20
-1326.8731729748065
 42
-0.0082369946326271
 10
896.77609735746319
 20
-1326.2690939086096
 42
-0.0085725238359792
 10
897.04334345346979
 20
-1325.6736678693155
 10
897.14497305447821
 20
-1325.4572467673283
 42
-0.0168109410591123
 10
897.4319174832026
 20
-1324.8960392412337
 10
897.55776087355753
 20
-1324.6690752084237
 42
-0.0007817726834594
 10
897.61204522371827
 20
-1324.5715309632051
 10
897.61217352973199
 20
-1324.5713012544743
 42
-0.0036626142161595
 10
897.66706139375765
 20
-1324.4747033744998
 42
-0.008022115067499
 10
897.72418564917552
 20
-1324.3794241397286
 10
897.75488560052509
 20
-1324.3300331906248
 42
-0.0202139325562249
 10
897.88254134033195
 20
-1324.1420515899435
 10
897.93660880551943
 20
-1324.0689727257027
 42
-0.0249323791798559
 10
898.19577159923847
 20
-1323.7529274835488
 10
898.21991141336548
 20
-1323.7263132106359
 42
-0.0242132121535673
 10
898.55959215491112
 20
-1323.386429724429
 10
898.60750372765779
 20
-1323.3429205882462
 42
-0.0251017527853871
 10
898.89148542829844
 20
-1323.1099278424808
 10
898.89293090511546
 20
-1323.1088585848993
 42
-0.0130868069021162
 10
899.19119155506996
 20
-1322.9000781163595
 10
899.19275337420822
 20
-1322.8990446760877
 42
-0.0290329526399267
 10
899.50386451560644
 20
-1322.718219174455
 10
899.53371007758778
 20
-1322.703116791618
 42
-0.0160250190063241
 10
899.79961449135681
 20
-1322.5791006814025
 42
-0.0267600374777321
 10
900.07489056882514
 20
-1322.4783523608535
 10
900.10162648834648
 20
-1322.4701598020279
 42
-0.0049981587597327
 10
900.15679963363345
 20
-1322.4538546017156
 42
-0.0049981587597327
  0
LWPOLYLINE
  5
18E
100
AcDbEntity
  8
template
370
              15
390
0
  6
Continuous
 62
               7
100
AcDbPolyline
 90
      118
 70
             128
 10
919.97116719808037
 20
-1331.5302398396029
 10
921.84628912257995
 20
-1331.5302398396029
 10
921.00825021697983
 20
-1334.2118063660032
 42
-0.0010587229221253
 10
921.03970603248308
 20
-1334.1749018327287
 10
921.09790012318354
 20
-1334.1069195764721
 42
-0.0071874740399479
 10
921.24827534129963
 20
-1333.9362788844232
 10
921.38999811454414
 20
-1333.7800427431298
 42
-0.0148118053520006
 10
921.84012740725211
 20
-1333.3124288971212
 10
921.92734974214363
 20
-1333.2270315762776
 42
-0.0086273358693683
 10
922.26289854316656
 20
-1332.9096559422469
 10
922.30673225939245
 20
-1332.8696062979138
 42
-0.0103138323094773
 10
922.56475596162636
 20
-1332.6434431605753
 10
922.61053036794692
 20
-1332.6049611133208
 42
-0.0060206748581852
 10
922.78337843206555
 20
-1332.4631664625604
 10
922.78540956295819
 20
-1332.4615407569236
 42
-0.0067069027290396
 10
922.95770237761371
 20
-1332.3273901231341
 10
922.96025114353597
 20
-1332.3254599532615
 42
-0.0076184352034794
 10
923.13115640941123
 20
-1332.200085078015
 42
-0.0089652861652603
 10
923.30611737215531
 20
-1332.0804518176769
 10
923.34246909229387
 20
-1332.0565406041983
 42
-0.0156916245945344
 10
923.53842858945154
 20
-1331.9362781177256
 42
-0.0023299011026657
 10
923.73869063346501
 20
-1331.8231001781651
 10
923.7540747658104
 20
-1331.8145001831199
 42
-0.0107669341464336
 10
923.98831159090059
 20
-1331.6901000497755
 10
924.01057639198643
 20
-1331.6788832998204
 42
-0.0078058045902914
 10
924.29416650993153
 20
-1331.5415218441858
 10
924.30407359764922
 20
-1331.5369127163135
 42
-0.0181829330476133
 10
924.61438300225927
 20
-1331.4060489752196
 10
924.66843844483265
 20
-1331.3855338552735
 42
-0.0208411536018682
 10
925.01752341228166
 20
-1331.2694433927809
 10
925.03187951241216
 20
-1331.2653249478267
 42
-0.0222799817128355
 10
925.36059930632564
 20
-1331.1866833816875
 10
925.36948826956723
 20
-1331.1849713711017
 42
-0.0215509523876442
 10
925.68595923784324
 20
-1331.1380556825679
 10
925.72844119889396
 20
-1331.1336181557767
 42
-0.0182545924850532
 10
925.96254997819688
 20
-1331.1177743303861
 10
926.00195099453958
 20
-1331.1165497853071
 42
-0.0072962856524936
 10
926.15787387423461
 20
-1331.1139804567847
 10
926.18697354481719
 20
-1331.113925621381
 42
-0.005922751625614
 10
926.28472304395109
 20
-1331.1148993331717
 10
926.3139652614409
 20
-1331.1155370997753
 42
-0.0011833111826033
 10
926.35321654515519
 20
-1331.1164861040847
 10
925.55782994954825
 20
-1333.6552200491838
 42
0.0143932051567722
 10
925.53142856719751
 20
-1333.6450210791381
 10
925.52415659478083
 20
-1333.642449860281
 42
0.023438860328032
 10
925.48232572885172
 20
-1333.6298306245667
 10
925.47364406593533
 20
-1333.627649662561
 42
0.0199162743000649
 10
925.41335523185899
 20
-1333.6150329272268
 10
925.3925412940489
 20
-1333.6115357277977
 42
0.029364355072671
 10
925.28946643529616
 20
-1333.6003856821449
 10
925.26478125457015
 20
-1333.5991740651257
 42
0.0214606686892585
 10
925.11164033861951
 20
-1333.5982355047081
 10
925.10226842779957
 20
-1333.5985804162524
 42
0.0167564054189759
 10
924.93074823668212
 20
-1333.6106574586215
 10
924.9222884439323
 20
-1333.6115387990476
 42
0.0137677553283663
 10
924.7349351306766
 20
-1333.6362881075897
 10
924.7275833911599
 20
-1333.6374660275592
 42
0.0118497261476881
 10
924.52708562705538
 20
-1333.6744833777489
 10
924.5209356198111
 20
-1333.6757702404684
 42
0.0106421143921434
 10
924.31005473252844
 20
-1333.7246026160424
 10
924.30514592413692
 20
-1333.7258499587283
 42
0.0099746379708889
 10
924.08668745497653
 20
-1333.7860244870426
 10
924.02513941480447
 20
-1333.8043063656737
 42
0.019161367586147
 10
923.68915495228703
 20
-1333.9182837459612
 10
923.60109517954515
 20
-1333.9519706562842
 42
0.0205274080150666
 10
923.21578840764232
 20
-1334.1177990641113
 10
923.15813912566318
 20
-1334.1454670286821
 42
0.0181256912179907
 10
922.89986218499325
 20
-1334.2811508476616
 10
922.84690680167751
 20
-1334.3114684608777
 42
0.0140709242404965
 10
922.70195186705041
 20
-1334.3999631343108
 10
922.67570299842191
 20
-1334.4170199530326
 42
0.0086667884373347
 10
922.58677683688984
 20
-1334.4770226209089
 42
0.0036408192028717
 10
922.49934359885356
 20
-1334.5392034787033
 10
922.46411672438808
 20
-1334.564644424614
 42
0.0052260781284777
 10
922.30788802700135
 20
-1334.6799768112451
 10
922.29168117073732
 20
-1334.6922049218665
 42
0.0050024435904489
 10
922.10567782769613
 20
-1334.8354874901147
 10
922.09035967116324
 20
-1334.8475335125745
 42
0.0136138710278591
 10
921.87991840284212
 20
-1335.0225000174846
 10
921.8462505270445
 20
-1335.0520789902021
 42
0.0172815186912507
 10
921.58184698537389
 20
-1335.3010756628332
 10
921.57928463953886
 20
-1335.3036614799726
 42
0.018940385799844
 10
921.3287028409668
 20
-1335.5764667447702
 10
921.29607134742855
 20
-1335.6148106762698
 42
0.0185044199492418
 10
921.10411490844399
 20
-1335.8580592573971
 42
0.0088565243891592
 10
920.92565480181565
 20
-1336.1115756775466
 10
920.91647682216717
 20
-1336.1251170573069
 42
0.0157195347224241
 10
920.73325621582899
 20
-1336.4146392666285
 10
920.68717327390459
 20
-1336.4927914636396
 42
0.0095451879784709
 10
920.52208772376525
 20
-1336.7853861060003
 10
920.51093980483893
 20
-1336.8060567781267
 42
0.0100351706265793
 10
920.3788960556758
 20
-1337.0631123386229
 42
0.0086935915444079
 10
920.25656490386064
 20
-1337.3249454840734
 10
920.25324416246713
 20
-1337.3323878069987
 42
0.007258017486534
 10
920.13289771052678
 20
-1337.6129797985714
 10
920.12963607721576
 20
-1337.6208998246002
 42
0.0060005122591329
 10
920.01043540888713
 20
-1337.9205094951672
 10
920.0072244305311
 20
-1337.9288710231099
 42
0.0049017786960494
 10
919.88832427168927
 20
-1338.2478000036717
 10
919.88515846528389
 20
-1338.2565529409444
 42
0.0039415167599449
 10
919.7657221872314
 20
-1338.5950950033453
 10
919.76259108457543
 20
-1338.6041982042339
 42
0.0031035838770934
 10
919.64178629888102
 20
-1338.9626380660097
 10
919.63867625435159
 20
-1338.9720586873823
 42
0.0025070747147643
 10
919.51577490305499
 20
-1339.3507059042681
 10
919.47848100661122
 20
-1339.4675975695791
 42
0.0029081910287746
 10
919.28646270881563
 20
-1340.0817612278197
 10
919.24565954028276
 20
-1340.2149844701466
 42
0.0009266453730543
 10
918.97724216596362
 20
-1341.0972089300835
 10
918.95635469332774
 20
-1341.1663208093028
 42
-0.000580999367216
 10
918.67901801273638
 20
-1342.0801289159454
 10
918.61273621443161
 20
-1342.2976138482077
 42
-0.0012018708169649
 10
918.46575190503427
 20
-1342.7757765126253
 10
918.41343205337216
 20
-1342.9445356538013
 42
-0.0002691059631662
 10
918.36986257230001
 20
-1343.0848032738331
 10
915.53690667401133
 20
-1352.173957876133
 10
913.7189177820328
 20
-1352.173957876133
 10
919.97116719808037
 20
-1331.5302398396029
  0
SPLINE
  5
18F
100
AcDbEntity
  8
template
370
              15
390
0
  6
Continuous
 62
               7
100
AcDbSpline
210
0.0
220
0.0
230
1.0
 70
              13
 71
               2
 72
             782
 73
             779
 74
               0
 42
0.000001
 43
0.000001
 40
0.0
 40
0.0
 40
0.0
 40
1.0
 40
1.0
 40
2.0
 40
2.0
 40
3.0
 40
3.0
 40
4.0
 40
4.0
 40
5.0
 40
5.0
 40
6.0
 40
6.0
 40
7.0
 40
7.0
 40
8.0
 40
8.0
 40
9.0
 40
9.0
 40
10.0
 40
10.0
 40
11.0
 40
11.0
 40
12.0
 40
12.0
 40
13.0
 40
13.0
 40
14.0
 40
14.0
 40
15.0
 40
15.0
 40
16.0
 40
16.0
 40
17.0
 40
17.0
 40
18.0
 40
18.0
 40
19.0
 40
19.0
 40
20.0
 40
20.0
 40
21.0
 40
21.0
 40
22.0
 40
22.0
 40
23.0
 40
23.0
 40
24.0
 40
24.0
 40
25.0
 40
25.0
 40
26.0
 40
26.0
 40
27.0
 40
27.0
 40
28.0
 40
28.0
 40
29.0
 40
29.0
 40
30.0
 40
30.0
 40
31.0
 40
31.0
 40
32.0
 40
32.0
 40
33.0
 40
33.0
 40
34.0
 40
34.0
 40
35.0
 40
35.0
 40
36.0
 40
36.0
 40
37.0
 40
37.0
 40
38.0
 40
38.0
 40
39.0
 40
39.0
 40
40.0
 40
40.0
 40
41.0
 40
41.0
 40
42.0
 40
42.0
 40
43.0
 40
43.0
 40
44.0
 40
44.0
 40
45.0
 40
45.0
 40
46.0
 40
46.0
 40
47.0
 40
47.0
 40
48.0
 40
48.0
 40
49.0
 40
49.0
 40
50.0
 40
50.0
 40
51.0
 40
51.0
 40
52.0
 40
52.0
 40
53.0
 40
53.0
 40
54.0
 40
54.0
 40
55.0
 40
55.0
 40
56.0
 40
56.0
 40
57.0
 40
57.0
 40
58.0
 40
58.0
 40
59.0
 40
59.0
 40
60.0
 40
60.0
 40
61.0
 40
61.0
 40
62.0
 40
62.0
 40
63.0
 40
63.0
 40
64.0
 40
64.0
 40
65.0
 40
65.0
 40
66.0
 40
66.0
 40
67.0
 40
67.0
 40
68.0
 40
68.0
 40
69.0
 40
69.0
 40
70.0
 40
70.0
 40
71.0
 40
71.0
 40
72.0
 40
72.0
 40
73.0
 40
73.0
 40
74.0
 40
74.0
 40
75.0
 40
75.0
 40
76.0
 40
76.0
 40
77.0
 40
77.0
 40
78.0
 40
78.0
 40
79.0
 40
79.0
 40
80.0
 40
80.0
 40
81.0
 40
81.0
 40
82.0
 40
82.0
 40
83.0
 40
83.0
 40
84.0
 40
84.0
 40
85.0
 40
85.0
 40
86.0
 40
86.0
 40
87.0
 40
87.0
 40
88.0
 40
88.0
 40
89.0
 40
89.0
 40
90.0
 40
90.0
 40
91.0
 40
91.0
 40
92.0
 40
92.0
 40
93.0
 40
93.0
 40
94.0
 40
94.0
 40
95.0
 40
95.0
 40
96.0
 40
96.0
 40
97.0
 40
97.0
 40
98.0
 40
98.0
 40
99.0
 40
99.0
 40
100.0
 40
100.0
 40
101.0
 40
101.0
 40
102.0
 40
102.0
 40
103.0
 40
103.0
 40
104.0
 40
104.0
 40
105.0
 40
105.0
 40
106.0
 40
106.0
 40
107.0
 40
107.0
 40
108.0
 40
108.0
 40
109.0
 40
109.0
 40
110.0
 40
110.0
 40
111.0
 40
111.0
 40
112.0
 40
112.0
 40
113.0
 40
113.0
 40
114.0
 40
114.0
 40
115.0
 40
115.0
 40
116.0
 40
116.0
 40
117.0
 40
117.0
 40
118.0
 40
118.0
 40
119.0
 40
119.0
 40
120.0
 40
120.0
 40
121.0
 40
121.0
 40
122.0
 40
122.0
 40
123.0
 40
123.0
 40
124.0
 40
124.0
 40
125.0
 40
125.0
 40
126.0
 40
126.0
 40
127.0
 40
127.0
 40
128.0
 40
128.0
 40
129.0
 40
129.0
 40
130.0
 40
130.0
 40
131.0
 40
131.0
 40
132.0
 40
132.0
 40
133.0
 40
133.0
 40
134.0
 40
134.0
 40
135.0
 40
135.0
 40
136.0
 40
136.0
 40
137.0
 40
137.0
 40
138.0
 40
138.0
 40
139.0
 40
139.0
 40
140.0
 40
140.0
 40
141.0
 40
141.0
 40
142.0
 40
142.0
 40
143.0
 40
143.0
 40
144.0
 40
144.0
 40
145.0
 40
145.0
 40
146.0
 40
146.0
 40
147.0
 40
147.0
 40
148.0
 40
148.0
 40
149.0
 40
149.0
 40
150.0
 40
150.0
 40
151.0
 40
151.0
 40
152.0
 40
152.0
 40
153.0
 40
153.0
 40
154.0
 40
154.0
 40
155.0
 40
155.0
 40
156.0
 40
156.0
 40
157.0
 40
157.0
 40
158.0
 40
158.0
 40
159.0
 40
159.0
 40
160.0
 40
160.0
 40
161.0
 40
161.0
 40
162.0
 40
162.0
 40
163.0
 40
163.0
 40
164.0
 40
164.0
 40
165.0
 40
165.0
 40
166.0
 40
166.0
 40
167.0
 40
167.0
 40
168.0
 40
168.0
 40
169.0
 40
169.0
 40
170.0
 40
170.0
 40
171.0
 40
171.0
 40
172.0
 40
172.0
 40
173.0
 40
173.0
 40
174.0
 40
174.0
 40
175.0
 40
175.0
 40
176.0
 40
176.0
 40
177.0
 40
177.0
 40
178.0
 40
178.0
 40
179.0
 40
179.0
 40
180.0
 40
180.0
 40
181.0
 40
181.0
 40
182.0
 40
182.0
 40
183.0
 40
183.0
 40
184.0
 40
184.0
 40
185.0
 40
185.0
 40
186.0
 40
186.0
 40
187.0
 40
187.0
 40
188.0
 40
188.0
 40
189.0
 40
189.0
 40
190.0
 40
190.0
 40
191.0
 40
191.0
 40
192.0
 40
192.0
 40
193.0
 40
193.0
 40
194.0
 40
194.0
 40
195.0
 40
195.0
 40
196.0
 40
196.0
 40
197.0
 40
197.0
 40
198.0
 40
198.0
 40
199.0
 40
199.0
 40
200.0
 40
200.0
 40
201.0
 40
201.0
 40
202.0
 40
202.0
 40
203.0
 40
203.0
 40
204.0
 40
204.0
 40
205.0
 40
205.0
 40
206.0
 40
206.0
 40
207.0
 40
207.0
 40
208.0
 40
208.0
 40
209.0
 40
209.0
 40
210.0
 40
210.0
 40
211.0
 40
211.0
 40
212.0
 40
212.0
 40
213.0
 40
213.0
 40
214.0
 40
214.0
 40
215.0
 40
215.0
 40
216.0
 40
216.0
 40
217.0
 40
217.0
 40
218.0
 40
218.0
 40
219.0
 40
219.0
 40
220.0
 40
220.0
 40
221.0
 40
221.0
 40
222.0
 40
222.0
 40
223.0
 40
223.0
 40
224.0
 40
224.0
 40
225.0
 40
225.0
 40
226.0
 40
226.0
 40
227.0
 40
227.0
 40
228.0
 40
228.0
 40
229.0
 40
229.0
 40
230.0
 40
230.0
 40
231.0
 40
231.0
 40
232.0
 40
232.0
 40
233.0
 40
233.0
 40
234.0
 40
234.0
 40
235.0
 40
235.0
 40
236.0
 40
236.0
 40
237.0
 40
237.0
 40
238.0
 40
238.0
 40
239.0
 40
239.0
 40
240.0
 40
240.0
 40
241.0
 40
241.0
 40
242.0
 40
242.0
 40
243.0
 40
243.0
 40
244.0
 40
244.0
 40
245.0
 40
245.0
 40
246.0
 40
246.0
 40
247.0
 40
247.0
 40
248.0
 40
248.0
 40
249.0
 40
249.0
 40
250.0
 40
250.0
 40
251.0
 40
251.0
 40
252.0
 40
252.0
 40
253.0
 40
253.0
 40
254.0
 40
254.0
 40
255.0
 40
255.0
 40
256.0
 40
256.0
 40
257.0
 40
257.0
 40
258.0
 40
258.0
 40
259.0
 40
259.0
 40
260.0
 40
260.0
 40
261.0
 40
261.0
 40
262.0
 40
262.0
 40
263.0
 40
263.0
 40
264.0
 40
264.0
 40
265.0
 40
265.0
 40
266.0
 40
266.0
 40
267.0
 40
267.0
 40
268.0
 40
268.0
 40
269.0
 40
269.0
 40
270.0
 40
270.0
 40
271.0
 40
271.0
 40
272.0
 40
272.0
 40
273.0
 40
273.0
 40
274.0
 40
274.0
 40
275.0
 40
275.0
 40
276.0
 40
276.0
 40
277.0
 40
277.0
 40
278.0
 40
278.0
 40
279.0
 40
279.0
 40
280.0
 40
280.0
 40
281.0
 40
281.0
 40
282.0
 40
282.0
 40
283.0
 40
283.0
 40
284.0
 40
284.0
 40
285.0
 40
285.0
 40
286.0
 40
286.0
 40
287.0
 40
287.0
 40
288.0
 40
288.0
 40
289.0
 40
289.0
 40
290.0
 40
290.0
 40
291.0
 40
291.0
 40
292.0
 40
292.0
 40
293.0
 40
293.0
 40
294.0
 40
294.0
 40
295.0
 40
295.0
 40
296.0
 40
296.0
 40
297.0
 40
297.0
 40
298.0
 40
298.0
 40
299.0
 40
299.0
 40
300.0
 40
300.0
 40
301.0
 40
301.0
 40
302.0
 40
302.0
 40
303.0
 40
303.0
 40
304.0
 40
304.0
 40
305.0
 40
305.0
 40
306.0
 40
306.0
 40
307.0
 40
307.0
 40
308.0
 40
308.0
 40
309.0
 40
309.0
 40
310.0
 40
310.0
 40
311.0
 40
311.0
 40
312.0
 40
312.0
 40
313.0
 40
313.0
 40
314.0
 40
314.0
 40
315.0
 40
315.0
 40
316.0
 40
316.0
 40
317.0
 40
317.0
 40
318.0
 40
318.0
 40
319.0
 40
319.0
 40
320.0
 40
320.0
 40
321.0
 40
321.0
 40
322.0
 40
322.0
 40
323.0
 40
323.0
 40
324.0
 40
324.0
 40
325.0
 40
325.0
 40
326.0
 40
326.0
 40
327.0
 40
327.0
 40
328.0
 40
328.0
 40
329.0
 40
329.0
 40
330.0
 40
330.0
 40
331.0
 40
331.0
 40
332.0
 40
332.0
 40
333.0
 40
333.0
 40
334.0
 40
334.0
 40
335.0
 40
335.0
 40
336.0
 40
336.0
 40
337.0
 40
337.0
 40
338.0
 40
338.0
 40
339.0
 40
339.0
 40
340.0
 40
340.0
 40
341.0
 40
341.0
 40
342.0
 40
342.0
 40
343.0
 40
343.0
 40
344.0
 40
344.0
 40
345.0
 40
345.0
 40
346.0
 40
346.0
 40
347.0
 40
347.0
 40
348.0
 40
348.0
 40
349.0
 40
349.0
 40
350.0
 40
350.0
 40
351.0
 40
351.0
 40
352.0
 40
352.0
 40
353.0
 40
353.0
 40
354.0
 40
354.0
 40
355.0
 40
355.0
 40
356.0
 40
356.0
 40
357.0
 40
357.0
 40
358.0
 40
358.0
 40
359.0
 40
359.0
 40
360.0
 40
360.0
 40
361.0
 40
361.0
 40
362.0
 40
362.0
 40
363.0
 40
363.0
 40
364.0
 40
364.0
 40
365.0
 40
365.0
 40
366.0
 40
366.0
 40
367.0
 40
367.0
 40
368.0
 40
368.0
 40
369.0
 40
369.0
 40
370.0
 40
370.0
 40
371.0
 40
371.0
 40
372.0
 40
372.0
 40
373.0
 40
373.0
 40
374.0
 40
374.0
 40
375.0
 40
375.0
 40
376.0
 40
376.0
 40
377.0
 40
377.0
 40
378.0
 40
378.0
 40
379.0
 40
379.0
 40
380.0
 40
380.0
 40
381.0
 40
381.0
 40
382.0
 40
382.0
 40
383.0
 40
383.0
 40
384.0
 40
384.0
 40
385.0
 40
385.0
 40
386.0
 40
386.0
 40
387.0
 40
387.0
 40
388.0
 40
388.0
 40
389.0
 40
389.0
 40
389.0
 10
930.29987164881277
 20
-1331.5193134762408
 30
0.0
 41
1.0
 10
931.11829575753382
 20
-1331.5193134762408
 30
0.0
 41
1.0
 10
931.93671986625395
 20
-1331.5193134762408
 30
0.0
 41
1.0
 10
931.52296613073759
 20
-1332.8619397404905
 30
0.0
 41
1.0
 10
931.10921239522031
 20
-1334.2045660047402
 30
0.0
 41
1.0
 10
931.12755189042764
 20
-1334.1758652317676
 30
0.0
 41
0.9999957264367402
 10
931.14605888729966
 20
-1334.147272181553
 30
0.0
 41
1.0
 10
931.17648821139665
 20
-1334.1002593032399
 30
0.0
 41
1.0
 10
931.20691753549363
 20
-1334.0532464249263
 30
0.0
 41
1.0
 10
931.28628318059782
 20
-1333.9306276180255
 30
0.0
 41
0.9995394069080853
 10
931.37294157214819
 20
-1333.8130495562864
 30
0.0
 41
1.0
 10
931.40869843441305
 20
-1333.7645346636855
 30
0.0
 41
1.0
 10
931.44445529667792
 20
-1333.7160197710841
 30
0.0
 41
1.0
 10
931.57818196449261
 20
-1333.5345794959626
 30
0.0
 41
0.9994460617143559
 10
931.72368244577683
 20
-1333.3624370983175
 30
0.0
 41
1.0
 10
931.72807062675111
 20
-1333.3572454179348
 30
0.0
 41
1.0
 10
931.73245880772629
 20
-1333.3520537375525
 30
0.0
 41
1.0
 10
931.86918292706378
 20
-1333.1902947006679
 30
0.0
 41
0.9994359394934214
 10
932.01645715741597
 20
-1333.0380784995032
 30
0.0
 41
1.0
 10
932.01884051136858
 20
-1333.0356151691312
 30
0.0
 41
1.0
 10
932.02122386532028
 20
-1333.0331518387588
 30
0.0
 41
1.0
 10
932.16373138777089
 20
-1332.8858622983366
 30
0.0
 41
0.9995293688569188
 10
932.31500306875023
 20
-1332.7475890861742
 30
0.0
 41
1.0
 10
932.33429682801489
 20
-1332.7299532005218
 30
0.0
 41
1.0
 10
932.35359058728045
 20
-1332.7123173148689
 30
0.0
 41
1.0
 10
932.46627474973593
 20
-1332.6093158740082
 30
0.0
 41
0.999708761480386
 10
932.58379763868743
 20
-1332.5118715932126
 30
0.0
 41
1.0
 10
932.6029637118645
 20
-1332.4959800147035
 30
0.0
 41
1.0
 10
932.62212978504158
 20
-1332.4800884361939
 30
0.0
 41
1.0
 10
932.70132052764438
 20
-1332.4144273124134
 30
0.0
 41
0.9999595338692876
 10
932.78167979849786
 20
-1332.3502015817594
 30
0.0
 41
1.0
 10
932.86203906936043
 20
-1332.2859758510986
 30
0.0
 41
0.9999749417509862
 10
932.94329960371306
 20
-1332.2228942971451
 30
0.0
 41
1.0
 10
932.96428574986112
 20
-1332.2066030098549
 30
0.0
 41
1.0
 10
932.98527189600918
 20
-1332.1903117225643
 30
0.0
 41
1.0
 10
933.06983978131757
 20
-1332.1246627127175
 30
0.0
 41
0.9999792037113613
 10
933.15524738109798
 20
-1332.0601099310657
 30
0.0
 41
1.0
 10
933.17607220700756
 20
-1332.0443701088097
 30
0.0
 41
1.0
 10
933.19689703291715
 20
-1332.0286302865534
 30
0.0
 41
1.0
 10
933.24065498086293
 20
-1331.9955571494265
 30
0.0
 41
0.9999993374013988
 10
933.2843366670113
 20
-1331.9623833539981
 30
0.0
 41
1.0
 10
933.32801835314967
 20
-1331.9292095585779
 30
0.0
 41
0.9999160953817744
 10
933.37254476408634
 20
-1331.8971784933669
 30
0.0
 41
1.0
 10
933.40536665150012
 20
-1331.8735673377864
 30
0.0
 41
1.0
 10
933.43818853891298
 20
-1331.8499561822059
 30
0.0
 41
1.0
 10
933.54835872467083
 20
-1331.770702805838
 30
0.0
 41
0.9980964527229996
 10
933.66744771817139
 20
-1331.7056153329827
 30
0.0
 41
1.0
 10
933.70448032510012
 20
-1331.6853753533892
 30
0.0
 41
1.0
 10
933.74151293202885
 20
-1331.6651353737957
 30
0.0
 41
1.0
 10
933.92083994530185
 20
-1331.5671251230947
 30
0.0
 41
0.9984572810573241
 10
934.10992851166066
 20
-1331.4896028617482
 30
0.0
 41
1.0
 10
934.11357478105583
 20
-1331.4881079694105
 30
0.0
 41
1.0
 10
934.11722105045101
 20
-1331.4866130770729
 30
0.0
 41
1.0
 10
934.299017078014
 20
-1331.412080600403
 30
0.0
 41
0.9987838528032259
 10
934.48726973657813
 20
-1331.3558149602359
 30
0.0
 41
1.0
 10
934.49150768577874
 20
-1331.354548306545
 30
0.0
 41
1.0
 10
934.49574563497936
 20
-1331.3532816528541
 30
0.0
 41
1.0
 10
934.67552239513952
 20
-1331.2995493200692
 30
0.0
 41
0.9990652816206609
 10
934.85926832685345
 20
-1331.2615456405283
 30
0.0
 41
1.0
 10
934.86445672788523
 20
-1331.2604725374217
 30
0.0
 41
1.0
 10
934.86964512891609
 20
-1331.2593994343151
 30
0.0
 41
1.0
 10
935.04301425857557
 20
-1331.2235419609856
 30
0.0
 41
0.999290993427158
 10
935.21859002502697
 20
-1331.2008315285198
 30
0.0
 41
1.0
 10
935.39416579148292
 20
-1331.178121096053
 30
0.0
 41
0.9994553539447728
 10
935.57085722457396
 20
-1331.1670417918472
 30
0.0
 41
1.0
 10
935.60629163237081
 20
-1331.1648199037991
 30
0.0
 41
1.0
 10
935.64172604016767
 20
-1331.1625980157514
 30
0.0
 41
1.0
 10
935.80795180673886
 20
-1331.1521749533395
 30
0.0
 41
0.9990928098292118
 10
935.97446159864285
 20
-1331.1559345945743
 30
0.0
 41
1.0
 10
936.01302343391308
 20
-1331.1568052861076
 30
0.0
 41
1.0
 10
936.0515852691824
 20
-1331.1576759776403
 30
0.0
 41
1.0
 10
936.14097139055593
 20
-1331.1596942358087
 30
0.0
 41
0.9998382089204542
 10
936.23022707333166
 20
-1331.1649263623367
 30
0.0
 41
1.0
 10
936.23065697954644
 20
-1331.1649515632389
 30
0.0
 41
1.0
 10
936.23108688576121
 20
-1331.1649767641406
 30
0.0
 41
1.0
 10
936.31948275611285
 20
-1331.1701584888642
 30
0.0
 41
0.9997558016757662
 10
936.40756333331865
 20
-1331.1792410042312
 30
0.0
 41
1.0
 10
936.40803947175209
 20
-1331.1792901017143
 30
0.0
 41
1.0
 10
936.40851561018644
 20
-1331.1793391991973
 30
0.0
 41
1.0
 10
936.49564391053173
 20
-1331.1883235195992
 30
0.0
 41
0.9996565144180832
 10
936.58218176386163
 20
-1331.201860826287
 30
0.0
 41
1.0
 10
936.58264768924073
 20
-1331.2019337120182
 30
0.0
 41
1.0
 10
936.58311361461983
 20
-1331.2020065977499
 30
0.0
 41
1.0
 10
936.66871961720517
 20
-1331.2153981329766
 30
0.0
 41
0.9995321806868672
 10
936.75334669753192
 20
-1331.2339986214051
 30
0.0
 41
1.0
 10
936.75373589210176
 20
-1331.2340841638706
 30
0.0
 41
1.0
 10
936.75412508667159
 20
-1331.2341697063362
 30
0.0
 41
1.0
 10
936.83797377785686
 20
-1331.2525991098332
 30
0.0
 41
0.9993819199217824
 10
936.92032031205599
 20
-1331.276874493095
 30
0.0
 41
1.0
 10
936.92055874555808
 20
-1331.2769447822056
 30
0.0
 41
1.0
 10
936.92079717906017
 20
-1331.2770150713159
 30
0.0
 41
1.0
 10
937.00266684625603
 20
-1331.3011498763576
 30
0.0
 41
0.999208856850902
 10
937.08235936524034
 20
-1331.3317151121501
 30
0.0
 41
1.0
 10
937.16204035611918
 20
-1331.3622747128825
 30
0.0
 41
0.9990226101769419
 10
937.23871102602607
 20
-1331.3997521444981
 30
0.0
 41
1.0
 10
937.31537016781749
 20
-1331.4372239410477
 30
0.0
 41
0.9988424273973103
 10
937.38807379503032
 20
-1331.4818887163005
 30
0.0
 41
1.0
 10
937.38834150341245
 20
-1331.4820531803744
 30
0.0
 41
1.0
 10
937.38860921179457
 20
-1331.4822176444486
 30
0.0
 41
1.0
 10
937.46184825576438
 20
-1331.527211347845
 30
0.0
 41
0.9986928844489514
 10
937.53011112247805
 20
-1331.5794470821279
 30
0.0
 41
1.0
 10
937.53069241469984
 20
-1331.5798918953551
 30
0.0
 41
1.0
 10
937.53127370692164
 20
-1331.5803367085819
 30
0.0
 41
1.0
 10
937.60069915807253
 20
-1331.6334620693128
 30
0.0
 41
0.9986007262274624
 10
937.66412532783488
 20
-1331.6936228390023
 30
0.0
 41
1.0
 10
937.6650197432964
 20
-1331.6944712068416
 30
0.0
 41
1.0
 10
937.66591415875791
 20
-1331.695319574681
 30
0.0
 41
1.0
 10
937.73112915944057
 20
-1331.7571770800478
 30
0.0
 41
0.9985581491385585
 10
937.78933677114583
 20
-1331.8256695703221
 30
0.0
 41
1.0
 10
937.79859522473907
 20
-1331.836563928021
 30
0.0
 41
1.0
 10
937.80785367833232
 20
-1331.8474582857198
 30
0.0
 41
1.0
 10
937.88457819722771
 20
-1331.9377394913981
 30
0.0
 41
0.9970460233521445
 10
937.94657009839102
 20
-1332.0387065755863
 30
0.0
 41
1.0
 10
937.96103946346648
 20
-1332.0622730346604
 30
0.0
 41
1.0
 10
937.97550882854284
 20
-1332.085839493735
 30
0.0
 41
1.0
 10
938.01524552855608
 20
-1332.1505592177682
 30
0.0
 41
0.9988468816635125
 10
938.04859189930812
 20
-1332.2187916701978
 30
0.0
 41
1.0
 10
938.05562792179171
 20
-1332.2331885913195
 30
0.0
 41
1.0
 10
938.06266394427621
 20
-1332.2475855124412
 30
0.0
 41
1.0
 10
938.08193827005016
 20
-1332.2870241226046
 30
0.0
 41
0.999843118999755
 10
938.09980359755446
 20
-1332.3271206770664
 30
0.0
 41
1.0
 10
938.11766892506876
 20
-1332.3672172315501
 30
0.0
 41
0.9999989989865928
 10
938.13564764845978
 20
-1332.4072630690653
 30
0.0
 41
1.0
 10
938.14181996006027
 20
-1332.4210112858909
 30
0.0
 41
1.0
 10
938.14799227165986
 20
-1332.4347595027166
 30
0.0
 41
1.0
 10
938.1783156182737
 20
-1332.5023017739341
 30
0.0
 41
0.9998790356320559
 10
938.20652349841566
 20
-1332.5707545258801
 30
0.0
 41
1.0
 10
938.21335867970356
 20
-1332.5873416273162
 30
0.0
 41
1.0
 10
938.22019386099146
 20
-1332.6039287287526
 30
0.0
 41
1.0
 10
938.24375152336142
 20
-1332.6610966836165
 30
0.0
 41
0.9998227574563811
 10
938.26514027174653
 20
-1332.7191109918804
 30
0.0
 41
1.0
 10
938.28652902013164
 20
-1332.7771253001442
 30
0.0
 41
0.99967979710391
 10
938.30495530508506
 20
-1332.8361474192438
 30
0.0
 41
1.0
 10
938.30885910781581
 20
-1332.8486518774289
 30
0.0
 41
1.0
 10
938.31276291054655
 20
-1332.8611563356139
 30
0.0
 41
1.0
 10
938.33899680095601
 20
-1332.9451873710696
 30
0.0
 41
0.9979274938738233
 10
938.35422132443546
 20
-1333.0318917297309
 30
0.0
 41
1.0
 10
938.35644501169554
 20
-1333.044555730547
 30
0.0
 41
1.0
 10
938.35866869895563
 20
-1333.0572197313631
 30
0.0
 41
1.0
 10
938.36959863865559
 20
-1333.1194662386579
 30
0.0
 41
0.9994985982134027
 10
938.37656680383316
 20
-1333.1822797398045
 30
0.0
 41
1.0
 10
938.38353496900982
 20
-1333.2450932409515
 30
0.0
 41
0.9996372611201805
 10
938.38711083477756
 20
-1333.3081908196386
 30
0.0
 41
1.0
 10
938.38727941226625
 20
-1333.3111654367158
 30
0.0
 41
1.0
 10
938.38744798975586
 20
-1333.3141400537934
 30
0.0
 41
1.0
 10
938.39136101050281
 20
-1333.3831868666348
 30
0.0
 41
0.9997730630735817
 10
938.39232932399045
 20
-1333.4523376906623
 30
0.0
 41
1.0
 10
938.39238643040881
 20
-1333.4564158698095
 30
0.0
 41
1.0
 10
938.39244353682716
 20
-1333.4604940489571
 30
0.0
 41
1.0
 10
938.39352606315151
 20
-1333.5378012312749
 30
0.0
 41
0.9998772614070255
 10
938.39218597642048
 20
-1333.6151043778391
 30
0.0
 41
1.0
 10
938.39209671322169
 20
-1333.6202535416742
 30
0.0
 41
1.0
 10
938.3920074500229
 20
-1333.6254027055093
 30
0.0
 41
1.0
 10
938.39048883689247
 20
-1333.7130041797673
 30
0.0
 41
0.9999415567323449
 10
938.38707652664561
 20
-1333.8005523414658
 30
0.0
 41
1.0
 10
938.38683520597169
 20
-1333.8067438011794
 30
0.0
 41
1.0
 10
938.38659388529686
 20
-1333.8129352608935
 30
0.0
 41
1.0
 10
938.38269893370125
 20
-1333.9128663420165
 30
0.0
 41
0.9999716810426004
 10
938.37730035058394
 20
-1334.0127274802144
 30
0.0
 41
1.0
 10
938.37408755179331
 20
-1334.0721567298983
 30
0.0
 41
1.0
 10
938.37087475300359
 20
-1334.1315859795823
 30
0.0
 41
1.0
 10
938.36280084385089
 20
-1334.2809343808649
 30
0.0
 41
0.9999819129912947
 10
938.35293105223445
 20
-1334.4301748585785
 30
0.0
 41
1.0
 10
938.34306126061801
 20
-1334.5794153362899
 30
0.0
 41
1.0
 10
938.34062194005401
 20
-1334.6166083821395
 30
0.0
 41
1.0
 10
938.36332017390214
 20
-1334.5778673847803
 30
0.0
 41
0.9999982128126731
 10
938.38616473268394
 20
-1334.539212490778
 30
0.0
 41
1.0
 10
938.41307429254721
 20
-1334.4936792767594
 30
0.0
 41
1.0
 10
938.43998385241048
 20
-1334.4481460627412
 30
0.0
 41
1.0
 10
938.51664753094337
 20
-1334.3184247406607
 30
0.0
 41
0.999860919005912
 10
938.59759484381266
 20
-1334.1913323587196
 30
0.0
 41
1.0
 10
938.6272431652842
 20
-1334.1447826257781
 30
0.0
 41
1.0
 10
938.65689148675574
 20
-1334.0982328928367
 30
0.0
 41
1.0
 10
938.7391637069959
 20
-1333.9690603228369
 30
0.0
 41
0.9999067609731352
 10
938.82493271646217
 20
-1333.8421826333915
 30
0.0
 41
1.0
 10
938.82733741966422
 20
-1333.8386253673352
 30
0.0
 41
1.0
 10
938.82974212286626
 20
-1333.8350681012785
 30
0.0
 41
1.0
 10
938.91070172592299
 20
-1333.7153049439567
 30
0.0
 41
0.999878495214919
 10
938.99535533560811
 20
-1333.5981237272417
 30
0.0
 41
1.0
 10
939.08000894528413
 20
-1333.4809425105404
 30
0.0
 41
0.999853296828376
 10
939.16862656611102
 20
-1333.3667296020644
 30
0.0
 41
1.0
 10
939.18858835510309
 20
-1333.3410022810431
 30
0.0
 41
1.0
 10
939.20855014409426
 20
-1333.3152749600222
 30
0.0
 41
1.0
 10
939.32703419385234
 20
-1333.1625693490537
 30
0.0
 41
0.9991551975794805
 10
939.45765864347686
 20
-1333.0201097869704
 30
0.0
 41
1.0
 10
939.46116825945319
 20
-1333.0162821853501
 30
0.0
 41
1.0
 10
939.46467787542952
 20
-1333.0124545837293
 30
0.0
 41
1.0
 10
939.58828309310047
 20
-1332.8776502248852
 30
0.0
 41
0.9997418144180746
 10
939.71788523280065
 20
-1332.7486008142741
 30
0.0
 41
1.0
 10
939.84748737249447
 20
-1332.6195514036667
 30
0.0
 41
0.9989238204630416
 10
939.98848992074454
 20
-1332.5030664416295
 30
0.0
 41
1.0
 10
940.03373759888837
 20
-1332.4656864500175
 30
0.0
 41
1.0
 10
940.07898527703219
 20
-1332.4283064584051
 30
0.0
 41
1.0
 10
940.21922533425277
 20
-1332.3124514051142
 30
0.0
 41
0.9990825084095902
 10
940.36886526685612
 20
-1332.2090224072817
 30
0.0
 41
1.0
 10
940.37891063091047
 20
-1332.2020791942041
 30
0.0
 41
1.0
 10
940.38895599496482
 20
-1332.1951359811264
 30
0.0
 41
1.0
 10
940.51850519945765
 20
-1332.1055934094502
 30
0.0
 41
0.9998164899826573
 10
940.65138940283668
 20
-1332.0210791679319
 30
0.0
 41
1.0
 10
940.66323496335735
 20
-1332.0135454014094
 30
0.0
 41
1.0
 10
940.67508052387893
 20
-1332.0060116348868
 30
0.0
 41
1.0
 10
940.78427360620026
 20
-1331.9365649264232
 30
0.0
 41
0.9997473449130334
 10
940.89647756346221
 20
-1331.8720959686002
 30
0.0
 41
1.0
 10
941.00868152070962
 20
-1331.8076270107858
 30
0.0
 41
0.9999327861143255
 10
941.12235013147256
 20
-1331.7457770191045
 30
0.0
 41
1.0
 10
941.12290213403412
 20
-1331.7454766604246
 30
0.0
 41
1.0
 10
941.12345413659659
 20
-1331.7451763017448
 30
0.0
 41
1.0
 10
941.23822675249176
 20
-1331.682725592701
 30
0.0
 41
0.9996956420485749
 10
941.35594007832515
 20
-1331.6260121257283
 30
0.0
 41
1.0
 10
941.38638048321991
 20
-1331.6113461489972
 30
0.0
 41
1.0
 10
941.41682088811467
 20
-1331.5966801722661
 30
0.0
 41
1.0
 10
941.51979799485616
 20
-1331.5470665138246
 30
0.0
 41
0.999807057017747
 10
941.62464438379266
 20
-1331.5015359269255
 30
0.0
 41
1.0
 10
941.72949077273552
 20
-1331.4560053400246
 30
0.0
 41
0.9997827436149033
 10
941.8361437093472
 20
-1331.4148841687111
 30
0.0
 41
1.0
 10
941.85536655897613
 20
-1331.4074725950795
 30
0.0
 41
1.0
 10
941.87458940860597
 20
-1331.400061021448
 30
0.0
 41
1.0
 10
942.01968804447915
 20
-1331.3441167028705
 30
0.0
 41
0.9988031841974498
 10
942.16955840708397
 20
-1331.3026166387035
 30
0.0
 41
1.0
 10
942.19447565544851
 20
-1331.2957168928965
 30
0.0
 41
1.0
 10
942.21939290381215
 20
-1331.2888171470895
 30
0.0
 41
1.0
 10
942.386662929458
 20
-1331.2424990046829
 30
0.0
 41
0.998474804054985
 10
942.55801983810579
 20
-1331.2149047724179
 30
0.0
 41
1.0
 10
942.56275897435717
 20
-1331.2141416119039
 30
0.0
 41
1.0
 10
942.56749811060763
 20
-1331.2133784513903
 30
0.0
 41
1.0
 10
942.72937674675177
 20
-1331.1873105401528
 30
0.0
 41
0.9984436495477841
 10
942.89315149047889
 20
-1331.1794325863348
 30
0.0
 41
1.0
 10
942.91484869861324
 20
-1331.1783888991349
 30
0.0
 41
1.0
 10
942.9365459067476
 20
-1331.1773452119351
 30
0.0
 41
1.0
 10
943.056926234206
 20
-1331.1715546325158
 30
0.0
 41
0.9987954789335422
 10
943.1772944791137
 20
-1331.1775911602581
 30
0.0
 41
1.0
 10
943.19725927159834
 20
-1331.1785924045962
 30
0.0
 41
1.0
 10
943.21722406408207
 20
-1331.1795936489339
 30
0.0
 41
1.0
 10
943.29766272400229
 20
-1331.1836276879985
 30
0.0
 41
0.9997941595876518
 10
943.37787150211807
 20
-1331.1909217539214
 30
0.0
 41
1.0
 10
943.4580802802202
 20
-1331.1982158198434
 30
0.0
 41
0.999858946623739
 10
943.53799882708245
 20
-1331.2081996742945
 30
0.0
 41
1.0
 10
943.57040502888321
 20
-1331.2122480312128
 30
0.0
 41
1.0
 10
943.60281123068398
 20
-1331.216296388131
 30
0.0
 41
1.0
 10
943.7475421811514
 20
-1331.2343769564191
 30
0.0
 41
0.9993495063250544
 10
943.89059342492601
 20
-1331.2628426661618
 30
0.0
 41
1.0
 10
943.92352712207412
 20
-1331.2693961293762
 30
0.0
 41
1.0
 10
943.95646081922223
 20
-1331.2759495925902
 30
0.0
 41
1.0
 10
944.06575464243724
 20
-1331.2976979267282
 30
0.0
 41
0.9996788715561552
 10
944.17380621438588
 20
-1331.3249557260892
 30
0.0
 41
1.0
 10
944.17586921692418
 20
-1331.3254761526618
 30
0.0
 41
1.0
 10
944.17793221946249
 20
-1331.3259965792345
 30
0.0
 41
1.0
 10
944.28185778633542
 20
-1331.3522135254502
 30
0.0
 41
0.9995480654492722
 10
944.38402002157181
 20
-1331.3846284820766
 30
0.0
 41
1.0
 10
944.38570966370662
 20
-1331.3851645869922
 30
0.0
 41
1.0
 10
944.38739930584143
 20
-1331.3857006919079
 30
0.0
 41
1.0
 10
944.4861822568073
 20
-1331.4170434387029
 30
0.0
 41
0.9993867959455277
 10
944.58252941524461
 20
-1331.455222807991
 30
0.0
 41
1.0
 10
944.58377236432352
 20
-1331.4557153498849
 30
0.0
 41
1.0
 10
944.58501531340244
 20
-1331.4562078917788
 30
0.0
 41
1.0
 10
944.6788765736801
 20
-1331.4934021772774
 30
0.0
 41
0.9992050256520607
 10
944.76947624871991
 20
-1331.5379560765195
 30
0.0
 41
1.0
 10
944.77021093143048
 20
-1331.5383173689797
 30
0.0
 41
1.0
 10
944.77094561414106
 20
-1331.5386786614395
 30
0.0
 41
1.0
 10
944.86007592375609
 20
-1331.582509975759
 30
0.0
 41
0.9990222350740212
 10
944.94498598514747
 20
-1331.6340432434563
 30
0.0
 41
1.0
 10
944.94516987042789
 20
-1331.6341548463597
 30
0.0
 41
1.0
 10
944.94535375570831
 20
-1331.6342664492636
 30
0.0
 41
1.0
 10
945.02989604653885
 20
-1331.6855765111536
 30
0.0
 41
0.9988642743803833
 10
945.10917058115956
 20
-1331.7447006986799
 30
0.0
 41
1.0
 10
945.188445115783
 20
-1331.803824886209
 30
0.0
 41
0.9987681233310868
 10
945.26146890006839
 20
-1331.8705155776188
 30
0.0
 41
1.0
 10
945.26179782802774
 20
-1331.8708159788266
 30
0.0
 41
1.0
 10
945.26212675598617
 20
-1331.8711163800344
 30
0.0
 41
1.0
 10
945.33580839618844
 20
-1331.9384078738576
 30
0.0
 41
0.9987496570895197
 10
945.40240220151099
 20
-1332.0127206879388
 30
0.0
 41
1.0
 10
945.40317437127578
 20
-1332.0135823613023
 30
0.0
 41
1.0
 10
945.40394654104148
 20
-1332.0144440346658
 30
0.0
 41
1.0
 10
945.47208468589452
 20
-1332.0904801954739
 30
0.0
 41
0.9988147669827479
 10
945.53250694012331
 20
-1332.1727812023228
 30
0.0
 41
1.0
 10
945.53362626619673
 20
-1332.1743058336692
 30
0.0
 41
1.0
 10
945.53474559227016
 20
-1332.1758304650157
 30
0.0
 41
1.0
 10
945.59740649865125
 20
-1332.2611807345634
 30
0.0
 41
0.9989452636216718
 10
945.65197341161365
 20
-1332.3519194237224
 30
0.0
 41
1.0
 10
945.65332213769852
 20
-1332.3541622047478
 30
0.0
 41
1.0
 10
945.6546708637843
 20
-1332.3564049857737
 30
0.0
 41
1.0
 10
945.71193522891645
 20
-1332.4516292369844
 30
0.0
 41
0.9991046436072287
 10
945.76094444223872
 20
-1332.5513536700105
 30
0.0
 41
1.0
 10
945.76240830382812
 20
-1332.5543323500824
 30
0.0
 41
1.0
 10
945.76387216541752
 20
-1332.5573110301543
 30
0.0
 41
1.0
 10
945.81580910192133
 20
-1332.6629928233301
 30
0.0
 41
0.9992763831100878
 10
945.85956223047833
 20
-1332.7723168852904
 30
0.0
 41
1.0
 10
945.86104150013944
 20
-1332.7760130728193
 30
0.0
 41
1.0
 10
945.86252076980145
 20
-1332.7797092603478
 30
0.0
 41
1.0
 10
945.90923243768339
 20
-1332.8964256973695
 30
0.0
 41
0.9994163472882716
 10
945.94786546887099
 20
-1333.0160592858288
 30
0.0
 41
1.0
 10
945.94910362111932
 20
-1333.0198934296145
 30
0.0
 41
1.0
 10
945.95034177336674
 20
-1333.0237275734003
 30
0.0
 41
1.0
 10
945.99022533438529
 20
-1333.1472336348816
 30
0.0
 41
0.9997268055890001
 10
946.02429339029641
 20
-1333.2724686668298
 30
0.0
 41
1.0
 10
946.02522357056569
 20
-1333.2758880329393
 30
0.0
 41
1.0
 10
946.02615375083587
 20
-1333.2793073990492
 30
0.0
 41
1.0
 10
946.05836144620844
 20
-1333.3977036987812
 30
0.0
 41
0.9996701319000496
 10
946.08444706297905
 20
-1333.5175976520436
 30
0.0
 41
1.0
 10
946.11053267974876
 20
-1333.637491605306
 30
0.0
 41
0.9995785451111038
 10
946.12961625708886
 20
-1333.758697366336
 30
0.0
 41
1.0
 10
946.13383603926286
 20
-1333.7854985211043
 30
0.0
 41
1.0
 10
946.13805582143777
 20
-1333.812299675873
 30
0.0
 41
1.0
 10
946.16463079737514
 20
-1333.9810856495747
 30
0.0
 41
0.9979925101217542
 10
946.16965638330112
 20
-1334.1518769776635
 30
0.0
 41
1.0
 10
946.17048119572519
 20
-1334.179907701151
 30
0.0
 41
1.0
 10
946.17130600815017
 20
-1334.2079384246385
 30
0.0
 41
1.0
 10
946.17468196922709
 20
-1334.322668305761
 30
0.0
 41
0.9995314902263105
 10
946.1710317770885
 20
-1334.4373897895071
 30
0.0
 41
1.0
 10
946.167381584949
 20
-1334.5521112732713
 30
0.0
 41
0.9996245486945135
 10
946.15745248981693
 20
-1334.6664605444066
 30
0.0
 41
1.0
 10
946.1572894418232
 20
-1334.6683383005302
 30
0.0
 41
1.0
 10
946.15712639383037
 20
-1334.6702160566538
 30
0.0
 41
1.0
 10
946.14687120271083
 20
-1334.7883208400549
 30
0.0
 41
0.9997286094999788
 10
946.13112587913838
 20
-1334.9058197489558
 30
0.0
 41
1.0
 10
946.13073238648849
 20
-1334.908756173651
 30
0.0
 41
1.0
 10
946.13033889383951
 20
-1334.9116925983462
 30
0.0
 41
1.0
 10
946.1138065849691
 20
-1335.0350643566358
 30
0.0
 41
0.9998265533968798
 10
946.0926911262377
 20
-1335.1577348314108
 30
0.0
 41
1.0
 10
946.09201458409825
 20
-1335.1616652099297
 30
0.0
 41
1.0
 10
946.09133804195972
 20
-1335.1655955884485
 30
0.0
 41
1.0
 10
946.06886949895488
 20
-1335.2961268202448
 30
0.0
 41
0.9999022530854785
 10
946.04276003434643
 20
-1335.4259787888736
 30
0.0
 41
1.0
 10
946.04178139317901
 20
-1335.4308459312692
 30
0.0
 41
1.0
 10
946.0408027520125
 20
-1335.4357130736648
 30
0.0
 41
1.0
 10
946.01273600506283
 20
-1335.5752993271199
 30
0.0
 41
0.99995247619326
 10
945.98195303622106
 20
-1335.7143118203157
 30
0.0
 41
1.0
 10
945.98067692905352
 20
-1335.7200745795817
 30
0.0
 41
1.0
 10
945.97940082188597
 20
-1335.7258373388472
 30
0.0
 41
1.0
 10
945.94606563869456
 20
-1335.8763753506446
 30
0.0
 41
0.9999813588725363
 10
945.9108946378874
 20
-1336.0264950633464
 30
0.0
 41
1.0
 10
945.90934071243919
 20
-1336.0331276537318
 30
0.0
 41
1.0
 10
945.90778678699189
 20
-1336.0397602441171
 30
0.0
 41
1.0
 10
945.86950793527922
 20
-1336.2031451376324
 30
0.0
 41
0.9999955237709258
 10
945.83025205728609
 20
-1336.3662980412932
 30
0.0
 41
1.0
 10
945.81797042165999
 20
-1336.4173422317817
 30
0.0
 41
1.0
 10
945.8056887860339
 20
-1336.4683864222707
 30
0.0
 41
1.0
 10
945.74186963676129
 20
-1336.7336277070153
 30
0.0
 41
0.9999993604472506
 10
945.6774506895963
 20
-1336.9987239576908
 30
0.0
 41
1.0
 10
945.67273185405884
 20
-1337.0181428656897
 30
0.0
 41
1.0
 10
945.66801301852229
 20
-1337.0375617736881
 30
0.0
 41
1.0
 10
945.59415640025873
 20
-1337.3414958404605
 30
0.0
 41
0.999965991472708
 10
945.51529680437034
 20
-1337.6441703870314
 30
0.0
 41
1.0
 10
945.51034411544333
 20
-1337.663179524201
 30
0.0
 41
1.0
 10
945.50539142651542
 20
-1337.6821886613711
 30
0.0
 41
1.0
 10
945.41662645276938
 20
-1338.022881482294
 30
0.0
 41
0.9999441976028203
 10
945.32068341980357
 20
-1338.3616229075992
 30
0.0
 41
1.0
 10
945.30398290137964
 20
-1338.4205866201219
 30
0.0
 41
1.0
 10
945.28728238295571
 20
-1338.4795503326445
 30
0.0
 41
1.0
 10
945.15793831314204
 20
-1338.9362191829955
 30
0.0
 41
0.9999625120731994
 10
945.02070554581951
 20
-1339.3905797169887
 30
0.0
 41
1.0
 10
944.9849156027376
 20
-1339.5090757436114
 30
0.0
 41
1.0
 10
944.94912565965569
 20
-1339.6275717702342
 30
0.0
 41
1.0
 10
944.87460545561044
 20
-1339.8742988483518
 30
0.0
 41
0.9999793386325806
 10
944.79691943247326
 20
-1340.1200474875868
 30
0.0
 41
1.0
 10
944.71923340933517
 20
-1340.3657961268232
 30
0.0
 41
1.0
 10
944.70845385046414
 20
-1340.3998140311978
 30
0.0
 41
1.0
 10
942.85808079719482
 20
-1346.2868859536657
 30
0.0
 41
1.0
 10
941.0077077439264
 20
-1352.173957876133
 30
0.0
 41
1.0
 10
940.04645105390318
 20
-1352.173957876133
 30
0.0
 41
1.0
 10
939.08519436387905
 20
-1352.173957876133
 30
0.0
 41
1.0
 10
940.70413914255732
 20
-1347.0259293743434
 30
0.0
 41
1.0
 10
942.32308392123559
 20
-1341.8779008725537
 30
0.0
 41
1.0
 10
942.36824974442879
 20
-1341.7338696502238
 30
0.0
 41
1.0
 10
942.413415567622
 20
-1341.5898384278935
 30
0.0
 41
1.0
 10
942.5837199849675
 20
-1341.0467473987892
 30
0.0
 41
0.9999911657900641
 10
942.74945279662734
 20
-1340.5022438674878
 30
0.0
 41
1.0
 10
942.7791487401164
 20
-1340.4046799274747
 30
0.0
 41
1.0
 10
942.80884468360546
 20
-1340.3071159874617
 30
0.0
 41
1.0
 10
942.91518560829536
 20
-1339.9577403361654
 30
0.0
 41
0.9999952428139431
 10
943.01936919763284
 20
-1339.6077153117749
 30
0.0
 41
1.0
 10
943.02442866797446
 20
-1339.5907170374667
 30
0.0
 41
1.0
 10
943.02948813831699
 20
-1339.5737187631585
 30
0.0
 41
1.0
 10
943.12355278697305
 20
-1339.2576902873725
 30
0.0
 41
0.9999931687507933
 10
943.21527862483072
 20
-1338.9409750741547
 30
0.0
 41
1.0
 10
943.2202138892726
 20
-1338.9239343649451
 30
0.0
 41
1.0
 10
943.22514915371448
 20
-1338.906893655736
 30
0.0
 41
1.0
 10
943.30700446268384
 20
-1338.6242598609579
 30
0.0
 41
0.9999893840824743
 10
943.38625168916133
 20
-1338.3408837316379
 30
0.0
 41
1.0
 10
943.46549891561699
 20
-1338.0575076023983
 30
0.0
 41
0.9999833980075437
 10
943.54147515636032
 20
-1337.7732370193635
 30
0.0
 41
1.0
 10
943.5504790930836
 20
-1337.7395481408794
 30
0.0
 41
1.0
 10
943.55948302980778
 20
-1337.7058592623957
 30
0.0
 41
1.0
 10
943.62844757867333
 20
-1337.4478234301037
 30
0.0
 41
0.9999233658064186
 10
943.69100254989189
 20
-1337.1881592713848
 30
0.0
 41
1.0
 10
943.75355752111227
 20
-1336.9284951126624
 30
0.0
 41
1.0
 10
943.79304093996961
 20
-1336.764688448236
 30
0.0
 41
1.0
 10
943.7980195439477
 20
-1336.7440334863604
 30
0.0
 41
1.0
 10
943.8029981479267
 20
-1336.7233785244848
 30
0.0
 41
1.0
 10
943.83252435882969
 20
-1336.6008817838019
 30
0.0
 41
0.9999868670854488
 10
943.86079344282371
 20
-1336.4780888381642
 30
0.0
 41
1.0
 10
943.86469092999778
 20
-1336.4611592506767
 30
0.0
 41
1.0
 10
943.86858841717185
 20
-1336.4442296631892
 30
0.0
 41
1.0
 10
943.88906252683319
 20
-1336.3552958924588
 30
0.0
 41
0.9999778173344058
 10
943.90835012493517
 20
-1336.2660972752883
 30
0.0
 41
1.0
 10
943.92763772305352
 20
-1336.1768986580455
 30
0.0
 41
0.9999602692864705
 10
943.94533208168741
 20
-1336.0873703696016
 30
0.0
 41
1.0
 10
943.9485359137625
 20
-1336.0711599147307
 30
0.0
 41
1.0
 10
943.95173974583668
 20
-1336.0549494598604
 30
0.0
 41
1.0
 10
943.97584176862165
 20
-1335.9330002616693
 30
0.0
 41
0.9995617985321432
 10
943.99268511583978
 20
-1335.8098385139697
 30
0.0
 41
1.0
 10
943.99514960574652
 20
-1335.7918176965995
 30
0.0
 41
1.0
 10
943.99761409565326
 20
-1335.7737968792289
 30
0.0
 41
1.0
 10
944.01789735670263
 20
-1335.6254818295265
 30
0.0
 41
0.9991121410639251
 10
944.02562271029092
 20
-1335.4759857307181
 30
0.0
 41
1.0
 10
944.02654150031503
 20
-1335.4582058941487
 30
0.0
 41
1.0
 10
944.02746029033915
 20
-1335.4404260575793
 30
0.0
 41
1.0
 10
944.0333480638792
 20
-1335.3264896319188
 30
0.0
 41
0.9989792494904835
 10
944.02892897176116
 20
-1335.2124867960138
 30
0.0
 41
1.0
 10
944.02828099989347
 20
-1335.1957705501036
 30
0.0
 41
1.0
 10
944.02763302802578
 20
-1335.1790543041939
 30
0.0
 41
1.0
 10
944.02450987964494
 20
-1335.0984839601319
 30
0.0
 41
0.9997820295395503
 10
944.01802588226838
 20
-1335.0181142383708
 30
0.0
 41
1.0
 10
944.01154188489454
 20
-1334.9377445166474
 30
0.0
 41
0.9998335105974304
 10
944.00212968938649
 20
-1334.8576649002212
 30
0.0
 41
1.0
 10
944.00053476470748
 20
-1334.8440951697157
 30
0.0
 41
1.0
 10
943.99893984002847
 20
-1334.8305254392108
 30
0.0
 41
1.0
 10
943.98633779516422
 20
-1334.7233063617969
 30
0.0
 41
0.9996876457879328
 10
943.9683938823664
 20
-1334.616850934081
 30
0.0
 41
1.0
 10
943.9661622192225
 20
-1334.6036111988451
 30
0.0
 41
1.0
 10
943.96393055607768
 20
-1334.5903714636092
 30
0.0
 41
1.0
 10
943.95013473465497
 20
-1334.5085253196448
 30
0.0
 41
0.9995547496497709
 10
943.93148141276197
 20
-1334.4276478224456
 30
0.0
 41
1.0
 10
943.93110745589001
 20
-1334.4260264117365
 30
0.0
 41
1.0
 10
943.93073349901806
 20
-1334.4244050010275
 30
0.0
 41
1.0
 10
943.91282809086806
 20
-1334.3467703252509
 30
0.0
 41
0.9994899427175764
 10
943.8900031821895
 20
-1334.2704370424199
 30
0.0
 41
1.0
 10
943.88954465544793
 20
-1334.2689035926287
 30
0.0
 41
1.0
 10
943.88908612870637
 20
-1334.2673701428375
 30
0.0
 41
1.0
 10
943.86717827350913
 20
-1334.1941037595834
 30
0.0
 41
0.9993784877590368
 10
943.84016263840294
 20
-1334.1225630544268
 30
0.0
 41
1.0
 10
943.83963094742921
 20
-1334.1211550717153
 30
0.0
 41
1.0
 10
943.83909925645548
 20
-1334.1197470890033
 30
0.0
 41
1.0
 10
943.81314700329949
 20
-1334.0510223492734
 30
0.0
 41
0.9992430832251391
 10
943.78193046813703
 20
-1333.9845231971995
 30
0.0
 41
1.0
 10
943.78134835207584
 20
-1333.9832831420731
 30
0.0
 41
1.0
 10
943.78076623601555
 20
-1333.9820430869468
 30
0.0
 41
1.0
 10
943.75071393297367
 20
-1333.9180240451219
 30
0.0
 41
0.9990789632796786
 10
943.71528330620185
 20
-1333.8568174333814
 30
0.0
 41
1.0
 10
943.71468760002335
 20
-1333.8557883475296
 30
0.0
 41
1.0
 10
943.71409189384576
 20
-1333.8547592616774
 30
0.0
 41
1.0
 10
943.67985267942822
 20
-1333.7956108216385
 30
0.0
 41
0.9988874801124514
 10
943.64019340339291
 20
-1333.739951109214
 30
0.0
 41
1.0
 10
943.639637877327
 20
-1333.7391714575369
 30
0.0
 41
1.0
 10
943.639082351262
 20
-1333.7383918058604
 30
0.0
 41
1.0
 10
943.60053412735942
 20
-1333.6842913967935
 30
0.0
 41
0.9986762060688218
 10
943.55663165608439
 20
-1333.6344376823572
 30
0.0
 41
1.0
 10
943.55618769575267
 20
-1333.633933540541
 30
0.0
 41
1.0
 10
943.55574373542095
 20
-1333.6334293987252
 30
0.0
 41
1.0
 10
943.51272918480845
 20
-1333.5845839679187
 30
0.0
 41
0.9984621642490743
 10
943.46457162803108
 20
-1333.5408006674465
 30
0.0
 41
1.0
 10
943.46432499351067
 20
-1333.5405764352799
 30
0.0
 41
1.0
 10
943.46407835899026
 20
-1333.5403522031129
 30
0.0
 41
1.0
 10
943.41641407124916
 20
-1333.4970173669722
 30
0.0
 41
0.998272469385195
 10
943.36399543941207
 20
-1333.4595730164574
 30
0.0
 41
1.0
 10
943.31157680757133
 20
-1333.4221286659413
 30
0.0
 41
0.9981399180161965
 10
943.25499074417985
 20
-1333.3913421464986
 30
0.0
 41
1.0
 10
943.25494508209977
 20
-1333.3913173033407
 30
0.0
 41
1.0
 10
943.25489942001968
 20
-1333.3912924601823
 30
0.0
 41
1.0
 10
943.19822203246986
 20
-1333.3604562544251
 30
0.0
 41
0.9980927086835068
 10
943.1381766814111
 20
-1333.3368394455756
 30
0.0
 41
1.0
 10
943.13773651169595
 20
-1333.3366663196989
 30
0.0
 41
1.0
 10
943.13729634197989
 20
-1333.3364931938222
 30
0.0
 41
1.0
 10
943.07637065148356
 20
-1333.3125301332175
 30
0.0
 41
0.9981411356563036
 10
943.0129821300834
 20
-1333.2961574917122
 30
0.0
 41
1.0
 10
943.01210001338495
 20
-1333.2959296495073
 30
0.0
 41
1.0
 10
943.01121789668741
 20
-1333.295701807303
 30
0.0
 41
1.0
 10
942.94606514188854
 20
-1333.2788734813867
 30
0.0
 41
0.9983031812932235
 10
942.87939771288802
 20
-1333.2697341202097
 30
0.0
 41
1.0
 10
942.87052668748674
 20
-1333.2685180015387
 30
0.0
 41
1.0
 10
942.86165566208547
 20
-1333.2673018828677
 30
0.0
 41
1.0
 10
942.80730601958385
 20
-1333.2598511528768
 30
0.0
 41
0.9983887708265438
 10
942.75246217028598
 20
-1333.2586064792431
 30
0.0
 41
1.0
 10
942.74439876506767
 20
-1333.2584234813685
 30
0.0
 41
1.0
 10
942.73633535984936
 20
-1333.2582404834934
 30
0.0
 41
1.0
 10
942.69761832099357
 20
-1333.2573618056099
 30
0.0
 41
0.9998869563079785
 10
942.65889236779094
 20
-1333.2576476749696
 30
0.0
 41
1.0
 10
942.62016641454375
 20
-1333.2579335443297
 30
0.0
 41
0.9999972320069183
 10
942.58144223528961
 20
-1333.2584016438591
 30
0.0
 41
1.0
 10
942.5620892187535
 20
-1333.258635583948
 30
0.0
 41
1.0
 10
942.54273620221738
 20
-1333.258869524037
 30
0.0
 41
1.0
 10
942.46530598983645
 20
-1333.2598055037447
 30
0.0
 41
0.9997304945085546
 10
942.38800268360865
 20
-1333.2643345975312
 30
0.0
 41
1.0
 10
942.37895304190442
 20
-1333.264864803521
 30
0.0
 41
1.0
 10
942.36990340019929
 20
-1333.2653950095109
 30
0.0
 41
1.0
 10
942.27450081055485
 20
-1333.2709845152767
 30
0.0
 41
0.9997888306415047
 10
942.17940847471618
 20
-1333.2804894797655
 30
0.0
 41
1.0
 10
942.17068741314051
 20
-1333.281361194398
 30
0.0
 41
1.0
 10
942.16196635156575
 20
-1333.2822329090304
 30
0.0
 41
1.0
 10
942.0494318925812
 20
-1333.2934813027837
 30
0.0
 41
0.9984170238193689
 10
941.93887274522422
 20
-1333.31729738472
 30
0.0
 41
1.0
 10
941.90249161423981
 20
-1333.3251344205255
 30
0.0
 41
1.0
 10
941.86611048325631
 20
-1333.3329714563311
 30
0.0
 41
1.0
 10
941.75091941483061
 20
-1333.3577853228417
 30
0.0
 41
0.9976592854198014
 10
941.64019124842707
 20
-1333.3980839999886
 30
0.0
 41
1.0
 10
941.52946308201626
 20
-1333.4383826771373
 30
0.0
 41
0.9993255074351509
 10
941.42199128323045
 20
-1333.4866995756279
 30
0.0
 41
1.0
 10
941.41736610430689
 20
-1333.488778951828
 30
0.0
 41
1.0
 10
941.41274092538424
 20
-1333.4908583280276
 30
0.0
 41
1.0
 10
941.29601876874767
 20
-1333.5433339789188
 30
0.0
 41
0.9976475078274215
 10
941.18757142443792
 20
-1333.6112819685768
 30
0.0
 41
1.0
 10
941.16922903030081
 20
-1333.6227744473927
 30
0.0
 41
1.0
 10
941.15088663616461
 20
-1333.6342669262085
 30
0.0
 41
1.0
 10
941.06668444461411
 20
-1333.6870240469748
 30
0.0
 41
0.9995131336404277
 10
940.98593672965762
 20
-1333.7449302589284
 30
0.0
 41
1.0
 10
940.90518901469932
 20
-1333.8028364708821
 30
0.0
 41
0.9995810107605812
 10
940.82792736696956
 20
-1333.8653181533491
 30
0.0
 41
1.0
 10
940.8249573357607
 20
-1333.8677200248126
 30
0.0
 41
1.0
 10
940.82198730455184
 20
-1333.870121896276
 30
0.0
 41
1.0
 10
940.73878559440436
 20
-1333.9374073216695
 30
0.0
 41
0.9996617837954999
 10
940.65919490726992
 20
-1334.0089277772286
 30
0.0
 41
1.0
 10
940.64706415639284
 20
-1334.0198285102197
 30
0.0
 41
1.0
 10
940.63493340551577
 20
-1334.0307292432103
 30
0.0
 41
1.0
 10
940.56665787812199
 20
-1334.0920818586806
 30
0.0
 41
0.9997267750053663
 10
940.50132436983131
 20
-1334.1565583952115
 30
0.0
 41
1.0
 10
940.43599086156519
 20
-1334.2210349317197
 30
0.0
 41
0.9999667288957127
 10
940.37171791843502
 20
-1334.2865687385965
 30
0.0
 41
1.0
 10
940.30289047064343
 20
-1334.3567463973718
 30
0.0
 41
1.0
 10
940.23406302285093
 20
-1334.4269240561471
 30
0.0
 41
1.0
 10
940.03213518415123
 20
-1334.6328131805612
 30
0.0
 41
0.9988205335174791
 10
939.85112956717421
 20
-1334.85731741262
 30
0.0
 41
1.0
 10
939.82048960226984
 20
-1334.8953206630495
 30
0.0
 41
1.0
 10
939.78984963736639
 20
-1334.9333239134785
 30
0.0
 41
1.0
 10
939.54756409058155
 20
-1335.2338346463939
 30
0.0
 41
0.9997077826754934
 10
939.32008613947892
 20
-1335.5457044406048
 30
0.0
 41
1.0
 10
939.3183627243443
 20
-1335.5480672239896
 30
0.0
 41
1.0
 10
939.31663930921059
 20
-1335.5504300073744
 30
0.0
 41
1.0
 10
939.08571452784327
 20
-1335.8670253683522
 30
0.0
 41
0.9989147567079065
 10
938.88525102496078
 20
-1336.2037348295348
 30
0.0
 41
1.0
 10
938.86050987965973
 20
-1336.2452914100768
 30
0.0
 41
1.0
 10
938.83576873435868
 20
-1336.2868479906192
 30
0.0
 41
1.0
 10
938.68055743571495
 20
-1336.5475493750832
 30
0.0
 41
0.9997476598181992
 10
938.53721244820008
 20
-1336.8149591236752
 30
0.0
 41
1.0
 10
938.39386746069158
 20
-1337.0823688722562
 30
0.0
 41
0.9996258967109999
 10
938.26535920875722
 20
-1337.3572168088854
 30
0.0
 41
1.0
 10
938.25215929931164
 20
-1337.3854482089719
 30
0.0
 41
1.0
 10
938.23895938986607
 20
-1337.4136796090588
 30
0.0
 41
1.0
 10
938.09875066886343
 20
-1337.7135520070183
 30
0.0
 41
0.9998735413944414
 10
937.96814932213874
 20
-1338.0177316064937
 30
0.0
 41
1.0
 10
937.96470649407365
 20
-1338.0257501919696
 30
0.0
 41
1.0
 10
937.96126366600856
 20
-1338.0337687774449
 30
0.0
 41
1.0
 10
937.83754797541678
 20
-1338.3219112059642
 30
0.0
 41
0.9999377418864849
 10
937.72029317324359
 20
-1338.6127426736366
 30
0.0
 41
1.0
 10
937.60303837107585
 20
-1338.9035741412931
 30
0.0
 41
0.9999508299507079
 10
937.49157442770138
 20
-1339.1966738181068
 30
0.0
 41
1.0
 10
937.48849365903425
 20
-1339.2047748440846
 30
0.0
 41
1.0
 10
937.48541289036621
 20
-1339.2128758700619
 30
0.0
 41
1.0
 10
937.36778740967748
 20
-1339.5221775987752
 30
0.0
 41
0.9999609228432753
 10
937.2556488068094
 20
-1339.8335106147747
 30
0.0
 41
1.0
 10
937.2526927964509
 20
-1339.8417174552096
 30
0.0
 41
1.0
 10
937.24973678609149
 20
-1339.849924295645
 30
0.0
 41
1.0
 10
937.13168616250914
 20
-1340.1776709925043
 30
0.0
 41
0.9999674607408108
 10
937.01893863642545
 20
-1340.5072796125455
 30
0.0
 41
1.0
 10
936.96754024588245
 20
-1340.6575388081792
 30
0.0
 41
1.0
 10
936.91614185534036
 20
-1340.8077980038133
 30
0.0
 41
1.0
 10
936.80013124857214
 20
-1341.1469459863447
 30
0.0
 41
0.999928753230583
 10
936.69224984459561
 20
-1341.4887667253374
 30
0.0
 41
1.0
 10
936.64577258843656
 20
-1341.63602926977
 30
0.0
 41
1.0
 10
936.59929533227842
 20
-1341.7832918142026
 30
0.0
 41
1.0
 10
936.58436844059997
 20
-1341.830587464392
 30
0.0
 41
0.9999998224614591
 10
936.56949793189415
 20
-1341.8779008725537
 30
0.0
 41
1.0
 10
934.94884179509882
 20
-1347.0259293743434
 30
0.0
 41
1.0
 10
933.32818565830348
 20
-1352.173957876133
 30
0.0
 41
1.0
 10
932.42287721441244
 20
-1352.173957876133
 30
0.0
 41
1.0
 10
931.51756877052139
 20
-1352.173957876133
 30
0.0
 41
1.0
 10
933.36965318190778
 20
-1346.2868859536657
 30
0.0
 41
1.0
 10
935.22173759329416
 20
-1340.3998140311978
 30
0.0
 41
1.0
 10
935.23185935159654
 20
-1340.3677708177479
 30
0.0
 41
1.0
 10
935.30446702044628
 20
-1340.1374712759221
 30
0.0
 41
1.0
 10
935.37707468930239
 20
-1339.9071717340771
 30
0.0
 41
0.999982568196956
 10
935.44695772852538
 20
-1339.6760308389703
 30
0.0
 41
1.0
 10
935.49524879067667
 20
-1339.5163062555048
 30
0.0
 41
1.0
 10
935.54353985282887
 20
-1339.3565816720393
 30
0.0
 41
1.0
 10
935.6406922061451
 20
-1339.0352464502676
 30
0.0
 41
0.9999672528963308
 10
935.73263101176872
 20
-1338.7123809046816
 30
0.0
 41
1.0
 10
935.73541989543719
 20
-1338.7025870592979
 30
0.0
 41
1.0
 10
935.73820877910475
 20
-1338.6927932139147
 30
0.0
 41
1.0
 10
935.82456981739051
 20
-1338.3895153590993
 30
0.0
 41
0.9999899749149084
 10
935.90821142692675
 20
-1338.0854762706426
 30
0.0
 41
1.0
 10
935.91831734594507
 20
-1338.0487410329624
 30
0.0
 41
1.0
 10
935.92842326496248
 20
-1338.0120057952822
 30
0.0
 41
1.0
 10
935.99185303646118
 20
-1337.781437182191
 30
0.0
 41
0.9999214200504614
 10
936.04948246483855
 20
-1337.5493508399809
 30
0.0
 41
1.0
 10
936.06224831702912
 20
-1337.4979399545455
 30
0.0
 41
1.0
 10
936.07501416921968
 20
-1337.4465290691101
 30
0.0
 41
1.0
 10
936.10711189322592
 20
-1337.317264497734
 30
0.0
 41
0.9999828681669971
 10
936.13769414521175
 20
-1337.187633023304
 30
0.0
 41
1.0
 10
936.16827639720668
 20
-1337.0580015488385
 30
0.0
 41
0.9999389844480655
 10
936.19598738599598
 20
-1336.9277260929398
 30
0.0
 41
1.0
 10
936.20312512971668
 20
-1336.8941699891011
 30
0.0
 41
1.0
 10
936.21026287343739
 20
-1336.860613885262
 30
0.0
 41
1.0
 10
936.25224934966627
 20
-1336.6632262216899
 30
0.0
 41
0.9998933699439757
 10
936.28845361406911
 20
-1336.4646966139285
 30
0.0
 41
1.0
 10
936.28982643928521
 20
-1336.4571685932315
 30
0.0
 41
1.0
 10
936.29119926450221
 20
-1336.4496405725349
 30
0.0
 41
1.0
 10
936.33014917933815
 20
-1336.2360549233781
 30
0.0
 41
0.9996850305192798
 10
936.35833285559693
 20
-1336.0207839179343
 30
0.0
 41
1.0
 10
936.36032788896318
 20
-1336.0055455638339
 30
0.0
 41
1.0
 10
936.36232292233035
 20
-1335.9903072097336
 30
0.0
 41
1.0
 10
936.38973078479103
 20
-1335.7809619825643
 30
0.0
 41
0.9994697936708086
 10
936.4034553440124
 20
-1335.5702767872172
 30
0.0
 41
1.0
 10
936.40393241326274
 20
-1335.5629533149922
 30
0.0
 41
1.0
 10
936.40440948251307
 20
-1335.5556298427678
 30
0.0
 41
1.0
 10
936.41717990323286
 20
-1335.3595915918736
 30
0.0
 41
0.9991804893135854
 10
936.41405158695943
 20
-1335.1631627419133
 30
0.0
 41
1.0
 10
936.41396770813753
 20
-1335.1578959405097
 30
0.0
 41
1.0
 10
936.41388382931564
 20
-1335.152629139106
 30
0.0
 41
1.0
 10
936.41092327068691
 20
-1334.9667338919489
 30
0.0
 41
0.9988448329322379
 10
936.39013172506293
 20
-1334.7819813021065
 30
0.0
 41
1.0
 10
936.38853765135991
 20
-1334.7678164463323
 30
0.0
 41
1.0
 10
936.38694357765598
 20
-1334.7536515905585
 30
0.0
 41
1.0
 10
936.36934017943895
 20
-1334.5972287122704
 30
0.0
 41
0.9985503209458463
 10
936.33502390713966
 20
-1334.4436045281836
 30
0.0
 41
1.0
 10
936.32743791506982
 20
-1334.4096442007894
 30
0.0
 41
1.0
 10
936.31985192299999
 20
-1334.3756838733952
 30
0.0
 41
1.0
 10
936.30070763484218
 20
-1334.2899803441019
 30
0.0
 41
0.9991036781370977
 10
936.27438277318925
 20
-1334.2062032567696
 30
0.0
 41
1.0
 10
936.27040054773806
 20
-1334.1935300942741
 30
0.0
 41
1.0
 10
936.26641832228688
 20
-1334.1808569317791
 30
0.0
 41
1.0
 10
936.24805791154267
 20
-1334.1224261694597
 30
0.0
 41
0.9998874504370016
 10
936.22795270385996
 20
-1334.0645725672211
 30
0.0
 41
1.0
 10
936.20784749618269
 20
-1334.0067189650044
 30
0.0
 41
0.9994041637545407
 10
936.18379888325126
 20
-1333.9503902611204
 30
0.0
 41
1.0
 10
936.17960209902685
 20
-1333.9405601966382
 30
0.0
 41
1.0
 10
936.17540531480336
 20
-1333.9307301321564
 30
0.0
 41
1.0
 10
936.14752648380636
 20
-1333.865429966183
 30
0.0
 41
0.9991846840703303
 10
936.11447012711051
 20
-1333.802591934897
 30
0.0
 41
1.0
 10
936.11333352071324
 20
-1333.8004313184392
 30
0.0
 41
1.0
 10
936.11219691431688
 20
-1333.7982707019814
 30
0.0
 41
1.0
 10
936.08141377041648
 20
-1333.7397539036156
 30
0.0
 41
0.9989253167921315
 10
936.04534434636207
 20
-1333.6843389752266
 30
0.0
 41
1.0
 10
936.04429022168551
 20
-1333.6827194804609
 30
0.0
 41
1.0
 10
936.04323609700896
 20
-1333.6810999856953
 30
0.0
 41
1.0
 10
936.00927492230676
 20
-1333.628924046835
 30
0.0
 41
0.9986467172828895
 10
935.97007776966984
 20
-1333.5805580132069
 30
0.0
 41
1.0
 10
935.96920364097059
 20
-1333.5794794109302
 30
0.0
 41
1.0
 10
935.96832951227134
 20
-1333.5784008086534
 30
0.0
 41
1.0
 10
935.93088061703565
 20
-1333.5321919795811
 30
0.0
 41
0.9984001104272046
 10
935.88845388651589
 20
-1333.4905068722082
 30
0.0
 41
1.0
 10
935.88786674840867
 20
-1333.4899299973285
 30
0.0
 41
1.0
 10
935.88727961030054
 20
-1333.4893531224493
 30
0.0
 41
1.0
 10
935.84602715599885
 20
-1333.4488217648395
 30
0.0
 41
0.9982442159084078
 10
935.80027105466343
 20
-1333.4134532035796
 30
0.0
 41
1.0
 10
935.80005625920694
 20
-1333.4132871709398
 30
0.0
 41
1.0
 10
935.79984146374954
 20
-1333.4131211383005
 30
0.0
 41
1.0
 10
935.75451495333436
 20
-1333.3780846423247
 30
0.0
 41
0.9982450060843134
 10
935.70536397425531
 20
-1333.3486528592857
 30
0.0
 41
1.0
 10
935.65621299517716
 20
-1333.3192210762486
 30
0.0
 41
0.9983922639635615
 10
935.60404668900537
 20
-1333.2955414415919
 30
0.0
 41
1.0
 10
935.60381981168757
 20
-1333.2954384561135
 30
0.0
 41
1.0
 10
935.60359293436977
 20
-1333.2953354706351
 30
0.0
 41
1.0
 10
935.55097287355875
 20
-1333.2714498650198
 30
0.0
 41
0.9986517147154113
 10
935.49615990069378
 20
-1333.2531487458982
 30
0.0
 41
1.0
 10
935.49548197926288
 20
-1333.2529223994661
 30
0.0
 41
1.0
 10
935.49480405783197
 20
-1333.2526960530336
 30
0.0
 41
1.0
 10
935.43863524210701
 20
-1333.2339422410487
 30
0.0
 41
0.9989435598956088
 10
935.38098185495619
 20
-1333.2204245388143
 30
0.0
 41
1.0
 10
935.37990173537492
 20
-1333.2201712885617
 30
0.0
 41
1.0
 10
935.37882161579455
 20
-1333.2199180383086
 30
0.0
 41
1.0
 10
935.31900798948118
 20
-1333.2058938355681
 30
0.0
 41
0.9992249241238874
 10
935.25827648058566
 20
-1333.1966184928533
 30
0.0
 41
1.0
 10
935.25686279229285
 20
-1333.1964025844454
 30
0.0
 41
1.0
 10
935.25544910400004
 20
-1333.1961866760371
 30
0.0
 41
1.0
 10
935.19189021851707
 20
-1333.1864795165056
 30
0.0
 41
0.9994396597832792
 10
935.12782428198807
 20
-1333.1810465941608
 30
0.0
 41
1.0
 10
935.10868361450866
 20
-1333.1794234264416
 30
0.0
 41
1.0
 10
935.08954294702835
 20
-1333.177800258723
 30
0.0
 41
1.0
 10
934.98719567553417
 20
-1333.1691210009399
 30
0.0
 41
0.9987693403119653
 10
934.88449205194411
 20
-1333.170624064393
 30
0.0
 41
1.0
 10
934.87423771771955
 20
-1333.170774136167
 30
0.0
 41
1.0
 10
934.86398338349409
 20
-1333.1709242079414
 30
0.0
 41
1.0
 10
934.75442761731574
 20
-1333.1725275522285
 30
0.0
 41
0.9989753644964908
 10
934.64546561729821
 20
-1333.1840305591541
 30
0.0
 41
1.0
 10
934.53650361727796
 20
-1333.1955335660791
 30
0.0
 41
0.998319006730265
 10
934.42960480631609
 20
-1333.2195685578658
 30
0.0
 41
1.0
 10
934.42070385471015
 20
-1333.2215698364284
 30
0.0
 41
1.0
 10
934.41180290310422
 20
-1333.223571114991
 30
0.0
 41
1.0
 10
934.28710218892138
 20
-1333.2516086639039
 30
0.0
 41
0.9985539388301241
 10
934.16613243524898
 20
-1333.2928723399482
 30
0.0
 41
1.0
 10
934.16378700428777
 20
-1333.2936723837643
 30
0.0
 41
1.0
 10
934.16144157332656
 20
-1333.2944724275803
 30
0.0
 41
1.0
 10
934.03578095772536
 20
-1333.3373361912591
 30
0.0
 41
0.9988468746494446
 10
933.914810615428
 20
-1333.3920542763203
 30
0.0
 41
1.0
 10
933.91162779343995
 20
-1333.3934939508799
 30
0.0
 41
1.0
 10
933.90844497145099
 20
-1333.39493362544
 30
0.0
 41
1.0
 10
933.78110898517116
 20
-1333.4525310596237
 30
0.0
 41
0.9991322885921222
 10
933.65900840111135
 20
-1333.520526391806
 30
0.0
 41
1.0
 10
933.64140639006928
 20
-1333.5303285937953
 30
0.0
 41
1.0
 10
933.62380437902721
 20
-1333.5401307957841
 30
0.0
 41
1.0
 10
933.52162769796996
 20
-1333.5970309115646
 30
0.0
 41
0.999386003784816
 10
933.42368669389816
 20
-1333.660946927153
 30
0.0
 41
1.0
 10
933.41806838104549
 20
-1333.6646134218481
 30
0.0
 41
1.0
 10
933.41245006819281
 20
-1333.6682799165433
 30
0.0
 41
1.0
 10
933.32574568983455
 20
-1333.7248629427354
 30
0.0
 41
0.9998821494953979
 10
933.24081931401179
 20
-1333.7840811728183
 30
0.0
 41
1.0
 10
933.15589293818539
 20
-1333.8432994029049
 30
0.0
 41
0.9997976482744599
 10
933.07341730778262
 20
-1333.9058858109461
 30
0.0
 41
1.0
 10
933.05878104298426
 20
-1333.9169925007209
 30
0.0
 41
1.0
 10
933.04414477818591
 20
-1333.9280991904961
 30
0.0
 41
1.0
 10
932.93239661817188
 20
-1334.0128989780978
 30
0.0
 41
0.9998091630799689
 10
932.82404634014347
 20
-1334.1019993287991
 30
0.0
 41
1.0
 10
932.81104058766596
 20
-1334.112694429245
 30
0.0
 41
1.0
 10
932.79803483518936
 20
-1334.1233895296909
 30
0.0
 41
1.0
 10
932.66367305220683
 20
-1334.233880081284
 30
0.0
 41
0.9995035112316967
 10
932.53653717444467
 20
-1334.3526138982979
 30
0.0
 41
1.0
 10
932.52688986405155
 20
-1334.3616236444614
 30
0.0
 41
1.0
 10
932.51724255365843
 20
-1334.3706333906248
 30
0.0
 41
1.0
 10
932.39381949089784
 20
-1334.4858997623764
 30
0.0
 41
0.9994630424298618
 10
932.27821108511944
 20
-1334.6090025056064
 30
0.0
 41
1.0
 10
932.27452824634474
 20
-1334.6129240851233
 30
0.0
 41
1.0
 10
932.27084540756914
 20
-1334.6168456646406
 30
0.0
 41
1.0
 10
932.16260267933558
 20
-1334.7321052488414
 30
0.0
 41
0.9995160693750733
 10
932.06173664980361
 20
-1334.8538726667139
 30
0.0
 41
1.0
 10
932.0598029297189
 20
-1334.8562070909265
 30
0.0
 41
1.0
 10
932.0578692096351
 20
-1334.8585415151388
 30
0.0
 41
1.0
 10
931.960870620268
 20
-1334.9756400845913
 30
0.0
 41
0.9996561470514406
 10
931.87014440160601
 20
-1335.0976628470357
 30
0.0
 41
1.0
 10
931.86398673570602
 20
-1335.1059446360755
 30
0.0
 41
1.0
 10
931.85782906980603
 20
-1335.1142264251152
 30
0.0
 41
1.0
 10
931.77941818293766
 20
-1335.2196856094888
 30
0.0
 41
0.9998349055172235
 10
931.70489090100818
 20
-1335.3279241931486
 30
0.0
 41
1.0
 10
931.63036361909144
 20
-1335.4361627767894
 30
0.0
 41
0.9999728109556499
 10
931.55744072317793
 20
-1335.5454887023484
 30
0.0
 41
1.0
 10
931.55612550776004
 20
-1335.5474604718602
 30
0.0
 41
1.0
 10
931.55481029234215
 20
-1335.5494322413724
 30
0.0
 41
1.0
 10
931.47925696559105
 20
-1335.6627017059577
 30
0.0
 41
0.999997214728403
 10
931.4042391551975
 20
-1335.7763265488238
 30
0.0
 41
1.0
 10
931.39926761259358
 20
-1335.7838566372684
 30
0.0
 41
1.0
 10
931.39429606998965
 20
-1335.791386725713
 30
0.0
 41
1.0
 10
931.30933517435551
 20
-1335.920071745516
 30
0.0
 41
0.9999371979003024
 10
931.22727982494962
 20
-1336.0506286592977
 30
0.0
 41
1.0
 10
931.2237709405963
 20
-1336.0562115873499
 30
0.0
 41
1.0
 10
931.22026205624297
 20
-1336.0617945154017
 30
0.0
 41
1.0
 10
931.13118893811134
 20
-1336.2035172853134
 30
0.0
 41
0.9998272025610497
 10
931.04744554723311
 20
-1336.3484531620493
 30
0.0
 41
1.0
 10
931.0322303752082
 20
-1336.3747862765076
 30
0.0
 41
1.0
 10
931.01701520318329
 20
-1336.401119390966
 30
0.0
 41
1.0
 10
930.90284146824888
 20
-1336.5987214966299
 30
0.0
 41
0.9995217214838525
 10
930.80110177868937
 20
-1336.8030038245001
 30
0.0
 41
1.0
 10
930.79345821605511
 20
-1336.8183512742035
 30
0.0
 41
1.0
 10
930.78581465341995
 20
-1336.8336987239063
 30
0.0
 41
1.0
 10
930.69890936083357
 20
-1337.0081951819793
 30
0.0
 41
0.9998269762606665
 10
930.61855489456593
 20
-1337.1858034686948
 30
0.0
 41
1.0
 10
930.53820042830012
 20
-1337.3634117554057
 30
0.0
 41
0.9998944747388833
 10
930.46303963373612
 20
-1337.5432794810326
 30
0.0
 41
1.0
 10
930.45808596413372
 20
-1337.5551341359769
 30
0.0
 41
1.0
 10
930.45313229453131
 20
-1337.5669887909216
 30
0.0
 41
1.0
 10
930.37248523398284
 20
-1337.7599857309274
 30
0.0
 41
0.99995067344099
 10
930.29568770509013
 20
-1337.9545465357573
 30
0.0
 41
1.0
 10
930.28108773981785
 20
-1337.9915344575656
 30
0.0
 41
1.0
 10
930.26648777454648
 20
-1338.028522379374
 30
0.0
 41
1.0
 10
930.21889017618378
 20
-1338.1491073406223
 30
0.0
 41
0.9999912393941381
 10
930.17230373216444
 20
-1338.2700865433094
 30
0.0
 41
1.0
 10
930.12571728816056
 20
-1338.3910657459564
 30
0.0
 41
0.9999927113935109
 10
930.08005599376884
 20
-1338.5123971534495
 30
0.0
 41
1.0
 10
930.06608756236074
 20
-1338.5495141354772
 30
0.0
 41
1.0
 10
930.05211913095172
 20
-1338.586631117505
 30
0.0
 41
1.0
 10
929.97852097374835
 20
-1338.7821964890431
 30
0.0
 41
0.9999487550949958
 10
929.90889734876419
 20
-1338.9792118542637
 30
0.0
 41
1.0
 10
929.88530373883623
 20
-1339.0459751645308
 30
0.0
 41
1.0
 10
929.86171012890827
 20
-1339.1127384747979
 30
0.0
 41
1.0
 10
929.76702449453933
 20
-1339.3806723096195
 30
0.0
 41
0.9999808436947828
 10
929.67566290590457
 20
-1339.6497577408622
 30
0.0
 41
1.0
 10
929.58430131728255
 20
-1339.9188431720695
 30
0.0
 41
0.9999873932916411
 10
929.49564660857504
 20
-1340.1888325270502
 30
0.0
 41
1.0
 10
929.47555425169139
 20
-1340.2500218598479
 30
0.0
 41
1.0
 10
929.45546189480683
 20
-1340.3112111926457
 30
0.0
 41
1.0
 10
929.32662247235294
 20
-1340.7035792131574
 30
0.0
 41
0.9999794883031932
 10
929.20281968738982
 20
-1341.0975654194531
 30
0.0
 41
1.0
 10
929.19166742798825
 20
-1341.1330560295742
 30
0.0
 41
1.0
 10
929.18051516858759
 20
-1341.1685466396953
 30
0.0
 41
1.0
 10
929.0379570046689
 20
-1341.6222193918484
 30
0.0
 41
0.9999982761818052
 10
928.89708456460448
 20
-1342.0764184141262
 30
0.0
 41
1.0
 10
927.30894423203154
 20
-1347.1251881451299
 30
0.0
 41
1.0
 10
925.7208038994595
 20
-1352.173957876133
 30
0.0
 41
1.0
 10
924.772053287983
 20
-1352.173957876133
 30
0.0
 41
1.0
 10
923.8233026765065
 20
-1352.173957876133
 30
0.0
 41
1.0
 10
927.06158716265963
 20
-1341.8466356761869
 30
0.0
 41
1.0
 10
930.29987164881277
 20
-1331.5193134762408
 30
0.0
 41
1.0
  0
LWPOLYLINE
  5
190
100
AcDbEntity
  8
template
370
              15
390
0
  6
Continuous
 62
               7
100
AcDbPolyline
 90
      232
 70
             128
 10
904.59632587498618
 20
-1332.6036563077555
 42
0.0004370800668463
 10
904.54344870090881
 20
-1332.6723229470176
 10
904.50416446978579
 20
-1332.7234300599084
 42
0.0030481992174715
 10
904.37382575263382
 20
-1332.8951517522974
 10
904.33531408091676
 20
-1332.9465385360409
 42
0.0042058245753523
 10
904.13132903025235
 20
-1333.2235442811075
 10
904.07892390774668
 20
-1333.2959771278956
 42
0.0120948898739633
 10
903.78287999098848
 20
-1333.7267267324387
 10
903.68668749186963
 20
-1333.8742074676593
 42
0.0141601263952579
 10
903.38304344494099
 20
-1334.3698768044046
 10
903.34350617748623
 20
-1334.4387207718869
 42
0.0071131081311497
 10
903.13823385427622
 20
-1334.8082235706743
 42
0.0068458791001248
 10
902.94335432742355
 20
-1335.1833151341702
 10
902.9365424649759
 20
-1335.1968768478746
 42
0.0064120880287589
 10
902.73840021491833
 20
-1335.6043013228214
 10
902.73086552941459
 20
-1335.6203131795146
 42
0.0058857236455358
 10
902.52811013755763
 20
-1336.0646892905179
 10
902.5199352112495
 20
-1336.0831794441833
 42
0.0053189741892543
 10
902.31123089860466
 20
-1336.5691429180451
 10
902.30248309289982
 20
-1336.5901247962975
 42
0.0047503650421969
 10
902.08650936674803
 20
-1337.1223242295082
 10
902.07724111840071
 20
-1337.1458006056146
 42
0.0042071762182474
 10
901.85269373464507
 20
-1337.7288941997604
 10
901.84294433232481
 20
-1337.7548603745545
 42
0.0036680086498882
 10
901.60848968895971
 20
-1338.3934957592328
 10
901.59828190916505
 20
-1338.42194429343
 42
0.0032573142630619
 10
901.35264962320434
 20
-1339.1207969531661
 10
901.28399910237931
 20
-1339.3202600371715
 42
0.0026133366650386
 10
900.93555390359961
 20
-1340.3501233209081
 10
900.87229711603322
 20
-1340.5403541564988
 42
0.0020592950748258
 10
900.65843404713178
 20
-1341.1924578089147
 10
900.65538225591354
 20
-1341.2018942974942
 42
0.0025609928541216
 10
900.45356175448342
 20
-1341.8370395196898
 10
900.45097038736549
 20
-1341.8453418606032
 42
0.0031362356245319
 10
900.26147960167964
 20
-1342.4661047168102
 10
900.25934855875221
 20
-1342.4732460230216
 42
0.0037229918033273
 10
900.08254817182478
 20
-1343.0822313249955
 10
900.08086958263902
 20
-1343.0881782150968
 42
0.0043077623700952
 10
899.91712878055387
 20
-1343.6879969469392
 42
0.0047654161815666
 10
899.76430005805287
 20
-1344.2906830357779
 10
899.72983544919862
 20
-1344.4322448129906
 42
0.0112969368451182
 10
899.53397109105208
 20
-1345.3239369736293
 10
899.50596470195796
 20
-1345.466765019713
 42
0.0130056762563843
 10
899.30512745831129
 20
-1346.6537060913579
 10
899.28458770816451
 20
-1346.797784204829
 42
0.0138721532141061
 10
899.18088470362636
 20
-1347.7046136906606
 10
899.16158921572242
 20
-1347.9281114125415
 42
0.0071254697008719
 10
899.12824256979638
 20
-1348.391298421433
 10
899.12328159564095
 20
-1348.4773024158476
 42
0.0028881799198561
 10
899.10814330234371
 20
-1348.7690441258355
 42
0.0060297297125432
 10
899.0982111025678
 20
-1349.0609930619448
 10
899.09714882090066
 20
-1349.1093854338787
 42
0.0229523164144079
 10
899.10487984868632
 20
-1349.432140280167
 10
899.1091056222067
 20
-1349.4925438141772
 42
0.0123673300682524
 10
899.12818426872491
 20
-1349.693664539358
 42
0.0128577674447398
 10
899.1573796591274
 20
-1349.8935623892658
 10
899.16450553251798
 20
-1349.9348912038818
 42
0.0285717853762218
 10
899.22899953421347
 20
-1350.2130073551903
 10
899.24266805788193
 20
-1350.2596621246739
 42
0.0316283099174422
 10
899.35847863779509
 20
-1350.5786766264982
 10
899.36152732954724
 20
-1350.5856629988161
 42
0.033898482423677
 10
899.51095904051726
 20
-1350.8732289630129
 10
899.5132677698839
 20
-1350.8770199922837
 42
0.0350228718341443
 10
899.69562806056092
 20
-1351.134071976966
 10
899.69651331233763
 20
-1351.1351510547315
 42
0.0347476747529423
 10
899.91093799957616
 20
-1351.3623361019499
 42
0.0331337701911359
 10
900.15418132532886
 20
-1351.5584647640317
 10
900.15528142383846
 20
-1351.5592374671996
 42
0.0305233319098584
 10
900.42382611941593
 20
-1351.724365637293
 10
900.42705616391231
 20
-1351.7260896491534
 42
0.027374448116261
 10
900.71960987548391
 20
-1351.8622277930426
 10
900.72471441062498
 20
-1351.8642713775139
 42
0.0240964406194475
 10
901.04019148627322
 20
-1351.973255103796
 10
901.0467748154806
 20
-1351.9751798434704
 42
0.0209636179809218
 10
901.38417496813145
 20
-1352.0586479914018
 10
901.39180742858207
 20
-1352.0601999044038
 42
0.0181388704708192
 10
901.75012982058252
 20
-1352.119615997618
 10
901.75841066895828
 20
-1352.1206821814349
 42
0.0156086547579442
 10
902.13659803315841
 20
-1352.1574183680127
 10
902.1797932854688
 20
-1352.1602568704902
 42
0.0137148329015668
 10
902.50746643077309
 20
-1352.172777125742
 10
902.55340262073423
 20
-1352.1732715588573
 42
0.0051057823881188
 10
902.78954820729177
 20
-1352.1734018132661
 42
0.0052256693312668
 10
903.02564549109684
 20
-1352.1686529888011
 10
903.09587227481916
 20
-1352.1665060227879
 42
0.0161507179032372
 10
903.4716093529205
 20
-1352.1428556524615
 10
903.4916223132941
 20
-1352.140945457174
 42
0.0101216737829674
 10
903.90564953478315
 20
-1352.0929525268084
 10
903.93970282421105
 20
-1352.0883048299984
 42
0.0245291776390445
 10
904.4164924797642
 20
-1351.999229751922
 10
904.50131579528443
 20
-1351.979033831577
 42
0.0143509212575944
 10
904.85794689922568
 20
-1351.8832291977978
 42
0.0156557857050078
 10
905.20816296395606
 20
-1351.7662179819781
 10
905.2156641784477
 20
-1351.7634478202249
 42
0.017013733362861
 10
905.57226017413177
 20
-1351.6177902053528
 10
905.57936409653666
 20
-1351.6146023697902
 42
0.0183105364405639
 10
905.93871376470452
 20
-1351.4372673279649
 10
905.94566052934169
 20
-1351.4335168930938
 42
0.0194899958149411
 10
906.30414127033328
 20
-1351.2215379111976
 10
906.31115514966223
 20
-1351.2170125689081
 42
0.0204869852962282
 10
906.66516945175863
 20
-1350.9674925538206
 10
906.67243506034356
 20
-1350.9619124884739
 42
0.021251693854505
 10
907.01842499144914
 20
-1350.6720084915819
 10
907.06494168553127
 20
-1350.6295411814822
 42
0.0215248918239386
 10
907.32496785441526
 20
-1350.3707769024909
 10
907.36999758879938
 20
-1350.3219327811375
 42
0.0114578554930988
 10
907.52478974247333
 20
-1350.146109847683
 10
907.53598427846828
 20
-1350.1327910841278
 42
0.0061531305144295
 10
907.66245892445386
 20
-1349.9785015508314
 42
0.0006325587144652
 10
907.78683740845281
 20
-1349.8224981753478
 10
907.80987754365651
 20
-1349.7935246544967
 42
0.0041897761552235
 10
907.97833294762859
 20
-1349.5780052784362
 10
908.03679506752178
 20
-1349.5019039314493
 42
0.0092993880037297
 10
908.31340699475186
 20
-1349.1276251675572
 10
908.39580148794084
 20
-1349.0116881640024
 42
0.0159321727085624
 10
908.74240797058701
 20
-1348.489513943241
 10
908.78676410597836
 20
-1348.4178343789872
 42
0.0085547317014916
 10
909.02127587130144
 20
-1348.0239594297664
 42
0.0084601156896097
 10
909.24225204874165
 20
-1347.6223325807387
 10
909.25036752257438
 20
-1347.6069728984612
 42
0.008142965428241
 10
909.47361679302958
 20
-1347.1672513858839
 10
909.48247695719601
 20
-1347.1490725439007
 42
0.0076574581319233
 10
909.70888446774734
 20
-1346.6658896686795
 10
909.71836410848573
 20
-1346.6448251903448
 42
0.0070682724215427
 10
909.94880901629949
 20
-1346.1127878855473
 10
909.95879930027422
 20
-1346.0887986965517
 42
0.0064559514441201
 10
910.19413250845446
 20
-1345.5024864300385
 10
910.20454186662118
 20
-1345.4755515045908
 42
0.0058311413905506
 10
910.44558860338111
 20
-1344.8295194102166
 10
910.45634368077208
 20
-1344.7996350690464
 42
0.0052312425817677
 10
910.70392495882243
 20
-1344.0884326551814
 10
910.71496879519236
 20
-1344.0556059431419
 42
0.0046680544794627
 10
910.96989722293347
 20
-1343.2737796273691
 10
911.01188937297047
 20
-1343.1407963900951
 42
0.0041666856440977
 10
911.21517538536591
 20
-1342.4778276150896
 10
911.25283782606402
 20
-1342.351246507319
 42
0.0015170975162718
 10
911.37402440444203
 20
-1341.9393781559424
 42
-0.0004887993115466
 10
911.49436417763627
 20
-1341.5272597436574
 10
911.57084143506017
 20
-1341.2663023579594
 42
0.0002583378925971
 10
911.84405600483296
 20
-1340.3322456557794
 10
911.92582885471074
 20
-1340.0521463951654
 42
0.0006636169666715
 10
912.11969661471267
 20
-1339.3847934716105
 10
912.1247932690012
 20
-1339.3671618889321
 42
0.0010589131323131
 10
912.30624196997633
 20
-1338.7344305456813
 10
912.31122404043435
 20
-1338.7169176387397
 42
0.0015655524459887
 10
912.4794942476392
 20
-1338.1183009594606
 10
912.48432444807622
 20
-1338.1009088004466
 42
0.0021640440481583
 10
912.63861442003963
 20
-1337.5358817825063
 10
912.64324863945876
 20
-1337.5186170525535
 42
0.0028763871854366
 10
912.78276435752286
 20
-1336.9866491016655
 10
912.78715022169399
 20
-1336.969525123498
 42
0.0037310511951294
 10
912.91110691352787
 20
-1336.4700775294873
 10
912.91518213381914
 20
-1336.453117258231
 42
0.0047652197772163
 10
913.02280603432428
 20
-1335.9856394899366
 10
913.02649663364718
 20
-1335.9688799347869
 42
0.0060276699302817
 10
913.11702673280251
 20
-1335.5328041396424
 10
913.12024542309609
 20
-1335.5163029253117
 42
0.0075824337754775
 10
913.19293473250673
 20
-1335.1110357609068
 10
913.19558010988567
 20
-1335.0948808134644
 42
0.0095130624600496
 10
913.24969534551838
 20
-1334.7197914603848
 10
913.25668156940174
 20
-1334.6638579022583
 42
0.0121054653224109
 10
913.28327289997833
 20
-1334.3989620737943
 10
913.28413938973699
 20
-1334.3875586308773
 42
0.0069050827383253
 10
913.29922820777574
 20
-1334.1446174040211
 10
913.30036350744467
 20
-1334.1210911469734
 42
0.0169063976683805
 10
913.30319078642515
 20
-1333.9248984196756
 10
913.30202013489361
 20
-1333.8645626583329
 42
0.0052007732909673
 10
913.29976668630025
 20
-1333.7889692681742
 42
0.0054038123294131
 10
913.27980317446418
 20
-1333.6689509721809
 10
913.27471731859077
 20
-1333.6402924855829
 42
0.011205046044394
 10
913.23933295653478
 20
-1333.463966047254
 10
913.22150799449173
 20
-1333.3844244605234
 42
0.0240764468014664
 10
913.13061062834367
 20
-1333.0541874250157
 10
913.11205186553252
 20
-1332.9975672600285
 42
0.0256812331840211
 10
912.96868894534327
 20
-1332.625843053771
 10
912.96327951952117
 20
-1332.6137117187805
 42
0.0268360501215798
 10
912.79385227867078
 20
-1332.2827185847605
 10
912.78831587104105
 20
-1332.2731989144568
 42
0.0274670231709519
 10
912.5961148946235
 20
-1331.980911539531
 10
912.59073359466311
 20
-1331.9736323919929
 42
0.0275035967097646
 10
912.37916071509881
 20
-1331.7181165016855
 10
912.3740912141302
 20
-1331.7126374140535
 42
0.0269557673530623
 10
912.1466876706927
 20
-1331.4919951280926
 10
912.14194461291572
 20
-1331.4878651736367
 42
0.0259124802192593
 10
911.90238978147954
 20
-1331.3001746464797
 10
911.89785893630415
 20
-1331.2969891441544
 42
0.0245162153006282
 10
911.64994258320166
 20
-1331.1402561350387
 10
911.64541603688758
 20
-1331.1376959378435
 42
0.0229282588832161
 10
911.3929964800509
 20
-1331.009827745339
 10
911.38821598622235
 20
-1331.0076754455804
 42
0.021298413567954
 10
911.13517803375271
 20
-1330.9064765283347
 10
911.12987374878867
 20
-1330.9046129655767
 42
0.0197555462334078
 10
910.88009541106021
 20
-1330.8277975476094
 42
0.0183511896770321
 10
910.62516668558692
 20
-1330.7702146406423
 10
910.53880148887674
 20
-1330.7540118502598
 42
0.033805787712442
 10
910.2532941396139
 20
-1330.7202034451193
 10
910.16228873457658
 20
-1330.715623789858
 42
0.0091990524459426
 10
910.05644162593762
 20
-1330.7122479339355
 42
0.0028333980798617
 10
909.95052770991697
 20
-1330.7114198264185
 10
909.94961225689531
 20
-1330.7114178565944
 42
-0.0023619827797754
 10
909.84186624174617
 20
-1330.710677015516
 10
909.80546107161354
 20
-1330.7102547090535
 42
0.0008824598451408
 10
909.62490508172868
 20
-1330.7084789308146
 10
909.58104364935753
 20
-1330.7081249692892
 42
0.0038132665768092
 10
909.31276075345158
 20
-1330.7080060332232
 10
909.29622709868545
 20
-1330.7081247993665
 42
0.0060665569351469
 10
908.99494660708842
 20
-1330.713945098787
 10
908.98069627506902
 20
-1330.7143934067544
 42
0.0080356953336437
 10
908.65123755872537
 20
-1330.7300611288219
 10
908.63916754364163
 20
-1330.730829711762
 42
0.0098996399120881
 10
908.28640445899327
 20
-1330.7603149409601
 10
908.27635874961652
 20
-1330.7613552371586
 42
0.0117740981390105
 10
907.90520189126892
 20
-1330.8086474846882
 10
907.89697919478476
 20
-1330.809892601259
 42
0.0137435215124
 10
907.51239037529558
 20
-1330.8789895748218
 10
907.50573333617649
 20
-1330.8803754710543
 42
0.0158359869397191
 10
907.1127362423731
 20
-1330.9752675595355
 10
907.10732305550755
 20
-1330.9767575004057
 42
0.0180554124024294
 10
906.71100801089506
 20
-1331.1013955166441
 10
906.70645122281167
 20
-1331.1030115529106
 42
0.020365743127801
 10
906.31197370499922
 20
-1331.2612718944265
 10
906.30783016599253
 20
-1331.263133515868
 42
0.0226819684663241
 10
905.92039410978668
 20
-1331.4587760945406
 10
905.91619431877098
 20
-1331.4611416864591
 42
0.024863498460757
 10
905.54101237759187
 20
-1331.6977683324053
 10
905.49281744880773
 20
-1331.7316253742306
 42
0.0267044190885925
 10
905.21852475188916
 20
-1331.9470657501001
 42
0.0139303002201309
 10
904.96235758594776
 20
-1332.1843045910155
 10
904.95750420022978
 20
-1332.1890572538723
 42
0.0283460963441436
 10
904.71343160599918
 20
-1332.4567879143201
 10
904.67376310084546
 20
-1332.50558949179
 42
0.0070695364841138
 10
904.59632587498618
 20
-1332.6036563077555
 42
0.0070695364841138
  0
LWPOLYLINE
  5
191
100
AcDbEntity
  8
template
370
              15
390
0
  6
Continuous
 62
               7
100
AcDbPolyline
 90
      226
 70
             128
 10
901.06750543773978
 20
-1348.3252451139397
 42
-0.0026277636625647
 10
901.06742755393952
 20
-1348.2584731882239
 10
901.067644912172
 20
-1348.2053179707536
 42
-0.0088680296764646
 10
901.07142152846427
 20
-1348.0323021883619
 10
901.07376788757665
 20
-1347.973022162897
 42
-0.0077381705633586
 10
901.08981399834192
 20
-1347.6817616670814
 10
901.09068190951348
 20
-1347.6694734334137
 42
-0.0068872530524407
 10
901.11731398926622
 20
-1347.3542516812972
 10
901.11851821344771
 20
-1347.3420107023258
 42
-0.006213002150202
 10
901.15611193028144
 20
-1347.0031410110387
 10
901.15761583381027
 20
-1346.9909671391706
 42
-0.0056726929668115
 10
901.20653769330875
 20
-1346.6287719170869
 10
901.20831113895747
 20
-1346.6166781168122
 42
-0.0052341884509512
 10
901.26892172521821
 20
-1346.2314848612873
 10
901.27093971399336
 20
-1346.219479931302
 42
-0.004976845017421
 10
901.34367839542028
 20
-1345.8116353638698
 10
901.36792741014233
 20
-1345.6830873808631
 42
-0.0089029805622904
 10
901.50500826194548
 20
-1345.021311933403
 10
901.53775363725526
 20
-1344.8762805029173
 42
-0.0080318257094978
 10
901.76730225160281
 20
-1343.9305708710349
 10
901.77928717804389
 20
-1343.8844402358736
 42
-0.0074265721325076
 10
902.06329871688195
 20
-1342.8543756575345
 10
902.08317826000712
 20
-1342.7862415969153
 42
-0.0069711922703251
 10
902.41048283851705
 20
-1341.7199738565755
 10
902.47043478560227
 20
-1341.5339524982683
 42
-0.0052070422899942
 10
902.69986001088182
 20
-1340.8466804211735
 10
902.71714120309298
 20
-1340.7966531404431
 42
-0.0009167004442035
 10
902.92023309034357
 20
-1340.2121972924024
 42
-0.0025162726936485
 10
903.12733072062201
 20
-1339.6291560281952
 10
903.16455533242606
 20
-1339.5260064822951
 42
-0.0028212681452934
 10
903.41273125137468
 20
-1338.8502758501636
 10
903.42256201413329
 20
-1338.823968405467
 42
-0.0031964916820329
 10
903.65885427178819
 20
-1338.2037636433597
 10
903.66848872577702
 20
-1338.1789536532424
 42
-0.0036281836455675
 10
903.89359468688872
 20
-1337.6115129723235
 10
903.90303309704268
 20
-1337.5882155408285
 42
-0.0041269166834817
 10
904.11765079370434
 20
-1337.0707746448425
 10
904.15028375015663
 20
-1336.9938961984085
 42
-0.0047472213046039
 10
904.30732855567931
 20
-1336.6334747305978
 10
904.3142226369373
 20
-1336.6180541331537
 42
-0.0025651659983953
 10
904.46258067073813
 20
-1336.2907260775173
 42
-0.0057144634992777
 10
904.61633036450166
 20
-1335.9659164041691
 10
904.64436106989706
 20
-1335.9084080217872
 42
-0.0065388068378881
 10
904.82782809764922
 20
-1335.5441755250954
 10
904.83628655342363
 20
-1335.5279159457341
 42
-0.0074510843017568
 10
905.01246879930568
 20
-1335.2012276646033
 10
905.02064846983194
 20
-1335.1865868873433
 42
-0.0084648979853221
 10
905.19028232293658
 20
-1334.8946778763734
 10
905.19813844940563
 20
-1334.8816708847535
 42
-0.0095638542795854
 10
905.3619738970192
 20
-1334.621782012744
 10
905.36944884069544
 20
-1334.610412651281
 42
-0.0107191626789694
 10
905.52825042107816
 20
-1334.3798014167446
 10
905.53526715480439
 20
-1334.3700653243873
 42
-0.0118458573895124
 10
905.68981525332219
 20
-1334.1659931290692
 42
-0.0129184518201696
 10
905.85426787691449
 20
-1333.9698326129101
 10
905.88441264928952
 20
-1333.9357065339964
 42
-0.0217742579649812
 10
906.06102497162192
 20
-1333.7524997637493
 10
906.07177051607596
 20
-1333.7422829305524
 42
-0.0097266568650598
 10
906.23782813493835
 20
-1333.5904353561091
 42
-0.0187720905738481
 10
906.41217571082507
 20
-1333.4483665027228
 10
906.44288170150503
 20
-1333.4252074203218
 42
-0.0179428207497464
 10
906.6753024214986
 20
-1333.2626552432121
 10
906.6789547484168
 20
-1333.2602913083228
 42
-0.0170047877686699
 10
906.91471838594498
 20
-1333.1188307941729
 10
906.91850137468737
 20
-1333.1167324891389
 42
-0.0160190788374624
 10
907.15540992232582
 20
-1332.9950811871486
 42
-0.0151102861497826
 10
907.3994417047752
 20
-1332.888398411093
 10
907.45182820698483
 20
-1332.8673582781989
 42
-0.0271945441893193
 10
907.81049076604359
 20
-1332.7454934674929
 10
907.87955556653014
 20
-1332.726143926227
 42
-0.0237596594034654
 10
908.2953524135537
 20
-1332.6306932142452
 10
908.36341526727938
 20
-1332.6184385261195
 42
-0.0213715440574272
 10
908.64929019872943
 20
-1332.5794914946082
 10
908.70943736494428
 20
-1332.5739017799074
 42
-0.0101465655809454
 10
908.87692989694096
 20
-1332.5617582366431
 10
908.88627028313476
 20
-1332.561271321646
 42
-0.0100375910908438
 10
909.03542438370187
 20
-1332.5564955037207
 10
909.04568365339219
 20
-1332.5563730647063
 42
-0.010362563336048
 10
909.17439164803727
 20
-1332.5575044982329
 10
909.19665729929602
 20
-1332.5581618566976
 42
-0.0115689250187755
 10
909.28070803683204
 20
-1332.5625913629428
 42
-0.0072438037432468
 10
909.36454631628294
 20
-1332.5701805626936
 10
909.381346825744
 20
-1332.5719471054167
 42
-0.0217917313180936
 10
909.49791658905542
 20
-1332.5893669981374
 10
909.56351667962554
 20
-1332.6021136065524
 42
-0.0332943556782653
 10
909.76790884465299
 20
-1332.6561538978594
 10
909.79808141320245
 20
-1332.6663219749776
 42
-0.0184824084783404
 10
909.93658646966833
 20
-1332.7187729903644
 42
-0.0198002050719767
 10
910.07066081017092
 20
-1332.7816570505656
 10
910.07254744754482
 20
-1332.7826348374438
 42
-0.0212242342999195
 10
910.20468638994953
 20
-1332.8583975762385
 10
910.20650168549037
 20
-1332.8595433784449
 42
-0.0226090605732394
 10
910.33500558672949
 20
-1332.9490230220231
 10
910.33685002844959
 20
-1332.9504352749973
 42
-0.0238457052191831
 10
910.46003210974777
 20
-1333.0544311708636
 10
910.46198483830176
 20
-1333.0562460486253
 42
-0.0248160564125609
 10
910.57818634560317
 20
-1333.1755206498356
 10
910.58028997900419
 20
-1333.1779059835389
 42
-0.0254109591470603
 10
910.68789519686652
 20
-1333.3131943694993
 10
910.69014321878331
 20
-1333.3163359179034
 42
-0.0255528488269959
 10
910.78758989758353
 20
-1333.4683629721412
 10
910.78992099749757
 20
-1333.4724445837455
 42
-0.0252146793216674
 10
910.87570202350526
 20
-1333.6419468297395
 10
910.87800426266404
 20
-1333.6471289116553
 42
-0.0244265635969037
 10
910.95065895642256
 20
-1333.8348754836938
 10
910.95990535789679
 20
-1333.8627409020492
 42
-0.0231319612885551
 10
911.00582813688652
 20
-1334.0260419488413
 42
-0.0112130424375823
 10
911.04046415942139
 20
-1334.1922455490162
 10
911.04166668453672
 20
-1334.1987421359172
 42
-0.0210527881224499
 10
911.06735315990773
 20
-1334.3797977813606
 10
911.07086375472954
 20
-1334.4152033299056
 42
-0.0190029892419383
 10
911.0863052282748
 20
-1334.6687391761834
 10
911.08711520471843
 20
-1334.7042147905468
 42
-0.0137974553700428
 10
911.08556635188415
 20
-1335.0292461972167
 10
911.08472089692805
 20
-1335.0553649418443
 42
-0.0081336634212785
 10
911.06986156170387
 20
-1335.3607124094724
 42
-0.0073526923561492
 10
911.04555302832978
 20
-1335.6654606537581
 10
911.04429160454674
 20
-1335.6787973284236
 42
-0.0066886138685427
 10
911.00855601850162
 20
-1336.0093833719184
 10
911.00689892903119
 20
-1336.0230049909123
 42
-0.0061359187342487
 10
910.95904832697579
 20
-1336.3797689710432
 10
910.95701082590767
 20
-1336.3936637738416
 42
-0.0056698610057904
 10
910.89636049514229
 20
-1336.7769423426694
 10
910.893955061817
 20
-1336.7911014619103
 42
-0.0052721077274917
 10
910.81982286100992
 20
-1337.2012288016235
 10
910.81705971217525
 20
-1337.2156454369742
 42
-0.0049289272169336
 10
910.72876559407905
 20
-1337.6529539480798
 10
910.72565309939273
 20
-1337.6676228009123
 42
-0.0047415956715391
 10
910.62241510785952
 20
-1338.1324195583284
 10
910.58764689750114
 20
-1338.2822266537064
 42
-0.0084404470891513
 10
910.39763045392283
 20
-1339.042450678261
 10
910.39150376594353
 20
-1339.0653148023912
 42
-0.0039635940262229
 10
910.1700500816678
 20
-1339.8663036666067
 10
910.15667328647942
 20
-1339.9132352832303
 42
-0.0072475040838515
 10
909.88922639861812
 20
-1340.802454999613
 10
909.81901407178339
 20
-1341.0241953496102
 42
-0.0051345458824599
 10
909.5322546997304
 20
-1341.8985205374033
 10
909.5107284329697
 20
-1341.9619468045134
 42
-0.0019150016608193
 10
909.25519502609586
 20
-1342.7054959247594
 10
909.24872742168736
 20
-1342.7240833897163
 42
-0.0021524362751495
 10
909.00024937063608
 20
-1343.428409211389
 10
908.99103894993459
 20
-1343.4541627897047
 42
-0.0024331286819587
 10
908.75478369090433
 20
-1344.1047620978088
 10
908.74573573838825
 20
-1344.1293054040702
 42
-0.0027449721793758
 10
908.52112116751778
 20
-1344.7284352830875
 10
908.51223116013625
 20
-1344.7517578729112
 42
-0.0031083229769427
 10
908.29868867351524
 20
-1345.3016819105192
 10
908.28995254182973
 20
-1345.3237716264025
 42
-0.0035311343277137
 10
908.08691135624849
 20
-1345.8267547521073
 10
908.0783260171238
 20
-1345.8475974755625
 42
-0.0040245640946756
 10
907.88521421330643
 20
-1346.3059067982103
 10
907.876778099695
 20
-1346.3254861663022
 42
-0.0046015135844857
 10
907.69302180653904
 20
-1346.7413911959243
 10
907.68473562870076
 20
-1346.7596883353981
 42
-0.005276863826921
 10
907.50975810975524
 20
-1347.1354612196465
 10
907.50162589912725
 20
-1347.1524545581915
 42
-0.0060672675649694
 10
907.33484628636234
 20
-1347.4903701813041
 10
907.32687680588424
 20
-1347.5060354402954
 42
-0.0069904648868486
 10
907.16770841187918
 20
-1347.8083712469652
 10
907.15991701225721
 20
-1347.8226817962122
 42
-0.0080637022760243
 10
907.00776515192319
 20
-1348.0917170993457
 10
907.0001761192816
 20
-1348.1046449649634
 42
-0.0093006455676402
 10
906.8544354427604
 20
-1348.3426593634495
 10
906.84708477602544
 20
-1348.3541773326087
 42
-0.0107060778050609
 10
906.7071362325778
 20
-1348.5634476500018
 10
906.70007446429099
 20
-1348.573533192578
 42
-0.0122723111414401
 10
906.56528074610014
 20
-1348.756326522056
 10
906.56495452254148
 20
-1348.7567469098713
 42
-0.0141836319636794
 10
906.4213729195717
 20
-1348.9313166676957
 10
906.41442516392181
 20
-1348.9392916679581
 42
-0.017595747719624
 10
906.27451899588505
 20
-1349.0889125563654
 42
-0.0080466359669806
 10
906.1270552308697
 20
-1349.2312350845027
 10
906.08102068633798
 20
-1349.2742555226077
 42
-0.0269600260396005
 10
905.82774044035887
 20
-1349.4865787811136
 10
905.76117330405486
 20
-1349.5365301957422
 42
-0.0178362839752925
 10
905.52122881440209
 20
-1349.7035481219928
 10
905.51398384340246
 20
-1349.7082166341975
 42
-0.0174650732628211
 10
905.27764764595941
 20
-1349.8490775991568
 42
-0.0169240130176984
 10
905.03218140010631
 20
-1349.9733698589325
 10
904.98619524454443
 20
-1349.9947318145014
 42
-0.0318883036861038
 10
904.63584438892667
 20
-1350.1310701240109
 10
904.56747885375808
 20
-1350.1527707444875
 42
-0.028443590990091
 10
904.19142872746943
 20
-1350.248988179962
 10
904.15627056697303
 20
-1350.2558817757899
 42
-0.0243909341022889
 10
903.84282710605203
 20
-1350.3016028068205
 10
903.79254637928079
 20
-1350.3064483537223
 42
-0.0196639292941267
 10
903.5769508017529
 20
-1350.3186966392359
 10
903.52512673058663
 20
-1350.3195998999727
 42
-0.010050151071214
 10
903.41270344892564
 20
-1350.3192995016193
 10
903.38104358761302
 20
-1350.3185784297348
 42
-0.0019752031187415
 10
903.33195125089969
 20
-1350.3172662695242
 10
903.32919094768931
 20
-1350.3171815776982
 42
0.0065378751873203
 10
903.28561437292319
 20
-1350.3164146864829
 42
-0.0167974694651969
 10
903.24208354998973
 20
-1350.3147547879571
 10
903.23800421072883
 20
-1350.3144617770622
 42
-0.0081283276326966
 10
903.18644441297965
 20
-1350.3099147834228
 10
903.17470483911166
 20
-1350.3086868658456
 42
-0.0126703440172036
 10
903.09998654332776
 20
-1350.2989520747756
 10
903.07719867564174
 20
-1350.2953938188589
 42
-0.0117852088389636
 10
902.9576596897914
 20
-1350.2738308236985
 10
902.9022792380465
 20
-1350.2624872834672
 42
-0.0251774592278827
 10
902.67543519903938
 20
-1350.2039892740349
 10
902.63071600919011
 20
-1350.1900224546998
 42
-0.0146525199871309
 10
902.44432302164932
 20
-1350.1257559275009
 42
-0.016692943582076
 10
902.26234536550874
 20
-1350.0499487944398
 10
902.25768873424931
 20
-1350.0478238938322
 42
-0.0191684358439341
 10
902.07250510302038
 20
-1349.9545878100535
 10
902.06917251724281
 20
-1349.9527465624888
 42
-0.0221181781819683
 10
901.8858622133348
 20
-1349.8406130641142
 10
901.88351240933207
 20
-1349.8390287661273
 42
-0.0254984685357102
 10
901.70722225894315
 20
-1349.7066176161547
 10
901.68474011124636
 20
-1349.6878653072226
 42
-0.0292492648780325
 10
901.55997117240167
 20
-1349.5707725075781
 42
-0.0159048957534349
 10
901.44613117495828
 20
-1349.4427525159867
 10
901.4448123843722
 20
-1349.4411709029591
 42
-0.0343813379544948
 10
901.34217512274336
 20
-1349.2992995771851
 10
901.31068359138317
 20
-1349.2487961850929
 42
-0.0369117275675412
 10
901.22479108948846
 20
-1349.0853189441473
 42
-0.0191751379904743
 10
901.15759770392833
 20
-1348.9129143381324
 10
901.15583438017165
 20
-1348.9078209934664
 42
-0.0378178042238594
 10
901.1060396613866
 20
-1348.7188802173778
 10
901.10004436566032
 20
-1348.6863195992059
 42
-0.0184846046511859
 10
901.07932716636333
 20
-1348.5445667786435
 42
-0.0179866351290556
 10
901.06899416128817
 20
-1348.4016759655428
 10
901.06893771884279
 20
-1348.4001182789493
 42
-0.0085497186079524
 10
901.06750543773978
 20
-1348.3252451139397
 42
-0.0085497186079524
  0
MTEXT
  5
192
100
AcDbEntity
  8
template
390
0
 62
               7
100
AcDbMText
 10
784.00000000050204
 20
-1248.2359752562934
 30
0.0
 40
24.432617187500004
 41
0.0
 71
               1
 72
               1
  1
1:10
  7
ＭＳ ゴシック
 73
               1
 44
0.7828267384257843
  0
MTEXT
  5
193
100
AcDbEntity
  8
template
390
0
 62
               7
100
AcDbMText
 10
731.00000000050204
 20
-1219.6535143187934
 30
0.0
 40
16.288411458333332
 41
0.0
 71
               1
 72
               1
  1
縮尺
  7
ＭＳ ゴシック
 73
               1
 44
0.7828267384257843
  0
LINE
  5
194
100
AcDbEntity
  8
template
370
               5
390
0
  6
Continuous
 62
               7
100
AcDbLine
 10
724.00000000050204
 20
-1296.2385924437936
 30
0.0
 11
724.00000000050204
 21
-1211.2385924437936
 31
0.0
  0
MTEXT
  5
195
100
AcDbEntity
  8
template
390
0
 62
               7
100
AcDbMText
 10
480.00000000050204
 20
-1219.6535143187934
 30
0.0
 40
16.288411458333332
 41
0.0
 71
               1
 72
               1
  1
容量
  7
ＭＳ ゴシック
 73
               1
 44
0.7828267384257843
  0
MTEXT
  5
196
100
AcDbEntity
  8
template
390
0
 62
               7
100
AcDbMText
 10
533.00000000050204
 20
-1248.2359752562934
 30
0.0
 40
24.432617187500004
 41
0.0
 71
               1
 72
               1
  1
2.5L
  7
ＭＳ ゴシック
 73
               1
 44
0.7828267384257843
  0
LINE
  5
197
100
AcDbEntity
  8
template
370
               5
390
0
  6
Continuous
 62
               7
100
AcDbLine
 10
473.00000000050204
 20
-1296.2385924437936
 30
0.0
 11
473.00000000050204
 21
-1211.2385924437936
 31
0.0
  0
MTEXT
  5
198
100
AcDbEntity
  8
template
390
0
 62
               7
100
AcDbMText
 10
229.00000000050204
 20
-1134.6535143187934
 30
0.0
 40
16.288411458333332
 41
0.0
 71
               1
 72
               1
  1
品番
  7
ＭＳ ゴシック
 73
               1
 44
0.7828267384257843
  0
MTEXT
  5
199
100
AcDbEntity
  8
template
390
0
 62
               7
100
AcDbMText
 10
229.00000000050204
 20
-1219.6535143187934
 30
0.0
 40
16.288411458333332
 41
0.0
 71
               1
 72
               1
  1
重量
  7
ＭＳ ゴシック
 73
               1
 44
0.7828267384257843
  0
MTEXT
  5
19A
100
AcDbEntity
  8
template
390
0
 62
               7
100
AcDbMText
 10
282.00000000050204
 20
-1163.2359752562934
 30
0.0
 40
24.432617187500004
 41
0.0
 71
               1
 72
               1
  1
ARJ70-0205(旧品番:AQI70-0205)
  7
ＭＳ ゴシック
 73
               1
 44
0.7828267384257843
  0
MTEXT
  5
19B
100
AcDbEntity
  8
template
390
0
 62
               7
100
AcDbMText
 10
282.00000000050204
 20
-1248.2359752562934
 30
0.0
 40
24.432617187500004
 41
0.0
 71
               1
 72
               1
  1
29kg
  7
ＭＳ ゴシック
 73
               1
 44
0.7828267384257843
  0
LINE
  5
19C
100
AcDbEntity
  8
template
370
               5
390
0
  6
Continuous
 62
               7
100
AcDbLine
 10
222.00000000050204
 20
-1381.2385924437936
 30
0.0
 11
222.00000000050204
 21
-1126.2385924437936
 31
0.0
  0
MTEXT
  5
19D
100
AcDbEntity
  8
template
390
0
 62
               7
100
AcDbMText
 10
-914.99999999975807
 20
-1163.2359752562934
 30
0.0
 40
24.432617187500004
 41
0.0
 71
               1
 72
               1
  1
洗面器 -POZZI GINORI,Easy.02-
  7
ＭＳ ゴシック
 73
               1
 44
0.7828267384257843
  0
MTEXT
  5
19E
100
AcDbEntity
  8
template
390
0
 62
               7
100
AcDbMText
 10
-914.99999999975807
 20
-1248.2359752562934
 30
0.0
 40
24.432617187500004
 41
0.0
 71
               1
 72
               1
  1
壁掛け/オーバーフロー付き/壁取付ボルト付属/陶器/ホワイト
  7
ＭＳ ゴシック
 73
               1
 44
1.3047112307096407
  0
MTEXT
  5
19F
100
AcDbEntity
  8
notes
390
0
 62
               7
100
AcDbMText
 10
-659.59419906051153
 20
176.69076852002581
 30
0.0
 40
24.432617187500004
 41
834.73481196188936
 71
               1
 72
               1
  1
＝φ30もしくはφ35の水栓取付用穴あけ加工を承ります。\P  必要な場合、ご注文の際にご指示ください。
  7
ＭＳ ゴシック
 73
               1
 44
1.0437689845677123
  0
MTEXT
  5
1A0
100
AcDbEntity
  8
notes
390
0
 62
               7
100
AcDbMText
 10
-883.58527811712611
 20
-594.58681968195083
 30
0.0
 40
24.432617187500004
 41
0.0
 71
               1
 72
               1
  1
壁取付ボルト穴(4ヶ所)
  7
ＭＳ ゴシック
 73
               1
 44
0.7828267384257843
  0
LINE
  5
1A1
100
AcDbEntity
  8
notes
370
               5
390
0
  6
Continuous
 62
               7
100
AcDbLine
 10
-620.00341567008309
 20
-405.8346290014988
 30
0.0
 11
-721.64089829078239
 21
-581.87591285395024
 31
0.0
  0
CIRCLE
  5
1A2
100
AcDbEntity
  8
notes
370
              15
390
0
  6
STYLE_13
 62
               7
100
AcDbCircle
 10
-682.85938709862239
 20
159.97236271906536
 30
0.0
 40
14.999999999999995
  0
DIMENSION
  5
1A3
100
AcDbEntity
  8
notes
370
               5
390
0
  6
Continuous
 62
               7
100
AcDbDimension
  2
*D2
 10
230.0
 20
870.0
 30
0.0
 11
230.0
 21
605.0
 31
0.0
 71
               5
 72
               1
 41
1.0
 42
0.0
  3
tform線あり
100
AcDbAlignedDimension
 13
100.0
 23
340.0
 33
0.0
 14
100.0
 24
870.0
 34
0.0
 50
90.0
100
AcDbRotatedDimension
1001
ACAD
1000
DSTYLE
1002
{
1070
             279
1070
               2
1070
             340
1005
3A
1070
             147
1040
5.0
1002
}
  0
DIMENSION
  5
1A4
100
AcDbEntity
  8
notes
370
               5
390
0
  6
Continuous
 62
               7
100
AcDbDimension
  2
*D3
 10
918.28811950091495
 20
-260.87591285395001
 30
0.0
 11
878.28811950091495
 21
-260.87591285395001
 31
0.0
 71
               5
 72
               1
 41
1.0
 42
0.0
  3
tform線あり
100
AcDbAlignedDimension
 13
838.28811950091495
 23
-345.92219788355078
 33
0.0
 14
918.28811950091495
 24
-355.92219788355078
 34
0.0
100
AcDbRotatedDimension
1001
ACAD
1000
DSTYLE
1002
{
1070
             279
1070
               2
1070
             340
1005
3A
1070
             147
1040
5.0
1002
}
  0
DIMENSION
  5
1A5
100
AcDbEntity
  8
notes
370
               5
390
0
  6
Continuous
 62
               7
100
AcDbDimension
  2
*D4
 10
-334.41116036498624
 20
780.07183516782891
 30
0.0
 11
-108.85938709862239
 21
894.12408714604987
 31
0.0
 70
               3
 71
               5
 72
               1
 41
1.0
 42
0.0
  3
tform線あり
100
AcDbDiametricDimension
 15
-305.58883963501194
 25
799.9281648321637
 35
0.0
 40
166.03558344964651
1001
ACAD
1000
DSTYLE
1002
{
1070
             289
1070
               0
1070
             342
1005
4C
1070
             340
1005
3A
1070
              73
1070
               1
1070
              74
1070
               1
1070
              75
1070
               1
1070
              76
1070
               1
1070
               3
1000

1070
             174
1070
               0
1070
             147
1040
5.0
1002
}
  0
DIMENSION
  5
1A6
100
AcDbEntity
  8
notes
370
               5
390
0
  6
Continuous
 62
               7
100
AcDbDimension
  2
*D5
 10
-770.0
 20
1020.0
 30
0.0
 11
-320.0
 21
1020.0
 31
0.0
 71
               5
 72
               1
 41
1.0
 42
0.0
  3
tform線あり
100
AcDbAlignedDimension
 13
130.0
 23
820.0
 33
0.0
 14
-770.0
 24
820.0
 34
0.0
100
AcDbRotatedDimension
1001
ACAD
1000
DSTYLE
1002
{
1070
             279
1070
               2
1070
             340
1005
3A
1070
             147
1040
5.0
1002
}
  0
DIMENSION
  5
1A7
100
AcDbEntity
  8
notes
370
               5
390
0
  6
Continuous
 62
               7
100
AcDbDimension
  2
*D6
 10
-419.99999999999909
 20
908.0
 30
0.0
 11
-369.99999999999909
 21
908.0
 31
0.0
 71
               5
 72
               1
 41
1.0
 42
0.0
  3
tform線あり
100
AcDbAlignedDimension
 13
-319.99999999999909
 23
810.49999999999636
 33
0.0
 14
-419.99999999999909
 24
793.94106900000043
 34
0.0
100
AcDbRotatedDimension
1001
ACAD
1000
DSTYLE
1002
{
1070
             279
1070
               2
1070
             340
1005
3A
1070
             147
1040
5.0
1002
}
  0
DIMENSION
  5
1A8
100
AcDbEntity
  8
notes
370
               5
390
0
  6
Continuous
 62
               7
100
AcDbDimension
  2
*D7
 10
-319.99999999999909
 20
908.0
 30
0.0
 11
-270.00462401337154
 21
913.0
 31
0.0
 70
             128
 71
               5
 72
               1
 41
1.0
 42
0.0
  3
tform線あり
100
AcDbAlignedDimension
 13
-220.00924802674399
 23
793.94106900000043
 33
0.0
 14
-319.99999999999909
 24
810.49999999999636
 34
0.0
100
AcDbRotatedDimension
1001
ACAD
1000
DSTYLE
1002
{
1070
             279
1070
               2
1070
             340
1005
3A
1070
             147
1040
5.0
1002
}
  0
DIMENSION
  5
1A9
100
AcDbEntity
  8
notes
370
               5
390
0
  6
Continuous
 62
               7
100
AcDbDimension
  2
*D8
 10
-739.99999999999909
 20
970.0
 30
0.0
 11
-319.99999999999909
 21
970.0
 31
0.0
 71
               5
 72
               1
 41
1.0
 42
0.0
  3
tform線あり
100
AcDbAlignedDimension
 13
100.0
 23
870.0
 33
0.0
 14
-739.99999999999909
 24
870.0
 34
0.0
100
AcDbRotatedDimension
1001
ACAD
1000
DSTYLE
1002
{
1070
             279
1070
               2
1070
             340
1005
3A
1070
             147
1040
5.0
1002
}
  0
DIMENSION
  5
1AA
100
AcDbEntity
  8
notes
370
               5
390
0
  6
Continuous
 62
               7
100
AcDbDimension
  2
*D9
 10
-870.0
 20
870.0
 30
0.0
 11
-870.0
 21
797.5
 31
0.0
 71
               5
 72
               1
 41
1.0
 42
0.0
  3
tform線あり
100
AcDbAlignedDimension
 13
-770.0
 23
725.0
 33
0.0
 14
-739.99999999999909
 24
870.0
 34
0.0
 50
90.0
100
AcDbRotatedDimension
1001
ACAD
1000
DSTYLE
1002
{
1070
             279
1070
               2
1070
             340
1005
3A
1070
             147
1040
5.0
1002
}
  0
DIMENSION
  5
1AB
100
AcDbEntity
  8
notes
370
               5
390
0
  6
Continuous
 62
               7
100
AcDbDimension
  2
*D10
 10
-870.0
 20
725.0
 30
0.0
 11
-870.0
 21
572.5
 31
0.0
 71
               5
 72
               1
 41
1.0
 42
0.0
  3
tform線あり
100
AcDbAlignedDimension
 13
-770.0
 23
420.0
 33
0.0
 14
-770.0
 24
725.0
 34
0.0
 50
90.0
100
AcDbRotatedDimension
1001
ACAD
1000
DSTYLE
1002
{
1070
             279
1070
               2
1070
             340
1005
3A
1070
             147
1040
5.0
1002
}
  0
DIMENSION
  5
1AC
100
AcDbEntity
  8
notes
370
               5
390
0
  6
Continuous
 62
               7
100
AcDbDimension
  2
*D11
 10
-595.0
 20
240.0
 30
0.0
 11
-320.00000000000091
 21
240.0
 31
0.0
 71
               5
 72
               1
 41
1.0
 42
0.0
  3
tform線あり
100
AcDbAlignedDimension
 13
-45.000000000000909
 23
340.0
 33
0.0
 14
-595.0
 24
340.0
 34
0.0
100
AcDbRotatedDimension
1001
ACAD
1000
DSTYLE
1002
{
1070
             279
1070
               2
1070
             340
1005
3A
1070
             147
1040
5.0
1002
}
  0
DIMENSION
  5
1AD
100
AcDbEntity
  8
notes
370
               5
390
0
  6
Continuous
 62
               7
100
AcDbDimension
  2
*D12
 10
-45.000000000000909
 20
240.0
 30
0.0
 11
42.499999999999091
 21
240.0
 31
0.0
 71
               5
 72
               1
 41
1.0
 42
0.0
  3
tform線あり
100
AcDbAlignedDimension
 13
130.0
 23
375.0
 33
0.0
 14
-45.000000000000909
 24
340.0
 34
0.0
100
AcDbRotatedDimension
1001
ACAD
1000
DSTYLE
1002
{
1070
             279
1070
               2
1070
             340
1005
3A
1070
             147
1040
5.0
1002
}
  0
DIMENSION
  5
1AE
100
AcDbEntity
  8
notes
370
               5
390
0
  6
Continuous
 62
               7
100
AcDbDimension
  2
*D13
 10
-153.50924802674399
 20
780.0
 30
0.0
 11
-148.50924802674399
 21
767.12408714604976
 31
0.0
 70
             128
 71
               5
 72
               1
 41
1.0
 42
0.0
  3
tform線あり
100
AcDbAlignedDimension
 13
-205.00924802674399
 23
870.0
 33
0.0
 14
-205.00924802674399
 24
780.0
 34
0.0
 50
90.0
100
AcDbRotatedDimension
1001
ACAD
1000
DSTYLE
1002
{
1070
             279
1070
               2
1070
             340
1005
3A
1070
             174
1070
               0
1070
             147
1040
5.0
1002
}
  0
DIMENSION
  5
1AF
100
AcDbEntity
  8
notes
370
               5
390
0
  6
Continuous
 62
               7
100
AcDbDimension
  2
*D14
 10
-620.00341567008309
 20
-245.92219788355078
 30
0.0
 11
-540.00341567008309
 21
-245.92219788355078
 31
0.0
 71
               5
 72
               1
 41
1.0
 42
0.0
  3
tform線あり
100
AcDbAlignedDimension
 13
-460.00341567008309
 23
-390.8346290014988
 33
0.0
 14
-620.00341567008309
 24
-385.8346290014988
 34
0.0
100
AcDbRotatedDimension
1001
ACAD
1000
DSTYLE
1002
{
1070
             279
1070
               2
1070
             340
1005
3A
1070
             147
1040
5.0
1002
}
  0
DIMENSION
  5
1B0
100
AcDbEntity
  8
notes
370
               5
390
0
  6
Continuous
 62
               7
100
AcDbDimension
  2
*D15
 10
-460.00341567008309
 20
-245.92219788355078
 30
0.0
 11
-320.00341567008309
 21
-245.92219788355078
 31
0.0
 71
               5
 72
               1
 41
1.0
 42
0.0
  3
tform線あり
100
AcDbAlignedDimension
 13
-180.00341567008218
 23
-390.8346290014988
 33
0.0
 14
-460.00341567008309
 24
-390.8346290014988
 34
0.0
100
AcDbRotatedDimension
1001
ACAD
1000
DSTYLE
1002
{
1070
             279
1070
               2
1070
             340
1005
3A
1070
             147
1040
5.0
1002
}
  0
DIMENSION
  5
1B1
100
AcDbEntity
  8
notes
370
               5
390
0
  6
Continuous
 62
               7
100
AcDbDimension
  2
*D16
 10
-180.00341567008218
 20
-245.92219788355078
 30
0.0
 11
-100.00341567008309
 21
-245.92219788355078
 31
0.0
 71
               5
 72
               1
 41
1.0
 42
0.0
  3
tform線あり
100
AcDbAlignedDimension
 13
-20.003415670083086
 23
-390.8346290014988
 33
0.0
 14
-180.00341567008218
 24
-390.8346290014988
 34
0.0
100
AcDbRotatedDimension
1001
ACAD
1000
DSTYLE
1002
{
1070
             279
1070
               2
1070
             340
1005
3A
1070
             147
1040
5.0
1002
}
  0
DIMENSION
  5
1B2
100
AcDbEntity
  8
notes
370
               5
390
0
  6
Continuous
 62
               7
100
AcDbDimension
  2
*D17
 10
676.14061290137761
 20
-485.92212825374281
 30
0.0
 11
681.14061290137761
 21
-335.87591285395001
 31
0.0
 70
             128
 71
               5
 72
               1
 41
1.0
 42
0.0
  3
tform線あり
100
AcDbAlignedDimension
 13
658.15437239461244
 23
-345.92219788355078
 33
0.0
 14
658.15437239461244
 24
-485.92212825374281
 34
0.0
 50
90.0
100
AcDbRotatedDimension
1001
ACAD
1000
DSTYLE
1002
{
1070
             279
1070
               2
1070
             340
1005
3A
1070
               3
1000
<>(深さ)
1070
             174
1070
               0
1070
             147
1040
5.0
1002
}
  0
DIMENSION
  5
1B3
100
AcDbEntity
  8
notes
370
               5
390
0
  6
Continuous
 62
               7
100
AcDbDimension
  2
*D18
 10
-870.0
 20
-405.90000000000009
 30
0.0
 11
-870.0
 21
-375.90000000000009
 31
0.0
 71
               5
 72
               1
 41
1.0
 42
0.0
  3
tform線あり
100
AcDbAlignedDimension
 13
-759.80924802674417
 23
-345.90000000000009
 33
0.0
 14
-635.00341567008309
 24
-405.90000000000009
 34
0.0
 50
90.0
100
AcDbRotatedDimension
1001
ACAD
1000
DSTYLE
1002
{
1070
             279
1070
               2
1070
             340
1005
3A
1070
             147
1040
5.0
1002
}
  0
DIMENSION
  5
1B4
100
AcDbEntity
  8
notes
370
               5
390
0
  6
Continuous
 62
               7
100
AcDbDimension
  2
*D19
 10
288.34268778306887
 20
-345.92219788355078
 30
0.0
 11
288.34268778306887
 21
-405.92219788355123
 31
0.0
 71
               5
 72
               1
 41
1.0
 42
0.0
  3
tform線あり
100
AcDbAlignedDimension
 13
393.34104493761606
 23
-465.92219788355169
 33
0.0
 14
393.34104493761606
 24
-345.92219788355078
 34
0.0
 50
90.0
100
AcDbRotatedDimension
1001
ACAD
1000
DSTYLE
1002
{
1070
             279
1070
               2
1070
             340
1005
3A
1070
             147
1040
5.0
1002
}
  0
DIMENSION
  5
1B5
100
AcDbEntity
  8
notes
370
               5
390
0
  6
Continuous
 62
               7
100
AcDbDimension
  2
*D20
 10
288.34268778306887
 20
-465.92219788355169
 30
0.0
 11
288.34268778306887
 21
-498.42216306864725
 31
0.0
 71
               5
 72
               1
 41
1.0
 42
0.0
  3
tform線あり
100
AcDbAlignedDimension
 13
638.21759421712795
 23
-530.92212825374281
 33
0.0
 14
393.34104493761606
 24
-465.92219788355169
 34
0.0
 50
90.0
100
AcDbRotatedDimension
1001
ACAD
1000
DSTYLE
1002
{
1070
             279
1070
               2
1070
             340
1005
3A
1070
             147
1040
5.0
1002
}
  0
DIMENSION
  5
1B6
100
AcDbEntity
  8
notes
370
               5
390
0
  6
Continuous
 62
               7
100
AcDbDimension
  2
*D21
 10
918.28811950091495
 20
-630.92212825374304
 30
0.0
 11
798.28811950091495
 21
-630.92212825374304
 31
0.0
 71
               5
 72
               1
 41
1.0
 42
0.0
  3
tform線あり
100
AcDbAlignedDimension
 13
678.28811950091495
 23
-530.92212825374281
 33
0.0
 14
918.28811950091495
 24
-521.87438808220895
 34
0.0
100
AcDbRotatedDimension
1001
ACAD
1000
DSTYLE
1002
{
1070
             279
1070
               2
1070
             340
1005
3A
1070
             147
1040
5.0
1002
}
  0
DIMENSION
  5
1B7
100
AcDbEntity
  8
notes
370
               5
390
0
  6
Continuous
 62
               7
100
AcDbDimension
  2
*D22
 10
229.93946980972487
 20
-345.92219788355078
 30
0.0
 11
229.93946980972487
 21
-438.4221630686468
 31
0.0
 71
               5
 72
               1
 41
1.0
 42
0.0
  3
tform線あり
100
AcDbAlignedDimension
 13
-286.00341567008218
 23
-530.92212825374281
 33
0.0
 14
112.71732832991802
 24
-345.92219788355078
 34
0.0
 50
90.0
100
AcDbRotatedDimension
1001
ACAD
1000
DSTYLE
1002
{
1070
             279
1070
               2
1070
             340
1005
3A
1070
             147
1040
5.0
1002
}
  0
DIMENSION
  5
1B8
100
AcDbEntity
  8
notes
370
               5
390
0
  6
Continuous
 62
               7
100
AcDbDimension
  2
*D23
 10
-620.00341567008309
 20
-245.87591285395001
 30
0.0
 11
-695.00341567008309
 21
-245.87591285395001
 31
0.0
 71
               5
 72
               1
 41
1.0
 42
0.0
  3
tform線あり
100
AcDbAlignedDimension
 13
-770.00341567008309
 23
-350.96813677085174
 33
0.0
 14
-620.00341567008309
 24
-385.8346290014988
 34
0.0
100
AcDbRotatedDimension
1001
ACAD
1000
DSTYLE
1002
{
1070
             279
1070
               2
1070
             340
1005
3A
1070
             147
1040
5.0
1002
}
  0
SPLINE
  5
1B9
100
AcDbEntity
  8
ARJ70-0205
370
              15
390
0
  6
Continuous
 62
               7
100
AcDbSpline
210
0.0
220
0.0
230
1.0
 70
               8
 71
               2
 72
              13
 73
              10
 74
               0
 42
0.000001
 43
0.000001
 40
0.0
 40
0.0
 40
0.0
 40
1.0
 40
1.0
 40
2.0
 40
3.0
 40
4.0
 40
5.0
 40
5.0
 40
6.0
 40
6.0
 40
6.0
 10
-365.70910414298578
 20
-519.68372898543976
 30
0.0
 10
-365.74921117362192
 20
-519.68006462741141
 30
0.0
 10
-365.78931820425805
 20
-519.67640026938307
 30
0.0
 10
-370.18011591145478
 20
-519.28751550099469
 30
0.0
 10
-393.61958919586323
 20
-516.69129922321281
 30
0.0
 10
-438.96706315214487
 20
-507.26648978591948
 30
0.0
 10
-498.76908442107197
 20
-485.5481837145162
 30
0.0
 10
-530.39014444500026
 20
-466.24680331237687
 30
0.0
 10
-530.65364227893133
 20
-466.08450059795928
 30
0.0
 10
-530.91714011286149
 20
-465.92219788354168
 30
0.0
  0
LINE
  5
1BA
100
AcDbEntity
  8
ARJ70-0205
370
              15
390
0
  6
Continuous
 62
               7
100
AcDbLine
 10
-766.87170549396615
 20
-465.9221978835526
 30
0.0
 11
126.86487415379906
 21
-465.9221978835526
 31
0.0
  0
ARC
  5
1BB
100
AcDbEntity
  8
ARJ70-0205
370
              15
390
0
  6
STYLE_13
 62
               7
100
AcDbCircle
 10
-326.84770740785461
 20
-149.3684963548626
 30
0.0
 40
337.49999999999977
100
AcDbArc
 50
218.57598160709344
 51
265.21860218332813
  0
LINE
  5
1BC
100
AcDbEntity
  8
ARJ70-0205
370
              15
390
0
  6
Continuous
 62
               7
100
AcDbLine
 10
-764.94809133575291
 20
-345.92219788355078
 30
0.0
 11
124.94125999558764
 21
-345.92219788355078
 31
0.0
  0
LINE
  5
1BD
100
AcDbEntity
  8
ARJ70-0205
370
              15
390
0
  6
Continuous
 62
               7
100
AcDbLine
 10
95.0
 20
830.0
 30
0.0
 11
-734.99999999999909
 21
830.0
 31
0.0
  0
LINE
  5
1BE
100
AcDbEntity
  8
ARJ70-0205
370
              15
390
0
  6
Continuous
 62
               7
100
AcDbLine
 10
95.0
 20
825.0
 30
0.0
 11
-734.99999999999909
 21
825.0
 31
0.0
  0
LINE
  5
1BF
100
AcDbEntity
  8
ARJ70-0205
370
              15
390
0
  6
Continuous
 62
               7
100
AcDbLine
 10
95.0
 20
365.0
 30
0.0
 11
-734.99999999999909
 21
365.0
 31
0.0
  0
LINE
  5
1C0
100
AcDbEntity
  8
ARJ70-0205
370
              15
390
0
  6
Continuous
 62
               7
100
AcDbLine
 10
95.0
 20
360.0
 30
0.0
 11
-734.99999999999909
 21
360.0
 31
0.0
  0
LWPOLYLINE
  5
1C1
100
AcDbEntity
  8
ARJ70-0205
370
              15
390
0
  6
Continuous
 62
               7
100
AcDbPolyline
 90
        8
 70
             129
 10
-739.99999999999909
 20
850.0
 42
0.4142135623730862
 10
-770.0
 20
820.0
 10
-770.0
 20
370.0
 42
0.4142135623731039
 10
-739.99999999999909
 20
340.0
 10
100.0
 20
340.0
 42
0.414213562373095
 10
130.0
 20
370.0
 10
130.0
 20
820.0
 42
0.414213562373095
 10
100.0
 20
850.0
  0
LWPOLYLINE
  5
1C2
100
AcDbEntity
  8
ARJ70-0205
370
              15
390
0
  6
Continuous
 62
               7
100
AcDbPolyline
 90
        2
 70
             128
 10
-149.49578014033614
 20
704.66927168268478
 42
0.1098192872956053
 10
-490.51434359312861
 20
704.66927168268296
  0
LWPOLYLINE
  5
1C3
100
AcDbEntity
  8
ARJ70-0205
370
              15
390
0
  6
Continuous
 62
               7
100
AcDbPolyline
 90
        2
 70
             128
 10
-490.51434359311679
 20
438.26888594249249
 42
0.1070668752779502
 10
-157.85146426325173
 20
436.45890356322036
  0
POLYLINE
  5
1C4
100
AcDbEntity
  8
ARJ70-0205
370
              15
390
0
  6
Continuous
 62
               7
100
AcDb2dPolyline
 66
               1
 10
0.0
 20
0.0
 30
0.0
 75
               5
  0
VERTEX
  5
1C5
100
AcDbEntity
  8
ARJ70-0205
370
              15
390
0
  6
Continuous
 62
               7
100
AcDbVertex
100
AcDb2dVertex
 10
100.0
 20
850.0
 30
0.0
  0
VERTEX
  5
1C6
100
AcDbEntity
  8
ARJ70-0205
370
              15
390
0
  6
Continuous
 62
               7
100
AcDbVertex
100
AcDb2dVertex
 10
100.0
 20
870.0
 30
0.0
  0
VERTEX
  5
1C7
100
AcDbEntity
  8
ARJ70-0205
370
              15
390
0
  6
Continuous
 62
               7
100
AcDbVertex
100
AcDb2dVertex
 10
-739.99999999999909
 20
870.0
 30
0.0
  0
VERTEX
  5
1C8
100
AcDbEntity
  8
ARJ70-0205
370
              15
390
0
  6
Continuous
 62
               7
100
AcDbVertex
100
AcDb2dVertex
 10
-739.99999999999909
 20
850.0
 30
0.0
  0
SEQEND
  5
1C9
100
AcDbEntity
  8
ARJ70-0205
370
              15
390
0
  6
Continuous
 62
               7
  0
LWPOLYLINE
  5
1CA
100
AcDbEntity
  8
ARJ70-0205
370
              15
390
0
  6
Continuous
 62
               7
100
AcDbPolyline
 90
        3
 70
             128
 10
-490.51434331448581
 20
704.66927132613569
 42
0.3442944984489416
 10
-594.56903915626299
 20
571.46907831108706
 42
0.3442944984489469
 10
-490.51434331448399
 20
438.26888529603809
  0
LINE
  5
1CB
100
AcDbEntity
  8
ARJ70-0205
370
              15
390
0
  6
Continuous
 62
               7
100
AcDbLine
 10
-744.99999999999909
 20
375.0
 30
0.0
 11
-744.99999999999909
 21
815.0
 31
0.0
  0
LINE
  5
1CC
100
AcDbEntity
  8
ARJ70-0205
370
              15
390
0
  6
Continuous
 62
               7
100
AcDbLine
 10
-750.0
 20
375.0
 30
0.0
 11
-750.0
 21
815.0
 31
0.0
  0
ARC
  5
1CD
100
AcDbEntity
  8
ARJ70-0205
370
              15
390
0
  6
Continuous
 62
               7
100
AcDbCircle
 10
-734.99999999999909
 20
375.0
 30
0.0
 40
15.0
100
AcDbArc
 50
180.0
 51
270.0
  0
ARC
  5
1CE
100
AcDbEntity
  8
ARJ70-0205
370
              15
390
0
  6
Continuous
 62
               7
100
AcDbCircle
 10
-734.99999999999909
 20
375.0
 30
0.0
 40
10.0
100
AcDbArc
 50
180.0
 51
270.0
  0
ARC
  5
1CF
100
AcDbEntity
  8
ARJ70-0205
370
              15
390
0
  6
Continuous
 62
               7
100
AcDbCircle
 10
-732.70153774417122
 20
-899.15991437410185
 30
0.0
 40
433.29924580039341
100
AcDbArc
 50
63.504263656554343
 51
90.965583475621713
  0
ARC
  5
1D0
100
AcDbEntity
  8
ARJ70-0205
370
              15
390
0
  6
Continuous
 62
               7
100
AcDbCircle
 10
-734.99999999999909
 20
815.0
 30
0.0
 40
15.0
100
AcDbArc
 50
90.0
 51
180.0
  0
ARC
  5
1D1
100
AcDbEntity
  8
ARJ70-0205
370
              15
390
0
  6
Continuous
 62
               7
100
AcDbCircle
 10
-734.99999999999909
 20
815.0
 30
0.0
 40
10.0
100
AcDbArc
 50
90.0
 51
180.0
  0
LINE
  5
1D2
100
AcDbEntity
  8
ARJ70-0205
370
              15
390
0
  6
Continuous
 62
               7
100
AcDbLine
 10
-474.61970355401536
 20
-521.87438808220895
 30
0.0
 11
-494.78009700471011
 21
-521.87438808220895
 31
0.0
  0
ARC
  5
1D3
100
AcDbEntity
  8
ARJ70-0205
370
              15
390
0
  6
Continuous
 62
               7
100
AcDbCircle
 10
-468.96853912349525
 20
-511.87438808220895
 30
0.0
 40
10.0
100
AcDbArc
 50
270.0
 51
333.75372080854055
  0
LINE
  5
1D4
100
AcDbEntity
  8
ARJ70-0205
370
              15
390
0
  6
Continuous
 62
               7
100
AcDbLine
 10
-474.61970355401536
 20
-521.87438808220895
 30
0.0
 11
-468.96853912349525
 21
-521.87438808220895
 31
0.0
  0
LINE
  5
1D5
100
AcDbEntity
  8
ARJ70-0205
370
              15
390
0
  6
Continuous
 62
               7
100
AcDbLine
 10
-459.99952450320779
 20
-516.29669254267765
 30
0.0
 11
-452.94156292383923
 21
-501.9822189100546
 31
0.0
  0
ARC
  5
1D6
100
AcDbEntity
  8
ARJ70-0205
370
              15
390
0
  6
Continuous
 62
               7
100
AcDbCircle
 10
-494.78009700471011
 20
-421.87438808220804
 30
0.0
 40
99.999999999999815
100
AcDbArc
 50
243.50426365655446
 51
270.0
  0
LINE
  5
1D7
100
AcDbEntity
  8
ARJ70-0205
370
              15
390
0
  6
STYLE_13
 62
               7
100
AcDbLine
 10
-744.98685762625519
 20
-355.92219752908477
 30
0.0
 11
-594.56088548731987
 21
-357.91151942579063
 31
0.0
  0
ARC
  5
1D8
100
AcDbEntity
  8
ARJ70-0205
370
              15
390
0
  6
STYLE_13
 62
               7
100
AcDbCircle
 10
-752.72415967008055
 20
-348.92219788355078
 30
0.0
 40
2.9999999999998797
100
AcDbArc
 50
24.917610999967334
 51
90.0
  0
LINE
  5
1D9
100
AcDbEntity
  8
ARJ70-0205
370
              15
390
0
  6
Continuous
 62
               7
100
AcDbLine
 10
-766.87170549396615
 20
-465.9221978835526
 30
0.0
 11
-740.00341567008218
 21
-465.9221978835526
 31
0.0
  0
LINE
  5
1DA
100
AcDbEntity
  8
ARJ70-0205
370
              15
390
0
  6
Continuous
 62
               7
100
AcDbLine
 10
-769.94630114989013
 20
-351.05598373429575
 30
0.0
 11
-766.87170549396615
 21
-465.9221978835526
 31
0.0
  0
ARC
  5
1DB
100
AcDbEntity
  8
ARJ70-0205
370
              15
390
0
  6
Continuous
 62
               7
100
AcDbCircle
 10
-764.94809133575291
 20
-350.92219788355078
 30
0.0
 40
5.0
100
AcDbArc
 50
90.0
 51
181.53325591319768
  0
LINE
  5
1DC
100
AcDbEntity
  8
ARJ70-0205
370
              15
390
0
  6
STYLE_13
 62
               7
100
AcDbLine
 10
-750.00341567008218
 20
-347.65825388355097
 30
0.0
 11
-746.9708323431696
 21
-354.27801965815297
 31
0.0
  0
ARC
  5
1DD
100
AcDbEntity
  8
ARJ70-0205
370
              15
390
0
  6
STYLE_13
 62
               7
100
AcDbCircle
 10
-744.25008867008273
 20
-353.01407588355278
 30
0.0
 40
2.9999999999998797
100
AcDbArc
 50
204.91761099996734
 51
255.7833169999804
  0
ARC
  5
1DE
100
AcDbEntity
  8
ARJ70-0205
370
              15
390
0
  6
STYLE_01
 62
               7
100
AcDbCircle
 10
-594.62700265895091
 20
-362.911082258644
 30
0.0
 40
4.9999999999997629
100
AcDbArc
 50
38.225785965180464
 51
89.242330940536604
  0
LWPOLYLINE
  5
1DF
100
AcDbEntity
  8
ARJ70-0205
370
              15
390
0
  6
Continuous
 62
               7
100
AcDbPolyline
 90
        3
 70
             128
 10
-157.85146773373526
 20
436.45890222535706
 42
0.3530268606773799
 10
-45.507654923009795
 20
567.19434003786546
 42
0.3530268606773801
 10
-149.49578041897621
 20
704.66927132613569
  0
LINE
  5
1E0
100
AcDbEntity
  8
ARJ70-0205
370
              15
390
0
  6
Continuous
 62
               7
100
AcDbLine
 10
109.99999999999909
 20
375.0
 30
0.0
 11
109.99999999999909
 21
815.0
 31
0.0
  0
LINE
  5
1E1
100
AcDbEntity
  8
ARJ70-0205
370
              15
390
0
  6
Continuous
 62
               7
100
AcDbLine
 10
104.99999999999909
 20
375.0
 30
0.0
 11
104.99999999999909
 21
815.0
 31
0.0
  0
CIRCLE
  5
1E2
100
AcDbEntity
  8
ARJ70-0205
370
              15
390
0
  6
Continuous
 62
               7
100
AcDbCircle
 10
-319.99999999999909
 20
630.0
 30
0.0
 40
35.0
  0
CIRCLE
  5
1E3
100
AcDbEntity
  8
ARJ70-0205
370
              15
390
0
  6
Continuous
 62
               7
100
AcDbCircle
 10
-319.99999999999909
 20
630.0
 30
0.0
 40
22.5
  0
ARC
  5
1E4
100
AcDbEntity
  8
ARJ70-0205
370
              15
390
0
  6
Continuous
 62
               7
100
AcDbCircle
 10
95.0
 20
375.0
 30
0.0
 40
10.0
100
AcDbArc
 50
270.0
 51
0.0
  0
ARC
  5
1E5
100
AcDbEntity
  8
ARJ70-0205
370
              15
390
0
  6
Continuous
 62
               7
100
AcDbCircle
 10
95.0
 20
375.0
 30
0.0
 40
15.0
100
AcDbArc
 50
270.0
 51
0.0
  0
SPLINE
  5
1E6
100
AcDbEntity
  8
ARJ70-0205
370
              15
390
0
  6
Continuous
 62
               7
100
AcDbSpline
210
0.0
220
0.0
230
1.0
 70
               8
 71
               2
 72
              14
 73
              11
 74
               0
 42
0.000001
 43
0.000001
 40
0.0
 40
0.0
 40
0.0
 40
1.0
 40
1.0
 40
2.0
 40
3.0
 40
4.0
 40
5.0
 40
6.0
 40
6.0
 40
7.0
 40
7.0
 40
7.0
 10
-109.04232592957214
 20
-465.92219788354168
 30
0.0
 10
-109.13924197074357
 20
-465.98189371521289
 30
0.0
 10
-109.23615801191499
 20
-466.0415895468841
 30
0.0
 10
-126.88641782713512
 20
-476.87961075282146
 30
0.0
 10
-174.23005583077429
 20
-498.9759717730667
 30
0.0
 10
-232.34332188810185
 20
-514.79403868516283
 30
0.0
 10
-264.9274397221825
 20
-518.77745717914786
 30
0.0
 10
-271.74358751128784
 20
-519.45715214524262
 30
0.0
 10
-273.99948148007843
 20
-519.66081074073418
 30
0.0
 10
-274.1261045289657
 20
-519.67237302276658
 30
0.0
 10
-274.25272757785206
 20
-519.68393530479898
 30
0.0
  0
ARC
  5
1E7
100
AcDbEntity
  8
ARJ70-0205
370
              15
390
0
  6
STYLE_13
 62
               7
100
AcDbCircle
 10
-313.15912393231065
 20
-149.3684963548626
 30
0.0
 40
337.50000000000011
100
AcDbArc
 50
274.78139781667176
 51
321.42401839290653
  0
ARC
  5
1E8
100
AcDbEntity
  8
ARJ70-0205
370
              15
390
0
  6
Continuous
 62
               7
100
AcDbCircle
 10
92.694706404005956
 20
-899.15991437410185
 30
0.0
 40
433.29924580039369
100
AcDbArc
 50
89.034416524378301
 51
116.49573634344556
  0
ARC
  5
1E9
100
AcDbEntity
  8
ARJ70-0205
370
              15
390
0
  6
Continuous
 62
               7
100
AcDbCircle
 10
92.694706404004137
 20
-899.15991437410185
 30
0.0
 40
433.29924580039369
100
AcDbArc
 50
89.034416524378301
 51
116.49573634344556
  0
CIRCLE
  5
1EA
100
AcDbEntity
  8
ARJ70-0205
370
              15
390
0
  6
STYLE_13
 62
               7
100
AcDbCircle
 10
-220.00924802674399
 20
780.0
 30
0.0
 40
14.999999999999995
  0
CIRCLE
  5
1EB
100
AcDbEntity
  8
ARJ70-0205
370
              15
390
0
  6
Continuous
 62
               7
100
AcDbCircle
 10
-319.99999999999909
 20
789.99999999999636
 30
0.0
 40
17.5
  0
CIRCLE
  5
1EC
100
AcDbEntity
  8
ARJ70-0205
370
              15
390
0
  6
STYLE_13
 62
               7
100
AcDbCircle
 10
-419.99999999999909
 20
780.0
 30
0.0
 40
14.999999999999995
  0
SPLINE
  5
1ED
100
AcDbEntity
  8
ARJ70-0205
370
              15
390
0
  6
Continuous
 62
               7
100
AcDbSpline
210
0.0
220
0.0
230
1.0
 70
               8
 71
               2
 72
              15
 73
              12
 74
               0
 42
0.000001
 43
0.000001
 40
0.0
 40
0.0
 40
0.0
 40
1.0
 40
1.0
 40
2.0
 40
3.0
 40
4.0
 40
5.0
 40
6.0
 40
7.0
 40
7.0
 40
8.0
 40
8.0
 40
8.0
 10
-274.46235581792644
 20
-519.70257274936876
 30
0.0
 10
-274.51225580478695
 20
-519.70688923081389
 30
0.0
 10
-274.56215579164655
 20
-519.71120571225902
 30
0.0
 10
-278.14152800909324
 20
-520.02118511022263
 30
0.0
 10
-297.71922937242562
 20
-521.581773887076
 30
0.0
 10
-319.31875743067667
 20
-521.90243939652646
 30
0.0
 10
-341.83368644558232
 20
-521.61188442750563
 30
0.0
 10
-360.53811753081754
 20
-520.12368426192188
 30
0.0
 10
-363.98553571136381
 20
-519.83397207083863
 30
0.0
 10
-365.46501037958478
 20
-519.70535871044967
 30
0.0
 10
-365.48111208180944
 20
-519.70396587163577
 30
0.0
 10
-365.4972137840341
 20
-519.70257303282187
 30
0.0
  0
LINE
  5
1EE
100
AcDbEntity
  8
ARJ70-0205
370
              15
390
0
  6
STYLE_13
 62
               7
100
AcDbLine
 10
-354.9797864393804
 20
-485.69398770121279
 30
0.0
 11
-285.02704490078395
 21
-485.69398770121461
 31
0.0
  0
LINE
  5
1EF
100
AcDbEntity
  8
ARJ70-0205
370
              15
390
0
  6
STYLE_01
 62
               7
100
AcDbLine
 10
-297.45057196454854
 20
-530.60654991131059
 30
0.0
 11
-342.55931470368523
 21
-530.60654991129968
 31
0.0
  0
LINE
  5
1F0
100
AcDbEntity
  8
ARJ70-0205
370
              15
390
0
  6
Continuous
 62
               7
100
AcDbLine
 10
-353.97978643938222
 20
-530.69398770121461
 30
0.0
 11
-285.9797864393804
 21
-530.69398770121461
 31
0.0
  0
LINE
  5
1F1
100
AcDbEntity
  8
ARJ70-0205
370
              15
390
0
  6
Continuous
 62
               7
100
AcDbLine
 10
-353.98320210947259
 20
-530.69398770121461
 30
0.0
 11
-285.98320210947259
 21
-530.69398770121461
 31
0.0
  0
LINE
  5
1F2
100
AcDbEntity
  8
ARJ70-0205
370
              15
390
0
  6
STYLE_13
 62
               7
100
AcDbLine
 10
-342.4797864393804
 20
-498.69398770121461
 30
0.0
 11
-297.47978643938222
 21
-498.69398770121461
 31
0.0
  0
LINE
  5
1F3
100
AcDbEntity
  8
ARJ70-0205
370
              15
390
0
  6
Continuous
 62
               7
100
AcDbLine
 10
-354.00341567008218
 20
-530.92212825374281
 30
0.0
 11
-297.50341567008309
 21
-530.92212825374281
 31
0.0
  0
LINE
  5
1F4
100
AcDbEntity
  8
ARJ70-0205
370
              15
390
0
  6
STYLE_01
 62
               7
100
AcDbLine
 10
-353.97978643938222
 20
-530.69398770121461
 30
0.0
 11
-353.97978643938222
 21
-503.41006404996278
 31
0.0
  0
LINE
  5
1F5
100
AcDbEntity
  8
ARJ70-0205
370
              15
390
0
  6
STYLE_13
 62
               7
100
AcDbLine
 10
-354.53812030957761
 20
-502.02384661745873
 30
0.0
 11
-357.69820377575888
 21
-498.73735981263189
 31
0.0
  0
ARC
  5
1F6
100
AcDbEntity
  8
ARJ70-0205
370
              15
390
0
  6
STYLE_13
 62
               7
100
AcDbCircle
 10
-355.97978643938222
 20
-503.41006404996278
 30
0.0
 40
2.0
100
AcDbArc
 50
0.0
 51
43.876697285925331
  0
ARC
  5
1F7
100
AcDbEntity
  8
ARJ70-0205
370
              15
390
0
  6
STYLE_13
 62
               7
100
AcDbCircle
 10
-355.98320210947259
 20
-503.41006404996278
 30
0.0
 40
2.0
100
AcDbArc
 50
0.0
 51
43.876697285925331
  0
LINE
  5
1F8
100
AcDbEntity
  8
ARJ70-0205
370
              15
390
0
  6
STYLE_13
 62
               7
100
AcDbLine
 10
-354.54153597966888
 20
-502.02384661745873
 30
0.0
 11
-357.70161944585016
 21
-498.73735981263189
 31
0.0
  0
LINE
  5
1F9
100
AcDbEntity
  8
ARJ70-0205
370
              15
390
0
  6
STYLE_13
 62
               7
100
AcDbLine
 10
-353.98320210947259
 20
-530.69398770121461
 30
0.0
 11
-353.98320210947259
 21
-503.41006404996278
 31
0.0
  0
LINE
  5
1FA
100
AcDbEntity
  8
ARJ70-0205
370
              15
390
0
  6
STYLE_13
 62
               7
100
AcDbLine
 10
-342.4797864393804
 20
-498.69398770121461
 30
0.0
 11
-342.4797864393804
 21
-530.69398770121461
 31
0.0
  0
LINE
  5
1FB
100
AcDbEntity
  8
ARJ70-0205
370
              15
390
0
  6
STYLE_13
 62
               7
100
AcDbLine
 10
-354.9797864393804
 20
-485.69398770121461
 30
0.0
 11
-342.4797864393804
 21
-498.69398770121461
 31
0.0
  0
LINE
  5
1FC
100
AcDbEntity
  8
ARJ70-0205
370
              15
390
0
  6
Continuous
 62
               7
100
AcDbLine
 10
-354.00341567008218
 20
-530.92212825374281
 30
0.0
 11
-354.00341567008218
 21
-526.12818872553271
 31
0.0
  0
LINE
  5
1FD
100
AcDbEntity
  8
ARJ70-0205
370
              15
390
0
  6
STYLE_13
 62
               7
100
AcDbLine
 10
-285.02704490078395
 20
-485.69398770121461
 30
0.0
 11
-297.52704490078304
 21
-498.69398770121461
 31
0.0
  0
LINE
  5
1FE
100
AcDbEntity
  8
ARJ70-0205
370
              15
390
0
  6
STYLE_13
 62
               7
100
AcDbLine
 10
-297.47978643938222
 20
-498.69398770121461
 30
0.0
 11
-297.47978643938222
 21
-530.69398770121461
 31
0.0
  0
LINE
  5
1FF
100
AcDbEntity
  8
ARJ70-0205
370
              15
390
0
  6
STYLE_13
 62
               7
100
AcDbLine
 10
-285.9797864393804
 20
-530.69398770121461
 30
0.0
 11
-285.9797864393795
 21
-503.41006404994778
 31
0.0
  0
LINE
  5
200
100
AcDbEntity
  8
ARJ70-0205
370
              15
390
0
  6
STYLE_13
 62
               7
100
AcDbLine
 10
-285.4214525691832
 20
-502.02384661744372
 30
0.0
 11
-282.26136910301921
 21
-498.73735981263189
 31
0.0
  0
ARC
  5
201
100
AcDbEntity
  8
ARJ70-0205
370
              15
390
0
  6
STYLE_13
 62
               7
100
AcDbCircle
 10
-283.9797864393795
 20
-503.41006404994778
 30
0.0
 40
2.0000000000000173
100
AcDbArc
 50
136.12330271407475
 51
180.0
  0
ARC
  5
202
100
AcDbEntity
  8
ARJ70-0205
370
              15
390
0
  6
STYLE_13
 62
               7
100
AcDbCircle
 10
-283.98320210947077
 20
-503.41006404994778
 30
0.0
 40
2.0000000000000173
100
AcDbArc
 50
136.12330271407475
 51
180.0
  0
LINE
  5
203
100
AcDbEntity
  8
ARJ70-0205
370
              15
390
0
  6
Continuous
 62
               7
100
AcDbLine
 10
-286.00341567008218
 20
-530.92212825374281
 30
0.0
 11
-286.00341567008218
 21
-520.61515079397168
 31
0.0
  0
LINE
  5
204
100
AcDbEntity
  8
ARJ70-0205
370
              15
390
0
  6
Continuous
 62
               7
100
AcDbLine
 10
-297.50341567008309
 20
-530.92212825374281
 30
0.0
 11
-286.00341567008218
 21
-530.92212825374281
 31
0.0
  0
ARC
  5
205
100
AcDbEntity
  8
ARJ70-0205
370
              15
390
0
  6
Continuous
 62
               7
100
AcDbCircle
 10
-145.22673433545515
 20
-421.87438808220804
 30
0.0
 40
100.0
100
AcDbArc
 50
270.0
 51
296.49573634344557
  0
ARC
  5
206
100
AcDbEntity
  8
ARJ70-0205
370
              15
390
0
  6
Continuous
 62
               7
100
AcDbCircle
 10
-145.22673433545606
 20
-421.87438808220804
 30
0.0
 40
100.0
100
AcDbArc
 50
270.0
 51
296.49573634344557
  0
LINE
  5
207
100
AcDbEntity
  8
ARJ70-0205
370
              15
390
0
  6
Continuous
 62
               7
100
AcDbLine
 10
-180.00730683695565
 20
-516.29669254267765
 30
0.0
 11
-187.05869313069616
 21
-501.99555445342867
 31
0.0
  0
ARC
  5
208
100
AcDbEntity
  8
ARJ70-0205
370
              15
390
0
  6
Continuous
 62
               7
100
AcDbCircle
 10
-171.03829221666911
 20
-511.87438808220895
 30
0.0
 40
9.9999999999998987
100
AcDbArc
 50
206.24627919145942
 51
270.0
  0
LINE
  5
209
100
AcDbEntity
  8
ARJ70-0205
370
              15
390
0
  6
Continuous
 62
               7
100
AcDbLine
 10
-165.38712778614718
 20
-521.87438808220895
 30
0.0
 11
-145.22673433545515
 21
-521.87438808220895
 31
0.0
  0
LINE
  5
20A
100
AcDbEntity
  8
ARJ70-0205
370
              15
390
0
  6
Continuous
 62
               7
100
AcDbLine
 10
-165.38712778614808
 20
-521.87438808220895
 30
0.0
 11
-145.22673433545606
 21
-521.87438808220895
 31
0.0
  0
LINE
  5
20B
100
AcDbEntity
  8
ARJ70-0205
370
              15
390
0
  6
Continuous
 62
               7
100
AcDbLine
 10
-165.38712778614718
 20
-521.87438808220895
 30
0.0
 11
-171.03829221666911
 21
-521.87438808220895
 31
0.0
  0
ARC
  5
20C
100
AcDbEntity
  8
ARJ70-0205
370
              15
390
0
  6
Continuous
 62
               7
100
AcDbCircle
 10
95.0
 20
815.0
 30
0.0
 40
10.0
100
AcDbArc
 50
0.0
 51
90.0
  0
ARC
  5
20D
100
AcDbEntity
  8
ARJ70-0205
370
              15
390
0
  6
Continuous
 62
               7
100
AcDbCircle
 10
95.0
 20
815.0
 30
0.0
 40
15.0
100
AcDbArc
 50
0.0
 51
90.0
  0
LINE
  5
20E
100
AcDbEntity
  8
ARJ70-0205
370
              15
390
0
  6
STYLE_13
 62
               7
100
AcDbLine
 10
104.98002628608901
 20
-355.92219752908477
 30
0.0
 11
-45.44490862789462
 21
-357.91150570891568
 31
0.0
  0
ARC
  5
20F
100
AcDbEntity
  8
ARJ70-0205
370
              15
390
0
  6
STYLE_01
 62
               7
100
AcDbCircle
 10
-45.378791456272666
 20
-362.91106854176678
 30
0.0
 40
5.0000000000000409
100
AcDbArc
 50
90.757669059463367
 51
141.78188728321061
  0
LINE
  5
210
100
AcDbEntity
  8
ARJ70-0205
370
              15
390
0
  6
Continuous
 62
               7
100
AcDbLine
 10
129.93946980972487
 20
-351.05598373429575
 30
0.0
 11
126.86487415379906
 21
-465.9221978835526
 31
0.0
  0
ARC
  5
211
100
AcDbEntity
  8
ARJ70-0205
370
              15
390
0
  6
Continuous
 62
               7
100
AcDbCircle
 10
124.94125999558764
 20
-350.92219788355078
 30
0.0
 40
4.9999999999998215
100
AcDbArc
 50
358.46674408680201
 51
90.0
  0
LINE
  5
212
100
AcDbEntity
  8
ARJ70-0205
370
              15
390
0
  6
STYLE_13
 62
               7
100
AcDbLine
 10
109.99658432991691
 20
-347.65825388355097
 30
0.0
 11
106.96400100300525
 21
-354.27801965815297
 31
0.0
  0
ARC
  5
213
100
AcDbEntity
  8
ARJ70-0205
370
              15
390
0
  6
STYLE_13
 62
               7
100
AcDbCircle
 10
104.24325732991838
 20
-353.01407588355278
 30
0.0
 40
3.0000000000000706
100
AcDbArc
 50
284.2166830000196
 51
335.08238900003607
  0
ARC
  5
214
100
AcDbEntity
  8
ARJ70-0205
370
              15
390
0
  6
STYLE_13
 62
               7
100
AcDbCircle
 10
112.71732832991802
 20
-348.92219788355078
 30
0.0
 40
3.0
100
AcDbArc
 50
90.0
 51
155.08238900003266
  0
LINE
  5
215
100
AcDbEntity
  8
ARJ70-0205
370
              15
390
0
  6
Continuous
 62
               7
100
AcDbLine
 10
126.86487415379906
 20
-465.9221978835526
 30
0.0
 11
99.996584329918733
 21
-465.9221978835526
 31
0.0
  0
ARC
  5
216
100
AcDbEntity
  8
ARJ70-0205
370
              15
390
0
  6
STYLE_13
 62
               7
100
AcDbCircle
 10
658.78606000011587
 20
-283.13644842945587
 30
0.0
 40
229.92947471621227
100
AcDbArc
 50
232.65189431115797
 51
247.28316178674262
  0
ARC
  5
217
100
AcDbEntity
  8
ARJ70-0205
370
              15
390
0
  6
STYLE_13
 62
               7
100
AcDbCircle
 10
571.49047697853257
 20
-479.53950412541371
 30
0.0
 40
1.9999999999996632
100
AcDbArc
 50
356.99999999999392
 51
66.036211146665835
  0
ARC
  5
218
100
AcDbEntity
  8
ARJ70-0205
370
              15
390
0
  6
STYLE_01
 62
               7
100
AcDbCircle
 10
658.78606000011587
 20
-283.13644842945587
 30
0.0
 40
212.92947471621196
100
AcDbArc
 50
202.94386180235193
 51
246.03621114666583
  0
ARC
  5
219
100
AcDbEntity
  8
ARJ70-0205
370
              15
390
0
  6
STYLE_13
 62
               7
100
AcDbCircle
 10
565.6808783536917
 20
-351.34184048847283
 30
0.0
 40
205.58774584539921
100
AcDbArc
 50
323.41473679627012
 51
357.39251891042022
  0
ARC
  5
21A
100
AcDbEntity
  8
ARJ70-0205
370
              15
390
0
  6
STYLE_13
 62
               7
100
AcDbCircle
 10
565.6808783536917
 20
-351.34184048847283
 30
0.0
 40
214.58774584539916
100
AcDbArc
 50
322.57294457877168
 51
355.62978022769107
  0
LINE
  5
21B
100
AcDbEntity
  8
ARJ70-0205
370
              15
390
0
  6
STYLE_13
 62
               7
100
AcDbLine
 10
747.4411356193732
 20
-510.75484535664464
 30
0.0
 11
784.96922646884104
 21
-402.99027183912676
 31
0.0
  0
LINE
  5
21C
100
AcDbEntity
  8
ARJ70-0205
370
              15
390
0
  6
STYLE_13
 62
               7
100
AcDbLine
 10
756.04442789360382
 20
-513.50167378089873
 30
0.0
 11
793.70795641862333
 21
-405.34818137585762
 31
0.0
  0
LINE
  5
21D
100
AcDbEntity
  8
ARJ70-0205
370
              15
390
0
  6
STYLE_13
 62
               7
100
AcDbLine
 10
879.28305820182413
 20
-425.92206679140099
 30
0.0
 11
893.28811950091676
 21
-521.87438808220895
 31
0.0
  0
LINE
  5
21E
100
AcDbEntity
  8
ARJ70-0205
370
              15
390
0
  6
Continuous
 62
               7
100
AcDbLine
 10
918.28811950091495
 20
-521.87438808220895
 30
0.0
 11
918.28811950091495
 21
-355.92219788355078
 31
0.0
  0
ARC
  5
21F
100
AcDbEntity
  8
ARJ70-0205
370
              15
390
0
  6
Continuous
 62
               7
100
AcDbCircle
 10
658.78606000011587
 20
-283.13644842945587
 30
0.0
 40
238.92947471621187
100
AcDbArc
 50
229.90874255514294
 51
267.70566976908361
  0
ARC
  5
220
100
AcDbEntity
  8
ARJ70-0205
370
              15
390
0
  6
STYLE_13
 62
               7
100
AcDbCircle
 10
746.60067768720273
 20
-510.21296855860464
 30
0.0
 40
10.000000000000433
100
AcDbArc
 50
278.5726418396352
 51
340.79976487189839
  0
LINE
  5
221
100
AcDbEntity
  8
ARJ70-0205
370
              15
390
0
  6
Continuous
 62
               7
100
AcDbLine
 10
893.28811950091676
 20
-521.87438808220895
 30
0.0
 11
649.22101642868529
 21
-521.87438808220895
 31
0.0
  0
LINE
  5
222
100
AcDbEntity
  8
ARJ70-0205
370
              15
390
0
  6
Continuous
 62
               7
100
AcDbLine
 10
918.28811950091495
 20
-521.87438808220895
 30
0.0
 11
893.28811950091676
 21
-521.87438808220895
 31
0.0
  0
LINE
  5
223
100
AcDbEntity
  8
ARJ70-0205
370
              15
390
0
  6
STYLE_13
 62
               7
100
AcDbLine
 10
654.71759421712613
 20
-498.92212825374281
 30
0.0
 11
642.21759421712613
 21
-485.92212825374281
 31
0.0
  0
LINE
  5
224
100
AcDbEntity
  8
ARJ70-0205
370
              15
390
0
  6
STYLE_13
 62
               7
100
AcDbLine
 10
712.21759421712613
 20
-485.92212825374281
 30
0.0
 11
642.21759421712613
 21
-485.92212825374281
 31
0.0
  0
LINE
  5
225
100
AcDbEntity
  8
ARJ70-0205
370
              15
390
0
  6
Continuous
 62
               7
100
AcDbLine
 10
711.21759421712795
 20
-530.92212825374281
 30
0.0
 11
643.21759421712795
 21
-530.92212825374281
 31
0.0
  0
LINE
  5
226
100
AcDbEntity
  8
ARJ70-0205
370
              15
390
0
  6
STYLE_13
 62
               7
100
AcDbLine
 10
699.71759421712613
 20
-498.92212825374281
 30
0.0
 11
712.21759421712613
 21
-485.92212825374281
 31
0.0
  0
LINE
  5
227
100
AcDbEntity
  8
ARJ70-0205
370
              15
390
0
  6
STYLE_13
 62
               7
100
AcDbLine
 10
699.71759421712613
 20
-498.92212825374281
 30
0.0
 11
654.71759421712613
 21
-498.92212825374281
 31
0.0
  0
ARC
  5
228
100
AcDbEntity
  8
ARJ70-0205
370
              15
390
0
  6
STYLE_13
 62
               7
100
AcDbCircle
 10
746.60067768720273
 20
-510.21296855860464
 30
0.0
 40
1.0000000000004485
100
AcDbArc
 50
278.57264183968442
 51
340.79976487191641
  0
ARC
  5
229
100
AcDbEntity
  8
ARJ70-0205
370
              15
390
0
  6
STYLE_13
 62
               7
100
AcDbCircle
 10
736.88578782583591
 20
-483.89174713115881
 30
0.0
 40
1.9999999999999998
100
AcDbArc
 50
308.34056196118433
 51
321.42732520408401
  0
LINE
  5
22A
100
AcDbEntity
  8
ARJ70-0205
370
              15
390
0
  6
STYLE_13
 62
               7
100
AcDbLine
 10
708.71759421712613
 20
-502.54710418748891
 30
0.0
 11
716.27606282177567
 21
-494.68629683865356
 31
0.0
  0
LINE
  5
22B
100
AcDbEntity
  8
ARJ70-0205
370
              15
390
0
  6
Continuous
 62
               7
100
AcDbLine
 10
711.21759421712613
 20
-530.92212825374281
 30
0.0
 11
711.21759421712613
 21
-526.4135992072197
 31
0.0
  0
LINE
  5
22C
100
AcDbEntity
  8
ARJ70-0205
370
              15
390
0
  6
Continuous
 62
               7
100
AcDbLine
 10
706.21759421712613
 20
-526.4135992072197
 30
0.0
 11
748.09130973875017
 21
-520.10124525815672
 31
0.0
  0
LINE
  5
22D
100
AcDbEntity
  8
ARJ70-0205
370
              15
390
0
  6
STYLE_13
 62
               7
100
AcDbLine
 10
708.71759421712613
 20
-502.54710418748891
 30
0.0
 11
708.71759421712613
 21
-517.6887806678028
 31
0.0
  0
LINE
  5
22E
100
AcDbEntity
  8
ARJ70-0205
370
              15
390
0
  6
STYLE_13
 62
               7
100
AcDbLine
 10
699.71759421712613
 20
-498.92212825374281
 30
0.0
 11
699.71759421712613
 21
-530.92212825374281
 31
0.0
  0
LINE
  5
22F
100
AcDbEntity
  8
ARJ70-0205
370
              15
390
0
  6
STYLE_13
 62
               7
100
AcDbLine
 10
654.71759421712613
 20
-498.92212825374281
 30
0.0
 11
654.71759421712613
 21
-530.92212825374281
 31
0.0
  0
LINE
  5
230
100
AcDbEntity
  8
ARJ70-0205
370
              15
390
0
  6
STYLE_13
 62
               7
100
AcDbLine
 10
703.71759421712613
 20
-517.6887806678028
 30
0.0
 11
746.74974089236002
 21
-511.20179622855994
 31
0.0
  0
LINE
  5
231
100
AcDbEntity
  8
ARJ70-0205
370
              15
390
0
  6
STYLE_13
 62
               7
100
AcDbLine
 10
580.95975560995339
 20
-509.0354529273377
 30
0.0
 11
582.07507865868229
 21
-487.75382138355872
 31
0.0
  0
LINE
  5
232
100
AcDbEntity
  8
ARJ70-0205
370
              15
390
0
  6
STYLE_13
 62
               7
100
AcDbLine
 10
572.76216566457424
 20
-493.48888370139593
 30
0.0
 11
573.48773604804137
 21
-479.64417603789798
 31
0.0
  0
ARC
  5
233
100
AcDbEntity
  8
ARJ70-0205
370
              15
390
0
  6
STYLE_13
 62
               7
100
AcDbCircle
 10
570.76490659506362
 20
-493.38421178891167
 30
0.0
 40
1.9999999999994216
100
AcDbArc
 50
247.28316178676397
 51
356.99999999999392
  0
LINE
  5
234
100
AcDbEntity
  8
ARJ70-0205
370
              15
390
0
  6
STYLE_13
 62
               7
100
AcDbLine
 10
643.21759421712613
 20
-503.55404194686389
 30
0.0
 11
637.33886909471858
 21
-497.44016781955997
 31
0.0
  0
LINE
  5
235
100
AcDbEntity
  8
ARJ70-0205
370
              15
390
0
  6
Continuous
 62
               7
100
AcDbLine
 10
643.21759421712613
 20
-530.92212825374281
 30
0.0
 11
643.21759421712613
 21
-521.17894905381763
 31
0.0
  0
ARC
  5
236
100
AcDbEntity
  8
ARJ70-0205
370
              15
390
0
  6
STYLE_13
 62
               7
100
AcDbCircle
 10
584.07233772819291
 20
-487.8584932960448
 30
0.0
 40
1.9999999999991764
100
AcDbArc
 50
69.950344137470026
 51
176.99999999999395
  0
LINE
  5
237
100
AcDbEntity
  8
ARJ70-0205
370
              15
390
0
  6
STYLE_13
 62
               7
100
AcDbLine
 10
873.27156005797315
 20
-355.92219788355078
 30
0.0
 11
413.30467754474103
 21
-355.92219788354396
 31
0.0
  0
LINE
  5
238
100
AcDbEntity
  8
ARJ70-0205
370
              15
390
0
  6
Continuous
 62
               7
100
AcDbLine
 10
895.28811950091676
 20
-345.92219788355078
 30
0.0
 11
393.34104493761606
 21
-345.92219788355078
 31
0.0
  0
LINE
  5
239
100
AcDbEntity
  8
ARJ70-0205
370
              15
390
0
  6
Continuous
 62
               7
100
AcDbLine
 10
918.28811950091495
 20
-465.92219788355169
 30
0.0
 11
391.28811950091495
 21
-465.92219788355169
 31
0.0
  0
LINE
  5
23A
100
AcDbEntity
  8
ARJ70-0205
370
              15
390
0
  6
STYLE_13
 62
               7
100
AcDbLine
 10
878.28811950091676
 20
-368.92206679140781
 30
0.0
 11
799.4772861902793
 21
-368.92206679140781
 31
0.0
  0
LINE
  5
23B
100
AcDbEntity
  8
ARJ70-0205
370
              15
390
0
  6
STYLE_13
 62
               7
100
AcDbLine
 10
906.2881195009204
 20
-365.92206679140099
 30
0.0
 11
896.19013548279236
 21
-365.92206679140099
 31
0.0
  0
LINE
  5
23C
100
AcDbEntity
  8
ARJ70-0205
370
              15
390
0
  6
STYLE_13
 62
               7
100
AcDbLine
 10
890.73954150075497
 20
-361.33127479753875
 30
0.0
 11
894.78144664671981
 21
-365.3417835811656
 31
0.0
  0
ARC
  5
23D
100
AcDbEntity
  8
ARJ70-0205
370
              15
390
0
  6
STYLE_13
 62
               7
100
AcDbCircle
 10
896.19013548279236
 20
-363.92206679140099
 30
0.0
 40
1.9999999999998601
100
AcDbArc
 50
225.22339511536231
 51
270.0
  0
ARC
  5
23E
100
AcDbEntity
  8
ARJ70-0205
370
              15
390
0
  6
STYLE_13
 62
               7
100
AcDbCircle
 10
889.33085266468242
 20
-362.75099158729699
 30
0.0
 40
2.0000000000006621
100
AcDbArc
 50
45.223395115348445
 51
190.75012248734956
  0
ARC
  5
23F
100
AcDbEntity
  8
ARJ70-0205
370
              15
390
0
  6
STYLE_13
 62
               7
100
AcDbCircle
 10
906.2881195009204
 20
-367.92206679139963
 30
0.0
 40
2.0
100
AcDbArc
 50
0.0
 51
90.0
  0
ARC
  5
240
100
AcDbEntity
  8
ARJ70-0205
370
              15
390
0
  6
STYLE_13
 62
               7
100
AcDbCircle
 10
906.28811950091676
 20
-367.92206679139963
 30
0.0
 40
2.0
100
AcDbArc
 50
0.0
 51
90.0
  0
ARC
  5
241
100
AcDbEntity
  8
ARJ70-0205
370
              15
390
0
  6
STYLE_13
 62
               7
100
AcDbCircle
 10
872.53479250091641
 20
-353.01407588355278
 30
0.0
 40
3.0000000000002935
100
AcDbArc
 50
284.21668300003648
 51
335.08238900004005
  0
ARC
  5
242
100
AcDbEntity
  8
ARJ70-0205
370
              15
390
0
  6
STYLE_13
 62
               7
100
AcDbCircle
 10
881.00886350091696
 20
-348.9221978835526
 30
0.0
 40
2.9999999999997726
100
AcDbArc
 50
90.0
 51
155.08238900004
  0
LINE
  5
243
100
AcDbEntity
  8
ARJ70-0205
370
              15
390
0
  6
STYLE_13
 62
               7
100
AcDbLine
 10
878.28811950091676
 20
-347.65825388355279
 30
0.0
 11
875.25553617400419
 21
-354.27801965815479
 31
0.0
  0
ARC
  5
244
100
AcDbEntity
  8
ARJ70-0205
370
              15
390
0
  6
Continuous
 62
               7
100
AcDbCircle
 10
895.28811950091676
 20
-348.92219788355078
 30
0.0
 40
3.0
100
AcDbArc
 50
0.0
 51
90.0
  0
LINE
  5
245
100
AcDbEntity
  8
ARJ70-0205
370
              15
390
0
  6
Continuous
 62
               7
100
AcDbLine
 10
918.28811950091495
 20
-355.92219788355078
 30
0.0
 11
900.28811950091676
 21
-355.92219788355078
 31
0.0
  0
LINE
  5
246
100
AcDbEntity
  8
ARJ70-0205
370
              15
390
0
  6
Continuous
 62
               7
100
AcDbLine
 10
898.28811950091676
 20
-353.92219788355078
 30
0.0
 11
898.28811950091676
 21
-348.92219788355078
 31
0.0
  0
ARC
  5
247
100
AcDbEntity
  8
ARJ70-0205
370
              15
390
0
  6
Continuous
 62
               7
100
AcDbCircle
 10
900.28811950091676
 20
-353.92219788355078
 30
0.0
 40
2.0
100
AcDbArc
 50
180.0
 51
270.0
  0
LINE
  5
248
100
AcDbEntity
  8
ARJ70-0205
370
              15
390
0
  6
STYLE_13
 62
               7
100
AcDbLine
 10
918.28811950091676
 20
-447.9284209518687
 30
0.0
 11
893.28811950091676
 21
-447.9284209518687
 31
0.0
  0
LINE
  5
249
100
AcDbEntity
  8
ARJ70-0205
370
              15
390
0
  6
STYLE_13
 62
               7
100
AcDbLine
 10
906.28811950091676
 20
-437.9284209518687
 30
0.0
 11
903.22418380408726
 21
-437.9284209518687
 31
0.0
  0
ARC
  5
24A
100
AcDbEntity
  8
ARJ70-0205
370
              15
390
0
  6
STYLE_13
 62
               7
100
AcDbCircle
 10
903.22418380408726
 20
-435.92842095186961
 30
0.0
 40
2.0000000000002127
100
AcDbArc
 50
190.75012248734956
 51
270.0
  0
ARC
  5
24B
100
AcDbEntity
  8
ARJ70-0205
370
              15
390
0
  6
STYLE_13
 62
               7
100
AcDbCircle
 10
906.28811950091676
 20
-435.92842095186961
 30
0.0
 40
2.0
100
AcDbArc
 50
270.0
 51
0.0
  0
LINE
  5
24C
100
AcDbEntity
  8
ARJ70-0205
370
              15
390
0
  6
STYLE_13
 62
               7
100
AcDbLine
 10
878.28811950091676
 20
-368.92206679140781
 30
0.0
 11
879.28305820182777
 21
-425.92206679138599
 31
0.0
  0
LINE
  5
24D
100
AcDbEntity
  8
ARJ70-0205
370
              15
390
0
  6
STYLE_13
 62
               7
100
AcDbLine
 10
878.28811950091676
 20
-368.92206679140781
 30
0.0
 11
893.28811950091676
 21
-447.9284209518687
 31
0.0
  0
LINE
  5
24E
100
AcDbEntity
  8
ARJ70-0205
370
              15
390
0
  6
STYLE_13
 62
               7
100
AcDbLine
 10
887.36595266674249
 20
-363.12404385989385
 30
0.0
 11
901.2592838061455
 21
-436.30147322446601
 31
0.0
  0
LINE
  5
24F
100
AcDbEntity
  8
ARJ70-0205
370
              15
390
0
  6
STYLE_13
 62
               7
100
AcDbLine
 10
908.28811950092222
 20
-367.92206679139963
 30
0.0
 11
908.28811950091676
 21
-435.92842095186961
 31
0.0
  0
LINE
  5
250
100
AcDbEntity
  8
ARJ70-0205
370
              15
390
0
  6
STYLE_13
 62
               7
100
AcDbLine
 10
788.65691792430425
 20
-364.92219788354987
 30
0.0
 11
782.63598636162624
 21
-364.9221978835476
 31
0.0
  0
LINE
  5
251
100
AcDbEntity
  8
ARJ70-0205
370
              15
390
0
  6
STYLE_13
 62
               7
100
AcDbLine
 10
819.71759421712613
 20
-368.92206679140781
 30
0.0
 11
819.71759421712613
 21
-355.9221978835476
 31
0.0
  0
ARC
  5
252
100
AcDbEntity
  8
ARJ70-0205
370
              15
390
0
  6
STYLE_13
 62
               7
100
AcDbCircle
 10
782.63598636162624
 20
-367.9221978835476
 30
0.0
 40
3.0000000000004547
100
AcDbArc
 50
90.0
 51
175.6297802276909
  0
LINE
  5
253
100
AcDbEntity
  8
ARJ70-0205
370
              15
390
0
  6
STYLE_13
 62
               7
100
AcDbLine
 10
799.4772861902793
 20
-368.92206679140781
 30
0.0
 11
793.70795641862151
 21
-405.34818137586171
 31
0.0
  0
LINE
  5
254
100
AcDbEntity
  8
ARJ70-0205
370
              15
390
0
  6
STYLE_13
 62
               7
100
AcDbLine
 10
790.63229460549428
 20
-367.23506681363097
 30
0.0
 11
784.96922646884104
 21
-402.99027183912676
 31
0.0
  0
ARC
  5
255
100
AcDbEntity
  8
ARJ70-0205
370
              15
390
0
  6
STYLE_13
 62
               7
100
AcDbCircle
 10
776.0505897011908
 20
-360.9221978835476
 30
0.0
 40
5.0
100
AcDbArc
 50
90.0
 51
177.39251891041866
  0
ARC
  5
256
100
AcDbEntity
  8
ARJ70-0205
370
              15
390
0
  6
STYLE_13
 62
               7
100
AcDbCircle
 10
788.65691792430425
 20
-366.92219788354987
 30
0.0
 40
1.9999999999995697
100
AcDbArc
 50
351.00000000003251
 51
90.0
  0
LINE
  5
257
100
AcDbEntity
  8
ARJ70-0205
370
              15
390
0
  6
STYLE_13
 62
               7
100
AcDbLine
 10
854.71759421712613
 20
-368.92206679140781
 30
0.0
 11
854.71759421712613
 21
-355.9221978835476
 31
0.0
  0
LINE
  5
258
100
AcDbEntity
  8
ARJ70-0205
370
              15
390
0
  6
STYLE_13
 62
               7
100
AcDbLine
 10
431.90705399094168
 20
-364.92219788354396
 30
0.0
 11
444.55065546623246
 21
-364.92219788354396
 31
0.0
  0
LINE
  5
259
100
AcDbEntity
  8
ARJ70-0205
370
              15
390
0
  6
STYLE_13
 62
               7
100
AcDbLine
 10
446.52027097225709
 20
-366.57490152821174
 30
0.0
 11
449.6917001863867
 21
-384.56097037250493
 31
0.0
  0
ARC
  5
25A
100
AcDbEntity
  8
ARJ70-0205
370
              15
390
0
  6
STYLE_13
 62
               7
100
AcDbCircle
 10
444.55065546623246
 20
-366.92219788354396
 30
0.0
 40
2.0000000000008291
100
AcDbArc
 50
9.9999999999480487
 51
90.0
  0
ARC
  5
25B
100
AcDbEntity
  8
ARJ70-0205
370
              15
390
0
  6
STYLE_13
 62
               7
100
AcDbCircle
 10
457.75120142074866
 20
-366.92219788354396
 30
0.0
 40
2.0
100
AcDbArc
 50
90.0
 51
189.99999999995256
  0
ARC
  5
25C
100
AcDbEntity
  8
ARJ70-0205
370
              15
390
0
  6
STYLE_13
 62
               7
100
AcDbCircle
 10
464.876538348758
 20
-360.92219788354396
 30
0.0
 40
5.0000000000001723
100
AcDbArc
 50
21.857920244080375
 51
90.0
  0
ARC
  5
25D
100
AcDbEntity
  8
ARJ70-0205
370
              15
390
0
  6
STYLE_13
 62
               7
100
AcDbCircle
 10
460.86024740811536
 20
-366.92219788354396
 30
0.0
 40
1.9999999999998386
100
AcDbArc
 50
22.943861802362044
 51
90.0
  0
LINE
  5
25E
100
AcDbEntity
  8
ARJ70-0205
370
              15
390
0
  6
STYLE_13
 62
               7
100
AcDbLine
 10
455.78158591472402
 20
-367.26949423887982
 30
0.0
 11
458.55496996349666
 21
-382.99813677350267
 31
0.0
  0
LINE
  5
25F
100
AcDbEntity
  8
ARJ70-0205
370
              15
390
0
  6
STYLE_13
 62
               7
100
AcDbLine
 10
460.86024740811536
 20
-364.92219788354396
 30
0.0
 11
457.75120142074866
 21
-364.92219788354396
 31
0.0
  0
ARC
  5
260
100
AcDbEntity
  8
ARJ70-0205
370
              15
390
0
  6
STYLE_13
 62
               7
100
AcDbCircle
 10
658.78606000011587
 20
-283.13644842945587
 30
0.0
 40
238.92947471621252
100
AcDbArc
 50
217.23266032330565
 51
229.90874255514285
  0
ARC
  5
261
100
AcDbEntity
  8
ARJ70-0205
370
              15
390
0
  6
STYLE_13
 62
               7
100
AcDbCircle
 10
658.78606000011587
 20
-283.13644842945587
 30
0.0
 40
229.9294747162119
100
AcDbArc
 50
217.23266032330568
 51
229.90874255514311
  0
ARC
  5
262
100
AcDbEntity
  8
ARJ70-0205
370
              15
390
0
  6
STYLE_13
 62
               7
100
AcDbCircle
 10
658.78606000011587
 20
-283.13644842945587
 30
0.0
 40
229.92947471621167
100
AcDbArc
 50
229.90874255514311
 51
232.65189431115797
  0
ARC
  5
263
100
AcDbEntity
  8
ARJ70-0205
370
              15
390
0
  6
STYLE_01
 62
               7
100
AcDbCircle
 10
548.1724754876077
 20
-367.19615260581168
 30
0.0
 40
100.00000000000043
100
AcDbArc
 50
189.99999999995271
 51
217.2326603233052
  0
ARC
  5
264
100
AcDbEntity
  8
ARJ70-0205
370
              15
390
0
  6
STYLE_13
 62
               7
100
AcDbCircle
 10
548.1724754876077
 20
-367.19615260581168
 30
0.0
 40
90.999999999999829
100
AcDbArc
 50
189.99999999995285
 51
217.2326603233054
  0
LINE
  5
265
100
AcDbEntity
  8
ARJ70-0205
370
              15
390
0
  6
STYLE_13
 62
               7
100
AcDbLine
 10
402.25098577309018
 20
-356.08922351232377
 30
0.0
 11
405.76283636310745
 21
-363.75517225477188
 31
0.0
  0
LINE
  5
266
100
AcDbEntity
  8
ARJ70-0205
370
              15
390
0
  6
STYLE_13
 62
               7
100
AcDbLine
 10
400.43270260018198
 20
-354.92219788355169
 30
0.0
 11
399.72247754115688
 21
-354.92219788355169
 31
0.0
  0
LINE
  5
267
100
AcDbEntity
  8
ARJ70-0205
370
              15
390
0
  6
STYLE_13
 62
               7
100
AcDbLine
 10
418.70650803642729
 20
-364.92219788354396
 30
0.0
 11
407.58111953601565
 21
-364.92219788354578
 31
0.0
  0
ARC
  5
268
100
AcDbEntity
  8
ARJ70-0205
370
              15
390
0
  6
STYLE_13
 62
               7
100
AcDbCircle
 10
414.0414465009153
 20
-353.01407623801197
 30
0.0
 40
2.9999999999998797
100
AcDbArc
 50
204.91761099996734
 51
255.78331699999725
  0
LINE
  5
269
100
AcDbEntity
  8
ARJ70-0205
370
              15
390
0
  6
STYLE_13
 62
               7
100
AcDbLine
 10
408.28811950091676
 20
-347.65825423801198
 30
0.0
 11
411.32070282782752
 21
-354.27802001261171
 31
0.0
  0
ARC
  5
26A
100
AcDbEntity
  8
ARJ70-0205
370
              15
390
0
  6
STYLE_13
 62
               7
100
AcDbCircle
 10
405.56737550091657
 20
-348.92219823800997
 30
0.0
 40
2.9999999999999756
100
AcDbArc
 50
24.917610999971277
 51
90.0
  0
ARC
  5
26B
100
AcDbEntity
  8
ARJ70-0205
370
              15
390
0
  6
STYLE_13
 62
               7
100
AcDbCircle
 10
431.90705399094168
 20
-366.92219788354396
 30
0.0
 40
2.0
100
AcDbArc
 50
90.0
 51
170.00000000004744
  0
ARC
  5
26C
100
AcDbEntity
  8
ARJ70-0205
370
              15
390
0
  6
Continuous
 62
               7
100
AcDbCircle
 10
393.34104493761606
 20
-350.92219788355078
 30
0.0
 40
4.9999999999997726
100
AcDbArc
 50
90.0
 51
181.4688007144093
  0
ARC
  5
26D
100
AcDbEntity
  8
ARJ70-0205
370
              15
390
0
  6
STYLE_13
 62
               7
100
AcDbCircle
 10
418.70650803642729
 20
-366.92219788354396
 30
0.0
 40
2.0000000000008291
100
AcDbArc
 50
350.00000000005195
 51
90.0
  0
ARC
  5
26E
100
AcDbEntity
  8
ARJ70-0205
370
              15
390
0
  6
STYLE_13
 62
               7
100
AcDbCircle
 10
407.58111953601565
 20
-362.92219788354578
 30
0.0
 40
1.9999999999998943
100
AcDbArc
 50
204.61300661358217
 51
270.0
  0
ARC
  5
26F
100
AcDbEntity
  8
ARJ70-0205
370
              15
390
0
  6
STYLE_13
 62
               7
100
AcDbCircle
 10
400.43270260018198
 20
-356.92219788355169
 30
0.0
 40
2.0000000000006266
100
AcDbArc
 50
24.613006613565403
 51
90.0
  0
ARC
  5
270
100
AcDbEntity
  8
ARJ70-0205
370
              15
390
0
  6
STYLE_13
 62
               7
100
AcDbCircle
 10
399.72247754115688
 20
-356.92219788355169
 30
0.0
 40
1.9999999999995453
100
AcDbArc
 50
90.000000000052111
 51
183.00000000000611
  0
LINE
  5
271
100
AcDbEntity
  8
ARJ70-0205
370
              15
390
0
  6
STYLE_13
 62
               7
100
AcDbLine
 10
404.86793299643705
 20
-456.92219788355078
 30
0.0
 11
402.96051077746506
 21
-456.92219788355078
 31
0.0
  0
LINE
  5
272
100
AcDbEntity
  8
ARJ70-0205
370
              15
390
0
  6
STYLE_13
 62
               7
100
AcDbLine
 10
397.72521847164808
 20
-357.02686979603777
 30
0.0
 11
402.96051077746506
 21
-456.92219788355078
 31
0.0
  0
LINE
  5
273
100
AcDbEntity
  8
ARJ70-0205
370
              15
390
0
  6
STYLE_13
 62
               7
100
AcDbLine
 10
412.41982967703279
 20
-465.92219788355169
 30
0.0
 11
429.93743848491886
 21
-366.57490152821174
 31
0.0
  0
LINE
  5
274
100
AcDbEntity
  8
ARJ70-0205
370
              15
390
0
  6
STYLE_13
 62
               7
100
AcDbLine
 10
404.86793299643705
 20
-456.92219788355078
 30
0.0
 11
420.67612354245193
 21
-367.269494238878
 31
0.0
  0
LINE
  5
275
100
AcDbEntity
  8
ARJ70-0205
370
              15
390
0
  6
Continuous
 62
               7
100
AcDbLine
 10
391.28811950091495
 20
-465.92219788355169
 30
0.0
 11
388.34268778306887
 21
-351.05036088751376
 31
0.0
  0
LINE
  5
276
100
AcDbEntity
  8
ARJ70-0205
370
              15
390
0
  6
STYLE_13
 62
               7
100
AcDbLine
 10
643.21759421712613
 20
-521.17894905381763
 30
0.0
 11
643.21759421712613
 21
-503.55404194686389
 31
0.0
  0
LINE
  5
277
100
AcDbEntity
  8
ARJ70-0205
370
              15
390
0
  6
Continuous
 62
               7
100
AcDbLine
 10
-354.00341567007308
 20
-530.92212825374281
 30
0.0
 11
-354.00341567007308
 21
-520.61515079397168
 31
0.0
  0
ARC
  5
278
100
AcDbEntity
  8
ARJ70-0205
370
              15
390
0
  6
STYLE_13
 62
               7
100
AcDbCircle
 10
656.46040760471988
 20
-285.55088550948722
 30
0.0
 40
200.87680964230682
100
AcDbArc
 50
201.4657257564902
 51
265.93413295813872
  0
ARC
  5
279
100
AcDbEntity
  8
ARJ70-0205
370
              15
390
0
  6
STYLE_13
 62
               7
100
AcDbCircle
 10
648.44220174844577
 20
-320.14655132970006
 30
0.0
 40
177.64095936487411
100
AcDbArc
 50
248.9919262231663
 51
266.41642859109396
  0
ARC
  5
27A
100
AcDbEntity
  8
ARJ70-0205
370
              15
390
0
  6
STYLE_13
 62
               7
100
AcDbCircle
 10
704.63308073760163
 20
-453.94950237299167
 30
0.0
 40
32.859909470836683
100
AcDbArc
 50
283.34497556742411
 51
322.66999387766191
  0
ARC
  5
27B
100
AcDbEntity
  8
ARJ70-0205
370
              15
390
0
  6
STYLE_13
 62
               7
100
AcDbCircle
 10
704.63308073760163
 20
-453.94950237299167
 30
0.0
 40
41.986792481900991
100
AcDbArc
 50
287.87121723940214
 51
318.52502630293969
  0
ARC
  5
27C
100
AcDbEntity
  8
ARJ70-0205
370
              15
390
0
  6
Continuous
 62
               7
100
AcDbCircle
 10
718.43856201649578
 20
-496.76562298742306
 30
0.0
 40
3.0000000000201079
100
AcDbArc
 50
107.87121723958504
 51
136.12330271407328
  0
INSERT
  5
27D
100
AcDbEntity
  8
ARJ70-0205
390
0
 62
               7
100
AcDbBlockReference
  2
グループ
 10
5189.3841314282026
 20
1134.7632741686075
 30
0.0
  0
ENDSEC
  0
SECTION
  2
OBJECTS
  0
DICTIONARY
  5
19
100
AcDbDictionary
280
               0
281
               1
  3
ACAD_GROUP
350
1A
  3
ACAD_MLINESTYLE
350
1B
  3
ACAD_LAYOUT
350
1E
  3
ACAD_PLOTSETTINGS
350
22
  3
ACAD_PLOTSTYLENAME
350
1F
  0
DICTIONARY
  5
1A
102
{ACAD_REACTORS
330
19
102
}
100
AcDbDictionary
280
               0
281
               1
  0
DICTIONARY
  5
1B
102
{ACAD_REACTORS
330
19
102
}
100
AcDbDictionary
280
               0
281
               1
  3
Standard
350
1C
  0
MLINESTYLE
  5
1C
102
{ACAD_REACTORS
330
1B
102
}
100
AcDbMlineStyle
  2
Standard
 70
               0
  3

 62
               0
 51
90.0
 52
90.0
 71
               2
 49
0.5
 62
             256
  6
ByLayer
 49
-0.5
 62
             256
  6
ByLayer
  0
ACDBDICTIONARYWDFLT
  5
1F
102
{ACAD_REACTORS
330
19
102
}
100
AcDbDictionary
281
               1
  3
Normal
350
1D
100
AcDbDictionaryWithDefault
340
1D
  0
ACDBPLACEHOLDER
  5
1D
102
{ACAD_REACTORS
330
1F
102
}
  0
LAYOUT
  5
20
102
{ACAD_REACTORS
330
1E
102
}
100
AcDbPlotSettings
  1

  2

  4

  6

 40
0.0
 41
0.0
 42
0.0
 43
0.0
 44
0.0
 45
0.0
 46
0.0
 47
0.0
 48
0.0
 49
0.0
140
0.0
141
0.0
142
1.0
143
1.0
 70
            1024
 72
               0
 73
               0
 74
               0
  7

 75
               0
147
1.0
148
0.0
149
0.0
100
AcDbLayout
  1
Model
 70
               0
 71
               0
 10
0.0
 20
0.0
 11
0.0
 21
0.0
 12
0.0
 22
0.0
 32
0.0
 14
0.0
 24
0.0
 34
0.0
 15
0.0
 25
0.0
 35
0.0
146
0.0
 13
0.0
 23
0.0
 33
0.0
 16
0.0
 26
0.0
 36
0.0
 17
0.0
 27
0.0
 37
0.0
 76
               0
330
A
331
0
345
0
346
0
  0
LAYOUT
  5
21
102
{ACAD_REACTORS
330
1E
102
}
100
AcDbPlotSettings
  1

  2

  4

  6

 40
0.0
 41
0.0
 42
0.0
 43
0.0
 44
0.0
 45
0.0
 46
0.0
 47
0.0
 48
0.0
 49
0.0
140
0.0
141
0.0
142
1.0
143
1.0
 70
               0
 72
               0
 73
               0
 74
               0
  7

 75
               0
147
1.0
148
0.0
149
0.0
100
AcDbLayout
  1
Layout1
 70
               0
 71
               0
 10
0.0
 20
0.0
 11
0.0
 21
0.0
 12
0.0
 22
0.0
 32
0.0
 14
0.0
 24
0.0
 34
0.0
 15
0.0
 25
0.0
 35
0.0
146
0.0
 13
0.0
 23
0.0
 33
0.0
 16
0.0
 26
0.0
 36
0.0
 17
0.0
 27
0.0
 37
0.0
 76
               0
330
B
331
0
345
0
346
0
  0
DICTIONARY
  5
1E
102
{ACAD_REACTORS
330
19
102
}
100
AcDbDictionary
280
               0
281
               1
  3
Layout1
350
21
  3
Model
350
20
  0
DICTIONARY
  5
22
102
{ACAD_REACTORS
330
19
102
}
100
AcDbDictionary
280
               0
281
               1
  0
ENDSEC
  0
EOF
