  0
SECTION
  2
HEADER
  9
$ACADVER
  1
AC1015
  9
$ACADMAINTVER
 70
               6
  9
$DWGCODEPAGE
  3
ANSI_932
  9
$INSBASE
 10
0.0
 20
0.0
 30
0.0
  9
$EXTMIN
 10
-975.00000000024374
 20
-1431.5255224711127
 30
-14.834305555555552
  9
$EXTMAX
 10
975.00000000024011
 20
1405.9972926412997
 30
14.834305555555552
  9
$LIMMIN
 10
0.0
 20
0.0
  9
$LIMMAX
 10
0.0
 20
0.0
  9
$ORTHOMODE
 70
               0
  9
$REGENMODE
 70
               1
  9
$FILLMODE
 70
               1
  9
$QTEXTMODE
 70
               0
  9
$MIRRTEXT
 70
               1
  9
$LTSCALE
 40
25.399999999999999
  9
$ATTMODE
 70
               1
  9
$TEXTSIZE
 40
0.2
  9
$TRACEWID
 40
1.0
  9
$TEXTSTYLE
  7
Standard
  9
$CLAYER
  8
ARJ70-0301
  9
$CELTYPE
  6
Continuous
  9
$CECOLOR
 62
             256
  9
$CELTSCALE
 40
1.0
  9
$DISPSILH
 70
               0
  9
$DIMSCALE
 40
1.0
  9
$DIMASZ
 40
31.75
  9
$DIMEXO
 40
0.0
  9
$DIMDLI
 40
6.9999999999999396
  9
$DIMRND
 40
0.0
  9
$DIMDLE
 40
0.0
  9
$DIMEXE
 40
19.999999999996199
  9
$DIMTP
 40
0.0
  9
$DIMTM
 40
0.0
  9
$DIMTXT
 40
24.432617187500004
  9
$DIMCEN
 40
0.0
  9
$DIMTSZ
 40
0.0
  9
$DIMTOL
 70
               0
  9
$DIMLIM
 70
               0
  9
$DIMTIH
 70
               0
  9
$DIMTOH
 70
               0
  9
$DIMSE1
 70
               0
  9
$DIMSE2
 70
               0
  9
$DIMTAD
 70
               1
  9
$DIMZIN
 70
              11
  9
$DIMBLK
  1
VW_FILLEDARROW
  9
$DIMASO
 70
               1
  9
$DIMSHO
 70
               1
  9
$DIMPOST
  1
<>
  9
$DIMAPOST
  1
[]
  9
$DIMALT
 70
               0
  9
$DIMALTD
 70
               1
  9
$DIMALTF
 40
1.0
  9
$DIMLFAC
 40
1.0
  9
$DIMTOFL
 70
               0
  9
$DIMTVP
 40
0.0
  9
$DIMTIX
 70
               1
  9
$DIMSOXD
 70
               0
  9
$DIMSAH
 70
               0
  9
$DIMBLK1
  1

  9
$DIMBLK2
  1

  9
$DIMSTYLE
  2
JIS
  9
$DIMCLRD
 70
               0
  9
$DIMCLRE
 70
               0
  9
$DIMCLRT
 70
               0
  9
$DIMTFAC
 40
1.0
  9
$DIMGAP
 40
1.00000000000108
  9
$DIMJUST
 70
               0
  9
$DIMSD1
 70
               0
  9
$DIMSD2
 70
               0
  9
$DIMTOLJ
 70
               1
  9
$DIMTZIN
 70
              11
  9
$DIMALTZ
 70
              11
  9
$DIMALTTZ
 70
              11
  9
$DIMUPT
 70
               0
  9
$DIMDEC
 70
               1
  9
$DIMTDEC
 70
               1
  9
$DIMALTU
 70
               2
  9
$DIMALTTD
 70
               2
  9
$DIMTXSTY
  7
ＭＳ ゴシック
  9
$DIMAUNIT
 70
               0
  9
$DIMADEC
 70
               2
  9
$DIMALTRND
 40
0.0
  9
$DIMAZIN
 70
               0
  9
$DIMDSEP
 70
              46
  9
$DIMATFIT
 70
               0
  9
$DIMFRAC
 70
               2
  9
$DIMLDRBLK
  1

  9
$DIMLUNIT
 70
               2
  9
$DIMLWD
 70
              -2
  9
$DIMLWE
 70
              -2
  9
$DIMTMOVE
 70
               0
  9
$LUNITS
 70
               2
  9
$LUPREC
 70
               4
  9
$SKETCHINC
 40
0.1
  9
$FILLETRAD
 40
0.0
  9
$AUNITS
 70
               0
  9
$AUPREC
 70
               0
  9
$MENU
  1
acad
  9
$ELEVATION
 40
0.0
  9
$PELEVATION
 40
0.0
  9
$THICKNESS
 40
0.0
  9
$LIMCHECK
 70
               0
  9
$CHAMFERA
 40
0.0
  9
$CHAMFERB
 40
0.0
  9
$CHAMFERC
 40
0.0
  9
$CHAMFERD
 40
0.0
  9
$SKPOLY
 70
               0
  9
$TDCREATE
 40
2456024.592615741
  9
$TDUCREATE
 40
0.000000000
  9
$TDUPDATE
 40
2456024.592615741
  9
$TDUUPDATE
 40
0.000000000
  9
$TDINDWG
 40
0.0000000000
  9
$TDUSRTIMER
 40
0.0000000000
  9
$USRTIMER
 70
               1
  9
$ANGBASE
 50
0.0
  9
$ANGDIR
 70
               0
  9
$PDMODE
 70
               1
  9
$PDSIZE
 40
-2.0
  9
$PLINEWID
 40
0.0
  9
$SPLFRAME
 70
               0
  9
$SPLINETYPE
 70
               6
  9
$SPLINESEGS
 70
               8
  9
$HANDSEED
  5
1D8
  9
$SURFTAB1
 70
               6
  9
$SURFTAB2
 70
               6
  9
$SURFTYPE
 70
               6
  9
$SURFU
 70
               6
  9
$SURFV
 70
               6
  9
$UCSBASE
  2

  9
$UCSNAME
  2

  9
$UCSORG
 10
0.0
 20
0.0
 30
0.0
  9
$UCSXDIR
 10
1.0
 20
0.0
 30
0.0
  9
$UCSYDIR
 10
0.0
 20
1.0
 30
0.0
  9
$UCSORTHOREF
  2

  9
$UCSORTHOVIEW
 70
               0
  9
$UCSORGTOP
 10
0.0
 20
0.0
 30
0.0
  9
$UCSORGBOTTOM
 10
0.0
 20
0.0
 30
0.0
  9
$UCSORGLEFT
 10
0.0
 20
0.0
 30
0.0
  9
$UCSORGRIGHT
 10
0.0
 20
0.0
 30
0.0
  9
$UCSORGFRONT
 10
0.0
 20
0.0
 30
0.0
  9
$UCSORGBACK
 10
0.0
 20
0.0
 30
0.0
  9
$PUCSBASE
  2

  9
$PUCSNAME
  2

  9
$PUCSORG
 10
0.0
 20
0.0
 30
0.0
  9
$PUCSXDIR
 10
1.0
 20
0.0
 30
0.0
  9
$PUCSYDIR
 10
0.0
 20
1.0
 30
0.0
  9
$PUCSORTHOREF
  2

  9
$PUCSORTHOVIEW
 70
               0
  9
$PUCSORGTOP
 10
0.0
 20
0.0
 30
0.0
  9
$PUCSORGBOTTOM
 10
0.0
 20
0.0
 30
0.0
  9
$PUCSORGLEFT
 10
0.0
 20
0.0
 30
0.0
  9
$PUCSORGRIGHT
 10
0.0
 20
0.0
 30
0.0
  9
$PUCSORGFRONT
 10
0.0
 20
0.0
 30
0.0
  9
$PUCSORGBACK
 10
0.0
 20
0.0
 30
0.0
  9
$USERI1
 70
               0
  9
$USERI2
 70
               0
  9
$USERI3
 70
               0
  9
$USERI4
 70
               0
  9
$USERI5
 70
               0
  9
$USERR1
 40
0.0
  9
$USERR2
 40
0.0
  9
$USERR3
 40
0.0
  9
$USERR4
 40
0.0
  9
$USERR5
 40
0.0
  9
$WORLDVIEW
 70
               1
  9
$SHADEDGE
 70
               3
  9
$SHADEDIF
 70
              70
  9
$TILEMODE
 70
               1
  9
$MAXACTVP
 70
              64
  9
$PINSBASE
 10
0.0
 20
0.0
 30
0.0
  9
$PLIMCHECK
 70
               0
  9
$PEXTMIN
 10
1.0000000000000000E+20
 20
1.0000000000000000E+20
 30
1.0000000000000000E+20
  9
$PEXTMAX
 10
-1.0000000000000000E+20
 20
-1.0000000000000000E+20
 30
-1.0000000000000000E+20
  9
$PLIMMIN
 10
0.0
 20
0.0
  9
$PLIMMAX
 10
12.0
 20
9.0
  9
$UNITMODE
 70
               0
  9
$VISRETAIN
 70
               0
  9
$PLINEGEN
 70
               1
  9
$PSLTSCALE
 70
               0
  9
$TREEDEPTH
 70
            3020
  9
$CMLSTYLE
  2
Standard
  9
$CMLJUST
 70
               0
  9
$CMLSCALE
 40
1.0
  9
$PROXYGRAPHICS
 70
               0
  9
$MEASUREMENT
 70
               1
  9
$CELWEIGHT
370
               0
  9
$ENDCAPS
280
               0
  9
$JOINSTYLE
280
               0
  9
$LWDISPLAY
290
               1
  9
$INSUNITS
 70
               4
  9
$HYPERLINKBASE
  1

  9
$STYLESHEET
  1

  9
$XEDIT
290
               1
  9
$CEPSNTYPE
380
               0
  9
$PSTYLEMODE
290
               1
  9
$FINGERPRINTGUID
  2

  9
$VERSIONGUID
  2

  9
$EXTNAMES
290
               1
  9
$PSVPSCALE
 40
0.0
  0
ENDSEC
  0
SECTION
  2
CLASSES
  0
CLASS
  1
LWPOLYLINE
  2
AcDbPolyline
  3
AutoCAD 2000
 90
        0
280
               0
281
               1
  0
CLASS
  1
IMAGE
  2
AcDbRasterImage
  3
ISM
 90
      127
280
               0
281
               1
  0
CLASS
  1
OLE2FRAME
  2
AcDbOle2Frame
  3
AutoCAD 2000
 90
        0
280
               0
281
               1
  0
CLASS
  1
HATCH
  2
AcDbHatch
  3
AutoCAD 2000
 90
        0
280
               0
281
               1
  0
CLASS
  1
DICTIONARYVAR
  2
AcDbDictionaryVar
  3
AutoCAD 2000
 90
        0
280
               0
281
               0
  0
CLASS
  1
RASTERVARIABLES
  2
AcDbRasterVariables
  3
ISM
 90
        0
280
               0
281
               0
  0
CLASS
  1
IMAGEDEF
  2
AcDbRasterImageDef
  3
ISM
 90
        0
280
               0
281
               0
  0
CLASS
  1
IMAGEDEF_REACTOR
  2
AcDbRasterImageDefReactor
  3
ISM
 90
        1
280
               0
281
               0
  0
CLASS
  1
IDBUFFER
  2
AcDbIdBuffer
  3
AutoCAD 2000
 90
        0
280
               0
281
               0
  0
CLASS
  1
SPATIAL_FILTER
  2
AcDbSpatialFilter
  3
AutoCAD 2000
 90
        0
280
               0
281
               0
  0
CLASS
  1
XRECORD
  2
AcDbXrecord
  3
AutoCAD 2000
 90
        0
280
               0
281
               0
  0
CLASS
  1
SORTENTSTABLE
  2
AcDbSortentsTable
  3
AutoCAD 2000
 90
        0
280
               0
281
               0
  0
CLASS
  1
LAYER_INDEX
  2
AcDbLayerIndex
  3
AutoCAD 2000
 90
        0
280
               0
281
               0
  0
CLASS
  1
SPATIAL_INDEX
  2
AcDbSpatialIndex
  3
AutoCAD 2000
 90
        0
280
               0
281
               0
  0
CLASS
  1
OBJECT_PTR
  2
CAseDLPNTableRecord
  3
"ASE-LPNTableRecord"
 90
        1
280
               0
281
               0
  0
CLASS
  1
LAYOUT
  2
AcDbLayout
  3
AutoCAD 2000
 90
        0
280
               0
281
               0
  0
CLASS
  1
PLOTSETTINGS
  2
AcDbPlotSettings
  3
AutoCAD 2000
 90
        0
280
               0
281
               0
  0
CLASS
  1
ACDBDICTIONARYWDFLT
  2
AcDbDictionaryWithDefault
  3
AutoCAD 2000
 90
        0
280
               0
281
               0
  0
CLASS
  1
ACDBPLACEHOLDER
  2
AcDbPlaceHolder
  3
AutoCAD 2000
 90
        0
280
               0
281
               0
  0
ENDSEC
  0
SECTION
  2
TABLES
  0
TABLE
  2
VPORT
  5
7
100
AcDbSymbolTable
 70
               1
  0
VPORT
  5
15
100
AcDbSymbolTableRecord
100
AcDbViewportTableRecord
  2
*ACTIVE
 70
               0
 10
0.0
 20
0.0
 11
1.0
 21
1.0
 12
-0.000000000001819
 22
-12.764114914906486
 13
0.0
 23
0.0
 14
1.0
 24
1.0
 15
0.0
 25
0.0
 16
0.0
 26
0.0
 36
1.0
 17
0.0
 27
0.0
 37
0.0
 40
2837.5228151124124
 41
0.688564
 42
50.0
 43
0.0
 44
0.0
 50
0.0
 51
0.0
 71
               0
 72
            2000
 73
               1
 74
               1
 75
               0
 76
               0
 77
               0
 78
               0
281
               0
 65
               0
110
0.0
120
0.0
130
0.0
111
1.0
121
0.0
131
0.0
112
0.0
122
1.0
132
0.0
345
0
346
0
 79
               0
146
0.0
  0
ENDTAB
  0
TABLE
  2
LTYPE
  5
4
100
AcDbSymbolTable
 70
              16
  0
LTYPE
  5
11
100
AcDbSymbolTableRecord
100
AcDbLinetypeTableRecord
  2
ByBlock
 70
              64
  3

 72
              65
 73
               0
 40
0.0
  0
LTYPE
  5
12
100
AcDbSymbolTableRecord
100
AcDbLinetypeTableRecord
  2
ByLayer
 70
              64
  3

 72
              65
 73
               0
 40
0.0
  0
LTYPE
  5
13
100
AcDbSymbolTableRecord
100
AcDbLinetypeTableRecord
  2
Continuous
 70
              64
  3
Solid line
 72
              65
 73
               0
 40
0.0
  0
LTYPE
  5
38
100
AcDbSymbolTableRecord
100
AcDbLinetypeTableRecord
  2
STYLE_01
 70
               0
  3

 72
              65
 73
               2
 40
0.5905511811023623
 49
0.4724409448818898
 74
               0
 49
-0.1181102362204724
 74
               0
  0
LTYPE
  5
39
100
AcDbSymbolTableRecord
100
AcDbLinetypeTableRecord
  2
STYLE_02
 70
               0
  3

 72
              65
 73
               2
 40
0.7499999999999998
 49
0.5
 74
               0
 49
-0.2499999999999998
 74
               0
  0
LTYPE
  5
3A
100
AcDbSymbolTableRecord
100
AcDbLinetypeTableRecord
  2
STYLE_03
 70
               0
  3

 72
              65
 73
               4
 40
0.078740157480315
 49
0.0492125984251968
 74
               0
 49
-0.0098425196850394
 74
               0
 49
0.0098425196850394
 74
               0
 49
-0.0098425196850394
 74
               0
  0
LTYPE
  5
3B
100
AcDbSymbolTableRecord
100
AcDbLinetypeTableRecord
  2
STYLE_04
 70
               0
  3

 72
              65
 73
               4
 40
1.9999999999999998
 49
1.25
 74
               0
 49
-0.2499999999999999
 74
               0
 49
0.2499999999999999
 74
               0
 49
-0.2499999999999999
 74
               0
  0
LTYPE
  5
3C
100
AcDbSymbolTableRecord
100
AcDbLinetypeTableRecord
  2
STYLE_05
 70
               0
  3

 72
              65
 73
               2
 40
0.41656
 49
0.13885
 74
               0
 49
-0.27771
 74
               0
  0
LTYPE
  5
3D
100
AcDbSymbolTableRecord
100
AcDbLinetypeTableRecord
  2
STYLE_06
 70
               0
  3

 72
              65
 73
               4
 40
2.0832800000000002
 49
1.25
 74
               0
 49
-0.41656
 74
               0
 49
0.1388600000000001
 74
               0
 49
-0.2778600000000001
 74
               0
  0
LTYPE
  5
3E
100
AcDbSymbolTableRecord
100
AcDbLinetypeTableRecord
  2
STYLE_07
 70
               0
  3

 72
              65
 73
               6
 40
3.75
 49
1.25
 74
               0
 49
-0.41656
 74
               0
 49
1.2500000000000002
 74
               0
 49
-0.4167199999999999
 74
               0
 49
0.1388600000000001
 74
               0
 49
-0.2778599999999998
 74
               0
  0
LTYPE
  5
3F
100
AcDbSymbolTableRecord
100
AcDbLinetypeTableRecord
  2
STYLE_08
 70
               0
  3

 72
              65
 73
               6
 40
2.5
 49
1.25
 74
               0
 49
-0.41656
 74
               0
 49
0.1388600000000001
 74
               0
 49
-0.2778600000000001
 74
               0
 49
0.1388599999999998
 74
               0
 49
-0.2778600000000001
 74
               0
  0
LTYPE
  5
40
100
AcDbSymbolTableRecord
100
AcDbLinetypeTableRecord
  2
STYLE_09
 70
               0
  3

 72
              65
 73
               4
 40
10.0
 49
7.5
 74
               0
 49
-0.5555699999999997
 74
               0
 49
1.3888600000000006
 74
               0
 49
-0.5555699999999997
 74
               0
  0
LTYPE
  5
41
100
AcDbSymbolTableRecord
100
AcDbLinetypeTableRecord
  2
STYLE_10
 70
               0
  3

 72
              65
 73
               6
 40
11.875
 49
7.5
 74
               0
 49
-0.5555699999999997
 74
               0
 49
1.3888600000000006
 74
               0
 49
-0.5555699999999997
 74
               0
 49
1.25
 74
               0
 49
-0.625
 74
               0
  0
LTYPE
  5
42
100
AcDbSymbolTableRecord
100
AcDbLinetypeTableRecord
  2
STYLE_11
 70
               0
  3

 72
              65
 73
               2
 40
0.1388889763779528
 49
0.0694444881889764
 74
               0
 49
-0.0694444881889764
 74
               0
  0
LTYPE
  5
43
100
AcDbSymbolTableRecord
100
AcDbLinetypeTableRecord
  2
STYLE_12
 70
               0
  3

 72
              65
 73
               2
 40
0.3472222222222222
 49
0.2083333333333333
 74
               0
 49
-0.1388888888888889
 74
               0
  0
LTYPE
  5
44
100
AcDbSymbolTableRecord
100
AcDbLinetypeTableRecord
  2
STYLE_13
 70
               0
  3

 72
              65
 73
               2
 40
0.7874015748031495
 49
0.3937007874015748
 74
               0
 49
-0.3937007874015748
 74
               0
  0
ENDTAB
  0
TABLE
  2
LAYER
  5
2
100
AcDbSymbolTable
 70
               5
  0
LAYER
  5
14
100
AcDbSymbolTableRecord
100
AcDbLayerTableRecord
  2
0
 70
               0
 62
               7
  6
Continuous
290
               1
370
              -3
390
1D
  0
LAYER
  5
45
100
AcDbSymbolTableRecord
100
AcDbLayerTableRecord
  2
Defpoints
 70
               0
 62
               7
  6
Continuous
290
               0
370
              -3
390
1D
  0
LAYER
  5
46
100
AcDbSymbolTableRecord
100
AcDbLayerTableRecord
  2
template
 70
               0
 62
               7
  6
Continuous
290
               1
370
              -3
390
1D
  0
LAYER
  5
47
100
AcDbSymbolTableRecord
100
AcDbLayerTableRecord
  2
notes
 70
               0
 62
               7
  6
Continuous
290
               1
370
              -3
390
1D
  0
LAYER
  5
48
100
AcDbSymbolTableRecord
100
AcDbLayerTableRecord
  2
ARJ70-0301
 70
               0
 62
               7
  6
Continuous
290
               1
370
              -3
390
1D
  0
ENDTAB
  0
TABLE
  2
STYLE
  5
3
100
AcDbSymbolTable
 70
               2
  0
STYLE
  5
17
100
AcDbSymbolTableRecord
100
AcDbTextStyleTableRecord
  2
Standard
 70
               0
 40
0.0
 41
1.0
 50
0.0
 71
               0
 42
0.0
  3
txt
  4
BIGFONT.SHX
  0
STYLE
  5
37
100
AcDbSymbolTableRecord
100
AcDbTextStyleTableRecord
  2
ＭＳ ゴシック
 70
               0
 40
0.0
 41
1.0
 50
0.0
 71
               0
 42
0.0
  3

  4
ＭＳ ゴシック
1001
ACAD
1000
ＭＳ ゴシック
1071
        0
  0
ENDTAB
  0
TABLE
  2
VIEW
  5
5
100
AcDbSymbolTable
 70
               0
  0
ENDTAB
  0
TABLE
  2
UCS
  5
6
100
AcDbSymbolTable
 70
               0
  0
ENDTAB
  0
TABLE
  2
APPID
  5
8
100
AcDbSymbolTable
 70
               1
  0
APPID
  5
16
100
AcDbSymbolTableRecord
100
AcDbRegAppTableRecord
  2
ACAD
 70
               0
  0
ENDTAB
  0
TABLE
  2
DIMSTYLE
  5
9
100
AcDbSymbolTable
 70
               3
100
AcDbDimStyleTable
 71
               0
  0
DIMSTYLE
105
18
100
AcDbSymbolTableRecord
100
AcDbDimStyleTableRecord
  2
Standard
 70
               0
  3

  4

 40
1.0
 41
0.18
 42
0.0625
 43
0.38
 44
0.18
 45
0.0
 46
0.0
 47
0.0
 48
0.0
 71
               0
 72
               0
 73
               1
 74
               1
 75
               0
 76
               0
 77
               0
 78
               0
 79
               0
140
0.18
141
0.09
142
0.0
143
25.399999999999999
144
1.0
145
0.0
146
1.0
147
0.09
148
0.0
170
               0
171
               2
172
               0
173
               0
174
               0
175
               0
176
               0
177
               0
178
               0
179
               0
271
               4
272
               4
273
               2
274
               2
275
               0
276
               0
277
               2
278
              46
279
               0
280
               0
281
               0
282
               0
283
               1
284
               0
285
               0
286
               0
288
               0
289
               3
340
17
341
0
342
0
343
0
344
0
371
              -2
372
              -2
  0
DIMSTYLE
105
51
100
AcDbSymbolTableRecord
100
AcDbDimStyleTableRecord
  2
tform線あり
 70
               0
  3
<>
  4
[]
 40
1.0
 41
3.999755859375
 42
24.999999999999996
 43
0.9999999999999999
 44
0.0
 45
0.0
 46
0.0
 47
0.0
 48
0.0
 71
               0
 72
               0
 73
               0
 74
               0
 75
               0
 76
               0
 77
               1
 78
              11
 79
               0
140
24.432617187500004
141
0.0
142
0.0
143
1.0
144
1.0
145
0.0
146
1.0
147
0.4999999999999999
148
0.0
170
               0
171
               1
172
               0
173
               0
174
               1
175
               0
176
               0
177
               0
178
               0
179
               2
271
               1
272
               1
273
               2
274
               2
275
               0
276
               2
277
               2
278
              46
279
               0
280
               0
281
               0
282
               0
283
               1
284
              11
285
              11
286
              11
288
               0
289
               0
340
37
341
49
342
49
343
0
344
0
371
              -2
372
              -2
  0
DIMSTYLE
105
56
100
AcDbSymbolTableRecord
100
AcDbDimStyleTableRecord
  2
JIS
 70
               0
  3
<>
  4
[]
 40
1.0
 41
31.75
 42
0.0
 43
6.9999999999999396
 44
19.999999999996199
 45
0.0
 46
0.0
 47
0.0
 48
0.0
 71
               0
 72
               0
 73
               0
 74
               0
 75
               0
 76
               0
 77
               1
 78
              11
 79
               0
140
24.432617187500004
141
0.0
142
0.0
143
1.0
144
1.0
145
0.0
146
1.0
147
1.00000000000108
148
0.0
170
               0
171
               1
172
               0
173
               0
174
               1
175
               0
176
               0
177
               0
178
               0
179
               2
271
               1
272
               1
273
               2
274
               2
275
               0
276
               2
277
               2
278
              46
279
               0
280
               0
281
               0
282
               0
283
               1
284
              11
285
              11
286
              11
288
               0
289
               0
340
37
341
52
342
52
343
0
344
0
371
              -2
372
              -2
  0
ENDTAB
  0
TABLE
  2
BLOCK_RECORD
  5
1
100
AcDbSymbolTable
 70
              22
  0
BLOCK_RECORD
  5
A
100
AcDbSymbolTableRecord
100
AcDbBlockTableRecord
  2
*MODEL_SPACE
340
20
  0
BLOCK_RECORD
  5
B
100
AcDbSymbolTableRecord
100
AcDbBlockTableRecord
  2
*PAPER_SPACE
340
21
  0
BLOCK_RECORD
  5
49
100
AcDbSymbolTableRecord
100
AcDbBlockTableRecord
  2
_DOT
340
0
  0
BLOCK_RECORD
  5
52
100
AcDbSymbolTableRecord
100
AcDbBlockTableRecord
  2
VW_FILLEDARROW
340
0
  0
BLOCK_RECORD
  5
23
100
AcDbSymbolTableRecord
100
AcDbBlockTableRecord
  2
グループ
340
0
102
{BLKREFS
331
15C
102
}
  0
BLOCK_RECORD
  5
24
100
AcDbSymbolTableRecord
100
AcDbBlockTableRecord
  2
*D3
340
0
  0
BLOCK_RECORD
  5
25
100
AcDbSymbolTableRecord
100
AcDbBlockTableRecord
  2
*D4
340
0
  0
BLOCK_RECORD
  5
26
100
AcDbSymbolTableRecord
100
AcDbBlockTableRecord
  2
*D5
340
0
  0
BLOCK_RECORD
  5
27
100
AcDbSymbolTableRecord
100
AcDbBlockTableRecord
  2
*D6
340
0
  0
BLOCK_RECORD
  5
28
100
AcDbSymbolTableRecord
100
AcDbBlockTableRecord
  2
*D7
340
0
  0
BLOCK_RECORD
  5
29
100
AcDbSymbolTableRecord
100
AcDbBlockTableRecord
  2
*D8
340
0
  0
BLOCK_RECORD
  5
2A
100
AcDbSymbolTableRecord
100
AcDbBlockTableRecord
  2
*D9
340
0
  0
BLOCK_RECORD
  5
2B
100
AcDbSymbolTableRecord
100
AcDbBlockTableRecord
  2
*D10
340
0
  0
BLOCK_RECORD
  5
2C
100
AcDbSymbolTableRecord
100
AcDbBlockTableRecord
  2
*D11
340
0
  0
BLOCK_RECORD
  5
2D
100
AcDbSymbolTableRecord
100
AcDbBlockTableRecord
  2
*D12
340
0
  0
BLOCK_RECORD
  5
2E
100
AcDbSymbolTableRecord
100
AcDbBlockTableRecord
  2
*D13
340
0
  0
BLOCK_RECORD
  5
2F
100
AcDbSymbolTableRecord
100
AcDbBlockTableRecord
  2
*D14
340
0
  0
BLOCK_RECORD
  5
30
100
AcDbSymbolTableRecord
100
AcDbBlockTableRecord
  2
*D15
340
0
  0
BLOCK_RECORD
  5
31
100
AcDbSymbolTableRecord
100
AcDbBlockTableRecord
  2
*D16
340
0
  0
BLOCK_RECORD
  5
32
100
AcDbSymbolTableRecord
100
AcDbBlockTableRecord
  2
*D17
340
0
  0
BLOCK_RECORD
  5
33
100
AcDbSymbolTableRecord
100
AcDbBlockTableRecord
  2
*D18
340
0
  0
BLOCK_RECORD
  5
34
100
AcDbSymbolTableRecord
100
AcDbBlockTableRecord
  2
*D19
340
0
  0
BLOCK_RECORD
  5
35
100
AcDbSymbolTableRecord
100
AcDbBlockTableRecord
  2
*D20
340
0
  0
BLOCK_RECORD
  5
36
100
AcDbSymbolTableRecord
100
AcDbBlockTableRecord
  2
*D21
340
0
  0
ENDTAB
  0
ENDSEC
  0
SECTION
  2
BLOCKS
  0
BLOCK
  5
D
100
AcDbEntity
  8
0
390
0
100
AcDbBlockBegin
  2
*MODEL_SPACE
 70
               0
 10
0.0
 20
0.0
 30
0.0
  3
*MODEL_SPACE
  1

  0
ENDBLK
  5
E
100
AcDbEntity
  8
0
390
0
100
AcDbBlockEnd
  0
BLOCK
  5
F
100
AcDbEntity
 67
               1
  8
0
390
0
100
AcDbBlockBegin
  2
*PAPER_SPACE
 70
               0
 10
0.0
 20
0.0
 30
0.0
  3
*PAPER_SPACE
  1

  0
ENDBLK
  5
10
100
AcDbEntity
 67
               1
  8
0
390
0
100
AcDbBlockEnd
  0
BLOCK
  5
4A
100
AcDbEntity
  8
0
390
0
100
AcDbBlockBegin
  2
_DOT
 70
               0
 10
0.0
 20
0.0
 30
0.0
  3
_DOT
  1

  0
POLYLINE
  5
4B
100
AcDbEntity
  8
0
370
              -2
390
0
  6
ByBlock
 62
               0
100
AcDb2dPolyline
 66
               1
 10
0.0
 20
0.0
 30
0.0
 70
               1
 40
0.5
 41
0.5
  0
VERTEX
  5
4C
100
AcDbEntity
  8
0
370
              -2
390
0
  6
ByBlock
 62
               0
100
AcDbVertex
100
AcDb2dVertex
 10
-0.25
 20
0.0
 30
0.0
 42
1.0
  0
VERTEX
  5
4D
100
AcDbEntity
  8
0
370
              -2
390
0
  6
ByBlock
 62
               0
100
AcDbVertex
100
AcDb2dVertex
 10
0.25
 20
0.0
 30
0.0
 42
1.0
  0
SEQEND
  5
4E
100
AcDbEntity
  8
0
390
0
  0
LINE
  5
4F
100
AcDbEntity
  8
0
370
              -2
390
0
  6
ByBlock
 62
               0
100
AcDbLine
 10
-0.5
 20
0.0
 30
0.0
 11
-1.0
 21
0.0
 31
0.0
  0
ENDBLK
  5
50
100
AcDbEntity
  8
0
390
0
100
AcDbBlockEnd
  0
BLOCK
  5
53
100
AcDbEntity
  8
0
370
              -2
390
0
  6
ByBlock
 62
               0
100
AcDbBlockBegin
  2
VW_FILLEDARROW
 70
               0
 10
0.0
 20
0.0
 30
0.0
  3
VW_FILLEDARROW
  1

  0
SOLID
  5
54
100
AcDbEntity
  8
0
370
              -2
390
0
 62
               0
100
AcDbTrace
 10
0.0
 20
0.0
 30
0.0
 11
-0.9921874999999999
 21
-0.2658558393652545
 31
0.0
 12
-0.9921874999999999
 22
0.2658558393652548
 32
0.0
 13
-0.9921874999999999
 23
0.2658558393652548
 33
0.0
  0
ENDBLK
  5
55
100
AcDbEntity
  8
0
390
0
100
AcDbBlockEnd
  0
BLOCK
  5
57
100
AcDbEntity
  8
template
390
0
100
AcDbBlockBegin
  2
グループ
 70
               0
 10
0.0
 20
0.0
 30
0.0
  3
グループ
  1

  0
LWPOLYLINE
  5
58
100
AcDbEntity
  8
0
370
              15
390
0
  6
Continuous
 62
               7
100
AcDbPolyline
 90
        8
 70
             129
 10
-14828.755995372212
 20
87.511689621646383
 10
-14828.755995372212
 20
81.514300928070497
 10
-14838.257192290213
 20
81.514300928070497
 10
-14838.257192290213
 20
57.063337664561914
 10
-14846.612569551997
 20
57.063337664561914
 10
-14846.612569551997
 20
81.514300928070497
 10
-14855.945526498306
 20
81.514300928070497
 10
-14855.945526498306
 20
87.511689621646383
  0
LWPOLYLINE
  5
59
100
AcDbEntity
  8
0
370
              15
390
0
  6
Continuous
 62
               7
100
AcDbPolyline
 90
      101
 70
             128
 10
-14816.027703541655
 20
86.78344112870991
 10
-14816.012353512857
 20
86.787801885398736
 42
-0.0222221607799562
 10
-14815.722348936197
 20
86.856426350639595
 10
-14815.706555172197
 20
86.859429773737631
 42
-0.0146883565621506
 10
-14815.44385246698
 20
86.901432960685952
 42
-0.0127458844223251
 10
-14815.179213499825
 20
86.928969928758733
 10
-14815.116758421515
 20
86.933863351346645
 42
-0.0198099018572433
 10
-14814.725909312043
 20
86.9489485087432
 10
-14814.674097842593
 20
86.948894733078077
 42
-0.0147617382746112
 10
-14814.179474381619
 20
86.933774707833166
 10
-14814.106782926745
 20
86.929402100945637
 42
-0.0162624548992342
 10
-14813.71662929728
 20
86.893169225673319
 10
-14813.595096906018
 20
86.877882666676157
 42
-0.0080020874661843
 10
-14813.449517874929
 20
86.857199819408379
 10
-14813.411198404337
 20
86.85112854159793
 42
-0.005382192968488
 10
-14813.342714299019
 20
86.839521017775951
 10
-14814.069119998218
 20
84.65859256206204
 42
0.0108667757317995
 10
-14814.136437068359
 20
84.671779677283695
 10
-14814.173905091538
 20
84.678277419876395
 42
0.017066320329046
 10
-14814.317121878446
 20
84.698107017167231
 10
-14814.384997211137
 20
84.705154187755397
 42
0.0220162375259627
 10
-14814.665376618994
 20
84.72183654852536
 10
-14814.743232186043
 20
84.723035915791797
 42
0.0282606915753027
 10
-14815.078868509623
 20
84.709232638822868
 10
-14815.122781783399
 20
84.704932648818883
 42
0.0169677213717097
 10
-14815.368706278354
 20
84.672395599267475
 42
0.0190576269827905
 10
-14815.611614240936
 20
84.622248727160681
 10
-14815.617873429044
 20
84.62070575305188
 42
0.0213685642901888
 10
-14815.868257913535
 20
84.547505467942671
 10
-14815.873747808439
 20
84.545642471887959
 42
0.0237595297581056
 10
-14816.127242693332
 20
84.445957949993982
 10
-14816.132344767366
 20
84.443666174514192
 42
0.0261857468791528
 10
-14816.384515543577
 20
84.314129837150844
 10
-14816.394941732664
 20
84.308064362682686
 42
0.0272553061997956
 10
-14816.631371507923
 20
84.152692156726744
 10
-14816.66613452142
 20
84.127031008644067
 42
0.0325996893144072
 10
-14816.816289865084
 20
84.000283135663267
 10
-14816.839999294227
 20
83.97746510713101
 42
0.0138050960668113
 10
-14816.931882450415
 20
83.884015445598834
 42
0.0125280103842569
 10
-14817.018724983231
 20
83.785852119020561
 10
-14817.042405428158
 20
83.757693620811324
 42
0.0205218024709034
 10
-14817.167505503685
 20
83.595900306562527
 10
-14817.189971844158
 20
83.56424057675531
 42
0.0163110129572153
 10
-14817.345682223409
 20
83.328910141685625
 10
-14817.348406119461
 20
83.32448637969992
 42
0.0131897341868455
 10
-14817.495206640337
 20
83.071354287392225
 10
-14817.496906735734
 20
83.068236048199878
 42
0.0107895576081677
 10
-14817.634683437956
 20
82.802020838542134
 10
-14817.63541632747
 20
82.800526605918094
 42
0.0091371507233612
 10
-14817.763896276132
 20
82.52600140812855
 10
-14817.793641907529
 20
82.459294900999566
 42
0.0135418326382322
 10
-14817.965355846629
 20
82.044357115655288
 10
-14817.998960655055
 20
81.956490973396811
 42
0.0092834542418498
 10
-14818.170189714954
 20
81.482592475144202
 10
-14818.195806842676
 20
81.407351405339583
 42
0.0054261043609718
 10
-14818.303444990965
 20
81.079587432285962
 10
-14818.320970976978
 20
81.024199270577228
 42
0.0008225090805204
 10
-14818.389641028973
 20
80.805930511906809
 10
-14819.374330160907
 20
77.781039218650221
 10
-14816.141706320832
 20
77.781039218650221
 10
-14816.645898750685
 20
75.876560920297379
 10
-14819.90195503267
 20
75.876560920297379
 10
-14825.731104065024
 20
57.063337854292513
 10
-14827.556201675334
 20
57.063337854292513
 10
-14821.721523639833
 20
75.876560920297379
 10
-14824.126640008872
 20
75.876560920297379
 10
-14823.622447579019
 20
77.781039218650221
 10
-14821.19389876807
 20
77.781039218650221
 10
-14820.333743849882
 20
80.417452219348888
 42
-0.0005863560412518
 10
-14820.29700917114
 20
80.534278641349388
 10
-14820.220921338016
 20
80.775270939026086
 42
-0.0087522378956353
 10
-14820.02145319458
 20
81.370547026109847
 10
-14819.929188919146
 20
81.630687194683432
 42
-0.0077400953830939
 10
-14819.671255260015
 20
82.323691872233894
 10
-14819.655490288442
 20
82.364122755602452
 42
-0.0082369946350539
 10
-14819.408405817823
 20
82.968201821815683
 42
-0.0085725238372132
 10
-14819.141159721814
 20
83.563627861119429
 10
-14819.039530120821
 20
83.780048963072545
 42
-0.0168109410606268
 10
-14818.752585692084
 20
84.341256489192119
 10
-14818.626742301816
 20
84.568220521845717
 42
-0.0007817726895927
 10
-14818.57245795157
 20
84.665764767220708
 10
-14818.572329645605
 20
84.66599447586222
 42
-0.0036626142221294
 10
-14818.517441781529
 20
84.76259235592579
 42
-0.0080221150568657
 10
-14818.460317526073
 20
84.857871590760482
 10
-14818.429617574762
 20
84.90726253980074
 42
-0.0202139325556576
 10
-14818.301961834934
 20
85.095244140511738
 10
-14818.247894369768
 20
85.168323004722879
 42
-0.0249323791806315
 10
-14817.988731576072
 20
85.484368246851815
 10
-14817.964591761922
 20
85.51098251978965
 42
-0.0242132121526506
 10
-14817.624911020355
 20
85.850866006016105
 10
-14817.576999447643
 20
85.89437514216776
 42
-0.025101752786459
 10
-14817.293017746988
 20
86.127367887944729
 10
-14817.291572270178
 20
86.128437145521076
 42
-0.0130868069041675
 10
-14816.993311620217
 20
86.337217614066049
 10
-14816.99174980108
 20
86.338251054337562
 42
-0.029032952640876
 10
-14816.680638659682
 20
86.519076555970287
 10
-14816.650793097697
 20
86.534178938808964
 42
-0.0160250190060692
 10
-14816.38488868393
 20
86.658195049023334
 42
-0.0267600374785066
 10
-14816.109612606462
 20
86.758943369571924
 10
-14816.082876686942
 20
86.767135928397693
 42
-0.004998158754969
 10
-14816.027703541655
 20
86.78344112870991
 42
-0.004998158754969
  0
LWPOLYLINE
  5
5A
100
AcDbEntity
  8
0
370
              15
390
0
  6
Continuous
 62
               7
100
AcDbPolyline
 90
      118
 70
             128
 10
-14796.213335977207
 20
77.70705589082263
 10
-14794.338214052706
 20
77.70705589082263
 10
-14795.176252958307
 20
75.025489364422356
 42
-0.0010587229550005
 10
-14795.144797143299
 20
75.062393897118
 10
-14795.086603052103
 20
75.130376153953648
 42
-0.0071874740443279
 10
-14794.936227834023
 20
75.301016845961001
 10
-14794.794505060743
 20
75.45725298729576
 42
-0.0148118053504383
 10
-14794.344375768011
 20
75.924866833329148
 10
-14794.257153433167
 20
76.01026415412602
 42
-0.0086273358709404
 10
-14793.92160463212
 20
76.327639788178885
 10
-14793.877770915886
 20
76.367689432519441
 42
-0.0103138323123917
 10
-14793.619747213661
 20
76.593852569850242
 10
-14793.573972807413
 20
76.632334617044691
 42
-0.0060206748600341
 10
-14793.401124743221
 20
76.774129267864964
 10
-14793.399093612317
 20
76.775754973510431
 42
-0.0067069027319618
 10
-14793.226800797673
 20
76.909905607291194
 10
-14793.224252031769
 20
76.911835777149278
 42
-0.0076184352076299
 10
-14793.053346765875
 20
77.037210652410295
 42
-0.0089652861671649
 10
-14792.87838580316
 20
77.156843912730253
 10
-14792.842034082982
 20
77.180755126235894
 42
-0.0156916245921782
 10
-14792.646074585837
 20
77.30101761269998
 42
-0.002329901103866
 10
-14792.445812541731
 20
77.414195552310844
 10
-14792.430428409476
 20
77.422795547305668
 42
-0.0107669341499302
 10
-14792.196191584399
 20
77.547195680643412
 10
-14792.1739267833
 20
77.558412430605131
 42
-0.0078058045909992
 10
-14791.890336665323
 20
77.695773886254983
 10
-14791.880429577639
 20
77.700383014112049
 42
-0.0181829330501705
 10
-14791.570120173026
 20
77.831246755206294
 10
-14791.516064730447
 20
77.851761875154395
 42
-0.0208411536031379
 10
-14791.166979763006
 20
77.967852337644445
 10
-14791.152623662867
 20
77.971970782601147
 42
-0.0222799817135738
 10
-14790.823903868961
 20
78.050612348738241
 10
-14790.815014905735
 20
78.052324359321119
 42
-0.0215509523898829
 10
-14790.498543937443
 20
78.09924004785762
 10
-14790.456061976391
 20
78.103677574648785
 42
-0.018254592485462
 10
-14790.22195319709
 20
78.119521400039275
 10
-14790.182552180737
 20
78.120745945118628
 42
-0.007296285653304
 10
-14790.026629301054
 20
78.123315273640628
 10
-14789.997529630489
 20
78.123370109044359
 42
-0.0059227516355198
 10
-14789.899780131336
 20
78.122396397253851
 10
-14789.87053791385
 20
78.121758630650191
 42
-0.0011833111955627
 10
-14789.831286630131
 20
78.120809626340815
 10
-14790.626673225739
 20
75.582075681241804
 42
0.0143932051193084
 10
-14790.653074608053
 20
75.592274651273797
 10
-14790.660346580506
 20
75.594845870144354
 42
0.0234388603408043
 10
-14790.70217744645
 20
75.60746510586273
 10
-14790.710859109351
 20
75.60964606786456
 42
0.0199162742887636
 10
-14790.77114794342
 20
75.6222628031976
 10
-14790.791961881238
 20
75.625760002627885
 42
0.0293643550723118
 10
-14790.895036740001
 20
75.636910048281436
 10
-14790.919721920716
 20
75.638121665299877
 42
0.0214606686945126
 10
-14791.072862836672
 20
75.639060225717316
 10
-14791.082234747488
 20
75.638715314173169
 42
0.0167564054194755
 10
-14791.253754938603
 20
75.626638271804524
 10
-14791.262214731356
 20
75.625756931377964
 42
0.0137677553289524
 10
-14791.449568044622
 20
75.60100762283389
 10
-14791.456919784127
 20
75.599829702866373
 42
0.0118497261464003
 10
-14791.65741754822
 20
75.562812352678975
 10
-14791.663567555475
 20
75.561525489957148
 42
0.0106421143914447
 10
-14791.874448442761
 20
75.512693114382188
 10
-14791.879357251149
 20
75.511445771697254
 42
0.0099746379717554
 10
-14792.09781572033
 20
75.451271243377448
 10
-14792.159363760482
 20
75.432989364751847
 42
0.019161367586065
 10
-14792.495348222992
 20
75.319011984467295
 10
-14792.583407995728
 20
75.285325074147664
 42
0.0205274080142262
 10
-14792.968714767645
 20
75.119496666314262
 10
-14793.026364049647
 20
75.09182870173251
 42
0.0181256912166329
 10
-14793.284640990294
 20
74.956144882763965
 10
-14793.337596373593
 20
74.925827269558624
 42
0.0140709242400035
 10
-14793.482551308236
 20
74.83733259611472
 10
-14793.508800176867
 20
74.820275777390819
 42
0.0086667884470853
 10
-14793.597726338397
 20
74.760273109516675
 42
0.0036408191923775
 10
-14793.685159576251
 20
74.698092251853495
 10
-14793.720386450899
 20
74.672651305811542
 42
0.0052260781286888
 10
-14793.876615148352
 20
74.557318919129642
 10
-14793.892822004549
 20
74.545090808559053
 42
0.0050024435948049
 10
-14794.078825347608
 20
74.4018082402972
 10
-14794.094143504124
 20
74.389762217851057
 42
0.0136138710309017
 10
-14794.304584772453
 20
74.214795712934091
 10
-14794.338252648242
 20
74.185216740223495
 42
0.0172815186916908
 10
-14794.602656189894
 20
73.936220067610208
 10
-14794.605218535748
 20
73.933634250452997
 42
0.0189403858007689
 10
-14794.855800334341
 20
73.660828985634055
 10
-14794.888431827812
 20
73.622485054211921
 42
0.0185044199468822
 10
-14795.080388266842
 20
73.379236473028641
 42
0.0088565243874703
 10
-14795.258848373458
 20
73.125720052898771
 10
-14795.26802635312
 20
73.112178673118706
 42
0.0157195347256925
 10
-14795.45124695947
 20
72.822656463778472
 10
-14795.497329901344
 20
72.744504266854065
 42
0.0095451879744283
 10
-14795.662415451523
 20
72.451909624425525
 10
-14795.673563370452
 20
72.431238952294819
 42
0.0100351706214065
 10
-14795.805607119612
 20
72.174183391802899
 42
0.0086935915448566
 10
-14795.927938271423
 20
71.912350246361271
 10
-14795.931259012821
 20
71.904907923426663
 42
0.0072580174927428
 10
-14796.051605464818
 20
71.624315931714136
 10
-14796.054867098072
 20
71.616395905825584
 42
0.0060005122624811
 10
-14796.17406776644
 20
71.316786235150715
 10
-14796.177278744755
 20
71.30842470731568
 42
0.0049017787000049
 10
-14796.296178903614
 20
70.98949572670746
 10
-14796.299344710003
 20
70.980742789481155
 42
0.0039415167610963
 10
-14796.418780988115
 20
70.64220072690982
 10
-14796.421912090713
 20
70.633097526191705
 42
0.0031035838766037
 10
-14796.542716876289
 20
70.274657664768625
 10
-14796.545826920936
 20
70.265237043043271
 42
0.0025070747129514
 10
-14796.668728272232
 20
69.886589826159152
 10
-14796.706022168677
 20
69.769698160846474
 42
0.0029081910277462
 10
-14796.898040466562
 20
69.155534502319085
 10
-14796.938843635005
 20
69.022311260278912
 42
0.0009266453738256
 10
-14797.207261009407
 20
68.14008680005972
 10
-14797.228148481929
 20
68.070974921218024
 42
-0.0005809993665711
 10
-14797.50548516255
 20
67.157166814480433
 10
-14797.571766960657
 20
66.939681882866594
 42
-0.0012018708191184
 10
-14797.718751270253
 20
66.46151921780006
 10
-14797.771071122363
 20
66.292760075187502
 42
-0.0002691059638108
 10
-14797.814640602988
 20
66.152492456592427
 10
-14800.647596501276
 20
57.063337854292513
 10
-14802.465585393255
 20
57.063337854292513
 10
-14796.213335977207
 20
77.70705589082263
  0
SPLINE
  5
5B
100
AcDbEntity
  8
0
370
              15
390
0
  6
Continuous
 62
               7
100
AcDbSpline
210
0.0
220
0.0
230
1.0
 70
              13
 71
               2
 72
             782
 73
             779
 74
               0
 42
0.000001
 43
0.000001
 40
0.0
 40
0.0
 40
0.0
 40
1.0
 40
1.0
 40
2.0
 40
2.0
 40
3.0
 40
3.0
 40
4.0
 40
4.0
 40
5.0
 40
5.0
 40
6.0
 40
6.0
 40
7.0
 40
7.0
 40
8.0
 40
8.0
 40
9.0
 40
9.0
 40
10.0
 40
10.0
 40
11.0
 40
11.0
 40
12.0
 40
12.0
 40
13.0
 40
13.0
 40
14.0
 40
14.0
 40
15.0
 40
15.0
 40
16.0
 40
16.0
 40
17.0
 40
17.0
 40
18.0
 40
18.0
 40
19.0
 40
19.0
 40
20.0
 40
20.0
 40
21.0
 40
21.0
 40
22.0
 40
22.0
 40
23.0
 40
23.0
 40
24.0
 40
24.0
 40
25.0
 40
25.0
 40
26.0
 40
26.0
 40
27.0
 40
27.0
 40
28.0
 40
28.0
 40
29.0
 40
29.0
 40
30.0
 40
30.0
 40
31.0
 40
31.0
 40
32.0
 40
32.0
 40
33.0
 40
33.0
 40
34.0
 40
34.0
 40
35.0
 40
35.0
 40
36.0
 40
36.0
 40
37.0
 40
37.0
 40
38.0
 40
38.0
 40
39.0
 40
39.0
 40
40.0
 40
40.0
 40
41.0
 40
41.0
 40
42.0
 40
42.0
 40
43.0
 40
43.0
 40
44.0
 40
44.0
 40
45.0
 40
45.0
 40
46.0
 40
46.0
 40
47.0
 40
47.0
 40
48.0
 40
48.0
 40
49.0
 40
49.0
 40
50.0
 40
50.0
 40
51.0
 40
51.0
 40
52.0
 40
52.0
 40
53.0
 40
53.0
 40
54.0
 40
54.0
 40
55.0
 40
55.0
 40
56.0
 40
56.0
 40
57.0
 40
57.0
 40
58.0
 40
58.0
 40
59.0
 40
59.0
 40
60.0
 40
60.0
 40
61.0
 40
61.0
 40
62.0
 40
62.0
 40
63.0
 40
63.0
 40
64.0
 40
64.0
 40
65.0
 40
65.0
 40
66.0
 40
66.0
 40
67.0
 40
67.0
 40
68.0
 40
68.0
 40
69.0
 40
69.0
 40
70.0
 40
70.0
 40
71.0
 40
71.0
 40
72.0
 40
72.0
 40
73.0
 40
73.0
 40
74.0
 40
74.0
 40
75.0
 40
75.0
 40
76.0
 40
76.0
 40
77.0
 40
77.0
 40
78.0
 40
78.0
 40
79.0
 40
79.0
 40
80.0
 40
80.0
 40
81.0
 40
81.0
 40
82.0
 40
82.0
 40
83.0
 40
83.0
 40
84.0
 40
84.0
 40
85.0
 40
85.0
 40
86.0
 40
86.0
 40
87.0
 40
87.0
 40
88.0
 40
88.0
 40
89.0
 40
89.0
 40
90.0
 40
90.0
 40
91.0
 40
91.0
 40
92.0
 40
92.0
 40
93.0
 40
93.0
 40
94.0
 40
94.0
 40
95.0
 40
95.0
 40
96.0
 40
96.0
 40
97.0
 40
97.0
 40
98.0
 40
98.0
 40
99.0
 40
99.0
 40
100.0
 40
100.0
 40
101.0
 40
101.0
 40
102.0
 40
102.0
 40
103.0
 40
103.0
 40
104.0
 40
104.0
 40
105.0
 40
105.0
 40
106.0
 40
106.0
 40
107.0
 40
107.0
 40
108.0
 40
108.0
 40
109.0
 40
109.0
 40
110.0
 40
110.0
 40
111.0
 40
111.0
 40
112.0
 40
112.0
 40
113.0
 40
113.0
 40
114.0
 40
114.0
 40
115.0
 40
115.0
 40
116.0
 40
116.0
 40
117.0
 40
117.0
 40
118.0
 40
118.0
 40
119.0
 40
119.0
 40
120.0
 40
120.0
 40
121.0
 40
121.0
 40
122.0
 40
122.0
 40
123.0
 40
123.0
 40
124.0
 40
124.0
 40
125.0
 40
125.0
 40
126.0
 40
126.0
 40
127.0
 40
127.0
 40
128.0
 40
128.0
 40
129.0
 40
129.0
 40
130.0
 40
130.0
 40
131.0
 40
131.0
 40
132.0
 40
132.0
 40
133.0
 40
133.0
 40
134.0
 40
134.0
 40
135.0
 40
135.0
 40
136.0
 40
136.0
 40
137.0
 40
137.0
 40
138.0
 40
138.0
 40
139.0
 40
139.0
 40
140.0
 40
140.0
 40
141.0
 40
141.0
 40
142.0
 40
142.0
 40
143.0
 40
143.0
 40
144.0
 40
144.0
 40
145.0
 40
145.0
 40
146.0
 40
146.0
 40
147.0
 40
147.0
 40
148.0
 40
148.0
 40
149.0
 40
149.0
 40
150.0
 40
150.0
 40
151.0
 40
151.0
 40
152.0
 40
152.0
 40
153.0
 40
153.0
 40
154.0
 40
154.0
 40
155.0
 40
155.0
 40
156.0
 40
156.0
 40
157.0
 40
157.0
 40
158.0
 40
158.0
 40
159.0
 40
159.0
 40
160.0
 40
160.0
 40
161.0
 40
161.0
 40
162.0
 40
162.0
 40
163.0
 40
163.0
 40
164.0
 40
164.0
 40
165.0
 40
165.0
 40
166.0
 40
166.0
 40
167.0
 40
167.0
 40
168.0
 40
168.0
 40
169.0
 40
169.0
 40
170.0
 40
170.0
 40
171.0
 40
171.0
 40
172.0
 40
172.0
 40
173.0
 40
173.0
 40
174.0
 40
174.0
 40
175.0
 40
175.0
 40
176.0
 40
176.0
 40
177.0
 40
177.0
 40
178.0
 40
178.0
 40
179.0
 40
179.0
 40
180.0
 40
180.0
 40
181.0
 40
181.0
 40
182.0
 40
182.0
 40
183.0
 40
183.0
 40
184.0
 40
184.0
 40
185.0
 40
185.0
 40
186.0
 40
186.0
 40
187.0
 40
187.0
 40
188.0
 40
188.0
 40
189.0
 40
189.0
 40
190.0
 40
190.0
 40
191.0
 40
191.0
 40
192.0
 40
192.0
 40
193.0
 40
193.0
 40
194.0
 40
194.0
 40
195.0
 40
195.0
 40
196.0
 40
196.0
 40
197.0
 40
197.0
 40
198.0
 40
198.0
 40
199.0
 40
199.0
 40
200.0
 40
200.0
 40
201.0
 40
201.0
 40
202.0
 40
202.0
 40
203.0
 40
203.0
 40
204.0
 40
204.0
 40
205.0
 40
205.0
 40
206.0
 40
206.0
 40
207.0
 40
207.0
 40
208.0
 40
208.0
 40
209.0
 40
209.0
 40
210.0
 40
210.0
 40
211.0
 40
211.0
 40
212.0
 40
212.0
 40
213.0
 40
213.0
 40
214.0
 40
214.0
 40
215.0
 40
215.0
 40
216.0
 40
216.0
 40
217.0
 40
217.0
 40
218.0
 40
218.0
 40
219.0
 40
219.0
 40
220.0
 40
220.0
 40
221.0
 40
221.0
 40
222.0
 40
222.0
 40
223.0
 40
223.0
 40
224.0
 40
224.0
 40
225.0
 40
225.0
 40
226.0
 40
226.0
 40
227.0
 40
227.0
 40
228.0
 40
228.0
 40
229.0
 40
229.0
 40
230.0
 40
230.0
 40
231.0
 40
231.0
 40
232.0
 40
232.0
 40
233.0
 40
233.0
 40
234.0
 40
234.0
 40
235.0
 40
235.0
 40
236.0
 40
236.0
 40
237.0
 40
237.0
 40
238.0
 40
238.0
 40
239.0
 40
239.0
 40
240.0
 40
240.0
 40
241.0
 40
241.0
 40
242.0
 40
242.0
 40
243.0
 40
243.0
 40
244.0
 40
244.0
 40
245.0
 40
245.0
 40
246.0
 40
246.0
 40
247.0
 40
247.0
 40
248.0
 40
248.0
 40
249.0
 40
249.0
 40
250.0
 40
250.0
 40
251.0
 40
251.0
 40
252.0
 40
252.0
 40
253.0
 40
253.0
 40
254.0
 40
254.0
 40
255.0
 40
255.0
 40
256.0
 40
256.0
 40
257.0
 40
257.0
 40
258.0
 40
258.0
 40
259.0
 40
259.0
 40
260.0
 40
260.0
 40
261.0
 40
261.0
 40
262.0
 40
262.0
 40
263.0
 40
263.0
 40
264.0
 40
264.0
 40
265.0
 40
265.0
 40
266.0
 40
266.0
 40
267.0
 40
267.0
 40
268.0
 40
268.0
 40
269.0
 40
269.0
 40
270.0
 40
270.0
 40
271.0
 40
271.0
 40
272.0
 40
272.0
 40
273.0
 40
273.0
 40
274.0
 40
274.0
 40
275.0
 40
275.0
 40
276.0
 40
276.0
 40
277.0
 40
277.0
 40
278.0
 40
278.0
 40
279.0
 40
279.0
 40
280.0
 40
280.0
 40
281.0
 40
281.0
 40
282.0
 40
282.0
 40
283.0
 40
283.0
 40
284.0
 40
284.0
 40
285.0
 40
285.0
 40
286.0
 40
286.0
 40
287.0
 40
287.0
 40
288.0
 40
288.0
 40
289.0
 40
289.0
 40
290.0
 40
290.0
 40
291.0
 40
291.0
 40
292.0
 40
292.0
 40
293.0
 40
293.0
 40
294.0
 40
294.0
 40
295.0
 40
295.0
 40
296.0
 40
296.0
 40
297.0
 40
297.0
 40
298.0
 40
298.0
 40
299.0
 40
299.0
 40
300.0
 40
300.0
 40
301.0
 40
301.0
 40
302.0
 40
302.0
 40
303.0
 40
303.0
 40
304.0
 40
304.0
 40
305.0
 40
305.0
 40
306.0
 40
306.0
 40
307.0
 40
307.0
 40
308.0
 40
308.0
 40
309.0
 40
309.0
 40
310.0
 40
310.0
 40
311.0
 40
311.0
 40
312.0
 40
312.0
 40
313.0
 40
313.0
 40
314.0
 40
314.0
 40
315.0
 40
315.0
 40
316.0
 40
316.0
 40
317.0
 40
317.0
 40
318.0
 40
318.0
 40
319.0
 40
319.0
 40
320.0
 40
320.0
 40
321.0
 40
321.0
 40
322.0
 40
322.0
 40
323.0
 40
323.0
 40
324.0
 40
324.0
 40
325.0
 40
325.0
 40
326.0
 40
326.0
 40
327.0
 40
327.0
 40
328.0
 40
328.0
 40
329.0
 40
329.0
 40
330.0
 40
330.0
 40
331.0
 40
331.0
 40
332.0
 40
332.0
 40
333.0
 40
333.0
 40
334.0
 40
334.0
 40
335.0
 40
335.0
 40
336.0
 40
336.0
 40
337.0
 40
337.0
 40
338.0
 40
338.0
 40
339.0
 40
339.0
 40
340.0
 40
340.0
 40
341.0
 40
341.0
 40
342.0
 40
342.0
 40
343.0
 40
343.0
 40
344.0
 40
344.0
 40
345.0
 40
345.0
 40
346.0
 40
346.0
 40
347.0
 40
347.0
 40
348.0
 40
348.0
 40
349.0
 40
349.0
 40
350.0
 40
350.0
 40
351.0
 40
351.0
 40
352.0
 40
352.0
 40
353.0
 40
353.0
 40
354.0
 40
354.0
 40
355.0
 40
355.0
 40
356.0
 40
356.0
 40
357.0
 40
357.0
 40
358.0
 40
358.0
 40
359.0
 40
359.0
 40
360.0
 40
360.0
 40
361.0
 40
361.0
 40
362.0
 40
362.0
 40
363.0
 40
363.0
 40
364.0
 40
364.0
 40
365.0
 40
365.0
 40
366.0
 40
366.0
 40
367.0
 40
367.0
 40
368.0
 40
368.0
 40
369.0
 40
369.0
 40
370.0
 40
370.0
 40
371.0
 40
371.0
 40
372.0
 40
372.0
 40
373.0
 40
373.0
 40
374.0
 40
374.0
 40
375.0
 40
375.0
 40
376.0
 40
376.0
 40
377.0
 40
377.0
 40
378.0
 40
378.0
 40
379.0
 40
379.0
 40
380.0
 40
380.0
 40
381.0
 40
381.0
 40
382.0
 40
382.0
 40
383.0
 40
383.0
 40
384.0
 40
384.0
 40
385.0
 40
385.0
 40
386.0
 40
386.0
 40
387.0
 40
387.0
 40
388.0
 40
388.0
 40
389.0
 40
389.0
 40
389.0
 10
-14785.884631526475
 20
77.71798225418479
 30
0.0
 41
1.0
 10
-14785.066207417754
 20
77.71798225418479
 30
0.0
 41
1.0
 10
-14784.247783309034
 20
77.71798225418479
 30
0.0
 41
1.0
 10
-14784.661537044551
 20
76.375355989935088
 30
0.0
 41
1.0
 10
-14785.075290780067
 20
75.032729725685385
 30
0.0
 41
1.0
 10
-14785.056951284661
 20
75.061430498965578
 30
0.0
 41
0.9999957264391992
 10
-14785.038444287668
 20
75.090023549368055
 30
0.0
 41
1.0
 10
-14785.008014963731
 20
75.137036427433756
 30
0.0
 41
1.0
 10
-14784.977585639794
 20
75.184049305499457
 30
0.0
 41
1.0
 10
-14784.898219994671
 20
75.306668112423154
 30
0.0
 41
0.9995394069084533
 10
-14784.811561603114
 20
75.424246174175565
 30
0.0
 41
1.0
 10
-14784.775804740886
 20
75.47276106672544
 30
0.0
 41
1.0
 10
-14784.740047878659
 20
75.521275959275329
 30
0.0
 41
1.0
 10
-14784.606321210824
 20
75.702716234429701
 30
0.0
 41
0.9994460617140393
 10
-14784.46082072951
 20
75.874858632108044
 30
0.0
 41
1.0
 10
-14784.456432548537
 20
75.880050312486674
 30
0.0
 41
1.0
 10
-14784.452044367566
 20
75.885241992865289
 30
0.0
 41
1.0
 10
-14784.31532024823
 20
76.047001029751158
 30
0.0
 41
0.9994359394933359
 10
-14784.168046017872
 20
76.199217230922386
 30
0.0
 41
1.0
 10
-14784.165662663923
 20
76.201680561291965
 30
0.0
 41
1.0
 10
-14784.163279309972
 20
76.204143891661531
 30
0.0
 41
1.0
 10
-14784.020771787526
 20
76.351433432082032
 30
0.0
 41
0.9995293688567334
 10
-14783.869500106537
 20
76.4897066442511
 30
0.0
 41
1.0
 10
-14783.850206347288
 20
76.507342529890622
 30
0.0
 41
1.0
 10
-14783.830912588037
 20
76.524978415530128
 30
0.0
 41
1.0
 10
-14783.718228425565
 20
76.627979856404892
 30
0.0
 41
0.9997087614804612
 10
-14783.600705536599
 20
76.72542413721294
 30
0.0
 41
1.0
 10
-14783.581539463405
 20
76.741315715735539
 30
0.0
 41
1.0
 10
-14783.562373390212
 20
76.757207294258151
 30
0.0
 41
1.0
 10
-14783.483182647607
 20
76.822868418039505
 30
0.0
 41
0.9999595338694267
 10
-14783.402823376789
 20
76.887094148665938
 30
0.0
 41
1.0
 10
-14783.32246410593
 20
76.951319879325752
 30
0.0
 41
0.9999749417503732
 10
-14783.241203571566
 20
77.014401433287333
 30
0.0
 41
1.0
 10
-14783.220217425467
 20
77.030692720540358
 30
0.0
 41
1.0
 10
-14783.199231279366
 20
77.046984007793384
 30
0.0
 41
1.0
 10
-14783.114663393986
 20
77.112633017695089
 30
0.0
 41
0.999979203711905
 10
-14783.029255794188
 20
77.177185799359904
 30
0.0
 41
1.0
 10
-14783.008430967981
 20
77.192925621840658
 30
0.0
 41
1.0
 10
-14782.987606141774
 20
77.208665444321412
 30
0.0
 41
1.0
 10
-14782.943848193892
 20
77.241738581401023
 30
0.0
 41
0.9999993373923038
 10
-14782.900166508276
 20
77.274912376427437
 30
0.0
 41
1.0
 10
-14782.856484822134
 20
77.308086171850078
 30
0.0
 41
0.9999160953816071
 10
-14782.811958411223
 20
77.340117237042918
 30
0.0
 41
1.0
 10
-14782.779136523797
 20
77.363728392631288
 30
0.0
 41
1.0
 10
-14782.746314636373
 20
77.387339548219643
 30
0.0
 41
1.0
 10
-14782.636144450615
 20
77.466592924588895
 30
0.0
 41
0.9980964527227534
 10
-14782.517055457114
 20
77.531680397444632
 30
0.0
 41
1.0
 10
-14782.480022850188
 20
77.551920377036538
 30
0.0
 41
1.0
 10
-14782.442990243262
 20
77.57216035662843
 30
0.0
 41
1.0
 10
-14782.263663229982
 20
77.670170607332153
 30
0.0
 41
0.9984572810574426
 10
-14782.074574663628
 20
77.747692868677404
 30
0.0
 41
1.0
 10
-14782.070928394234
 20
77.749187761014667
 30
0.0
 41
1.0
 10
-14782.067282124839
 20
77.750682653351916
 30
0.0
 41
1.0
 10
-14781.885486097264
 20
77.825215130025271
 30
0.0
 41
0.9987838528033384
 10
-14781.697233438708
 20
77.881480770189683
 30
0.0
 41
1.0
 10
-14781.692995489519
 20
77.882747423877305
 30
0.0
 41
1.0
 10
-14781.688757540329
 20
77.884014077564942
 30
0.0
 41
1.0
 10
-14781.508980780165
 20
77.937746410352531
 30
0.0
 41
0.9990652816204523
 10
-14781.325234848433
 20
77.975750089897247
 30
0.0
 41
1.0
 10
-14781.320046447403
 20
77.976823193003412
 30
0.0
 41
1.0
 10
-14781.314858046373
 20
77.977896296109577
 30
0.0
 41
1.0
 10
-14781.141488916726
 20
78.013753769438793
 30
0.0
 41
0.9992909934267861
 10
-14780.965913150259
 20
78.036464201905801
 30
0.0
 41
1.0
 10
-14780.790337383813
 20
78.059174634372027
 30
0.0
 41
0.9994553539447091
 10
-14780.613645950709
 20
78.07025393857856
 30
0.0
 41
1.0
 10
-14780.578211542914
 20
78.072475826626345
 30
0.0
 41
1.0
 10
-14780.542777135117
 20
78.074697714674116
 30
0.0
 41
1.0
 10
-14780.376551368552
 20
78.085120777086175
 30
0.0
 41
0.9990928098292042
 10
-14780.210041576644
 20
78.081361135851239
 30
0.0
 41
1.0
 10
-14780.171479741373
 20
78.080490444318315
 30
0.0
 41
1.0
 10
-14780.132917906103
 20
78.079619752785391
 30
0.0
 41
1.0
 10
-14780.043531784735
 20
78.077601494616829
 30
0.0
 41
0.999838208920416
 10
-14779.954276101955
 20
78.072369368088857
 30
0.0
 41
1.0
 10
-14779.953846195735
 20
78.072344167186571
 30
0.0
 41
1.0
 10
-14779.953416289514
 20
78.0723189662843
 30
0.0
 41
1.0
 10
-14779.865020419176
 20
78.067137241562506
 30
0.0
 41
0.999755801675546
 10
-14779.77693984197
 20
78.058054726194314
 30
0.0
 41
1.0
 10
-14779.77646370354
 20
78.058005628711598
 30
0.0
 41
1.0
 10
-14779.775987565108
 20
78.057956531228882
 30
0.0
 41
1.0
 10
-14779.68885926477
 20
78.048972210828452
 30
0.0
 41
0.9996565144179529
 10
-14779.602321411425
 20
78.035434904138583
 30
0.0
 41
1.0
 10
-14779.601855486049
 20
78.035362018407739
 30
0.0
 41
1.0
 10
-14779.601389560676
 20
78.03528913267688
 30
0.0
 41
1.0
 10
-14779.51578355809
 20
78.021897597451243
 30
0.0
 41
0.9995321806866495
 10
-14779.431156477756
 20
78.003297109020423
 30
0.0
 41
1.0
 10
-14779.430767283182
 20
78.003211566554114
 30
0.0
 41
1.0
 10
-14779.430378088609
 20
78.003126024087805
 30
0.0
 41
1.0
 10
-14779.346529397417
 20
77.984696620588295
 30
0.0
 41
0.9993819199219466
 10
-14779.264182863231
 20
77.960421237330593
 30
0.0
 41
1.0
 10
-14779.263944429731
 20
77.96035094822065
 30
0.0
 41
1.0
 10
-14779.263705996231
 20
77.960280659110722
 30
0.0
 41
1.0
 10
-14779.181836329035
 20
77.936145854070105
 30
0.0
 41
0.9992088568504417
 10
-14779.102143810047
 20
77.905580618275508
 30
0.0
 41
1.0
 10
-14779.022462819165
 20
77.875021017540675
 30
0.0
 41
0.999022610177406
 10
-14778.945792149261
 20
77.837543585927733
 30
0.0
 41
1.0
 10
-14778.869133007467
 20
77.800071789376389
 30
0.0
 41
0.9988424273976387
 10
-14778.796429380247
 20
77.755407014119427
 30
0.0
 41
1.0
 10
-14778.796161671869
 20
77.755242550048081
 30
0.0
 41
1.0
 10
-14778.795893963492
 20
77.75507808597672
 30
0.0
 41
1.0
 10
-14778.722654919527
 20
77.710084382583631
 30
0.0
 41
0.9986928844494534
 10
-14778.654392052822
 20
77.657848648308615
 30
0.0
 41
1.0
 10
-14778.653810760594
 20
77.657403835076281
 30
0.0
 41
1.0
 10
-14778.653229468366
 20
77.656959021843932
 30
0.0
 41
1.0
 10
-14778.583804017208
 20
77.603833661107259
 30
0.0
 41
0.9986007262276305
 10
-14778.520377847435
 20
77.543672891407752
 30
0.0
 41
1.0
 10
-14778.519483431981
 20
77.542824523576286
 30
0.0
 41
1.0
 10
-14778.518589016528
 20
77.541976155744806
 30
0.0
 41
1.0
 10
-14778.453374015848
 20
77.480118650381655
 30
0.0
 41
0.9985581491377958
 10
-14778.395166404145
 20
77.411626160106891
 30
0.0
 41
1.0
 10
-14778.385907950549
 20
77.400731802406455
 30
0.0
 41
1.0
 10
-14778.376649496955
 20
77.389837444706018
 30
0.0
 41
1.0
 10
-14778.299924978059
 20
77.299556239024469
 30
0.0
 41
0.9970460233528643
 10
-14778.237933076894
 20
77.198589154836498
 30
0.0
 41
1.0
 10
-14778.223463711824
 20
77.175022695767638
 30
0.0
 41
1.0
 10
-14778.208994346751
 20
77.151456236698763
 30
0.0
 41
1.0
 10
-14778.169257646734
 20
77.086736512661531
 30
0.0
 41
0.998846881663237
 10
-14778.135911275978
 20
77.01850406022777
 30
0.0
 41
1.0
 10
-14778.128875253511
 20
77.004107139139592
 30
0.0
 41
1.0
 10
-14778.121839231044
 20
76.989710218051414
 30
0.0
 41
1.0
 10
-14778.102564905252
 20
76.95027160785321
 30
0.0
 41
0.9998431189997576
 10
-14778.084699577732
 20
76.910175053359126
 30
0.0
 41
1.0
 10
-14778.066834250307
 20
76.870078499071894
 30
0.0
 41
0.9999989989872409
 10
-14778.048855526991
 20
76.830032661722399
 30
0.0
 41
1.0
 10
-14778.04268321531
 20
76.816284444715791
 30
0.0
 41
1.0
 10
-14778.036510903628
 20
76.802536227709197
 30
0.0
 41
1.0
 10
-14778.00618755703
 20
76.734993956533103
 30
0.0
 41
0.9998790356318895
 10
-14777.9779796769
 20
76.666541204610468
 30
0.0
 41
1.0
 10
-14777.971144495612
 20
76.649954103174508
 30
0.0
 41
1.0
 10
-14777.964309314324
 20
76.633367001738549
 30
0.0
 41
1.0
 10
-14777.940751651939
 20
76.576199046843044
 30
0.0
 41
0.9998227574561448
 10
-14777.919362903542
 20
76.518184738545187
 30
0.0
 41
1.0
 10
-14777.89797415515
 20
76.460170430258998
 30
0.0
 41
0.9996797971042094
 10
-14777.879547870185
 20
76.401148311124274
 30
0.0
 41
1.0
 10
-14777.875644067462
 20
76.388643852967945
 30
0.0
 41
1.0
 10
-14777.871740264742
 20
76.376139394811617
 30
0.0
 41
1.0
 10
-14777.845506374329
 20
76.292108359345718
 30
0.0
 41
0.9979274938744802
 10
-14777.830281850847
 20
76.205404000677063
 30
0.0
 41
1.0
 10
-14777.828058163588
 20
76.19273999986487
 30
0.0
 41
1.0
 10
-14777.825834476329
 20
76.180075999052676
 30
0.0
 41
1.0
 10
-14777.81490453663
 20
76.117829491763956
 30
0.0
 41
0.9994985982133851
 10
-14777.807936371453
 20
76.055015990620859
 30
0.0
 41
1.0
 10
-14777.800968206277
 20
75.992202489462159
 30
0.0
 41
0.9996372611201649
 10
-14777.797392340508
 20
75.929104910762447
 30
0.0
 41
1.0
 10
-14777.79722376302
 20
75.926130293697312
 30
0.0
 41
1.0
 10
-14777.797055185531
 20
75.923155676632177
 30
0.0
 41
1.0
 10
-14777.793142164785
 20
75.85410886380069
 30
0.0
 41
0.9997730630734537
 10
-14777.792173851298
 20
75.784958039782552
 30
0.0
 41
1.0
 10
-14777.79211674488
 20
75.780879860625504
 30
0.0
 41
1.0
 10
-14777.792059638461
 20
75.776801681468442
 30
0.0
 41
1.0
 10
-14777.790977112136
 20
75.699494499131077
 30
0.0
 41
0.999877261407371
 10
-14777.792317198868
 20
75.62219135254746
 30
0.0
 41
1.0
 10
-14777.792406462067
 20
75.617042188731887
 30
0.0
 41
1.0
 10
-14777.792495725265
 20
75.611893024916299
 30
0.0
 41
1.0
 10
-14777.794014338395
 20
75.524291550624298
 30
0.0
 41
0.9999415567321981
 10
-14777.797426648645
 20
75.436743388891642
 30
0.0
 41
1.0
 10
-14777.797667969318
 20
75.430551929211859
 30
0.0
 41
1.0
 10
-14777.797909289991
 20
75.424360469532076
 30
0.0
 41
1.0
 10
-14777.801804241579
 20
75.324429388567211
 30
0.0
 41
0.9999716810427675
 10
-14777.807202824686
 20
75.224568250521415
 30
0.0
 41
1.0
 10
-14777.810415623484
 20
75.16513900067747
 30
0.0
 41
1.0
 10
-14777.813628422284
 20
75.105709750833526
 30
0.0
 41
1.0
 10
-14777.821702331436
 20
74.956361349554498
 30
0.0
 41
0.9999819129901229
 10
-14777.831572123052
 20
74.807120871847019
 30
0.0
 41
1.0
 10
-14777.841441914668
 20
74.657880394135645
 30
0.0
 41
1.0
 10
-14777.843881235232
 20
74.620687348286083
 30
0.0
 41
1.0
 10
-14777.82118300113
 20
74.659428346080404
 30
0.0
 41
0.9999982128115025
 10
-14777.798338442199
 20
74.698083240334071
 30
0.0
 41
1.0
 10
-14777.771428882537
 20
74.743616454009214
 30
0.0
 41
1.0
 10
-14777.744519322878
 20
74.789149667684342
 30
0.0
 41
1.0
 10
-14777.667855644364
 20
74.918870989735808
 30
0.0
 41
0.9998609190057869
 10
-14777.586908331527
 20
75.045963371626755
 30
0.0
 41
1.0
 10
-14777.557260010019
 20
75.092513104625141
 30
0.0
 41
1.0
 10
-14777.527611688511
 20
75.139062837623541
 30
0.0
 41
1.0
 10
-14777.445339468273
 20
75.268235407616046
 30
0.0
 41
0.9999067609735538
 10
-14777.359570458826
 20
75.3951130970338
 30
0.0
 41
1.0
 10
-14777.357165755649
 20
75.398670363051338
 30
0.0
 41
1.0
 10
-14777.354761052475
 20
75.402227629068875
 30
0.0
 41
1.0
 10
-14777.273801449392
 20
75.521990786431289
 30
0.0
 41
0.9998784952148464
 10
-14777.189147839679
 20
75.63917200318383
 30
0.0
 41
1.0
 10
-14777.104494230012
 20
75.756353219872892
 30
0.0
 41
0.999853296828275
 10
-14777.015876609199
 20
75.870566128332172
 30
0.0
 41
1.0
 10
-14776.995914820196
 20
75.896293449368244
 30
0.0
 41
1.0
 10
-14776.975953031193
 20
75.922020770404302
 30
0.0
 41
1.0
 10
-14776.857468981432
 20
76.074726381373779
 30
0.0
 41
0.9991551975795635
 10
-14776.726844531811
 20
76.217185943455434
 30
0.0
 41
1.0
 10
-14776.723334915827
 20
76.22101354508375
 30
0.0
 41
1.0
 10
-14776.719825299844
 20
76.224841146712066
 30
0.0
 41
1.0
 10
-14776.596220082194
 20
76.359645505534303
 30
0.0
 41
0.9997418144180637
 10
-14776.466617942488
 20
76.488694916151417
 30
0.0
 41
1.0
 10
-14776.33701580279
 20
76.617744326760487
 30
0.0
 41
0.9989238204634918
 10
-14776.196013254536
 20
76.734229288803135
 30
0.0
 41
1.0
 10
-14776.150765576393
 20
76.771609280414864
 30
0.0
 41
1.0
 10
-14776.105517898248
 20
76.808989272026594
 30
0.0
 41
1.0
 10
-14775.965277841035
 20
76.924844325311653
 30
0.0
 41
0.9990825084094955
 10
-14775.81563790843
 20
77.028273323144049
 30
0.0
 41
1.0
 10
-14775.80559254433
 20
77.035216536253586
 30
0.0
 41
1.0
 10
-14775.795547180229
 20
77.042159749363137
 30
0.0
 41
1.0
 10
-14775.665997975777
 20
77.131702321008419
 30
0.0
 41
0.9998164899828301
 10
-14775.53311377245
 20
77.2162165624934
 30
0.0
 41
1.0
 10
-14775.521268211935
 20
77.223750329012191
 30
0.0
 41
1.0
 10
-14775.509422651419
 20
77.231284095530981
 30
0.0
 41
1.0
 10
-14775.400229569084
 20
77.300730804002285
 30
0.0
 41
0.999747344913106
 10
-14775.288025611824
 20
77.365199761825352
 30
0.0
 41
1.0
 10
-14775.175821654568
 20
77.429668719644184
 30
0.0
 41
0.99993278611403
 10
-14775.062153043827
 20
77.491518711313319
 30
0.0
 41
1.0
 10
-14775.06160104126
 20
77.491819069997049
 30
0.0
 41
1.0
 10
-14775.06104903869
 20
77.49211942868078
 30
0.0
 41
1.0
 10
-14774.946276422797
 20
77.554570137724625
 30
0.0
 41
0.9996956420483301
 10
-14774.828563096968
 20
77.611283604693782
 30
0.0
 41
1.0
 10
-14774.798122692075
 20
77.625949581424052
 30
0.0
 41
1.0
 10
-14774.767682287182
 20
77.640615558154323
 30
0.0
 41
1.0
 10
-14774.664705180448
 20
77.690229216594162
 30
0.0
 41
0.999807057017492
 10
-14774.559858791496
 20
77.735759803499832
 30
0.0
 41
1.0
 10
-14774.455012402568
 20
77.781290390395029
 30
0.0
 41
0.9997827436147723
 10
-14774.348359465968
 20
77.822411561703291
 30
0.0
 41
1.0
 10
-14774.329136616325
 20
77.829823135340433
 30
0.0
 41
1.0
 10
-14774.309913766681
 20
77.837234708977576
 30
0.0
 41
1.0
 10
-14774.164815130809
 20
77.893179027554908
 30
0.0
 41
0.9988031841974172
 10
-14774.014944768205
 20
77.934679091721208
 30
0.0
 41
1.0
 10
-14773.990027519838
 20
77.941578837529022
 30
0.0
 41
1.0
 10
-14773.965110271472
 20
77.948478583336851
 30
0.0
 41
1.0
 10
-14773.797840245823
 20
77.994796725744607
 30
0.0
 41
0.9984748040548984
 10
-14773.626483337182
 20
78.022390958007463
 30
0.0
 41
1.0
 10
-14773.621744200933
 20
78.023154118521205
 30
0.0
 41
1.0
 10
-14773.617005064682
 20
78.023917279034933
 30
0.0
 41
1.0
 10
-14773.455126428531
 20
78.049985190273148
 30
0.0
 41
0.9984436495478281
 10
-14773.291351684808
 20
78.057863144091016
 30
0.0
 41
1.0
 10
-14773.269654476675
 20
78.058906831290727
 30
0.0
 41
1.0
 10
-14773.247957268542
 20
78.059950518490425
 30
0.0
 41
1.0
 10
-14773.127576941093
 20
78.065741097910205
 30
0.0
 41
0.9987954789333331
 10
-14773.007208696174
 20
78.059704570167469
 30
0.0
 41
1.0
 10
-14772.987243903679
 20
78.058703325828844
 30
0.0
 41
1.0
 10
-14772.967279111184
 20
78.05770208149022
 30
0.0
 41
1.0
 10
-14772.886840451283
 20
78.053668042426949
 30
0.0
 41
0.9997941595876992
 10
-14772.806631673169
 20
78.046373976504128
 30
0.0
 41
1.0
 10
-14772.726422895095
 20
78.039079910585215
 30
0.0
 41
0.9998589466236495
 10
-14772.646504348228
 20
78.029096056134151
 30
0.0
 41
1.0
 10
-14772.614098146416
 20
78.025047699214355
 30
0.0
 41
1.0
 10
-14772.581691944602
 20
78.020999342294544
 30
0.0
 41
1.0
 10
-14772.436960994131
 20
78.002918774005892
 30
0.0
 41
0.9993495063248887
 10
-14772.293909750366
 20
77.974453064264168
 30
0.0
 41
1.0
 10
-14772.26097605321
 20
77.967899601048629
 30
0.0
 41
1.0
 10
-14772.228042356055
 20
77.96134613783309
 30
0.0
 41
1.0
 10
-14772.118748532856
 20
77.939597803699584
 30
0.0
 41
0.9996788715559641
 10
-14772.010696960901
 20
77.912340004336329
 30
0.0
 41
1.0
 10
-14772.008633958363
 20
77.911819577763794
 30
0.0
 41
1.0
 10
-14772.006570955826
 20
77.911299151191258
 30
0.0
 41
1.0
 10
-14771.902645388942
 20
77.885082204972022
 30
0.0
 41
0.9995480654494571
 10
-14771.800483153715
 20
77.852667248349007
 30
0.0
 41
1.0
 10
-14771.798793511587
 20
77.852131143435614
 30
0.0
 41
1.0
 10
-14771.79710386946
 20
77.85159503852222
 30
0.0
 41
1.0
 10
-14771.698320918485
 20
77.820252291725183
 30
0.0
 41
0.9993867959454111
 10
-14771.601973760044
 20
77.782072922434736
 30
0.0
 41
1.0
 10
-14771.600730810958
 20
77.781580380538259
 30
0.0
 41
1.0
 10
-14771.599487861873
 20
77.781087838641767
 30
0.0
 41
1.0
 10
-14771.505626601604
 20
77.743893553147032
 30
0.0
 41
0.9992050256519287
 10
-14771.415026926566
 20
77.699339653906236
 30
0.0
 41
1.0
 10
-14771.414292243846
 20
77.698978361441405
 30
0.0
 41
1.0
 10
-14771.413557561125
 20
77.698617068976574
 30
0.0
 41
1.0
 10
-14771.324427251519
 20
77.654785754659471
 30
0.0
 41
0.9990222350741879
 10
-14771.239517190141
 20
77.603252486969268
 30
0.0
 41
1.0
 10
-14771.239333304866
 20
77.603140884069177
 30
0.0
 41
1.0
 10
-14771.239149419591
 20
77.603029281169071
 30
0.0
 41
1.0
 10
-14771.154607128754
 20
77.551719219275938
 30
0.0
 41
0.9988642743805686
 10
-14771.075332594128
 20
77.492595031745623
 30
0.0
 41
1.0
 10
-14770.996058059514
 20
77.433470844224885
 30
0.0
 41
0.9987681233312348
 10
-14770.923034275249
 20
77.36678015283492
 30
0.0
 41
1.0
 10
-14770.922705347275
 20
77.366479751613014
 30
0.0
 41
1.0
 10
-14770.922376419301
 20
77.366179350391121
 30
0.0
 41
1.0
 10
-14770.848694779093
 20
77.298887856562018
 30
0.0
 41
0.9987496570899991
 10
-14770.782100973765
 20
77.224575042473646
 30
0.0
 41
1.0
 10
-14770.781328804005
 20
77.223713369116609
 30
0.0
 41
1.0
 10
-14770.780556634247
 20
77.222851695759573
 30
0.0
 41
1.0
 10
-14770.7124184894
 20
77.146815534959003
 30
0.0
 41
0.998814766982557
 10
-14770.651996235176
 20
77.064514528116717
 30
0.0
 41
1.0
 10
-14770.650876909098
 20
77.062989896763185
 30
0.0
 41
1.0
 10
-14770.649757583018
 20
77.061465265409652
 30
0.0
 41
1.0
 10
-14770.587096676652
 20
76.976114995889475
 30
0.0
 41
0.9989452636205822
 10
-14770.532529763705
 20
76.885376306754438
 30
0.0
 41
1.0
 10
-14770.531181037604
 20
76.883133525703158
 30
0.0
 41
1.0
 10
-14770.529832311502
 20
76.880890744651879
 30
0.0
 41
1.0
 10
-14770.472567946368
 20
76.785666493437645
 30
0.0
 41
0.9991046436072653
 10
-14770.423558733044
 20
76.685942060407612
 30
0.0
 41
1.0
 10
-14770.422094871457
 20
76.68296338033943
 30
0.0
 41
1.0
 10
-14770.420631009869
 20
76.679984700271234
 30
0.0
 41
1.0
 10
-14770.368694073357
 20
76.574302907073331
 30
0.0
 41
0.9992763831103211
 10
-14770.324940944791
 20
76.464978845087728
 30
0.0
 41
1.0
 10
-14770.32346167514
 20
76.461282657582757
 30
0.0
 41
1.0
 10
-14770.321982405487
 20
76.457586470077786
 30
0.0
 41
1.0
 10
-14770.275270737604
 20
76.34087003305649
 30
0.0
 41
0.9994163472883123
 10
-14770.236637706414
 20
76.221236444590659
 30
0.0
 41
1.0
 10
-14770.235399554171
 20
76.21740230081997
 30
0.0
 41
1.0
 10
-14770.234161401928
 20
76.213568157049266
 30
0.0
 41
1.0
 10
-14770.194277840907
 20
76.090062095556377
 30
0.0
 41
0.9997268055891729
 10
-14770.16020978499
 20
75.964827063595976
 30
0.0
 41
1.0
 10
-14770.159279604721
 20
75.961407697488823
 30
0.0
 41
1.0
 10
-14770.158349424451
 20
75.957988331381685
 30
0.0
 41
1.0
 10
-14770.126141729081
 20
75.839592031650838
 30
0.0
 41
0.9996701319003296
 10
-14770.100056112307
 20
75.719698078381953
 30
0.0
 41
1.0
 10
-14770.073970495532
 20
75.599804125088554
 30
0.0
 41
0.9995785451112246
 10
-14770.054886918188
 20
75.478598364021366
 30
0.0
 41
1.0
 10
-14770.050667136018
 20
75.451797209278482
 30
0.0
 41
1.0
 10
-14770.046447353849
 20
75.424996054535612
 30
0.0
 41
1.0
 10
-14770.019872377912
 20
75.256210080843275
 30
0.0
 41
0.9979925101216256
 10
-14770.014846791986
 20
75.085418752762052
 30
0.0
 41
1.0
 10
-14770.014021979561
 20
75.057388029225862
 30
0.0
 41
1.0
 10
-14770.013197167134
 20
75.029357305689672
 30
0.0
 41
1.0
 10
-14770.009821206062
 20
74.914627424615873
 30
0.0
 41
0.9995314902267128
 10
-14770.013471398199
 20
74.799905940918507
 30
0.0
 41
1.0
 10
-14770.017121590337
 20
74.685184457164354
 30
0.0
 41
0.999624548694266
 10
-14770.02705068547
 20
74.570835186038181
 30
0.0
 41
1.0
 10
-14770.027213733465
 20
74.568957429905097
 30
0.0
 41
1.0
 10
-14770.027376781458
 20
74.567079673772014
 30
0.0
 41
1.0
 10
-14770.037631972586
 20
74.448974890313181
 30
0.0
 41
0.9997286095003488
 10
-14770.053377296164
 20
74.331475981357698
 30
0.0
 41
1.0
 10
-14770.053770788807
 20
74.328539556718397
 30
0.0
 41
1.0
 10
-14770.054164281448
 20
74.325603132079095
 30
0.0
 41
1.0
 10
-14770.070696590315
 20
74.202231373796465
 30
0.0
 41
0.9998265533968316
 10
-14770.091812049046
 20
74.079560899027328
 30
0.0
 41
1.0
 10
-14770.092488591186
 20
74.075630520502216
 30
0.0
 41
1.0
 10
-14770.093165133327
 20
74.07170014197709
 30
0.0
 41
1.0
 10
-14770.115633676352
 20
73.941168910078204
 30
0.0
 41
0.9999022530853976
 10
-14770.141743140981
 20
73.81131694135388
 30
0.0
 41
1.0
 10
-14770.142721782129
 20
73.806449799057305
 30
0.0
 41
1.0
 10
-14770.143700423276
 20
73.801582656760729
 30
0.0
 41
1.0
 10
-14770.171767170221
 20
73.661996403323087
 30
0.0
 41
0.9999524761938752
 10
-14770.202550139056
 20
73.522983910151311
 30
0.0
 41
1.0
 10
-14770.203826246228
 20
73.517221150864827
 30
0.0
 41
1.0
 10
-14770.2051023534
 20
73.511458391578344
 30
0.0
 41
1.0
 10
-14770.238437536598
 20
73.360920379759079
 30
0.0
 41
0.9999813588723208
 10
-14770.273608537413
 20
73.210800667024913
 30
0.0
 41
1.0
 10
-14770.275162462854
 20
73.204168076666662
 30
0.0
 41
1.0
 10
-14770.276716388296
 20
73.197535486308425
 30
0.0
 41
1.0
 10
-14770.31499524
 20
73.034150592830201
 30
0.0
 41
0.99999552376532
 10
-14770.354251117969
 20
72.870997689271547
 30
0.0
 41
1.0
 10
-14770.366532753611
 20
72.819953498713332
 30
0.0
 41
1.0
 10
-14770.378814389254
 20
72.768909308155116
 30
0.0
 41
1.0
 10
-14770.442633538551
 20
72.503668023310482
 30
0.0
 41
0.9999993604548824
 10
-14770.50705248576
 20
72.238571772451522
 30
0.0
 41
1.0
 10
-14770.511771321264
 20
72.219152864594577
 30
0.0
 41
1.0
 10
-14770.516490156766
 20
72.199733956737646
 30
0.0
 41
1.0
 10
-14770.590346775029
 20
71.895799889969396
 30
0.0
 41
0.9999659914726212
 10
-14770.669206370922
 20
71.593125343377054
 30
0.0
 41
1.0
 10
-14770.674159059847
 20
71.574116206215734
 30
0.0
 41
1.0
 10
-14770.679111748772
 20
71.555107069054429
 30
0.0
 41
1.0
 10
-14770.767876722515
 20
71.214414248141452
 30
0.0
 41
0.9999441976030341
 10
-14770.863819755479
 20
70.875672822845488
 30
0.0
 41
1.0
 10
-14770.880520273906
 20
70.816709110313269
 30
0.0
 41
1.0
 10
-14770.897220792333
 20
70.757745397781036
 30
0.0
 41
1.0
 10
-14771.02656486217
 20
70.301076547347066
 30
0.0
 41
0.9999625120737478
 10
-14771.16379762951
 20
69.846716013296017
 30
0.0
 41
1.0
 10
-14771.19958757257
 20
69.728219986742076
 30
0.0
 41
1.0
 10
-14771.235377515632
 20
69.609723960188134
 30
0.0
 41
1.0
 10
-14771.30989771967
 20
69.362996882097605
 30
0.0
 41
0.9999793386308825
 10
-14771.387583742813
 20
69.117248242838514
 30
0.0
 41
1.0
 10
-14771.465269765951
 20
68.871499603602388
 30
0.0
 41
1.0
 10
-14771.476049324823
 20
68.837481699227737
 30
0.0
 41
1.0
 10
-14773.326422378093
 20
62.950409776760125
 30
0.0
 41
1.0
 10
-14775.176795431362
 20
57.063337854292513
 30
0.0
 41
1.0
 10
-14776.138052121385
 20
57.063337854292513
 30
0.0
 41
1.0
 10
-14777.099308811408
 20
57.063337854292513
 30
0.0
 41
1.0
 10
-14775.48036403273
 20
62.211366356082181
 30
0.0
 41
1.0
 10
-14773.861419254052
 20
67.359394857871848
 30
0.0
 41
1.0
 10
-14773.816253430912
 20
67.503426080028177
 30
0.0
 41
1.0
 10
-14773.771087607774
 20
67.647457302184506
 30
0.0
 41
1.0
 10
-14773.600783190373
 20
68.190548331463987
 30
0.0
 41
0.9999911657910329
 10
-14773.435050378659
 20
68.735051862937553
 30
0.0
 41
1.0
 10
-14773.40535443523
 20
68.832615802754574
 30
0.0
 41
1.0
 10
-14773.375658491801
 20
68.930179742571596
 30
0.0
 41
1.0
 10
-14773.269317567047
 20
69.279555394085293
 30
0.0
 41
0.9999952428124118
 10
-14773.165133977654
 20
69.629580418650903
 30
0.0
 41
1.0
 10
-14773.160074507308
 20
69.646578692968603
 30
0.0
 41
1.0
 10
-14773.155015036964
 20
69.663576967286289
 30
0.0
 41
1.0
 10
-14773.060950388319
 20
69.979605443034359
 30
0.0
 41
0.9999931687525155
 10
-14772.969224550456
 20
70.296320656270836
 30
0.0
 41
1.0
 10
-14772.964289285956
 20
70.313361365682255
 30
0.0
 41
1.0
 10
-14772.959354021456
 20
70.330402075093687
 30
0.0
 41
1.0
 10
-14772.877498712543
 20
70.613035869677731
 30
0.0
 41
0.9999893840784159
 10
-14772.798251486125
 20
70.896411998787698
 30
0.0
 41
1.0
 10
-14772.719004259656
 20
71.17978812807614
 30
0.0
 41
0.9999833980065138
 10
-14772.643028018903
 20
71.464058711147302
 30
0.0
 41
1.0
 10
-14772.63402408221
 20
71.49774758951277
 30
0.0
 41
1.0
 10
-14772.625020145519
 20
71.531436467878237
 30
0.0
 41
1.0
 10
-14772.556055596635
 20
71.789472300241357
 30
0.0
 41
0.9999233658064357
 10
-14772.493500625395
 20
72.04913645904071
 30
0.0
 41
1.0
 10
-14772.430945654174
 20
72.308800617763154
 30
0.0
 41
1.0
 10
-14772.391462235317
 20
72.472607282189529
 30
0.0
 41
1.0
 10
-14772.386483631391
 20
72.493262243840206
 30
0.0
 41
1.0
 10
-14772.381505027468
 20
72.51391720549087
 30
0.0
 41
1.0
 10
-14772.35197881651
 20
72.63641394640581
 30
0.0
 41
0.9999868670865026
 10
-14772.323709732464
 20
72.759206892261318
 30
0.0
 41
1.0
 10
-14772.31981224531
 20
72.776136479656572
 30
0.0
 41
1.0
 10
-14772.315914758159
 20
72.793066067051825
 30
0.0
 41
1.0
 10
-14772.295440648471
 20
72.881999837890163
 30
0.0
 41
0.9999778173345892
 10
-14772.276153050352
 20
72.971198455137255
 30
0.0
 41
1.0
 10
-14772.256865452253
 20
73.060397072289078
 30
0.0
 41
0.9999602692864327
 10
-14772.239171093637
 20
73.149925360639273
 30
0.0
 41
1.0
 10
-14772.235967261544
 20
73.166135815602217
 30
0.0
 41
1.0
 10
-14772.232763429451
 20
73.182346270565176
 30
0.0
 41
1.0
 10
-14772.208661406657
 20
73.304295468799211
 30
0.0
 41
0.9995617985319791
 10
-14772.191818059435
 20
73.427457216541214
 30
0.0
 41
1.0
 10
-14772.189353569529
 20
73.445478033903839
 30
0.0
 41
1.0
 10
-14772.186889079623
 20
73.463498851266479
 30
0.0
 41
1.0
 10
-14772.16660581858
 20
73.611813900933726
 30
0.0
 41
0.9991121410634523
 10
-14772.158880464996
 20
73.761309999707464
 30
0.0
 41
1.0
 10
-14772.157961674977
 20
73.779089836199176
 30
0.0
 41
1.0
 10
-14772.157042884955
 20
73.796869672690875
 30
0.0
 41
1.0
 10
-14772.151155111413
 20
73.910806098429092
 30
0.0
 41
0.998979249492212
 10
-14772.155574203527
 20
74.024808934412022
 30
0.0
 41
1.0
 10
-14772.156222175396
 20
74.04152518033132
 30
0.0
 41
1.0
 10
-14772.156870147262
 20
74.058241426250603
 30
0.0
 41
1.0
 10
-14772.159993295643
 20
74.13881177030332
 30
0.0
 41
0.9997820295393433
 10
-14772.16647729302
 20
74.219181492054531
 30
0.0
 41
1.0
 10
-14772.172961290396
 20
74.299551213814269
 30
0.0
 41
0.999833510597209
 10
-14772.18237348591
 20
74.379630830281641
 30
0.0
 41
1.0
 10
-14772.183968410583
 20
74.393200560748227
 30
0.0
 41
1.0
 10
-14772.185563335259
 20
74.406770291214798
 30
0.0
 41
1.0
 10
-14772.198165380121
 20
74.513989368614773
 30
0.0
 41
0.9996876457879297
 10
-14772.216109292916
 20
74.620444796312839
 30
0.0
 41
1.0
 10
-14772.218340956064
 20
74.633684531563006
 30
0.0
 41
1.0
 10
-14772.22057261921
 20
74.646924266813159
 30
0.0
 41
1.0
 10
-14772.234368440631
 20
74.728770410783241
 30
0.0
 41
0.9995547496494427
 10
-14772.253021762526
 20
74.809647907979979
 30
0.0
 41
1.0
 10
-14772.253395719392
 20
74.811269318663904
 30
0.0
 41
1.0
 10
-14772.253769676259
 20
74.812890729347814
 30
0.0
 41
1.0
 10
-14772.271675084414
 20
74.890525405146718
 30
0.0
 41
0.9994899427179032
 10
-14772.294499993099
 20
74.966858688005686
 30
0.0
 41
1.0
 10
-14772.294958519848
 20
74.968392137818881
 30
0.0
 41
1.0
 10
-14772.295417046595
 20
74.96992558763209
 30
0.0
 41
1.0
 10
-14772.317324901785
 20
75.043191970863404
 30
0.0
 41
0.9993784877586942
 10
-14772.344340536885
 20
75.114732675998994
 30
0.0
 41
1.0
 10
-14772.344872227859
 20
75.116140658711046
 30
0.0
 41
1.0
 10
-14772.345403918833
 20
75.117548641423099
 30
0.0
 41
1.0
 10
-14772.371356171989
 20
75.186273381154223
 30
0.0
 41
0.9992430832253906
 10
-14772.402572707149
 20
75.252772533226334
 30
0.0
 41
1.0
 10
-14772.403154823205
 20
75.254012588339577
 30
0.0
 41
1.0
 10
-14772.403736939259
 20
75.25525264345282
 30
0.0
 41
1.0
 10
-14772.433789242306
 20
75.319271685287845
 30
0.0
 41
0.9990789632804114
 10
-14772.469219869086
 20
75.380478297044192
 30
0.0
 41
1.0
 10
-14772.469815575267
 20
75.381507382899642
 30
0.0
 41
1.0
 10
-14772.470411281445
 20
75.382536468755092
 30
0.0
 41
1.0
 10
-14772.504650495859
 20
75.441684908787408
 30
0.0
 41
0.9988874801123897
 10
-14772.544309771894
 20
75.497344621211596
 30
0.0
 41
1.0
 10
-14772.544865297958
 20
75.498124272886088
 30
0.0
 41
1.0
 10
-14772.545420824023
 20
75.498903924560594
 30
0.0
 41
1.0
 10
-14772.583969047928
 20
75.553004333630255
 30
0.0
 41
0.9986762060694592
 10
-14772.627871519202
 20
75.602858048068583
 30
0.0
 41
1.0
 10
-14772.628315479538
 20
75.603362189890788
 30
0.0
 41
1.0
 10
-14772.628759439876
 20
75.603866331712979
 30
0.0
 41
1.0
 10
-14772.67177399048
 20
75.652711762508616
 30
0.0
 41
0.9984621642485663
 10
-14772.719931547257
 20
75.696495062979011
 30
0.0
 41
1.0
 10
-14772.720178181768
 20
75.696719295137086
 30
0.0
 41
1.0
 10
-14772.720424816278
 20
75.696943527295147
 30
0.0
 41
1.0
 10
-14772.768089104024
 20
75.740278363440851
 30
0.0
 41
0.9982724693859782
 10
-14772.820507735876
 20
75.777722713967933
 30
0.0
 41
1.0
 10
-14772.872926367723
 20
75.815167064489501
 30
0.0
 41
0.9981399180154278
 10
-14772.929512431112
 20
75.845953583930168
 30
0.0
 41
1.0
 10
-14772.92955809319
 20
75.84597842708672
 30
0.0
 41
1.0
 10
-14772.929603755267
 20
75.846003270243273
 30
0.0
 41
1.0
 10
-14772.986281142814
 20
75.876839476000171
 30
0.0
 41
0.9980927086832198
 10
-14773.046326493877
 20
75.900456284850421
 30
0.0
 41
1.0
 10
-14773.046766663592
 20
75.900629410726879
 30
0.0
 41
1.0
 10
-14773.047206833307
 20
75.900802536603351
 30
0.0
 41
1.0
 10
-14773.108132523792
 20
75.924765597204058
 30
0.0
 41
0.998141135656155
 10
-14773.171521045193
 20
75.941138238710451
 30
0.0
 41
1.0
 10
-14773.172403161898
 20
75.941366080916509
 30
0.0
 41
1.0
 10
-14773.173285278601
 20
75.941593923122582
 30
0.0
 41
1.0
 10
-14773.238438033402
 20
75.9584222490397
 30
0.0
 41
0.9983031812929649
 10
-14773.305105462399
 20
75.967561610215952
 30
0.0
 41
1.0
 10
-14773.3139764878
 20
75.96877772888692
 30
0.0
 41
1.0
 10
-14773.322847513202
 20
75.969993847557902
 30
0.0
 41
1.0
 10
-14773.377197155702
 20
75.977444577547615
 30
0.0
 41
0.9983887708274272
 10
-14773.432041005
 20
75.978689251182459
 30
0.0
 41
1.0
 10
-14773.44010441022
 20
75.978872249057318
 30
0.0
 41
1.0
 10
-14773.448167815439
 20
75.979055246932177
 30
0.0
 41
1.0
 10
-14773.486884854325
 20
75.979933924816379
 30
0.0
 41
0.9998869563077953
 10
-14773.525610807497
 20
75.979648055455982
 30
0.0
 41
1.0
 10
-14773.564336760708
 20
75.979362186097148
 30
0.0
 41
0.9999972320041172
 10
-14773.603060939899
 20
75.97889408656745
 30
0.0
 41
1.0
 10
-14773.622413956484
 20
75.978660146478006
 30
0.0
 41
1.0
 10
-14773.641766973069
 20
75.978426206388576
 30
0.0
 41
1.0
 10
-14773.719197185454
 20
75.977490226680672
 30
0.0
 41
0.9997304945086697
 10
-14773.796500491682
 20
75.972961132894469
 30
0.0
 41
1.0
 10
-14773.805550133384
 20
75.97243092690465
 30
0.0
 41
1.0
 10
-14773.814599775087
 20
75.971900720914846
 30
0.0
 41
1.0
 10
-14773.910002364726
 20
75.96631121514865
 30
0.0
 41
0.999788830641706
 10
-14774.005094700573
 20
75.956806250660065
 30
0.0
 41
1.0
 10
-14774.013815762148
 20
75.955934536027712
 30
0.0
 41
1.0
 10
-14774.022536823722
 20
75.955062821395359
 30
0.0
 41
1.0
 10
-14774.135071282706
 20
75.943814427642124
 30
0.0
 41
0.9984170238193256
 10
-14774.245630430063
 20
75.919998345705537
 30
0.0
 41
1.0
 10
-14774.282011561048
 20
75.912161309899574
 30
0.0
 41
1.0
 10
-14774.318392692036
 20
75.904324274093625
 30
0.0
 41
1.0
 10
-14774.433583760454
 20
75.879510407583979
 30
0.0
 41
0.9976592854203933
 10
-14774.54431192686
 20
75.839211730437228
 30
0.0
 41
1.0
 10
-14774.655040093274
 20
75.798913053286213
 30
0.0
 41
0.9993255074353978
 10
-14774.762511892055
 20
75.750596154798131
 30
0.0
 41
1.0
 10
-14774.76713707098
 20
75.748516778598173
 30
0.0
 41
1.0
 10
-14774.771762249902
 20
75.746437402398215
 30
0.0
 41
1.0
 10
-14774.888484406531
 20
75.693961751510983
 30
0.0
 41
0.9976475078276409
 10
-14774.996931750833
 20
75.626013761858815
 30
0.0
 41
1.0
 10
-14775.015274144967
 20
75.614521283045491
 30
0.0
 41
1.0
 10
-14775.0336165391
 20
75.603028804232167
 30
0.0
 41
1.0
 10
-14775.117818730658
 20
75.550271683458817
 30
0.0
 41
0.999513133641075
 10
-14775.19856644563
 20
75.492365471497351
 30
0.0
 41
1.0
 10
-14775.279314160603
 20
75.434459259531053
 30
0.0
 41
0.9995810107606967
 10
-14775.356575808348
 20
75.371977577052377
 30
0.0
 41
1.0
 10
-14775.359545839543
 20
75.369575705600838
 30
0.0
 41
1.0
 10
-14775.362515870736
 20
75.367173834149298
 30
0.0
 41
1.0
 10
-14775.445717580917
 20
75.299888408729473
 30
0.0
 41
0.9996617837952315
 10
-14775.525308268077
 20
75.228367953143376
 30
0.0
 41
1.0
 10
-14775.537439018932
 20
75.217467220172907
 30
0.0
 41
1.0
 10
-14775.549569769786
 20
75.206566487202437
 30
0.0
 41
1.0
 10
-14775.617845297176
 20
75.145213871735919
 30
0.0
 41
0.9997267750050931
 10
-14775.683178805455
 20
75.08073733521428
 30
0.0
 41
1.0
 10
-14775.748512313749
 20
75.016260798680747
 30
0.0
 41
0.9999667288957661
 10
-14775.812785256869
 20
74.95072699181253
 30
0.0
 41
1.0
 10
-14775.881612704652
 20
74.880549333045394
 30
0.0
 41
1.0
 10
-14775.950440152435
 20
74.810371674278258
 30
0.0
 41
1.0
 10
-14776.152367991135
 20
74.604482549866447
 30
0.0
 41
0.9988205335174247
 10
-14776.333373608109
 20
74.379978317811066
 30
0.0
 41
1.0
 10
-14776.364013573017
 20
74.341975067379067
 30
0.0
 41
1.0
 10
-14776.394653537922
 20
74.303971816947069
 30
0.0
 41
1.0
 10
-14776.636939084719
 20
74.003461084015228
 30
0.0
 41
0.999707782675492
 10
-14776.864417035828
 20
73.691591289794573
 30
0.0
 41
1.0
 10
-14776.866140450951
 20
73.689228506422864
 30
0.0
 41
1.0
 10
-14776.867863866077
 20
73.686865723051142
 30
0.0
 41
1.0
 10
-14777.09878864744
 20
73.370270362080731
 30
0.0
 41
0.9989147567079654
 10
-14777.299252150318
 20
73.033560900907389
 30
0.0
 41
1.0
 10
-14777.323993295606
 20
72.992004320386059
 30
0.0
 41
1.0
 10
-14777.348734440895
 20
72.950447739864728
 30
0.0
 41
1.0
 10
-14777.503945739558
 20
72.689746355365202
 30
0.0
 41
0.999747659818265
 10
-14777.647290727087
 20
72.422336606750378
 30
0.0
 41
1.0
 10
-14777.790635714598
 20
72.154926858163549
 30
0.0
 41
0.99962589671102
 10
-14777.919143966526
 20
71.880078921547863
 30
0.0
 41
1.0
 10
-14777.932343875991
 20
71.851847521420467
 30
0.0
 41
1.0
 10
-14777.945543785456
 20
71.823616121293085
 30
0.0
 41
1.0
 10
-14778.08575250644
 20
71.523743723370757
 30
0.0
 41
0.999873541394708
 10
-14778.216353853148
 20
71.219564123931832
 30
0.0
 41
1.0
 10
-14778.219796681193
 20
71.211545538504055
 30
0.0
 41
1.0
 10
-14778.223239509238
 20
71.203526953076278
 30
0.0
 41
1.0
 10
-14778.346955199848
 20
70.915384524511282
 30
0.0
 41
0.9999377418862323
 10
-14778.464210002043
 20
70.624553056788955
 30
0.0
 41
1.0
 10
-14778.581464804252
 20
70.333721589027434
 30
0.0
 41
0.9999508299501831
 10
-14778.69292874766
 20
70.040621912123726
 30
0.0
 41
1.0
 10
-14778.69600951629
 20
70.032520886243802
 30
0.0
 41
1.0
 10
-14778.699090284921
 20
70.024419860363878
 30
0.0
 41
1.0
 10
-14778.816715765646
 20
69.71511813155773
 30
0.0
 41
0.9999609228429977
 10
-14778.928854368536
 20
69.403785115494529
 30
0.0
 41
1.0
 10
-14778.931810378866
 20
69.395578275137439
 30
0.0
 41
1.0
 10
-14778.934766389197
 20
69.387371434780334
 30
0.0
 41
1.0
 10
-14779.052817012738
 20
69.059624738034429
 30
0.0
 41
0.9999674607407012
 10
-14779.165564538769
 20
68.730016118148228
 30
0.0
 41
1.0
 10
-14779.216962929362
 20
68.579756922368233
 30
0.0
 41
1.0
 10
-14779.268361319955
 20
68.429497726588238
 30
0.0
 41
1.0
 10
-14779.384371926721
 20
68.090349744064213
 30
0.0
 41
0.9999287532307165
 10
-14779.492253330693
 20
67.74852900508813
 30
0.0
 41
1.0
 10
-14779.538730586748
 20
67.601266460977769
 30
0.0
 41
1.0
 10
-14779.585207842805
 20
67.454003916867421
 30
0.0
 41
1.0
 10
-14779.600134734541
 20
67.406708266500203
 30
0.0
 41
0.9999998223764316
 10
-14779.615005243393
 20
67.359394857871848
 30
0.0
 41
1.0
 10
-14781.235661380189
 20
62.211366356082181
 30
0.0
 41
1.0
 10
-14782.856317516984
 20
57.063337854292513
 30
0.0
 41
1.0
 10
-14783.761625960875
 20
57.063337854292513
 30
0.0
 41
1.0
 10
-14784.666934404766
 20
57.063337854292513
 30
0.0
 41
1.0
 10
-14782.81484999338
 20
62.950409776760125
 30
0.0
 41
1.0
 10
-14780.962765581993
 20
68.837481699227737
 30
0.0
 41
1.0
 10
-14780.95264382369
 20
68.869524912677662
 30
0.0
 41
1.0
 10
-14780.88003615484
 20
69.099824454503505
 30
0.0
 41
1.0
 10
-14780.807428486009
 20
69.3301239962735
 30
0.0
 41
0.9999825681964362
 10
-14780.737545446822
 20
69.561264891255973
 30
0.0
 41
1.0
 10
-14780.689254384652
 20
69.720989474779586
 30
0.0
 41
1.0
 10
-14780.640963322483
 20
69.880714058303198
 30
0.0
 41
1.0
 10
-14780.543810969153
 20
70.202049280121273
 30
0.0
 41
0.9999672528956931
 10
-14780.45187216352
 20
70.52491482574419
 30
0.0
 41
1.0
 10
-14780.449083279913
 20
70.53470867090823
 30
0.0
 41
1.0
 10
-14780.446294396308
 20
70.544502516072285
 30
0.0
 41
1.0
 10
-14780.359933357955
 20
70.847780371129204
 30
0.0
 41
0.9999899749161852
 10
-14780.276291748361
 20
71.151819459782928
 30
0.0
 41
1.0
 10
-14780.266185829365
 20
71.188554697385683
 30
0.0
 41
1.0
 10
-14780.256079910367
 20
71.225289934988425
 30
0.0
 41
1.0
 10
-14780.192650138848
 20
71.455858548154538
 30
0.0
 41
0.9999214200503479
 10
-14780.135020710448
 20
71.687944890444669
 30
0.0
 41
1.0
 10
-14780.122254858314
 20
71.739355775657032
 30
0.0
 41
1.0
 10
-14780.109489006178
 20
71.790766660869394
 30
0.0
 41
1.0
 10
-14780.077391282113
 20
71.920031232477442
 30
0.0
 41
0.9999828681659538
 10
-14780.046809030075
 20
72.04966270712157
 30
0.0
 41
1.0
 10
-14780.016226778098
 20
72.179294181510826
 30
0.0
 41
0.9999389844479104
 10
-14779.988515789322
 20
72.309569637339749
 30
0.0
 41
1.0
 10
-14779.981378045586
 20
72.343125741251782
 30
0.0
 41
1.0
 10
-14779.97424030185
 20
72.37668184516383
 30
0.0
 41
1.0
 10
-14779.932253825611
 20
72.574069508782515
 30
0.0
 41
0.9998933699440541
 10
-14779.896049561199
 20
72.772599116595913
 30
0.0
 41
1.0
 10
-14779.894676735992
 20
72.78012713724317
 30
0.0
 41
1.0
 10
-14779.893303910785
 20
72.787655157890413
 30
0.0
 41
1.0
 10
-14779.854353995952
 20
73.001240807033099
 30
0.0
 41
0.9996850305192953
 10
-14779.826170319695
 20
73.21651181245943
 30
0.0
 41
1.0
 10
-14779.824175286321
 20
73.231750166603433
 30
0.0
 41
1.0
 10
-14779.82218025295
 20
73.246988520747422
 30
0.0
 41
1.0
 10
-14779.794772390493
 20
73.456333747891406
 30
0.0
 41
0.9994697936706855
 10
-14779.781047831275
 20
73.667018943208177
 30
0.0
 41
1.0
 10
-14779.780570762026
 20
73.674342415398826
 30
0.0
 41
1.0
 10
-14779.780093692778
 20
73.681665887589489
 30
0.0
 41
1.0
 10
-14779.767323272057
 20
73.877704138518311
 30
0.0
 41
0.9991804893140374
 10
-14779.770451588327
 20
74.074132988512247
 30
0.0
 41
1.0
 10
-14779.770535467149
 20
74.079399789961826
 30
0.0
 41
1.0
 10
-14779.770619345973
 20
74.084666591411406
 30
0.0
 41
1.0
 10
-14779.7735799046
 20
74.270561838522497
 30
0.0
 41
0.9988448329316056
 10
-14779.794371450225
 20
74.45531442831907
 30
0.0
 41
1.0
 10
-14779.795965523928
 20
74.469479284084386
 30
0.0
 41
1.0
 10
-14779.79755959763
 20
74.483644139849702
 30
0.0
 41
1.0
 10
-14779.815162995848
 20
74.640067018146468
 30
0.0
 41
0.9985503209458354
 10
-14779.849479268149
 20
74.793691202241689
 30
0.0
 41
1.0
 10
-14779.857065260216
 20
74.827651529625371
 30
0.0
 41
1.0
 10
-14779.864651252283
 20
74.861611857009038
 30
0.0
 41
1.0
 10
-14779.883795540443
 20
74.947315386314187
 30
0.0
 41
0.9991036781372058
 10
-14779.910120402099
 20
75.031092473655917
 30
0.0
 41
1.0
 10
-14779.914102627557
 20
75.043765636173106
 30
0.0
 41
1.0
 10
-14779.918084853014
 20
75.056438798690294
 30
0.0
 41
1.0
 10
-14779.936445263751
 20
75.114869560984801
 30
0.0
 41
0.9998874504369061
 10
-14779.956550471428
 20
75.172723163204182
 30
0.0
 41
1.0
 10
-14779.976655679106
 20
75.230576765425141
 30
0.0
 41
0.9994041637543595
 10
-14780.000704292041
 20
75.286905469313766
 30
0.0
 41
1.0
 10
-14780.004901076269
 20
75.29673553380573
 30
0.0
 41
1.0
 10
-14780.009097860497
 20
75.306565598297695
 30
0.0
 41
1.0
 10
-14780.036976691488
 20
75.371865764254551
 30
0.0
 41
0.999184684070243
 10
-14780.070033048178
 20
75.434703795528549
 30
0.0
 41
1.0
 10
-14780.071169654584
 20
75.436864412004638
 30
0.0
 41
1.0
 10
-14780.07230626099
 20
75.439025028480714
 30
0.0
 41
1.0
 10
-14780.103089404882
 20
75.497541826828297
 30
0.0
 41
0.998925316791439
 10
-14780.139158828926
 20
75.55295675519892
 30
0.0
 41
1.0
 10
-14780.140212953589
 20
75.554576249942102
 30
0.0
 41
1.0
 10
-14780.14126707825
 20
75.556195744685297
 30
0.0
 41
1.0
 10
-14780.175228252967
 20
75.608371683568663
 30
0.0
 41
0.9986467172839335
 10
-14780.214425405618
 20
75.656737717218675
 30
0.0
 41
1.0
 10
-14780.215299534326
 20
75.657816319504647
 30
0.0
 41
1.0
 10
-14780.216173663033
 20
75.658894921790619
 30
0.0
 41
1.0
 10
-14780.253622558261
 20
75.705103750854533
 30
0.0
 41
0.998400110426224
 10
-14780.296049288772
 20
75.746788858217087
 30
0.0
 41
1.0
 10
-14780.296636426876
 20
75.747365733092806
 30
0.0
 41
1.0
 10
-14780.29722356498
 20
75.74794260796854
 30
0.0
 41
1.0
 10
-14780.33847601928
 20
75.788473965577523
 30
0.0
 41
0.9982442159090814
 10
-14780.384232120625
 20
75.823842526846192
 30
0.0
 41
1.0
 10
-14780.384446916085
 20
75.824008559488163
 30
0.0
 41
1.0
 10
-14780.384661711545
 20
75.82417459213012
 30
0.0
 41
1.0
 10
-14780.429988221957
 20
75.85921108810345
 30
0.0
 41
0.998245006084118
 10
-14780.479139201032
 20
75.888642871139837
 30
0.0
 41
1.0
 10
-14780.528290180097
 20
75.918074654169487
 30
0.0
 41
0.998392263963615
 10
-14780.580456486257
 20
75.941754288822224
 30
0.0
 41
1.0
 10
-14780.580683363587
 20
75.941857274306329
 30
0.0
 41
1.0
 10
-14780.580910240918
 20
75.941960259790449
 30
0.0
 41
1.0
 10
-14780.633530301713
 20
75.96584586539862
 30
0.0
 41
0.9986517147160188
 10
-14780.68834327458
 20
75.984146984522809
 30
0.0
 41
1.0
 10
-14780.689021196016
 20
75.984373330957396
 30
0.0
 41
1.0
 10
-14780.689699117454
 20
75.984599677391998
 30
0.0
 41
1.0
 10
-14780.745867933183
 20
76.003353489377503
 30
0.0
 41
0.9989435598957307
 10
-14780.80352132034
 20
76.016871191613063
 30
0.0
 41
1.0
 10
-14780.804601439917
 20
76.017124441865008
 30
0.0
 41
1.0
 10
-14780.805681559494
 20
76.017377692116952
 30
0.0
 41
1.0
 10
-14780.865495185808
 20
76.031401894857908
 30
0.0
 41
0.9992249241238174
 10
-14780.926226694701
 20
76.040677237572282
 30
0.0
 41
1.0
 10
-14780.927640382994
 20
76.040893145980377
 30
0.0
 41
1.0
 10
-14780.929054071286
 20
76.041109054388471
 30
0.0
 41
1.0
 10
-14780.992612956781
 20
76.05081621392074
 30
0.0
 41
0.9994396597836184
 10
-14781.056678893305
 20
76.056249136265251
 30
0.0
 41
1.0
 10
-14781.075819560781
 20
76.057872303983913
 30
0.0
 41
1.0
 10
-14781.09496022826
 20
76.059495471702576
 30
0.0
 41
1.0
 10
-14781.197307499748
 20
76.068174729484383
 30
0.0
 41
0.998769340312611
 10
-14781.300011123338
 20
76.066671666032946
 30
0.0
 41
1.0
 10
-14781.310265457567
 20
76.066521594258703
 30
0.0
 41
1.0
 10
-14781.320519791796
 20
76.066371522484459
 30
0.0
 41
1.0
 10
-14781.430075557972
 20
76.064768178196388
 30
0.0
 41
0.9989753644968388
 10
-14781.539037557988
 20
76.053265171271732
 30
0.0
 41
1.0
 10
-14781.647999558003
 20
76.04176216434746
 30
0.0
 41
0.9983190067304063
 10
-14781.754898368974
 20
76.017727172559205
 30
0.0
 41
1.0
 10
-14781.763799320579
 20
76.015725893996859
 30
0.0
 41
1.0
 10
-14781.772700272184
 20
76.013724615434512
 30
0.0
 41
1.0
 10
-14781.897400986369
 20
75.98568706652037
 30
0.0
 41
0.9985539388304157
 10
-14782.018370740045
 20
75.944423390475563
 30
0.0
 41
1.0
 10
-14782.020716171002
 20
75.943623346660388
 30
0.0
 41
1.0
 10
-14782.023061601962
 20
75.942823302845227
 30
0.0
 41
1.0
 10
-14782.148722217566
 20
75.899959539165536
 30
0.0
 41
0.9988468746494734
 10
-14782.269692559861
 20
75.845241454105192
 30
0.0
 41
1.0
 10
-14782.272875381848
 20
75.843801779545373
 30
0.0
 41
1.0
 10
-14782.276058203837
 20
75.842362104985568
 30
0.0
 41
1.0
 10
-14782.403394190114
 20
75.784764670802588
 30
0.0
 41
0.9991322885920505
 10
-14782.525494774185
 20
75.716769338613489
 30
0.0
 41
1.0
 10
-14782.543096785237
 20
75.70696713661826
 30
0.0
 41
1.0
 10
-14782.560698796291
 20
75.697164934623018
 30
0.0
 41
1.0
 10
-14782.662875477325
 20
75.640264818855925
 30
0.0
 41
0.9993860037848483
 10
-14782.76081648139
 20
75.576348803272595
 30
0.0
 41
1.0
 10
-14782.766434794259
 20
75.572682308566129
 30
0.0
 41
1.0
 10
-14782.77205310713
 20
75.569015813859679
 30
0.0
 41
1.0
 10
-14782.858757485466
 20
75.51243278768095
 30
0.0
 41
0.999882149495651
 10
-14782.943683861275
 20
75.453214557607225
 30
0.0
 41
1.0
 10
-14783.028610237074
 20
75.393996327540265
 30
0.0
 41
0.9997976482744936
 10
-14783.11108586746
 20
75.331409919512794
 30
0.0
 41
1.0
 10
-14783.125722132281
 20
75.320303229720992
 30
0.0
 41
1.0
 10
-14783.140358397102
 20
75.309196539929189
 30
0.0
 41
1.0
 10
-14783.252106557129
 20
75.224396752319421
 30
0.0
 41
0.9998091630798831
 10
-14783.360456835173
 20
75.135296401602318
 30
0.0
 41
1.0
 10
-14783.373462587635
 20
75.124601301168354
 30
0.0
 41
1.0
 10
-14783.386468340099
 20
75.113906200734391
 30
0.0
 41
1.0
 10
-14783.520830123063
 20
75.003415649155642
 30
0.0
 41
0.9995035112317702
 10
-14783.647966000821
 20
74.884681832147635
 30
0.0
 41
1.0
 10
-14783.657613311225
 20
74.875672085973733
 30
0.0
 41
1.0
 10
-14783.667260621629
 20
74.866662339799831
 30
0.0
 41
1.0
 10
-14783.79068368439
 20
74.751395968047859
 30
0.0
 41
0.9994630424298556
 10
-14783.906292090167
 20
74.628293224819117
 30
0.0
 41
1.0
 10
-14783.909974928931
 20
74.624371645314667
 30
0.0
 41
1.0
 10
-14783.913657767695
 20
74.620450065810218
 30
0.0
 41
1.0
 10
-14784.02190049594
 20
74.505190481595946
 30
0.0
 41
0.9995160693752523
 10
-14784.122766525483
 20
74.383423063711462
 30
0.0
 41
1.0
 10
-14784.12470024556
 20
74.381088639506601
 30
0.0
 41
1.0
 10
-14784.126633965639
 20
74.378754215301754
 30
0.0
 41
1.0
 10
-14784.223632555009
 20
74.261655645845039
 30
0.0
 41
0.9996561470515544
 10
-14784.314358773681
 20
74.139632883389822
 30
0.0
 41
1.0
 10
-14784.320516439588
 20
74.131351094343216
 30
0.0
 41
1.0
 10
-14784.326674105492
 20
74.12306930529661
 30
0.0
 41
1.0
 10
-14784.405084992359
 20
74.01761012092652
 30
0.0
 41
0.9998349055170951
 10
-14784.479612274279
 20
73.909371537277138
 30
0.0
 41
1.0
 10
-14784.554139556214
 20
73.801132953609553
 30
0.0
 41
0.9999728109571693
 10
-14784.627062452126
 20
73.691807028052409
 30
0.0
 41
1.0
 10
-14784.628377667535
 20
73.68983525855289
 30
0.0
 41
1.0
 10
-14784.629692882945
 20
73.68786348905337
 30
0.0
 41
1.0
 10
-14784.705246209676
 20
73.574594024498538
 30
0.0
 41
0.9999972147365721
 10
-14784.780264019986
 20
73.46096918175796
 30
0.0
 41
1.0
 10
-14784.785235562642
 20
73.453439093235261
 30
0.0
 41
1.0
 10
-14784.790207105298
 20
73.445909004712576
 30
0.0
 41
1.0
 10
-14784.87516800089
 20
73.317223984970454
 30
0.0
 41
0.9999371979008638
 10
-14784.957223350248
 20
73.186667071270151
 30
0.0
 41
1.0
 10
-14784.960732234646
 20
73.18108414314699
 30
0.0
 41
1.0
 10
-14784.964241119043
 20
73.175501215023814
 30
0.0
 41
1.0
 10
-14785.053314237184
 20
73.03377844509842
 30
0.0
 41
0.9998272025609383
 10
-14785.137057628073
 20
72.888842568341531
 30
0.0
 41
1.0
 10
-14785.152272800089
 20
72.862509453900572
 30
0.0
 41
1.0
 10
-14785.167487972103
 20
72.836176339459598
 30
0.0
 41
1.0
 10
-14785.281661707035
 20
72.638574233801862
 30
0.0
 41
0.9995217214837542
 10
-14785.383401396592
 20
72.434291905939162
 30
0.0
 41
1.0
 10
-14785.391044959222
 20
72.418944456244404
 30
0.0
 41
1.0
 10
-14785.398688521853
 20
72.403597006549646
 30
0.0
 41
1.0
 10
-14785.48559381445
 20
72.229100548454838
 30
0.0
 41
0.9998269762606822
 10
-14785.56594828072
 20
72.051492261731028
 30
0.0
 41
1.0
 10
-14785.646302747011
 20
71.873883974969132
 30
0.0
 41
0.9998944747386199
 10
-14785.721463541588
 20
71.694016249304667
 30
0.0
 41
1.0
 10
-14785.726417211141
 20
71.6821615944786
 30
0.0
 41
1.0
 10
-14785.731370880694
 20
71.670306939652534
 30
0.0
 41
1.0
 10
-14785.812017941264
 20
71.477309999594823
 30
0.0
 41
0.9999506734415881
 10
-14785.888815470196
 20
71.282749194668213
 30
0.0
 41
1.0
 10
-14785.903415435434
 20
71.245761272947007
 30
0.0
 41
1.0
 10
-14785.918015400672
 20
71.208773351225801
 30
0.0
 41
1.0
 10
-14785.965612999064
 20
71.088188389909675
 30
0.0
 41
0.9999912393953806
 10
-14786.012199443123
 20
70.967209187116168
 30
0.0
 41
1.0
 10
-14786.058785887199
 20
70.846229984277258
 30
0.0
 41
0.9999927113996016
 10
-14786.104447181633
 20
70.724898576667698
 30
0.0
 41
1.0
 10
-14786.118415612984
 20
70.687781594794117
 30
0.0
 41
1.0
 10
-14786.132384044335
 20
70.650664612920536
 30
0.0
 41
1.0
 10
-14786.205982201527
 20
70.45509924141659
 30
0.0
 41
0.9999487550948045
 10
-14786.2756058265
 20
70.258083876228199
 30
0.0
 41
1.0
 10
-14786.299199436449
 20
70.191320565901634
 30
0.0
 41
1.0
 10
-14786.322793046398
 20
70.124557255575084
 30
0.0
 41
1.0
 10
-14786.417478680756
 20
69.85662342078426
 30
0.0
 41
0.9999808436928246
 10
-14786.508840269384
 20
69.587537989563316
 30
0.0
 41
1.0
 10
-14786.600201858038
 20
69.318452558258826
 30
0.0
 41
0.9999873932915051
 10
-14786.688856566756
 20
69.048463203241852
 30
0.0
 41
1.0
 10
-14786.708948923617
 20
68.987273870510847
 30
0.0
 41
1.0
 10
-14786.72904128048
 20
68.926084537779843
 30
0.0
 41
1.0
 10
-14786.857880702973
 20
68.533716517148676
 30
0.0
 41
0.9999794883033578
 10
-14786.981683487957
 20
68.139730310787243
 30
0.0
 41
1.0
 10
-14786.992835747373
 20
68.104239700618734
 30
0.0
 41
1.0
 10
-14787.003988006789
 20
68.06874909045024
 30
0.0
 41
1.0
 10
-14787.146546170661
 20
67.615076338444766
 30
0.0
 41
0.9999982761716166
 10
-14787.287418610682
 20
67.16087731629932
 30
0.0
 41
1.0
 10
-14788.875558943255
 20
62.112107585295917
 30
0.0
 41
1.0
 10
-14790.463699275828
 20
57.063337854292513
 30
0.0
 41
1.0
 10
-14791.412449887304
 20
57.063337854292513
 30
0.0
 41
1.0
 10
-14792.361200498781
 20
57.063337854292513
 30
0.0
 41
1.0
 10
-14789.122916012628
 20
67.390660054238651
 30
0.0
 41
1.0
 10
-14785.884631526475
 20
77.71798225418479
 30
0.0
 41
1.0
  0
LWPOLYLINE
  5
5C
100
AcDbEntity
  8
0
370
              15
390
0
  6
Continuous
 62
               7
100
AcDbPolyline
 90
      232
 70
             128
 10
-14811.588177300302
 20
76.633639422670058
 42
0.0004370800741332
 10
-14811.641054475336
 20
76.564972782161206
 10
-14811.680338705501
 20
76.513865670516907
 42
0.0030481992194065
 10
-14811.810677422565
 20
76.342143978243769
 10
-14811.84918909437
 20
76.290757194384696
 42
0.004205824578441
 10
-14812.053174145072
 20
76.013751449262926
 10
-14812.10557926754
 20
75.941318602530146
 42
0.0120948898732274
 10
-14812.401623184272
 20
75.510568998027978
 10
-14812.497815683455
 20
75.363088262708089
 42
0.0141601263973977
 10
-14812.801459730346
 20
74.867418926020946
 10
-14812.840996997802
 20
74.798574958536946
 42
0.0071131081317478
 10
-14813.04626932101
 20
74.429072159751058
 42
0.0068458791028042
 10
-14813.241148847872
 20
74.053980596241018
 10
-14813.247960710312
 20
74.040418882551194
 42
0.0064120880317689
 10
-14813.446102960388
 20
73.632994407561938
 10
-14813.453637645873
 20
73.616982550910961
 42
0.0058857236438638
 10
-14813.656393037758
 20
73.172606439844387
 10
-14813.664567964039
 20
73.154116286242242
 42
0.0053189741900997
 10
-14813.87327227678
 20
72.668152812147412
 10
-14813.882020082387
 20
72.647170934128326
 42
0.004750365043684
 10
-14814.097993808567
 20
72.114971500843296
 10
-14814.107262056887
 20
72.091495124810763
 42
0.0042071762167332
 10
-14814.331809440659
 20
71.508401530626045
 10
-14814.341558842963
 20
71.482435355871303
 42
0.0036680086488553
 10
-14814.576013486278
 20
70.843799971335756
 10
-14814.586221266123
 20
70.815351436995343
 42
0.003257314261592
 10
-14814.831853552034
 20
70.116498777402711
 10
-14814.900504072879
 20
69.917035693338477
 42
0.0026133366645633
 10
-14815.248949271689
 20
68.887172409517234
 10
-14815.312206059258
 20
68.696941573919901
 42
0.0020592950746304
 10
-14815.526069128156
 20
68.044837921511089
 10
-14815.529120919462
 20
68.035401432659711
 42
0.0025609928560887
 10
-14815.730941420805
 20
67.400256210735506
 10
-14815.733532787974
 20
67.391953869661236
 42
0.0031362356239256
 10
-14815.923023573609
 20
66.771191013615407
 10
-14815.925154616596
 20
66.764049707201337
 42
0.0037229918059069
 10
-14816.101955003462
 20
66.155064405430039
 10
-14816.10363359266
 20
66.149117515285923
 42
0.0043077623698986
 10
-14816.267374394734
 20
65.54929878348662
 42
0.0047654161808516
 10
-14816.420203117217
 20
64.946612694714446
 10
-14816.454667726088
 20
64.805050917434755
 42
0.0112969368446253
 10
-14816.650532084235
 20
63.913358756804712
 10
-14816.67853847333
 20
63.770530710712592
 42
0.0130056762563987
 10
-14816.879375716977
 20
62.583589639067668
 10
-14816.89991546712
 20
62.439511525623203
 42
0.013872153213205
 10
-14817.003618471661
 20
61.53268203976495
 10
-14817.022913959552
 20
61.309184318048452
 42
0.0071254696957847
 10
-14817.056260605492
 20
60.845997308992537
 10
-14817.061221579661
 20
60.759993314335048
 42
0.0028881799197744
 10
-14817.076359872943
 20
60.468251604590023
 42
0.0060297297158246
 10
-14817.086292072716
 20
60.176302668558179
 10
-14817.087354354386
 20
60.127910296551065
 42
0.0229523164152943
 10
-14817.079623326601
 20
59.805155450258553
 10
-14817.075397553081
 20
59.744751916238712
 42
0.0123673300693443
 10
-14817.056318906562
 20
59.543631191067561
 42
0.0128577674511185
 10
-14817.027123516147
 20
59.343733341084672
 10
-14817.019997642768
 20
59.302404526543796
 42
0.0285717853827753
 10
-14816.955503641066
 20
59.024288375203938
 10
-14816.941835117421
 20
58.97763360580047
 42
0.0316283099104593
 10
-14816.826024537493
 20
58.658619103927322
 10
-14816.822975845747
 20
58.651632731624119
 42
0.0338984824236406
 10
-14816.67354413477
 20
58.364066767412623
 10
-14816.671235405398
 20
58.360275738134398
 42
0.0350228718332049
 10
-14816.488875114726
 20
58.103223753459815
 10
-14816.487989862959
 20
58.102144675703791
 42
0.034747674752553
 10
-14816.273565175712
 20
57.874959628475608
 42
0.0331337701926741
 10
-14816.030321849961
 20
57.678830966395857
 10
-14816.029221751449
 20
57.678058263225694
 42
0.0305233319065012
 10
-14815.76067705586
 20
57.512930093125803
 10
-14815.757447011374
 20
57.511206081271894
 42
0.027374448118312
 10
-14815.464893299793
 20
57.375067937378418
 10
-14815.459788764663
 20
57.373024352911671
 42
0.0240964406219197
 10
-14815.144311689019
 20
57.264040626630752
 10
-14815.137728359807
 20
57.262115886955144
 42
0.0209636179772343
 10
-14814.800328207159
 20
57.178647739023816
 10
-14814.792695746706
 20
57.177095826021741
 42
0.0181388704693196
 10
-14814.434373354698
 20
57.117679732806579
 10
-14814.426092506328
 20
57.116613548990699
 42
0.0156086547566043
 10
-14814.047905142139
 20
57.079877362413988
 10
-14814.004709889812
 20
57.077038859935065
 42
0.013714832899696
 10
-14813.677036744513
 20
57.064518604683826
 10
-14813.631100554565
 20
57.064024171568583
 42
0.005105782389376
 10
-14813.394954967996
 20
57.063893917159476
 42
0.0052256693302934
 10
-14813.158857684213
 20
57.068642741623627
 10
-14813.088630900467
 20
57.070789707637687
 42
0.0161507179046263
 10
-14812.712893822369
 20
57.09444007796403
 10
-14812.692880861994
 20
57.096350273251801
 42
0.0101216737828083
 10
-14812.278853640504
 20
57.144343203617275
 10
-14812.244800351076
 20
57.148990900426952
 42
0.0245291776423154
 10
-14811.768010695519
 20
57.238065978504274
 10
-14811.683187380017
 20
57.258261898845277
 42
0.014350921254583
 10
-14811.326556276061
 20
57.354066532627712
 42
0.0156557857030322
 10
-14810.976340211349
 20
57.471077748441054
 10
-14810.96883899684
 20
57.473847910200675
 42
0.0170137333635556
 10
-14810.612243001156
 20
57.6195055250721
 10
-14810.605139078751
 20
57.622693360635367
 42
0.0183105364437028
 10
-14810.245789410583
 20
57.800028402460775
 10
-14810.238842645946
 20
57.803778837331947
 42
0.0194899958163106
 10
-14809.880361904958
 20
58.015757819225634
 10
-14809.873348025625
 20
58.020283161517682
 42
0.0204869852919616
 10
-14809.519333723556
 20
58.26980317658424
 10
-14809.512068114944
 20
58.275383241951886
 42
0.0212516938565488
 10
-14809.166078183842
 20
58.565287238840625
 10
-14809.119561489755
 20
58.607754548945167
 42
0.0215248918258428
 10
-14808.859535320873
 20
58.866518827934669
 10
-14808.81450558647
 20
58.915362949309127
 42
0.0114578554977431
 10
-14808.659713432815
 20
59.09118588274282
 10
-14808.648518896962
 20
59.10450464612817
 42
0.006153130510412
 10
-14808.522044250833
 20
59.258794179593906
 42
0.000632558712392
 10
-14808.397665767054
 20
59.414797554800742
 10
-14808.37462563163
 20
59.443771075928908
 42
0.0041897761558894
 10
-14808.206170227502
 20
59.659290452191591
 10
-14808.147708107765
 20
59.735391798976025
 42
0.0092993880000073
 10
-14807.871096180592
 20
60.109670562788331
 10
-14807.788701687314
 20
60.225607566467431
 42
0.0159321727109376
 10
-14807.4420952047
 20
60.747781787184749
 10
-14807.397739069333
 20
60.819461351400612
 42
0.0085547317008588
 10
-14807.163227303987
 20
61.213336300659421
 42
0.008460115688571
 10
-14806.94225112656
 20
61.614963149657747
 10
-14806.934135652713
 20
61.630322831964577
 42
0.0081429654288018
 10
-14806.71088638228
 20
62.070044344498584
 10
-14806.702026218092
 20
62.088223186524829
 42
0.0076574581324816
 10
-14806.475618707535
 20
62.571406061754161
 10
-14806.466139066801
 20
62.592470540080967
 42
0.0070682724205029
 10
-14806.235694159008
 20
63.124507844830347
 10
-14806.225703875012
 20
63.148497033873582
 42
0.0064559514435031
 10
-14805.990370666859
 20
63.734809300317359
 10
-14805.979961308665
 20
63.761744225834718
 42
0.0058311413923822
 10
-14805.738914571877
 20
64.407776320291674
 10
-14805.728159494516
 20
64.437660661379141
 42
0.0052312425844342
 10
-14805.480578216404
 20
65.148863075428352
 10
-14805.469534380096
 20
65.181689787283403
 42
0.00466805448159
 10
-14805.214605952331
 20
65.96351610313485
 10
-14805.172613802333
 20
66.096499340280275
 42
0.0041666856435547
 10
-14804.969327789922
 20
66.759468115335949
 10
-14804.931665349384
 20
66.886049222565774
 42
0.0015170975145474
 10
-14804.810478770845
 20
67.297917574483108
 42
-0.000488799312952
 10
-14804.690138998198
 20
67.710035984902788
 10
-14804.613661740226
 20
67.970993372466182
 42
0.0002583378921404
 10
-14804.34044717066
 20
68.905050073944324
 10
-14804.258674320912
 20
69.185149334108516
 42
0.0006636169653122
 10
-14804.064806560575
 20
69.852502258815321
 10
-14804.059709906063
 20
69.870133842262589
 42
0.001058913132916
 10
-14803.878261205311
 20
70.502865184744223
 10
-14803.873279134776
 20
70.520378091955635
 42
0.0015655524472386
 10
-14803.705008927649
 20
71.118994770965173
 10
-14803.700178727298
 20
71.136386929666841
 42
0.0021640440467731
 10
-14803.545888755247
 20
71.701413947919264
 10
-14803.54125453579
 20
71.718678678014726
 42
0.002876387186486
 10
-14803.401738817764
 20
72.250646628760023
 10
-14803.397352953618
 20
72.267770606830354
 42
0.0037310511942664
 10
-14803.27339626176
 20
72.76721820093826
 10
-14803.2693210414
 20
72.784178472482267
 42
0.0047652197800851
 10
-14803.161697140964
 20
73.251656240488956
 10
-14803.158006541593
 20
73.26841579586025
 42
0.0060276699347178
 10
-14803.067476442484
 20
73.704491590783164
 10
-14803.064257752194
 20
73.720992805096827
 42
0.0075824337759132
 10
-14802.99156844278
 20
74.126259969518514
 10
-14802.98892306541
 20
74.142414916907768
 42
0.0095130624616819
 10
-14802.93480782977
 20
74.517504270040945
 10
-14802.927821605892
 20
74.573437828113825
 42
0.0121054653196126
 10
-14802.901230275309
 20
74.838333656631221
 10
-14802.900363785559
 20
74.849737099436439
 42
0.006905082734907
 10
-14802.885274967512
 20
75.092678326404439
 10
-14802.884139667844
 20
75.116204583441984
 42
0.0169063976660717
 10
-14802.881312388861
 20
75.31239731074993
 10
-14802.88248304039
 20
75.372733071966081
 42
0.0052007732922202
 10
-14802.884736488988
 20
75.448326462251316
 42
0.0054038123367665
 10
-14802.904700000816
 20
75.568344758205669
 10
-14802.909785856697
 20
75.597003244842426
 42
0.0112050460478345
 10
-14802.945170218767
 20
75.773329683227487
 10
-14802.962995180796
 20
75.852871269902153
 42
0.0240764467996531
 10
-14803.053892546935
 20
76.18310830538249
 10
-14803.072451309768
 20
76.23972847043342
 42
0.0256812331895506
 10
-14803.215814229945
 20
76.611452676654608
 10
-14803.221223655755
 20
76.623584011620125
 42
0.0268360501219846
 10
-14803.390650896616
 20
76.954577145665098
 10
-14803.396187304257
 20
76.964096815987205
 42
0.0274670231746948
 10
-14803.588388280665
 20
77.256384190894778
 10
-14803.593769580613
 20
77.263663338417459
 42
0.0275035967068074
 10
-14803.805342460189
 20
77.519179228740313
 10
-14803.810411961138
 20
77.524658316351235
 42
0.0269557673507845
 10
-14804.037815504595
 20
77.745300602332918
 10
-14804.042558562362
 20
77.749430556780283
 42
0.0259124802224413
 10
-14804.282113393809
 20
77.937121083946067
 10
-14804.286644238988
 20
77.940306586274076
 42
0.0245162152985026
 10
-14804.534560592085
 20
78.097039595387059
 10
-14804.539087138402
 20
78.099599792584641
 42
0.0229282588849581
 10
-14804.791506695237
 20
78.227467985086832
 10
-14804.796287189056
 20
78.229620284840649
 42
0.0212984135671877
 10
-14805.049325141536
 20
78.330819202091106
 10
-14805.05462942649
 20
78.332682764845956
 42
0.0197555462361588
 10
-14805.304407764228
 20
78.409498182815923
 42
0.0183511896824267
 10
-14805.559336489696
 20
78.46708108978234
 10
-14805.645701686419
 20
78.483283880167221
 42
0.0338057877113873
 10
-14805.931209035673
 20
78.517092285306489
 10
-14806.022214440714
 20
78.52167194056787
 42
0.0091990524565592
 10
-14806.128061549349
 20
78.525047796490071
 42
0.0028333980875517
 10
-14806.233975465342
 20
78.525875904006924
 10
-14806.234890918391
 20
78.52587787383095
 42
-0.0023619827735472
 10
-14806.34263693351
 20
78.526618714909418
 10
-14806.379042103674
 20
78.52704102137227
 42
0.0008824598486556
 10
-14806.559598093505
 20
78.528816799610325
 10
-14806.60345952593
 20
78.529170761136129
 42
0.0038132665802176
 10
-14806.871742421805
 20
78.529289697202884
 10
-14806.888276076603
 20
78.529170931059298
 42
0.0060665569351172
 10
-14807.189556568199
 20
78.523350631638365
 10
-14807.203806900219
 20
78.522902323670905
 42
0.008035695336779
 10
-14807.533265616556
 20
78.507234601604168
 10
-14807.545335631645
 20
78.506466018663559
 42
0.0098996399117038
 10
-14807.898098716287
 20
78.476980789466126
 10
-14807.90814442567
 20
78.475940493267217
 42
0.011774098137728
 10
-14808.279301284019
 20
78.428648245737548
 10
-14808.287523980503
 20
78.427403129166578
 42
0.0137435215128739
 10
-14808.67211279999
 20
78.358306155604438
 10
-14808.678769839111
 20
78.356920259371236
 42
0.0158359869371422
 10
-14809.071766932902
 20
78.262028170893458
 10
-14809.077180119781
 20
78.260538230019847
 42
0.0180554123990834
 10
-14809.47349516438
 20
78.135900213785419
 10
-14809.478051952476
 20
78.134284177514928
 42
0.0203657431276638
 10
-14809.872529470293
 20
77.976023835997125
 10
-14809.876673009294
 20
77.974162214557509
 42
0.0226819684648567
 10
-14810.264109065489
 20
77.77851963589211
 10
-14810.268308856517
 20
77.776154043966699
 42
0.0248634984601056
 10
-14810.643490797702
 20
77.539527398016517
 10
-14810.69168572649
 20
77.505670356188304
 42
0.026704419089664
 10
-14810.965978423399
 20
77.290229980325421
 42
0.0139303002160666
 10
-14811.222145589298
 20
77.052991139449986
 10
-14811.226998975057
 20
77.048238476553479
 42
0.0283460963418275
 10
-14811.471071569285
 20
76.78050781610915
 10
-14811.510740074442
 20
76.731706238635525
 42
0.0070695364835336
 10
-14811.588177300302
 20
76.633639422670058
 42
0.0070695364835336
  0
LWPOLYLINE
  5
5D
100
AcDbEntity
  8
0
370
              15
390
0
  6
Continuous
 62
               7
100
AcDbPolyline
 90
      226
 70
             128
 10
-14815.116997737547
 20
60.912050616485885
 42
-0.0026277636666974
 10
-14815.117075621349
 20
60.978822542337369
 10
-14815.116858263116
 20
61.031977759671918
 42
-0.0088680296621622
 10
-14815.113081646819
 20
61.204993542198942
 10
-14815.110735287712
 20
61.264273567528562
 42
-0.0077381705601718
 10
-14815.094689176947
 20
61.555534063333965
 10
-14815.093821265775
 20
61.567822297011844
 42
-0.0068872530539694
 10
-14815.067189186035
 20
61.883044048973382
 10
-14815.065984961839
 20
61.895285028099806
 42
-0.0062130021494848
 10
-14815.028391245
 20
62.234154719442408
 10
-14815.026887341477
 20
62.246328591254951
 42
-0.0056726929633481
 10
-14814.977965481967
 20
62.60852381343021
 10
-14814.976192036331
 20
62.620617613613604
 42
-0.0052341884471102
 10
-14814.915581450083
 20
63.005810869063431
 10
-14814.913563461294
 20
63.017815799123809
 42
-0.0049768450180569
 10
-14814.840824779871
 20
63.425660366545038
 10
-14814.816575765146
 20
63.554208349562487
 42
-0.0089029805608714
 10
-14814.679494913338
 20
64.21598379704173
 10
-14814.646749538031
 20
64.361015227508233
 42
-0.0080318257110169
 10
-14814.417200923705
 20
65.306724859311984
 10
-14814.405215997243
 20
65.352855494551932
 42
-0.0074265721315534
 10
-14814.121204458401
 20
66.38292007291011
 10
-14814.101324915264
 20
66.451054133569997
 42
-0.0069711922697038
 10
-14813.77402033677
 20
67.517321873850051
 10
-14813.714068389616
 20
67.703343232369875
 42
-0.0052070422889293
 10
-14813.484643164405
 20
68.390615309252098
 10
-14813.467361972247
 20
68.440642589830176
 42
-0.0009167004451648
 10
-14813.264270084943
 20
69.025098438023178
 42
-0.00251627269436
 10
-14813.057172454719
 20
69.608139702082738
 10
-14813.019947842877
 20
69.711289248093649
 42
-0.0028212681459156
 10
-14812.771771923912
 20
70.38701988026196
 10
-14812.761941161134
 20
70.413327325013384
 42
-0.0031964916818766
 10
-14812.525648903498
 20
71.033532087065851
 10
-14812.516014449449
 20
71.05834207733902
 42
-0.0036281836434675
 10
-14812.2909084884
 20
71.625782758102105
 10
-14812.281470078211
 20
71.649080189679268
 42
-0.0041269166843023
 10
-14812.066852381584
 20
72.166521085583099
 10
-14812.03421942527
 20
72.243399531692759
 42
-0.0047472213088563
 10
-14811.877174619607
 20
72.603820999827803
 10
-14811.870280538402
 20
72.619241597152396
 42
-0.0025651659999778
 10
-14811.72192250455
 20
72.946569652908238
 42
-0.0057144634978107
 10
-14811.568172810714
 20
73.271379326404841
 10
-14811.540142105348
 20
73.328887708723727
 42
-0.0065388068345341
 10
-14811.356675077637
 20
73.69312020533016
 10
-14811.348216621833
 20
73.709379784750709
 42
-0.0074510843023409
 10
-14811.172034375981
 20
74.036068065822292
 10
-14811.163854705444
 20
74.050708843099343
 42
-0.0084648979859199
 10
-14810.99422085235
 20
74.342617854052151
 10
-14810.986364725879
 20
74.355624845674029
 42
-0.00956385428343
 10
-14810.822529278268
 20
74.615513717681551
 10
-14810.815054334633
 20
74.626883079081665
 42
-0.0107191626827866
 10
-14810.656252754208
 20
74.857494313680945
 10
-14810.649236020437
 20
74.867230406099353
 42
-0.0118458573838643
 10
-14810.494687921964
 20
75.071302601356365
 42
-0.012918451819644
 10
-14810.330235298417
 20
75.267463117467571
 10
-14810.300090525991
 20
75.301589196436908
 42
-0.0217742579641233
 10
-14810.123478203666
 20
75.484795966676302
 10
-14810.11273265922
 20
75.495012799866728
 42
-0.0097266568685867
 10
-14809.946675040348
 20
75.646860374316475
 42
-0.018772090566861
 10
-14809.772327464418
 20
75.788929227736901
 10
-14809.741621473757
 20
75.812088310122434
 42
-0.0179428207485549
 10
-14809.50920075379
 20
75.974640487213492
 10
-14809.50554842688
 20
75.977004422097949
 42
-0.0170047877666158
 10
-14809.269784789343
 20
76.118464936252849
 10
-14809.266001800628
 20
76.120563241271753
 42
-0.0160190788398768
 10
-14809.029093252961
 20
76.242214543277214
 42
-0.0151102861491593
 10
-14808.785061470517
 20
76.348897319331073
 10
-14808.732674968302
 20
76.369937452226623
 42
-0.027194544192442
 10
-14808.374012409251
 20
76.491802262930804
 10
-14808.304947608762
 20
76.511151804197823
 42
-0.0237596594004105
 10
-14807.889150761734
 20
76.606602516180374
 10
-14807.821087908
 20
76.618857204307858
 42
-0.0213715440526424
 10
-14807.535212976558
 20
76.657804235817139
 10
-14807.47506581034
 20
76.663393950518056
 42
-0.0101465655815885
 10
-14807.307573278347
 20
76.675537493782258
 10
-14807.298232892143
 20
76.676024408779838
 42
-0.0100375910889578
 10
-14807.149078791586
 20
76.680800226704832
 10
-14807.138819521904
 20
76.680922665719308
 42
-0.010362563333414
 10
-14807.01011152725
 20
76.679791232192656
 10
-14806.987845875983
 20
76.679133873727764
 42
-0.0115689250151011
 10
-14806.903795138454
 20
76.674704367482491
 42
-0.0072438037348883
 10
-14806.819956859006
 20
76.667115167732049
 10
-14806.803156349542
 20
76.665348625008846
 42
-0.0217917313115335
 10
-14806.686586586229
 20
76.647928732287696
 10
-14806.620986495662
 20
76.635182123873221
 42
-0.0332943556754384
 10
-14806.416594330634
 20
76.581141832566118
 10
-14806.386421762109
 20
76.570973755456237
 42
-0.0184824084812378
 10
-14806.247916705619
 20
76.518522740061144
 42
-0.0198002050714512
 10
-14806.113842365132
 20
76.455638679868798
 10
-14806.111955727742
 20
76.454660892981792
 42
-0.0212242343037541
 10
-14805.979816785382
 20
76.378898154215264
 10
-14805.978001489797
 20
76.377752351980462
 42
-0.0226090605800058
 10
-14805.849497588571
 20
76.288272708412123
 10
-14805.847653146839
 20
76.286860455428496
 42
-0.0238457052173352
 10
-14805.724471065541
 20
76.182864559562759
 10
-14805.722518336986
 20
76.181049681800005
 42
-0.0248160564118506
 10
-14805.606316829675
 20
76.061775080579167
 10
-14805.604213196284
 20
76.059389746886836
 42
-0.0254109591437975
 10
-14805.496607978417
 20
75.924101360919323
 10
-14805.494359956505
 20
75.920959812521915
 42
-0.025552848835124
 10
-14805.396913277718
 20
75.768932758309745
 10
-14805.394582177789
 20
75.764851146680257
 42
-0.025214679318936
 10
-14805.308801151772
 20
75.595348900663552
 10
-14805.306498912623
 20
75.590166818770285
 42
-0.0244265635926529
 10
-14805.233844218867
 20
75.402420246737734
 10
-14805.224597817385
 20
75.37455482836225
 42
-0.0231319612923948
 10
-14805.178675038402
 20
75.211253781584219
 42
-0.0112130424409709
 10
-14805.144039015866
 20
75.04505018140587
 10
-14805.142836490752
 20
75.038553594508357
 42
-0.0210527881264926
 10
-14805.117150015381
 20
74.857497949090941
 10
-14805.113639420557
 20
74.822092400519978
 42
-0.0190029892334952
 10
-14805.098197947011
 20
74.568556554144607
 10
-14805.097387970569
 20
74.533080939878573
 42
-0.0137974553729719
 10
-14805.0989368234
 20
74.208049533286214
 10
-14805.099782278361
 20
74.181930788527424
 42
-0.0081336634197681
 10
-14805.114641613583
 20
73.876583320953159
 42
-0.007352692352651
 10
-14805.138950146968
 20
73.571835076555928
 10
-14805.140211570741
 20
73.558498402001987
 42
-0.0066886138666511
 10
-14805.175947156797
 20
73.227912358416958
 10
-14805.177604246255
 20
73.214290739513217
 42
-0.0061359187330125
 10
-14805.225454848316
 20
72.857526759342917
 10
-14805.227492349379
 20
72.843631956583977
 42
-0.0056698610074893
 10
-14805.288142680112
 20
72.460353387949439
 10
-14805.290548113469
 20
72.446194268515228
 42
-0.0052721077263531
 10
-14805.364680314269
 20
72.036066928842672
 10
-14805.367443463112
 20
72.02165029345133
 42
-0.004928927219023
 10
-14805.455737581189
 20
71.584341782437278
 10
-14805.458850075895
 20
71.569672929513217
 42
-0.0047415956700273
 10
-14805.562088067451
 20
71.104876171996878
 10
-14805.596856277787
 20
70.955069076719155
 42
-0.0084404470887245
 10
-14805.786872721366
 20
70.194845052158144
 10
-14805.792999409345
 20
70.171980928034372
 42
-0.0039635940270318
 10
-14806.014453093601
 20
69.370992063881573
 10
-14806.027829888808
 20
69.324060447195279
 42
-0.007247504083119
 10
-14806.29527677668
 20
68.434840730777594
 10
-14806.365489103488
 20
68.213100380867687
 42
-0.0051345458829343
 10
-14806.652248475557
 20
67.338775193022229
 10
-14806.673774742234
 20
67.275348926160717
 42
-0.0019150016627397
 10
-14806.929308149192
 20
66.531799805666196
 10
-14806.935775753689
 20
66.513212340458196
 42
-0.0021524362743693
 10
-14807.184253804651
 20
65.808886519036605
 10
-14807.193464225178
 20
65.783132941207
 42
-0.0024331286837639
 10
-14807.429719484382
 20
65.132533632616742
 10
-14807.438767437017
 20
65.107990326034511
 42
-0.0027449721773181
 10
-14807.66338200777
 20
64.508860447338066
 10
-14807.672272015259
 20
64.485537857229033
 42
-0.0031083229749871
 10
-14807.885814501773
 20
63.935613819906393
 10
-14807.89455063348
 20
63.913524103968456
 42
-0.0035311343290992
 10
-14808.09759181904
 20
63.410540978318295
 10
-14808.106177158164
 20
63.389698254864932
 42
-0.0040245640957516
 10
-14808.299288961982
 20
62.931388932215441
 10
-14808.30772507547
 20
62.911809564407143
 42
-0.0046015135871927
 10
-14808.491481368748
 20
62.495904534501278
 10
-14808.499767546527
 20
62.47760739515607
 42
-0.005276863826107
 10
-14808.674745065531
 20
62.101834510778872
 10
-14808.682877276184
 20
62.084841172183211
 42
-0.0060672675610187
 10
-14808.849656888924
 20
61.746925549121443
 10
-14808.857626369399
 20
61.731260290135168
 42
-0.0069904648847627
 10
-14809.016794763407
 20
61.428924483460378
 10
-14809.024586163017
 20
61.414613934235504
 42
-0.0080637022767878
 10
-14809.176738023365
 20
61.145578631079843
 10
-14809.184327056006
 20
61.132650765462849
 42
-0.0093006455717995
 10
-14809.330067732528
 20
60.894636366976101
 10
-14809.337418399267
 20
60.883118397809071
 42
-0.010706077804356
 10
-14809.477366942709
 20
60.673848080424023
 10
-14809.484428710986
 20
60.66376253785991
 42
-0.0122723111407352
 10
-14809.619222429188
 20
60.480969208369288
 10
-14809.619548652741
 20
60.480548820560983
 42
-0.0141836319676041
 10
-14809.763130255717
 20
60.305979062730103
 10
-14809.770078011346
 20
60.298004062491003
 42
-0.0175957477232329
 10
-14809.909984179401
 20
60.148383174060427
 42
-0.0080466359615318
 10
-14810.05744794444
 20
60.006060645901869
 10
-14810.10348248895
 20
59.96304020781804
 42
-0.0269600260392371
 10
-14810.356762734933
 20
59.75071694930736
 10
-14810.423329871219
 20
59.700765534691982
 42
-0.0178362839787808
 10
-14810.663274360886
 20
59.533747608432577
 10
-14810.670519331881
 20
59.529079096231456
 42
-0.0174650732643888
 10
-14810.906855529327
 20
59.388218131268559
 42
-0.0169240130117047
 10
-14811.152321775231
 20
59.26392587146924
 10
-14811.198307930743
 20
59.242563915923938
 42
-0.0318883036883961
 10
-14811.548658786362
 20
59.106225606414377
 10
-14811.617024321531
 20
59.084524985937598
 42
-0.0284435909890364
 10
-14811.993074447819
 20
58.988307550463787
 10
-14812.02823260832
 20
58.981413954634931
 42
-0.0243909341033722
 10
-14812.341676069236
 20
58.935692923605075
 10
-14812.391956796002
 20
58.930847376703873
 42
-0.019663929293738
 10
-14812.607552373534
 20
58.918599091189662
 10
-14812.659376444693
 20
58.917695830453006
 42
-0.0100501510637993
 10
-14812.771799726361
 20
58.91799622880626
 10
-14812.803459587705
 20
58.918717300691732
 42
-0.0019752031193001
 10
-14812.852551924389
 20
58.920029460901333
 10
-14812.855312227612
 20
58.92011415272767
 42
0.0065378752042898
 10
-14812.898888802365
 20
58.920881043942472
 42
-0.0167974694635911
 10
-14812.9424196253
 20
58.922540942468906
 10
-14812.946498964558
 20
58.922833953363579
 42
-0.0081283276314371
 10
-14812.998058762292
 20
58.927380947001197
 10
-14813.009798336176
 20
58.928608864579928
 42
-0.0126703440129423
 10
-14813.084516631974
 20
58.938343655652034
 10
-14813.107304499646
 20
58.941901911566674
 42
-0.0117852088508376
 10
-14813.226843485467
 20
58.96346490672137
 10
-14813.282223937242
 20
58.974808446958377
 42
-0.0251774592301649
 10
-14813.509067976251
 20
59.033306456391315
 10
-14813.553787166109
 20
59.047273275729019
 42
-0.014652519990599
 10
-14813.740180153638
 20
59.111539802924653
 42
-0.0166929435879449
 10
-14813.922157809731
 20
59.187346935964335
 10
-14813.926814441038
 20
59.189471836593384
 42
-0.0191684358402074
 10
-14814.111998072283
 20
59.28270792038056
 10
-14814.115330658045
 20
59.284549167936575
 42
-0.0221181781807933
 10
-14814.298640961957
 20
59.396682666314739
 10
-14814.300990765954
 20
59.398266964298273
 42
-0.0254984685386187
 10
-14814.477280916355
 20
59.530678114279922
 10
-14814.499763064045
 20
59.549430423205749
 42
-0.0292492648764718
 10
-14814.624532002887
 20
59.666523222847445
 42
-0.0159048957475633
 10
-14814.738372000369
 20
59.794543214487113
 10
-14814.739690790915
 20
59.796124827466429
 42
-0.0343813379558573
 10
-14814.842328052542
 20
59.937996153237151
 10
-14814.873819583891
 20
59.988499545312678
 42
-0.0369117275753146
 10
-14814.9597120858
 20
60.151976786278283
 42
-0.0191751379996855
 10
-14815.026905471343
 20
60.324381392246359
 10
-14815.028668795116
 20
60.329474736959128
 42
-0.037817804213896
 10
-14815.078463513904
 20
60.518415513058763
 10
-14815.084458809639
 20
60.550976131281502
 42
-0.0184846046389113
 10
-14815.105176008925
 20
60.692728951782101
 42
-0.0179866351359025
 10
-14815.115509013995
 20
60.835619764770314
 10
-14815.115565456445
 20
60.837177451476236
 42
-0.0085497186140103
 10
-14815.116997737547
 20
60.912050616485885
 42
-0.0085497186140103
  0
ENDBLK
  5
5E
100
AcDbEntity
  8
template
390
0
100
AcDbBlockEnd
  0
BLOCK
  5
5F
100
AcDbEntity
  8
notes
390
0
100
AcDbBlockBegin
  2
*D3
 70
               1
 10
0.0
 20
0.0
 30
0.0
  3
*D3
  1

  0
LINE
  5
60
100
AcDbEntity
  8
0
370
              -2
390
0
  6
Continuous
 62
               0
100
AcDbLine
 10
-795.88439979696341
 20
700.6038453919632
 30
0.0
 11
-795.88439979696341
 21
874.6038453919632
 31
0.0
  0
LINE
  5
61
100
AcDbEntity
  8
0
370
              -2
390
0
  6
Continuous
 62
               0
100
AcDbLine
 10
-95.846202599632306
 20
700.6038453919632
 30
0.0
 11
-95.846202599632306
 21
874.6038453919632
 31
0.0
  0
LINE
  5
62
100
AcDbEntity
  8
0
370
              -2
390
0
  6
Continuous
 62
               0
100
AcDbLine
 10
-795.88439979696341
 20
874.6038453919632
 30
0.0
 11
-95.846202599632306
 21
874.6038453919632
 31
0.0
  0
CIRCLE
  5
63
102
{ACAD_REACTORS
330
64
102
}
100
AcDbEntity
  8
0
370
              -2
390
0
  6
Continuous
 62
               0
100
AcDbCircle
 10
-795.88439979696341
 20
874.6038453919632
 30
0.0
 40
1.9998779296875
  0
HATCH
  5
64
100
AcDbEntity
  8
0
370
              -2
390
0
  6
Continuous
 62
               0
100
AcDbHatch
 10
0.0
 20
0.0
 30
0.0
210
0.0
220
0.0
230
1.0
  2
SOLID
 70
               1
 71
               1
 91
        1
 92
        1
 93
        1
 72
               2
 10
-795.88439979696341
 20
874.6038453919632
 40
1.9998779296875
 50
0.0
 51
360.0
 73
               0
 97
        1
330
63
 75
               0
 76
               1
 98
        1
 10
0.0
 20
0.0
  0
CIRCLE
  5
65
102
{ACAD_REACTORS
330
66
102
}
100
AcDbEntity
  8
0
370
              -2
390
0
  6
Continuous
 62
               0
100
AcDbCircle
 10
-95.846202599632306
 20
874.6038453919632
 30
0.0
 40
1.9998779296875
  0
HATCH
  5
66
100
AcDbEntity
  8
0
370
              -2
390
0
  6
Continuous
 62
               0
100
AcDbHatch
 10
0.0
 20
0.0
 30
0.0
210
0.0
220
0.0
230
1.0
  2
SOLID
 70
               1
 71
               1
 91
        1
 92
        1
 93
        1
 72
               2
 10
-95.846202599632306
 20
874.6038453919632
 40
1.9998779296875
 50
0.0
 51
360.0
 73
               0
 97
        1
330
65
 75
               0
 76
               1
 98
        1
 10
0.0
 20
0.0
  0
MTEXT
  5
67
100
AcDbEntity
  8
0
390
0
 62
               0
100
AcDbMText
 10
-469.67780288047288
 20
908.48146257946337
 30
0.0
 40
24.432617187500004
 41
0.0
 71
               1
 72
               1
  1
700
  7
ＭＳ ゴシック
 73
               1
 44
0.7828267384257843
  0
POINT
  5
68
100
AcDbEntity
  8
Defpoints
370
               0
390
0
 62
               0
100
AcDbPoint
 10
-95.846202599632306
 20
675.6038453919632
 30
0.0
  0
POINT
  5
69
100
AcDbEntity
  8
Defpoints
370
               0
390
0
 62
               0
100
AcDbPoint
 10
-795.88439979696341
 20
675.6038453919632
 30
0.0
  0
POINT
  5
6A
100
AcDbEntity
  8
Defpoints
370
               0
390
0
 62
               0
100
AcDbPoint
 10
-795.88439979696341
 20
874.6038453919632
 30
0.0
  0
ENDBLK
  5
6B
100
AcDbEntity
  8
notes
390
0
100
AcDbBlockEnd
  0
BLOCK
  5
6C
100
AcDbEntity
  8
notes
390
0
100
AcDbBlockBegin
  2
*D4
 70
               1
 10
0.0
 20
0.0
 30
0.0
  3
*D4
  1

  0
LINE
  5
6D
100
AcDbEntity
  8
0
370
              -2
390
0
  6
Continuous
 62
               0
100
AcDbLine
 10
-169.84620259963231
 20
774.6038453919632
 30
0.0
 11
4.1537974003676936
 21
774.6038453919632
 31
0.0
  0
LINE
  5
6E
100
AcDbEntity
  8
0
370
              -2
390
0
  6
Continuous
 62
               0
100
AcDbLine
 10
-170.24620259963194
 20
339.6038453919632
 30
0.0
 11
4.1537974003676936
 21
339.6038453919632
 31
0.0
  0
LINE
  5
6F
100
AcDbEntity
  8
0
370
              -2
390
0
  6
Continuous
 62
               0
100
AcDbLine
 10
4.1537974003676936
 20
774.6038453919632
 30
0.0
 11
4.1537974003676936
 21
339.6038453919632
 31
0.0
  0
CIRCLE
  5
70
102
{ACAD_REACTORS
330
71
102
}
100
AcDbEntity
  8
0
370
              -2
390
0
  6
Continuous
 62
               0
100
AcDbCircle
 10
4.1537974003676936
 20
774.6038453919632
 30
0.0
 40
1.9998779296875
  0
HATCH
  5
71
100
AcDbEntity
  8
0
370
              -2
390
0
  6
Continuous
 62
               0
100
AcDbHatch
 10
0.0
 20
0.0
 30
0.0
210
0.0
220
0.0
230
1.0
  2
SOLID
 70
               1
 71
               1
 91
        1
 92
        1
 93
        1
 72
               2
 10
4.1537974003676936
 20
774.6038453919632
 40
1.9998779296875
 50
0.0
 51
360.0
 73
               0
 97
        1
330
70
 75
               0
 76
               1
 98
        1
 10
0.0
 20
0.0
  0
CIRCLE
  5
72
102
{ACAD_REACTORS
330
73
102
}
100
AcDbEntity
  8
0
370
              -2
390
0
  6
Continuous
 62
               0
100
AcDbCircle
 10
4.1537974003676936
 20
339.6038453919632
 30
0.0
 40
1.9998779296875
  0
HATCH
  5
73
100
AcDbEntity
  8
0
370
              -2
390
0
  6
Continuous
 62
               0
100
AcDbHatch
 10
0.0
 20
0.0
 30
0.0
210
0.0
220
0.0
230
1.0
  2
SOLID
 70
               1
 71
               1
 91
        1
 92
        1
 93
        1
 72
               2
 10
4.1537974003676936
 20
339.6038453919632
 40
1.9998779296875
 50
0.0
 51
360.0
 73
               0
 97
        1
330
72
 75
               0
 76
               1
 98
        1
 10
0.0
 20
0.0
  0
MTEXT
  5
74
100
AcDbEntity
  8
0
390
0
 62
               0
100
AcDbMText
 10
-29.723819787132015
 20
533.29134370978772
 30
0.0
 40
24.432617187500004
 41
0.0
 71
               1
 72
               1
  1
435
  7
ＭＳ ゴシック
 11
0.0
 21
1.0
 31
0.0
 73
               1
 44
0.7828267384257843
  0
POINT
  5
75
100
AcDbEntity
  8
Defpoints
370
               0
390
0
 62
               0
100
AcDbPoint
 10
-195.24620259963194
 20
339.6038453919632
 30
0.0
  0
POINT
  5
76
100
AcDbEntity
  8
Defpoints
370
               0
390
0
 62
               0
100
AcDbPoint
 10
-194.84620259963231
 20
774.6038453919632
 30
0.0
  0
POINT
  5
77
100
AcDbEntity
  8
Defpoints
370
               0
390
0
 62
               0
100
AcDbPoint
 10
4.1537974003676936
 20
774.6038453919632
 30
0.0
  0
ENDBLK
  5
78
100
AcDbEntity
  8
notes
390
0
100
AcDbBlockEnd
  0
BLOCK
  5
79
100
AcDbEntity
  8
notes
390
0
100
AcDbBlockBegin
  2
*D5
 70
               1
 10
0.0
 20
0.0
 30
0.0
  3
*D5
  1

  0
LINE
  5
7A
100
AcDbEntity
  8
0
370
              -2
390
0
  6
Continuous
 62
               0
100
AcDbLine
 10
-755.88439979696341
 20
335.1025964438702
 30
0.0
 11
-755.88439979696341
 21
240.60102410127729
 31
0.0
  0
LINE
  5
7B
100
AcDbEntity
  8
0
370
              -2
390
0
  6
Continuous
 62
               0
100
AcDbLine
 10
-135.84620259963231
 20
335.1025964438702
 30
0.0
 11
-135.84620259963231
 21
240.60102410127729
 31
0.0
  0
LINE
  5
7C
100
AcDbEntity
  8
0
370
              -2
390
0
  6
Continuous
 62
               0
100
AcDbLine
 10
-755.88439979696341
 20
240.60102410127729
 30
0.0
 11
-135.84620259963231
 21
240.60102410127729
 31
0.0
  0
CIRCLE
  5
7D
102
{ACAD_REACTORS
330
7E
102
}
100
AcDbEntity
  8
0
370
              -2
390
0
  6
Continuous
 62
               0
100
AcDbCircle
 10
-755.88439979696341
 20
240.60102410127729
 30
0.0
 40
1.9998779296875
  0
HATCH
  5
7E
100
AcDbEntity
  8
0
370
              -2
390
0
  6
Continuous
 62
               0
100
AcDbHatch
 10
0.0
 20
0.0
 30
0.0
210
0.0
220
0.0
230
1.0
  2
SOLID
 70
               1
 71
               1
 91
        1
 92
        1
 93
        1
 72
               2
 10
-755.88439979696341
 20
240.60102410127729
 40
1.9998779296875
 50
0.0
 51
360.0
 73
               0
 97
        1
330
7D
 75
               0
 76
               1
 98
        1
 10
0.0
 20
0.0
  0
CIRCLE
  5
7F
102
{ACAD_REACTORS
330
80
102
}
100
AcDbEntity
  8
0
370
              -2
390
0
  6
Continuous
 62
               0
100
AcDbCircle
 10
-135.84620259963231
 20
240.60102410127729
 30
0.0
 40
1.9998779296875
  0
HATCH
  5
80
100
AcDbEntity
  8
0
370
              -2
390
0
  6
Continuous
 62
               0
100
AcDbHatch
 10
0.0
 20
0.0
 30
0.0
210
0.0
220
0.0
230
1.0
  2
SOLID
 70
               1
 71
               1
 91
        1
 92
        1
 93
        1
 72
               2
 10
-135.84620259963231
 20
240.60102410127729
 40
1.9998779296875
 50
0.0
 51
360.0
 73
               0
 97
        1
330
7F
 75
               0
 76
               1
 98
        1
 10
0.0
 20
0.0
  0
MTEXT
  5
81
100
AcDbEntity
  8
0
390
0
 62
               0
100
AcDbMText
 10
-469.67780288047288
 20
274.47864128877723
 30
0.0
 40
24.432617187500004
 41
0.0
 71
               1
 72
               1
  1
620
  7
ＭＳ ゴシック
 73
               1
 44
0.7828267384257843
  0
POINT
  5
82
100
AcDbEntity
  8
Defpoints
370
               0
390
0
 62
               0
100
AcDbPoint
 10
-135.84620259963231
 20
360.1025964438702
 30
0.0
  0
POINT
  5
83
100
AcDbEntity
  8
Defpoints
370
               0
390
0
 62
               0
100
AcDbPoint
 10
-755.88439979696341
 20
360.1025964438702
 30
0.0
  0
POINT
  5
84
100
AcDbEntity
  8
Defpoints
370
               0
390
0
 62
               0
100
AcDbPoint
 10
-755.88439979696341
 20
240.60102410127729
 30
0.0
  0
ENDBLK
  5
85
100
AcDbEntity
  8
notes
390
0
100
AcDbBlockEnd
  0
BLOCK
  5
86
100
AcDbEntity
  8
notes
390
0
100
AcDbBlockBegin
  2
*D6
 70
               1
 10
0.0
 20
0.0
 30
0.0
  3
*D6
  1

  0
LINE
  5
87
100
AcDbEntity
  8
0
370
              -2
390
0
  6
Continuous
 62
               0
100
AcDbLine
 10
-801.38282745437027
 20
734.6038453919632
 30
0.0
 11
-895.88439979696341
 21
734.6038453919632
 31
0.0
  0
LINE
  5
88
100
AcDbEntity
  8
0
370
              -2
390
0
  6
Continuous
 62
               0
100
AcDbLine
 10
-801.38282745437027
 20
379.6038453919632
 30
0.0
 11
-895.88439979696341
 21
379.6038453919632
 31
0.0
  0
LINE
  5
89
100
AcDbEntity
  8
0
370
              -2
390
0
  6
Continuous
 62
               0
100
AcDbLine
 10
-895.88439979696341
 20
734.6038453919632
 30
0.0
 11
-895.88439979696341
 21
379.6038453919632
 31
0.0
  0
CIRCLE
  5
8A
102
{ACAD_REACTORS
330
8B
102
}
100
AcDbEntity
  8
0
370
              -2
390
0
  6
Continuous
 62
               0
100
AcDbCircle
 10
-895.88439979696341
 20
734.6038453919632
 30
0.0
 40
1.9998779296875
  0
HATCH
  5
8B
100
AcDbEntity
  8
0
370
              -2
390
0
  6
Continuous
 62
               0
100
AcDbHatch
 10
0.0
 20
0.0
 30
0.0
210
0.0
220
0.0
230
1.0
  2
SOLID
 70
               1
 71
               1
 91
        1
 92
        1
 93
        1
 72
               2
 10
-895.88439979696341
 20
734.6038453919632
 40
1.9998779296875
 50
0.0
 51
360.0
 73
               0
 97
        1
330
8A
 75
               0
 76
               1
 98
        1
 10
0.0
 20
0.0
  0
CIRCLE
  5
8C
102
{ACAD_REACTORS
330
8D
102
}
100
AcDbEntity
  8
0
370
              -2
390
0
  6
Continuous
 62
               0
100
AcDbCircle
 10
-895.88439979696341
 20
379.6038453919632
 30
0.0
 40
1.9998779296875
  0
HATCH
  5
8D
100
AcDbEntity
  8
0
370
              -2
390
0
  6
Continuous
 62
               0
100
AcDbHatch
 10
0.0
 20
0.0
 30
0.0
210
0.0
220
0.0
230
1.0
  2
SOLID
 70
               1
 71
               1
 91
        1
 92
        1
 93
        1
 72
               2
 10
-895.88439979696341
 20
379.6038453919632
 40
1.9998779296875
 50
0.0
 51
360.0
 73
               0
 97
        1
330
8C
 75
               0
 76
               1
 98
        1
 10
0.0
 20
0.0
  0
MTEXT
  5
8E
100
AcDbEntity
  8
0
390
0
 62
               0
100
AcDbMText
 10
-929.76201698446312
 20
533.29134370978772
 30
0.0
 40
24.432617187500004
 41
0.0
 71
               1
 72
               1
  1
355
  7
ＭＳ ゴシック
 11
0.0
 21
1.0
 31
0.0
 73
               1
 44
0.7828267384257843
  0
POINT
  5
8F
100
AcDbEntity
  8
Defpoints
370
               0
390
0
 62
               0
100
AcDbPoint
 10
-776.38282745437027
 20
379.6038453919632
 30
0.0
  0
POINT
  5
90
100
AcDbEntity
  8
Defpoints
370
               0
390
0
 62
               0
100
AcDbPoint
 10
-776.38282745437027
 20
734.6038453919632
 30
0.0
  0
POINT
  5
91
100
AcDbEntity
  8
Defpoints
370
               0
390
0
 62
               0
100
AcDbPoint
 10
-895.88439979696341
 20
734.6038453919632
 30
0.0
  0
ENDBLK
  5
92
100
AcDbEntity
  8
notes
390
0
100
AcDbBlockEnd
  0
BLOCK
  5
93
100
AcDbEntity
  8
notes
390
0
100
AcDbBlockBegin
  2
*D7
 70
               1
 10
0.0
 20
0.0
 30
0.0
  3
*D7
  1

  0
LINE
  5
94
100
AcDbEntity
  8
0
370
              -2
390
0
  6
Continuous
 62
               0
100
AcDbLine
 10
-75.846209711800839
 20
-441.31835249158871
 30
0.0
 11
4.1537974003676936
 21
-441.31835249158871
 31
0.0
  0
LINE
  5
95
100
AcDbEntity
  8
0
370
              -2
390
0
  6
Continuous
 62
               0
100
AcDbLine
 10
-140.34911974151873
 20
-571.31835249238827
 30
0.0
 11
4.1537974003676936
 21
-571.31835249238827
 31
0.0
  0
LINE
  5
96
100
AcDbEntity
  8
0
370
              -2
390
0
  6
Continuous
 62
               0
100
AcDbLine
 10
4.1537974003676936
 20
-441.31835249158871
 30
0.0
 11
4.1537974003676936
 21
-571.31835249238827
 31
0.0
  0
CIRCLE
  5
97
102
{ACAD_REACTORS
330
98
102
}
100
AcDbEntity
  8
0
370
              -2
390
0
  6
Continuous
 62
               0
100
AcDbCircle
 10
4.1537974003676936
 20
-441.31835249158871
 30
0.0
 40
1.9998779296875
  0
HATCH
  5
98
100
AcDbEntity
  8
0
370
              -2
390
0
  6
Continuous
 62
               0
100
AcDbHatch
 10
0.0
 20
0.0
 30
0.0
210
0.0
220
0.0
230
1.0
  2
SOLID
 70
               1
 71
               1
 91
        1
 92
        1
 93
        1
 72
               2
 10
4.1537974003676936
 20
-441.31835249158871
 40
1.9998779296875
 50
0.0
 51
360.0
 73
               0
 97
        1
330
97
 75
               0
 76
               1
 98
        1
 10
0.0
 20
0.0
  0
CIRCLE
  5
99
102
{ACAD_REACTORS
330
9A
102
}
100
AcDbEntity
  8
0
370
              -2
390
0
  6
Continuous
 62
               0
100
AcDbCircle
 10
4.1537974003676936
 20
-571.31835249238827
 30
0.0
 40
1.9998779296875
  0
HATCH
  5
9A
100
AcDbEntity
  8
0
370
              -2
390
0
  6
Continuous
 62
               0
100
AcDbHatch
 10
0.0
 20
0.0
 30
0.0
210
0.0
220
0.0
230
1.0
  2
SOLID
 70
               1
 71
               1
 91
        1
 92
        1
 93
        1
 72
               2
 10
4.1537974003676936
 20
-571.31835249238827
 40
1.9998779296875
 50
0.0
 51
360.0
 73
               0
 97
        1
330
99
 75
               0
 76
               1
 98
        1
 10
0.0
 20
0.0
  0
MTEXT
  5
9B
100
AcDbEntity
  8
0
390
0
 62
               0
100
AcDbMText
 10
-29.723819787132015
 20
-530.13085417416391
 30
0.0
 40
24.432617187500004
 41
0.0
 71
               1
 72
               1
  1
130
  7
ＭＳ ゴシック
 11
0.0
 21
1.0
 31
0.0
 73
               1
 44
0.7828267384257843
  0
POINT
  5
9C
100
AcDbEntity
  8
Defpoints
370
               0
390
0
 62
               0
100
AcDbPoint
 10
-165.34911974151873
 20
-571.31835249238827
 30
0.0
  0
POINT
  5
9D
100
AcDbEntity
  8
Defpoints
370
               0
390
0
 62
               0
100
AcDbPoint
 10
-100.84620971180084
 20
-441.31835249158871
 30
0.0
  0
POINT
  5
9E
100
AcDbEntity
  8
Defpoints
370
               0
390
0
 62
               0
100
AcDbPoint
 10
4.1537974003676936
 20
-441.31835249158871
 30
0.0
  0
ENDBLK
  5
9F
100
AcDbEntity
  8
notes
390
0
100
AcDbBlockEnd
  0
BLOCK
  5
A0
100
AcDbEntity
  8
notes
390
0
100
AcDbBlockBegin
  2
*D8
 70
               1
 10
0.0
 20
0.0
 30
0.0
  3
*D8
  1

  0
LINE
  5
A1
100
AcDbEntity
  8
0
370
              -2
390
0
  6
Continuous
 62
               0
100
AcDbLine
 10
-140.34911974151873
 20
-571.31835249238827
 30
0.0
 11
4.1537974003676936
 21
-571.31835249238827
 31
0.0
  0
LINE
  5
A2
100
AcDbEntity
  8
0
370
              -2
390
0
  6
Continuous
 62
               0
100
AcDbLine
 10
-385.9005739691911
 20
-606.31835249160281
 30
0.0
 11
4.1537974003676936
 21
-606.31835249160281
 31
0.0
  0
LINE
  5
A3
100
AcDbEntity
  8
0
370
              -2
390
0
  6
Continuous
 62
               0
100
AcDbLine
 10
4.1537974003676936
 20
-606.31835249160281
 30
0.0
 11
4.1537974003676936
 21
-645.25738264323331
 31
0.0
  0
LINE
  5
A4
100
AcDbEntity
  8
0
370
              -2
390
0
  6
Continuous
 62
               0
100
AcDbLine
 10
4.1537974003676936
 20
-571.31835249238827
 30
0.0
 11
4.1537974003676936
 21
-606.31835249160281
 31
0.0
  0
CIRCLE
  5
A5
102
{ACAD_REACTORS
330
A6
102
}
100
AcDbEntity
  8
0
370
              -2
390
0
  6
Continuous
 62
               0
100
AcDbCircle
 10
4.1537974003676936
 20
-571.31835249238827
 30
0.0
 40
1.9998779296875
  0
HATCH
  5
A6
100
AcDbEntity
  8
0
370
              -2
390
0
  6
Continuous
 62
               0
100
AcDbHatch
 10
0.0
 20
0.0
 30
0.0
210
0.0
220
0.0
230
1.0
  2
SOLID
 70
               1
 71
               1
 91
        1
 92
        1
 93
        1
 72
               2
 10
4.1537974003676936
 20
-571.31835249238827
 40
1.9998779296875
 50
0.0
 51
360.0
 73
               0
 97
        1
330
A5
 75
               0
 76
               1
 98
        1
 10
0.0
 20
0.0
  0
CIRCLE
  5
A7
102
{ACAD_REACTORS
330
A8
102
}
100
AcDbEntity
  8
0
370
              -2
390
0
  6
Continuous
 62
               0
100
AcDbCircle
 10
4.1537974003676936
 20
-606.31835249160281
 30
0.0
 40
1.9998779296875
  0
HATCH
  5
A8
100
AcDbEntity
  8
0
370
              -2
390
0
  6
Continuous
 62
               0
100
AcDbHatch
 10
0.0
 20
0.0
 30
0.0
210
0.0
220
0.0
230
1.0
  2
SOLID
 70
               1
 71
               1
 91
        1
 92
        1
 93
        1
 72
               2
 10
4.1537974003676936
 20
-606.31835249160281
 40
1.9998779296875
 50
0.0
 51
360.0
 73
               0
 97
        1
330
A7
 75
               0
 76
               1
 98
        1
 10
0.0
 20
0.0
  0
MTEXT
  5
A9
100
AcDbEntity
  8
0
390
0
 62
               0
100
AcDbMText
 10
-29.723819787132015
 20
-645.25738264323331
 30
0.0
 40
24.432617187500004
 41
0.0
 71
               1
 72
               1
  1
35
  7
ＭＳ ゴシック
 11
0.0
 21
1.0
 31
0.0
 73
               1
 44
0.7828267384257843
  0
POINT
  5
AA
100
AcDbEntity
  8
Defpoints
370
               0
390
0
 62
               0
100
AcDbPoint
 10
-410.9005739691911
 20
-606.31835249160281
 30
0.0
  0
POINT
  5
AB
100
AcDbEntity
  8
Defpoints
370
               0
390
0
 62
               0
100
AcDbPoint
 10
-165.34911974151873
 20
-571.31835249238827
 30
0.0
  0
POINT
  5
AC
100
AcDbEntity
  8
Defpoints
370
               0
390
0
 62
               0
100
AcDbPoint
 10
4.1537974003676936
 20
-571.31835249238827
 30
0.0
  0
ENDBLK
  5
AD
100
AcDbEntity
  8
notes
390
0
100
AcDbBlockEnd
  0
BLOCK
  5
AE
100
AcDbEntity
  8
notes
390
0
100
AcDbBlockBegin
  2
*D9
 70
               1
 10
0.0
 20
0.0
 30
0.0
  3
*D9
  1

  0
LINE
  5
AF
100
AcDbEntity
  8
0
370
              -2
390
0
  6
Continuous
 62
               0
100
AcDbLine
 10
273.18530071861642
 20
-441.3183524915919
 30
0.0
 11
193.5249459179704
 21
-441.3183524915919
 31
0.0
  0
LINE
  5
B0
100
AcDbEntity
  8
0
370
              -2
390
0
  6
Continuous
 62
               0
100
AcDbLine
 10
450.24108273353522
 20
-606.31835249160281
 30
0.0
 11
193.5249459179704
 21
-606.31835249160281
 31
0.0
  0
LINE
  5
B1
100
AcDbEntity
  8
0
370
              -2
390
0
  6
Continuous
 62
               0
100
AcDbLine
 10
193.5249459179704
 20
-441.3183524915919
 30
0.0
 11
193.5249459179704
 21
-606.31835249160281
 31
0.0
  0
CIRCLE
  5
B2
102
{ACAD_REACTORS
330
B3
102
}
100
AcDbEntity
  8
0
370
              -2
390
0
  6
Continuous
 62
               0
100
AcDbCircle
 10
193.5249459179704
 20
-441.3183524915919
 30
0.0
 40
1.9998779296875
  0
HATCH
  5
B3
100
AcDbEntity
  8
0
370
              -2
390
0
  6
Continuous
 62
               0
100
AcDbHatch
 10
0.0
 20
0.0
 30
0.0
210
0.0
220
0.0
230
1.0
  2
SOLID
 70
               1
 71
               1
 91
        1
 92
        1
 93
        1
 72
               2
 10
193.5249459179704
 20
-441.3183524915919
 40
1.9998779296875
 50
0.0
 51
360.0
 73
               0
 97
        1
330
B2
 75
               0
 76
               1
 98
        1
 10
0.0
 20
0.0
  0
CIRCLE
  5
B4
102
{ACAD_REACTORS
330
B5
102
}
100
AcDbEntity
  8
0
370
              -2
390
0
  6
Continuous
 62
               0
100
AcDbCircle
 10
193.5249459179704
 20
-606.31835249160281
 30
0.0
 40
1.9998779296875
  0
HATCH
  5
B5
100
AcDbEntity
  8
0
370
              -2
390
0
  6
Continuous
 62
               0
100
AcDbHatch
 10
0.0
 20
0.0
 30
0.0
210
0.0
220
0.0
230
1.0
  2
SOLID
 70
               1
 71
               1
 91
        1
 92
        1
 93
        1
 72
               2
 10
193.5249459179704
 20
-606.31835249160281
 40
1.9998779296875
 50
0.0
 51
360.0
 73
               0
 97
        1
330
B4
 75
               0
 76
               1
 98
        1
 10
0.0
 20
0.0
  0
MTEXT
  5
B6
100
AcDbEntity
  8
0
390
0
 62
               0
100
AcDbMText
 10
159.64732873047069
 20
-547.63085417377283
 30
0.0
 40
24.432617187500004
 41
0.0
 71
               1
 72
               1
  1
165
  7
ＭＳ ゴシック
 11
0.0
 21
1.0
 31
0.0
 73
               1
 44
0.7828267384257843
  0
POINT
  5
B7
100
AcDbEntity
  8
Defpoints
370
               0
390
0
 62
               0
100
AcDbPoint
 10
475.24108273353522
 20
-606.31835249160281
 30
0.0
  0
POINT
  5
B8
100
AcDbEntity
  8
Defpoints
370
               0
390
0
 62
               0
100
AcDbPoint
 10
298.18530071861642
 20
-441.3183524915919
 30
0.0
  0
POINT
  5
B9
100
AcDbEntity
  8
Defpoints
370
               0
390
0
 62
               0
100
AcDbPoint
 10
193.5249459179704
 20
-441.3183524915919
 30
0.0
  0
ENDBLK
  5
BA
100
AcDbEntity
  8
notes
390
0
100
AcDbBlockEnd
  0
BLOCK
  5
BB
100
AcDbEntity
  8
notes
390
0
100
AcDbBlockBegin
  2
*D10
 70
               1
 10
0.0
 20
0.0
 30
0.0
  3
*D10
  1

  0
LINE
  5
BC
100
AcDbEntity
  8
0
370
              -2
390
0
  6
Continuous
 62
               0
100
AcDbLine
 10
485.18671136395096
 20
-441.3183524915969
 30
0.0
 11
493.60421996671539
 21
-441.3183524915969
 31
0.0
  0
LINE
  5
BD
100
AcDbEntity
  8
0
370
              -2
390
0
  6
Continuous
 62
               0
100
AcDbLine
 10
485.18671136395096
 20
-561.3183524915828
 30
0.0
 11
493.60421996671539
 21
-561.3183524915828
 31
0.0
  0
LINE
  5
BE
100
AcDbEntity
  8
0
370
              -2
390
0
  6
Continuous
 62
               0
100
AcDbLine
 10
493.60421996671539
 20
-441.3183524915969
 30
0.0
 11
493.60421996671539
 21
-285.63238264323331
 31
0.0
  0
LINE
  5
BF
100
AcDbEntity
  8
0
370
              -2
390
0
  6
Continuous
 62
               0
100
AcDbLine
 10
493.60421996671539
 20
-441.3183524915969
 30
0.0
 11
493.60421996671539
 21
-561.3183524915828
 31
0.0
  0
CIRCLE
  5
C0
102
{ACAD_REACTORS
330
C1
102
}
100
AcDbEntity
  8
0
370
              -2
390
0
  6
Continuous
 62
               0
100
AcDbCircle
 10
493.60421996671539
 20
-441.3183524915969
 30
0.0
 40
1.9998779296875
  0
HATCH
  5
C1
100
AcDbEntity
  8
0
370
              -2
390
0
  6
Continuous
 62
               0
100
AcDbHatch
 10
0.0
 20
0.0
 30
0.0
210
0.0
220
0.0
230
1.0
  2
SOLID
 70
               1
 71
               1
 91
        1
 92
        1
 93
        1
 72
               2
 10
493.60421996671539
 20
-441.3183524915969
 40
1.9998779296875
 50
0.0
 51
360.0
 73
               0
 97
        1
330
C0
 75
               0
 76
               1
 98
        1
 10
0.0
 20
0.0
  0
CIRCLE
  5
C2
102
{ACAD_REACTORS
330
C3
102
}
100
AcDbEntity
  8
0
370
              -2
390
0
  6
Continuous
 62
               0
100
AcDbCircle
 10
493.60421996671539
 20
-561.3183524915828
 30
0.0
 40
1.9998779296875
  0
HATCH
  5
C3
100
AcDbEntity
  8
0
370
              -2
390
0
  6
Continuous
 62
               0
100
AcDbHatch
 10
0.0
 20
0.0
 30
0.0
210
0.0
220
0.0
230
1.0
  2
SOLID
 70
               1
 71
               1
 91
        1
 92
        1
 93
        1
 72
               2
 10
493.60421996671539
 20
-561.3183524915828
 40
1.9998779296875
 50
0.0
 51
360.0
 73
               0
 97
        1
330
C2
 75
               0
 76
               1
 98
        1
 10
0.0
 20
0.0
  0
MTEXT
  5
C4
100
AcDbEntity
  8
0
390
0
 62
               0
100
AcDbMText
 10
459.72660277921568
 20
-428.50738264323331
 30
0.0
 40
24.432617187500004
 41
0.0
 71
               1
 72
               1
  1
120(深さ)
  7
ＭＳ ゴシック
 11
0.0
 21
1.0
 31
0.0
 73
               1
 44
0.7828267384257843
  0
POINT
  5
C5
100
AcDbEntity
  8
Defpoints
370
               0
390
0
 62
               0
100
AcDbPoint
 10
510.18671136395096
 20
-561.3183524915828
 30
0.0
  0
POINT
  5
C6
100
AcDbEntity
  8
Defpoints
370
               0
390
0
 62
               0
100
AcDbPoint
 10
510.18671136395096
 20
-441.3183524915969
 30
0.0
  0
POINT
  5
C7
100
AcDbEntity
  8
Defpoints
370
               0
390
0
 62
               0
100
AcDbPoint
 10
493.60421996671539
 20
-441.3183524915969
 30
0.0
  0
ENDBLK
  5
C8
100
AcDbEntity
  8
notes
390
0
100
AcDbBlockEnd
  0
BLOCK
  5
C9
100
AcDbEntity
  8
notes
390
0
100
AcDbBlockBegin
  2
*D11
 70
               1
 10
0.0
 20
0.0
 30
0.0
  3
*D11
  1

  0
LINE
  5
CA
100
AcDbEntity
  8
0
370
              -2
390
0
  6
Continuous
 62
               0
100
AcDbLine
 10
303.59546406704249
 20
452.6038453919632
 30
0.0
 11
303.59546406704249
 21
190.60102410127729
 31
0.0
  0
LINE
  5
CB
100
AcDbEntity
  8
0
370
              -2
390
0
  6
Continuous
 62
               0
100
AcDbLine
 10
633.59546406704249
 20
452.6038453919632
 30
0.0
 11
633.59546406704249
 21
190.60102410127729
 31
0.0
  0
LINE
  5
CC
100
AcDbEntity
  8
0
370
              -2
390
0
  6
Continuous
 62
               0
100
AcDbLine
 10
303.59546406704249
 20
190.60102410127729
 30
0.0
 11
633.59546406704249
 21
190.60102410127729
 31
0.0
  0
CIRCLE
  5
CD
102
{ACAD_REACTORS
330
CE
102
}
100
AcDbEntity
  8
0
370
              -2
390
0
  6
Continuous
 62
               0
100
AcDbCircle
 10
303.59546406704249
 20
190.60102410127729
 30
0.0
 40
1.9998779296875
  0
HATCH
  5
CE
100
AcDbEntity
  8
0
370
              -2
390
0
  6
Continuous
 62
               0
100
AcDbHatch
 10
0.0
 20
0.0
 30
0.0
210
0.0
220
0.0
230
1.0
  2
SOLID
 70
               1
 71
               1
 91
        1
 92
        1
 93
        1
 72
               2
 10
303.59546406704249
 20
190.60102410127729
 40
1.9998779296875
 50
0.0
 51
360.0
 73
               0
 97
        1
330
CD
 75
               0
 76
               1
 98
        1
 10
0.0
 20
0.0
  0
CIRCLE
  5
CF
102
{ACAD_REACTORS
330
D0
102
}
100
AcDbEntity
  8
0
370
              -2
390
0
  6
Continuous
 62
               0
100
AcDbCircle
 10
633.59546406704249
 20
190.60102410127729
 30
0.0
 40
1.9998779296875
  0
HATCH
  5
D0
100
AcDbEntity
  8
0
370
              -2
390
0
  6
Continuous
 62
               0
100
AcDbHatch
 10
0.0
 20
0.0
 30
0.0
210
0.0
220
0.0
230
1.0
  2
SOLID
 70
               1
 71
               1
 91
        1
 92
        1
 93
        1
 72
               2
 10
633.59546406704249
 20
190.60102410127729
 40
1.9998779296875
 50
0.0
 51
360.0
 73
               0
 97
        1
330
CF
 75
               0
 76
               1
 98
        1
 10
0.0
 20
0.0
  0
MTEXT
  5
D1
100
AcDbEntity
  8
0
390
0
 62
               0
100
AcDbMText
 10
444.78296238486655
 20
224.47864128877723
 30
0.0
 40
24.432617187500004
 41
0.0
 71
               1
 72
               1
  1
330
  7
ＭＳ ゴシック
 73
               1
 44
0.7828267384257843
  0
POINT
  5
D2
100
AcDbEntity
  8
Defpoints
370
               0
390
0
 62
               0
100
AcDbPoint
 10
633.59546406704249
 20
477.6038453919632
 30
0.0
  0
POINT
  5
D3
100
AcDbEntity
  8
Defpoints
370
               0
390
0
 62
               0
100
AcDbPoint
 10
303.59546406704249
 20
477.6038453919632
 30
0.0
  0
POINT
  5
D4
100
AcDbEntity
  8
Defpoints
370
               0
390
0
 62
               0
100
AcDbPoint
 10
303.59546406704249
 20
190.60102410127729
 30
0.0
  0
ENDBLK
  5
D5
100
AcDbEntity
  8
notes
390
0
100
AcDbBlockEnd
  0
BLOCK
  5
D6
100
AcDbEntity
  8
notes
390
0
100
AcDbBlockBegin
  2
*D12
 70
               1
 10
0.0
 20
0.0
 30
0.0
  3
*D12
  1

  0
LINE
  5
D7
100
AcDbEntity
  8
0
370
              -2
390
0
  6
Continuous
 62
               0
100
AcDbLine
 10
658.59546406704249
 20
477.6038453919632
 30
0.0
 11
733.14844784656634
 21
477.6038453919632
 31
0.0
  0
LINE
  5
D8
100
AcDbEntity
  8
0
370
              -2
390
0
  6
Continuous
 62
               0
100
AcDbLine
 10
658.59546406704249
 20
697.6038453919632
 30
0.0
 11
733.14844784656634
 21
697.6038453919632
 31
0.0
  0
LINE
  5
D9
100
AcDbEntity
  8
0
370
              -2
390
0
  6
Continuous
 62
               0
100
AcDbLine
 10
733.14844784656634
 20
477.6038453919632
 30
0.0
 11
733.14844784656634
 21
697.6038453919632
 31
0.0
  0
CIRCLE
  5
DA
102
{ACAD_REACTORS
330
DB
102
}
100
AcDbEntity
  8
0
370
              -2
390
0
  6
Continuous
 62
               0
100
AcDbCircle
 10
733.14844784656634
 20
477.6038453919632
 30
0.0
 40
1.9998779296875
  0
HATCH
  5
DB
100
AcDbEntity
  8
0
370
              -2
390
0
  6
Continuous
 62
               0
100
AcDbHatch
 10
0.0
 20
0.0
 30
0.0
210
0.0
220
0.0
230
1.0
  2
SOLID
 70
               1
 71
               1
 91
        1
 92
        1
 93
        1
 72
               2
 10
733.14844784656634
 20
477.6038453919632
 40
1.9998779296875
 50
0.0
 51
360.0
 73
               0
 97
        1
330
DA
 75
               0
 76
               1
 98
        1
 10
0.0
 20
0.0
  0
CIRCLE
  5
DC
102
{ACAD_REACTORS
330
DD
102
}
100
AcDbEntity
  8
0
370
              -2
390
0
  6
Continuous
 62
               0
100
AcDbCircle
 10
733.14844784656634
 20
697.6038453919632
 30
0.0
 40
1.9998779296875
  0
HATCH
  5
DD
100
AcDbEntity
  8
0
370
              -2
390
0
  6
Continuous
 62
               0
100
AcDbHatch
 10
0.0
 20
0.0
 30
0.0
210
0.0
220
0.0
230
1.0
  2
SOLID
 70
               1
 71
               1
 91
        1
 92
        1
 93
        1
 72
               2
 10
733.14844784656634
 20
697.6038453919632
 40
1.9998779296875
 50
0.0
 51
360.0
 73
               0
 97
        1
330
DC
 75
               0
 76
               1
 98
        1
 10
0.0
 20
0.0
  0
MTEXT
  5
DE
100
AcDbEntity
  8
0
390
0
 62
               0
100
AcDbMText
 10
699.27083065906663
 20
563.79134370978772
 30
0.0
 40
24.432617187500004
 41
0.0
 71
               1
 72
               1
  1
220
  7
ＭＳ ゴシック
 11
0.0
 21
1.0
 31
0.0
 73
               1
 44
0.7828267384257843
  0
POINT
  5
DF
100
AcDbEntity
  8
Defpoints
370
               0
390
0
 62
               0
100
AcDbPoint
 10
633.59546406704249
 20
697.6038453919632
 30
0.0
  0
POINT
  5
E0
100
AcDbEntity
  8
Defpoints
370
               0
390
0
 62
               0
100
AcDbPoint
 10
633.59546406704249
 20
477.6038453919632
 30
0.0
  0
POINT
  5
E1
100
AcDbEntity
  8
Defpoints
370
               0
390
0
 62
               0
100
AcDbPoint
 10
733.14844784656634
 20
477.6038453919632
 30
0.0
  0
ENDBLK
  5
E2
100
AcDbEntity
  8
notes
390
0
100
AcDbBlockEnd
  0
BLOCK
  5
E3
100
AcDbEntity
  8
notes
390
0
100
AcDbBlockBegin
  2
*D13
 70
               1
 10
0.0
 20
0.0
 30
0.0
  3
*D13
  1

  0
LINE
  5
E4
100
AcDbEntity
  8
0
370
              -2
390
0
  6
Continuous
 62
               0
100
AcDbLine
 10
658.59546406704249
 20
697.6038453919632
 30
0.0
 11
733.14844784656634
 21
697.6038453919632
 31
0.0
  0
LINE
  5
E5
100
AcDbEntity
  8
0
370
              -2
390
0
  6
Continuous
 62
               0
100
AcDbLine
 10
658.59546406704249
 20
774.6038453919632
 30
0.0
 11
733.14844784656634
 21
774.6038453919632
 31
0.0
  0
LINE
  5
E6
100
AcDbEntity
  8
0
370
              -2
390
0
  6
Continuous
 62
               0
100
AcDbLine
 10
733.14844784656634
 20
697.6038453919632
 30
0.0
 11
733.14844784656634
 21
774.6038453919632
 31
0.0
  0
CIRCLE
  5
E7
102
{ACAD_REACTORS
330
E8
102
}
100
AcDbEntity
  8
0
370
              -2
390
0
  6
Continuous
 62
               0
100
AcDbCircle
 10
733.14844784656634
 20
697.6038453919632
 30
0.0
 40
1.9998779296875
  0
HATCH
  5
E8
100
AcDbEntity
  8
0
370
              -2
390
0
  6
Continuous
 62
               0
100
AcDbHatch
 10
0.0
 20
0.0
 30
0.0
210
0.0
220
0.0
230
1.0
  2
SOLID
 70
               1
 71
               1
 91
        1
 92
        1
 93
        1
 72
               2
 10
733.14844784656634
 20
697.6038453919632
 40
1.9998779296875
 50
0.0
 51
360.0
 73
               0
 97
        1
330
E7
 75
               0
 76
               1
 98
        1
 10
0.0
 20
0.0
  0
CIRCLE
  5
E9
102
{ACAD_REACTORS
330
EA
102
}
100
AcDbEntity
  8
0
370
              -2
390
0
  6
Continuous
 62
               0
100
AcDbCircle
 10
733.14844784656634
 20
774.6038453919632
 30
0.0
 40
1.9998779296875
  0
HATCH
  5
EA
100
AcDbEntity
  8
0
370
              -2
390
0
  6
Continuous
 62
               0
100
AcDbHatch
 10
0.0
 20
0.0
 30
0.0
210
0.0
220
0.0
230
1.0
  2
SOLID
 70
               1
 71
               1
 91
        1
 92
        1
 93
        1
 72
               2
 10
733.14844784656634
 20
774.6038453919632
 40
1.9998779296875
 50
0.0
 51
360.0
 73
               0
 97
        1
330
E9
 75
               0
 76
               1
 98
        1
 10
0.0
 20
0.0
  0
MTEXT
  5
EB
100
AcDbEntity
  8
0
390
0
 62
               0
100
AcDbMText
 10
699.27083065906663
 20
720.2288453919632
 30
0.0
 40
24.432617187500004
 41
0.0
 71
               1
 72
               1
  1
77
  7
ＭＳ ゴシック
 11
0.0
 21
1.0
 31
0.0
 73
               1
 44
0.7828267384257843
  0
POINT
  5
EC
100
AcDbEntity
  8
Defpoints
370
               0
390
0
 62
               0
100
AcDbPoint
 10
633.59546406704249
 20
774.6038453919632
 30
0.0
  0
POINT
  5
ED
100
AcDbEntity
  8
Defpoints
370
               0
390
0
 62
               0
100
AcDbPoint
 10
633.59546406704249
 20
697.6038453919632
 30
0.0
  0
POINT
  5
EE
100
AcDbEntity
  8
Defpoints
370
               0
390
0
 62
               0
100
AcDbPoint
 10
733.14844784656634
 20
697.6038453919632
 30
0.0
  0
ENDBLK
  5
EF
100
AcDbEntity
  8
notes
390
0
100
AcDbBlockEnd
  0
BLOCK
  5
F0
100
AcDbEntity
  8
notes
390
0
100
AcDbBlockBegin
  2
*D14
 70
               1
 10
0.0
 20
0.0
 30
0.0
  3
*D14
  1

  0
LINE
  5
F1
100
AcDbEntity
  8
0
370
              -2
390
0
  6
Continuous
 62
               0
100
AcDbLine
 10
201.59546406704249
 20
439.60243474662138
 30
0.0
 11
172.68587989833213
 21
439.60243474662138
 31
0.0
  0
LINE
  5
F2
100
AcDbEntity
  8
0
370
              -2
390
0
  6
Continuous
 62
               0
100
AcDbLine
 10
201.59546406704249
 20
669.60243474662138
 30
0.0
 11
172.68587989833213
 21
669.60243474662138
 31
0.0
  0
LINE
  5
F3
100
AcDbEntity
  8
0
370
              -2
390
0
  6
Continuous
 62
               0
100
AcDbLine
 10
172.68587989833213
 20
439.60243474662138
 30
0.0
 11
172.68587989833213
 21
669.60243474662138
 31
0.0
  0
CIRCLE
  5
F4
102
{ACAD_REACTORS
330
F5
102
}
100
AcDbEntity
  8
0
370
              -2
390
0
  6
Continuous
 62
               0
100
AcDbCircle
 10
172.68587989833213
 20
439.60243474662138
 30
0.0
 40
1.9998779296875
  0
HATCH
  5
F5
100
AcDbEntity
  8
0
370
              -2
390
0
  6
Continuous
 62
               0
100
AcDbHatch
 10
0.0
 20
0.0
 30
0.0
210
0.0
220
0.0
230
1.0
  2
SOLID
 70
               1
 71
               1
 91
        1
 92
        1
 93
        1
 72
               2
 10
172.68587989833213
 20
439.60243474662138
 40
1.9998779296875
 50
0.0
 51
360.0
 73
               0
 97
        1
330
F4
 75
               0
 76
               1
 98
        1
 10
0.0
 20
0.0
  0
CIRCLE
  5
F6
102
{ACAD_REACTORS
330
F7
102
}
100
AcDbEntity
  8
0
370
              -2
390
0
  6
Continuous
 62
               0
100
AcDbCircle
 10
172.68587989833213
 20
669.60243474662138
 30
0.0
 40
1.9998779296875
  0
HATCH
  5
F7
100
AcDbEntity
  8
0
370
              -2
390
0
  6
Continuous
 62
               0
100
AcDbHatch
 10
0.0
 20
0.0
 30
0.0
210
0.0
220
0.0
230
1.0
  2
SOLID
 70
               1
 71
               1
 91
        1
 92
        1
 93
        1
 72
               2
 10
172.68587989833213
 20
669.60243474662138
 40
1.9998779296875
 50
0.0
 51
360.0
 73
               0
 97
        1
330
F6
 75
               0
 76
               1
 98
        1
 10
0.0
 20
0.0
  0
MTEXT
  5
F8
100
AcDbEntity
  8
0
390
0
 62
               0
100
AcDbMText
 10
138.80826271083242
 20
530.7899330644459
 30
0.0
 40
24.432617187500004
 41
0.0
 71
               1
 72
               1
  1
230
  7
ＭＳ ゴシック
 11
0.0
 21
1.0
 31
0.0
 73
               1
 44
0.7828267384257843
  0
POINT
  5
F9
100
AcDbEntity
  8
Defpoints
370
               0
390
0
 62
               0
100
AcDbPoint
 10
226.59546406704249
 20
669.60243474662138
 30
0.0
  0
POINT
  5
FA
100
AcDbEntity
  8
Defpoints
370
               0
390
0
 62
               0
100
AcDbPoint
 10
226.59546406704249
 20
439.60243474662138
 30
0.0
  0
POINT
  5
FB
100
AcDbEntity
  8
Defpoints
370
               0
390
0
 62
               0
100
AcDbPoint
 10
172.68587989833213
 20
439.60243474662138
 30
0.0
  0
ENDBLK
  5
FC
100
AcDbEntity
  8
notes
390
0
100
AcDbBlockEnd
  0
BLOCK
  5
FD
100
AcDbEntity
  8
notes
390
0
100
AcDbBlockBegin
  2
*D15
 70
               1
 10
0.0
 20
0.0
 30
0.0
  3
*D15
  1

  0
LINE
  5
FE
100
AcDbEntity
  8
0
370
              -2
390
0
  6
Continuous
 62
               0
100
AcDbLine
 10
201.59546406704249
 20
669.60243474662138
 30
0.0
 11
172.68587989833213
 21
669.60243474662138
 31
0.0
  0
LINE
  5
FF
100
AcDbEntity
  8
0
370
              -2
390
0
  6
Continuous
 62
               0
100
AcDbLine
 10
208.30847259971233
 20
774.6038453919632
 30
0.0
 11
172.68587989833213
 21
774.6038453919632
 31
0.0
  0
LINE
  5
100
100
AcDbEntity
  8
0
370
              -2
390
0
  6
Continuous
 62
               0
100
AcDbLine
 10
172.68587989833213
 20
669.60243474662138
 30
0.0
 11
172.68587989833213
 21
774.6038453919632
 31
0.0
  0
CIRCLE
  5
101
102
{ACAD_REACTORS
330
102
102
}
100
AcDbEntity
  8
0
370
              -2
390
0
  6
Continuous
 62
               0
100
AcDbCircle
 10
172.68587989833213
 20
669.60243474662138
 30
0.0
 40
1.9998779296875
  0
HATCH
  5
102
100
AcDbEntity
  8
0
370
              -2
390
0
  6
Continuous
 62
               0
100
AcDbHatch
 10
0.0
 20
0.0
 30
0.0
210
0.0
220
0.0
230
1.0
  2
SOLID
 70
               1
 71
               1
 91
        1
 92
        1
 93
        1
 72
               2
 10
172.68587989833213
 20
669.60243474662138
 40
1.9998779296875
 50
0.0
 51
360.0
 73
               0
 97
        1
330
101
 75
               0
 76
               1
 98
        1
 10
0.0
 20
0.0
  0
CIRCLE
  5
103
102
{ACAD_REACTORS
330
104
102
}
100
AcDbEntity
  8
0
370
              -2
390
0
  6
Continuous
 62
               0
100
AcDbCircle
 10
172.68587989833213
 20
774.6038453919632
 30
0.0
 40
1.9998779296875
  0
HATCH
  5
104
100
AcDbEntity
  8
0
370
              -2
390
0
  6
Continuous
 62
               0
100
AcDbHatch
 10
0.0
 20
0.0
 30
0.0
210
0.0
220
0.0
230
1.0
  2
SOLID
 70
               1
 71
               1
 91
        1
 92
        1
 93
        1
 72
               2
 10
172.68587989833213
 20
774.6038453919632
 40
1.9998779296875
 50
0.0
 51
360.0
 73
               0
 97
        1
330
103
 75
               0
 76
               1
 98
        1
 10
0.0
 20
0.0
  0
MTEXT
  5
105
100
AcDbEntity
  8
0
390
0
 62
               0
100
AcDbMText
 10
138.80826271083242
 20
698.29063838711681
 30
0.0
 40
24.432617187500004
 41
0.0
 71
               1
 72
               1
  1
105
  7
ＭＳ ゴシック
 11
0.0
 21
1.0
 31
0.0
 73
               1
 44
0.7828267384257843
  0
POINT
  5
106
100
AcDbEntity
  8
Defpoints
370
               0
390
0
 62
               0
100
AcDbPoint
 10
233.30847259971233
 20
774.6038453919632
 30
0.0
  0
POINT
  5
107
100
AcDbEntity
  8
Defpoints
370
               0
390
0
 62
               0
100
AcDbPoint
 10
226.59546406704249
 20
669.60243474662138
 30
0.0
  0
POINT
  5
108
100
AcDbEntity
  8
Defpoints
370
               0
390
0
 62
               0
100
AcDbPoint
 10
172.68587989833213
 20
669.60243474662138
 30
0.0
  0
ENDBLK
  5
109
100
AcDbEntity
  8
notes
390
0
100
AcDbBlockEnd
  0
BLOCK
  5
10A
100
AcDbEntity
  8
notes
390
0
100
AcDbBlockBegin
  2
*D16
 70
               1
 10
0.0
 20
0.0
 30
0.0
  3
*D16
  1

  0
LINE
  5
10B
100
AcDbEntity
  8
0
370
              -2
390
0
  6
Continuous
 62
               0
100
AcDbLine
 10
232.59546406704249
 20
408.60243474662138
 30
0.0
 11
232.59546406704249
 21
240.60102410127752
 31
0.0
  0
LINE
  5
10C
100
AcDbEntity
  8
0
370
              -2
390
0
  6
Continuous
 62
               0
100
AcDbLine
 10
468.59546406704249
 20
497.60243474662138
 30
0.0
 11
468.59546406704249
 21
240.60102410127752
 31
0.0
  0
LINE
  5
10D
100
AcDbEntity
  8
0
370
              -2
390
0
  6
Continuous
 62
               0
100
AcDbLine
 10
232.59546406704249
 20
240.60102410127752
 30
0.0
 11
468.59546406704249
 21
240.60102410127752
 31
0.0
  0
CIRCLE
  5
10E
102
{ACAD_REACTORS
330
10F
102
}
100
AcDbEntity
  8
0
370
              -2
390
0
  6
Continuous
 62
               0
100
AcDbCircle
 10
232.59546406704249
 20
240.60102410127752
 30
0.0
 40
1.9998779296875
  0
HATCH
  5
10F
100
AcDbEntity
  8
0
370
              -2
390
0
  6
Continuous
 62
               0
100
AcDbHatch
 10
0.0
 20
0.0
 30
0.0
210
0.0
220
0.0
230
1.0
  2
SOLID
 70
               1
 71
               1
 91
        1
 92
        1
 93
        1
 72
               2
 10
232.59546406704249
 20
240.60102410127752
 40
1.9998779296875
 50
0.0
 51
360.0
 73
               0
 97
        1
330
10E
 75
               0
 76
               1
 98
        1
 10
0.0
 20
0.0
  0
CIRCLE
  5
110
102
{ACAD_REACTORS
330
111
102
}
100
AcDbEntity
  8
0
370
              -2
390
0
  6
Continuous
 62
               0
100
AcDbCircle
 10
468.59546406704249
 20
240.60102410127752
 30
0.0
 40
1.9998779296875
  0
HATCH
  5
111
100
AcDbEntity
  8
0
370
              -2
390
0
  6
Continuous
 62
               0
100
AcDbHatch
 10
0.0
 20
0.0
 30
0.0
210
0.0
220
0.0
230
1.0
  2
SOLID
 70
               1
 71
               1
 91
        1
 92
        1
 93
        1
 72
               2
 10
468.59546406704249
 20
240.60102410127752
 40
1.9998779296875
 50
0.0
 51
360.0
 73
               0
 97
        1
330
110
 75
               0
 76
               1
 98
        1
 10
0.0
 20
0.0
  0
MTEXT
  5
112
100
AcDbEntity
  8
0
390
0
 62
               0
100
AcDbMText
 10
326.78296238486655
 20
274.47864128877745
 30
0.0
 40
24.432617187500004
 41
0.0
 71
               1
 72
               1
  1
236
  7
ＭＳ ゴシック
 73
               1
 44
0.7828267384257843
  0
POINT
  5
113
100
AcDbEntity
  8
Defpoints
370
               0
390
0
 62
               0
100
AcDbPoint
 10
468.59546406704249
 20
522.60243474662138
 30
0.0
  0
POINT
  5
114
100
AcDbEntity
  8
Defpoints
370
               0
390
0
 62
               0
100
AcDbPoint
 10
232.59546406704249
 20
433.60243474662138
 30
0.0
  0
POINT
  5
115
100
AcDbEntity
  8
Defpoints
370
               0
390
0
 62
               0
100
AcDbPoint
 10
232.59546406704249
 20
240.60102410127752
 30
0.0
  0
ENDBLK
  5
116
100
AcDbEntity
  8
notes
390
0
100
AcDbBlockEnd
  0
BLOCK
  5
117
100
AcDbEntity
  8
notes
390
0
100
AcDbBlockBegin
  2
*D17
 70
               1
 10
0.0
 20
0.0
 30
0.0
  3
*D17
  1

  0
LINE
  5
118
100
AcDbEntity
  8
0
370
              -2
390
0
  6
Continuous
 62
               0
100
AcDbLine
 10
468.59546406704249
 20
497.60243474662138
 30
0.0
 11
468.59546406704249
 21
240.60102410127752
 31
0.0
  0
LINE
  5
119
100
AcDbEntity
  8
0
370
              -2
390
0
  6
Continuous
 62
               0
100
AcDbLine
 10
704.59546406704249
 20
408.60243474662138
 30
0.0
 11
704.59546406704249
 21
240.60102410127752
 31
0.0
  0
LINE
  5
11A
100
AcDbEntity
  8
0
370
              -2
390
0
  6
Continuous
 62
               0
100
AcDbLine
 10
468.59546406704249
 20
240.60102410127752
 30
0.0
 11
704.59546406704249
 21
240.60102410127752
 31
0.0
  0
CIRCLE
  5
11B
102
{ACAD_REACTORS
330
11C
102
}
100
AcDbEntity
  8
0
370
              -2
390
0
  6
Continuous
 62
               0
100
AcDbCircle
 10
468.59546406704249
 20
240.60102410127752
 30
0.0
 40
1.9998779296875
  0
HATCH
  5
11C
100
AcDbEntity
  8
0
370
              -2
390
0
  6
Continuous
 62
               0
100
AcDbHatch
 10
0.0
 20
0.0
 30
0.0
210
0.0
220
0.0
230
1.0
  2
SOLID
 70
               1
 71
               1
 91
        1
 92
        1
 93
        1
 72
               2
 10
468.59546406704249
 20
240.60102410127752
 40
1.9998779296875
 50
0.0
 51
360.0
 73
               0
 97
        1
330
11B
 75
               0
 76
               1
 98
        1
 10
0.0
 20
0.0
  0
CIRCLE
  5
11D
102
{ACAD_REACTORS
330
11E
102
}
100
AcDbEntity
  8
0
370
              -2
390
0
  6
Continuous
 62
               0
100
AcDbCircle
 10
704.59546406704249
 20
240.60102410127752
 30
0.0
 40
1.9998779296875
  0
HATCH
  5
11E
100
AcDbEntity
  8
0
370
              -2
390
0
  6
Continuous
 62
               0
100
AcDbHatch
 10
0.0
 20
0.0
 30
0.0
210
0.0
220
0.0
230
1.0
  2
SOLID
 70
               1
 71
               1
 91
        1
 92
        1
 93
        1
 72
               2
 10
704.59546406704249
 20
240.60102410127752
 40
1.9998779296875
 50
0.0
 51
360.0
 73
               0
 97
        1
330
11D
 75
               0
 76
               1
 98
        1
 10
0.0
 20
0.0
  0
MTEXT
  5
11F
100
AcDbEntity
  8
0
390
0
 62
               0
100
AcDbMText
 10
562.78296238486655
 20
274.47864128877745
 30
0.0
 40
24.432617187500004
 41
0.0
 71
               1
 72
               1
  1
236
  7
ＭＳ ゴシック
 73
               1
 44
0.7828267384257843
  0
POINT
  5
120
100
AcDbEntity
  8
Defpoints
370
               0
390
0
 62
               0
100
AcDbPoint
 10
704.59546406704249
 20
433.60243474662138
 30
0.0
  0
POINT
  5
121
100
AcDbEntity
  8
Defpoints
370
               0
390
0
 62
               0
100
AcDbPoint
 10
468.59546406704249
 20
522.60243474662138
 30
0.0
  0
POINT
  5
122
100
AcDbEntity
  8
Defpoints
370
               0
390
0
 62
               0
100
AcDbPoint
 10
468.59546406704249
 20
240.60102410127752
 30
0.0
  0
ENDBLK
  5
123
100
AcDbEntity
  8
notes
390
0
100
AcDbBlockEnd
  0
BLOCK
  5
124
100
AcDbEntity
  8
notes
390
0
100
AcDbBlockBegin
  2
*D18
 70
               1
 10
0.0
 20
0.0
 30
0.0
  3
*D18
  1

  0
LINE
  5
125
100
AcDbEntity
  8
0
370
              -2
390
0
  6
Continuous
 62
               0
100
AcDbLine
 10
-727.90057396919656
 20
-596.31835249160872
 30
0.0
 11
-727.90057396919656
 21
-706.31835249160281
 31
0.0
  0
LINE
  5
126
100
AcDbEntity
  8
0
370
              -2
390
0
  6
Continuous
 62
               0
100
AcDbLine
 10
-162.90057396919656
 20
-596.31835249160872
 30
0.0
 11
-162.90057396919656
 21
-706.31835249160281
 31
0.0
  0
LINE
  5
127
100
AcDbEntity
  8
0
370
              -2
390
0
  6
Continuous
 62
               0
100
AcDbLine
 10
-727.90057396919656
 20
-706.31835249160281
 30
0.0
 11
-162.90057396919656
 21
-706.31835249160281
 31
0.0
  0
CIRCLE
  5
128
102
{ACAD_REACTORS
330
129
102
}
100
AcDbEntity
  8
0
370
              -2
390
0
  6
Continuous
 62
               0
100
AcDbCircle
 10
-727.90057396919656
 20
-706.31835249160281
 30
0.0
 40
1.9998779296875
  0
HATCH
  5
129
100
AcDbEntity
  8
0
370
              -2
390
0
  6
Continuous
 62
               0
100
AcDbHatch
 10
0.0
 20
0.0
 30
0.0
210
0.0
220
0.0
230
1.0
  2
SOLID
 70
               1
 71
               1
 91
        1
 92
        1
 93
        1
 72
               2
 10
-727.90057396919656
 20
-706.31835249160281
 40
1.9998779296875
 50
0.0
 51
360.0
 73
               0
 97
        1
330
128
 75
               0
 76
               1
 98
        1
 10
0.0
 20
0.0
  0
CIRCLE
  5
12A
102
{ACAD_REACTORS
330
12B
102
}
100
AcDbEntity
  8
0
370
              -2
390
0
  6
Continuous
 62
               0
100
AcDbCircle
 10
-162.90057396919656
 20
-706.31835249160281
 30
0.0
 40
1.9998779296875
  0
HATCH
  5
12B
100
AcDbEntity
  8
0
370
              -2
390
0
  6
Continuous
 62
               0
100
AcDbHatch
 10
0.0
 20
0.0
 30
0.0
210
0.0
220
0.0
230
1.0
  2
SOLID
 70
               1
 71
               1
 91
        1
 92
        1
 93
        1
 72
               2
 10
-162.90057396919656
 20
-706.31835249160281
 40
1.9998779296875
 50
0.0
 51
360.0
 73
               0
 97
        1
330
12A
 75
               0
 76
               1
 98
        1
 10
0.0
 20
0.0
  0
MTEXT
  5
12C
100
AcDbEntity
  8
0
390
0
 62
               0
100
AcDbMText
 10
-469.21307565137249
 20
-672.44073530410276
 30
0.0
 40
24.432617187500004
 41
0.0
 71
               1
 72
               1
  1
565
  7
ＭＳ ゴシック
 73
               1
 44
0.7828267384257843
  0
POINT
  5
12D
100
AcDbEntity
  8
Defpoints
370
               0
390
0
 62
               0
100
AcDbPoint
 10
-162.90057396919656
 20
-571.31835249160872
 30
0.0
  0
POINT
  5
12E
100
AcDbEntity
  8
Defpoints
370
               0
390
0
 62
               0
100
AcDbPoint
 10
-727.90057396919656
 20
-571.31835249160872
 30
0.0
  0
POINT
  5
12F
100
AcDbEntity
  8
Defpoints
370
               0
390
0
 62
               0
100
AcDbPoint
 10
-727.90057396919656
 20
-706.31835249160281
 30
0.0
  0
ENDBLK
  5
130
100
AcDbEntity
  8
notes
390
0
100
AcDbBlockEnd
  0
BLOCK
  5
131
100
AcDbEntity
  8
notes
390
0
100
AcDbBlockBegin
  2
*D19
 70
               1
 10
0.0
 20
0.0
 30
0.0
  3
*D19
  1

  0
LINE
  5
132
100
AcDbEntity
  8
0
370
              -2
390
0
  6
Continuous
 62
               0
100
AcDbLine
 10
667.24108273352977
 20
-596.31835249160281
 30
0.0
 11
667.24108273352977
 21
-756.31835249160281
 31
0.0
  0
LINE
  5
133
100
AcDbEntity
  8
0
370
              -2
390
0
  6
Continuous
 62
               0
100
AcDbLine
 10
352.24108273352977
 20
-596.31835249160281
 30
0.0
 11
352.24108273352977
 21
-756.31835249160281
 31
0.0
  0
LINE
  5
134
100
AcDbEntity
  8
0
370
              -2
390
0
  6
Continuous
 62
               0
100
AcDbLine
 10
667.24108273352977
 20
-756.31835249160281
 30
0.0
 11
352.24108273352977
 21
-756.31835249160281
 31
0.0
  0
CIRCLE
  5
135
102
{ACAD_REACTORS
330
136
102
}
100
AcDbEntity
  8
0
370
              -2
390
0
  6
Continuous
 62
               0
100
AcDbCircle
 10
667.24108273352977
 20
-756.31835249160281
 30
0.0
 40
1.9998779296875
  0
HATCH
  5
136
100
AcDbEntity
  8
0
370
              -2
390
0
  6
Continuous
 62
               0
100
AcDbHatch
 10
0.0
 20
0.0
 30
0.0
210
0.0
220
0.0
230
1.0
  2
SOLID
 70
               1
 71
               1
 91
        1
 92
        1
 93
        1
 72
               2
 10
667.24108273352977
 20
-756.31835249160281
 40
1.9998779296875
 50
0.0
 51
360.0
 73
               0
 97
        1
330
135
 75
               0
 76
               1
 98
        1
 10
0.0
 20
0.0
  0
CIRCLE
  5
137
102
{ACAD_REACTORS
330
138
102
}
100
AcDbEntity
  8
0
370
              -2
390
0
  6
Continuous
 62
               0
100
AcDbCircle
 10
352.24108273352977
 20
-756.31835249160281
 30
0.0
 40
1.9998779296875
  0
HATCH
  5
138
100
AcDbEntity
  8
0
370
              -2
390
0
  6
Continuous
 62
               0
100
AcDbHatch
 10
0.0
 20
0.0
 30
0.0
210
0.0
220
0.0
230
1.0
  2
SOLID
 70
               1
 71
               1
 91
        1
 92
        1
 93
        1
 72
               2
 10
352.24108273352977
 20
-756.31835249160281
 40
1.9998779296875
 50
0.0
 51
360.0
 73
               0
 97
        1
330
137
 75
               0
 76
               1
 98
        1
 10
0.0
 20
0.0
  0
MTEXT
  5
139
100
AcDbEntity
  8
0
390
0
 62
               0
100
AcDbMText
 10
485.92858105135383
 20
-722.44073530410276
 30
0.0
 40
24.432617187500004
 41
0.0
 71
               1
 72
               1
  1
315
  7
ＭＳ ゴシック
 73
               1
 44
0.7828267384257843
  0
POINT
  5
13A
100
AcDbEntity
  8
Defpoints
370
               0
390
0
 62
               0
100
AcDbPoint
 10
352.24108273352977
 20
-571.31835249160281
 30
0.0
  0
POINT
  5
13B
100
AcDbEntity
  8
Defpoints
370
               0
390
0
 62
               0
100
AcDbPoint
 10
667.24108273352977
 20
-571.31835249160281
 30
0.0
  0
POINT
  5
13C
100
AcDbEntity
  8
Defpoints
370
               0
390
0
 62
               0
100
AcDbPoint
 10
667.24108273352977
 20
-756.31835249160281
 30
0.0
  0
ENDBLK
  5
13D
100
AcDbEntity
  8
notes
390
0
100
AcDbBlockEnd
  0
BLOCK
  5
13E
100
AcDbEntity
  8
notes
390
0
100
AcDbBlockBegin
  2
*D20
 70
               1
 10
0.0
 20
0.0
 30
0.0
  3
*D20
  1

  0
LINE
  5
13F
100
AcDbEntity
  8
0
370
              -2
390
0
  6
Continuous
 62
               0
100
AcDbLine
 10
509.74108273352977
 20
-631.66526463123068
 30
0.0
 11
509.74108273352977
 21
-706.66526463123068
 31
0.0
  0
LINE
  5
140
100
AcDbEntity
  8
0
370
              -2
390
0
  6
Continuous
 62
               0
100
AcDbLine
 10
727.24108273352977
 20
-472.47649920358776
 30
0.0
 11
727.24108273352977
 21
-706.66526463123068
 31
0.0
  0
LINE
  5
141
100
AcDbEntity
  8
0
370
              -2
390
0
  6
Continuous
 62
               0
100
AcDbLine
 10
509.74108273352977
 20
-706.66526463123068
 30
0.0
 11
727.24108273352977
 21
-706.66526463123068
 31
0.0
  0
CIRCLE
  5
142
102
{ACAD_REACTORS
330
143
102
}
100
AcDbEntity
  8
0
370
              -2
390
0
  6
Continuous
 62
               0
100
AcDbCircle
 10
509.74108273352977
 20
-706.66526463123068
 30
0.0
 40
1.9998779296875
  0
HATCH
  5
143
100
AcDbEntity
  8
0
370
              -2
390
0
  6
Continuous
 62
               0
100
AcDbHatch
 10
0.0
 20
0.0
 30
0.0
210
0.0
220
0.0
230
1.0
  2
SOLID
 70
               1
 71
               1
 91
        1
 92
        1
 93
        1
 72
               2
 10
509.74108273352977
 20
-706.66526463123068
 40
1.9998779296875
 50
0.0
 51
360.0
 73
               0
 97
        1
330
142
 75
               0
 76
               1
 98
        1
 10
0.0
 20
0.0
  0
CIRCLE
  5
144
102
{ACAD_REACTORS
330
145
102
}
100
AcDbEntity
  8
0
370
              -2
390
0
  6
Continuous
 62
               0
100
AcDbCircle
 10
727.24108273352977
 20
-706.66526463123068
 30
0.0
 40
1.9998779296875
  0
HATCH
  5
145
100
AcDbEntity
  8
0
370
              -2
390
0
  6
Continuous
 62
               0
100
AcDbHatch
 10
0.0
 20
0.0
 30
0.0
210
0.0
220
0.0
230
1.0
  2
SOLID
 70
               1
 71
               1
 91
        1
 92
        1
 93
        1
 72
               2
 10
727.24108273352977
 20
-706.66526463123068
 40
1.9998779296875
 50
0.0
 51
360.0
 73
               0
 97
        1
330
144
 75
               0
 76
               1
 98
        1
 10
0.0
 20
0.0
  0
MTEXT
  5
146
100
AcDbEntity
  8
0
390
0
 62
               0
100
AcDbMText
 10
578.80358273352977
 20
-672.78764744373063
 30
0.0
 40
24.432617187500004
 41
0.0
 71
               1
 72
               1
  1
217.5
  7
ＭＳ ゴシック
 73
               1
 44
0.7828267384257843
  0
POINT
  5
147
100
AcDbEntity
  8
Defpoints
370
               0
390
0
 62
               0
100
AcDbPoint
 10
727.24108273352977
 20
-447.47649920358776
 30
0.0
  0
POINT
  5
148
100
AcDbEntity
  8
Defpoints
370
               0
390
0
 62
               0
100
AcDbPoint
 10
509.74108273352977
 20
-606.66526463123068
 30
0.0
  0
POINT
  5
149
100
AcDbEntity
  8
Defpoints
370
               0
390
0
 62
               0
100
AcDbPoint
 10
509.74108273352977
 20
-706.66526463123068
 30
0.0
  0
ENDBLK
  5
14A
100
AcDbEntity
  8
notes
390
0
100
AcDbBlockEnd
  0
BLOCK
  5
14B
100
AcDbEntity
  8
notes
390
0
100
AcDbBlockBegin
  2
*D21
 70
               1
 10
0.0
 20
0.0
 30
0.0
  3
*D21
  1

  0
LINE
  5
14C
100
AcDbEntity
  8
0
370
              -2
390
0
  6
Continuous
 62
               0
100
AcDbLine
 10
235.58556279520963
 20
674.80429110717796
 30
0.0
 11
337.14844784656634
 21
851.49261735676737
 31
0.0
  0
CIRCLE
  5
14D
102
{ACAD_REACTORS
330
14E
102
}
100
AcDbEntity
  8
0
370
              -2
390
0
  6
Continuous
 62
               0
100
AcDbCircle
 10
235.58556279520963
 20
674.80429110717796
 30
0.0
 40
1.9998779296875
  0
HATCH
  5
14E
100
AcDbEntity
  8
0
370
              -2
390
0
  6
Continuous
 62
               0
100
AcDbHatch
 10
0.0
 20
0.0
 30
0.0
210
0.0
220
0.0
230
1.0
  2
SOLID
 70
               1
 71
               1
 91
        1
 92
        1
 93
        1
 72
               2
 10
235.58556279520963
 20
674.80429110717796
 40
1.9998779296875
 50
0.0
 51
360.0
 73
               0
 97
        1
330
14D
 75
               0
 76
               1
 98
        1
 10
0.0
 20
0.0
  0
LINE
  5
14F
100
AcDbEntity
  8
0
370
              -2
390
0
  6
Continuous
 62
               0
100
AcDbLine
 10
337.14844784656634
 20
851.49261735676737
 30
0.0
 11
730.52344784656634
 21
851.49261735676737
 31
0.0
  0
MTEXT
  5
150
100
AcDbEntity
  8
0
390
0
 62
               0
100
AcDbMText
 10
397.14844784656634
 20
885.37023454426753
 30
0.0
 40
24.432617187500004
 41
0.0
 71
               1
 72
               1
  1
φ12(固定金具用4ヶ所)
  7
ＭＳ ゴシック
 73
               1
 44
0.7828267384257843
  0
POINT
  5
151
100
AcDbEntity
  8
Defpoints
370
               0
390
0
 62
               0
100
AcDbPoint
 10
229.60536533887534
 20
664.40057838606435
 30
0.0
  0
POINT
  5
152
100
AcDbEntity
  8
Defpoints
370
               0
390
0
 62
               0
100
AcDbPoint
 10
235.58556279520963
 20
674.80429110717796
 30
0.0
  0
ENDBLK
  5
153
100
AcDbEntity
  8
notes
390
0
100
AcDbBlockEnd
  0
ENDSEC
  0
SECTION
  2
ENTITIES
  0
MTEXT
  5
154
100
AcDbEntity
  8
template
390
0
 62
               7
100
AcDbMText
 10
-967.99999999975989
 20
-1147.4176292337002
 30
0.0
 40
16.288411458333332
 41
0.0
 71
               1
 72
               1
  1
品名
  7
ＭＳ ゴシック
 73
               1
 44
0.7828267384257843
  0
MTEXT
  5
155
100
AcDbEntity
  8
template
390
0
 62
               7
100
AcDbMText
 10
-967.99999999975989
 20
-1232.4176292337002
 30
0.0
 40
16.288411458333332
 41
0.0
 71
               1
 72
               1
  1
仕様
  7
ＭＳ ゴシック
 73
               1
 44
0.7828267384257843
  0
LINE
  5
156
100
AcDbEntity
  8
template
370
               5
390
0
  6
Continuous
 62
               7
100
AcDbLine
 10
974.99999999975807
 20
-1224.0027073587003
 30
0.0
 11
-975.00000000024374
 21
-1224.0027073587003
 31
0.0
  0
LWPOLYLINE
  5
157
100
AcDbEntity
  8
template
370
               5
390
0
  6
Continuous
 62
               7
100
AcDbPolyline
 90
        5
 70
             128
 10
975.00000000024011
 20
1405.9972926412997
 10
-974.99999999975989
 20
1405.9972926412997
 10
-974.99999999975989
 20
-1394.0027073587003
 10
975.00000000024011
 20
-1394.0027073587003
 10
975.00000000024011
 20
1405.9972926412997
  0
LINE
  5
158
100
AcDbEntity
  8
template
370
               5
390
0
  6
Continuous
 62
               7
100
AcDbLine
 10
974.99999999975807
 20
-1139.0027073587003
 30
0.0
 11
-975.00000000024374
 21
-1139.0027073587003
 31
0.0
  0
LINE
  5
159
100
AcDbEntity
  8
template
370
               5
390
0
  6
Continuous
 62
               7
100
AcDbLine
 10
975.00000000024011
 20
-1309.0027073587003
 30
0.0
 11
222.00000000024011
 21
-1309.0027073587003
 31
0.0
  0
MTEXT
  5
15A
100
AcDbEntity
  8
template
390
0
 62
               7
100
AcDbMText
 10
-974.99999999955617
 20
-1405.8565294155571
 30
0.0
 40
21.717881944444446
 41
0.0
 71
               1
 72
               1
  1
100709SH
  7
ＭＳ ゴシック
 73
               1
 44
0.7828267384257843
  0
MTEXT
  5
15B
100
AcDbEntity
  8
template
390
0
 62
               7
100
AcDbMText
 10
251.87140625249958
 20
-1338.9131018320079
 30
0.0
 40
24.432617187500004
 41
0.0
 71
               1
 72
               1
  1
大洋金物株式会社 ティーフォルム事業部
  7
ＭＳ ゴシック
 73
               1
 44
0.7828267384257843
  0
INSERT
  5
15C
100
AcDbEntity
  8
template
390
0
 62
               7
100
AcDbBlockReference
  2
グループ
 10
15716.184503175285
 20
-1422.0014106453323
 30
0.0
  0
MTEXT
  5
15D
100
AcDbEntity
  8
template
390
0
 62
               7
100
AcDbMText
 10
784.00000000050022
 20
-1261.0000901712003
 30
0.0
 40
24.432617187500004
 41
0.0
 71
               1
 72
               1
  1
1:10
  7
ＭＳ ゴシック
 73
               1
 44
0.7828267384257843
  0
MTEXT
  5
15E
100
AcDbEntity
  8
template
390
0
 62
               7
100
AcDbMText
 10
731.00000000050022
 20
-1232.4176292337002
 30
0.0
 40
16.288411458333332
 41
0.0
 71
               1
 72
               1
  1
縮尺
  7
ＭＳ ゴシック
 73
               1
 44
0.7828267384257843
  0
LINE
  5
15F
100
AcDbEntity
  8
template
370
               5
390
0
  6
Continuous
 62
               7
100
AcDbLine
 10
724.00000000050022
 20
-1309.0027073587003
 30
0.0
 11
724.00000000050022
 21
-1224.0027073587003
 31
0.0
  0
MTEXT
  5
160
100
AcDbEntity
  8
template
390
0
 62
               7
100
AcDbMText
 10
480.00000000050022
 20
-1232.4176292337002
 30
0.0
 40
16.288411458333332
 41
0.0
 71
               1
 72
               1
  1
容量
  7
ＭＳ ゴシック
 73
               1
 44
0.7828267384257843
  0
MTEXT
  5
161
100
AcDbEntity
  8
template
390
0
 62
               7
100
AcDbMText
 10
533.00000000050022
 20
-1261.0000901712003
 30
0.0
 40
23.9074177654294
 41
0.0
 71
               1
 72
               1
  1
6.8{\H1.022x;\lL}
  7
ＭＳ ゴシック
 73
               1
 44
0.7828267384257843
  0
LINE
  5
162
100
AcDbEntity
  8
template
370
               5
390
0
  6
Continuous
 62
               7
100
AcDbLine
 10
473.00000000050022
 20
-1309.0027073587003
 30
0.0
 11
473.00000000050022
 21
-1224.0027073587003
 31
0.0
  0
MTEXT
  5
163
100
AcDbEntity
  8
template
390
0
 62
               7
100
AcDbMText
 10
229.00000000050022
 20
-1147.4176292337002
 30
0.0
 40
16.288411458333332
 41
0.0
 71
               1
 72
               1
  1
品番
  7
ＭＳ ゴシック
 73
               1
 44
0.7828267384257843
  0
MTEXT
  5
164
100
AcDbEntity
  8
template
390
0
 62
               7
100
AcDbMText
 10
229.00000000050022
 20
-1232.4176292337002
 30
0.0
 40
16.288411458333332
 41
0.0
 71
               1
 72
               1
  1
重量
  7
ＭＳ ゴシック
 73
               1
 44
0.7828267384257843
  0
MTEXT
  5
165
100
AcDbEntity
  8
template
390
0
 62
               7
100
AcDbMText
 10
282.00000000050022
 20
-1176.0000901712003
 30
0.0
 40
24.432617187500004
 41
0.0
 71
               1
 72
               1
  1
ARJ70-0301(旧品番:AQI70-0301)
  7
ＭＳ ゴシック
 73
               1
 44
0.7828267384257843
  0
MTEXT
  5
166
100
AcDbEntity
  8
template
390
0
 62
               7
100
AcDbMText
 10
282.00000000050022
 20
-1261.0000901712003
 30
0.0
 40
24.432617187500004
 41
0.0
 71
               1
 72
               1
  1
15kg
  7
ＭＳ ゴシック
 73
               1
 44
0.7828267384257843
  0
LINE
  5
167
100
AcDbEntity
  8
template
370
               5
390
0
  6
Continuous
 62
               7
100
AcDbLine
 10
222.00000000050022
 20
-1394.0027073587003
 30
0.0
 11
222.00000000050022
 21
-1139.0027073587003
 31
0.0
  0
MTEXT
  5
168
100
AcDbEntity
  8
template
390
0
 62
               7
100
AcDbMText
 10
-914.99999999975989
 20
-1176.0000901712003
 30
0.0
 40
24.432617187500004
 41
0.0
 71
               1
 72
               1
  1
洗面器 -POZZI GINORI,Q3-
  7
ＭＳ ゴシック
 73
               1
 44
0.7828267384257843
  0
MTEXT
  5
169
100
AcDbEntity
  8
template
390
0
 62
               7
100
AcDbMText
 10
-914.99999999975989
 20
-1261.0000901712003
 30
0.0
 40
24.432617187500004
 41
0.0
 71
               1
 72
               1
  1
カウンタートップ/オーバーフロー付き/カウンター固定金具,型 紙付属/\P陶器/ホワイト
  7
ＭＳ ゴシック
 73
               1
 44
1.3047112307096407
  0
DIMENSION
  5
16A
100
AcDbEntity
  8
notes
370
               5
390
0
  6
Continuous
 62
               7
100
AcDbDimension
  2
*D3
 10
-795.88439979696341
 20
874.6038453919632
 30
0.0
 11
-445.86530119829695
 21
874.6038453919632
 31
0.0
 71
               5
 72
               1
 41
1.0
 42
0.0
  3
tform線あり
100
AcDbAlignedDimension
 13
-95.846202599632306
 23
675.6038453919632
 33
0.0
 14
-795.88439979696341
 24
675.6038453919632
 34
0.0
100
AcDbRotatedDimension
1001
ACAD
1000
DSTYLE
1002
{
1070
             279
1070
               2
1070
             340
1005
37
1070
             147
1040
5.0
1002
}
  0
DIMENSION
  5
16B
100
AcDbEntity
  8
notes
370
               5
390
0
  6
Continuous
 62
               7
100
AcDbDimension
  2
*D4
 10
4.1537974003676936
 20
774.6038453919632
 30
0.0
 11
4.1537974003676936
 21
557.1038453919632
 31
0.0
 71
               5
 72
               1
 41
1.0
 42
0.0
  3
tform線あり
100
AcDbAlignedDimension
 13
-195.24620259963194
 23
339.6038453919632
 33
0.0
 14
-194.84620259963231
 24
774.6038453919632
 34
0.0
 50
90.0
100
AcDbRotatedDimension
1001
ACAD
1000
DSTYLE
1002
{
1070
             279
1070
               2
1070
             340
1005
37
1070
             147
1040
5.0
1002
}
  0
DIMENSION
  5
16C
100
AcDbEntity
  8
notes
370
               5
390
0
  6
Continuous
 62
               7
100
AcDbDimension
  2
*D5
 10
-755.88439979696341
 20
240.60102410127729
 30
0.0
 11
-445.86530119829695
 21
240.60102410127729
 31
0.0
 71
               5
 72
               1
 41
1.0
 42
0.0
  3
tform線あり
100
AcDbAlignedDimension
 13
-135.84620259963231
 23
360.1025964438702
 33
0.0
 14
-755.88439979696341
 24
360.1025964438702
 34
0.0
100
AcDbRotatedDimension
1001
ACAD
1000
DSTYLE
1002
{
1070
             279
1070
               2
1070
             340
1005
37
1070
             147
1040
5.0
1002
}
  0
DIMENSION
  5
16D
100
AcDbEntity
  8
notes
370
               5
390
0
  6
Continuous
 62
               7
100
AcDbDimension
  2
*D6
 10
-895.88439979696341
 20
734.6038453919632
 30
0.0
 11
-895.88439979696341
 21
557.1038453919632
 31
0.0
 71
               5
 72
               1
 41
1.0
 42
0.0
  3
tform線あり
100
AcDbAlignedDimension
 13
-776.38282745437027
 23
379.6038453919632
 33
0.0
 14
-776.38282745437027
 24
734.6038453919632
 34
0.0
 50
90.0
100
AcDbRotatedDimension
1001
ACAD
1000
DSTYLE
1002
{
1070
             279
1070
               2
1070
             340
1005
37
1070
             147
1040
5.0
1002
}
  0
DIMENSION
  5
16E
100
AcDbEntity
  8
notes
370
               5
390
0
  6
Continuous
 62
               7
100
AcDbDimension
  2
*D7
 10
4.1537974003676936
 20
-441.31835249158871
 30
0.0
 11
4.1537974003676936
 21
-506.31835249198843
 31
0.0
 71
               5
 72
               1
 41
1.0
 42
0.0
  3
tform線あり
100
AcDbAlignedDimension
 13
-165.34911974151873
 23
-571.31835249238827
 33
0.0
 14
-100.84620971180084
 24
-441.31835249158871
 34
0.0
 50
90.0
100
AcDbRotatedDimension
1001
ACAD
1000
DSTYLE
1002
{
1070
             279
1070
               2
1070
             340
1005
37
1070
             147
1040
5.0
1002
}
  0
DIMENSION
  5
16F
100
AcDbEntity
  8
notes
370
               5
390
0
  6
Continuous
 62
               7
100
AcDbDimension
  2
*D8
 10
4.1537974003676936
 20
-571.31835249238827
 30
0.0
 11
9.1537974003676936
 21
-613.50738264323331
 31
0.0
 70
             128
 71
               5
 72
               1
 41
1.0
 42
0.0
  3
tform線あり
100
AcDbAlignedDimension
 13
-410.9005739691911
 23
-606.31835249160281
 33
0.0
 14
-165.34911974151873
 24
-571.31835249238827
 34
0.0
 50
90.0
100
AcDbRotatedDimension
1001
ACAD
1000
DSTYLE
1002
{
1070
             279
1070
               2
1070
             340
1005
37
1070
             174
1070
               0
1070
             147
1040
5.0
1002
}
  0
DIMENSION
  5
170
100
AcDbEntity
  8
notes
370
               5
390
0
  6
Continuous
 62
               7
100
AcDbDimension
  2
*D9
 10
193.5249459179704
 20
-441.3183524915919
 30
0.0
 11
193.5249459179704
 21
-523.81835249159735
 31
0.0
 71
               5
 72
               1
 41
1.0
 42
0.0
  3
tform線あり
100
AcDbAlignedDimension
 13
475.24108273353522
 23
-606.31835249160281
 33
0.0
 14
298.18530071861642
 24
-441.3183524915919
 34
0.0
 50
90.0
100
AcDbRotatedDimension
1001
ACAD
1000
DSTYLE
1002
{
1070
             279
1070
               2
1070
             340
1005
37
1070
             147
1040
5.0
1002
}
  0
DIMENSION
  5
171
100
AcDbEntity
  8
notes
370
               5
390
0
  6
Continuous
 62
               7
100
AcDbDimension
  2
*D10
 10
493.60421996671539
 20
-441.3183524915969
 30
0.0
 11
488.60421996671539
 21
-428.50738264323331
 31
0.0
 70
             128
 71
               5
 72
               1
 41
1.0
 42
0.0
  3
tform線あり
100
AcDbAlignedDimension
 13
510.18671136395096
 23
-561.3183524915828
 33
0.0
 14
510.18671136395096
 24
-441.3183524915969
 34
0.0
 50
90.0
100
AcDbRotatedDimension
1001
ACAD
1000
DSTYLE
1002
{
1070
             279
1070
               2
1070
             340
1005
37
1070
               3
1000
<>(深さ)
1070
             174
1070
               0
1070
             147
1040
5.0
1002
}
  0
DIMENSION
  5
172
100
AcDbEntity
  8
notes
370
               5
390
0
  6
Continuous
 62
               7
100
AcDbDimension
  2
*D11
 10
303.59546406704249
 20
190.60102410127729
 30
0.0
 11
468.59546406704249
 21
190.60102410127729
 31
0.0
 71
               5
 72
               1
 41
1.0
 42
0.0
  3
tform線あり
100
AcDbAlignedDimension
 13
633.59546406704249
 23
477.6038453919632
 33
0.0
 14
303.59546406704249
 24
477.6038453919632
 34
0.0
100
AcDbRotatedDimension
1001
ACAD
1000
DSTYLE
1002
{
1070
             279
1070
               2
1070
             340
1005
37
1070
             147
1040
5.0
1002
}
  0
DIMENSION
  5
173
100
AcDbEntity
  8
notes
370
               5
390
0
  6
Continuous
 62
               7
100
AcDbDimension
  2
*D12
 10
733.14844784656634
 20
477.6038453919632
 30
0.0
 11
733.14844784656634
 21
587.6038453919632
 31
0.0
 71
               5
 72
               1
 41
1.0
 42
0.0
  3
tform線あり
100
AcDbAlignedDimension
 13
633.59546406704249
 23
697.6038453919632
 33
0.0
 14
633.59546406704249
 24
477.6038453919632
 34
0.0
 50
90.0
100
AcDbRotatedDimension
1001
ACAD
1000
DSTYLE
1002
{
1070
             279
1070
               2
1070
             340
1005
37
1070
             147
1040
5.0
1002
}
  0
DIMENSION
  5
174
100
AcDbEntity
  8
notes
370
               5
390
0
  6
Continuous
 62
               7
100
AcDbDimension
  2
*D13
 10
733.14844784656634
 20
697.6038453919632
 30
0.0
 11
733.14844784656634
 21
736.1038453919632
 31
0.0
 71
               5
 72
               1
 41
1.0
 42
0.0
  3
tform線あり
100
AcDbAlignedDimension
 13
633.59546406704249
 23
774.6038453919632
 33
0.0
 14
633.59546406704249
 24
697.6038453919632
 34
0.0
 50
90.0
100
AcDbRotatedDimension
1001
ACAD
1000
DSTYLE
1002
{
1070
             279
1070
               2
1070
             340
1005
37
1070
             147
1040
5.0
1002
}
  0
DIMENSION
  5
175
100
AcDbEntity
  8
notes
370
               5
390
0
  6
Continuous
 62
               7
100
AcDbDimension
  2
*D14
 10
172.68587989833213
 20
439.60243474662138
 30
0.0
 11
172.68587989833213
 21
554.60243474662138
 31
0.0
 71
               5
 72
               1
 41
1.0
 42
0.0
  3
tform線あり
100
AcDbAlignedDimension
 13
226.59546406704249
 23
669.60243474662138
 33
0.0
 14
226.59546406704249
 24
439.60243474662138
 34
0.0
 50
90.0
100
AcDbRotatedDimension
1001
ACAD
1000
DSTYLE
1002
{
1070
             279
1070
               2
1070
             340
1005
37
1070
             147
1040
5.0
1002
}
  0
DIMENSION
  5
176
100
AcDbEntity
  8
notes
370
               5
390
0
  6
Continuous
 62
               7
100
AcDbDimension
  2
*D15
 10
172.68587989833213
 20
669.60243474662138
 30
0.0
 11
172.68587989833213
 21
722.10314006929229
 31
0.0
 71
               5
 72
               1
 41
1.0
 42
0.0
  3
tform線あり
100
AcDbAlignedDimension
 13
233.30847259971233
 23
774.6038453919632
 33
0.0
 14
226.59546406704249
 24
669.60243474662138
 34
0.0
 50
90.0
100
AcDbRotatedDimension
1001
ACAD
1000
DSTYLE
1002
{
1070
             279
1070
               2
1070
             340
1005
37
1070
             147
1040
5.0
1002
}
  0
DIMENSION
  5
177
100
AcDbEntity
  8
notes
370
               5
390
0
  6
Continuous
 62
               7
100
AcDbDimension
  2
*D16
 10
232.59546406704249
 20
240.60102410127752
 30
0.0
 11
350.59546406704249
 21
240.60102410127752
 31
0.0
 71
               5
 72
               1
 41
1.0
 42
0.0
  3
tform線あり
100
AcDbAlignedDimension
 13
468.59546406704249
 23
522.60243474662138
 33
0.0
 14
232.59546406704249
 24
433.60243474662138
 34
0.0
100
AcDbRotatedDimension
1001
ACAD
1000
DSTYLE
1002
{
1070
             279
1070
               2
1070
             340
1005
37
1070
             147
1040
5.0
1002
}
  0
DIMENSION
  5
178
100
AcDbEntity
  8
notes
370
               5
390
0
  6
Continuous
 62
               7
100
AcDbDimension
  2
*D17
 10
468.59546406704249
 20
240.60102410127752
 30
0.0
 11
586.59546406704249
 21
240.60102410127752
 31
0.0
 71
               5
 72
               1
 41
1.0
 42
0.0
  3
tform線あり
100
AcDbAlignedDimension
 13
704.59546406704249
 23
433.60243474662138
 33
0.0
 14
468.59546406704249
 24
522.60243474662138
 34
0.0
100
AcDbRotatedDimension
1001
ACAD
1000
DSTYLE
1002
{
1070
             279
1070
               2
1070
             340
1005
37
1070
             147
1040
5.0
1002
}
  0
DIMENSION
  5
179
100
AcDbEntity
  8
notes
370
               5
390
0
  6
Continuous
 62
               7
100
AcDbDimension
  2
*D18
 10
-727.90057396919656
 20
-706.31835249160281
 30
0.0
 11
-445.40057396919656
 21
-706.31835249160281
 31
0.0
 71
               5
 72
               1
 41
1.0
 42
0.0
  3
tform線あり
100
AcDbAlignedDimension
 13
-162.90057396919656
 23
-571.31835249160872
 33
0.0
 14
-727.90057396919656
 24
-571.31835249160872
 34
0.0
100
AcDbRotatedDimension
1001
ACAD
1000
DSTYLE
1002
{
1070
             279
1070
               2
1070
             340
1005
37
1070
             147
1040
5.0
1002
}
  0
DIMENSION
  5
17A
100
AcDbEntity
  8
notes
370
               5
390
0
  6
Continuous
 62
               7
100
AcDbDimension
  2
*D19
 10
667.24108273352977
 20
-756.31835249160281
 30
0.0
 11
509.74108273352977
 21
-756.31835249160281
 31
0.0
 71
               5
 72
               1
 41
1.0
 42
0.0
  3
tform線あり
100
AcDbAlignedDimension
 13
352.24108273352977
 23
-571.31835249160281
 33
0.0
 14
667.24108273352977
 24
-571.31835249160281
 34
0.0
100
AcDbRotatedDimension
1001
ACAD
1000
DSTYLE
1002
{
1070
             279
1070
               2
1070
             340
1005
37
1070
             147
1040
5.0
1002
}
  0
DIMENSION
  5
17B
100
AcDbEntity
  8
notes
370
               5
390
0
  6
Continuous
 62
               7
100
AcDbDimension
  2
*D20
 10
509.74108273352977
 20
-706.66526463123068
 30
0.0
 11
618.49108273352977
 21
-706.66526463123068
 31
0.0
 71
               5
 72
               1
 41
1.0
 42
0.0
  3
tform線あり
100
AcDbAlignedDimension
 13
727.24108273352977
 23
-447.47649920358776
 33
0.0
 14
509.74108273352977
 24
-606.66526463123068
 34
0.0
100
AcDbRotatedDimension
1001
ACAD
1000
DSTYLE
1002
{
1070
             279
1070
               2
1070
             340
1005
37
1070
             147
1040
5.0
1002
}
  0
MTEXT
  5
17C
100
AcDbEntity
  8
notes
390
0
 62
               7
100
AcDbMText
 10
34.173255307347063
 20
107.33472516949018
 30
0.0
 40
24.432617187500004
 41
875.84426341525284
 71
               1
 72
               1
  1
※陶器製品には寸法公差があります。\P  洗面器の収め方をご確認の上、必ず現物を合わせて\P  固定金具の穴あけ、カウンターの切込を行ってください。
  7
ＭＳ ゴシック
 73
               1
 44
1.0437689845677123
  0
MTEXT
  5
17D
100
AcDbEntity
  8
notes
390
0
 62
               7
100
AcDbMText
 10
331.15261451323386
 20
1023.4092525265805
 30
0.0
 40
24.432617187500004
 41
0.0
 71
               1
 72
               1
  1
カウンター切込寸法
  7
ＭＳ ゴシック
 73
               1
 44
0.7828267384257843
  0
DIMENSION
  5
17E
100
AcDbEntity
  8
notes
370
               5
390
0
  6
Continuous
 62
               7
100
AcDbDimension
  2
*D21
 10
229.60536533887534
 20
664.40057838606435
 30
0.0
 11
397.14844784656634
 21
851.49261735676737
 31
0.0
 70
               3
 71
               5
 72
               1
 41
1.0
 42
0.0
  3
tform線あり
100
AcDbDiametricDimension
 15
235.58556279520963
 25
674.80429110717796
 35
0.0
 40
203.79839119295451
1001
ACAD
1000
DSTYLE
1002
{
1070
             289
1070
               0
1070
             342
1005
49
1070
             340
1005
37
1070
              73
1070
               1
1070
              74
1070
               1
1070
              75
1070
               1
1070
              76
1070
               1
1070
               3
1000
(固定金具用4ヶ所)
1070
             174
1070
               0
1070
             147
1040
5.0
1002
}
  0
CIRCLE
  5
17F
100
AcDbEntity
  8
ARJ70-0301
370
              15
390
0
  6
Continuous
 62
               7
100
AcDbCircle
 10
-445.84620259962139
 20
557.60243474662138
 30
0.0
 40
35.0
  0
CIRCLE
  5
180
100
AcDbEntity
  8
ARJ70-0301
370
              15
390
0
  6
Continuous
 62
               7
100
AcDbCircle
 10
-445.84620259962139
 20
557.60243474662138
 30
0.0
 40
22.5
  0
LINE
  5
181
100
AcDbEntity
  8
ARJ70-0301
370
              15
390
0
  6
Continuous
 62
               7
100
AcDbLine
 10
-194.84620259963231
 20
380.60102410127729
 30
0.0
 11
-696.48439979696195
 21
380.60102410127729
 31
0.0
  0
LINE
  5
182
100
AcDbEntity
  8
ARJ70-0301
370
              15
390
0
  6
Continuous
 62
               7
100
AcDbLine
 10
-195.24620259963194
 20
340.60102410127729
 30
0.0
 11
-696.48439979696195
 21
340.60102410127729
 31
0.0
  0
LINE
  5
183
100
AcDbEntity
  8
ARJ70-0301
370
              15
390
0
  6
Continuous
 62
               7
100
AcDbLine
 10
-755.88439979696341
 20
440.10243474662047
 30
0.0
 11
-755.88439979696341
 21
675.10243474662047
 31
0.0
  0
LINE
  5
184
100
AcDbEntity
  8
ARJ70-0301
370
              15
390
0
  6
Continuous
 62
               7
100
AcDbLine
 10
-795.88439979696341
 20
439.57743474662038
 30
0.0
 11
-795.88439979696341
 21
675.57743474662038
 31
0.0
  0
ARC
  5
185
100
AcDbEntity
  8
ARJ70-0301
370
              15
390
0
  6
Continuous
 62
               7
100
AcDbCircle
 10
-696.88439979696341
 20
439.60102410127729
 30
0.0
 40
59.0
100
AcDbArc
 50
180.0
 51
270.0
  0
ARC
  5
186
100
AcDbEntity
  8
ARJ70-0301
370
              15
390
0
  6
Continuous
 62
               7
100
AcDbCircle
 10
-696.88439979696341
 20
439.60102410127729
 30
0.0
 40
99.0
100
AcDbArc
 50
180.0
 51
270.0
  0
ARC
  5
187
100
AcDbEntity
  8
ARJ70-0301
370
              15
390
0
  6
Continuous
 62
               7
100
AcDbCircle
 10
-194.84620259963231
 20
439.60102410127729
 30
0.0
 40
59.0
100
AcDbArc
 50
270.0
 51
0.0
  0
ARC
  5
188
100
AcDbEntity
  8
ARJ70-0301
370
              15
390
0
  6
Continuous
 62
               7
100
AcDbCircle
 10
-194.84620259963231
 20
439.60102410127729
 30
0.0
 40
99.0
100
AcDbArc
 50
270.0
 51
0.0
  0
LINE
  5
189
100
AcDbEntity
  8
ARJ70-0301
370
              15
390
0
  6
Continuous
 62
               7
100
AcDbLine
 10
-135.84620259963231
 20
675.10243474662047
 30
0.0
 11
-135.84620259963231
 21
440.10243474662047
 31
0.0
  0
LINE
  5
18A
100
AcDbEntity
  8
ARJ70-0301
370
              15
390
0
  6
Continuous
 62
               7
100
AcDbLine
 10
-95.846202599632306
 20
675.60243474662047
 30
0.0
 11
-95.846202599632306
 21
439.60243474662047
 31
0.0
  0
LINE
  5
18B
100
AcDbEntity
  8
ARJ70-0301
370
              15
390
0
  6
Continuous
 62
               7
100
AcDbLine
 10
-194.84620259963231
 20
774.6038453919632
 30
0.0
 11
-696.88439979696341
 21
774.6038453919632
 31
0.0
  0
ARC
  5
18C
100
AcDbEntity
  8
ARJ70-0301
370
              15
390
0
  6
Continuous
 62
               7
100
AcDbCircle
 10
-696.88439979696341
 20
675.6038453919632
 30
0.0
 40
99.0
100
AcDbArc
 50
90.0
 51
180.0
  0
ARC
  5
18D
100
AcDbEntity
  8
ARJ70-0301
370
              15
390
0
  6
Continuous
 62
               7
100
AcDbCircle
 10
-194.84620259963231
 20
675.6038453919632
 30
0.0
 40
99.0
100
AcDbArc
 50
0.0
 51
90.0
  0
LINE
  5
18E
100
AcDbEntity
  8
ARJ70-0301
370
              15
390
0
  6
Continuous
 62
               7
100
AcDbLine
 10
-194.84620259963231
 20
734.6038453919632
 30
0.0
 11
-696.88439979696341
 21
734.6038453919632
 31
0.0
  0
ARC
  5
18F
100
AcDbEntity
  8
ARJ70-0301
370
              15
390
0
  6
Continuous
 62
               7
100
AcDbCircle
 10
-696.88439979696341
 20
675.6038453919632
 30
0.0
 40
59.0
100
AcDbArc
 50
90.0
 51
180.0
  0
ARC
  5
190
100
AcDbEntity
  8
ARJ70-0301
370
              15
390
0
  6
Continuous
 62
               7
100
AcDbCircle
 10
-194.84620259963231
 20
675.6038453919632
 30
0.0
 40
59.0
100
AcDbArc
 50
0.0
 51
90.0
  0
LINE
  5
191
100
AcDbEntity
  8
ARJ70-0301
370
              15
390
0
  6
STYLE_13
 62
               7
100
AcDbLine
 10
-480.82410103295115
 20
-561.3183524915828
 30
0.0
 11
-623.24862215922258
 21
-546.96913086300469
 31
0.0
  0
LINE
  5
192
100
AcDbEntity
  8
ARJ70-0301
370
              15
390
0
  6
Continuous
 62
               7
100
AcDbLine
 10
298.18671136395096
 20
-441.31835249159406
 30
0.0
 11
722.18671136395096
 21
-441.3183524915928
 31
0.0
  0
ARC
  5
193
100
AcDbEntity
  8
ARJ70-0301
370
              15
390
0
  6
Continuous
 62
               7
100
AcDbCircle
 10
722.18812200928551
 20
-446.3183524915928
 30
0.0
 40
5.0000000000003686
100
AcDbArc
 50
338.75997590841553
 51
89.999999999999972
  0
ARC
  5
194
100
AcDbEntity
  8
ARJ70-0301
370
              15
390
0
  6
Continuous
 62
               7
100
AcDbCircle
 10
298.18530071861642
 20
-446.3183524915928
 30
0.0
 40
4.9999999999987494
100
AcDbArc
 50
90.0
 51
201.24002409159442
  0
LINE
  5
195
100
AcDbEntity
  8
ARJ70-0301
370
              15
390
0
  6
STYLE_13
 62
               7
100
AcDbLine
 10
-754.44869327411288
 20
-443.85700910923879
 30
0.0
 11
-738.7787900348012
 21
-471.56497234789572
 31
0.0
  0
LINE
  5
196
100
AcDbEntity
  8
ARJ70-0301
370
              15
390
0
  6
Continuous
 62
               7
100
AcDbLine
 10
-100.84620971180084
 20
-441.31835249158871
 30
0.0
 11
-790.84619548744377
 21
-441.31835249157075
 31
0.0
  0
LINE
  5
197
100
AcDbEntity
  8
ARJ70-0301
370
              15
390
0
  6
Continuous
 62
               7
100
AcDbLine
 10
-165.34911974100214
 20
-571.31835249160872
 30
0.0
 11
-726.34328545825338
 21
-571.31835249159076
 31
0.0
  0
ARC
  5
198
100
AcDbEntity
  8
ARJ70-0301
370
              15
390
0
  6
Continuous
 62
               7
100
AcDbCircle
 10
-790.84619548744377
 20
-446.31835249159076
 30
0.0
 40
5.0
100
AcDbArc
 50
90.0
 51
205.55228844530498
  0
ARC
  5
199
100
AcDbEntity
  8
ARJ70-0301
370
              15
390
0
  6
Continuous
 62
               7
100
AcDbCircle
 10
159.15411678212877
 20
6.9654105742122283
 30
0.0
 40
1057.5999999999983
100
AcDbArc
 50
205.50791721930761
 51
213.1469842781957
  0
ARC
  5
19A
100
AcDbEntity
  8
ARJ70-0301
370
              15
390
0
  6
Continuous
 62
               7
100
AcDbCircle
 10
-100.84620971180084
 20
-446.31835249159076
 30
0.0
 40
4.9999999999995497
100
AcDbArc
 50
334.44771155469977
 51
90.0
  0
ARC
  5
19B
100
AcDbEntity
  8
ARJ70-0301
370
              15
390
0
  6
Continuous
 62
               7
100
AcDbCircle
 10
-1050.8465219813734
 20
6.9654105742122283
 30
0.0
 40
1057.5999999999995
100
AcDbArc
 50
326.85301572180401
 51
334.49208278069221
  0
LINE
  5
19C
100
AcDbEntity
  8
ARJ70-0301
370
              15
390
0
  6
STYLE_13
 62
               7
100
AcDbLine
 10
-135.8462537825817
 20
-441.31835249158985
 30
0.0
 11
-135.84625362656334
 21
-441.31835250189738
 31
0.0
  0
LINE
  5
19D
100
AcDbEntity
  8
ARJ70-0301
370
              15
390
0
  6
Continuous
 62
               7
100
AcDbLine
 10
-410.90057396920201
 20
-606.31835249160281
 30
0.0
 11
-479.9005739691911
 21
-606.31835249160281
 31
0.0
  0
LINE
  5
19E
100
AcDbEntity
  8
ARJ70-0301
370
              15
390
0
  6
Continuous
 62
               7
100
AcDbLine
 10
-479.90057396920201
 20
-580.72191789869385
 30
0.0
 11
-479.9005739691911
 21
-606.31835249160281
 31
0.0
  0
LINE
  5
19F
100
AcDbEntity
  8
ARJ70-0301
370
              15
390
0
  6
Continuous
 62
               7
100
AcDbLine
 10
-410.9005739691911
 20
-579.82228542343773
 30
0.0
 11
-410.9005739691911
 21
-606.31835249160281
 31
0.0
  0
LINE
  5
1A0
100
AcDbEntity
  8
ARJ70-0301
370
              15
390
0
  6
STYLE_13
 62
               7
100
AcDbLine
 10
-480.82410103295115
 20
-561.3183524915828
 30
0.0
 11
-467.9005739691911
 21
-573.46369047785674
 31
0.0
  0
LINE
  5
1A1
100
AcDbEntity
  8
ARJ70-0301
370
              15
390
0
  6
STYLE_13
 62
               7
100
AcDbLine
 10
-410.86830416629164
 20
-561.31835249159781
 30
0.0
 11
-422.9005739691911
 21
-573.46369047785674
 31
0.0
  0
LINE
  5
1A2
100
AcDbEntity
  8
ARJ70-0301
370
              15
390
0
  6
STYLE_13
 62
               7
100
AcDbLine
 10
-467.9005739691911
 20
-573.46369047785674
 30
0.0
 11
-422.9005739691911
 21
-573.46369047785674
 31
0.0
  0
LINE
  5
1A3
100
AcDbEntity
  8
ARJ70-0301
370
              15
390
0
  6
STYLE_13
 62
               7
100
AcDbLine
 10
-467.9005739691911
 20
-573.46369047785674
 30
0.0
 11
-467.9005739691911
 21
-606.31835249159985
 31
0.0
  0
LINE
  5
1A4
100
AcDbEntity
  8
ARJ70-0301
370
              15
390
0
  6
STYLE_13
 62
               7
100
AcDbLine
 10
-422.9005739691911
 20
-573.46369047785674
 30
0.0
 11
-422.9005739691911
 21
-606.31835249160076
 31
0.0
  0
LINE
  5
1A5
100
AcDbEntity
  8
ARJ70-0301
370
              15
390
0
  6
STYLE_02
 62
               7
100
AcDbLine
 10
-173.34911974100214
 20
-571.31835249160872
 30
0.0
 11
-173.41809548582205
 21
-570.52995612080781
 31
0.0
  0
LINE
  5
1A6
100
AcDbEntity
  8
ARJ70-0301
370
              15
390
0
  6
STYLE_13
 62
               7
100
AcDbLine
 10
-480.82410103295115
 20
-561.3183524915828
 30
0.0
 11
-410.86830416629164
 21
-561.3183524915828
 31
0.0
  0
ARC
  5
1A7
100
AcDbEntity
  8
ARJ70-0301
370
              15
390
0
  6
STYLE_13
 62
               7
100
AcDbCircle
 10
-608.21229403090183
 20
-397.72467087732321
 30
0.0
 40
150.00000000000099
100
AcDbArc
 50
209.4898044766687
 51
264.24688312269558
  0
LINE
  5
1A8
100
AcDbEntity
  8
ARJ70-0301
370
              15
390
0
  6
STYLE_13
 62
               7
100
AcDbLine
 10
-410.86830416629164
 20
-561.3183524915828
 30
0.0
 11
-268.44378304002203
 21
-546.96913086300469
 31
0.0
  0
LINE
  5
1A9
100
AcDbEntity
  8
ARJ70-0301
370
              15
390
0
  6
STYLE_13
 62
               7
100
AcDbLine
 10
-137.24371192513172
 20
-443.85700910923583
 30
0.0
 11
-152.91361516444158
 21
-471.56497234789572
 31
0.0
  0
ARC
  5
1AA
100
AcDbEntity
  8
ARJ70-0301
370
              15
390
0
  6
STYLE_13
 62
               7
100
AcDbCircle
 10
-283.48011116834095
 20
-397.72467087732321
 30
0.0
 40
150.00000000000009
100
AcDbArc
 50
275.75311687730442
 51
330.51019552333082
  0
LINE
  5
1AB
100
AcDbEntity
  8
ARJ70-0301
370
              15
390
0
  6
Continuous
 62
               7
100
AcDbLine
 10
544.24108273352613
 20
-603.3183524916019
 30
0.0
 11
544.24108273352613
 21
-606.31835249160281
 31
0.0
  0
LINE
  5
1AC
100
AcDbEntity
  8
ARJ70-0301
370
              15
390
0
  6
Continuous
 62
               7
100
AcDbLine
 10
475.24108273353522
 20
-578.40141158597771
 30
0.0
 11
475.24108273353522
 21
-606.31835249160281
 31
0.0
  0
LINE
  5
1AD
100
AcDbEntity
  8
ARJ70-0301
370
              15
390
0
  6
Continuous
 62
               7
100
AcDbLine
 10
467.73702632427558
 20
-571.31835249159076
 30
0.0
 11
475.24108273353522
 21
-578.40141158597771
 31
0.0
  0
LINE
  5
1AE
100
AcDbEntity
  8
ARJ70-0301
370
              15
390
0
  6
STYLE_13
 62
               7
100
AcDbLine
 10
545.16460979728618
 20
-561.3183524915828
 30
0.0
 11
532.24108273351521
 21
-573.46369047785674
 31
0.0
  0
LINE
  5
1AF
100
AcDbEntity
  8
ARJ70-0301
370
              15
390
0
  6
STYLE_13
 62
               7
100
AcDbLine
 10
475.20881293061575
 20
-561.31835249159781
 30
0.0
 11
487.24108273352613
 21
-573.46369047785674
 31
0.0
  0
LINE
  5
1B0
100
AcDbEntity
  8
ARJ70-0301
370
              15
390
0
  6
STYLE_13
 62
               7
100
AcDbLine
 10
532.24108273351521
 20
-573.46369047785674
 30
0.0
 11
487.24108273352613
 21
-573.46369047785674
 31
0.0
  0
LINE
  5
1B1
100
AcDbEntity
  8
ARJ70-0301
370
              15
390
0
  6
STYLE_13
 62
               7
100
AcDbLine
 10
532.24108273351521
 20
-573.46369047785674
 30
0.0
 11
532.24108273351521
 21
-606.31835249159985
 31
0.0
  0
LINE
  5
1B2
100
AcDbEntity
  8
ARJ70-0301
370
              15
390
0
  6
STYLE_13
 62
               7
100
AcDbLine
 10
487.24108273352613
 20
-573.46369047785674
 30
0.0
 11
487.24108273352613
 21
-606.31835249160076
 31
0.0
  0
LINE
  5
1B3
100
AcDbEntity
  8
ARJ70-0301
370
              15
390
0
  6
STYLE_13
 62
               7
100
AcDbLine
 10
545.16460979728618
 20
-561.3183524915828
 30
0.0
 11
475.20881293061575
 21
-561.3183524915828
 31
0.0
  0
ARC
  5
1B4
100
AcDbEntity
  8
ARJ70-0301
370
              15
390
0
  6
Continuous
 62
               7
100
AcDbCircle
 10
1277.7693482833929
 20
-61.178306374215481
 30
0.0
 40
1057.600000000001
100
AcDbArc
 50
201.46155949103672
 51
208.83941053146174
  0
ARC
  5
1B5
100
AcDbEntity
  8
ARJ70-0301
370
              15
390
0
  6
Continuous
 62
               7
100
AcDbCircle
 10
-257.42500417041992
 20
-61.178306374215481
 30
0.0
 40
1057.5999999999965
100
AcDbArc
 50
331.16058946853838
 51
338.53844050896345
  0
LINE
  5
1B6
100
AcDbEntity
  8
ARJ70-0301
370
              15
390
0
  6
STYLE_13
 62
               7
100
AcDbLine
 10
685.73014907858487
 20
-443.73721667212385
 30
0.0
 11
658.11195783345465
 21
-489.55744565368786
 31
0.0
  0
LINE
  5
1B7
100
AcDbEntity
  8
ARJ70-0301
370
              15
390
0
  6
STYLE_13
 62
               7
100
AcDbLine
 10
545.16460979728618
 20
-561.3183524915828
 30
0.0
 11
545.32347225133526
 21
-561.30165537483686
 31
0.0
  0
ARC
  5
1B8
100
AcDbEntity
  8
ARJ70-0301
370
              15
390
0
  6
STYLE_13
 62
               7
100
AcDbCircle
 10
529.64420276118472
 20
-412.12337106959581
 30
0.0
 40
150.00000000000048
100
AcDbArc
 50
275.99999999998215
 51
328.92048434420423
  0
ARC
  5
1B9
100
AcDbEntity
  8
ARJ70-0301
370
              15
390
0
  6
STYLE_13
 62
               7
100
AcDbCircle
 10
490.72921996671539
 20
-412.12337106959581
 30
0.0
 40
150.00000000000034
100
AcDbArc
 50
211.07951565579569
 51
264.00000000001791
  0
LINE
  5
1BA
100
AcDbEntity
  8
ARJ70-0301
370
              15
390
0
  6
STYLE_13
 62
               7
100
AcDbLine
 10
334.64327364931705
 20
-443.73721667212385
 30
0.0
 11
362.26146489446364
 21
-489.55744565368786
 31
0.0
  0
LINE
  5
1BB
100
AcDbEntity
  8
ARJ70-0301
370
              15
390
0
  6
STYLE_02
 62
               7
100
AcDbLine
 10
-217.34911974100214
 20
-571.31835249160781
 30
0.0
 11
-217.28014399620224
 21
-570.5299561208119
 31
0.0
  0
ARC
  5
1BC
100
AcDbEntity
  8
ARJ70-0301
370
              15
390
0
  6
Continuous
 62
               7
100
AcDbCircle
 10
536.29954902021564
 20
-457.60244329963575
 30
0.0
 40
145.93215598133577
100
AcDbArc
 50
273.11954035983626
 51
308.80912231347679
  0
LINE
  5
1BD
100
AcDbEntity
  8
ARJ70-0301
370
              15
390
0
  6
Continuous
 62
               7
100
AcDbLine
 10
-402.47580921275221
 20
-571.31835249160076
 30
0.0
 11
-410.9005739691911
 21
-579.82228542343773
 31
0.0
  0
LINE
  5
1BE
100
AcDbEntity
  8
ARJ70-0301
370
              15
390
0
  6
Continuous
 62
               7
100
AcDbLine
 10
-489.21659598649239
 20
-571.31835249159872
 30
0.0
 11
-479.90057396920201
 21
-580.72191789869385
 31
0.0
  0
ARC
  5
1BF
100
AcDbEntity
  8
ARJ70-0301
370
              15
390
0
  6
STYLE_13
 62
               7
100
AcDbCircle
 10
-758.80090980758177
 20
-446.31835249159076
 30
0.0
 40
5.0000000000003499
100
AcDbArc
 50
29.489804476666649
 51
90.0
  0
ARC
  5
1C0
100
AcDbEntity
  8
ARJ70-0301
370
              15
390
0
  6
STYLE_13
 62
               7
100
AcDbCircle
 10
-132.89149539166101
 20
-446.31835249158871
 30
0.0
 40
5.0
100
AcDbArc
 50
90.0
 51
150.51019552333679
  0
ARC
  5
1C1
100
AcDbEntity
  8
ARJ70-0301
370
              15
390
0
  6
STYLE_13
 62
               7
100
AcDbCircle
 10
690.01240758098538
 20
-446.3183524915928
 30
0.0
 40
5.0000000000004547
100
AcDbArc
 50
90.0
 51
148.92048434420633
  0
ARC
  5
1C2
100
AcDbEntity
  8
ARJ70-0301
370
              15
390
0
  6
STYLE_13
 62
               7
100
AcDbCircle
 10
330.36101514690563
 20
-446.3183524915928
 30
0.0
 40
5.0000000000002354
100
AcDbArc
 50
31.079515655789184
 51
90.0
  0
LINE
  5
1C3
100
AcDbEntity
  8
ARJ70-0301
370
              15
390
0
  6
Continuous
 62
               7
100
AcDbLine
 10
544.24108273352613
 20
-606.31835249160281
 30
0.0
 11
475.24108273353522
 21
-606.31835249160281
 31
0.0
  0
LINE
  5
1C4
100
AcDbEntity
  8
ARJ70-0301
370
              15
390
0
  6
Continuous
 62
               7
100
AcDbLine
 10
669.02217205648594
 20
-571.31835249188259
 30
0.0
 11
351.32217205648521
 21
-571.31835249188578
 31
0.0
  0
CIRCLE
  5
1C5
100
AcDbEntity
  8
ARJ70-0301
370
              15
390
0
  6
STYLE_02
 62
               7
100
AcDbCircle
 10
468.59546406704249
 20
557.60243474662138
 30
0.0
 40
22.5
  0
LINE
  5
1C6
100
AcDbEntity
  8
ARJ70-0301
370
              15
390
0
  6
STYLE_13
 62
               7
100
AcDbLine
 10
719.19546406703193
 20
340.60102410127729
 30
0.0
 11
217.95726686970193
 21
340.60102410127729
 31
0.0
  0
LINE
  5
1C7
100
AcDbEntity
  8
ARJ70-0301
370
              15
390
0
  6
STYLE_13
 62
               7
100
AcDbLine
 10
118.55726686970229
 20
439.60102410127729
 30
0.0
 11
118.55726686970229
 21
675.55384539196348
 31
0.0
  0
ARC
  5
1C8
100
AcDbEntity
  8
ARJ70-0301
370
              15
390
0
  6
STYLE_13
 62
               7
100
AcDbCircle
 10
217.55726686970229
 20
439.60102410127729
 30
0.0
 40
99.0
100
AcDbArc
 50
180.0
 51
270.0
  0
ARC
  5
1C9
100
AcDbEntity
  8
ARJ70-0301
370
              15
390
0
  6
STYLE_13
 62
               7
100
AcDbCircle
 10
719.59546406703157
 20
439.60102410127729
 30
0.0
 40
99.0
100
AcDbArc
 50
270.0
 51
0.0
  0
LINE
  5
1CA
100
AcDbEntity
  8
ARJ70-0301
370
              15
390
0
  6
STYLE_13
 62
               7
100
AcDbLine
 10
818.59546406703157
 20
675.6038453919632
 30
0.0
 11
818.59546406703157
 21
439.60102410127729
 31
0.0
  0
LINE
  5
1CB
100
AcDbEntity
  8
ARJ70-0301
370
              15
390
0
  6
STYLE_13
 62
               7
100
AcDbLine
 10
719.59546406703157
 20
774.6038453919632
 30
0.0
 11
217.55726686970229
 21
774.6038453919632
 31
0.0
  0
ARC
  5
1CC
100
AcDbEntity
  8
ARJ70-0301
370
              15
390
0
  6
STYLE_13
 62
               7
100
AcDbCircle
 10
217.55726686970229
 20
675.6038453919632
 30
0.0
 40
99.0
100
AcDbArc
 50
90.0
 51
180.0
  0
ARC
  5
1CD
100
AcDbEntity
  8
ARJ70-0301
370
              15
390
0
  6
STYLE_13
 62
               7
100
AcDbCircle
 10
719.59546406703157
 20
675.6038453919632
 30
0.0
 40
99.0
100
AcDbArc
 50
0.0
 51
90.0
  0
POLYLINE
  5
1CE
100
AcDbEntity
  8
ARJ70-0301
370
              15
390
0
  6
Continuous
 62
               7
100
AcDb2dPolyline
 66
               1
 10
0.0
 20
0.0
 30
0.0
 70
               1
 75
               5
  0
VERTEX
  5
1CF
100
AcDbEntity
  8
ARJ70-0301
370
              15
390
0
  6
Continuous
 62
               7
100
AcDbVertex
100
AcDb2dVertex
 10
303.59546406704249
 20
697.6038453919632
 30
0.0
  0
VERTEX
  5
1D0
100
AcDbEntity
  8
ARJ70-0301
370
              15
390
0
  6
Continuous
 62
               7
100
AcDbVertex
100
AcDb2dVertex
 10
633.59546406704249
 20
697.6038453919632
 30
0.0
  0
VERTEX
  5
1D1
100
AcDbEntity
  8
ARJ70-0301
370
              15
390
0
  6
Continuous
 62
               7
100
AcDbVertex
100
AcDb2dVertex
 10
633.59546406704249
 20
477.6038453919632
 30
0.0
  0
VERTEX
  5
1D2
100
AcDbEntity
  8
ARJ70-0301
370
              15
390
0
  6
Continuous
 62
               7
100
AcDbVertex
100
AcDb2dVertex
 10
303.59546406704249
 20
477.6038453919632
 30
0.0
  0
SEQEND
  5
1D3
100
AcDbEntity
  8
ARJ70-0301
370
              15
390
0
  6
Continuous
 62
               7
  0
CIRCLE
  5
1D4
100
AcDbEntity
  8
ARJ70-0301
370
              15
390
0
  6
Continuous
 62
               7
100
AcDbCircle
 10
704.59546406704249
 20
669.60243474662138
 30
0.0
 40
6.0
  0
CIRCLE
  5
1D5
100
AcDbEntity
  8
ARJ70-0301
370
              15
390
0
  6
Continuous
 62
               7
100
AcDbCircle
 10
704.59546406704249
 20
439.60243474662138
 30
0.0
 40
6.0
  0
CIRCLE
  5
1D6
100
AcDbEntity
  8
ARJ70-0301
370
              15
390
0
  6
Continuous
 62
               7
100
AcDbCircle
 10
232.59546406704249
 20
669.60243474662138
 30
0.0
 40
6.0
  0
CIRCLE
  5
1D7
100
AcDbEntity
  8
ARJ70-0301
370
              15
390
0
  6
Continuous
 62
               7
100
AcDbCircle
 10
232.59546406704249
 20
439.60243474662138
 30
0.0
 40
6.0
  0
ENDSEC
  0
SECTION
  2
OBJECTS
  0
DICTIONARY
  5
19
100
AcDbDictionary
280
               0
281
               1
  3
ACAD_GROUP
350
1A
  3
ACAD_MLINESTYLE
350
1B
  3
ACAD_LAYOUT
350
1E
  3
ACAD_PLOTSETTINGS
350
22
  3
ACAD_PLOTSTYLENAME
350
1F
  0
DICTIONARY
  5
1A
102
{ACAD_REACTORS
330
19
102
}
100
AcDbDictionary
280
               0
281
               1
  0
DICTIONARY
  5
1B
102
{ACAD_REACTORS
330
19
102
}
100
AcDbDictionary
280
               0
281
               1
  3
Standard
350
1C
  0
MLINESTYLE
  5
1C
102
{ACAD_REACTORS
330
1B
102
}
100
AcDbMlineStyle
  2
Standard
 70
               0
  3

 62
               0
 51
90.0
 52
90.0
 71
               2
 49
0.5
 62
             256
  6
ByLayer
 49
-0.5
 62
             256
  6
ByLayer
  0
ACDBDICTIONARYWDFLT
  5
1F
102
{ACAD_REACTORS
330
19
102
}
100
AcDbDictionary
281
               1
  3
Normal
350
1D
100
AcDbDictionaryWithDefault
340
1D
  0
ACDBPLACEHOLDER
  5
1D
102
{ACAD_REACTORS
330
1F
102
}
  0
LAYOUT
  5
20
102
{ACAD_REACTORS
330
1E
102
}
100
AcDbPlotSettings
  1

  2

  4

  6

 40
0.0
 41
0.0
 42
0.0
 43
0.0
 44
0.0
 45
0.0
 46
0.0
 47
0.0
 48
0.0
 49
0.0
140
0.0
141
0.0
142
1.0
143
1.0
 70
            1024
 72
               0
 73
               0
 74
               0
  7

 75
               0
147
1.0
148
0.0
149
0.0
100
AcDbLayout
  1
Model
 70
               0
 71
               0
 10
0.0
 20
0.0
 11
0.0
 21
0.0
 12
0.0
 22
0.0
 32
0.0
 14
0.0
 24
0.0
 34
0.0
 15
0.0
 25
0.0
 35
0.0
146
0.0
 13
0.0
 23
0.0
 33
0.0
 16
0.0
 26
0.0
 36
0.0
 17
0.0
 27
0.0
 37
0.0
 76
               0
330
A
331
0
345
0
346
0
  0
LAYOUT
  5
21
102
{ACAD_REACTORS
330
1E
102
}
100
AcDbPlotSettings
  1

  2

  4

  6

 40
0.0
 41
0.0
 42
0.0
 43
0.0
 44
0.0
 45
0.0
 46
0.0
 47
0.0
 48
0.0
 49
0.0
140
0.0
141
0.0
142
1.0
143
1.0
 70
               0
 72
               0
 73
               0
 74
               0
  7

 75
               0
147
1.0
148
0.0
149
0.0
100
AcDbLayout
  1
Layout1
 70
               0
 71
               0
 10
0.0
 20
0.0
 11
0.0
 21
0.0
 12
0.0
 22
0.0
 32
0.0
 14
0.0
 24
0.0
 34
0.0
 15
0.0
 25
0.0
 35
0.0
146
0.0
 13
0.0
 23
0.0
 33
0.0
 16
0.0
 26
0.0
 36
0.0
 17
0.0
 27
0.0
 37
0.0
 76
               0
330
B
331
0
345
0
346
0
  0
DICTIONARY
  5
1E
102
{ACAD_REACTORS
330
19
102
}
100
AcDbDictionary
280
               0
281
               1
  3
Layout1
350
21
  3
Model
350
20
  0
DICTIONARY
  5
22
102
{ACAD_REACTORS
330
19
102
}
100
AcDbDictionary
280
               0
281
               1
  0
ENDSEC
  0
EOF
