  0
SECTION
  2
HEADER
  9
$ACADVER
  1
AC1015
  9
$ACADMAINTVER
 70
               6
  9
$DWGCODEPAGE
  3
ANSI_932
  9
$INSBASE
 10
0.0
 20
0.0
 30
0.0
  9
$EXTMIN
 10
-975.00000000024374
 20
-1431.5255224711127
 30
-14.834305555555556
  9
$EXTMAX
 10
975.00000000024011
 20
1405.9972926412997
 30
14.834305555555556
  9
$LIMMIN
 10
0.0
 20
0.0
  9
$LIMMAX
 10
0.0
 20
0.0
  9
$ORTHOMODE
 70
               0
  9
$REGENMODE
 70
               1
  9
$FILLMODE
 70
               1
  9
$QTEXTMODE
 70
               0
  9
$MIRRTEXT
 70
               1
  9
$LTSCALE
 40
25.399999999999999
  9
$ATTMODE
 70
               1
  9
$TEXTSIZE
 40
0.2
  9
$TRACEWID
 40
1.0
  9
$TEXTSTYLE
  7
Standard
  9
$CLAYER
  8
info
  9
$CELTYPE
  6
Continuous
  9
$CECOLOR
 62
             256
  9
$CELTSCALE
 40
1.0
  9
$DISPSILH
 70
               0
  9
$DIMSCALE
 40
1.0
  9
$DIMASZ
 40
31.75
  9
$DIMEXO
 40
0.0
  9
$DIMDLI
 40
6.9999999999999396
  9
$DIMRND
 40
0.0
  9
$DIMDLE
 40
0.0
  9
$DIMEXE
 40
19.999999999996199
  9
$DIMTP
 40
0.0
  9
$DIMTM
 40
0.0
  9
$DIMTXT
 40
24.432617187500004
  9
$DIMCEN
 40
0.0
  9
$DIMTSZ
 40
0.0
  9
$DIMTOL
 70
               0
  9
$DIMLIM
 70
               0
  9
$DIMTIH
 70
               0
  9
$DIMTOH
 70
               0
  9
$DIMSE1
 70
               0
  9
$DIMSE2
 70
               0
  9
$DIMTAD
 70
               1
  9
$DIMZIN
 70
              11
  9
$DIMBLK
  1
VW_FILLEDARROW
  9
$DIMASO
 70
               1
  9
$DIMSHO
 70
               1
  9
$DIMPOST
  1
<>
  9
$DIMAPOST
  1
[]
  9
$DIMALT
 70
               0
  9
$DIMALTD
 70
               1
  9
$DIMALTF
 40
1.0
  9
$DIMLFAC
 40
1.0
  9
$DIMTOFL
 70
               0
  9
$DIMTVP
 40
0.0
  9
$DIMTIX
 70
               1
  9
$DIMSOXD
 70
               0
  9
$DIMSAH
 70
               0
  9
$DIMBLK1
  1

  9
$DIMBLK2
  1

  9
$DIMSTYLE
  2
JIS
  9
$DIMCLRD
 70
               0
  9
$DIMCLRE
 70
               0
  9
$DIMCLRT
 70
               0
  9
$DIMTFAC
 40
1.0
  9
$DIMGAP
 40
1.00000000000108
  9
$DIMJUST
 70
               0
  9
$DIMSD1
 70
               0
  9
$DIMSD2
 70
               0
  9
$DIMTOLJ
 70
               1
  9
$DIMTZIN
 70
              11
  9
$DIMALTZ
 70
              11
  9
$DIMALTTZ
 70
              11
  9
$DIMUPT
 70
               0
  9
$DIMDEC
 70
               1
  9
$DIMTDEC
 70
               1
  9
$DIMALTU
 70
               2
  9
$DIMALTTD
 70
               2
  9
$DIMTXSTY
  7
ＭＳ ゴシック
  9
$DIMAUNIT
 70
               0
  9
$DIMADEC
 70
               2
  9
$DIMALTRND
 40
0.0
  9
$DIMAZIN
 70
               0
  9
$DIMDSEP
 70
              46
  9
$DIMATFIT
 70
               0
  9
$DIMFRAC
 70
               2
  9
$DIMLDRBLK
  1

  9
$DIMLUNIT
 70
               2
  9
$DIMLWD
 70
              -2
  9
$DIMLWE
 70
              -2
  9
$DIMTMOVE
 70
               0
  9
$LUNITS
 70
               2
  9
$LUPREC
 70
               4
  9
$SKETCHINC
 40
0.1
  9
$FILLETRAD
 40
0.0
  9
$AUNITS
 70
               0
  9
$AUPREC
 70
               0
  9
$MENU
  1
acad
  9
$ELEVATION
 40
0.0
  9
$PELEVATION
 40
0.0
  9
$THICKNESS
 40
0.0
  9
$LIMCHECK
 70
               0
  9
$CHAMFERA
 40
0.0
  9
$CHAMFERB
 40
0.0
  9
$CHAMFERC
 40
0.0
  9
$CHAMFERD
 40
0.0
  9
$SKPOLY
 70
               0
  9
$TDCREATE
 40
2456024.591574074
  9
$TDUCREATE
 40
0.000000000
  9
$TDUPDATE
 40
2456024.591574074
  9
$TDUUPDATE
 40
0.000000000
  9
$TDINDWG
 40
0.0000000000
  9
$TDUSRTIMER
 40
0.0000000000
  9
$USRTIMER
 70
               1
  9
$ANGBASE
 50
0.0
  9
$ANGDIR
 70
               0
  9
$PDMODE
 70
               1
  9
$PDSIZE
 40
-2.0
  9
$PLINEWID
 40
0.0
  9
$SPLFRAME
 70
               0
  9
$SPLINETYPE
 70
               6
  9
$SPLINESEGS
 70
               8
  9
$HANDSEED
  5
1E5
  9
$SURFTAB1
 70
               6
  9
$SURFTAB2
 70
               6
  9
$SURFTYPE
 70
               6
  9
$SURFU
 70
               6
  9
$SURFV
 70
               6
  9
$UCSBASE
  2

  9
$UCSNAME
  2

  9
$UCSORG
 10
0.0
 20
0.0
 30
0.0
  9
$UCSXDIR
 10
1.0
 20
0.0
 30
0.0
  9
$UCSYDIR
 10
0.0
 20
1.0
 30
0.0
  9
$UCSORTHOREF
  2

  9
$UCSORTHOVIEW
 70
               0
  9
$UCSORGTOP
 10
0.0
 20
0.0
 30
0.0
  9
$UCSORGBOTTOM
 10
0.0
 20
0.0
 30
0.0
  9
$UCSORGLEFT
 10
0.0
 20
0.0
 30
0.0
  9
$UCSORGRIGHT
 10
0.0
 20
0.0
 30
0.0
  9
$UCSORGFRONT
 10
0.0
 20
0.0
 30
0.0
  9
$UCSORGBACK
 10
0.0
 20
0.0
 30
0.0
  9
$PUCSBASE
  2

  9
$PUCSNAME
  2

  9
$PUCSORG
 10
0.0
 20
0.0
 30
0.0
  9
$PUCSXDIR
 10
1.0
 20
0.0
 30
0.0
  9
$PUCSYDIR
 10
0.0
 20
1.0
 30
0.0
  9
$PUCSORTHOREF
  2

  9
$PUCSORTHOVIEW
 70
               0
  9
$PUCSORGTOP
 10
0.0
 20
0.0
 30
0.0
  9
$PUCSORGBOTTOM
 10
0.0
 20
0.0
 30
0.0
  9
$PUCSORGLEFT
 10
0.0
 20
0.0
 30
0.0
  9
$PUCSORGRIGHT
 10
0.0
 20
0.0
 30
0.0
  9
$PUCSORGFRONT
 10
0.0
 20
0.0
 30
0.0
  9
$PUCSORGBACK
 10
0.0
 20
0.0
 30
0.0
  9
$USERI1
 70
               0
  9
$USERI2
 70
               0
  9
$USERI3
 70
               0
  9
$USERI4
 70
               0
  9
$USERI5
 70
               0
  9
$USERR1
 40
0.0
  9
$USERR2
 40
0.0
  9
$USERR3
 40
0.0
  9
$USERR4
 40
0.0
  9
$USERR5
 40
0.0
  9
$WORLDVIEW
 70
               1
  9
$SHADEDGE
 70
               3
  9
$SHADEDIF
 70
              70
  9
$TILEMODE
 70
               1
  9
$MAXACTVP
 70
              64
  9
$PINSBASE
 10
0.0
 20
0.0
 30
0.0
  9
$PLIMCHECK
 70
               0
  9
$PEXTMIN
 10
1.0000000000000000E+20
 20
1.0000000000000000E+20
 30
1.0000000000000000E+20
  9
$PEXTMAX
 10
-1.0000000000000000E+20
 20
-1.0000000000000000E+20
 30
-1.0000000000000000E+20
  9
$PLIMMIN
 10
0.0
 20
0.0
  9
$PLIMMAX
 10
12.0
 20
9.0
  9
$UNITMODE
 70
               0
  9
$VISRETAIN
 70
               0
  9
$PLINEGEN
 70
               1
  9
$PSLTSCALE
 70
               0
  9
$TREEDEPTH
 70
            3020
  9
$CMLSTYLE
  2
Standard
  9
$CMLJUST
 70
               0
  9
$CMLSCALE
 40
1.0
  9
$PROXYGRAPHICS
 70
               0
  9
$MEASUREMENT
 70
               1
  9
$CELWEIGHT
370
               0
  9
$ENDCAPS
280
               0
  9
$JOINSTYLE
280
               0
  9
$LWDISPLAY
290
               1
  9
$INSUNITS
 70
               4
  9
$HYPERLINKBASE
  1

  9
$STYLESHEET
  1

  9
$XEDIT
290
               1
  9
$CEPSNTYPE
380
               0
  9
$PSTYLEMODE
290
               1
  9
$FINGERPRINTGUID
  2

  9
$VERSIONGUID
  2

  9
$EXTNAMES
290
               1
  9
$PSVPSCALE
 40
0.0
  0
ENDSEC
  0
SECTION
  2
CLASSES
  0
CLASS
  1
LWPOLYLINE
  2
AcDbPolyline
  3
AutoCAD 2000
 90
        0
280
               0
281
               1
  0
CLASS
  1
IMAGE
  2
AcDbRasterImage
  3
ISM
 90
      127
280
               0
281
               1
  0
CLASS
  1
OLE2FRAME
  2
AcDbOle2Frame
  3
AutoCAD 2000
 90
        0
280
               0
281
               1
  0
CLASS
  1
HATCH
  2
AcDbHatch
  3
AutoCAD 2000
 90
        0
280
               0
281
               1
  0
CLASS
  1
DICTIONARYVAR
  2
AcDbDictionaryVar
  3
AutoCAD 2000
 90
        0
280
               0
281
               0
  0
CLASS
  1
RASTERVARIABLES
  2
AcDbRasterVariables
  3
ISM
 90
        0
280
               0
281
               0
  0
CLASS
  1
IMAGEDEF
  2
AcDbRasterImageDef
  3
ISM
 90
        0
280
               0
281
               0
  0
CLASS
  1
IMAGEDEF_REACTOR
  2
AcDbRasterImageDefReactor
  3
ISM
 90
        1
280
               0
281
               0
  0
CLASS
  1
IDBUFFER
  2
AcDbIdBuffer
  3
AutoCAD 2000
 90
        0
280
               0
281
               0
  0
CLASS
  1
SPATIAL_FILTER
  2
AcDbSpatialFilter
  3
AutoCAD 2000
 90
        0
280
               0
281
               0
  0
CLASS
  1
XRECORD
  2
AcDbXrecord
  3
AutoCAD 2000
 90
        0
280
               0
281
               0
  0
CLASS
  1
SORTENTSTABLE
  2
AcDbSortentsTable
  3
AutoCAD 2000
 90
        0
280
               0
281
               0
  0
CLASS
  1
LAYER_INDEX
  2
AcDbLayerIndex
  3
AutoCAD 2000
 90
        0
280
               0
281
               0
  0
CLASS
  1
SPATIAL_INDEX
  2
AcDbSpatialIndex
  3
AutoCAD 2000
 90
        0
280
               0
281
               0
  0
CLASS
  1
OBJECT_PTR
  2
CAseDLPNTableRecord
  3
"ASE-LPNTableRecord"
 90
        1
280
               0
281
               0
  0
CLASS
  1
LAYOUT
  2
AcDbLayout
  3
AutoCAD 2000
 90
        0
280
               0
281
               0
  0
CLASS
  1
PLOTSETTINGS
  2
AcDbPlotSettings
  3
AutoCAD 2000
 90
        0
280
               0
281
               0
  0
CLASS
  1
ACDBDICTIONARYWDFLT
  2
AcDbDictionaryWithDefault
  3
AutoCAD 2000
 90
        0
280
               0
281
               0
  0
CLASS
  1
ACDBPLACEHOLDER
  2
AcDbPlaceHolder
  3
AutoCAD 2000
 90
        0
280
               0
281
               0
  0
ENDSEC
  0
SECTION
  2
TABLES
  0
TABLE
  2
VPORT
  5
7
100
AcDbSymbolTable
 70
               1
  0
VPORT
  5
15
100
AcDbSymbolTableRecord
100
AcDbViewportTableRecord
  2
*ACTIVE
 70
               0
 10
0.0
 20
0.0
 11
1.0
 21
1.0
 12
-0.000000000001819
 22
-12.764114914906486
 13
0.0
 23
0.0
 14
1.0
 24
1.0
 15
0.0
 25
0.0
 16
0.0
 26
0.0
 36
1.0
 17
0.0
 27
0.0
 37
0.0
 40
2837.5228151124124
 41
0.688564
 42
50.0
 43
0.0
 44
0.0
 50
0.0
 51
0.0
 71
               0
 72
            2000
 73
               1
 74
               1
 75
               0
 76
               0
 77
               0
 78
               0
281
               0
 65
               0
110
0.0
120
0.0
130
0.0
111
1.0
121
0.0
131
0.0
112
0.0
122
1.0
132
0.0
345
0
346
0
 79
               0
146
0.0
  0
ENDTAB
  0
TABLE
  2
LTYPE
  5
4
100
AcDbSymbolTable
 70
              16
  0
LTYPE
  5
11
100
AcDbSymbolTableRecord
100
AcDbLinetypeTableRecord
  2
ByBlock
 70
              64
  3

 72
              65
 73
               0
 40
0.0
  0
LTYPE
  5
12
100
AcDbSymbolTableRecord
100
AcDbLinetypeTableRecord
  2
ByLayer
 70
              64
  3

 72
              65
 73
               0
 40
0.0
  0
LTYPE
  5
13
100
AcDbSymbolTableRecord
100
AcDbLinetypeTableRecord
  2
Continuous
 70
              64
  3
Solid line
 72
              65
 73
               0
 40
0.0
  0
LTYPE
  5
39
100
AcDbSymbolTableRecord
100
AcDbLinetypeTableRecord
  2
STYLE_01
 70
               0
  3

 72
              65
 73
               2
 40
0.5905511811023623
 49
0.4724409448818898
 74
               0
 49
-0.1181102362204724
 74
               0
  0
LTYPE
  5
3A
100
AcDbSymbolTableRecord
100
AcDbLinetypeTableRecord
  2
STYLE_02
 70
               0
  3

 72
              65
 73
               2
 40
0.7499999999999998
 49
0.5
 74
               0
 49
-0.2499999999999998
 74
               0
  0
LTYPE
  5
3B
100
AcDbSymbolTableRecord
100
AcDbLinetypeTableRecord
  2
STYLE_03
 70
               0
  3

 72
              65
 73
               4
 40
0.078740157480315
 49
0.0492125984251968
 74
               0
 49
-0.0098425196850394
 74
               0
 49
0.0098425196850394
 74
               0
 49
-0.0098425196850394
 74
               0
  0
LTYPE
  5
3C
100
AcDbSymbolTableRecord
100
AcDbLinetypeTableRecord
  2
STYLE_04
 70
               0
  3

 72
              65
 73
               4
 40
1.9999999999999998
 49
1.25
 74
               0
 49
-0.2499999999999999
 74
               0
 49
0.2499999999999999
 74
               0
 49
-0.2499999999999999
 74
               0
  0
LTYPE
  5
3D
100
AcDbSymbolTableRecord
100
AcDbLinetypeTableRecord
  2
STYLE_05
 70
               0
  3

 72
              65
 73
               2
 40
0.41656
 49
0.13885
 74
               0
 49
-0.27771
 74
               0
  0
LTYPE
  5
3E
100
AcDbSymbolTableRecord
100
AcDbLinetypeTableRecord
  2
STYLE_06
 70
               0
  3

 72
              65
 73
               4
 40
2.0832800000000002
 49
1.25
 74
               0
 49
-0.41656
 74
               0
 49
0.1388600000000001
 74
               0
 49
-0.2778600000000001
 74
               0
  0
LTYPE
  5
3F
100
AcDbSymbolTableRecord
100
AcDbLinetypeTableRecord
  2
STYLE_07
 70
               0
  3

 72
              65
 73
               6
 40
3.75
 49
1.25
 74
               0
 49
-0.41656
 74
               0
 49
1.2500000000000002
 74
               0
 49
-0.4167199999999999
 74
               0
 49
0.1388600000000001
 74
               0
 49
-0.2778599999999998
 74
               0
  0
LTYPE
  5
40
100
AcDbSymbolTableRecord
100
AcDbLinetypeTableRecord
  2
STYLE_08
 70
               0
  3

 72
              65
 73
               6
 40
2.5
 49
1.25
 74
               0
 49
-0.41656
 74
               0
 49
0.1388600000000001
 74
               0
 49
-0.2778600000000001
 74
               0
 49
0.1388599999999998
 74
               0
 49
-0.2778600000000001
 74
               0
  0
LTYPE
  5
41
100
AcDbSymbolTableRecord
100
AcDbLinetypeTableRecord
  2
STYLE_09
 70
               0
  3

 72
              65
 73
               4
 40
10.0
 49
7.5
 74
               0
 49
-0.5555699999999997
 74
               0
 49
1.3888600000000006
 74
               0
 49
-0.5555699999999997
 74
               0
  0
LTYPE
  5
42
100
AcDbSymbolTableRecord
100
AcDbLinetypeTableRecord
  2
STYLE_10
 70
               0
  3

 72
              65
 73
               6
 40
11.875
 49
7.5
 74
               0
 49
-0.5555699999999997
 74
               0
 49
1.3888600000000006
 74
               0
 49
-0.5555699999999997
 74
               0
 49
1.25
 74
               0
 49
-0.625
 74
               0
  0
LTYPE
  5
43
100
AcDbSymbolTableRecord
100
AcDbLinetypeTableRecord
  2
STYLE_11
 70
               0
  3

 72
              65
 73
               2
 40
0.1388889763779528
 49
0.0694444881889764
 74
               0
 49
-0.0694444881889764
 74
               0
  0
LTYPE
  5
44
100
AcDbSymbolTableRecord
100
AcDbLinetypeTableRecord
  2
STYLE_12
 70
               0
  3

 72
              65
 73
               2
 40
0.3472222222222222
 49
0.2083333333333333
 74
               0
 49
-0.1388888888888889
 74
               0
  0
LTYPE
  5
45
100
AcDbSymbolTableRecord
100
AcDbLinetypeTableRecord
  2
STYLE_13
 70
               0
  3

 72
              65
 73
               2
 40
0.7874015748031495
 49
0.3937007874015748
 74
               0
 49
-0.3937007874015748
 74
               0
  0
ENDTAB
  0
TABLE
  2
LAYER
  5
2
100
AcDbSymbolTable
 70
               6
  0
LAYER
  5
14
100
AcDbSymbolTableRecord
100
AcDbLayerTableRecord
  2
0
 70
               0
 62
               7
  6
Continuous
290
               1
370
              -3
390
1D
  0
LAYER
  5
46
100
AcDbSymbolTableRecord
100
AcDbLayerTableRecord
  2
Defpoints
 70
               0
 62
               7
  6
Continuous
290
               0
370
              -3
390
1D
  0
LAYER
  5
47
100
AcDbSymbolTableRecord
100
AcDbLayerTableRecord
  2
template
 70
               0
 62
               7
  6
Continuous
290
               1
370
              -3
390
1D
  0
LAYER
  5
48
100
AcDbSymbolTableRecord
100
AcDbLayerTableRecord
  2
info
 70
               0
 62
               7
  6
Continuous
290
               1
370
              -3
390
1D
  0
LAYER
  5
49
100
AcDbSymbolTableRecord
100
AcDbLayerTableRecord
  2
notes
 70
               0
 62
               7
  6
Continuous
290
               1
370
              -3
390
1D
  0
LAYER
  5
4A
100
AcDbSymbolTableRecord
100
AcDbLayerTableRecord
  2
ARJ70-0303
 70
               0
 62
               7
  6
Continuous
290
               1
370
              -3
390
1D
  0
ENDTAB
  0
TABLE
  2
STYLE
  5
3
100
AcDbSymbolTable
 70
               2
  0
STYLE
  5
17
100
AcDbSymbolTableRecord
100
AcDbTextStyleTableRecord
  2
Standard
 70
               0
 40
0.0
 41
1.0
 50
0.0
 71
               0
 42
0.0
  3
txt
  4
BIGFONT.SHX
  0
STYLE
  5
38
100
AcDbSymbolTableRecord
100
AcDbTextStyleTableRecord
  2
ＭＳ ゴシック
 70
               0
 40
0.0
 41
1.0
 50
0.0
 71
               0
 42
0.0
  3

  4
ＭＳ ゴシック
1001
ACAD
1000
ＭＳ ゴシック
1071
        0
  0
ENDTAB
  0
TABLE
  2
VIEW
  5
5
100
AcDbSymbolTable
 70
               0
  0
ENDTAB
  0
TABLE
  2
UCS
  5
6
100
AcDbSymbolTable
 70
               0
  0
ENDTAB
  0
TABLE
  2
APPID
  5
8
100
AcDbSymbolTable
 70
               1
  0
APPID
  5
16
100
AcDbSymbolTableRecord
100
AcDbRegAppTableRecord
  2
ACAD
 70
               0
  0
ENDTAB
  0
TABLE
  2
DIMSTYLE
  5
9
100
AcDbSymbolTable
 70
               3
100
AcDbDimStyleTable
 71
               0
  0
DIMSTYLE
105
18
100
AcDbSymbolTableRecord
100
AcDbDimStyleTableRecord
  2
Standard
 70
               0
  3

  4

 40
1.0
 41
0.18
 42
0.0625
 43
0.38
 44
0.18
 45
0.0
 46
0.0
 47
0.0
 48
0.0
 71
               0
 72
               0
 73
               1
 74
               1
 75
               0
 76
               0
 77
               0
 78
               0
 79
               0
140
0.18
141
0.09
142
0.0
143
25.399999999999999
144
1.0
145
0.0
146
1.0
147
0.09
148
0.0
170
               0
171
               2
172
               0
173
               0
174
               0
175
               0
176
               0
177
               0
178
               0
179
               0
271
               4
272
               4
273
               2
274
               2
275
               0
276
               0
277
               2
278
              46
279
               0
280
               0
281
               0
282
               0
283
               1
284
               0
285
               0
286
               0
288
               0
289
               3
340
17
341
0
342
0
343
0
344
0
371
              -2
372
              -2
  0
DIMSTYLE
105
53
100
AcDbSymbolTableRecord
100
AcDbDimStyleTableRecord
  2
tform線あり
 70
               0
  3
<>
  4
[]
 40
1.0
 41
3.999755859375
 42
24.999999999999996
 43
0.9999999999999999
 44
0.0
 45
0.0
 46
0.0
 47
0.0
 48
0.0
 71
               0
 72
               0
 73
               0
 74
               0
 75
               0
 76
               0
 77
               1
 78
              11
 79
               0
140
24.432617187500004
141
0.0
142
0.0
143
1.0
144
1.0
145
0.0
146
1.0
147
0.4999999999999999
148
0.0
170
               0
171
               1
172
               0
173
               0
174
               1
175
               0
176
               0
177
               0
178
               0
179
               2
271
               1
272
               1
273
               2
274
               2
275
               0
276
               2
277
               2
278
              46
279
               0
280
               0
281
               0
282
               0
283
               1
284
              11
285
              11
286
              11
288
               0
289
               0
340
38
341
4B
342
4B
343
0
344
0
371
              -2
372
              -2
  0
DIMSTYLE
105
58
100
AcDbSymbolTableRecord
100
AcDbDimStyleTableRecord
  2
JIS
 70
               0
  3
<>
  4
[]
 40
1.0
 41
31.75
 42
0.0
 43
6.9999999999999396
 44
19.999999999996199
 45
0.0
 46
0.0
 47
0.0
 48
0.0
 71
               0
 72
               0
 73
               0
 74
               0
 75
               0
 76
               0
 77
               1
 78
              11
 79
               0
140
24.432617187500004
141
0.0
142
0.0
143
1.0
144
1.0
145
0.0
146
1.0
147
1.00000000000108
148
0.0
170
               0
171
               1
172
               0
173
               0
174
               1
175
               0
176
               0
177
               0
178
               0
179
               2
271
               1
272
               1
273
               2
274
               2
275
               0
276
               2
277
               2
278
              46
279
               0
280
               0
281
               0
282
               0
283
               1
284
              11
285
              11
286
              11
288
               0
289
               0
340
38
341
54
342
54
343
0
344
0
371
              -2
372
              -2
  0
ENDTAB
  0
TABLE
  2
BLOCK_RECORD
  5
1
100
AcDbSymbolTable
 70
              23
  0
BLOCK_RECORD
  5
A
100
AcDbSymbolTableRecord
100
AcDbBlockTableRecord
  2
*MODEL_SPACE
340
20
  0
BLOCK_RECORD
  5
B
100
AcDbSymbolTableRecord
100
AcDbBlockTableRecord
  2
*PAPER_SPACE
340
21
  0
BLOCK_RECORD
  5
4B
100
AcDbSymbolTableRecord
100
AcDbBlockTableRecord
  2
_DOT
340
0
  0
BLOCK_RECORD
  5
54
100
AcDbSymbolTableRecord
100
AcDbBlockTableRecord
  2
VW_FILLEDARROW
340
0
  0
BLOCK_RECORD
  5
23
100
AcDbSymbolTableRecord
100
AcDbBlockTableRecord
  2
グループ
340
0
102
{BLKREFS
331
16B
102
}
  0
BLOCK_RECORD
  5
24
100
AcDbSymbolTableRecord
100
AcDbBlockTableRecord
  2
*D3
340
0
  0
BLOCK_RECORD
  5
25
100
AcDbSymbolTableRecord
100
AcDbBlockTableRecord
  2
*D4
340
0
  0
BLOCK_RECORD
  5
26
100
AcDbSymbolTableRecord
100
AcDbBlockTableRecord
  2
*D5
340
0
  0
BLOCK_RECORD
  5
27
100
AcDbSymbolTableRecord
100
AcDbBlockTableRecord
  2
*D6
340
0
  0
BLOCK_RECORD
  5
28
100
AcDbSymbolTableRecord
100
AcDbBlockTableRecord
  2
*D7
340
0
  0
BLOCK_RECORD
  5
29
100
AcDbSymbolTableRecord
100
AcDbBlockTableRecord
  2
*D8
340
0
  0
BLOCK_RECORD
  5
2A
100
AcDbSymbolTableRecord
100
AcDbBlockTableRecord
  2
*D9
340
0
  0
BLOCK_RECORD
  5
2B
100
AcDbSymbolTableRecord
100
AcDbBlockTableRecord
  2
*D10
340
0
  0
BLOCK_RECORD
  5
2C
100
AcDbSymbolTableRecord
100
AcDbBlockTableRecord
  2
*D11
340
0
  0
BLOCK_RECORD
  5
2D
100
AcDbSymbolTableRecord
100
AcDbBlockTableRecord
  2
*D12
340
0
  0
BLOCK_RECORD
  5
2E
100
AcDbSymbolTableRecord
100
AcDbBlockTableRecord
  2
*D13
340
0
  0
BLOCK_RECORD
  5
2F
100
AcDbSymbolTableRecord
100
AcDbBlockTableRecord
  2
*D14
340
0
  0
BLOCK_RECORD
  5
30
100
AcDbSymbolTableRecord
100
AcDbBlockTableRecord
  2
*D15
340
0
  0
BLOCK_RECORD
  5
31
100
AcDbSymbolTableRecord
100
AcDbBlockTableRecord
  2
*D16
340
0
  0
BLOCK_RECORD
  5
32
100
AcDbSymbolTableRecord
100
AcDbBlockTableRecord
  2
*D17
340
0
  0
BLOCK_RECORD
  5
33
100
AcDbSymbolTableRecord
100
AcDbBlockTableRecord
  2
*D18
340
0
  0
BLOCK_RECORD
  5
34
100
AcDbSymbolTableRecord
100
AcDbBlockTableRecord
  2
*D19
340
0
  0
BLOCK_RECORD
  5
35
100
AcDbSymbolTableRecord
100
AcDbBlockTableRecord
  2
*D20
340
0
  0
BLOCK_RECORD
  5
36
100
AcDbSymbolTableRecord
100
AcDbBlockTableRecord
  2
*D21
340
0
  0
BLOCK_RECORD
  5
37
100
AcDbSymbolTableRecord
100
AcDbBlockTableRecord
  2
*D22
340
0
  0
ENDTAB
  0
ENDSEC
  0
SECTION
  2
BLOCKS
  0
BLOCK
  5
D
100
AcDbEntity
  8
0
390
0
100
AcDbBlockBegin
  2
*MODEL_SPACE
 70
               0
 10
0.0
 20
0.0
 30
0.0
  3
*MODEL_SPACE
  1

  0
ENDBLK
  5
E
100
AcDbEntity
  8
0
390
0
100
AcDbBlockEnd
  0
BLOCK
  5
F
100
AcDbEntity
 67
               1
  8
0
390
0
100
AcDbBlockBegin
  2
*PAPER_SPACE
 70
               0
 10
0.0
 20
0.0
 30
0.0
  3
*PAPER_SPACE
  1

  0
ENDBLK
  5
10
100
AcDbEntity
 67
               1
  8
0
390
0
100
AcDbBlockEnd
  0
BLOCK
  5
4C
100
AcDbEntity
  8
0
390
0
100
AcDbBlockBegin
  2
_DOT
 70
               0
 10
0.0
 20
0.0
 30
0.0
  3
_DOT
  1

  0
POLYLINE
  5
4D
100
AcDbEntity
  8
0
370
              -2
390
0
  6
ByBlock
 62
               0
100
AcDb2dPolyline
 66
               1
 10
0.0
 20
0.0
 30
0.0
 70
               1
 40
0.5
 41
0.5
  0
VERTEX
  5
4E
100
AcDbEntity
  8
0
370
              -2
390
0
  6
ByBlock
 62
               0
100
AcDbVertex
100
AcDb2dVertex
 10
-0.25
 20
0.0
 30
0.0
 42
1.0
  0
VERTEX
  5
4F
100
AcDbEntity
  8
0
370
              -2
390
0
  6
ByBlock
 62
               0
100
AcDbVertex
100
AcDb2dVertex
 10
0.25
 20
0.0
 30
0.0
 42
1.0
  0
SEQEND
  5
50
100
AcDbEntity
  8
0
390
0
  0
LINE
  5
51
100
AcDbEntity
  8
0
370
              -2
390
0
  6
ByBlock
 62
               0
100
AcDbLine
 10
-0.5
 20
0.0
 30
0.0
 11
-1.0
 21
0.0
 31
0.0
  0
ENDBLK
  5
52
100
AcDbEntity
  8
0
390
0
100
AcDbBlockEnd
  0
BLOCK
  5
55
100
AcDbEntity
  8
0
370
              -2
390
0
  6
ByBlock
 62
               0
100
AcDbBlockBegin
  2
VW_FILLEDARROW
 70
               0
 10
0.0
 20
0.0
 30
0.0
  3
VW_FILLEDARROW
  1

  0
SOLID
  5
56
100
AcDbEntity
  8
0
370
              -2
390
0
 62
               0
100
AcDbTrace
 10
0.0
 20
0.0
 30
0.0
 11
-0.9921874999999999
 21
-0.2658558393652545
 31
0.0
 12
-0.9921874999999999
 22
0.2658558393652548
 32
0.0
 13
-0.9921874999999999
 23
0.2658558393652548
 33
0.0
  0
ENDBLK
  5
57
100
AcDbEntity
  8
0
390
0
100
AcDbBlockEnd
  0
BLOCK
  5
59
100
AcDbEntity
  8
template
390
0
100
AcDbBlockBegin
  2
グループ
 70
               0
 10
0.0
 20
0.0
 30
0.0
  3
グループ
  1

  0
LWPOLYLINE
  5
5A
100
AcDbEntity
  8
0
370
              15
390
0
  6
Continuous
 62
               7
100
AcDbPolyline
 90
        8
 70
             129
 10
-14878.890932291688
 20
87.752911704024882
 10
-14878.890932291688
 20
81.755523010448997
 10
-14888.392129209689
 20
81.755523010448997
 10
-14888.392129209689
 20
57.304559746940413
 10
-14896.747506471473
 20
57.304559746940413
 10
-14896.747506471473
 20
81.755523010448997
 10
-14906.080463417782
 20
81.755523010448997
 10
-14906.080463417782
 20
87.752911704024882
  0
LWPOLYLINE
  5
5B
100
AcDbEntity
  8
0
370
              15
390
0
  6
Continuous
 62
               7
100
AcDbPolyline
 90
      101
 70
             128
 10
-14866.162640461131
 20
87.024663211088409
 10
-14866.147290432345
 20
87.02902396777327
 42
-0.0222221607809799
 10
-14865.857285855673
 20
87.097648433018094
 10
-14865.841492091673
 20
87.10065185611613
 42
-0.014688356562092
 10
-14865.578789386456
 20
87.142655043064451
 42
-0.0127458844222461
 10
-14865.314150419301
 20
87.170192011137232
 10
-14865.25169534099
 20
87.175085433725144
 42
-0.0198099018572977
 10
-14864.860846231515
 20
87.190170591121699
 10
-14864.809034762069
 20
87.190116815456577
 42
-0.0147617382747076
 10
-14864.314411301095
 20
87.174996790211665
 10
-14864.241719846217
 20
87.170624183323909
 42
-0.0162624548988365
 10
-14863.851566216756
 20
87.134391308051818
 10
-14863.730033825515
 20
87.119104749057399
 42
-0.0080020874641183
 10
-14863.584454794405
 20
87.098421901786878
 10
-14863.546135323802
 20
87.092350623974681
 42
-0.0053821929683913
 10
-14863.477651218494
 20
87.08074310015445
 10
-14864.204056917693
 20
84.899814644440539
 42
0.0108667757423724
 10
-14864.271373987842
 20
84.913001759663359
 10
-14864.308842011014
 20
84.919499502254894
 42
0.0170663203286638
 10
-14864.452058797922
 20
84.939329099545731
 10
-14864.519934130612
 20
84.946376270133896
 42
0.0220162375258566
 10
-14864.800313538466
 20
84.963058630903802
 10
-14864.878169105519
 20
84.964257998170297
 42
0.0282606915761025
 10
-14865.213805429099
 20
84.950454721201368
 10
-14865.257718702867
 20
84.94615473119805
 42
0.0169677213647766
 10
-14865.50364319783
 20
84.913617681645974
 42
0.0190576269840405
 10
-14865.746551160408
 20
84.863470809540075
 10
-14865.75281034852
 20
84.861927835430379
 42
0.0213685642859662
 10
-14866.003194832987
 20
84.78872755032954
 10
-14866.008684727914
 20
84.786864554266458
 42
0.0237595297569465
 10
-14866.262179612801
 20
84.68718003237565
 10
-14866.267281686842
 20
84.684888256892691
 42
0.0261857468780522
 10
-14866.519452463057
 20
84.555351919527538
 10
-14866.529878652154
 20
84.549286445053355
 42
0.0272553061993416
 10
-14866.766308427399
 20
84.393914239105243
 10
-14866.801071440919
 20
84.36825309100422
 42
0.0325996893194782
 10
-14866.95122678456
 20
84.241505218041766
 10
-14866.974936213677
 20
84.218687189535075
 42
0.0138050960607832
 10
-14867.066819369891
 20
84.125237527977333
 42
0.0125280103839255
 10
-14867.153661902708
 20
84.027074201397298
 10
-14867.177342347633
 20
83.998915703189823
 42
0.0205218024762277
 10
-14867.302442423186
 20
83.837122388905485
 10
-14867.324908763634
 20
83.805462659133809
 42
0.0163110129581334
 10
-14867.480619142894
 20
83.570132224049345
 10
-14867.483343038937
 20
83.565708462078419
 42
0.0131897341892713
 10
-14867.630143559849
 20
83.312576369704104
 10
-14867.63184365521
 20
83.309458130578378
 42
0.0107895576056468
 10
-14867.769620357411
 20
83.04324292096517
 10
-14867.770353246946
 20
83.041748688296593
 42
0.0091371507221412
 10
-14867.898833195581
 20
82.767223490567048
 10
-14867.928578827004
 20
82.700516983378066
 42
0.0135418326358559
 10
-14868.100292766092
 20
82.285579198069968
 10
-14868.13389757456
 20
82.197713055697648
 42
0.0092834542441535
 10
-14868.30512663443
 20
81.723814557522701
 10
-14868.33074376211
 20
81.648573487842071
 42
0.005426104358506
 10
-14868.438381910441
 20
81.320809514664461
 10
-14868.455907896634
 20
81.265421352383498
 42
0.000822509084013
 10
-14868.524577948448
 20
81.047152594285308
 10
-14869.509267080382
 20
78.02226130102872
 10
-14866.276643240308
 20
78.02226130102872
 10
-14866.780835670161
 20
76.117783002675878
 10
-14870.036891952146
 20
76.117783002675878
 10
-14875.8660409845
 20
57.304559936671012
 10
-14877.69113859481
 20
57.304559936671012
 10
-14871.856460559309
 20
76.117783002675878
 10
-14874.261576928347
 20
76.117783002675878
 10
-14873.757384498495
 20
78.02226130102872
 10
-14871.328835687546
 20
78.02226130102872
 10
-14870.468680769358
 20
80.658674301727388
 42
-0.0005863560746354
 10
-14870.431946091536
 20
80.775500720798064
 10
-14870.355858257491
 20
81.016493021404585
 42
-0.008752237890946
 10
-14870.156390113978
 20
81.611769108713773
 10
-14870.064125838629
 20
81.871909277040004
 42
-0.00774009538364
 10
-14869.806192179491
 20
82.564913954612393
 10
-14869.790427207859
 20
82.605344838134044
 42
-0.0082369946319934
 10
-14869.543342737299
 20
83.209423904194182
 42
-0.0085725238348943
 10
-14869.276096641235
 20
83.804849943613888
 10
-14869.174467040282
 20
84.021271045481186
 42
-0.0168109410597805
 10
-14868.88752261156
 20
84.582478571570618
 10
-14868.761679220708
 20
84.809442605273929
 42
-0.0007817726888205
 10
-14868.707394871046
 20
84.906986849599207
 10
-14868.707266565134
 20
84.907216558147653
 42
-0.0036626142218983
 10
-14868.652378701005
 20
85.003814438304289
 42
-0.0080221150638669
 10
-14868.595254445563
 20
85.099093673112932
 10
-14868.564554494238
 20
85.14848462217924
 42
-0.020213932552889
 10
-14868.436898754417
 20
85.33646622288299
 10
-14868.382831289244
 20
85.409545087101378
 42
-0.0249323791773119
 10
-14868.123668495517
 20
85.725590329265486
 10
-14868.099528681398
 20
85.752204602168149
 42
-0.0242132121577835
 10
-14867.759847939889
 20
86.092088088341484
 10
-14867.711936367106
 20
86.135597224557088
 42
-0.0251017527860946
 10
-14867.427954666464
 20
86.368589970323228
 10
-14867.426509189607
 20
86.369659227934079
 42
-0.013086806902381
 10
-14867.128248539693
 20
86.578439696444548
 10
-14867.126686720549
 20
86.579473136720267
 42
-0.0290329526393583
 10
-14866.815575579158
 20
86.760298638348786
 10
-14866.785730017173
 20
86.775401021187704
 42
-0.016025019005826
 10
-14866.519825603405
 20
86.899417131401833
 42
-0.0267600374792196
 10
-14866.244549525951
 20
87.000165451946884
 10
-14866.217813606418
 20
87.008358010776192
 42
-0.0049981587554356
 10
-14866.162640461131
 20
87.024663211088409
 42
-0.0049981587554356
  0
LWPOLYLINE
  5
5C
100
AcDbEntity
  8
0
370
              15
390
0
  6
Continuous
 62
               7
100
AcDbPolyline
 90
      118
 70
             128
 10
-14846.348272896683
 20
77.948277973201129
 10
-14844.473150972182
 20
77.948277973201129
 10
-14845.311189877782
 20
75.266711446800855
 42
-0.0010587229205655
 10
-14845.27973406226
 20
75.303615980099892
 10
-14845.221539971579
 20
75.371598236332147
 42
-0.0071874740411375
 10
-14845.071164753477
 20
75.54223892836518
 10
-14844.929441980219
 20
75.698475069674259
 42
-0.0148118053515068
 10
-14844.47931268749
 20
76.16608891570452
 10
-14844.392090352647
 20
76.251486236501435
 42
-0.0086273358711463
 10
-14844.056541551596
 20
76.568861870557384
 10
-14844.012707835349
 20
76.608911514908868
 42
-0.0103138323124455
 10
-14843.754684133137
 20
76.835074652228741
 10
-14843.70890972674
 20
76.873556699548161
 42
-0.0060206748544528
 10
-14843.536061662697
 20
77.015351350243463
 10
-14843.534030531782
 20
77.016977055897456
 42
-0.0067069027308432
 10
-14843.361737717149
 20
77.151127689669693
 10
-14843.359188951203
 20
77.153057859559709
 42
-0.0076184352071571
 10
-14843.188283685351
 20
77.278432734788794
 42
-0.0089652861742165
 10
-14843.013322722671
 20
77.398065995085972
 10
-14842.976971002459
 20
77.421977208613114
 42
-0.0156916245933149
 10
-14842.781011505313
 20
77.542239695078479
 42
-0.0023299011058733
 10
-14842.580749461376
 20
77.655417634594315
 10
-14842.565365328952
 20
77.664017629684167
 42
-0.0107669341487509
 10
-14842.331128503845
 20
77.788417763036293
 10
-14842.308863702776
 20
77.79963451298363
 42
-0.0078058045925543
 10
-14842.02527358487
 20
77.936995968600641
 10
-14842.015366497115
 20
77.941605096490548
 42
-0.0181829330452717
 10
-14841.70505709248
 20
78.07246883759305
 10
-14841.651001649934
 20
78.092983957528986
 42
-0.0208411536031332
 10
-14841.301916682482
 20
78.209074420022944
 10
-14841.287560582368
 20
78.213192864972626
 42
-0.0222799817152976
 10
-14840.958840788437
 20
78.29183443111674
 10
-14840.949951825207
 20
78.293546441700315
 42
-0.0215509523877491
 10
-14840.633480856919
 20
78.340462130236119
 10
-14840.59099889587
 20
78.344899657026957
 42
-0.0182545924847373
 10
-14840.356890116565
 20
78.360743482417774
 10
-14840.317489100216
 20
78.361968027497028
 42
-0.0072962856530339
 10
-14840.161566220529
 20
78.364537356019127
 10
-14840.132466549961
 20
78.364592191422858
 42
-0.0059227516356698
 10
-14840.034717050812
 20
78.36361847963235
 10
-14840.00547483333
 20
78.36298071302879
 42
-0.0011833111733675
 10
-14839.966223549607
 20
78.362031708719314
 10
-14840.761610145215
 20
75.823297763620303
 42
0.0143932051355955
 10
-14840.788011527569
 20
75.833496733667303
 10
-14840.795283499981
 20
75.836067952522853
 42
0.0234388603310455
 10
-14840.837114365911
 20
75.848687188237591
 10
-14840.845796028827
 20
75.850868150243059
 42
0.0199162742948955
 10
-14840.9060848629
 20
75.863484885576568
 10
-14840.926898800713
 20
75.866982085006384
 42
0.0293643550721434
 10
-14841.029973659473
 20
75.87813213065975
 10
-14841.054658840192
 20
75.879343747678377
 42
0.0214606686950141
 10
-14841.207799756145
 20
75.880282308095957
 10
-14841.217171666964
 20
75.879937396551668
 42
0.0167564054200476
 10
-14841.388691858076
 20
75.867860354183392
 10
-14841.397151650832
 20
75.866979013756463
 42
0.0137677553279002
 10
-14841.584504964087
 20
75.842229705214109
 10
-14841.591856703602
 20
75.841051785244872
 42
0.011849726147268
 10
-14841.792354467714
 20
75.804034435053737
 10
-14841.798504474951
 20
75.802747572335647
 42
0.0106421143922549
 10
-14842.009385362251
 20
75.753915196756992
 10
-14842.014294170625
 20
75.752667854075753
 42
0.0099746379726524
 10
-14842.232752639791
 20
75.692493325760097
 10
-14842.294300679958
 20
75.674211447130347
 42
0.019161367587133
 10
-14842.630285142508
 20
75.560234066830901
 10
-14842.718344915218
 20
75.526547156520095
 42
0.0205274080146535
 10
-14843.103651687121
 20
75.360718748692761
 10
-14843.161300969115
 20
75.333050784114249
 42
0.0181256912163082
 10
-14843.41957790977
 20
75.197366965142464
 10
-14843.472533293145
 20
75.167049351892317
 42
0.0140709242521956
 10
-14843.617488227712
 20
75.078554678493219
 10
-14843.643737096361
 20
75.06149785975829
 42
0.0086667884451576
 10
-14843.732663257873
 20
75.001495191895174
 42
0.0036408192039772
 10
-14843.820096496065
 20
74.939314333988392
 10
-14843.855323370375
 20
74.913873388190041
 42
0.0052260781266731
 10
-14844.011552067783
 20
74.798541001542986
 10
-14844.027758924025
 20
74.786312890937552
 42
0.0050024435942874
 10
-14844.213762267145
 20
74.643030322628022
 10
-14844.2290804236
 20
74.630984300229557
 42
0.0136138710328548
 10
-14844.439521691947
 20
74.456017795295978
 10
-14844.473189567718
 20
74.426438822601995
 42
0.0172815186909154
 10
-14844.737593109352
 20
74.177442150007408
 10
-14844.740155455223
 20
74.174856332831496
 42
0.0189403858042338
 10
-14844.990737253836
 20
73.902051067987557
 10
-14845.023368747352
 20
73.86370713651371
 42
0.018504419952535
 10
-14845.215325186318
 20
73.62045855540714
 42
0.0088565243887791
 10
-14845.393785292965
 20
73.366942135232833
 10
-14845.402963272596
 20
73.353400755497205
 42
0.0157195347270954
 10
-14845.586183878959
 20
73.063878546136664
 10
-14845.632266820841
 20
72.985726349196767
 42
0.0095451879751032
 10
-14845.797352370999
 20
72.693131706804024
 10
-14845.808500289962
 20
72.672461034609555
 42
0.0100351706236221
 10
-14845.940544039087
 20
72.415405474181398
 42
0.0086935915404031
 10
-14846.062875190839
 20
72.153572328874105
 10
-14846.066195932297
 20
72.146130005805162
 42
0.0072580174871058
 10
-14846.186542384194
 20
71.865538014335812
 10
-14846.189804017547
 20
71.857617988204083
 42
0.0060005122591734
 10
-14846.309004685874
 20
71.558008317639704
 10
-14846.312215664231
 20
71.549646789694179
 42
0.0049017786990394
 10
-14846.431115823056
 20
71.230717809180874
 10
-14846.434281629479
 20
71.221964871859655
 42
0.0039415167571156
 10
-14846.553717907473
 20
70.883422809632933
 10
-14846.556849010189
 20
70.874319608570204
 42
0.0031035838787278
 10
-14846.677653795863
 20
70.51587974684972
 10
-14846.680763840412
 20
70.50645912542177
 42
0.0025070747162949
 10
-14846.803665191759
 20
70.12781190837174
 10
-14846.840959088153
 20
70.010920243224973
 42
0.0029081910283451
 10
-14847.032977386025
 20
69.396756584735641
 10
-14847.073780554481
 20
69.263533342657411
 42
0.0009266453727698
 10
-14847.342197928609
 20
68.381308883348012
 10
-14847.363085401759
 20
68.312197002425265
 42
-0.0005809993661531
 10
-14847.640422082026
 20
67.398388896858933
 10
-14847.706703880245
 20
67.180903964875711
 42
-0.0012018708178829
 10
-14847.853688189729
 20
66.702741300178559
 10
-14847.906008041004
 20
66.533982160252492
 42
-0.0002691059625474
 10
-14847.949577522464
 20
66.393714538970926
 10
-14850.782533420752
 20
57.304559936671012
 10
-14852.60052231273
 20
57.304559936671012
 10
-14846.348272896683
 20
77.948277973201129
  0
SPLINE
  5
5D
100
AcDbEntity
  8
0
370
              15
390
0
  6
Continuous
 62
               7
100
AcDbSpline
210
0.0
220
0.0
230
1.0
 70
              13
 71
               2
 72
             782
 73
             779
 74
               0
 42
0.000001
 43
0.000001
 40
0.0
 40
0.0
 40
0.0
 40
1.0
 40
1.0
 40
2.0
 40
2.0
 40
3.0
 40
3.0
 40
4.0
 40
4.0
 40
5.0
 40
5.0
 40
6.0
 40
6.0
 40
7.0
 40
7.0
 40
8.0
 40
8.0
 40
9.0
 40
9.0
 40
10.0
 40
10.0
 40
11.0
 40
11.0
 40
12.0
 40
12.0
 40
13.0
 40
13.0
 40
14.0
 40
14.0
 40
15.0
 40
15.0
 40
16.0
 40
16.0
 40
17.0
 40
17.0
 40
18.0
 40
18.0
 40
19.0
 40
19.0
 40
20.0
 40
20.0
 40
21.0
 40
21.0
 40
22.0
 40
22.0
 40
23.0
 40
23.0
 40
24.0
 40
24.0
 40
25.0
 40
25.0
 40
26.0
 40
26.0
 40
27.0
 40
27.0
 40
28.0
 40
28.0
 40
29.0
 40
29.0
 40
30.0
 40
30.0
 40
31.0
 40
31.0
 40
32.0
 40
32.0
 40
33.0
 40
33.0
 40
34.0
 40
34.0
 40
35.0
 40
35.0
 40
36.0
 40
36.0
 40
37.0
 40
37.0
 40
38.0
 40
38.0
 40
39.0
 40
39.0
 40
40.0
 40
40.0
 40
41.0
 40
41.0
 40
42.0
 40
42.0
 40
43.0
 40
43.0
 40
44.0
 40
44.0
 40
45.0
 40
45.0
 40
46.0
 40
46.0
 40
47.0
 40
47.0
 40
48.0
 40
48.0
 40
49.0
 40
49.0
 40
50.0
 40
50.0
 40
51.0
 40
51.0
 40
52.0
 40
52.0
 40
53.0
 40
53.0
 40
54.0
 40
54.0
 40
55.0
 40
55.0
 40
56.0
 40
56.0
 40
57.0
 40
57.0
 40
58.0
 40
58.0
 40
59.0
 40
59.0
 40
60.0
 40
60.0
 40
61.0
 40
61.0
 40
62.0
 40
62.0
 40
63.0
 40
63.0
 40
64.0
 40
64.0
 40
65.0
 40
65.0
 40
66.0
 40
66.0
 40
67.0
 40
67.0
 40
68.0
 40
68.0
 40
69.0
 40
69.0
 40
70.0
 40
70.0
 40
71.0
 40
71.0
 40
72.0
 40
72.0
 40
73.0
 40
73.0
 40
74.0
 40
74.0
 40
75.0
 40
75.0
 40
76.0
 40
76.0
 40
77.0
 40
77.0
 40
78.0
 40
78.0
 40
79.0
 40
79.0
 40
80.0
 40
80.0
 40
81.0
 40
81.0
 40
82.0
 40
82.0
 40
83.0
 40
83.0
 40
84.0
 40
84.0
 40
85.0
 40
85.0
 40
86.0
 40
86.0
 40
87.0
 40
87.0
 40
88.0
 40
88.0
 40
89.0
 40
89.0
 40
90.0
 40
90.0
 40
91.0
 40
91.0
 40
92.0
 40
92.0
 40
93.0
 40
93.0
 40
94.0
 40
94.0
 40
95.0
 40
95.0
 40
96.0
 40
96.0
 40
97.0
 40
97.0
 40
98.0
 40
98.0
 40
99.0
 40
99.0
 40
100.0
 40
100.0
 40
101.0
 40
101.0
 40
102.0
 40
102.0
 40
103.0
 40
103.0
 40
104.0
 40
104.0
 40
105.0
 40
105.0
 40
106.0
 40
106.0
 40
107.0
 40
107.0
 40
108.0
 40
108.0
 40
109.0
 40
109.0
 40
110.0
 40
110.0
 40
111.0
 40
111.0
 40
112.0
 40
112.0
 40
113.0
 40
113.0
 40
114.0
 40
114.0
 40
115.0
 40
115.0
 40
116.0
 40
116.0
 40
117.0
 40
117.0
 40
118.0
 40
118.0
 40
119.0
 40
119.0
 40
120.0
 40
120.0
 40
121.0
 40
121.0
 40
122.0
 40
122.0
 40
123.0
 40
123.0
 40
124.0
 40
124.0
 40
125.0
 40
125.0
 40
126.0
 40
126.0
 40
127.0
 40
127.0
 40
128.0
 40
128.0
 40
129.0
 40
129.0
 40
130.0
 40
130.0
 40
131.0
 40
131.0
 40
132.0
 40
132.0
 40
133.0
 40
133.0
 40
134.0
 40
134.0
 40
135.0
 40
135.0
 40
136.0
 40
136.0
 40
137.0
 40
137.0
 40
138.0
 40
138.0
 40
139.0
 40
139.0
 40
140.0
 40
140.0
 40
141.0
 40
141.0
 40
142.0
 40
142.0
 40
143.0
 40
143.0
 40
144.0
 40
144.0
 40
145.0
 40
145.0
 40
146.0
 40
146.0
 40
147.0
 40
147.0
 40
148.0
 40
148.0
 40
149.0
 40
149.0
 40
150.0
 40
150.0
 40
151.0
 40
151.0
 40
152.0
 40
152.0
 40
153.0
 40
153.0
 40
154.0
 40
154.0
 40
155.0
 40
155.0
 40
156.0
 40
156.0
 40
157.0
 40
157.0
 40
158.0
 40
158.0
 40
159.0
 40
159.0
 40
160.0
 40
160.0
 40
161.0
 40
161.0
 40
162.0
 40
162.0
 40
163.0
 40
163.0
 40
164.0
 40
164.0
 40
165.0
 40
165.0
 40
166.0
 40
166.0
 40
167.0
 40
167.0
 40
168.0
 40
168.0
 40
169.0
 40
169.0
 40
170.0
 40
170.0
 40
171.0
 40
171.0
 40
172.0
 40
172.0
 40
173.0
 40
173.0
 40
174.0
 40
174.0
 40
175.0
 40
175.0
 40
176.0
 40
176.0
 40
177.0
 40
177.0
 40
178.0
 40
178.0
 40
179.0
 40
179.0
 40
180.0
 40
180.0
 40
181.0
 40
181.0
 40
182.0
 40
182.0
 40
183.0
 40
183.0
 40
184.0
 40
184.0
 40
185.0
 40
185.0
 40
186.0
 40
186.0
 40
187.0
 40
187.0
 40
188.0
 40
188.0
 40
189.0
 40
189.0
 40
190.0
 40
190.0
 40
191.0
 40
191.0
 40
192.0
 40
192.0
 40
193.0
 40
193.0
 40
194.0
 40
194.0
 40
195.0
 40
195.0
 40
196.0
 40
196.0
 40
197.0
 40
197.0
 40
198.0
 40
198.0
 40
199.0
 40
199.0
 40
200.0
 40
200.0
 40
201.0
 40
201.0
 40
202.0
 40
202.0
 40
203.0
 40
203.0
 40
204.0
 40
204.0
 40
205.0
 40
205.0
 40
206.0
 40
206.0
 40
207.0
 40
207.0
 40
208.0
 40
208.0
 40
209.0
 40
209.0
 40
210.0
 40
210.0
 40
211.0
 40
211.0
 40
212.0
 40
212.0
 40
213.0
 40
213.0
 40
214.0
 40
214.0
 40
215.0
 40
215.0
 40
216.0
 40
216.0
 40
217.0
 40
217.0
 40
218.0
 40
218.0
 40
219.0
 40
219.0
 40
220.0
 40
220.0
 40
221.0
 40
221.0
 40
222.0
 40
222.0
 40
223.0
 40
223.0
 40
224.0
 40
224.0
 40
225.0
 40
225.0
 40
226.0
 40
226.0
 40
227.0
 40
227.0
 40
228.0
 40
228.0
 40
229.0
 40
229.0
 40
230.0
 40
230.0
 40
231.0
 40
231.0
 40
232.0
 40
232.0
 40
233.0
 40
233.0
 40
234.0
 40
234.0
 40
235.0
 40
235.0
 40
236.0
 40
236.0
 40
237.0
 40
237.0
 40
238.0
 40
238.0
 40
239.0
 40
239.0
 40
240.0
 40
240.0
 40
241.0
 40
241.0
 40
242.0
 40
242.0
 40
243.0
 40
243.0
 40
244.0
 40
244.0
 40
245.0
 40
245.0
 40
246.0
 40
246.0
 40
247.0
 40
247.0
 40
248.0
 40
248.0
 40
249.0
 40
249.0
 40
250.0
 40
250.0
 40
251.0
 40
251.0
 40
252.0
 40
252.0
 40
253.0
 40
253.0
 40
254.0
 40
254.0
 40
255.0
 40
255.0
 40
256.0
 40
256.0
 40
257.0
 40
257.0
 40
258.0
 40
258.0
 40
259.0
 40
259.0
 40
260.0
 40
260.0
 40
261.0
 40
261.0
 40
262.0
 40
262.0
 40
263.0
 40
263.0
 40
264.0
 40
264.0
 40
265.0
 40
265.0
 40
266.0
 40
266.0
 40
267.0
 40
267.0
 40
268.0
 40
268.0
 40
269.0
 40
269.0
 40
270.0
 40
270.0
 40
271.0
 40
271.0
 40
272.0
 40
272.0
 40
273.0
 40
273.0
 40
274.0
 40
274.0
 40
275.0
 40
275.0
 40
276.0
 40
276.0
 40
277.0
 40
277.0
 40
278.0
 40
278.0
 40
279.0
 40
279.0
 40
280.0
 40
280.0
 40
281.0
 40
281.0
 40
282.0
 40
282.0
 40
283.0
 40
283.0
 40
284.0
 40
284.0
 40
285.0
 40
285.0
 40
286.0
 40
286.0
 40
287.0
 40
287.0
 40
288.0
 40
288.0
 40
289.0
 40
289.0
 40
290.0
 40
290.0
 40
291.0
 40
291.0
 40
292.0
 40
292.0
 40
293.0
 40
293.0
 40
294.0
 40
294.0
 40
295.0
 40
295.0
 40
296.0
 40
296.0
 40
297.0
 40
297.0
 40
298.0
 40
298.0
 40
299.0
 40
299.0
 40
300.0
 40
300.0
 40
301.0
 40
301.0
 40
302.0
 40
302.0
 40
303.0
 40
303.0
 40
304.0
 40
304.0
 40
305.0
 40
305.0
 40
306.0
 40
306.0
 40
307.0
 40
307.0
 40
308.0
 40
308.0
 40
309.0
 40
309.0
 40
310.0
 40
310.0
 40
311.0
 40
311.0
 40
312.0
 40
312.0
 40
313.0
 40
313.0
 40
314.0
 40
314.0
 40
315.0
 40
315.0
 40
316.0
 40
316.0
 40
317.0
 40
317.0
 40
318.0
 40
318.0
 40
319.0
 40
319.0
 40
320.0
 40
320.0
 40
321.0
 40
321.0
 40
322.0
 40
322.0
 40
323.0
 40
323.0
 40
324.0
 40
324.0
 40
325.0
 40
325.0
 40
326.0
 40
326.0
 40
327.0
 40
327.0
 40
328.0
 40
328.0
 40
329.0
 40
329.0
 40
330.0
 40
330.0
 40
331.0
 40
331.0
 40
332.0
 40
332.0
 40
333.0
 40
333.0
 40
334.0
 40
334.0
 40
335.0
 40
335.0
 40
336.0
 40
336.0
 40
337.0
 40
337.0
 40
338.0
 40
338.0
 40
339.0
 40
339.0
 40
340.0
 40
340.0
 40
341.0
 40
341.0
 40
342.0
 40
342.0
 40
343.0
 40
343.0
 40
344.0
 40
344.0
 40
345.0
 40
345.0
 40
346.0
 40
346.0
 40
347.0
 40
347.0
 40
348.0
 40
348.0
 40
349.0
 40
349.0
 40
350.0
 40
350.0
 40
351.0
 40
351.0
 40
352.0
 40
352.0
 40
353.0
 40
353.0
 40
354.0
 40
354.0
 40
355.0
 40
355.0
 40
356.0
 40
356.0
 40
357.0
 40
357.0
 40
358.0
 40
358.0
 40
359.0
 40
359.0
 40
360.0
 40
360.0
 40
361.0
 40
361.0
 40
362.0
 40
362.0
 40
363.0
 40
363.0
 40
364.0
 40
364.0
 40
365.0
 40
365.0
 40
366.0
 40
366.0
 40
367.0
 40
367.0
 40
368.0
 40
368.0
 40
369.0
 40
369.0
 40
370.0
 40
370.0
 40
371.0
 40
371.0
 40
372.0
 40
372.0
 40
373.0
 40
373.0
 40
374.0
 40
374.0
 40
375.0
 40
375.0
 40
376.0
 40
376.0
 40
377.0
 40
377.0
 40
378.0
 40
378.0
 40
379.0
 40
379.0
 40
380.0
 40
380.0
 40
381.0
 40
381.0
 40
382.0
 40
382.0
 40
383.0
 40
383.0
 40
384.0
 40
384.0
 40
385.0
 40
385.0
 40
386.0
 40
386.0
 40
387.0
 40
387.0
 40
388.0
 40
388.0
 40
389.0
 40
389.0
 40
389.0
 10
-14836.01956844595
 20
77.959204336563289
 30
0.0
 41
1.0
 10
-14835.20114433723
 20
77.959204336563289
 30
0.0
 41
1.0
 10
-14834.38272022851
 20
77.959204336563289
 30
0.0
 41
1.0
 10
-14834.796473964027
 20
76.616578072313587
 30
0.0
 41
1.0
 10
-14835.210227699543
 20
75.273951808063885
 30
0.0
 41
1.0
 10
-14835.19188820427
 20
75.302652581139256
 30
0.0
 41
0.99999572644479
 10
-14835.173381207303
 20
75.331245631499939
 30
0.0
 41
1.0
 10
-14835.142951883287
 20
75.378258509688948
 30
0.0
 41
1.0
 10
-14835.11252255927
 20
75.425271387877956
 30
0.0
 41
1.0
 10
-14835.033156914156
 20
75.547890194791194
 30
0.0
 41
0.9995394069082169
 10
-14834.946498522606
 20
75.665468256532165
 30
0.0
 41
1.0
 10
-14834.910741660336
 20
75.713983149138045
 30
0.0
 41
1.0
 10
-14834.874984798067
 20
75.76249804174391
 30
0.0
 41
1.0
 10
-14834.741258130258
 20
75.943938316857839
 30
0.0
 41
0.9994460617142875
 10
-14834.595757648985
 20
76.116080714486543
 30
0.0
 41
1.0
 10
-14834.591369468018
 20
76.121272394859545
 30
0.0
 41
1.0
 10
-14834.586981287051
 20
76.126464075232562
 30
0.0
 41
1.0
 10
-14834.450257167709
 20
76.28822311212619
 30
0.0
 41
0.9994359394932966
 10
-14834.302982937348
 20
76.440439313300885
 30
0.0
 41
1.0
 10
-14834.300599583396
 20
76.442902643674387
 30
0.0
 41
1.0
 10
-14834.298216229441
 20
76.445365974047888
 30
0.0
 41
1.0
 10
-14834.155708707001
 20
76.592655514460517
 30
0.0
 41
0.9995293688566909
 10
-14834.004437026013
 20
76.7309287266296
 30
0.0
 41
1.0
 10
-14833.98514326672
 20
76.748564612306609
 30
0.0
 41
1.0
 10
-14833.965849507429
 20
76.766200497983633
 30
0.0
 41
1.0
 10
-14833.853165345003
 20
76.869201938815706
 30
0.0
 41
0.9997087614805825
 10
-14833.735642456075
 20
76.966646219591439
 30
0.0
 41
1.0
 10
-14833.716476382902
 20
76.982537798097795
 30
0.0
 41
1.0
 10
-14833.697310309728
 20
76.99842937660415
 30
0.0
 41
1.0
 10
-14833.618119567111
 20
77.064090500396844
 30
0.0
 41
0.999959533869455
 10
-14833.537760296265
 20
77.128316231044437
 30
0.0
 41
1.0
 10
-14833.457401025335
 20
77.192541961760355
 30
0.0
 41
0.9999749417511615
 10
-14833.376140490964
 20
77.255623515726683
 30
0.0
 41
1.0
 10
-14833.355154344856
 20
77.271914802985265
 30
0.0
 41
1.0
 10
-14833.334168198748
 20
77.288206090243847
 30
0.0
 41
1.0
 10
-14833.249600313464
 20
77.353855100071712
 30
0.0
 41
0.9999792037120129
 10
-14833.164192713664
 20
77.418407881738403
 30
0.0
 41
1.0
 10
-14833.143367887809
 20
77.434147703952988
 30
0.0
 41
1.0
 10
-14833.122543061954
 20
77.449887526167572
 30
0.0
 41
1.0
 10
-14833.07878511405
 20
77.482960663264407
 30
0.0
 41
0.9999993373997896
 10
-14833.035103427752
 20
77.516134458805936
 30
0.0
 41
1.0
 10
-14832.991421741637
 20
77.549308254208398
 30
0.0
 41
0.9999160953814883
 10
-14832.946895330746
 20
77.581339319386615
 30
0.0
 41
1.0
 10
-14832.914073443299
 20
77.604950474992378
 30
0.0
 41
1.0
 10
-14832.881251555849
 20
77.628561630598142
 30
0.0
 41
1.0
 10
-14832.771081370098
 20
77.707815006963912
 30
0.0
 41
0.9980964527226708
 10
-14832.651992376597
 20
77.772902479818953
 30
0.0
 41
1.0
 10
-14832.614959769662
 20
77.793142459415961
 30
0.0
 41
1.0
 10
-14832.577927162727
 20
77.813382439012969
 30
0.0
 41
1.0
 10
-14832.398600149458
 20
77.911392689710411
 30
0.0
 41
0.9984572810575008
 10
-14832.209511583103
 20
77.988914951055904
 30
0.0
 41
1.0
 10
-14832.205865313706
 20
77.990409843394758
 30
0.0
 41
1.0
 10
-14832.202219044308
 20
77.991904735733613
 30
0.0
 41
1.0
 10
-14832.020423016733
 20
78.066437212406043
 30
0.0
 41
0.9987838528034683
 10
-14831.832170358184
 20
78.122702852568182
 30
0.0
 41
1.0
 10
-14831.827932408982
 20
78.123969506259513
 30
0.0
 41
1.0
 10
-14831.823694459779
 20
78.125236159950845
 30
0.0
 41
1.0
 10
-14831.64391769963
 20
78.178968492733262
 30
0.0
 41
0.9990652816205262
 10
-14831.460171767909
 20
78.216972172275746
 30
0.0
 41
1.0
 10
-14831.454983366877
 20
78.218045275382281
 30
0.0
 41
1.0
 10
-14831.449794965845
 20
78.219118378488801
 30
0.0
 41
1.0
 10
-14831.276425836184
 20
78.254975851819552
 30
0.0
 41
0.9992909934269786
 10
-14831.100850069735
 20
78.2776862842843
 30
0.0
 41
1.0
 10
-14830.925274303283
 20
78.300396716751123
 30
0.0
 41
0.9994553539447358
 10
-14830.748582870181
 20
78.311476020957286
 30
0.0
 41
1.0
 10
-14830.71314846239
 20
78.313697909004858
 30
0.0
 41
1.0
 10
-14830.677714054596
 20
78.31591979705243
 30
0.0
 41
1.0
 10
-14830.511488288037
 20
78.326342859464845
 30
0.0
 41
0.9990928098290867
 10
-14830.344978496119
 20
78.322583218229738
 30
0.0
 41
1.0
 10
-14830.306416660849
 20
78.321712526696814
 30
0.0
 41
1.0
 10
-14830.267854825579
 20
78.32084183516389
 30
0.0
 41
1.0
 10
-14830.178468704211
 20
78.318823576995328
 30
0.0
 41
0.9998382089204786
 10
-14830.089213021431
 20
78.313591450467356
 30
0.0
 41
1.0
 10
-14830.088783115212
 20
78.313566249565184
 30
0.0
 41
1.0
 10
-14830.088353208994
 20
78.313541048663012
 30
0.0
 41
1.0
 10
-14829.999957338658
 20
78.308359323941602
 30
0.0
 41
0.9997558016754358
 10
-14829.911876761445
 20
78.299276808572813
 30
0.0
 41
1.0
 10
-14829.911400623019
 20
78.299227711090481
 30
0.0
 41
1.0
 10
-14829.910924484591
 20
78.299178613608134
 30
0.0
 41
1.0
 10
-14829.82379618423
 20
78.290194293204493
 30
0.0
 41
0.9996565144181164
 10
-14829.737258330901
 20
78.276656986517082
 30
0.0
 41
1.0
 10
-14829.736792405525
 20
78.276584100786238
 30
0.0
 41
1.0
 10
-14829.736326480152
 20
78.276511215055379
 30
0.0
 41
1.0
 10
-14829.650720477566
 20
78.263119679829444
 30
0.0
 41
0.9995321806866734
 10
-14829.566093397232
 20
78.244519191398922
 30
0.0
 41
1.0
 10
-14829.565704202651
 20
78.244433648931022
 30
0.0
 41
1.0
 10
-14829.565315008071
 20
78.244348106463136
 30
0.0
 41
1.0
 10
-14829.481466316893
 20
78.22591870296668
 30
0.0
 41
0.9993819199219757
 10
-14829.399119782707
 20
78.201643319709092
 30
0.0
 41
1.0
 10
-14829.398881349218
 20
78.201573030602361
 30
0.0
 41
1.0
 10
-14829.398642915728
 20
78.201502741495645
 30
0.0
 41
1.0
 10
-14829.316773248513
 20
78.177367936449272
 30
0.0
 41
0.9992088568504114
 10
-14829.237080729523
 20
78.146802700654007
 30
0.0
 41
1.0
 10
-14829.157399738642
 20
78.116243099920041
 30
0.0
 41
0.9990226101773333
 10
-14829.080729068737
 20
78.078765668306232
 30
0.0
 41
1.0
 10
-14829.004069926939
 20
78.041293871753666
 30
0.0
 41
0.9988424273971622
 10
-14828.931366299734
 20
77.996629096504535
 30
0.0
 41
1.0
 10
-14828.931098591351
 20
77.996464632429877
 30
0.0
 41
1.0
 10
-14828.930830882968
 20
77.996300168355219
 30
0.0
 41
1.0
 10
-14828.857591839003
 20
77.951306464962116
 30
0.0
 41
0.9986928844490627
 10
-14828.7893289723
 20
77.899070730687427
 30
0.0
 41
1.0
 10
-14828.788747680072
 20
77.898625917454922
 30
0.0
 41
1.0
 10
-14828.788166387842
 20
77.898181104222431
 30
0.0
 41
1.0
 10
-14828.718740936696
 20
77.845055743497284
 30
0.0
 41
0.9986007262269744
 10
-14828.655314766935
 20
77.784894973808051
 30
0.0
 41
1.0
 10
-14828.65442035147
 20
77.784046605965671
 30
0.0
 41
1.0
 10
-14828.653525936004
 20
77.783198238123305
 30
0.0
 41
1.0
 10
-14828.588310935334
 20
77.721340732771708
 30
0.0
 41
0.9985581491376534
 10
-14828.530103323648
 20
77.652848242516981
 30
0.0
 41
1.0
 10
-14828.52084487004
 20
77.641953884800756
 30
0.0
 41
1.0
 10
-14828.511586416431
 20
77.631059527084517
 30
0.0
 41
1.0
 10
-14828.43486189754
 20
77.540778321410713
 30
0.0
 41
0.9970460233522601
 10
-14828.372869996381
 20
77.439811237231055
 30
0.0
 41
1.0
 10
-14828.358400631292
 20
77.416244778133546
 30
0.0
 41
1.0
 10
-14828.343931266203
 20
77.392678319036037
 30
0.0
 41
1.0
 10
-14828.304194566201
 20
77.32795859502211
 30
0.0
 41
0.9988468816634154
 10
-14828.270848195454
 20
77.259726142606269
 30
0.0
 41
1.0
 10
-14828.263812172932
 20
77.245329221402784
 30
0.0
 41
1.0
 10
-14828.256776150409
 20
77.230932300199314
 30
0.0
 41
1.0
 10
-14828.237501824677
 20
77.191493690118918
 30
0.0
 41
0.9998431190002672
 10
-14828.219636497208
 20
77.151397135737625
 30
0.0
 41
1.0
 10
-14828.201771170152
 20
77.111300582281999
 30
0.0
 41
0.9999989989683681
 10
-14828.183792447142
 20
77.071254745605785
 30
0.0
 41
1.0
 10
-14828.177620135124
 20
77.057506527846741
 30
0.0
 41
1.0
 10
-14828.171447823104
 20
77.043758310087696
 30
0.0
 41
1.0
 10
-14828.141124476508
 20
76.976216038915197
 30
0.0
 41
0.9998790356318197
 10
-14828.112916596392
 20
76.907763287028459
 30
0.0
 41
1.0
 10
-14828.106081415121
 20
76.891176185634976
 30
0.0
 41
1.0
 10
-14828.099246233851
 20
76.874589084241492
 30
0.0
 41
1.0
 10
-14828.075688571435
 20
76.817421129275118
 30
0.0
 41
0.9998227574557493
 10
-14828.054299823018
 20
76.759406820923687
 30
0.0
 41
1.0
 10
-14828.032911074617
 20
76.701392512613083
 30
0.0
 41
0.999679797104311
 10
-14828.01448478965
 20
76.642370393467374
 30
0.0
 41
1.0
 10
-14828.010580986935
 20
76.629865935328752
 30
0.0
 41
1.0
 10
-14828.006677184218
 20
76.617361477190116
 30
0.0
 41
1.0
 10
-14827.980443293807
 20
76.533330441734989
 30
0.0
 41
0.997927493873309
 10
-14827.965218770329
 20
76.446626083078129
 30
0.0
 41
1.0
 10
-14827.962995083066
 20
76.433962082251526
 30
0.0
 41
1.0
 10
-14827.960771395803
 20
76.421298081424936
 30
0.0
 41
1.0
 10
-14827.949841456106
 20
76.35905157413724
 30
0.0
 41
0.9994985982136874
 10
-14827.942873290929
 20
76.296238072999358
 30
0.0
 41
1.0
 10
-14827.935905125752
 20
76.2334245718651
 30
0.0
 41
0.9996372611201376
 10
-14827.932329259986
 20
76.170326993192802
 30
0.0
 41
1.0
 10
-14827.932160682496
 20
76.167352376101746
 30
0.0
 41
1.0
 10
-14827.931992105006
 20
76.164377759010677
 30
0.0
 41
1.0
 10
-14827.92807908426
 20
76.095330946205877
 30
0.0
 41
0.9997730630732598
 10
-14827.927110770774
 20
76.026180122212978
 30
0.0
 41
1.0
 10
-14827.927053664356
 20
76.022101943029952
 30
0.0
 41
1.0
 10
-14827.926996557937
 20
76.018023763846941
 30
0.0
 41
1.0
 10
-14827.925914031612
 20
75.94071658153554
 30
0.0
 41
0.9998772614070716
 10
-14827.927254118344
 20
75.863413434977787
 30
0.0
 41
1.0
 10
-14827.927343381543
 20
75.858264271136292
 30
0.0
 41
1.0
 10
-14827.927432644741
 20
75.853115107294798
 30
0.0
 41
1.0
 10
-14827.928951257871
 20
75.765513633027538
 30
0.0
 41
0.9999415567325931
 10
-14827.932363568119
 20
75.677965471321926
 30
0.0
 41
1.0
 10
-14827.932604888792
 20
75.67177401161625
 30
0.0
 41
1.0
 10
-14827.932846209467
 20
75.665582551910575
 30
0.0
 41
1.0
 10
-14827.936741161075
 20
75.565651470562472
 30
0.0
 41
0.9999716810421531
 10
-14827.942139744202
 20
75.465790332137189
 30
0.0
 41
1.0
 10
-14827.945352542989
 20
75.40636108249663
 30
0.0
 41
1.0
 10
-14827.948565341778
 20
75.346931832856072
 30
0.0
 41
1.0
 10
-14827.956639250924
 20
75.197583431752307
 30
0.0
 41
0.9999819129897689
 10
-14827.966509042528
 20
75.048342954225518
 30
0.0
 41
1.0
 10
-14827.976378834144
 20
74.899102476514145
 30
0.0
 41
1.0
 10
-14827.978818154708
 20
74.861909430664582
 30
0.0
 41
1.0
 10
-14827.956119920726
 20
74.900650428254806
 30
0.0
 41
0.99999821282364
 10
-14827.933275361824
 20
74.939305322459049
 30
0.0
 41
1.0
 10
-14827.90636580209
 20
74.984838536260952
 30
0.0
 41
1.0
 10
-14827.879456242354
 20
75.030371750062841
 30
0.0
 41
1.0
 10
-14827.802792563842
 20
75.160093072111295
 30
0.0
 41
0.9998609190057933
 10
-14827.721845250979
 20
75.287185454041804
 30
0.0
 41
1.0
 10
-14827.692196929485
 20
75.333735187018817
 30
0.0
 41
1.0
 10
-14827.66254860799
 20
75.380284919995844
 30
0.0
 41
1.0
 10
-14827.580276387765
 20
75.509457489971993
 30
0.0
 41
0.9999067609733939
 10
-14827.494507378302
 20
75.636335179412299
 30
0.0
 41
1.0
 10
-14827.492102675111
 20
75.639892445452716
 30
0.0
 41
1.0
 10
-14827.48969797192
 20
75.643449711493133
 30
0.0
 41
1.0
 10
-14827.408738368857
 20
75.763212868826926
 30
0.0
 41
0.9998784952148543
 10
-14827.324084759155
 20
75.88039408556233
 30
0.0
 41
1.0
 10
-14827.239431149486
 20
75.997575302254859
 30
0.0
 41
0.9998532968282859
 10
-14827.150813528686
 20
76.111788210696901
 30
0.0
 41
1.0
 10
-14827.130851739685
 20
76.137515531730941
 30
0.0
 41
1.0
 10
-14827.110889950683
 20
76.163242852764967
 30
0.0
 41
1.0
 10
-14826.992405900919
 20
76.315948463741307
 30
0.0
 41
0.9991551975795296
 10
-14826.861781451287
 20
76.458408025833933
 30
0.0
 41
1.0
 10
-14826.858271835303
 20
76.462235627462491
 30
0.0
 41
1.0
 10
-14826.85476221932
 20
76.466063229091063
 30
0.0
 41
1.0
 10
-14826.731157001655
 20
76.600867587927141
 30
0.0
 41
0.9997418144180859
 10
-14826.601554861963
 20
76.729916998529916
 30
0.0
 41
1.0
 10
-14826.471952722273
 20
76.858966409132677
 30
0.0
 41
0.9989238204633271
 10
-14826.330950174026
 20
76.97545137116883
 30
0.0
 41
1.0
 10
-14826.285702495879
 20
77.012831362783885
 30
0.0
 41
1.0
 10
-14826.240454817731
 20
77.05021135439894
 30
0.0
 41
1.0
 10
-14826.10021476051
 20
77.166066407690309
 30
0.0
 41
0.9990825084094941
 10
-14825.950574827906
 20
77.269495405522548
 30
0.0
 41
1.0
 10
-14825.940529463811
 20
77.276438618628532
 30
0.0
 41
1.0
 10
-14825.930484099716
 20
77.283381831734516
 30
0.0
 41
1.0
 10
-14825.800934895258
 20
77.37292440338345
 30
0.0
 41
0.9998164899826582
 10
-14825.668050691926
 20
77.4574386448719
 30
0.0
 41
1.0
 10
-14825.656205131396
 20
77.464972411400808
 30
0.0
 41
1.0
 10
-14825.644359570864
 20
77.472506177929716
 30
0.0
 41
1.0
 10
-14825.535166488549
 20
77.541952886387492
 30
0.0
 41
0.9997473449132449
 10
-14825.4229625313
 20
77.606421844203851
 30
0.0
 41
1.0
 10
-14825.310758574084
 20
77.670890802001935
 30
0.0
 41
0.9999327861140867
 10
-14825.197089963316
 20
77.732740793685352
 30
0.0
 41
1.0
 10
-14825.196537960741
 20
77.733041152372323
 30
0.0
 41
1.0
 10
-14825.195985958166
 20
77.73334151105928
 30
0.0
 41
1.0
 10
-14825.081213342268
 20
77.795792220104971
 30
0.0
 41
0.9996956420485195
 10
-14824.963500016414
 20
77.852505687086193
 30
0.0
 41
1.0
 10
-14824.933059611529
 20
77.867171663812911
 30
0.0
 41
1.0
 10
-14824.902619206643
 20
77.881837640539644
 30
0.0
 41
1.0
 10
-14824.799642099908
 20
77.931451298979738
 30
0.0
 41
0.9998070570175325
 10
-14824.694795710971
 20
77.976981885878331
 30
0.0
 41
1.0
 10
-14824.589949322011
 20
78.022512472787142
 30
0.0
 41
0.9997827436148408
 10
-14824.483296385415
 20
78.063633644093613
 30
0.0
 41
1.0
 10
-14824.464073535786
 20
78.071045217724844
 30
0.0
 41
1.0
 10
-14824.444850686157
 20
78.078456791356075
 30
0.0
 41
1.0
 10
-14824.299752050276
 20
78.134401109935695
 30
0.0
 41
0.9988031841977033
 10
-14824.149881687663
 20
78.175901174105107
 30
0.0
 41
1.0
 10
-14824.124964439303
 20
78.182800919911188
 30
0.0
 41
1.0
 10
-14824.100047190941
 20
78.189700665717254
 30
0.0
 41
1.0
 10
-14823.932777165292
 20
78.236018808124143
 30
0.0
 41
0.9984748040549624
 10
-14823.761420256658
 20
78.263613040385962
 30
0.0
 41
1.0
 10
-14823.756681120412
 20
78.264376200899136
 30
0.0
 41
1.0
 10
-14823.751941984165
 20
78.265139361412295
 30
0.0
 41
1.0
 10
-14823.590063348016
 20
78.291207272651036
 30
0.0
 41
0.9984436495477078
 10
-14823.426288604283
 20
78.299085226469515
 30
0.0
 41
1.0
 10
-14823.404591396151
 20
78.300128913669226
 30
0.0
 41
1.0
 10
-14823.382894188018
 20
78.301172600868924
 30
0.0
 41
1.0
 10
-14823.262513860565
 20
78.306963180288619
 30
0.0
 41
0.998795478933372
 10
-14823.142145615649
 20
78.300926652545968
 30
0.0
 41
1.0
 10
-14823.122180823157
 20
78.299925408207443
 30
0.0
 41
1.0
 10
-14823.102216030664
 20
78.298924163868918
 30
0.0
 41
1.0
 10
-14823.021777370719
 20
78.294890124801782
 30
0.0
 41
0.9997941595878496
 10
-14822.941568592645
 20
78.287596058882627
 30
0.0
 41
1.0
 10
-14822.861359814549
 20
78.280301992961483
 30
0.0
 41
0.9998589466238266
 10
-14822.781441267693
 20
78.270318138511286
 30
0.0
 41
1.0
 10
-14822.749035065885
 20
78.266269781592172
 30
0.0
 41
1.0
 10
-14822.716628864078
 20
78.262221424673044
 30
0.0
 41
1.0
 10
-14822.571897913607
 20
78.244140856384462
 30
0.0
 41
0.9993495063249465
 10
-14822.428846669842
 20
78.215675146642667
 30
0.0
 41
1.0
 10
-14822.395912972686
 20
78.209121683427128
 30
0.0
 41
1.0
 10
-14822.362979275531
 20
78.202568220211589
 30
0.0
 41
1.0
 10
-14822.25368545233
 20
78.180819886077671
 30
0.0
 41
0.999678871555949
 10
-14822.145633880376
 20
78.153562086714828
 30
0.0
 41
1.0
 10
-14822.143570877848
 20
78.153041660144581
 30
0.0
 41
1.0
 10
-14822.14150787532
 20
78.152521233574333
 30
0.0
 41
1.0
 10
-14822.037582308441
 20
78.126304287357925
 30
0.0
 41
0.9995480654492385
 10
-14821.93542007319
 20
78.093889330727507
 30
0.0
 41
1.0
 10
-14821.933730431072
 20
78.093353225817026
 30
0.0
 41
1.0
 10
-14821.932040788954
 20
78.092817120906545
 30
0.0
 41
1.0
 10
-14821.833257837974
 20
78.061474374108727
 30
0.0
 41
0.9993867959452588
 10
-14821.736910679519
 20
78.023295004813235
 30
0.0
 41
1.0
 10
-14821.735667730431
 20
78.02280246291518
 30
0.0
 41
1.0
 10
-14821.73442478134
 20
78.022309921017126
 30
0.0
 41
1.0
 10
-14821.640563521079
 20
77.985115635525133
 30
0.0
 41
0.9992050256520159
 10
-14821.549963846042
 20
77.940561736284735
 30
0.0
 41
1.0
 10
-14821.549229163327
 20
77.940200443822491
 30
0.0
 41
1.0
 10
-14821.548494480612
 20
77.939839151360246
 30
0.0
 41
1.0
 10
-14821.459364171013
 20
77.896007837048856
 30
0.0
 41
0.9990222350737448
 10
-14821.374454109617
 20
77.844474569347767
 30
0.0
 41
1.0
 10
-14821.374270224322
 20
77.844362966434986
 30
0.0
 41
1.0
 10
-14821.374086339025
 20
77.844251363522204
 30
0.0
 41
1.0
 10
-14821.28954404821
 20
77.792941301639502
 30
0.0
 41
0.998864274381142
 10
-14821.210269513604
 20
77.733817114124122
 30
0.0
 41
1.0
 10
-14821.130994978976
 20
77.674692926589685
 30
0.0
 41
0.9987681233316198
 10
-14821.057971194694
 20
77.60800223518433
 30
0.0
 41
1.0
 10
-14821.057642266736
 20
77.607701833976975
 30
0.0
 41
1.0
 10
-14821.057313338777
 20
77.60740143276962
 30
0.0
 41
1.0
 10
-14820.983631698567
 20
77.540109938937462
 30
0.0
 41
0.9987496570898645
 10
-14820.917037893236
 20
77.465797124844983
 30
0.0
 41
1.0
 10
-14820.916265723479
 20
77.464935451491527
 30
0.0
 41
1.0
 10
-14820.915493553723
 20
77.464073778138072
 30
0.0
 41
1.0
 10
-14820.847355408869
 20
77.388037617330184
 30
0.0
 41
0.9988147669823494
 10
-14820.786933154635
 20
77.305736610472934
 30
0.0
 41
1.0
 10
-14820.785813828565
 20
77.304211979130542
 30
0.0
 41
1.0
 10
-14820.784694502494
 20
77.302687347788151
 30
0.0
 41
1.0
 10
-14820.722033596105
 20
77.217337078230017
 30
0.0
 41
0.9989452636217073
 10
-14820.667466683131
 20
77.126598389052432
 30
0.0
 41
1.0
 10
-14820.666117957055
 20
77.124355608041412
 30
0.0
 41
1.0
 10
-14820.664769230978
 20
77.122112827030378
 30
0.0
 41
1.0
 10
-14820.607504865851
 20
77.026888575831578
 30
0.0
 41
0.9991046436068891
 10
-14820.558495652538
 20
76.927164142823273
 30
0.0
 41
1.0
 10
-14820.557031790941
 20
76.924185462736503
 30
0.0
 41
1.0
 10
-14820.555567929345
 20
76.921206782649733
 30
0.0
 41
1.0
 10
-14820.503630992842
 20
76.815524989476913
 30
0.0
 41
0.9992763831102139
 10
-14820.45987786429
 20
76.706200927527249
 30
0.0
 41
1.0
 10
-14820.458398594626
 20
76.702504739991767
 30
0.0
 41
1.0
 10
-14820.456919324963
 20
76.698808552456285
 30
0.0
 41
1.0
 10
-14820.410207657089
 20
76.582092115463126
 30
0.0
 41
0.9994163472879349
 10
-14820.371574625911
 20
76.462458527035594
 30
0.0
 41
1.0
 10
-14820.370336473647
 20
76.458624383198782
 30
0.0
 41
1.0
 10
-14820.369098321382
 20
76.454790239361984
 30
0.0
 41
1.0
 10
-14820.329214760372
 20
76.331284177900216
 30
0.0
 41
0.9997268055894171
 10
-14820.295146704466
 20
76.206049145974475
 30
0.0
 41
1.0
 10
-14820.294216524191
 20
76.202629779841828
 30
0.0
 41
1.0
 10
-14820.293286343915
 20
76.199210413709167
 30
0.0
 41
1.0
 10
-14820.261078648551
 20
76.080814114002735
 30
0.0
 41
0.9996701319003551
 10
-14820.234993031783
 20
75.960920160760452
 30
0.0
 41
1.0
 10
-14820.208907415024
 20
75.841026207562464
 30
0.0
 41
0.9995785451103938
 10
-14820.189823837696
 20
75.719820446597325
 30
0.0
 41
1.0
 10
-14820.185604055514
 20
75.693019291781326
 30
0.0
 41
1.0
 10
-14820.181384273332
 20
75.666218136965341
 30
0.0
 41
1.0
 10
-14820.154809297388
 20
75.497432163246728
 30
0.0
 41
0.9979925101211765
 10
-14820.149783711462
 20
75.326640835140552
 30
0.0
 41
1.0
 10
-14820.148958899035
 20
75.298610111572088
 30
0.0
 41
1.0
 10
-14820.148134086608
 20
75.27057938800364
 30
0.0
 41
1.0
 10
-14820.14475812554
 20
75.155849506962113
 30
0.0
 41
0.9995314902269491
 10
-14820.148408317675
 20
75.041128023297006
 30
0.0
 41
1.0
 10
-14820.152058509813
 20
74.926406539540693
 30
0.0
 41
0.9996245486943426
 10
-14820.161987604946
 20
74.812057268410342
 30
0.0
 41
1.0
 10
-14820.162150652941
 20
74.810179512280428
 30
0.0
 41
1.0
 10
-14820.162313700934
 20
74.808301756150513
 30
0.0
 41
1.0
 10
-14820.172568892052
 20
74.690196972762209
 30
0.0
 41
0.9997286095000113
 10
-14820.188314215622
 20
74.572698063874839
 30
0.0
 41
1.0
 10
-14820.188707708272
 20
74.569761639166217
 30
0.0
 41
1.0
 10
-14820.189101200924
 20
74.566825214457594
 30
0.0
 41
1.0
 10
-14820.20563350979
 20
74.443453456187854
 30
0.0
 41
0.9998265533967877
 10
-14820.226748968518
 20
74.320782981427996
 30
0.0
 41
1.0
 10
-14820.22742551066
 20
74.3168526028918
 30
0.0
 41
1.0
 10
-14820.228102052803
 20
74.312922224355589
 30
0.0
 41
1.0
 10
-14820.250570595803
 20
74.182390992592033
 30
0.0
 41
0.9999022530854848
 10
-14820.276680060406
 20
74.052539023986554
 30
0.0
 41
1.0
 10
-14820.27765870158
 20
74.047671881562891
 30
0.0
 41
1.0
 10
-14820.278637342752
 20
74.042804739139228
 30
0.0
 41
1.0
 10
-14820.306704089702
 20
73.903218485678181
 30
0.0
 41
0.9999524761934989
 10
-14820.337487058547
 20
73.764205992465193
 30
0.0
 41
1.0
 10
-14820.338763165711
 20
73.758443233211011
 30
0.0
 41
1.0
 10
-14820.340039272876
 20
73.752680473956843
 30
0.0
 41
1.0
 10
-14820.37337445605
 20
73.602142462242568
 30
0.0
 41
0.9999813588717502
 10
-14820.40854545683
 20
73.452022749658624
 30
0.0
 41
1.0
 10
-14820.410099382301
 20
73.445390159172774
 30
0.0
 41
1.0
 10
-14820.411653307772
 20
73.438757568686924
 30
0.0
 41
1.0
 10
-14820.44993215953
 20
73.275372674979764
 30
0.0
 41
0.9999955237658599
 10
-14820.489188037573
 20
73.112219771119868
 30
0.0
 41
1.0
 10
-14820.501469673152
 20
73.061175580826742
 30
0.0
 41
1.0
 10
-14820.51375130873
 20
73.010131390533616
 30
0.0
 41
1.0
 10
-14820.577570457899
 20
72.744890106203286
 30
0.0
 41
0.9999993604685302
 10
-14820.641989404976
 20
72.47979385590088
 30
0.0
 41
1.0
 10
-14820.646708240609
 20
72.460374947508512
 30
0.0
 41
1.0
 10
-14820.651427076242
 20
72.440956039116145
 30
0.0
 41
1.0
 10
-14820.725283694492
 20
72.137021972392461
 30
0.0
 41
0.9999659914735427
 10
-14820.804143290361
 20
71.83434742589391
 30
0.0
 41
1.0
 10
-14820.809095979304
 20
71.815338288663412
 30
0.0
 41
1.0
 10
-14820.814048668248
 20
71.796329151432928
 30
0.0
 41
1.0
 10
-14820.90281364196
 20
71.455636330631151
 30
0.0
 41
0.9999441976029818
 10
-14820.998756674895
 20
71.116894905435473
 30
0.0
 41
1.0
 10
-14821.015457193353
 20
71.057931192797497
 30
0.0
 41
1.0
 10
-14821.032157711808
 20
70.998967480159536
 30
0.0
 41
1.0
 10
-14821.161501781613
 20
70.542298629836196
 30
0.0
 41
0.9999625120732314
 10
-14821.298734548922
 20
70.087938095885832
 30
0.0
 41
1.0
 10
-14821.334524492058
 20
69.969442069084607
 30
0.0
 41
1.0
 10
-14821.370314435195
 20
69.850946042283383
 30
0.0
 41
1.0
 10
-14821.444834639193
 20
69.604218964323906
 30
0.0
 41
0.9999793386318548
 10
-14821.522520662289
 20
69.358470325217013
 30
0.0
 41
1.0
 10
-14821.600206685427
 20
69.112721685980887
 30
0.0
 41
1.0
 10
-14821.610986244299
 20
69.078703781606237
 30
0.0
 41
1.0
 10
-14823.461359297569
 20
63.191631859138624
 30
0.0
 41
1.0
 10
-14825.311732350838
 20
57.304559936671012
 30
0.0
 41
1.0
 10
-14826.272989040861
 20
57.304559936671012
 30
0.0
 41
1.0
 10
-14827.234245730884
 20
57.304559936671012
 30
0.0
 41
1.0
 10
-14825.615300952206
 20
62.45258843846068
 30
0.0
 41
1.0
 10
-14823.996356173528
 20
67.600616940250347
 30
0.0
 41
1.0
 10
-14823.951190350308
 20
67.744648162664745
 30
0.0
 41
1.0
 10
-14823.906024527088
 20
67.888679385079143
 30
0.0
 41
1.0
 10
-14823.735720109773
 20
68.431770414085534
 30
0.0
 41
0.9999911657889742
 10
-14823.569987298135
 20
68.976273945316052
 30
0.0
 41
1.0
 10
-14823.54029135465
 20
69.073837885319023
 30
0.0
 41
1.0
 10
-14823.510595411162
 20
69.171401825321979
 30
0.0
 41
1.0
 10
-14823.404254486479
 20
69.520777476606611
 30
0.0
 41
0.9999952428107776
 10
-14823.30007089713
 20
69.870802501029402
 30
0.0
 41
1.0
 10
-14823.29501142683
 20
69.887800775198542
 30
0.0
 41
1.0
 10
-14823.289951956529
 20
69.904799049367696
 30
0.0
 41
1.0
 10
-14823.195887307826
 20
70.220827525308948
 30
0.0
 41
0.9999931687548346
 10
-14823.104161469932
 20
70.537542738649336
 30
0.0
 41
1.0
 10
-14823.099226205479
 20
70.5545834478975
 30
0.0
 41
1.0
 10
-14823.094290941026
 20
70.571624157145678
 30
0.0
 41
1.0
 10
-14823.012435632059
 20
70.854257951919408
 30
0.0
 41
0.9999893840786708
 10
-14822.933188405601
 20
71.137634081166198
 30
0.0
 41
1.0
 10
-14822.853941179159
 20
71.421010210358418
 30
0.0
 41
0.999983398007517
 10
-14822.777964938428
 20
71.705280793344187
 30
0.0
 41
1.0
 10
-14822.768961001679
 20
71.738969671927919
 30
0.0
 41
1.0
 10
-14822.759957064927
 20
71.77265855051165
 30
0.0
 41
1.0
 10
-14822.690992516076
 20
72.030694382749161
 30
0.0
 41
0.9999233658066646
 10
-14822.62843754487
 20
72.290358541419209
 30
0.0
 41
1.0
 10
-14822.56588257365
 20
72.550022700141653
 30
0.0
 41
1.0
 10
-14822.526399154793
 20
72.713829364568028
 30
0.0
 41
1.0
 10
-14822.521420550811
 20
72.734484326455487
 30
0.0
 41
1.0
 10
-14822.516441946829
 20
72.755139288342932
 30
0.0
 41
1.0
 10
-14822.486915735935
 20
72.877636028995141
 30
0.0
 41
0.9999868670879466
 10
-14822.458646651939
 20
73.000428974639817
 30
0.0
 41
1.0
 10
-14822.454749164714
 20
73.01735856235895
 30
0.0
 41
1.0
 10
-14822.450851677486
 20
73.034288150078083
 30
0.0
 41
1.0
 10
-14822.430377567873
 20
73.123221920596308
 30
0.0
 41
0.9999778173352082
 10
-14822.411089969828
 20
73.212420537515754
 30
0.0
 41
1.0
 10
-14822.391802371701
 20
73.301619154797635
 30
0.0
 41
0.9999602692856427
 10
-14822.374108013062
 20
73.391147443274022
 30
0.0
 41
1.0
 10
-14822.370904180994
 20
73.407357898108842
 30
0.0
 41
1.0
 10
-14822.367700348927
 20
73.423568352943676
 30
0.0
 41
1.0
 10
-14822.343598326146
 20
73.545517551117641
 30
0.0
 41
0.9995617985322266
 10
-14822.326754978929
 20
73.668679298795738
 30
0.0
 41
1.0
 10
-14822.324290489018
 20
73.686700116188206
 30
0.0
 41
1.0
 10
-14822.321825999108
 20
73.70472093358066
 30
0.0
 41
1.0
 10
-14822.30154273806
 20
73.85303598327917
 30
0.0
 41
0.9991121410637747
 10
-14822.293817384472
 20
74.002532082085963
 30
0.0
 41
1.0
 10
-14822.292898594449
 20
74.020311918661633
 30
0.0
 41
1.0
 10
-14822.291979804424
 20
74.038091755237289
 30
0.0
 41
1.0
 10
-14822.286092030885
 20
74.152028180891605
 30
0.0
 41
0.9989792494904083
 10
-14822.290511123003
 20
74.266031016790521
 30
0.0
 41
1.0
 10
-14822.291159094872
 20
74.282747262706735
 30
0.0
 41
1.0
 10
-14822.291807066738
 20
74.299463508622949
 30
0.0
 41
1.0
 10
-14822.294930215119
 20
74.380033852677059
 30
0.0
 41
0.9997820295393063
 10
-14822.301414212496
 20
74.46040357443303
 30
0.0
 41
1.0
 10
-14822.307898209869
 20
74.540773296163053
 30
0.0
 41
0.9998335105973283
 10
-14822.317310405379
 20
74.620852912595623
 30
0.0
 41
1.0
 10
-14822.318905330056
 20
74.634422643094467
 30
0.0
 41
1.0
 10
-14822.320500254735
 20
74.647992373593297
 30
0.0
 41
1.0
 10
-14822.333102299597
 20
74.755211450988213
 30
0.0
 41
0.9996876457879999
 10
-14822.35104621239
 20
74.861666878685114
 30
0.0
 41
1.0
 10
-14822.353277875547
 20
74.874906613993645
 30
0.0
 41
1.0
 10
-14822.355509538704
 20
74.888146349302176
 30
0.0
 41
1.0
 10
-14822.369305360116
 20
74.969992493212004
 30
0.0
 41
0.9995547496489853
 10
-14822.387958682002
 20
75.050869990358478
 30
0.0
 41
1.0
 10
-14822.388332638873
 20
75.052491401061303
 30
0.0
 41
1.0
 10
-14822.388706595744
 20
75.054112811764142
 30
0.0
 41
1.0
 10
-14822.406612003893
 20
75.131747487546448
 30
0.0
 41
0.9994899427173692
 10
-14822.429436912575
 20
75.208080770384186
 30
0.0
 41
1.0
 10
-14822.429895439316
 20
75.209614220179617
 30
0.0
 41
1.0
 10
-14822.43035396606
 20
75.211147669975063
 30
0.0
 41
1.0
 10
-14822.452261821256
 20
75.284414053227664
 30
0.0
 41
0.9993784877588967
 10
-14822.479277456361
 20
75.355954758377493
 30
0.0
 41
1.0
 10
-14822.479809147339
 20
75.357362741101312
 30
0.0
 41
1.0
 10
-14822.480340838318
 20
75.358770723825131
 30
0.0
 41
1.0
 10
-14822.50629309147
 20
75.427495463543792
 30
0.0
 41
0.9992430832251373
 10
-14822.537509626625
 20
75.493994615604834
 30
0.0
 41
1.0
 10
-14822.538091742677
 20
75.495234670711085
 30
0.0
 41
1.0
 10
-14822.538673858728
 20
75.49647472581735
 30
0.0
 41
1.0
 10
-14822.568726161782
 20
75.560493767665179
 30
0.0
 41
0.9990789632805175
 10
-14822.604156788562
 20
75.621700379422691
 30
0.0
 41
1.0
 10
-14822.604752494746
 20
75.622729465286312
 30
0.0
 41
1.0
 10
-14822.605348200932
 20
75.623758551149933
 30
0.0
 41
1.0
 10
-14822.63958741534
 20
75.682906991175571
 30
0.0
 41
0.998887480111606
 10
-14822.67924669137
 20
75.738566703590095
 30
0.0
 41
1.0
 10
-14822.679802217443
 20
75.739346355275529
 30
0.0
 41
1.0
 10
-14822.680357743515
 20
75.740126006960949
 30
0.0
 41
1.0
 10
-14822.718905967411
 20
75.794226416019342
 30
0.0
 41
0.9986762060687091
 10
-14822.762808438678
 20
75.844080130447082
 30
0.0
 41
1.0
 10
-14822.763252399014
 20
75.844584272268548
 30
0.0
 41
1.0
 10
-14822.76369635935
 20
75.84508841409
 30
0.0
 41
1.0
 10
-14822.806710909961
 20
75.893933844894235
 30
0.0
 41
0.9984621642481184
 10
-14822.854868466733
 20
75.93771714535751
 30
0.0
 41
1.0
 10
-14822.85511510124
 20
75.937941377511393
 30
0.0
 41
1.0
 10
-14822.855361735745
 20
75.938165609665276
 30
0.0
 41
1.0
 10
-14822.903026023499
 20
75.981500445819506
 30
0.0
 41
0.9982724693854812
 10
-14822.955444655352
 20
76.018944796346432
 30
0.0
 41
1.0
 10
-14823.007863287197
 20
76.056389146866991
 30
0.0
 41
0.9981399180155357
 10
-14823.064449350599
 20
76.087175666314693
 30
0.0
 41
1.0
 10
-14823.06449501267
 20
76.087200509468232
 30
0.0
 41
1.0
 10
-14823.064540674743
 20
76.087225352621772
 30
0.0
 41
1.0
 10
-14823.121218062301
 20
76.118061558384198
 30
0.0
 41
0.9980927086826449
 10
-14823.181263413368
 20
76.141678367235016
 30
0.0
 41
1.0
 10
-14823.181703583075
 20
76.141851493108433
 30
0.0
 41
1.0
 10
-14823.182143752783
 20
76.14202461898185
 30
0.0
 41
1.0
 10
-14823.24306944327
 20
76.165987679583409
 30
0.0
 41
0.9981411356560097
 10
-14823.306457964676
 20
76.182360321090826
 30
0.0
 41
1.0
 10
-14823.307340081377
 20
76.182588163295947
 30
0.0
 41
1.0
 10
-14823.308222198077
 20
76.182816005501081
 30
0.0
 41
1.0
 10
-14823.373374952875
 20
76.199644331417232
 30
0.0
 41
0.9983031812932242
 10
-14823.440042381875
 20
76.208783692594452
 30
0.0
 41
1.0
 10
-14823.448913407279
 20
76.209999811265646
 30
0.0
 41
1.0
 10
-14823.457784432681
 20
76.211215929936856
 30
0.0
 41
1.0
 10
-14823.512134075194
 20
76.218666659928772
 30
0.0
 41
0.9983887708259825
 10
-14823.566977924476
 20
76.219911333560958
 30
0.0
 41
1.0
 10
-14823.575041329694
 20
76.220094331435774
 30
0.0
 41
1.0
 10
-14823.583104734911
 20
76.220277329310605
 30
0.0
 41
1.0
 10
-14823.621821773741
 20
76.221156007193471
 30
0.0
 41
0.9998869563082325
 10
-14823.660547726973
 20
76.220870137834481
 30
0.0
 41
1.0
 10
-14823.69927368014
 20
76.22058426847596
 30
0.0
 41
0.9999972320174468
 10
-14823.737997859396
 20
76.220116168945694
 30
0.0
 41
1.0
 10
-14823.757350875971
 20
76.219882228856392
 30
0.0
 41
1.0
 10
-14823.776703892545
 20
76.219648288767075
 30
0.0
 41
1.0
 10
-14823.854134104933
 20
76.218712309059129
 30
0.0
 41
0.9997304945086357
 10
-14823.931437411158
 20
76.214183215272982
 30
0.0
 41
1.0
 10
-14823.94048705286
 20
76.213653009283163
 30
0.0
 41
1.0
 10
-14823.949536694563
 20
76.213122803293345
 30
0.0
 41
1.0
 10
-14824.044939284204
 20
76.207533297527007
 30
0.0
 41
0.9997888306416578
 10
-14824.140031620049
 20
76.198028333038565
 30
0.0
 41
1.0
 10
-14824.148752681624
 20
76.197156618406211
 30
0.0
 41
1.0
 10
-14824.157473743198
 20
76.196284903773858
 30
0.0
 41
1.0
 10
-14824.270008202186
 20
76.185036510020154
 30
0.0
 41
0.9984170238192104
 10
-14824.380567349535
 20
76.161220428084775
 30
0.0
 41
1.0
 10
-14824.416948480517
 20
76.15338339227965
 30
0.0
 41
1.0
 10
-14824.453329611501
 20
76.145546356474526
 30
0.0
 41
1.0
 10
-14824.568520679921
 20
76.120732489964979
 30
0.0
 41
0.9976592854205451
 10
-14824.679248846336
 20
76.080433812815727
 30
0.0
 41
1.0
 10
-14824.789977012748
 20
76.040135135665381
 30
0.0
 41
0.9993255074354212
 10
-14824.897448811549
 20
75.991818237168459
 30
0.0
 41
1.0
 10
-14824.902073990463
 20
75.989738860972579
 30
0.0
 41
1.0
 10
-14824.906699169378
 20
75.987659484776714
 30
0.0
 41
1.0
 10
-14825.023421326016
 20
75.935183833885887
 30
0.0
 41
0.997647507827259
 10
-14825.13186867032
 20
75.867235844230635
 30
0.0
 41
1.0
 10
-14825.150211064443
 20
75.855743365422924
 30
0.0
 41
1.0
 10
-14825.168553458569
 20
75.844250886615214
 30
0.0
 41
1.0
 10
-14825.252755650141
 20
75.791493765834346
 30
0.0
 41
0.9995131336407441
 10
-14825.333503365106
 20
75.73358755387585
 30
0.0
 41
1.0
 10
-14825.414251080079
 20
75.675681341910419
 30
0.0
 41
0.9995810107607537
 10
-14825.49151272782
 20
75.613199659434457
 30
0.0
 41
1.0
 10
-14825.494482759015
 20
75.610797787981127
 30
0.0
 41
1.0
 10
-14825.497452790212
 20
75.608395916527797
 30
0.0
 41
1.0
 10
-14825.58065450036
 20
75.541110491134702
 30
0.0
 41
0.999661783795438
 10
-14825.660245187497
 20
75.469590035572281
 30
0.0
 41
1.0
 10
-14825.672375938382
 20
75.458689302575124
 30
0.0
 41
1.0
 10
-14825.684506689266
 20
75.447788569577952
 30
0.0
 41
1.0
 10
-14825.752782216647
 20
75.386435954120998
 30
0.0
 41
0.999726775005057
 10
-14825.818115724931
 20
75.32195941759278
 30
0.0
 41
1.0
 10
-14825.883449233192
 20
75.257482881090539
 30
0.0
 41
0.99996672889613
 10
-14825.947722176366
 20
75.191949074169671
 30
0.0
 41
1.0
 10
-14826.016549624139
 20
75.121771415413207
 30
0.0
 41
1.0
 10
-14826.085377071911
 20
75.051593756656757
 30
0.0
 41
1.0
 10
-14826.287304910613
 20
74.845704632241706
 30
0.0
 41
0.9988205335173844
 10
-14826.4683105276
 20
74.621200400172043
 30
0.0
 41
1.0
 10
-14826.4989504925
 20
74.583197149748798
 30
0.0
 41
1.0
 10
-14826.529590457398
 20
74.545193899325568
 30
0.0
 41
1.0
 10
-14826.771876004188
 20
74.244683166402396
 30
0.0
 41
0.9997077826754858
 10
-14826.999353955296
 20
73.932813372181897
 30
0.0
 41
1.0
 10
-14827.001077370423
 20
73.930450588805769
 30
0.0
 41
1.0
 10
-14827.002800785553
 20
73.928087805429641
 30
0.0
 41
1.0
 10
-14827.233725566917
 20
73.611492444457767
 30
0.0
 41
0.9989147567078891
 10
-14827.434189069798
 20
73.274782983277902
 30
0.0
 41
1.0
 10
-14827.458930215133
 20
73.233226402678895
 30
0.0
 41
1.0
 10
-14827.483671360467
 20
73.191669822079902
 30
0.0
 41
1.0
 10
-14827.638882659083
 20
72.93096843766439
 30
0.0
 41
0.9997476598181641
 10
-14827.782227646563
 20
72.663558689128877
 30
0.0
 41
1.0
 10
-14827.925572634078
 20
72.396148940534118
 30
0.0
 41
0.9996258967111081
 10
-14828.054080886021
 20
72.121301003890309
 30
0.0
 41
1.0
 10
-14828.067280795451
 20
72.093069603835858
 30
0.0
 41
1.0
 10
-14828.080480704881
 20
72.06483820378142
 30
0.0
 41
1.0
 10
-14828.220689425887
 20
71.764965805812182
 30
0.0
 41
0.9998735413944809
 10
-14828.351290772624
 20
71.460786206310331
 30
0.0
 41
1.0
 10
-14828.354733600636
 20
71.45276762095807
 30
0.0
 41
1.0
 10
-14828.358176428648
 20
71.444749035605795
 30
0.0
 41
1.0
 10
-14828.481892119291
 20
71.156606606967358
 30
0.0
 41
0.9999377418862911
 10
-14828.599146921519
 20
70.865775139167454
 30
0.0
 41
1.0
 10
-14828.716401723699
 20
70.574943671479218
 30
0.0
 41
0.9999508299503112
 10
-14828.827865667077
 20
70.281843994657038
 30
0.0
 41
1.0
 10
-14828.830946435737
 20
70.273742968699707
 30
0.0
 41
1.0
 10
-14828.834027204397
 20
70.265641942742377
 30
0.0
 41
1.0
 10
-14828.951652685102
 20
69.956340213987744
 30
0.0
 41
0.9999609228434939
 10
-14829.063791287967
 20
69.645007197997231
 30
0.0
 41
1.0
 10
-14829.066747298319
 20
69.636800357578039
 30
0.0
 41
1.0
 10
-14829.069703308673
 20
69.628593517158833
 30
0.0
 41
1.0
 10
-14829.187753932207
 20
69.300846820431531
 30
0.0
 41
0.9999674607403346
 10
-14829.300501458243
 20
68.971238200533207
 30
0.0
 41
1.0
 10
-14829.351899848818
 20
68.820979004804826
 30
0.0
 41
1.0
 10
-14829.403298239395
 20
68.670719809076459
 30
0.0
 41
1.0
 10
-14829.519308846175
 20
68.331571826505296
 30
0.0
 41
0.9999287532310194
 10
-14829.627190250168
 20
67.98975108746663
 30
0.0
 41
1.0
 10
-14829.673667506398
 20
67.842488542800567
 30
0.0
 41
1.0
 10
-14829.72014476263
 20
67.695225998134489
 30
0.0
 41
1.0
 10
-14829.735071654199
 20
67.647930348295262
 30
0.0
 41
0.9999998224876284
 10
-14829.749942162869
 20
67.600616940250347
 30
0.0
 41
1.0
 10
-14831.370598299665
 20
62.45258843846068
 30
0.0
 41
1.0
 10
-14832.99125443646
 20
57.304559936671012
 30
0.0
 41
1.0
 10
-14833.896562880351
 20
57.304559936671012
 30
0.0
 41
1.0
 10
-14834.801871324242
 20
57.304559936671012
 30
0.0
 41
1.0
 10
-14832.949786912855
 20
63.191631859138624
 30
0.0
 41
1.0
 10
-14831.097702501469
 20
69.078703781606237
 30
0.0
 41
1.0
 10
-14831.087580743166
 20
69.110746995056161
 30
0.0
 41
1.0
 10
-14831.014973074316
 20
69.341046536882004
 30
0.0
 41
1.0
 10
-14830.942365405484
 20
69.571346078649952
 30
0.0
 41
0.999982568197816
 10
-14830.872482366303
 20
69.802486973614137
 30
0.0
 41
1.0
 10
-14830.824191304093
 20
69.962211557275594
 30
0.0
 41
1.0
 10
-14830.775900241882
 20
70.121936140937052
 30
0.0
 41
1.0
 10
-14830.678747888596
 20
70.443271362610432
 30
0.0
 41
0.9999672528962721
 10
-14830.586809082995
 20
70.766136908122689
 30
0.0
 41
1.0
 10
-14830.584020199285
 20
70.77593075365435
 30
0.0
 41
1.0
 10
-14830.581231315575
 20
70.785724599186011
 30
0.0
 41
1.0
 10
-14830.494870277336
 20
71.089002453832592
 30
0.0
 41
0.9999899749165513
 10
-14830.411228667837
 20
71.393041542161427
 30
0.0
 41
1.0
 10
-14830.401122748804
 20
71.429776779891426
 30
0.0
 41
1.0
 10
-14830.391016829773
 20
71.466512017621426
 30
0.0
 41
1.0
 10
-14830.327587058289
 20
71.697080630658917
 30
0.0
 41
0.9999214200502966
 10
-14830.269957629924
 20
71.929166972823168
 30
0.0
 41
1.0
 10
-14830.257191777731
 20
71.980577858264738
 30
0.0
 41
1.0
 10
-14830.244425925541
 20
72.031988743706307
 30
0.0
 41
1.0
 10
-14830.212328201533
 20
72.161253315085418
 30
0.0
 41
0.9999828681647182
 10
-14830.181745949551
 20
72.290884789500069
 30
0.0
 41
1.0
 10
-14830.151163697567
 20
72.420516263924441
 30
0.0
 41
0.9999389844478779
 10
-14830.123452708787
 20
72.550791719770061
 30
0.0
 41
1.0
 10
-14830.116314965057
 20
72.584347823656202
 30
0.0
 41
1.0
 10
-14830.109177221326
 20
72.617903927542329
 30
0.0
 41
1.0
 10
-14830.067190745076
 20
72.815291591207654
 30
0.0
 41
0.9998933699438157
 10
-14830.03098648066
 20
73.0138211990553
 30
0.0
 41
1.0
 10
-14830.029613655461
 20
73.021349219662113
 30
0.0
 41
1.0
 10
-14830.028240830261
 20
73.028877240268912
 30
0.0
 41
1.0
 10
-14829.98929091543
 20
73.242462889405289
 30
0.0
 41
0.9996850305193802
 10
-14829.961107239171
 20
73.457733894831691
 30
0.0
 41
1.0
 10
-14829.959112205803
 20
73.472972248946775
 30
0.0
 41
1.0
 10
-14829.957117172435
 20
73.488210603061844
 30
0.0
 41
1.0
 10
-14829.929709309972
 20
73.697555830236809
 30
0.0
 41
0.9994697936708198
 10
-14829.915984750751
 20
73.908241025586676
 30
0.0
 41
1.0
 10
-14829.915507681504
 20
73.915564497745152
 30
0.0
 41
1.0
 10
-14829.915030612257
 20
73.922887969903613
 30
0.0
 41
1.0
 10
-14829.902260191535
 20
74.118926220864353
 30
0.0
 41
0.9991804893143504
 10
-14829.905388507803
 20
74.315355070890746
 30
0.0
 41
1.0
 10
-14829.905472386625
 20
74.320621872308038
 30
0.0
 41
1.0
 10
-14829.905556265447
 20
74.325888673725316
 30
0.0
 41
1.0
 10
-14829.908516824076
 20
74.511783920868297
 30
0.0
 41
0.9988448329321098
 10
-14829.929308369701
 20
74.69653651069757
 30
0.0
 41
1.0
 10
-14829.930902443404
 20
74.710701366474012
 30
0.0
 41
1.0
 10
-14829.932496517109
 20
74.724866222250469
 30
0.0
 41
1.0
 10
-14829.950099915324
 20
74.88128910053517
 30
0.0
 41
0.9985503209454458
 10
-14829.984416187624
 20
75.034913284620188
 30
0.0
 41
1.0
 10
-14829.992002179693
 20
75.068873612007764
 30
0.0
 41
1.0
 10
-14829.99958817176
 20
75.102833939395339
 30
0.0
 41
1.0
 10
-14830.018732459919
 20
75.188537468695003
 30
0.0
 41
0.9991036781370769
 10
-14830.045057321575
 20
75.272314556034416
 30
0.0
 41
1.0
 10
-14830.049039547008
 20
75.284987718475733
 30
0.0
 41
1.0
 10
-14830.053021772443
 20
75.29766088091705
 30
0.0
 41
1.0
 10
-14830.071382183203
 20
75.356091643293553
 30
0.0
 41
0.9998874504368959
 10
-14830.091487390904
 20
75.413945245582681
 30
0.0
 41
1.0
 10
-14830.111592598589
 20
75.47179884782129
 30
0.0
 41
0.9994041637540486
 10
-14830.135641211531
 20
75.528127551726953
 30
0.0
 41
1.0
 10
-14830.139837995755
 20
75.537957616209425
 30
0.0
 41
1.0
 10
-14830.14403477998
 20
75.547787680691897
 30
0.0
 41
1.0
 10
-14830.171913610968
 20
75.613087846645485
 30
0.0
 41
0.999184684069564
 10
-14830.204969967654
 20
75.675925877907048
 30
0.0
 41
1.0
 10
-14830.206106574049
 20
75.678086494361949
 30
0.0
 41
1.0
 10
-14830.207243180444
 20
75.68024711081685
 30
0.0
 41
1.0
 10
-14830.238026324347
 20
75.738763909185465
 30
0.0
 41
0.9989253167922317
 10
-14830.274095748402
 20
75.794178837577419
 30
0.0
 41
1.0
 10
-14830.275149873076
 20
75.795798332339487
 30
0.0
 41
1.0
 10
-14830.27620399775
 20
75.797417827101555
 30
0.0
 41
1.0
 10
-14830.310165172457
 20
75.849593765970027
 30
0.0
 41
0.9986467172824952
 10
-14830.349362325094
 20
75.897959799597174
 30
0.0
 41
1.0
 10
-14830.350236453804
 20
75.899038401885406
 30
0.0
 41
1.0
 10
-14830.351110582513
 20
75.900117004173623
 30
0.0
 41
1.0
 10
-14830.388559477742
 20
75.946325833240962
 30
0.0
 41
0.9984001104252011
 10
-14830.430986208248
 20
75.988010940595586
 30
0.0
 41
1.0
 10
-14830.431573346366
 20
75.988587815485047
 30
0.0
 41
1.0
 10
-14830.432160484484
 20
75.989164690374508
 30
0.0
 41
1.0
 10
-14830.473412938771
 20
76.029696047970418
 30
0.0
 41
0.9982442159072221
 10
-14830.519169040101
 20
76.065064609224692
 30
0.0
 41
1.0
 10
-14830.519383835557
 20
76.065230641863721
 30
0.0
 41
1.0
 10
-14830.519598631014
 20
76.06539667450275
 30
0.0
 41
1.0
 10
-14830.564925141432
 20
76.100433170481836
 30
0.0
 41
0.9982450060843735
 10
-14830.614076120508
 20
76.129864953518336
 30
0.0
 41
1.0
 10
-14830.663227099589
 20
76.159296736557437
 30
0.0
 41
0.9983922639622722
 10
-14830.715393405757
 20
76.182976371210984
 30
0.0
 41
1.0
 10
-14830.715620283076
 20
76.183079356689973
 30
0.0
 41
1.0
 10
-14830.715847160394
 20
76.183182342168948
 30
0.0
 41
1.0
 10
-14830.768467221207
 20
76.207067947785646
 30
0.0
 41
0.998651714715092
 10
-14830.823280194074
 20
76.225369066907405
 30
0.0
 41
1.0
 10
-14830.823958115503
 20
76.225595413338951
 30
0.0
 41
1.0
 10
-14830.82463603693
 20
76.225821759770497
 30
0.0
 41
1.0
 10
-14830.880804852644
 20
76.244575571750943
 30
0.0
 41
0.9989435598963387
 10
-14830.938458239798
 20
76.258093273987285
 30
0.0
 41
1.0
 10
-14830.939538359384
 20
76.258346524241375
 30
0.0
 41
1.0
 10
-14830.94061847897
 20
76.258599774495451
 30
0.0
 41
1.0
 10
-14831.000432105286
 20
76.27262397723706
 30
0.0
 41
0.9992249241237281
 10
-14831.061163614188
 20
76.281899319952501
 30
0.0
 41
1.0
 10
-14831.062577302475
 20
76.282115228359743
 30
0.0
 41
1.0
 10
-14831.063990990762
 20
76.28233113676697
 30
0.0
 41
1.0
 10
-14831.127549876257
 20
76.292038296299282
 30
0.0
 41
0.9994396597835739
 10
-14831.191615812781
 20
76.29747121864375
 30
0.0
 41
1.0
 10
-14831.210756480257
 20
76.299094386362412
 30
0.0
 41
1.0
 10
-14831.229897147736
 20
76.300717554081075
 30
0.0
 41
1.0
 10
-14831.332244419224
 20
76.309396811862968
 30
0.0
 41
0.9987693403125811
 10
-14831.434948042814
 20
76.307893748411445
 30
0.0
 41
1.0
 10
-14831.445202377039
 20
76.307743676637259
 30
0.0
 41
1.0
 10
-14831.455456711265
 20
76.307593604863072
 30
0.0
 41
1.0
 10
-14831.565012477442
 20
76.305990260575143
 30
0.0
 41
0.9989753644968814
 10
-14831.673974477464
 20
76.294487253650232
 30
0.0
 41
1.0
 10
-14831.782936477479
 20
76.282984246725945
 30
0.0
 41
0.9983190067303612
 10
-14831.88983528845
 20
76.258949254937704
 30
0.0
 41
1.0
 10
-14831.898736240055
 20
76.256947976375358
 30
0.0
 41
1.0
 10
-14831.90763719166
 20
76.254946697813011
 30
0.0
 41
1.0
 10
-14832.032337905826
 20
76.226909148902848
 30
0.0
 41
0.9985539388308117
 10
-14832.153307659502
 20
76.185645472860074
 30
0.0
 41
1.0
 10
-14832.155653090471
 20
76.1848454290419
 30
0.0
 41
1.0
 10
-14832.157998521438
 20
76.184045385223726
 30
0.0
 41
1.0
 10
-14832.283659137047
 20
76.141181621542373
 30
0.0
 41
0.998846874649209
 10
-14832.404629479342
 20
76.086463536480508
 30
0.0
 41
1.0
 10
-14832.407812301328
 20
76.085023861922281
 30
0.0
 41
1.0
 10
-14832.410995123313
 20
76.083584187364067
 30
0.0
 41
1.0
 10
-14832.538331109594
 20
76.025986753179325
 30
0.0
 41
0.9991322885920371
 10
-14832.660431693668
 20
75.957991420988265
 30
0.0
 41
1.0
 10
-14832.678033704728
 20
75.948189218989853
 30
0.0
 41
1.0
 10
-14832.695635715785
 20
75.938387016991442
 30
0.0
 41
1.0
 10
-14832.797812396822
 20
75.881486901223582
 30
0.0
 41
0.9993860037843891
 10
-14832.895753400866
 20
75.817570885651094
 30
0.0
 41
1.0
 10
-14832.901371713713
 20
75.813904390959777
 30
0.0
 41
1.0
 10
-14832.90699002656
 20
75.810237896268447
 30
0.0
 41
1.0
 10
-14832.993694404935
 20
75.753654870064594
 30
0.0
 41
0.9998821494953778
 10
-14833.07862078075
 20
75.694436639985724
 30
0.0
 41
1.0
 10
-14833.163547156557
 20
75.635218409913634
 30
0.0
 41
0.9997976482745337
 10
-14833.246022786961
 20
75.572632001872876
 30
0.0
 41
1.0
 10
-14833.26065905177
 20
75.561525312090282
 30
0.0
 41
1.0
 10
-14833.275295316578
 20
75.550418622307689
 30
0.0
 41
1.0
 10
-14833.38704347661
 20
75.465618834692776
 30
0.0
 41
0.9998091630798296
 10
-14833.495393754649
 20
75.376518483981229
 30
0.0
 41
1.0
 10
-14833.508399507111
 20
75.365823383547053
 30
0.0
 41
1.0
 10
-14833.521405259575
 20
75.35512828311289
 30
0.0
 41
1.0
 10
-14833.655767042566
 20
75.244637731511943
 30
0.0
 41
0.9995035112315419
 10
-14833.782902920346
 20
75.125903914480858
 30
0.0
 41
1.0
 10
-14833.792550230733
 20
75.116894168322801
 30
0.0
 41
1.0
 10
-14833.802197541119
 20
75.10788442216473
 30
0.0
 41
1.0
 10
-14833.925620603879
 20
74.992618050413796
 30
0.0
 41
0.9994630424298928
 10
-14834.041229009643
 20
74.869515307197616
 30
0.0
 41
1.0
 10
-14834.044911848403
 20
74.865593727695284
 30
0.0
 41
1.0
 10
-14834.048594687165
 20
74.861672148192966
 30
0.0
 41
1.0
 10
-14834.156837415421
 20
74.74641256396815
 30
0.0
 41
0.9995160693750113
 10
-14834.257703444959
 20
74.624645146089961
 30
0.0
 41
1.0
 10
-14834.259637165045
 20
74.622310721875294
 30
0.0
 41
1.0
 10
-14834.261570885132
 20
74.619976297660642
 30
0.0
 41
1.0
 10
-14834.358569474491
 20
74.502877728218323
 30
0.0
 41
0.9996561470514723
 10
-14834.449295693157
 20
74.380854965768322
 30
0.0
 41
1.0
 10
-14834.455453359049
 20
74.372573176739863
 30
0.0
 41
1.0
 10
-14834.461611024941
 20
74.364291387711404
 30
0.0
 41
1.0
 10
-14834.540021911822
 20
74.258832203322598
 30
0.0
 41
0.9998349055172148
 10
-14834.614549193755
 20
74.150593619655638
 30
0.0
 41
1.0
 10
-14834.689076475704
 20
74.042355035966324
 30
0.0
 41
0.9999728109566497
 10
-14834.761999371625
 20
73.933029110394614
 30
0.0
 41
1.0
 10
-14834.763314587024
 20
73.931057340913242
 30
0.0
 41
1.0
 10
-14834.764629802421
 20
73.92908557143187
 30
0.0
 41
1.0
 10
-14834.84018312913
 20
73.815816106908557
 30
0.0
 41
0.9999972147389589
 10
-14834.915200939398
 20
73.702191264233008
 30
0.0
 41
1.0
 10
-14834.920172482085
 20
73.694661175662048
 30
0.0
 41
1.0
 10
-14834.925144024774
 20
73.687131087091075
 30
0.0
 41
1.0
 10
-14835.010104920369
 20
73.558446067342231
 30
0.0
 41
0.9999371979006934
 10
-14835.092160269758
 20
73.427889153591195
 30
0.0
 41
1.0
 10
-14835.09566915414
 20
73.422306225496754
 30
0.0
 41
1.0
 10
-14835.099178038519
 20
73.416723297402314
 30
0.0
 41
1.0
 10
-14835.18825115666
 20
73.275000527477999
 30
0.0
 41
0.9998272025608909
 10
-14835.271994547556
 20
73.130064650706629
 30
0.0
 41
1.0
 10
-14835.287209719569
 20
73.103731536272363
 30
0.0
 41
1.0
 10
-14835.302424891579
 20
73.077398421838097
 30
0.0
 41
1.0
 10
-14835.416598626512
 20
72.879796316179977
 30
0.0
 41
0.9995217214837868
 10
-14835.518338316064
 20
72.675513988325648
 30
0.0
 41
1.0
 10
-14835.525981878705
 20
72.66016653860973
 30
0.0
 41
1.0
 10
-14835.533625441347
 20
72.644819088893797
 30
0.0
 41
1.0
 10
-14835.620530733933
 20
72.470322630818146
 30
0.0
 41
0.9998269762606591
 10
-14835.700885200196
 20
72.292714344109527
 30
0.0
 41
1.0
 10
-14835.781239666447
 20
72.115106057433778
 30
0.0
 41
0.9998944747390042
 10
-14835.856400460987
 20
71.935238331867211
 30
0.0
 41
1.0
 10
-14835.861354130608
 20
71.923383676880945
 30
0.0
 41
1.0
 10
-14835.866307800226
 20
71.91152902189468
 30
0.0
 41
1.0
 10
-14835.946954860769
 20
71.718532081905707
 30
0.0
 41
0.9999506734412879
 10
-14836.023752389672
 20
71.523971277046712
 30
0.0
 41
1.0
 10
-14836.038352354857
 20
71.48698335546041
 30
0.0
 41
1.0
 10
-14836.052952320042
 20
71.449995433874108
 30
0.0
 41
1.0
 10
-14836.100549918505
 20
71.329410472374491
 30
0.0
 41
0.9999912393943934
 10
-14836.147136362599
 20
71.208431269494668
 30
0.0
 41
1.0
 10
-14836.193722806613
 20
71.087452066816809
 30
0.0
 41
0.9999927113966497
 10
-14836.239384100985
 20
70.966120659375534
 30
0.0
 41
1.0
 10
-14836.253352532398
 20
70.929003677337278
 30
0.0
 41
1.0
 10
-14836.267320963811
 20
70.891886695299036
 30
0.0
 41
1.0
 10
-14836.34091912097
 20
70.696321323881534
 30
0.0
 41
0.9999487550954319
 10
-14836.410542745907
 20
70.499305958803873
 30
0.0
 41
1.0
 10
-14836.434136355878
 20
70.432542648411157
 30
0.0
 41
1.0
 10
-14836.45772996585
 20
70.365779338018427
 30
0.0
 41
1.0
 10
-14836.552415600212
 20
70.097845503223084
 30
0.0
 41
0.9999808436929158
 10
-14836.64377718886
 20
69.828760071941815
 30
0.0
 41
1.0
 10
-14836.735138777542
 20
69.559674640552942
 30
0.0
 41
0.9999873932887285
 10
-14836.823793486286
 20
69.289685285453004
 30
0.0
 41
1.0
 10
-14836.843885843122
 20
69.228495952805673
 30
0.0
 41
1.0
 10
-14836.863978199955
 20
69.167306620158342
 30
0.0
 41
1.0
 10
-14836.992817622397
 20
68.774938599687587
 30
0.0
 41
0.9999794883029065
 10
-14837.116620407347
 20
68.380952393437497
 30
0.0
 41
1.0
 10
-14837.12777266682
 20
68.345461783093469
 30
0.0
 41
1.0
 10
-14837.13892492629
 20
68.309971172749442
 30
0.0
 41
1.0
 10
-14837.281483090177
 20
67.856298420699119
 30
0.0
 41
0.9999982761801984
 10
-14837.422355530158
 20
67.402099398677819
 30
0.0
 41
1.0
 10
-14839.010495862731
 20
62.353329667674416
 30
0.0
 41
1.0
 10
-14840.598636195304
 20
57.304559936671012
 30
0.0
 41
1.0
 10
-14841.54738680678
 20
57.304559936671012
 30
0.0
 41
1.0
 10
-14842.496137418257
 20
57.304559936671012
 30
0.0
 41
1.0
 10
-14839.257852932104
 20
67.631882136617151
 30
0.0
 41
1.0
 10
-14836.01956844595
 20
77.959204336563289
 30
0.0
 41
1.0
  0
LWPOLYLINE
  5
5E
100
AcDbEntity
  8
0
370
              15
390
0
  6
Continuous
 62
               7
100
AcDbPolyline
 90
      232
 70
             128
 10
-14861.723114219778
 20
76.874861505048557
 42
0.0004370800636712
 10
-14861.77599139347
 20
76.80619486628666
 10
-14861.815275624976
 20
76.755087752895406
 42
0.0030481992155433
 10
-14861.945614342021
 20
76.58336606065059
 10
-14861.984126013846
 20
76.531979276763195
 42
0.0042058245752401
 10
-14862.188111064477
 20
76.254973531742095
 10
-14862.240516187016
 20
76.182540684908645
 42
0.0120948898732532
 10
-14862.536560103752
 20
75.751791080400324
 10
-14862.632752602894
 20
75.604310345144796
 42
0.0141601263946223
 10
-14862.936396649822
 20
75.108641008399445
 10
-14862.975933917298
 20
75.039797040879449
 42
0.0071131081343851
 10
-14863.181206240486
 20
74.670294242129557
 42
0.0068458791026501
 10
-14863.376085767344
 20
74.295202678627518
 10
-14863.382897629788
 20
74.281640964929693
 42
0.0064120880286766
 10
-14863.581039879817
 20
73.874216490044176
 10
-14863.588574565349
 20
73.858204633289461
 42
0.0058857236400176
 10
-14863.791329957157
 20
73.413828522399285
 10
-14863.799504883515
 20
73.395338368620742
 42
0.0053189741869632
 10
-14864.008209196138
 20
72.909374894809758
 10
-14864.016957001862
 20
72.888393016506825
 42
0.0047503650417324
 10
-14864.232930727978
 20
72.356193583389725
 10
-14864.242198976362
 20
72.332717207189262
 42
0.0042071762157964
 10
-14864.466746360036
 20
71.749623613262003
 10
-14864.476495762439
 20
71.723657438249802
 42
0.003668008649228
 10
-14864.710950405739
 20
71.085022053751899
 10
-14864.721158185599
 20
71.056573519373842
 42
0.0032573142618029
 10
-14864.966790471481
 20
70.357720859863434
 10
-14865.035440992477
 20
70.158257775363154
 42
0.0026133366655484
 10
-14865.383886191164
 20
69.128394491895733
 10
-14865.447142978765
 20
68.938163656204338
 42
0.0020592950748663
 10
-14865.661006047632
 20
68.286060003889588
 10
-14865.664057838725
 20
68.276623515700251
 42
0.0025609928524905
 10
-14865.865878340281
 20
67.641478293114005
 10
-14865.868469707397
 20
67.633175952206557
 42
0.0031362356234676
 10
-14866.057960493084
 20
67.012413095993907
 10
-14866.060091535954
 20
67.005271789980029
 42
0.0037229918025668
 10
-14866.236891922938
 20
66.396286487808538
 10
-14866.23857051224
 20
66.39033959729494
 42
0.0043077623725856
 10
-14866.40231131421
 20
65.790520865865119
 42
0.0047654161828466
 10
-14866.555140036744
 20
65.187834776882184
 10
-14866.589604645564
 20
65.046272999813255
 42
0.011296936846043
 10
-14866.785469003726
 20
64.154580839103616
 10
-14866.813475392806
 20
64.011752793091091
 42
0.0130056762563843
 10
-14867.014312636453
 20
62.824811721446167
 10
-14867.034852386603
 20
62.680733607937363
 42
0.0138721532150372
 10
-14867.138555391137
 20
61.773904122143449
 10
-14867.157850879034
 20
61.550406400362483
 42
0.0071254696966574
 10
-14867.191197524968
 20
61.087219391371036
 10
-14867.196158499137
 20
61.001215396707344
 42
0.0028881799203654
 10
-14867.211296792419
 20
60.709473686968522
 42
0.0060297297164139
 10
-14867.221228992194
 20
60.417524750872161
 10
-14867.222291273862
 20
60.369132378923304
 42
0.022952316416072
 10
-14867.214560246077
 20
60.046377532637052
 10
-14867.210334472551
 20
59.98597399855246
 42
0.0123673300757562
 10
-14867.191255826037
 20
59.78485327344606
 42
0.0128577674521802
 10
-14867.16206043563
 20
59.584955423514778
 10
-14867.154934562244
 20
59.543626608922295
 42
0.0285717853784349
 10
-14867.090440560552
 20
59.265510457619605
 10
-14867.076772036882
 20
59.218855688128016
 42
0.0316283099146717
 10
-14866.960961456969
 20
58.899841186305821
 10
-14866.95791276522
 20
58.892854813995925
 42
0.0338984824253628
 10
-14866.808481054246
 20
58.605288849791123
 10
-14866.806172324881
 20
58.601497820522162
 42
0.0350228718326204
 10
-14866.623812034202
 20
58.344445835838314
 10
-14866.622926782431
 20
58.343366758078837
 42
0.0347476747540991
 10
-14866.408502095188
 20
58.116181710854107
 42
0.0331337701890999
 10
-14866.165258769452
 20
57.920053048783792
 10
-14866.164158670925
 20
57.919280345604193
 42
0.0305233319060921
 10
-14865.895613975357
 20
57.754152175516417
 10
-14865.89238393085
 20
57.752428163650393
 42
0.0273744481186181
 10
-14865.599830219273
 20
57.61629001975858
 10
-14865.594725684139
 20
57.61424643529017
 42
0.024096440619804
 10
-14865.27924860852
 20
57.505262709016961
 10
-14865.272665279283
 20
57.503337969333643
 42
0.020963617978791
 10
-14864.935265126616
 20
57.419869821398628
 10
-14864.927632666182
 20
57.41831790840024
 42
0.018138870468943
 10
-14864.569310274184
 20
57.358901815186478
 10
-14864.561029425804
 20
57.357835631369198
 42
0.0156086547566502
 10
-14864.182842061615
 20
57.321099444792488
 10
-14864.139646809288
 20
57.318260942313564
 42
0.0137148328997699
 10
-14863.811973663989
 20
57.305740687062325
 10
-14863.766037474041
 20
57.305246253947082
 42
0.0051057823894684
 10
-14863.529891887472
 20
57.305115999537975
 42
0.0052256693301725
 10
-14863.293794603689
 20
57.309864824002126
 10
-14863.223567819943
 20
57.312011790016186
 42
0.0161507179045541
 10
-14862.847830741845
 20
57.33566216034253
 10
-14862.82781778147
 20
57.3375723556303
 42
0.0101216737819119
 10
-14862.413790559973
 20
57.385565285996762
 10
-14862.379737270552
 20
57.390212982805451
 42
0.0245291776411239
 10
-14861.902947614999
 20
57.479288060881906
 10
-14861.818124299492
 20
57.499483981223776
 42
0.0143509212543909
 10
-14861.461493195537
 20
57.595288615006211
 42
0.0156557857040335
 10
-14861.111277130822
 20
57.712299830821074
 10
-14861.103775916315
 20
57.715069992579174
 42
0.0170137333637904
 10
-14860.747179920629
 20
57.860727607452418
 10
-14860.740075998227
 20
57.863915443013866
 42
0.0183105364416385
 10
-14860.380726330066
 20
58.04125048483521
 10
-14860.373779565422
 20
58.045000919710446
 42
0.0194899958157169
 10
-14860.015298824448
 20
58.256979901594583
 10
-14860.008284945101
 20
58.261505243896181
 42
0.0204869852930832
 10
-14859.65427064301
 20
58.511025258979004
 10
-14859.64700503442
 20
58.516605324330385
 42
0.0212516938587246
 10
-14859.30101510329
 20
58.806509321243944
 10
-14859.254498409218
 20
58.848976631334608
 42
0.0215248918261296
 10
-14858.994472240349
 20
59.107740910313169
 10
-14858.949442505962
 20
59.156585031669458
 42
0.0114578554957503
 10
-14858.794650352291
 20
59.33240796512132
 10
-14858.783455816359
 20
59.345726728600411
 42
0.0061531305109128
 10
-14858.656981170308
 20
59.500016261972405
 42
0.000632558718162
 10
-14858.532602685586
 20
59.656019638366992
 10
-14858.509562551106
 20
59.684993158307407
 42
0.0041897761569792
 10
-14858.341107146949
 20
59.90051253460755
 10
-14858.282645027241
 20
59.976613881354524
 42
0.0092993880023347
 10
-14858.006033099949
 20
60.350892645331548
 10
-14857.923638606799
 20
60.46682964883334
 42
0.015932172710411
 10
-14857.577032124176
 20
60.989003869563248
 10
-14857.532675988803
 20
61.060683433786757
 42
0.0085547317001156
 10
-14857.298164223463
 20
61.45455838303792
 42
0.0084601156902316
 10
-14857.077188046029
 20
61.856185232051331
 10
-14857.069072572189
 20
61.871544914343076
 42
0.0081429654277091
 10
-14856.845823301772
 20
62.3112664268427
 10
-14856.836963137568
 20
62.329445268903328
 42
0.0076574581363509
 10
-14856.610555626934
 20
62.812628144303829
 10
-14856.601075986277
 20
62.833692622459466
 42
0.0070682724206462
 10
-14856.370631078467
 20
63.365729927247067
 10
-14856.360640794488
 20
63.389719116252081
 42
0.0064559514464367
 10
-14856.125307586248
 20
63.976031382923424
 10
-14856.114898228141
 20
64.002966308213217
 42
0.0058311413892855
 10
-14855.873851491482
 20
64.648998402312529
 10
-14855.863096413992
 20
64.67888274375764
 42
0.005231242582366
 10
-14855.61551513594
 20
65.390085157625592
 10
-14855.604471299572
 20
65.422911869661903
 42
0.0046680544794433
 10
-14855.349542871882
 20
66.204738185273939
 10
-14855.307550721756
 20
66.337721422827371
 42
0.0041666856450803
 10
-14855.104264709398
 20
67.000690197714448
 10
-14855.066602268567
 20
67.127271305927096
 42
0.0015170975174884
 10
-14854.945415690321
 20
67.539139656861607
 42
-0.0004887993091049
 10
-14854.825075916584
 20
67.951258070999799
 10
-14854.748598659702
 20
68.212215454844682
 42
0.0002583378917107
 10
-14854.475384089681
 20
69.146272157874947
 10
-14854.393611239626
 20
69.426371419099439
 42
0.0006636169681876
 10
-14854.199743480051
 20
70.09372434119382
 10
-14854.194646825546
 20
70.111355924619858
 42
0.0010589131343445
 10
-14854.013198124787
 20
70.744087267122723
 10
-14854.008216054403
 20
70.761600173804325
 42
0.0015655524461616
 10
-14853.839945847125
 20
71.360216853343672
 10
-14853.835115646603
 20
71.377609012664436
 42
0.0021640440497744
 10
-14853.680825674723
 20
71.942636030297763
 10
-14853.676191455321
 20
71.959900760183572
 42
0.0028763871843872
 10
-14853.536675737239
 20
72.491868711138522
 10
-14853.532289873043
 20
72.508992689406284
 42
0.0037310511960333
 10
-14853.408333181236
 20
73.008440283316759
 10
-14853.404257960887
 20
73.025400554810986
 42
0.0047652197786798
 10
-14853.29663406044
 20
73.492878322867455
 10
-14853.292943461069
 20
73.509637878232652
 42
0.0060276699324485
 10
-14853.20241336196
 20
73.945713673161663
 10
-14853.199194671643
 20
73.962214887613555
 42
0.0075824337781256
 10
-14853.126505362256
 20
74.367482051897014
 10
-14853.123859984868
 20
74.383636999395804
 42
0.0095130624640636
 10
-14853.069744749246
 20
74.758726352419444
 10
-14853.062758525362
 20
74.814659910543909
 42
0.0121054653236045
 10
-14853.036167194785
 20
75.07955573900972
 10
-14853.035300705027
 20
75.090959181924902
 42
0.0069050827398671
 10
-14853.020211886987
 20
75.333900408782938
 10
-14853.019076587321
 20
75.35742666575598
 42
0.0169063976574748
 10
-14853.016249308337
 20
75.553619393128429
 10
-14853.017419959866
 20
75.613955154396393
 42
0.0052007732895582
 10
-14853.019673408464
 20
75.689548544629815
 42
0.0054038123367948
 10
-14853.039636920295
 20
75.809566840606365
 10
-14853.044722776172
 20
75.838225327220925
 42
0.0112050460504875
 10
-14853.080107138278
 20
76.014551765772936
 10
-14853.097932100272
 20
76.094093352280652
 42
0.0240764468049401
 10
-14853.188829466433
 20
76.424330387825634
 10
-14853.207388229248
 20
76.480950552821611
 42
0.0256812331897494
 10
-14853.350751149421
 20
76.852674759033107
 10
-14853.356160575247
 20
76.864806094036425
 42
0.0268360501241613
 10
-14853.525587816092
 20
77.195799228043597
 10
-14853.531124223728
 20
77.205318898357703
 42
0.0274670231725333
 10
-14853.723325200141
 20
77.497606273273277
 10
-14853.728706500098
 20
77.504885420807014
 42
0.0275035967092927
 10
-14853.940279379665
 20
77.760401311118812
 10
-14853.945348880621
 20
77.76588039873775
 42
0.026955767348358
 10
-14854.17275242407
 20
77.986522684711417
 10
-14854.177495481848
 20
77.99065263916772
 42
0.0259124802246167
 10
-14854.417050313285
 20
78.178343166324566
 10
-14854.421581158471
 20
78.181528668657492
 42
0.0245162153037822
 10
-14854.669497511561
 20
78.338261677765558
 10
-14854.6740240579
 20
78.340821874975333
 42
0.022928258883587
 10
-14854.926443614713
 20
78.468690067465332
 10
-14854.931224108559
 20
78.470842367231711
 42
0.0212984135690014
 10
-14855.184262061011
 20
78.572041284469606
 10
-14855.18956634598
 20
78.573904847229386
 42
0.0197555462329899
 10
-14855.439344683704
 20
78.650720265194423
 42
0.0183511896791028
 10
-14855.694273409164
 20
78.708303172159404
 10
-14855.780638605891
 20
78.724505962545095
 42
0.0338057877157371
 10
-14856.066145955148
 20
78.758314367684989
 10
-14856.15715136019
 20
78.762894022946369
 42
0.0091990524558982
 10
-14856.262998468825
 20
78.76626987886857
 42
0.0028333980875885
 10
-14856.368912384822
 20
78.767097986385437
 10
-14856.369827837867
 20
78.767099956209449
 42
-0.0023619827733298
 10
-14856.47757385299
 20
78.767840797287946
 10
-14856.51397902315
 20
78.768263103750769
 42
0.0008824598486713
 10
-14856.694535012981
 20
78.770038881988825
 10
-14856.738396445406
 20
78.770392843514628
 42
0.0038132665802759
 10
-14857.006679341281
 20
78.770511779581383
 10
-14857.023212996079
 20
78.770393013437797
 42
0.0060665569350909
 10
-14857.324493487678
 20
78.764572714016751
 10
-14857.338743819695
 20
78.764124406049405
 42
0.0080356953345247
 10
-14857.668202536024
 20
78.748456683983122
 10
-14857.680272551121
 20
78.747688101042058
 42
0.0098996399128124
 10
-14858.033035635774
 20
78.718202871843502
 10
-14858.043081345146
 20
78.717162575645716
 42
0.0117740981375924
 10
-14858.414238203495
 20
78.669870328116048
 10
-14858.422460899979
 20
78.668625211545077
 42
0.0137435215114016
 10
-14858.807049719462
 20
78.599528237983662
 10
-14858.813706758587
 20
78.598142341749735
 42
0.0158359869371321
 10
-14859.206703852378
 20
78.503250253271958
 10
-14859.212117039257
 20
78.501760312398346
 42
0.0180554123985428
 10
-14859.608432083834
 20
78.377122296171507
 10
-14859.612988871952
 20
78.375506259893427
 42
0.0203657431307275
 10
-14860.007466389789
 20
78.217245918366089
 10
-14860.01160992877
 20
78.215384296936008
 42
0.0226819684652672
 10
-14860.399045984968
 20
78.019741718268818
 10
-14860.403245775993
 20
78.017376126345198
 42
0.0248634984591203
 10
-14860.778427717165
 20
77.78074948040458
 10
-14860.82662264596
 20
77.746892438570214
 42
0.0267044190898944
 10
-14861.100915342875
 20
77.53145206270392
 42
0.0139303002211857
 10
-14861.357082508863
 20
77.294213221742538
 10
-14861.361935894533
 20
77.289460558931978
 42
0.0283460963429095
 10
-14861.606008488765
 20
77.021729898482008
 10
-14861.645676993918
 20
76.972928321014024
 42
0.0070695364835179
 10
-14861.723114219778
 20
76.874861505048557
 42
0.0070695364835179
  0
LWPOLYLINE
  5
5F
100
AcDbEntity
  8
0
370
              15
390
0
  6
Continuous
 62
               7
100
AcDbPolyline
 90
      226
 70
             128
 10
-14865.251934657023
 20
61.153272698864384
 42
-0.0026277636955917
 10
-14865.252012540825
 20
61.220044624302055
 10
-14865.251795182592
 20
61.273199842050417
 42
-0.0088680296673297
 10
-14865.248018566297
 20
61.446215624512924
 10
-14865.245672207187
 20
61.505495649907061
 42
-0.0077381705608078
 10
-14865.229626096423
 20
61.796756145706127
 10
-14865.228758185251
 20
61.809044379390343
 42
-0.0068872530490116
 10
-14865.202126105502
 20
62.124266131461333
 10
-14865.200921881315
 20
62.136507110478306
 42
-0.0062130021499774
 10
-14865.163328164468
 20
62.47537680187245
 10
-14865.161824260953
 20
62.48755067363345
 42
-0.0056726929658267
 10
-14865.112902401446
 20
62.849745895773445
 10
-14865.111128955807
 20
62.861839695992103
 42
-0.0052341884457552
 10
-14865.050518369535
 20
63.247032951580302
 10
-14865.04850038077
 20
63.259037881502309
 42
-0.004976845016385
 10
-14864.975761699337
 20
63.666882448975031
 10
-14864.951512684622
 20
63.795430431940986
 42
-0.0089029805628088
 10
-14864.814431832834
 20
64.457205879327063
 10
-14864.781686457507
 20
64.602237309886732
 42
-0.0080318257101312
 10
-14864.552137843164
 20
65.54794694175628
 10
-14864.540152916719
 20
65.594077576930431
 42
-0.007426572131431
 10
-14864.256141377888
 20
66.624142155253892
 10
-14864.236261834729
 20
66.692276215985785
 42
-0.0069711922695774
 10
-14863.908957256246
 20
67.75854395622855
 10
-14863.849005309161
 20
67.944565314537954
 42
-0.0052070422897902
 10
-14863.619580083881
 20
68.631837391630597
 10
-14863.602298891839
 20
68.681864671868013
 42
-0.0009167004465349
 10
-14863.399207004419
 20
69.266320520401678
 42
-0.0025162726932652
 10
-14863.19210937412
 20
69.849361784671075
 10
-14863.154884762327
 20
69.952511330540148
 42
-0.0028212681459771
 10
-14862.906708843388
 20
70.628241962640459
 10
-14862.89687808077
 20
70.654549406962374
 42
-0.0031964916843362
 10
-14862.660585822974
 20
71.27475416944435
 10
-14862.650951369069
 20
71.299564159347995
 42
-0.0036281836455886
 10
-14862.425845407875
 20
71.867004840480604
 10
-14862.416406997732
 20
71.890302271948372
 42
-0.0041269166841308
 10
-14862.20178930106
 20
72.407743167961598
 10
-14862.169156344626
 20
72.48462161435566
 42
-0.0047472213046712
 10
-14862.012111539083
 20
72.845043082206303
 10
-14862.005217457852
 20
72.860463679589657
 42
-0.0025651659988173
 10
-14861.856859424026
 20
73.187791735286737
 42
-0.0057144635027364
 10
-14861.703109730279
 20
73.512601408597888
 10
-14861.67507902487
 20
73.570109791007923
 42
-0.0065388068368872
 10
-14861.491611997113
 20
73.93434228770866
 10
-14861.483153541372
 20
73.950601867007265
 42
-0.0074510843047208
 10
-14861.306971295457
 20
74.277290148200791
 10
-14861.298791624957
 20
74.291930925413155
 42
-0.0084648979866619
 10
-14861.129157771826
 20
74.58383993643065
 10
-14861.121301645337
 20
74.596846928082556
 42
-0.0095638542816474
 10
-14860.957466197744
 20
74.856735800060051
 10
-14860.949991254063
 20
74.868105161528177
 42
-0.0107191626794733
 10
-14860.791189673684
 20
75.098716396059444
 10
-14860.784172939913
 20
75.108452488478449
 42
-0.0118458573837306
 10
-14860.62962484144
 20
75.312524683734864
 42
-0.012918451820648
 10
-14860.465172217857
 20
75.508685199886486
 10
-14860.435027445479
 20
75.542811278802674
 42
-0.0217742579636141
 10
-14860.258415123142
 20
75.726018049054801
 10
-14860.247669578641
 20
75.736234882297069
 42
-0.0097266568641535
 10
-14860.081611959824
 20
75.888082456694974
 42
-0.0187720905697075
 10
-14859.907264383928
 20
76.030151310089153
 10
-14859.876558393289
 20
76.053310392458798
 42
-0.017942820752048
 10
-14859.644137673266
 20
76.215862569591991
 10
-14859.640485346305
 20
76.218226504508522
 42
-0.0170047877661468
 10
-14859.404721708819
 20
76.359687018631348
 10
-14859.400938720104
 20
76.361785323650039
 42
-0.0160190788398252
 10
-14859.164030172436
 20
76.483436625655713
 42
-0.0151102861497398
 10
-14858.919998389982
 20
76.590119401713494
 10
-14858.867611887777
 20
76.611159534605122
 42
-0.0271945441919696
 10
-14858.508949328743
 20
76.733024345305154
 10
-14858.439884528234
 20
76.752373886577317
 42
-0.0237596594013568
 10
-14858.024087681209
 20
76.847824598558873
 10
-14857.956024827481
 20
76.860079286685206
 42
-0.0213715440547001
 10
-14857.670149896034
 20
76.899026318195638
 10
-14857.61000272982
 20
76.904616032896243
 42
-0.0101465655810145
 10
-14857.442510197823
 20
76.916759576160757
 10
-14857.433169811626
 20
76.917246491157968
 42
-0.0100375910940755
 10
-14857.284015711062
 20
76.922022309083331
 10
-14857.27375644138
 20
76.922144748097807
 42
-0.0103625633327233
 10
-14857.145048446726
 20
76.921013314571155
 10
-14857.122782795455
 20
76.92035595610615
 42
-0.0115689250136542
 10
-14857.03873205793
 20
76.91592644986099
 42
-0.0072438037340787
 10
-14856.954893778482
 20
76.90833725011062
 10
-14856.938093269018
 20
76.906570707387345
 42
-0.0217917313107611
 10
-14856.821523505705
 20
76.889150814666195
 10
-14856.75592341513
 20
76.876404206250285
 42
-0.0332943556745301
 10
-14856.55153125011
 20
76.822363914944617
 10
-14856.521358681588
 20
76.812195837835873
 42
-0.0184824084861142
 10
-14856.382853625095
 20
76.759744822439643
 42
-0.0198002050668412
 10
-14856.248779284586
 20
76.696860762236284
 10
-14856.246892647217
 20
76.695882975360291
 42
-0.021224234299176
 10
-14856.114753704829
 20
76.62012023657573
 10
-14856.112938409273
 20
76.618974434358961
 42
-0.0226090605781421
 10
-14855.984434508053
 20
76.529494790795809
 10
-14855.982590066315
 20
76.528082537806995
 42
-0.0238457052219521
 10
-14855.85940798503
 20
76.42408664195213
 10
-14855.857455256462
 20
76.422271764178504
 42
-0.0248160564149754
 10
-14855.741253749158
 20
76.302997162965852
 10
-14855.73915011576
 20
76.300611829265335
 42
-0.0254109591477251
 10
-14855.631544897909
 20
76.165323443321455
 10
-14855.629296875981
 20
76.162181894900414
 42
-0.0255528488193593
 10
-14855.531850197156
 20
76.010154840622391
 10
-14855.529519097265
 20
76.006073229058757
 42
-0.0252146793235407
 10
-14855.443738071255
 20
75.836570983059104
 10
-14855.441435832099
 20
75.831388901148784
 42
-0.0244265635876595
 10
-14855.36878113833
 20
75.643642329078716
 10
-14855.359534736877
 20
75.61577691079188
 42
-0.0231319612983981
 10
-14855.313611957878
 20
75.452475863962718
 42
-0.0112130424423695
 10
-14855.278975935345
 20
75.286272263807689
 10
-14855.277773410227
 20
75.279775676886857
 42
-0.0210527881212979
 10
-14855.252086934854
 20
75.098720031434013
 10
-14855.248576340033
 20
75.063314482898477
 42
-0.0190029892405604
 10
-14855.233134866488
 20
74.809778636633268
 10
-14855.232324890045
 20
74.774303022257072
 42
-0.0137974553699089
 10
-14855.233873742878
 20
74.44927161560021
 10
-14855.234719197835
 20
74.423152870957665
 42
-0.0081336634208467
 10
-14855.249578533059
 20
74.117805403331658
 42
-0.0073526923546427
 10
-14855.273887066445
 20
73.813057158928103
 10
-14855.275148490216
 20
73.799720484380487
 42
-0.0066886138665172
 10
-14855.310884076262
 20
73.469134440876502
 10
-14855.312541165731
 20
73.455512821891716
 42
-0.0061359187371317
 10
-14855.360391767768
 20
73.098748841889275
 10
-14855.362429268855
 20
73.084854038962476
 42
-0.0056698610033645
 10
-14855.423079599628
 20
72.701575470089395
 10
-14855.425485032945
 20
72.687416350893727
 42
-0.0052721077260793
 10
-14855.499617233734
 20
72.27728901127378
 10
-14855.502380382588
 20
72.262872375829829
 42
-0.004928927219558
 10
-14855.590674500629
 20
71.825563864983465
 10
-14855.59378699537
 20
71.810895011891716
 42
-0.0047415956736671
 10
-14855.697024986872
 20
71.346098254615541
 10
-14855.731793197263
 20
71.196291159097655
 42
-0.0084404470883898
 10
-14855.921809640864
 20
70.436067134458227
 10
-14855.927936328821
 20
70.413203010412872
 42
-0.003963594026461
 10
-14856.149390013104
 20
69.612214146166693
 10
-14856.162766808284
 20
69.565282529573778
 42
-0.0072475040822111
 10
-14856.430213696194
 20
68.676062813033951
 10
-14856.500426023049
 20
68.454322462977288
 42
-0.0051345458815043
 10
-14856.787185395033
 20
67.579997275400729
 10
-14856.808711661835
 20
67.516571008168583
 42
-0.0019150016615331
 10
-14857.064245068668
 20
66.773021888044696
 10
-14857.070712672923
 20
66.754434423529702
 42
-0.0021524362759941
 10
-14857.319190724127
 20
66.050108601415104
 10
-14857.328401144809
 20
66.02435502315727
 42
-0.0024331286833276
 10
-14857.564656403858
 20
65.373755714995241
 10
-14857.573704356328
 20
65.34921240885997
 42
-0.0027449721789512
 10
-14857.798318927245
 20
64.750082529716565
 10
-14857.807208934611
 20
64.726759939934198
 42
-0.0031083229771548
 10
-14858.020751421249
 20
64.176835902284893
 10
-14858.02948755282
 20
64.154746186693131
 42
-0.0035311343317345
 10
-14858.232528738516
 20
63.651763060696794
 10
-14858.241114077631
 20
63.630920337264193
 42
-0.0040245640951274
 10
-14858.434225881458
 20
63.17261101459394
 10
-14858.442661995208
 20
63.153031646180651
 42
-0.0046015135814514
 10
-14858.626418288224
 20
62.737126616879777
 10
-14858.634704465927
 20
62.718829477704219
 42
-0.0052768638287227
 10
-14858.809681985007
 20
62.343056593157371
 10
-14858.817814195585
 20
62.326063254716473
 42
-0.0060672675630318
 10
-14858.9845938084
 20
61.988147631499942
 10
-14858.992563288853
 20
61.972482372559327
 42
-0.006990464887483
 10
-14859.151731682883
 20
61.670146565838877
 10
-14859.159523082515
 20
61.65583601657336
 42
-0.0080637022756499
 10
-14859.311674942841
 20
61.386800713458342
 10
-14859.319263975511
 20
61.373872847791453
 42
-0.0093006455703628
 10
-14859.465004652004
 20
61.1358584493546
 10
-14859.47235531872
 20
61.124340480225591
 42
-0.0107060778076118
 10
-14859.612303862184
 20
60.915070162802522
 10
-14859.619365630442
 20
60.904984620268777
 42
-0.01227231114581
 10
-14859.754159348664
 20
60.722191290747787
 10
-14859.754485572194
 20
60.721770902968736
 42
-0.0141836319679674
 10
-14859.898067175192
 20
60.547201145108602
 10
-14859.905014930868
 20
60.539226144817718
 42
-0.0175957477166742
 10
-14860.044921098877
 20
60.389605256438927
 42
-0.0080466359657739
 10
-14860.192384863967
 20
60.247282728233486
 10
-14860.238419408426
 20
60.204262290196539
 42
-0.0269600260415352
 10
-14860.491699654398
 20
59.991939031694024
 10
-14860.55826679072
 20
59.941987617052177
 42
-0.0178362839777707
 10
-14860.798211280362
 20
59.774969690811076
 10
-14860.805456251359
 20
59.770301178608044
 42
-0.0174650732632642
 10
-14861.041792448803
 20
59.629440213647058
 42
-0.0169240130153727
 10
-14861.287258694652
 20
59.505147953873916
 10
-14861.333244850219
 20
59.483785998302437
 42
-0.0318883036849744
 10
-14861.683595705841
 20
59.347447688791775
 10
-14861.751961241003
 20
59.325747068317213
 42
-0.0284435909899583
 10
-14862.128011367295
 20
59.229529632842286
 10
-14862.163169527799
 20
59.222636037012805
 42
-0.0243909341015788
 10
-14862.476612988712
 20
59.176915005983574
 10
-14862.526893715481
 20
59.172069459082081
 42
-0.0196639292894711
 10
-14862.74248929301
 20
59.159821173568162
 10
-14862.794313364173
 20
59.158917912831434
 42
-0.0100501510629643
 10
-14862.906736645837
 20
59.159218311184759
 10
-14862.938396507192
 20
59.159939383070473
 42
-0.0019752031163526
 10
-14862.987488843864
 20
59.161251543279832
 10
-14862.990249147084
 20
59.161336235106063
 42
0.0065378752028811
 10
-14863.033825721841
 20
59.162103126320972
 42
-0.0167974694629162
 10
-14863.077356544776
 20
59.163763024847405
 10
-14863.081435884034
 20
59.164056035742078
 42
-0.0081283276034337
 10
-14863.132995681763
 20
59.168603029378986
 10
-14863.144735255652
 20
59.169830946958427
 42
-0.0126703440288601
 10
-14863.219453551457
 20
59.17956573803162
 10
-14863.242241419122
 20
59.183123993945173
 42
-0.011785208836553
 10
-14863.36178040495
 20
59.204686989101205
 10
-14863.417160856718
 20
59.216030529336876
 42
-0.0251774592292407
 10
-14863.644004895723
 20
59.274528538768713
 10
-14863.688724085596
 20
59.288495358110787
 42
-0.0146525199903473
 10
-14863.875117073114
 20
59.352761885303153
 42
-0.0166929435858163
 10
-14864.057094729213
 20
59.428569018344689
 10
-14864.061751360514
 20
59.430693918971883
 42
-0.0191684358389534
 10
-14864.246934991766
 20
59.523930002762775
 10
-14864.250267577521
 20
59.525771250315074
 42
-0.0221181781840492
 10
-14864.433577881417
 20
59.637904748681677
 10
-14864.43592768543
 20
59.639489046676772
 42
-0.0254984685392653
 10
-14864.612217835813
 20
59.771900196642463
 10
-14864.634699983517
 20
59.790652505581377
 42
-0.0292492648753311
 10
-14864.759468922362
 20
59.907745305225944
 42
-0.0159048957422214
 10
-14864.873308919836
 20
60.035765296854322
 10
-14864.874627710391
 20
60.037346909844928
 42
-0.0343813379629105
 10
-14864.977264972013
 20
60.179218235609454
 10
-14865.008756503372
 20
60.229721627700066
 42
-0.0369117275738106
 10
-14865.094649005276
 20
60.393198868656782
 42
-0.0191751379926883
 10
-14865.161842390822
 20
60.565603474632084
 10
-14865.163605714592
 20
60.570696819337627
 42
-0.0378178042151472
 10
-14865.213400433378
 20
60.759637595431215
 10
-14865.219395729102
 20
60.792198213596052
 42
-0.0184846046505845
 10
-14865.240112928401
 20
60.9339510341606
 42
-0.0179866351164842
 10
-14865.250445933476
 20
61.076841847258954
 10
-14865.25050237592
 20
61.078399533854736
 42
-0.0085497186140029
 10
-14865.251934657023
 20
61.153272698864384
 42
-0.0085497186140029
  0
ENDBLK
  5
60
100
AcDbEntity
  8
template
390
0
100
AcDbBlockEnd
  0
BLOCK
  5
61
100
AcDbEntity
  8
notes
390
0
100
AcDbBlockBegin
  2
*D3
 70
               1
 10
0.0
 20
0.0
 30
0.0
  3
*D3
  1

  0
LINE
  5
62
100
AcDbEntity
  8
0
370
              -2
390
0
  6
Continuous
 62
               0
100
AcDbLine
 10
-792.8020001574223
 20
619.84543413916549
 30
0.0
 11
-792.8020001574223
 21
890.23261760395417
 31
0.0
  0
LINE
  5
63
100
AcDbEntity
  8
0
370
              -2
390
0
  6
Continuous
 62
               0
100
AcDbLine
 10
-92.802000157422299
 20
619.84543413916549
 30
0.0
 11
-92.802000157422299
 21
890.23261760395417
 31
0.0
  0
LINE
  5
64
100
AcDbEntity
  8
0
370
              -2
390
0
  6
Continuous
 62
               0
100
AcDbLine
 10
-792.8020001574223
 20
890.23261760395417
 30
0.0
 11
-92.802000157422299
 21
890.23261760395417
 31
0.0
  0
CIRCLE
  5
65
102
{ACAD_REACTORS
330
66
102
}
100
AcDbEntity
  8
0
370
              -2
390
0
  6
Continuous
 62
               0
100
AcDbCircle
 10
-792.8020001574223
 20
890.23261760395417
 30
0.0
 40
1.9998779296875
  0
HATCH
  5
66
100
AcDbEntity
  8
0
370
              -2
390
0
  6
Continuous
 62
               0
100
AcDbHatch
 10
0.0
 20
0.0
 30
0.0
210
0.0
220
0.0
230
1.0
  2
SOLID
 70
               1
 71
               1
 91
        1
 92
        1
 93
        1
 72
               2
 10
-792.8020001574223
 20
890.23261760395417
 40
1.9998779296875
 50
0.0
 51
360.0
 73
               0
 97
        1
330
65
 75
               0
 76
               1
 98
        1
 10
0.0
 20
0.0
  0
CIRCLE
  5
67
102
{ACAD_REACTORS
330
68
102
}
100
AcDbEntity
  8
0
370
              -2
390
0
  6
Continuous
 62
               0
100
AcDbCircle
 10
-92.802000157422299
 20
890.23261760395417
 30
0.0
 40
1.9998779296875
  0
HATCH
  5
68
100
AcDbEntity
  8
0
370
              -2
390
0
  6
Continuous
 62
               0
100
AcDbHatch
 10
0.0
 20
0.0
 30
0.0
210
0.0
220
0.0
230
1.0
  2
SOLID
 70
               1
 71
               1
 91
        1
 92
        1
 93
        1
 72
               2
 10
-92.802000157422299
 20
890.23261760395417
 40
1.9998779296875
 50
0.0
 51
360.0
 73
               0
 97
        1
330
67
 75
               0
 76
               1
 98
        1
 10
0.0
 20
0.0
  0
MTEXT
  5
69
100
AcDbEntity
  8
0
390
0
 62
               0
100
AcDbMText
 10
-466.61450183959823
 20
924.11023479145433
 30
0.0
 40
24.432617187500004
 41
0.0
 71
               1
 72
               1
  1
700
  7
ＭＳ ゴシック
 73
               1
 44
0.7828267384257843
  0
POINT
  5
6A
100
AcDbEntity
  8
Defpoints
370
               0
390
0
 62
               0
100
AcDbPoint
 10
-92.802000157422299
 20
594.84543413916549
 30
0.0
  0
POINT
  5
6B
100
AcDbEntity
  8
Defpoints
370
               0
390
0
 62
               0
100
AcDbPoint
 10
-792.8020001574223
 20
594.84543413916549
 30
0.0
  0
POINT
  5
6C
100
AcDbEntity
  8
Defpoints
370
               0
390
0
 62
               0
100
AcDbPoint
 10
-792.8020001574223
 20
890.23261760395417
 30
0.0
  0
ENDBLK
  5
6D
100
AcDbEntity
  8
notes
390
0
100
AcDbBlockEnd
  0
BLOCK
  5
6E
100
AcDbEntity
  8
notes
390
0
100
AcDbBlockBegin
  2
*D4
 70
               1
 10
0.0
 20
0.0
 30
0.0
  3
*D4
  1

  0
LINE
  5
6F
100
AcDbEntity
  8
0
370
              -2
390
0
  6
Continuous
 62
               0
100
AcDbLine
 10
-367.79048411375697
 20
789.73261760395235
 30
0.0
 11
7.1979998425777012
 21
789.73261760395235
 31
0.0
  0
LINE
  5
70
100
AcDbEntity
  8
0
370
              -2
390
0
  6
Continuous
 62
               0
100
AcDbLine
 10
-342.79048411375697
 20
354.73261760395235
 30
0.0
 11
7.1979998425777012
 21
354.73261760395235
 31
0.0
  0
LINE
  5
71
100
AcDbEntity
  8
0
370
              -2
390
0
  6
Continuous
 62
               0
100
AcDbLine
 10
7.1979998425777012
 20
789.73261760395235
 30
0.0
 11
7.1979998425777012
 21
354.73261760395235
 31
0.0
  0
CIRCLE
  5
72
102
{ACAD_REACTORS
330
73
102
}
100
AcDbEntity
  8
0
370
              -2
390
0
  6
Continuous
 62
               0
100
AcDbCircle
 10
7.1979998425777012
 20
789.73261760395235
 30
0.0
 40
1.9998779296875
  0
HATCH
  5
73
100
AcDbEntity
  8
0
370
              -2
390
0
  6
Continuous
 62
               0
100
AcDbHatch
 10
0.0
 20
0.0
 30
0.0
210
0.0
220
0.0
230
1.0
  2
SOLID
 70
               1
 71
               1
 91
        1
 92
        1
 93
        1
 72
               2
 10
7.1979998425777012
 20
789.73261760395235
 40
1.9998779296875
 50
0.0
 51
360.0
 73
               0
 97
        1
330
72
 75
               0
 76
               1
 98
        1
 10
0.0
 20
0.0
  0
CIRCLE
  5
74
102
{ACAD_REACTORS
330
75
102
}
100
AcDbEntity
  8
0
370
              -2
390
0
  6
Continuous
 62
               0
100
AcDbCircle
 10
7.1979998425777012
 20
354.73261760395235
 30
0.0
 40
1.9998779296875
  0
HATCH
  5
75
100
AcDbEntity
  8
0
370
              -2
390
0
  6
Continuous
 62
               0
100
AcDbHatch
 10
0.0
 20
0.0
 30
0.0
210
0.0
220
0.0
230
1.0
  2
SOLID
 70
               1
 71
               1
 91
        1
 92
        1
 93
        1
 72
               2
 10
7.1979998425777012
 20
354.73261760395235
 40
1.9998779296875
 50
0.0
 51
360.0
 73
               0
 97
        1
330
74
 75
               0
 76
               1
 98
        1
 10
0.0
 20
0.0
  0
MTEXT
  5
76
100
AcDbEntity
  8
0
390
0
 62
               0
100
AcDbMText
 10
-26.679617344922008
 20
548.42011592177687
 30
0.0
 40
24.432617187500004
 41
0.0
 71
               1
 72
               1
  1
435
  7
ＭＳ ゴシック
 11
0.0
 21
1.0
 31
0.0
 73
               1
 44
0.7828267384257843
  0
POINT
  5
77
100
AcDbEntity
  8
Defpoints
370
               0
390
0
 62
               0
100
AcDbPoint
 10
-367.79048411375697
 20
354.73261760395235
 30
0.0
  0
POINT
  5
78
100
AcDbEntity
  8
Defpoints
370
               0
390
0
 62
               0
100
AcDbPoint
 10
-392.79048411375697
 20
789.73261760395235
 30
0.0
  0
POINT
  5
79
100
AcDbEntity
  8
Defpoints
370
               0
390
0
 62
               0
100
AcDbPoint
 10
7.1979998425777012
 20
789.73261760395235
 30
0.0
  0
ENDBLK
  5
7A
100
AcDbEntity
  8
notes
390
0
100
AcDbBlockEnd
  0
BLOCK
  5
7B
100
AcDbEntity
  8
notes
390
0
100
AcDbBlockBegin
  2
*D5
 70
               1
 10
0.0
 20
0.0
 30
0.0
  3
*D5
  1

  0
LINE
  5
7C
100
AcDbEntity
  8
0
370
              -2
390
0
  6
Continuous
 62
               0
100
AcDbLine
 10
-753.81250168217593
 20
431.8626116511366
 30
0.0
 11
-753.81250168217593
 21
255.73261760395417
 31
0.0
  0
LINE
  5
7D
100
AcDbEntity
  8
0
370
              -2
390
0
  6
Continuous
 62
               0
100
AcDbLine
 10
-133.81250168217593
 20
431.4022630591287
 30
0.0
 11
-133.81250168217593
 21
255.73261760395417
 31
0.0
  0
LINE
  5
7E
100
AcDbEntity
  8
0
370
              -2
390
0
  6
Continuous
 62
               0
100
AcDbLine
 10
-753.81250168217593
 20
255.73261760395417
 30
0.0
 11
-133.81250168217593
 21
255.73261760395417
 31
0.0
  0
CIRCLE
  5
7F
102
{ACAD_REACTORS
330
80
102
}
100
AcDbEntity
  8
0
370
              -2
390
0
  6
Continuous
 62
               0
100
AcDbCircle
 10
-753.81250168217593
 20
255.73261760395417
 30
0.0
 40
1.9998779296875
  0
HATCH
  5
80
100
AcDbEntity
  8
0
370
              -2
390
0
  6
Continuous
 62
               0
100
AcDbHatch
 10
0.0
 20
0.0
 30
0.0
210
0.0
220
0.0
230
1.0
  2
SOLID
 70
               1
 71
               1
 91
        1
 92
        1
 93
        1
 72
               2
 10
-753.81250168217593
 20
255.73261760395417
 40
1.9998779296875
 50
0.0
 51
360.0
 73
               0
 97
        1
330
7F
 75
               0
 76
               1
 98
        1
 10
0.0
 20
0.0
  0
CIRCLE
  5
81
102
{ACAD_REACTORS
330
82
102
}
100
AcDbEntity
  8
0
370
              -2
390
0
  6
Continuous
 62
               0
100
AcDbCircle
 10
-133.81250168217593
 20
255.73261760395417
 30
0.0
 40
1.9998779296875
  0
HATCH
  5
82
100
AcDbEntity
  8
0
370
              -2
390
0
  6
Continuous
 62
               0
100
AcDbHatch
 10
0.0
 20
0.0
 30
0.0
210
0.0
220
0.0
230
1.0
  2
SOLID
 70
               1
 71
               1
 91
        1
 92
        1
 93
        1
 72
               2
 10
-133.81250168217593
 20
255.73261760395417
 40
1.9998779296875
 50
0.0
 51
360.0
 73
               0
 97
        1
330
81
 75
               0
 76
               1
 98
        1
 10
0.0
 20
0.0
  0
MTEXT
  5
83
100
AcDbEntity
  8
0
390
0
 62
               0
100
AcDbMText
 10
-467.62500336435187
 20
289.6102347914541
 30
0.0
 40
24.432617187500004
 41
0.0
 71
               1
 72
               1
  1
620
  7
ＭＳ ゴシック
 73
               1
 44
0.7828267384257843
  0
POINT
  5
84
100
AcDbEntity
  8
Defpoints
370
               0
390
0
 62
               0
100
AcDbPoint
 10
-133.81250168217593
 20
456.4022630591287
 30
0.0
  0
POINT
  5
85
100
AcDbEntity
  8
Defpoints
370
               0
390
0
 62
               0
100
AcDbPoint
 10
-753.81250168217593
 20
456.8626116511366
 30
0.0
  0
POINT
  5
86
100
AcDbEntity
  8
Defpoints
370
               0
390
0
 62
               0
100
AcDbPoint
 10
-753.81250168217593
 20
255.73261760395417
 30
0.0
  0
ENDBLK
  5
87
100
AcDbEntity
  8
notes
390
0
100
AcDbBlockEnd
  0
BLOCK
  5
88
100
AcDbEntity
  8
notes
390
0
100
AcDbBlockBegin
  2
*D6
 70
               1
 10
0.0
 20
0.0
 30
0.0
  3
*D6
  1

  0
LINE
  5
89
100
AcDbEntity
  8
0
370
              -2
390
0
  6
Continuous
 62
               0
100
AcDbLine
 10
-698.60200015742157
 20
749.73457925419143
 30
0.0
 11
-892.8020001574223
 21
749.73457925419143
 31
0.0
  0
LINE
  5
8A
100
AcDbEntity
  8
0
370
              -2
390
0
  6
Continuous
 62
               0
100
AcDbLine
 10
-705.09817133315664
 20
394.73457925419143
 30
0.0
 11
-892.8020001574223
 21
394.73457925419143
 31
0.0
  0
LINE
  5
8B
100
AcDbEntity
  8
0
370
              -2
390
0
  6
Continuous
 62
               0
100
AcDbLine
 10
-892.8020001574223
 20
749.73457925419143
 30
0.0
 11
-892.8020001574223
 21
394.73457925419143
 31
0.0
  0
CIRCLE
  5
8C
102
{ACAD_REACTORS
330
8D
102
}
100
AcDbEntity
  8
0
370
              -2
390
0
  6
Continuous
 62
               0
100
AcDbCircle
 10
-892.8020001574223
 20
749.73457925419143
 30
0.0
 40
1.9998779296875
  0
HATCH
  5
8D
100
AcDbEntity
  8
0
370
              -2
390
0
  6
Continuous
 62
               0
100
AcDbHatch
 10
0.0
 20
0.0
 30
0.0
210
0.0
220
0.0
230
1.0
  2
SOLID
 70
               1
 71
               1
 91
        1
 92
        1
 93
        1
 72
               2
 10
-892.8020001574223
 20
749.73457925419143
 40
1.9998779296875
 50
0.0
 51
360.0
 73
               0
 97
        1
330
8C
 75
               0
 76
               1
 98
        1
 10
0.0
 20
0.0
  0
CIRCLE
  5
8E
102
{ACAD_REACTORS
330
8F
102
}
100
AcDbEntity
  8
0
370
              -2
390
0
  6
Continuous
 62
               0
100
AcDbCircle
 10
-892.8020001574223
 20
394.73457925419143
 30
0.0
 40
1.9998779296875
  0
HATCH
  5
8F
100
AcDbEntity
  8
0
370
              -2
390
0
  6
Continuous
 62
               0
100
AcDbHatch
 10
0.0
 20
0.0
 30
0.0
210
0.0
220
0.0
230
1.0
  2
SOLID
 70
               1
 71
               1
 91
        1
 92
        1
 93
        1
 72
               2
 10
-892.8020001574223
 20
394.73457925419143
 40
1.9998779296875
 50
0.0
 51
360.0
 73
               0
 97
        1
330
8E
 75
               0
 76
               1
 98
        1
 10
0.0
 20
0.0
  0
MTEXT
  5
90
100
AcDbEntity
  8
0
390
0
 62
               0
100
AcDbMText
 10
-926.67961734492201
 20
548.42207757201595
 30
0.0
 40
24.432617187500004
 41
0.0
 71
               1
 72
               1
  1
355
  7
ＭＳ ゴシック
 11
0.0
 21
1.0
 31
0.0
 73
               1
 44
0.7828267384257843
  0
POINT
  5
91
100
AcDbEntity
  8
Defpoints
370
               0
390
0
 62
               0
100
AcDbPoint
 10
-680.09817133315664
 20
394.73457925419143
 30
0.0
  0
POINT
  5
92
100
AcDbEntity
  8
Defpoints
370
               0
390
0
 62
               0
100
AcDbPoint
 10
-673.60200015742157
 20
749.73457925419143
 30
0.0
  0
POINT
  5
93
100
AcDbEntity
  8
Defpoints
370
               0
390
0
 62
               0
100
AcDbPoint
 10
-892.8020001574223
 20
749.73457925419143
 30
0.0
  0
ENDBLK
  5
94
100
AcDbEntity
  8
notes
390
0
100
AcDbBlockEnd
  0
BLOCK
  5
95
100
AcDbEntity
  8
notes
390
0
100
AcDbBlockBegin
  2
*D7
 70
               1
 10
0.0
 20
0.0
 30
0.0
  3
*D7
  1

  0
LINE
  5
96
100
AcDbEntity
  8
0
370
              -2
390
0
  6
Continuous
 62
               0
100
AcDbLine
 10
314.9799529834545
 20
736.33815098518426
 30
0.0
 11
314.9799529834545
 21
839.73261760395235
 31
0.0
  0
LINE
  5
97
100
AcDbEntity
  8
0
370
              -2
390
0
  6
Continuous
 62
               0
100
AcDbLine
 10
644.9799529834545
 20
736.33815098518426
 30
0.0
 11
644.9799529834545
 21
839.73261760395235
 31
0.0
  0
LINE
  5
98
100
AcDbEntity
  8
0
370
              -2
390
0
  6
Continuous
 62
               0
100
AcDbLine
 10
314.9799529834545
 20
839.73261760395235
 30
0.0
 11
644.9799529834545
 21
839.73261760395235
 31
0.0
  0
CIRCLE
  5
99
102
{ACAD_REACTORS
330
9A
102
}
100
AcDbEntity
  8
0
370
              -2
390
0
  6
Continuous
 62
               0
100
AcDbCircle
 10
314.9799529834545
 20
839.73261760395235
 30
0.0
 40
1.9998779296875
  0
HATCH
  5
9A
100
AcDbEntity
  8
0
370
              -2
390
0
  6
Continuous
 62
               0
100
AcDbHatch
 10
0.0
 20
0.0
 30
0.0
210
0.0
220
0.0
230
1.0
  2
SOLID
 70
               1
 71
               1
 91
        1
 92
        1
 93
        1
 72
               2
 10
314.9799529834545
 20
839.73261760395235
 40
1.9998779296875
 50
0.0
 51
360.0
 73
               0
 97
        1
330
99
 75
               0
 76
               1
 98
        1
 10
0.0
 20
0.0
  0
CIRCLE
  5
9B
102
{ACAD_REACTORS
330
9C
102
}
100
AcDbEntity
  8
0
370
              -2
390
0
  6
Continuous
 62
               0
100
AcDbCircle
 10
644.9799529834545
 20
839.73261760395235
 30
0.0
 40
1.9998779296875
  0
HATCH
  5
9C
100
AcDbEntity
  8
0
370
              -2
390
0
  6
Continuous
 62
               0
100
AcDbHatch
 10
0.0
 20
0.0
 30
0.0
210
0.0
220
0.0
230
1.0
  2
SOLID
 70
               1
 71
               1
 91
        1
 92
        1
 93
        1
 72
               2
 10
644.9799529834545
 20
839.73261760395235
 40
1.9998779296875
 50
0.0
 51
360.0
 73
               0
 97
        1
330
9B
 75
               0
 76
               1
 98
        1
 10
0.0
 20
0.0
  0
MTEXT
  5
9D
100
AcDbEntity
  8
0
390
0
 62
               0
100
AcDbMText
 10
456.16745130127856
 20
873.61023479145251
 30
0.0
 40
24.432617187500004
 41
0.0
 71
               1
 72
               1
  1
330
  7
ＭＳ ゴシック
 73
               1
 44
0.7828267384257843
  0
POINT
  5
9E
100
AcDbEntity
  8
Defpoints
370
               0
390
0
 62
               0
100
AcDbPoint
 10
644.9799529834545
 20
711.33815098518426
 30
0.0
  0
POINT
  5
9F
100
AcDbEntity
  8
Defpoints
370
               0
390
0
 62
               0
100
AcDbPoint
 10
314.9799529834545
 20
711.33815098518426
 30
0.0
  0
POINT
  5
A0
100
AcDbEntity
  8
Defpoints
370
               0
390
0
 62
               0
100
AcDbPoint
 10
314.9799529834545
 20
839.73261760395235
 30
0.0
  0
ENDBLK
  5
A1
100
AcDbEntity
  8
notes
390
0
100
AcDbBlockEnd
  0
BLOCK
  5
A2
100
AcDbEntity
  8
notes
390
0
100
AcDbBlockBegin
  2
*D8
 70
               1
 10
0.0
 20
0.0
 30
0.0
  3
*D8
  1

  0
LINE
  5
A3
100
AcDbEntity
  8
0
370
              -2
390
0
  6
Continuous
 62
               0
100
AcDbLine
 10
669.9799529834545
 20
492.73261760395394
 30
0.0
 11
744.9799529834545
 21
492.73261760395394
 31
0.0
  0
LINE
  5
A4
100
AcDbEntity
  8
0
370
              -2
390
0
  6
Continuous
 62
               0
100
AcDbLine
 10
669.9799529834545
 20
712.73261760395235
 30
0.0
 11
744.9799529834545
 21
712.73261760395235
 31
0.0
  0
LINE
  5
A5
100
AcDbEntity
  8
0
370
              -2
390
0
  6
Continuous
 62
               0
100
AcDbLine
 10
744.9799529834545
 20
492.73261760395394
 30
0.0
 11
744.9799529834545
 21
712.73261760395235
 31
0.0
  0
CIRCLE
  5
A6
102
{ACAD_REACTORS
330
A7
102
}
100
AcDbEntity
  8
0
370
              -2
390
0
  6
Continuous
 62
               0
100
AcDbCircle
 10
744.9799529834545
 20
492.73261760395394
 30
0.0
 40
1.9998779296875
  0
HATCH
  5
A7
100
AcDbEntity
  8
0
370
              -2
390
0
  6
Continuous
 62
               0
100
AcDbHatch
 10
0.0
 20
0.0
 30
0.0
210
0.0
220
0.0
230
1.0
  2
SOLID
 70
               1
 71
               1
 91
        1
 92
        1
 93
        1
 72
               2
 10
744.9799529834545
 20
492.73261760395394
 40
1.9998779296875
 50
0.0
 51
360.0
 73
               0
 97
        1
330
A6
 75
               0
 76
               1
 98
        1
 10
0.0
 20
0.0
  0
CIRCLE
  5
A8
102
{ACAD_REACTORS
330
A9
102
}
100
AcDbEntity
  8
0
370
              -2
390
0
  6
Continuous
 62
               0
100
AcDbCircle
 10
744.9799529834545
 20
712.73261760395235
 30
0.0
 40
1.9998779296875
  0
HATCH
  5
A9
100
AcDbEntity
  8
0
370
              -2
390
0
  6
Continuous
 62
               0
100
AcDbHatch
 10
0.0
 20
0.0
 30
0.0
210
0.0
220
0.0
230
1.0
  2
SOLID
 70
               1
 71
               1
 91
        1
 92
        1
 93
        1
 72
               2
 10
744.9799529834545
 20
712.73261760395235
 40
1.9998779296875
 50
0.0
 51
360.0
 73
               0
 97
        1
330
A8
 75
               0
 76
               1
 98
        1
 10
0.0
 20
0.0
  0
MTEXT
  5
AA
100
AcDbEntity
  8
0
390
0
 62
               0
100
AcDbMText
 10
711.10233579595479
 20
578.92011592177778
 30
0.0
 40
24.432617187500004
 41
0.0
 71
               1
 72
               1
  1
220
  7
ＭＳ ゴシック
 11
0.0
 21
1.0
 31
0.0
 73
               1
 44
0.7828267384257843
  0
POINT
  5
AB
100
AcDbEntity
  8
Defpoints
370
               0
390
0
 62
               0
100
AcDbPoint
 10
644.9799529834545
 20
712.73261760395235
 30
0.0
  0
POINT
  5
AC
100
AcDbEntity
  8
Defpoints
370
               0
390
0
 62
               0
100
AcDbPoint
 10
644.9799529834545
 20
492.73261760395394
 30
0.0
  0
POINT
  5
AD
100
AcDbEntity
  8
Defpoints
370
               0
390
0
 62
               0
100
AcDbPoint
 10
744.9799529834545
 20
492.73261760395394
 30
0.0
  0
ENDBLK
  5
AE
100
AcDbEntity
  8
notes
390
0
100
AcDbBlockEnd
  0
BLOCK
  5
AF
100
AcDbEntity
  8
notes
390
0
100
AcDbBlockBegin
  2
*D9
 70
               1
 10
0.0
 20
0.0
 30
0.0
  3
*D9
  1

  0
LINE
  5
B0
100
AcDbEntity
  8
0
370
              -2
390
0
  6
Continuous
 62
               0
100
AcDbLine
 10
669.9799529834545
 20
712.73261760395235
 30
0.0
 11
744.9799529834545
 21
712.73261760395235
 31
0.0
  0
LINE
  5
B1
100
AcDbEntity
  8
0
370
              -2
390
0
  6
Continuous
 62
               0
100
AcDbLine
 10
592.9799529834545
 20
789.73261760395235
 30
0.0
 11
744.9799529834545
 21
789.73261760395235
 31
0.0
  0
LINE
  5
B2
100
AcDbEntity
  8
0
370
              -2
390
0
  6
Continuous
 62
               0
100
AcDbLine
 10
744.9799529834545
 20
712.73261760395235
 30
0.0
 11
744.9799529834545
 21
789.73261760395235
 31
0.0
  0
CIRCLE
  5
B3
102
{ACAD_REACTORS
330
B4
102
}
100
AcDbEntity
  8
0
370
              -2
390
0
  6
Continuous
 62
               0
100
AcDbCircle
 10
744.9799529834545
 20
712.73261760395235
 30
0.0
 40
1.9998779296875
  0
HATCH
  5
B4
100
AcDbEntity
  8
0
370
              -2
390
0
  6
Continuous
 62
               0
100
AcDbHatch
 10
0.0
 20
0.0
 30
0.0
210
0.0
220
0.0
230
1.0
  2
SOLID
 70
               1
 71
               1
 91
        1
 92
        1
 93
        1
 72
               2
 10
744.9799529834545
 20
712.73261760395235
 40
1.9998779296875
 50
0.0
 51
360.0
 73
               0
 97
        1
330
B3
 75
               0
 76
               1
 98
        1
 10
0.0
 20
0.0
  0
CIRCLE
  5
B5
102
{ACAD_REACTORS
330
B6
102
}
100
AcDbEntity
  8
0
370
              -2
390
0
  6
Continuous
 62
               0
100
AcDbCircle
 10
744.9799529834545
 20
789.73261760395235
 30
0.0
 40
1.9998779296875
  0
HATCH
  5
B6
100
AcDbEntity
  8
0
370
              -2
390
0
  6
Continuous
 62
               0
100
AcDbHatch
 10
0.0
 20
0.0
 30
0.0
210
0.0
220
0.0
230
1.0
  2
SOLID
 70
               1
 71
               1
 91
        1
 92
        1
 93
        1
 72
               2
 10
744.9799529834545
 20
789.73261760395235
 40
1.9998779296875
 50
0.0
 51
360.0
 73
               0
 97
        1
330
B5
 75
               0
 76
               1
 98
        1
 10
0.0
 20
0.0
  0
MTEXT
  5
B7
100
AcDbEntity
  8
0
390
0
 62
               0
100
AcDbMText
 10
711.10233579595479
 20
735.35761760395235
 30
0.0
 40
24.432617187500004
 41
0.0
 71
               1
 72
               1
  1
77
  7
ＭＳ ゴシック
 11
0.0
 21
1.0
 31
0.0
 73
               1
 44
0.7828267384257843
  0
POINT
  5
B8
100
AcDbEntity
  8
Defpoints
370
               0
390
0
 62
               0
100
AcDbPoint
 10
567.9799529834545
 20
789.73261760395235
 30
0.0
  0
POINT
  5
B9
100
AcDbEntity
  8
Defpoints
370
               0
390
0
 62
               0
100
AcDbPoint
 10
644.9799529834545
 20
712.73261760395235
 30
0.0
  0
POINT
  5
BA
100
AcDbEntity
  8
Defpoints
370
               0
390
0
 62
               0
100
AcDbPoint
 10
744.9799529834545
 20
712.73261760395235
 30
0.0
  0
ENDBLK
  5
BB
100
AcDbEntity
  8
notes
390
0
100
AcDbBlockEnd
  0
BLOCK
  5
BC
100
AcDbEntity
  8
notes
390
0
100
AcDbBlockBegin
  2
*D10
 70
               1
 10
0.0
 20
0.0
 30
0.0
  3
*D10
  1

  0
LINE
  5
BD
100
AcDbEntity
  8
0
370
              -2
390
0
  6
Continuous
 62
               0
100
AcDbLine
 10
715.9799529834545
 20
423.73261760395394
 30
0.0
 11
715.9799529834545
 21
348.73261760395394
 31
0.0
  0
LINE
  5
BE
100
AcDbEntity
  8
0
370
              -2
390
0
  6
Continuous
 62
               0
100
AcDbLine
 10
479.9799529834545
 20
467.73261760395394
 30
0.0
 11
479.9799529834545
 21
348.73261760395394
 31
0.0
  0
LINE
  5
BF
100
AcDbEntity
  8
0
370
              -2
390
0
  6
Continuous
 62
               0
100
AcDbLine
 10
715.9799529834545
 20
348.73261760395394
 30
0.0
 11
479.9799529834545
 21
348.73261760395394
 31
0.0
  0
CIRCLE
  5
C0
102
{ACAD_REACTORS
330
C1
102
}
100
AcDbEntity
  8
0
370
              -2
390
0
  6
Continuous
 62
               0
100
AcDbCircle
 10
715.9799529834545
 20
348.73261760395394
 30
0.0
 40
1.9998779296875
  0
HATCH
  5
C1
100
AcDbEntity
  8
0
370
              -2
390
0
  6
Continuous
 62
               0
100
AcDbHatch
 10
0.0
 20
0.0
 30
0.0
210
0.0
220
0.0
230
1.0
  2
SOLID
 70
               1
 71
               1
 91
        1
 92
        1
 93
        1
 72
               2
 10
715.9799529834545
 20
348.73261760395394
 40
1.9998779296875
 50
0.0
 51
360.0
 73
               0
 97
        1
330
C0
 75
               0
 76
               1
 98
        1
 10
0.0
 20
0.0
  0
CIRCLE
  5
C2
102
{ACAD_REACTORS
330
C3
102
}
100
AcDbEntity
  8
0
370
              -2
390
0
  6
Continuous
 62
               0
100
AcDbCircle
 10
479.9799529834545
 20
348.73261760395394
 30
0.0
 40
1.9998779296875
  0
HATCH
  5
C3
100
AcDbEntity
  8
0
370
              -2
390
0
  6
Continuous
 62
               0
100
AcDbHatch
 10
0.0
 20
0.0
 30
0.0
210
0.0
220
0.0
230
1.0
  2
SOLID
 70
               1
 71
               1
 91
        1
 92
        1
 93
        1
 72
               2
 10
479.9799529834545
 20
348.73261760395394
 40
1.9998779296875
 50
0.0
 51
360.0
 73
               0
 97
        1
330
C2
 75
               0
 76
               1
 98
        1
 10
0.0
 20
0.0
  0
MTEXT
  5
C4
100
AcDbEntity
  8
0
390
0
 62
               0
100
AcDbMText
 10
574.16745130127856
 20
382.61023479145388
 30
0.0
 40
24.432617187500004
 41
0.0
 71
               1
 72
               1
  1
236
  7
ＭＳ ゴシック
 73
               1
 44
0.7828267384257843
  0
POINT
  5
C5
100
AcDbEntity
  8
Defpoints
370
               0
390
0
 62
               0
100
AcDbPoint
 10
479.9799529834545
 20
492.73261760395394
 30
0.0
  0
POINT
  5
C6
100
AcDbEntity
  8
Defpoints
370
               0
390
0
 62
               0
100
AcDbPoint
 10
715.9799529834545
 20
448.73261760395394
 30
0.0
  0
POINT
  5
C7
100
AcDbEntity
  8
Defpoints
370
               0
390
0
 62
               0
100
AcDbPoint
 10
715.9799529834545
 20
348.73261760395394
 30
0.0
  0
ENDBLK
  5
C8
100
AcDbEntity
  8
notes
390
0
100
AcDbBlockEnd
  0
BLOCK
  5
C9
100
AcDbEntity
  8
notes
390
0
100
AcDbBlockBegin
  2
*D11
 70
               1
 10
0.0
 20
0.0
 30
0.0
  3
*D11
  1

  0
LINE
  5
CA
100
AcDbEntity
  8
0
370
              -2
390
0
  6
Continuous
 62
               0
100
AcDbLine
 10
479.9799529834545
 20
467.73261760395394
 30
0.0
 11
479.9799529834545
 21
348.73261760395394
 31
0.0
  0
LINE
  5
CB
100
AcDbEntity
  8
0
370
              -2
390
0
  6
Continuous
 62
               0
100
AcDbLine
 10
243.9799529834545
 20
423.73261760395394
 30
0.0
 11
243.9799529834545
 21
348.73261760395394
 31
0.0
  0
LINE
  5
CC
100
AcDbEntity
  8
0
370
              -2
390
0
  6
Continuous
 62
               0
100
AcDbLine
 10
479.9799529834545
 20
348.73261760395394
 30
0.0
 11
243.9799529834545
 21
348.73261760395394
 31
0.0
  0
CIRCLE
  5
CD
102
{ACAD_REACTORS
330
CE
102
}
100
AcDbEntity
  8
0
370
              -2
390
0
  6
Continuous
 62
               0
100
AcDbCircle
 10
479.9799529834545
 20
348.73261760395394
 30
0.0
 40
1.9998779296875
  0
HATCH
  5
CE
100
AcDbEntity
  8
0
370
              -2
390
0
  6
Continuous
 62
               0
100
AcDbHatch
 10
0.0
 20
0.0
 30
0.0
210
0.0
220
0.0
230
1.0
  2
SOLID
 70
               1
 71
               1
 91
        1
 92
        1
 93
        1
 72
               2
 10
479.9799529834545
 20
348.73261760395394
 40
1.9998779296875
 50
0.0
 51
360.0
 73
               0
 97
        1
330
CD
 75
               0
 76
               1
 98
        1
 10
0.0
 20
0.0
  0
CIRCLE
  5
CF
102
{ACAD_REACTORS
330
D0
102
}
100
AcDbEntity
  8
0
370
              -2
390
0
  6
Continuous
 62
               0
100
AcDbCircle
 10
243.9799529834545
 20
348.73261760395394
 30
0.0
 40
1.9998779296875
  0
HATCH
  5
D0
100
AcDbEntity
  8
0
370
              -2
390
0
  6
Continuous
 62
               0
100
AcDbHatch
 10
0.0
 20
0.0
 30
0.0
210
0.0
220
0.0
230
1.0
  2
SOLID
 70
               1
 71
               1
 91
        1
 92
        1
 93
        1
 72
               2
 10
243.9799529834545
 20
348.73261760395394
 40
1.9998779296875
 50
0.0
 51
360.0
 73
               0
 97
        1
330
CF
 75
               0
 76
               1
 98
        1
 10
0.0
 20
0.0
  0
MTEXT
  5
D1
100
AcDbEntity
  8
0
390
0
 62
               0
100
AcDbMText
 10
338.16745130127856
 20
382.61023479145388
 30
0.0
 40
24.432617187500004
 41
0.0
 71
               1
 72
               1
  1
236
  7
ＭＳ ゴシック
 73
               1
 44
0.7828267384257843
  0
POINT
  5
D2
100
AcDbEntity
  8
Defpoints
370
               0
390
0
 62
               0
100
AcDbPoint
 10
243.9799529834545
 20
448.73261760395394
 30
0.0
  0
POINT
  5
D3
100
AcDbEntity
  8
Defpoints
370
               0
390
0
 62
               0
100
AcDbPoint
 10
479.9799529834545
 20
492.73261760395394
 30
0.0
  0
POINT
  5
D4
100
AcDbEntity
  8
Defpoints
370
               0
390
0
 62
               0
100
AcDbPoint
 10
479.9799529834545
 20
348.73261760395394
 30
0.0
  0
ENDBLK
  5
D5
100
AcDbEntity
  8
notes
390
0
100
AcDbBlockEnd
  0
BLOCK
  5
D6
100
AcDbEntity
  8
notes
390
0
100
AcDbBlockBegin
  2
*D12
 70
               1
 10
0.0
 20
0.0
 30
0.0
  3
*D12
  1

  0
LINE
  5
D7
100
AcDbEntity
  8
0
370
              -2
390
0
  6
Continuous
 62
               0
100
AcDbLine
 10
212.9799529834545
 20
454.73261760395394
 30
0.0
 11
137.9799529834545
 21
454.73261760395394
 31
0.0
  0
LINE
  5
D8
100
AcDbEntity
  8
0
370
              -2
390
0
  6
Continuous
 62
               0
100
AcDbLine
 10
212.9799529834545
 20
684.73261760395235
 30
0.0
 11
137.9799529834545
 21
684.73261760395235
 31
0.0
  0
LINE
  5
D9
100
AcDbEntity
  8
0
370
              -2
390
0
  6
Continuous
 62
               0
100
AcDbLine
 10
137.9799529834545
 20
454.73261760395394
 30
0.0
 11
137.9799529834545
 21
684.73261760395235
 31
0.0
  0
CIRCLE
  5
DA
102
{ACAD_REACTORS
330
DB
102
}
100
AcDbEntity
  8
0
370
              -2
390
0
  6
Continuous
 62
               0
100
AcDbCircle
 10
137.9799529834545
 20
454.73261760395394
 30
0.0
 40
1.9998779296875
  0
HATCH
  5
DB
100
AcDbEntity
  8
0
370
              -2
390
0
  6
Continuous
 62
               0
100
AcDbHatch
 10
0.0
 20
0.0
 30
0.0
210
0.0
220
0.0
230
1.0
  2
SOLID
 70
               1
 71
               1
 91
        1
 92
        1
 93
        1
 72
               2
 10
137.9799529834545
 20
454.73261760395394
 40
1.9998779296875
 50
0.0
 51
360.0
 73
               0
 97
        1
330
DA
 75
               0
 76
               1
 98
        1
 10
0.0
 20
0.0
  0
CIRCLE
  5
DC
102
{ACAD_REACTORS
330
DD
102
}
100
AcDbEntity
  8
0
370
              -2
390
0
  6
Continuous
 62
               0
100
AcDbCircle
 10
137.9799529834545
 20
684.73261760395235
 30
0.0
 40
1.9998779296875
  0
HATCH
  5
DD
100
AcDbEntity
  8
0
370
              -2
390
0
  6
Continuous
 62
               0
100
AcDbHatch
 10
0.0
 20
0.0
 30
0.0
210
0.0
220
0.0
230
1.0
  2
SOLID
 70
               1
 71
               1
 91
        1
 92
        1
 93
        1
 72
               2
 10
137.9799529834545
 20
684.73261760395235
 40
1.9998779296875
 50
0.0
 51
360.0
 73
               0
 97
        1
330
DC
 75
               0
 76
               1
 98
        1
 10
0.0
 20
0.0
  0
MTEXT
  5
DE
100
AcDbEntity
  8
0
390
0
 62
               0
100
AcDbMText
 10
104.10233579595479
 20
545.92011592177778
 30
0.0
 40
24.432617187500004
 41
0.0
 71
               1
 72
               1
  1
230
  7
ＭＳ ゴシック
 11
0.0
 21
1.0
 31
0.0
 73
               1
 44
0.7828267384257843
  0
POINT
  5
DF
100
AcDbEntity
  8
Defpoints
370
               0
390
0
 62
               0
100
AcDbPoint
 10
237.9799529834545
 20
684.73261760395235
 30
0.0
  0
POINT
  5
E0
100
AcDbEntity
  8
Defpoints
370
               0
390
0
 62
               0
100
AcDbPoint
 10
237.9799529834545
 20
454.73261760395394
 30
0.0
  0
POINT
  5
E1
100
AcDbEntity
  8
Defpoints
370
               0
390
0
 62
               0
100
AcDbPoint
 10
137.9799529834545
 20
454.73261760395394
 30
0.0
  0
ENDBLK
  5
E2
100
AcDbEntity
  8
notes
390
0
100
AcDbBlockEnd
  0
BLOCK
  5
E3
100
AcDbEntity
  8
notes
390
0
100
AcDbBlockBegin
  2
*D13
 70
               1
 10
0.0
 20
0.0
 30
0.0
  3
*D13
  1

  0
LINE
  5
E4
100
AcDbEntity
  8
0
370
              -2
390
0
  6
Continuous
 62
               0
100
AcDbLine
 10
212.9799529834545
 20
684.73261760395235
 30
0.0
 11
137.9799529834545
 21
684.73261760395235
 31
0.0
  0
LINE
  5
E5
100
AcDbEntity
  8
0
370
              -2
390
0
  6
Continuous
 62
               0
100
AcDbLine
 10
371.39799984257843
 20
789.73261760395235
 30
0.0
 11
137.9799529834545
 21
789.73261760395235
 31
0.0
  0
LINE
  5
E6
100
AcDbEntity
  8
0
370
              -2
390
0
  6
Continuous
 62
               0
100
AcDbLine
 10
137.9799529834545
 20
684.73261760395235
 30
0.0
 11
137.9799529834545
 21
789.73261760395235
 31
0.0
  0
CIRCLE
  5
E7
102
{ACAD_REACTORS
330
E8
102
}
100
AcDbEntity
  8
0
370
              -2
390
0
  6
Continuous
 62
               0
100
AcDbCircle
 10
137.9799529834545
 20
684.73261760395235
 30
0.0
 40
1.9998779296875
  0
HATCH
  5
E8
100
AcDbEntity
  8
0
370
              -2
390
0
  6
Continuous
 62
               0
100
AcDbHatch
 10
0.0
 20
0.0
 30
0.0
210
0.0
220
0.0
230
1.0
  2
SOLID
 70
               1
 71
               1
 91
        1
 92
        1
 93
        1
 72
               2
 10
137.9799529834545
 20
684.73261760395235
 40
1.9998779296875
 50
0.0
 51
360.0
 73
               0
 97
        1
330
E7
 75
               0
 76
               1
 98
        1
 10
0.0
 20
0.0
  0
CIRCLE
  5
E9
102
{ACAD_REACTORS
330
EA
102
}
100
AcDbEntity
  8
0
370
              -2
390
0
  6
Continuous
 62
               0
100
AcDbCircle
 10
137.9799529834545
 20
789.73261760395235
 30
0.0
 40
1.9998779296875
  0
HATCH
  5
EA
100
AcDbEntity
  8
0
370
              -2
390
0
  6
Continuous
 62
               0
100
AcDbHatch
 10
0.0
 20
0.0
 30
0.0
210
0.0
220
0.0
230
1.0
  2
SOLID
 70
               1
 71
               1
 91
        1
 92
        1
 93
        1
 72
               2
 10
137.9799529834545
 20
789.73261760395235
 40
1.9998779296875
 50
0.0
 51
360.0
 73
               0
 97
        1
330
E9
 75
               0
 76
               1
 98
        1
 10
0.0
 20
0.0
  0
MTEXT
  5
EB
100
AcDbEntity
  8
0
390
0
 62
               0
100
AcDbMText
 10
104.10233579595479
 20
713.42011592177687
 30
0.0
 40
24.432617187500004
 41
0.0
 71
               1
 72
               1
  1
105
  7
ＭＳ ゴシック
 11
0.0
 21
1.0
 31
0.0
 73
               1
 44
0.7828267384257843
  0
POINT
  5
EC
100
AcDbEntity
  8
Defpoints
370
               0
390
0
 62
               0
100
AcDbPoint
 10
396.39799984257843
 20
789.73261760395235
 30
0.0
  0
POINT
  5
ED
100
AcDbEntity
  8
Defpoints
370
               0
390
0
 62
               0
100
AcDbPoint
 10
237.9799529834545
 20
684.73261760395235
 30
0.0
  0
POINT
  5
EE
100
AcDbEntity
  8
Defpoints
370
               0
390
0
 62
               0
100
AcDbPoint
 10
137.9799529834545
 20
684.73261760395235
 30
0.0
  0
ENDBLK
  5
EF
100
AcDbEntity
  8
notes
390
0
100
AcDbBlockEnd
  0
BLOCK
  5
F0
100
AcDbEntity
  8
notes
390
0
100
AcDbBlockBegin
  2
*D14
 70
               1
 10
0.0
 20
0.0
 30
0.0
  3
*D14
  1

  0
LINE
  5
F1
100
AcDbEntity
  8
0
370
              -2
390
0
  6
Continuous
 62
               0
100
AcDbLine
 10
243.9799529834545
 20
423.73261760395394
 30
0.0
 11
243.9799529834545
 21
298.73261760395394
 31
0.0
  0
LINE
  5
F2
100
AcDbEntity
  8
0
370
              -2
390
0
  6
Continuous
 62
               0
100
AcDbLine
 10
715.9799529834545
 20
423.73261760395394
 30
0.0
 11
715.9799529834545
 21
298.73261760395394
 31
0.0
  0
LINE
  5
F3
100
AcDbEntity
  8
0
370
              -2
390
0
  6
Continuous
 62
               0
100
AcDbLine
 10
243.9799529834545
 20
298.73261760395394
 30
0.0
 11
715.9799529834545
 21
298.73261760395394
 31
0.0
  0
CIRCLE
  5
F4
102
{ACAD_REACTORS
330
F5
102
}
100
AcDbEntity
  8
0
370
              -2
390
0
  6
Continuous
 62
               0
100
AcDbCircle
 10
243.9799529834545
 20
298.73261760395394
 30
0.0
 40
1.9998779296875
  0
HATCH
  5
F5
100
AcDbEntity
  8
0
370
              -2
390
0
  6
Continuous
 62
               0
100
AcDbHatch
 10
0.0
 20
0.0
 30
0.0
210
0.0
220
0.0
230
1.0
  2
SOLID
 70
               1
 71
               1
 91
        1
 92
        1
 93
        1
 72
               2
 10
243.9799529834545
 20
298.73261760395394
 40
1.9998779296875
 50
0.0
 51
360.0
 73
               0
 97
        1
330
F4
 75
               0
 76
               1
 98
        1
 10
0.0
 20
0.0
  0
CIRCLE
  5
F6
102
{ACAD_REACTORS
330
F7
102
}
100
AcDbEntity
  8
0
370
              -2
390
0
  6
Continuous
 62
               0
100
AcDbCircle
 10
715.9799529834545
 20
298.73261760395394
 30
0.0
 40
1.9998779296875
  0
HATCH
  5
F7
100
AcDbEntity
  8
0
370
              -2
390
0
  6
Continuous
 62
               0
100
AcDbHatch
 10
0.0
 20
0.0
 30
0.0
210
0.0
220
0.0
230
1.0
  2
SOLID
 70
               1
 71
               1
 91
        1
 92
        1
 93
        1
 72
               2
 10
715.9799529834545
 20
298.73261760395394
 40
1.9998779296875
 50
0.0
 51
360.0
 73
               0
 97
        1
330
F6
 75
               0
 76
               1
 98
        1
 10
0.0
 20
0.0
  0
MTEXT
  5
F8
100
AcDbEntity
  8
0
390
0
 62
               0
100
AcDbMText
 10
456.16745130127856
 20
332.61023479145388
 30
0.0
 40
24.432617187500004
 41
0.0
 71
               1
 72
               1
  1
472
  7
ＭＳ ゴシック
 73
               1
 44
0.7828267384257843
  0
POINT
  5
F9
100
AcDbEntity
  8
Defpoints
370
               0
390
0
 62
               0
100
AcDbPoint
 10
715.9799529834545
 20
448.73261760395394
 30
0.0
  0
POINT
  5
FA
100
AcDbEntity
  8
Defpoints
370
               0
390
0
 62
               0
100
AcDbPoint
 10
243.9799529834545
 20
448.73261760395394
 30
0.0
  0
POINT
  5
FB
100
AcDbEntity
  8
Defpoints
370
               0
390
0
 62
               0
100
AcDbPoint
 10
243.9799529834545
 20
298.73261760395394
 30
0.0
  0
ENDBLK
  5
FC
100
AcDbEntity
  8
notes
390
0
100
AcDbBlockEnd
  0
BLOCK
  5
FD
100
AcDbEntity
  8
notes
390
0
100
AcDbBlockBegin
  2
*D15
 70
               1
 10
0.0
 20
0.0
 30
0.0
  3
*D15
  1

  0
LINE
  5
FE
100
AcDbEntity
  8
0
370
              -2
390
0
  6
Continuous
 62
               0
100
AcDbLine
 10
244.81690009814884
 20
690.67395748045601
 30
0.0
 11
276.39799984257843
 21
914.86261165113501
 31
0.0
  0
CIRCLE
  5
FF
102
{ACAD_REACTORS
330
100
102
}
100
AcDbEntity
  8
0
370
              -2
390
0
  6
Continuous
 62
               0
100
AcDbCircle
 10
244.81690009814884
 20
690.67395748045601
 30
0.0
 40
1.9998779296875
  0
HATCH
  5
100
100
AcDbEntity
  8
0
370
              -2
390
0
  6
Continuous
 62
               0
100
AcDbHatch
 10
0.0
 20
0.0
 30
0.0
210
0.0
220
0.0
230
1.0
  2
SOLID
 70
               1
 71
               1
 91
        1
 92
        1
 93
        1
 72
               2
 10
244.81690009814884
 20
690.67395748045601
 40
1.9998779296875
 50
0.0
 51
360.0
 73
               0
 97
        1
330
FF
 75
               0
 76
               1
 98
        1
 10
0.0
 20
0.0
  0
LINE
  5
101
100
AcDbEntity
  8
0
370
              -2
390
0
  6
Continuous
 62
               0
100
AcDbLine
 10
276.39799984257843
 20
914.86261165113501
 30
0.0
 11
669.77299984257843
 21
914.86261165113501
 31
0.0
  0
MTEXT
  5
102
100
AcDbEntity
  8
0
390
0
 62
               0
100
AcDbMText
 10
336.39799984257843
 20
948.74022883863518
 30
0.0
 40
24.432617187500004
 41
0.0
 71
               1
 72
               1
  1
φ12(固定金具用4ヶ所)
  7
ＭＳ ゴシック
 73
               1
 44
0.7828267384257843
  0
POINT
  5
103
100
AcDbEntity
  8
Defpoints
370
               0
390
0
 62
               0
100
AcDbPoint
 10
243.14300586876016
 20
678.79127772744914
 30
0.0
  0
POINT
  5
104
100
AcDbEntity
  8
Defpoints
370
               0
390
0
 62
               0
100
AcDbPoint
 10
244.81690009814884
 20
690.67395748045601
 30
0.0
  0
ENDBLK
  5
105
100
AcDbEntity
  8
notes
390
0
100
AcDbBlockEnd
  0
BLOCK
  5
106
100
AcDbEntity
  8
notes
390
0
100
AcDbBlockBegin
  2
*D16
 70
               1
 10
0.0
 20
0.0
 30
0.0
  3
*D16
  1

  0
LINE
  5
107
100
AcDbEntity
  8
0
370
              -2
390
0
  6
Continuous
 62
               0
100
AcDbLine
 10
479.93682741128214
 20
-616.18958027960582
 30
0.0
 11
479.93682741128214
 21
-691.18958027960684
 31
0.0
  0
LINE
  5
108
100
AcDbEntity
  8
0
370
              -2
390
0
  6
Continuous
 62
               0
100
AcDbLine
 10
697.43682741128214
 20
-450.91440245867238
 30
0.0
 11
697.43682741128214
 21
-691.18958027960684
 31
0.0
  0
LINE
  5
109
100
AcDbEntity
  8
0
370
              -2
390
0
  6
Continuous
 62
               0
100
AcDbLine
 10
479.93682741128214
 20
-691.18958027960684
 30
0.0
 11
697.43682741128214
 21
-691.18958027960684
 31
0.0
  0
CIRCLE
  5
10A
102
{ACAD_REACTORS
330
10B
102
}
100
AcDbEntity
  8
0
370
              -2
390
0
  6
Continuous
 62
               0
100
AcDbCircle
 10
479.93682741128214
 20
-691.18958027960684
 30
0.0
 40
1.9998779296875
  0
HATCH
  5
10B
100
AcDbEntity
  8
0
370
              -2
390
0
  6
Continuous
 62
               0
100
AcDbHatch
 10
0.0
 20
0.0
 30
0.0
210
0.0
220
0.0
230
1.0
  2
SOLID
 70
               1
 71
               1
 91
        1
 92
        1
 93
        1
 72
               2
 10
479.93682741128214
 20
-691.18958027960684
 40
1.9998779296875
 50
0.0
 51
360.0
 73
               0
 97
        1
330
10A
 75
               0
 76
               1
 98
        1
 10
0.0
 20
0.0
  0
CIRCLE
  5
10C
102
{ACAD_REACTORS
330
10D
102
}
100
AcDbEntity
  8
0
370
              -2
390
0
  6
Continuous
 62
               0
100
AcDbCircle
 10
697.43682741128214
 20
-691.18958027960684
 30
0.0
 40
1.9998779296875
  0
HATCH
  5
10D
100
AcDbEntity
  8
0
370
              -2
390
0
  6
Continuous
 62
               0
100
AcDbHatch
 10
0.0
 20
0.0
 30
0.0
210
0.0
220
0.0
230
1.0
  2
SOLID
 70
               1
 71
               1
 91
        1
 92
        1
 93
        1
 72
               2
 10
697.43682741128214
 20
-691.18958027960684
 40
1.9998779296875
 50
0.0
 51
360.0
 73
               0
 97
        1
330
10C
 75
               0
 76
               1
 98
        1
 10
0.0
 20
0.0
  0
MTEXT
  5
10E
100
AcDbEntity
  8
0
390
0
 62
               0
100
AcDbMText
 10
548.99932741128214
 20
-657.31196309210679
 30
0.0
 40
24.432617187500004
 41
0.0
 71
               1
 72
               1
  1
217.5
  7
ＭＳ ゴシック
 73
               1
 44
0.7828267384257843
  0
POINT
  5
10F
100
AcDbEntity
  8
Defpoints
370
               0
390
0
 62
               0
100
AcDbPoint
 10
697.43682741128214
 20
-425.91440245867238
 30
0.0
  0
POINT
  5
110
100
AcDbEntity
  8
Defpoints
370
               0
390
0
 62
               0
100
AcDbPoint
 10
479.93682741128214
 20
-591.18958027960582
 30
0.0
  0
POINT
  5
111
100
AcDbEntity
  8
Defpoints
370
               0
390
0
 62
               0
100
AcDbPoint
 10
479.93682741128214
 20
-691.18958027960684
 30
0.0
  0
ENDBLK
  5
112
100
AcDbEntity
  8
notes
390
0
100
AcDbBlockEnd
  0
BLOCK
  5
113
100
AcDbEntity
  8
notes
390
0
100
AcDbBlockBegin
  2
*D17
 70
               1
 10
0.0
 20
0.0
 30
0.0
  3
*D17
  1

  0
LINE
  5
114
100
AcDbEntity
  8
0
370
              -2
390
0
  6
Continuous
 62
               0
100
AcDbLine
 10
-723.28756697237986
 20
-581.18958027961651
 30
0.0
 11
-723.28756697237986
 21
-691.18958027960889
 31
0.0
  0
LINE
  5
115
100
AcDbEntity
  8
0
370
              -2
390
0
  6
Continuous
 62
               0
100
AcDbLine
 10
-163.28756697238168
 20
-581.18958027961651
 30
0.0
 11
-163.28756697238168
 21
-691.18958027960889
 31
0.0
  0
LINE
  5
116
100
AcDbEntity
  8
0
370
              -2
390
0
  6
Continuous
 62
               0
100
AcDbLine
 10
-723.28756697237986
 20
-691.18958027960889
 30
0.0
 11
-163.28756697238168
 21
-691.18958027960889
 31
0.0
  0
CIRCLE
  5
117
102
{ACAD_REACTORS
330
118
102
}
100
AcDbEntity
  8
0
370
              -2
390
0
  6
Continuous
 62
               0
100
AcDbCircle
 10
-723.28756697237986
 20
-691.18958027960889
 30
0.0
 40
1.9998779296875
  0
HATCH
  5
118
100
AcDbEntity
  8
0
370
              -2
390
0
  6
Continuous
 62
               0
100
AcDbHatch
 10
0.0
 20
0.0
 30
0.0
210
0.0
220
0.0
230
1.0
  2
SOLID
 70
               1
 71
               1
 91
        1
 92
        1
 93
        1
 72
               2
 10
-723.28756697237986
 20
-691.18958027960889
 40
1.9998779296875
 50
0.0
 51
360.0
 73
               0
 97
        1
330
117
 75
               0
 76
               1
 98
        1
 10
0.0
 20
0.0
  0
CIRCLE
  5
119
102
{ACAD_REACTORS
330
11A
102
}
100
AcDbEntity
  8
0
370
              -2
390
0
  6
Continuous
 62
               0
100
AcDbCircle
 10
-163.28756697238168
 20
-691.18958027960889
 30
0.0
 40
1.9998779296875
  0
HATCH
  5
11A
100
AcDbEntity
  8
0
370
              -2
390
0
  6
Continuous
 62
               0
100
AcDbHatch
 10
0.0
 20
0.0
 30
0.0
210
0.0
220
0.0
230
1.0
  2
SOLID
 70
               1
 71
               1
 91
        1
 92
        1
 93
        1
 72
               2
 10
-163.28756697238168
 20
-691.18958027960889
 40
1.9998779296875
 50
0.0
 51
360.0
 73
               0
 97
        1
330
119
 75
               0
 76
               1
 98
        1
 10
0.0
 20
0.0
  0
MTEXT
  5
11B
100
AcDbEntity
  8
0
390
0
 62
               0
100
AcDbMText
 10
-467.1000686545558
 20
-657.31196309210884
 30
0.0
 40
24.432617187500004
 41
0.0
 71
               1
 72
               1
  1
560
  7
ＭＳ ゴシック
 73
               1
 44
0.7828267384257843
  0
POINT
  5
11C
100
AcDbEntity
  8
Defpoints
370
               0
390
0
 62
               0
100
AcDbPoint
 10
-163.28756697238168
 20
-556.18958027961651
 30
0.0
  0
POINT
  5
11D
100
AcDbEntity
  8
Defpoints
370
               0
390
0
 62
               0
100
AcDbPoint
 10
-723.28756697237986
 20
-556.18958027961651
 30
0.0
  0
POINT
  5
11E
100
AcDbEntity
  8
Defpoints
370
               0
390
0
 62
               0
100
AcDbPoint
 10
-723.28756697237986
 20
-691.18958027960889
 30
0.0
  0
ENDBLK
  5
11F
100
AcDbEntity
  8
notes
390
0
100
AcDbBlockEnd
  0
BLOCK
  5
120
100
AcDbEntity
  8
notes
390
0
100
AcDbBlockBegin
  2
*D18
 70
               1
 10
0.0
 20
0.0
 30
0.0
  3
*D18
  1

  0
LINE
  5
121
100
AcDbEntity
  8
0
370
              -2
390
0
  6
Continuous
 62
               0
100
AcDbLine
 10
319.99799984257879
 20
-581.35102906470718
 30
0.0
 11
319.99799984257879
 21
-741.18958027960684
 31
0.0
  0
LINE
  5
122
100
AcDbEntity
  8
0
370
              -2
390
0
  6
Continuous
 62
               0
100
AcDbLine
 10
639.99799984257879
 20
-581.35102906470718
 30
0.0
 11
639.99799984257879
 21
-741.18958027960684
 31
0.0
  0
LINE
  5
123
100
AcDbEntity
  8
0
370
              -2
390
0
  6
Continuous
 62
               0
100
AcDbLine
 10
319.99799984257879
 20
-741.18958027960684
 30
0.0
 11
639.99799984257879
 21
-741.18958027960684
 31
0.0
  0
CIRCLE
  5
124
102
{ACAD_REACTORS
330
125
102
}
100
AcDbEntity
  8
0
370
              -2
390
0
  6
Continuous
 62
               0
100
AcDbCircle
 10
319.99799984257879
 20
-741.18958027960684
 30
0.0
 40
1.9998779296875
  0
HATCH
  5
125
100
AcDbEntity
  8
0
370
              -2
390
0
  6
Continuous
 62
               0
100
AcDbHatch
 10
0.0
 20
0.0
 30
0.0
210
0.0
220
0.0
230
1.0
  2
SOLID
 70
               1
 71
               1
 91
        1
 92
        1
 93
        1
 72
               2
 10
319.99799984257879
 20
-741.18958027960684
 40
1.9998779296875
 50
0.0
 51
360.0
 73
               0
 97
        1
330
124
 75
               0
 76
               1
 98
        1
 10
0.0
 20
0.0
  0
CIRCLE
  5
126
102
{ACAD_REACTORS
330
127
102
}
100
AcDbEntity
  8
0
370
              -2
390
0
  6
Continuous
 62
               0
100
AcDbCircle
 10
639.99799984257879
 20
-741.18958027960684
 30
0.0
 40
1.9998779296875
  0
HATCH
  5
127
100
AcDbEntity
  8
0
370
              -2
390
0
  6
Continuous
 62
               0
100
AcDbHatch
 10
0.0
 20
0.0
 30
0.0
210
0.0
220
0.0
230
1.0
  2
SOLID
 70
               1
 71
               1
 91
        1
 92
        1
 93
        1
 72
               2
 10
639.99799984257879
 20
-741.18958027960684
 40
1.9998779296875
 50
0.0
 51
360.0
 73
               0
 97
        1
330
126
 75
               0
 76
               1
 98
        1
 10
0.0
 20
0.0
  0
MTEXT
  5
128
100
AcDbEntity
  8
0
390
0
 62
               0
100
AcDbMText
 10
456.18549816040286
 20
-707.31196309210679
 30
0.0
 40
24.432617187500004
 41
0.0
 71
               1
 72
               1
  1
320
  7
ＭＳ ゴシック
 73
               1
 44
0.7828267384257843
  0
POINT
  5
129
100
AcDbEntity
  8
Defpoints
370
               0
390
0
 62
               0
100
AcDbPoint
 10
639.99799984257879
 20
-556.35102906470718
 30
0.0
  0
POINT
  5
12A
100
AcDbEntity
  8
Defpoints
370
               0
390
0
 62
               0
100
AcDbPoint
 10
319.99799984257879
 20
-556.35102906470718
 30
0.0
  0
POINT
  5
12B
100
AcDbEntity
  8
Defpoints
370
               0
390
0
 62
               0
100
AcDbPoint
 10
319.99799984257879
 20
-741.18958027960684
 30
0.0
  0
ENDBLK
  5
12C
100
AcDbEntity
  8
notes
390
0
100
AcDbBlockEnd
  0
BLOCK
  5
12D
100
AcDbEntity
  8
notes
390
0
100
AcDbBlockBegin
  2
*D19
 70
               1
 10
0.0
 20
0.0
 30
0.0
  3
*D19
  1

  0
LINE
  5
12E
100
AcDbEntity
  8
0
370
              -2
390
0
  6
Continuous
 62
               0
100
AcDbLine
 10
-72.790491225921869
 20
-426.18958027959729
 30
0.0
 11
7.1979998425777012
 21
-426.18958027959729
 31
0.0
  0
LINE
  5
12F
100
AcDbEntity
  8
0
370
              -2
390
0
  6
Continuous
 62
               0
100
AcDbLine
 10
-382.84485548333214
 20
-591.18958027960889
 30
0.0
 11
7.1979998425777012
 21
-591.18958027960889
 31
0.0
  0
LINE
  5
130
100
AcDbEntity
  8
0
370
              -2
390
0
  6
Continuous
 62
               0
100
AcDbLine
 10
7.1979998425777012
 20
-426.18958027959729
 30
0.0
 11
7.1979998425777012
 21
-591.18958027960889
 31
0.0
  0
CIRCLE
  5
131
102
{ACAD_REACTORS
330
132
102
}
100
AcDbEntity
  8
0
370
              -2
390
0
  6
Continuous
 62
               0
100
AcDbCircle
 10
7.1979998425777012
 20
-426.18958027959729
 30
0.0
 40
1.9998779296875
  0
HATCH
  5
132
100
AcDbEntity
  8
0
370
              -2
390
0
  6
Continuous
 62
               0
100
AcDbHatch
 10
0.0
 20
0.0
 30
0.0
210
0.0
220
0.0
230
1.0
  2
SOLID
 70
               1
 71
               1
 91
        1
 92
        1
 93
        1
 72
               2
 10
7.1979998425777012
 20
-426.18958027959729
 40
1.9998779296875
 50
0.0
 51
360.0
 73
               0
 97
        1
330
131
 75
               0
 76
               1
 98
        1
 10
0.0
 20
0.0
  0
CIRCLE
  5
133
102
{ACAD_REACTORS
330
134
102
}
100
AcDbEntity
  8
0
370
              -2
390
0
  6
Continuous
 62
               0
100
AcDbCircle
 10
7.1979998425777012
 20
-591.18958027960889
 30
0.0
 40
1.9998779296875
  0
HATCH
  5
134
100
AcDbEntity
  8
0
370
              -2
390
0
  6
Continuous
 62
               0
100
AcDbHatch
 10
0.0
 20
0.0
 30
0.0
210
0.0
220
0.0
230
1.0
  2
SOLID
 70
               1
 71
               1
 91
        1
 92
        1
 93
        1
 72
               2
 10
7.1979998425777012
 20
-591.18958027960889
 40
1.9998779296875
 50
0.0
 51
360.0
 73
               0
 97
        1
330
133
 75
               0
 76
               1
 98
        1
 10
0.0
 20
0.0
  0
MTEXT
  5
135
100
AcDbEntity
  8
0
390
0
 62
               0
100
AcDbMText
 10
-26.679617344922008
 20
-532.50208196177857
 30
0.0
 40
24.432617187500004
 41
0.0
 71
               1
 72
               1
  1
165
  7
ＭＳ ゴシック
 11
0.0
 21
1.0
 31
0.0
 73
               1
 44
0.7828267384257843
  0
POINT
  5
136
100
AcDbEntity
  8
Defpoints
370
               0
390
0
 62
               0
100
AcDbPoint
 10
-407.84485548333214
 20
-591.18958027960889
 30
0.0
  0
POINT
  5
137
100
AcDbEntity
  8
Defpoints
370
               0
390
0
 62
               0
100
AcDbPoint
 10
-97.790491225921869
 20
-426.18958027959729
 30
0.0
  0
POINT
  5
138
100
AcDbEntity
  8
Defpoints
370
               0
390
0
 62
               0
100
AcDbPoint
 10
7.1979998425777012
 20
-426.18958027959729
 30
0.0
  0
ENDBLK
  5
139
100
AcDbEntity
  8
notes
390
0
100
AcDbBlockEnd
  0
BLOCK
  5
13A
100
AcDbEntity
  8
notes
390
0
100
AcDbBlockBegin
  2
*D20
 70
               1
 10
0.0
 20
0.0
 30
0.0
  3
*D20
  1

  0
LINE
  5
13B
100
AcDbEntity
  8
0
370
              -2
390
0
  6
Continuous
 62
               0
100
AcDbLine
 10
716.4857349980357
 20
-426.18958027959548
 30
0.0
 11
796.22265047733345
 21
-426.18958027959548
 31
0.0
  0
LINE
  5
13C
100
AcDbEntity
  8
0
370
              -2
390
0
  6
Continuous
 62
               0
100
AcDbLine
 10
655.30778897821256
 20
-556.18958027959729
 30
0.0
 11
796.22265047733345
 21
-556.18958027959729
 31
0.0
  0
LINE
  5
13D
100
AcDbEntity
  8
0
370
              -2
390
0
  6
Continuous
 62
               0
100
AcDbLine
 10
796.22265047733345
 20
-426.18958027959548
 30
0.0
 11
796.22265047733345
 21
-556.18958027959729
 31
0.0
  0
CIRCLE
  5
13E
102
{ACAD_REACTORS
330
13F
102
}
100
AcDbEntity
  8
0
370
              -2
390
0
  6
Continuous
 62
               0
100
AcDbCircle
 10
796.22265047733345
 20
-426.18958027959548
 30
0.0
 40
1.9998779296875
  0
HATCH
  5
13F
100
AcDbEntity
  8
0
370
              -2
390
0
  6
Continuous
 62
               0
100
AcDbHatch
 10
0.0
 20
0.0
 30
0.0
210
0.0
220
0.0
230
1.0
  2
SOLID
 70
               1
 71
               1
 91
        1
 92
        1
 93
        1
 72
               2
 10
796.22265047733345
 20
-426.18958027959548
 40
1.9998779296875
 50
0.0
 51
360.0
 73
               0
 97
        1
330
13E
 75
               0
 76
               1
 98
        1
 10
0.0
 20
0.0
  0
CIRCLE
  5
140
102
{ACAD_REACTORS
330
141
102
}
100
AcDbEntity
  8
0
370
              -2
390
0
  6
Continuous
 62
               0
100
AcDbCircle
 10
796.22265047733345
 20
-556.18958027959729
 30
0.0
 40
1.9998779296875
  0
HATCH
  5
141
100
AcDbEntity
  8
0
370
              -2
390
0
  6
Continuous
 62
               0
100
AcDbHatch
 10
0.0
 20
0.0
 30
0.0
210
0.0
220
0.0
230
1.0
  2
SOLID
 70
               1
 71
               1
 91
        1
 92
        1
 93
        1
 72
               2
 10
796.22265047733345
 20
-556.18958027959729
 40
1.9998779296875
 50
0.0
 51
360.0
 73
               0
 97
        1
330
140
 75
               0
 76
               1
 98
        1
 10
0.0
 20
0.0
  0
MTEXT
  5
142
100
AcDbEntity
  8
0
390
0
 62
               0
100
AcDbMText
 10
762.34503328983374
 20
-515.00208196177186
 30
0.0
 40
24.432617187500004
 41
0.0
 71
               1
 72
               1
  1
130
  7
ＭＳ ゴシック
 11
0.0
 21
1.0
 31
0.0
 73
               1
 44
0.7828267384257843
  0
POINT
  5
143
100
AcDbEntity
  8
Defpoints
370
               0
390
0
 62
               0
100
AcDbPoint
 10
630.30778897821256
 20
-556.18958027959729
 30
0.0
  0
POINT
  5
144
100
AcDbEntity
  8
Defpoints
370
               0
390
0
 62
               0
100
AcDbPoint
 10
691.4857349980357
 20
-426.18958027959548
 30
0.0
  0
POINT
  5
145
100
AcDbEntity
  8
Defpoints
370
               0
390
0
 62
               0
100
AcDbPoint
 10
796.22265047733345
 20
-426.18958027959548
 30
0.0
  0
ENDBLK
  5
146
100
AcDbEntity
  8
notes
390
0
100
AcDbBlockEnd
  0
BLOCK
  5
147
100
AcDbEntity
  8
notes
390
0
100
AcDbBlockBegin
  2
*D21
 70
               1
 10
0.0
 20
0.0
 30
0.0
  3
*D21
  1

  0
LINE
  5
148
100
AcDbEntity
  8
0
370
              -2
390
0
  6
Continuous
 62
               0
100
AcDbLine
 10
655.30778897821256
 20
-556.18958027959729
 30
0.0
 11
796.22265047733345
 21
-556.18958027959729
 31
0.0
  0
LINE
  5
149
100
AcDbEntity
  8
0
370
              -2
390
0
  6
Continuous
 62
               0
100
AcDbLine
 10
539.47995298252499
 20
-591.18958027960684
 30
0.0
 11
796.22265047733345
 21
-591.18958027960684
 31
0.0
  0
LINE
  5
14A
100
AcDbEntity
  8
0
370
              -2
390
0
  6
Continuous
 62
               0
100
AcDbLine
 10
796.22265047733345
 20
-591.18958027960684
 30
0.0
 11
796.22265047733345
 21
-628.8873883488634
 31
0.0
  0
LINE
  5
14B
100
AcDbEntity
  8
0
370
              -2
390
0
  6
Continuous
 62
               0
100
AcDbLine
 10
796.22265047733345
 20
-556.18958027959729
 30
0.0
 11
796.22265047733345
 21
-591.18958027960684
 31
0.0
  0
CIRCLE
  5
14C
102
{ACAD_REACTORS
330
14D
102
}
100
AcDbEntity
  8
0
370
              -2
390
0
  6
Continuous
 62
               0
100
AcDbCircle
 10
796.22265047733345
 20
-556.18958027959729
 30
0.0
 40
1.9998779296875
  0
HATCH
  5
14D
100
AcDbEntity
  8
0
370
              -2
390
0
  6
Continuous
 62
               0
100
AcDbHatch
 10
0.0
 20
0.0
 30
0.0
210
0.0
220
0.0
230
1.0
  2
SOLID
 70
               1
 71
               1
 91
        1
 92
        1
 93
        1
 72
               2
 10
796.22265047733345
 20
-556.18958027959729
 40
1.9998779296875
 50
0.0
 51
360.0
 73
               0
 97
        1
330
14C
 75
               0
 76
               1
 98
        1
 10
0.0
 20
0.0
  0
CIRCLE
  5
14E
102
{ACAD_REACTORS
330
14F
102
}
100
AcDbEntity
  8
0
370
              -2
390
0
  6
Continuous
 62
               0
100
AcDbCircle
 10
796.22265047733345
 20
-591.18958027960684
 30
0.0
 40
1.9998779296875
  0
HATCH
  5
14F
100
AcDbEntity
  8
0
370
              -2
390
0
  6
Continuous
 62
               0
100
AcDbHatch
 10
0.0
 20
0.0
 30
0.0
210
0.0
220
0.0
230
1.0
  2
SOLID
 70
               1
 71
               1
 91
        1
 92
        1
 93
        1
 72
               2
 10
796.22265047733345
 20
-591.18958027960684
 40
1.9998779296875
 50
0.0
 51
360.0
 73
               0
 97
        1
330
14E
 75
               0
 76
               1
 98
        1
 10
0.0
 20
0.0
  0
MTEXT
  5
150
100
AcDbEntity
  8
0
390
0
 62
               0
100
AcDbMText
 10
762.34503328983374
 20
-628.8873883488634
 30
0.0
 40
24.432617187500004
 41
0.0
 71
               1
 72
               1
  1
35
  7
ＭＳ ゴシック
 11
0.0
 21
1.0
 31
0.0
 73
               1
 44
0.7828267384257843
  0
POINT
  5
151
100
AcDbEntity
  8
Defpoints
370
               0
390
0
 62
               0
100
AcDbPoint
 10
514.47995298252499
 20
-591.18958027960684
 30
0.0
  0
POINT
  5
152
100
AcDbEntity
  8
Defpoints
370
               0
390
0
 62
               0
100
AcDbPoint
 10
630.30778897821256
 20
-556.18958027959729
 30
0.0
  0
POINT
  5
153
100
AcDbEntity
  8
Defpoints
370
               0
390
0
 62
               0
100
AcDbPoint
 10
796.22265047733345
 20
-556.18958027959729
 30
0.0
  0
ENDBLK
  5
154
100
AcDbEntity
  8
notes
390
0
100
AcDbBlockEnd
  0
BLOCK
  5
155
100
AcDbEntity
  8
notes
390
0
100
AcDbBlockBegin
  2
*D22
 70
               1
 10
0.0
 20
0.0
 30
0.0
  3
*D22
  1

  0
LINE
  5
156
100
AcDbEntity
  8
0
370
              -2
390
0
  6
Continuous
 62
               0
100
AcDbLine
 10
510.37396697989425
 20
-426.1895802795982
 30
0.0
 11
488.32177504916035
 21
-426.1895802795982
 31
0.0
  0
LINE
  5
157
100
AcDbEntity
  8
0
370
              -2
390
0
  6
Continuous
 62
               0
100
AcDbLine
 10
510.37396697989425
 20
-546.18958027959093
 30
0.0
 11
488.32177504916035
 21
-546.18958027959093
 31
0.0
  0
LINE
  5
158
100
AcDbEntity
  8
0
370
              -2
390
0
  6
Continuous
 62
               0
100
AcDbLine
 10
488.32177504916035
 20
-426.1895802795982
 30
0.0
 11
488.32177504916035
 21
-272.2623883488634
 31
0.0
  0
LINE
  5
159
100
AcDbEntity
  8
0
370
              -2
390
0
  6
Continuous
 62
               0
100
AcDbLine
 10
488.32177504916035
 20
-426.1895802795982
 30
0.0
 11
488.32177504916035
 21
-546.18958027959093
 31
0.0
  0
CIRCLE
  5
15A
102
{ACAD_REACTORS
330
15B
102
}
100
AcDbEntity
  8
0
370
              -2
390
0
  6
Continuous
 62
               0
100
AcDbCircle
 10
488.32177504916035
 20
-426.1895802795982
 30
0.0
 40
1.9998779296875
  0
HATCH
  5
15B
100
AcDbEntity
  8
0
370
              -2
390
0
  6
Continuous
 62
               0
100
AcDbHatch
 10
0.0
 20
0.0
 30
0.0
210
0.0
220
0.0
230
1.0
  2
SOLID
 70
               1
 71
               1
 91
        1
 92
        1
 93
        1
 72
               2
 10
488.32177504916035
 20
-426.1895802795982
 40
1.9998779296875
 50
0.0
 51
360.0
 73
               0
 97
        1
330
15A
 75
               0
 76
               1
 98
        1
 10
0.0
 20
0.0
  0
CIRCLE
  5
15C
102
{ACAD_REACTORS
330
15D
102
}
100
AcDbEntity
  8
0
370
              -2
390
0
  6
Continuous
 62
               0
100
AcDbCircle
 10
488.32177504916035
 20
-546.18958027959093
 30
0.0
 40
1.9998779296875
  0
HATCH
  5
15D
100
AcDbEntity
  8
0
370
              -2
390
0
  6
Continuous
 62
               0
100
AcDbHatch
 10
0.0
 20
0.0
 30
0.0
210
0.0
220
0.0
230
1.0
  2
SOLID
 70
               1
 71
               1
 91
        1
 92
        1
 93
        1
 72
               2
 10
488.32177504916035
 20
-546.18958027959093
 40
1.9998779296875
 50
0.0
 51
360.0
 73
               0
 97
        1
330
15C
 75
               0
 76
               1
 98
        1
 10
0.0
 20
0.0
  0
MTEXT
  5
15E
100
AcDbEntity
  8
0
390
0
 62
               0
100
AcDbMText
 10
454.44415786166064
 20
-415.1373883488634
 30
0.0
 40
24.432617187500004
 41
0.0
 71
               1
 72
               1
  1
120(深さ)
  7
ＭＳ ゴシック
 11
0.0
 21
1.0
 31
0.0
 73
               1
 44
0.7828267384257843
  0
POINT
  5
15F
100
AcDbEntity
  8
Defpoints
370
               0
390
0
 62
               0
100
AcDbPoint
 10
485.37396697989425
 20
-546.18958027959093
 30
0.0
  0
POINT
  5
160
100
AcDbEntity
  8
Defpoints
370
               0
390
0
 62
               0
100
AcDbPoint
 10
485.37396697989425
 20
-426.1895802795982
 30
0.0
  0
POINT
  5
161
100
AcDbEntity
  8
Defpoints
370
               0
390
0
 62
               0
100
AcDbPoint
 10
488.32177504916035
 20
-426.1895802795982
 30
0.0
  0
ENDBLK
  5
162
100
AcDbEntity
  8
notes
390
0
100
AcDbBlockEnd
  0
ENDSEC
  0
SECTION
  2
ENTITIES
  0
MTEXT
  5
163
100
AcDbEntity
  8
template
390
0
 62
               7
100
AcDbMText
 10
-967.99999999975989
 20
-1147.4176292337002
 30
0.0
 40
16.288411458333332
 41
0.0
 71
               1
 72
               1
  1
品名
  7
ＭＳ ゴシック
 73
               1
 44
0.7828267384257843
  0
MTEXT
  5
164
100
AcDbEntity
  8
template
390
0
 62
               7
100
AcDbMText
 10
-967.99999999975989
 20
-1232.4176292337002
 30
0.0
 40
16.288411458333332
 41
0.0
 71
               1
 72
               1
  1
仕様
  7
ＭＳ ゴシック
 73
               1
 44
0.7828267384257843
  0
LINE
  5
165
100
AcDbEntity
  8
template
370
               5
390
0
  6
Continuous
 62
               7
100
AcDbLine
 10
974.99999999975807
 20
-1224.0027073587003
 30
0.0
 11
-975.00000000024374
 21
-1224.0027073587003
 31
0.0
  0
LWPOLYLINE
  5
166
100
AcDbEntity
  8
template
370
               5
390
0
  6
Continuous
 62
               7
100
AcDbPolyline
 90
        5
 70
             128
 10
975.00000000024011
 20
1405.9972926412997
 10
-974.99999999975989
 20
1405.9972926412997
 10
-974.99999999975989
 20
-1394.0027073587003
 10
975.00000000024011
 20
-1394.0027073587003
 10
975.00000000024011
 20
1405.9972926412997
  0
LINE
  5
167
100
AcDbEntity
  8
template
370
               5
390
0
  6
Continuous
 62
               7
100
AcDbLine
 10
974.99999999975807
 20
-1139.0027073587003
 30
0.0
 11
-975.00000000024374
 21
-1139.0027073587003
 31
0.0
  0
LINE
  5
168
100
AcDbEntity
  8
template
370
               5
390
0
  6
Continuous
 62
               7
100
AcDbLine
 10
975.00000000024011
 20
-1309.0027073587003
 30
0.0
 11
222.00000000024011
 21
-1309.0027073587003
 31
0.0
  0
MTEXT
  5
169
100
AcDbEntity
  8
template
390
0
 62
               7
100
AcDbMText
 10
-974.99999999955617
 20
-1405.8565294155571
 30
0.0
 40
21.717881944444446
 41
0.0
 71
               1
 72
               1
  1
100709SH
  7
ＭＳ ゴシック
 73
               1
 44
0.7828267384257843
  0
MTEXT
  5
16A
100
AcDbEntity
  8
template
390
0
 62
               7
100
AcDbMText
 10
251.87140625249958
 20
-1338.9131018320079
 30
0.0
 40
24.432617187500004
 41
0.0
 71
               1
 72
               1
  1
大洋金物株式会社 ティーフォルム事業部
  7
ＭＳ ゴシック
 73
               1
 44
0.7828267384257843
  0
INSERT
  5
16B
100
AcDbEntity
  8
template
390
0
 62
               7
100
AcDbBlockReference
  2
グループ
 10
15766.319440094761
 20
-1422.2426327277108
 30
0.0
  0
MTEXT
  5
16C
100
AcDbEntity
  8
template
390
0
 62
               7
100
AcDbMText
 10
784.00000000050022
 20
-1261.0000901712003
 30
0.0
 40
24.432617187500004
 41
0.0
 71
               1
 72
               1
  1
1:10
  7
ＭＳ ゴシック
 73
               1
 44
0.7828267384257843
  0
MTEXT
  5
16D
100
AcDbEntity
  8
template
390
0
 62
               7
100
AcDbMText
 10
731.00000000050022
 20
-1232.4176292337002
 30
0.0
 40
16.288411458333332
 41
0.0
 71
               1
 72
               1
  1
縮尺
  7
ＭＳ ゴシック
 73
               1
 44
0.7828267384257843
  0
LINE
  5
16E
100
AcDbEntity
  8
template
370
               5
390
0
  6
Continuous
 62
               7
100
AcDbLine
 10
724.00000000050022
 20
-1309.0027073587003
 30
0.0
 11
724.00000000050022
 21
-1224.0027073587003
 31
0.0
  0
MTEXT
  5
16F
100
AcDbEntity
  8
template
390
0
 62
               7
100
AcDbMText
 10
480.00000000050022
 20
-1232.4176292337002
 30
0.0
 40
16.288411458333332
 41
0.0
 71
               1
 72
               1
  1
容量
  7
ＭＳ ゴシック
 73
               1
 44
0.7828267384257843
  0
MTEXT
  5
170
100
AcDbEntity
  8
template
390
0
 62
               7
100
AcDbMText
 10
533.00000000050022
 20
-1260.9383459142705
 30
0.0
 40
23.9074177654294
 41
0.0
 71
               1
 72
               1
  1
5.1L
  7
ＭＳ ゴシック
 73
               1
 44
0.7828267384257843
  0
LINE
  5
171
100
AcDbEntity
  8
template
370
               5
390
0
  6
Continuous
 62
               7
100
AcDbLine
 10
473.00000000050022
 20
-1309.0027073587003
 30
0.0
 11
473.00000000050022
 21
-1224.0027073587003
 31
0.0
  0
MTEXT
  5
172
100
AcDbEntity
  8
template
390
0
 62
               7
100
AcDbMText
 10
229.00000000050022
 20
-1147.4176292337002
 30
0.0
 40
16.288411458333332
 41
0.0
 71
               1
 72
               1
  1
品番
  7
ＭＳ ゴシック
 73
               1
 44
0.7828267384257843
  0
MTEXT
  5
173
100
AcDbEntity
  8
template
390
0
 62
               7
100
AcDbMText
 10
229.00000000050022
 20
-1232.4176292337002
 30
0.0
 40
16.288411458333332
 41
0.0
 71
               1
 72
               1
  1
重量
  7
ＭＳ ゴシック
 73
               1
 44
0.7828267384257843
  0
MTEXT
  5
174
100
AcDbEntity
  8
template
390
0
 62
               7
100
AcDbMText
 10
282.00000000050022
 20
-1176.0000901712003
 30
0.0
 40
24.432617187500004
 41
0.0
 71
               1
 72
               1
  1
ARJ70-0303(旧品番:AQI70-0303)
  7
ＭＳ ゴシック
 73
               1
 44
0.7828267384257843
  0
MTEXT
  5
175
100
AcDbEntity
  8
template
390
0
 62
               7
100
AcDbMText
 10
282.00000000050022
 20
-1261.0000901712003
 30
0.0
 40
24.432617187500004
 41
0.0
 71
               1
 72
               1
  1
14kg
  7
ＭＳ ゴシック
 73
               1
 44
0.7828267384257843
  0
LINE
  5
176
100
AcDbEntity
  8
template
370
               5
390
0
  6
Continuous
 62
               7
100
AcDbLine
 10
222.00000000050022
 20
-1394.0027073587003
 30
0.0
 11
222.00000000050022
 21
-1139.0027073587003
 31
0.0
  0
MTEXT
  5
177
100
AcDbEntity
  8
template
390
0
 62
               7
100
AcDbMText
 10
-914.99999999975989
 20
-1176.0000901712003
 30
0.0
 40
24.432617187500004
 41
0.0
 71
               1
 72
               1
  1
洗面器 -POZZI GINORI,Q3-
  7
ＭＳ ゴシック
 73
               1
 44
0.7828267384257843
  0
MTEXT
  5
178
100
AcDbEntity
  8
template
390
0
 62
               7
100
AcDbMText
 10
-914.99999999975989
 20
-1261.0000901712003
 30
0.0
 40
24.432617187500004
 41
0.0
 71
               1
 72
               1
  1
カウンタートップ/オーバーフロー付き/カウンター固定金具,型 紙付属/\P陶器/ホワイト
  7
ＭＳ ゴシック
 73
               1
 44
1.3047112307096407
  0
DIMENSION
  5
179
100
AcDbEntity
  8
notes
370
               5
390
0
  6
Continuous
 62
               7
100
AcDbDimension
  2
*D3
 10
-792.8020001574223
 20
890.23261760395417
 30
0.0
 11
-442.8020001574223
 21
890.23261760395417
 31
0.0
 71
               5
 72
               1
 41
1.0
 42
0.0
  3
tform線あり
100
AcDbAlignedDimension
 13
-92.802000157422299
 23
594.84543413916549
 33
0.0
 14
-792.8020001574223
 24
594.84543413916549
 34
0.0
100
AcDbRotatedDimension
1001
ACAD
1000
DSTYLE
1002
{
1070
             279
1070
               2
1070
             340
1005
38
1070
             147
1040
5.0
1002
}
  0
DIMENSION
  5
17A
100
AcDbEntity
  8
notes
370
               5
390
0
  6
Continuous
 62
               7
100
AcDbDimension
  2
*D4
 10
7.1979998425777012
 20
789.73261760395235
 30
0.0
 11
7.1979998425777012
 21
572.23261760395235
 31
0.0
 71
               5
 72
               1
 41
1.0
 42
0.0
  3
tform線あり
100
AcDbAlignedDimension
 13
-367.79048411375697
 23
354.73261760395235
 33
0.0
 14
-392.79048411375697
 24
789.73261760395235
 34
0.0
 50
90.0
100
AcDbRotatedDimension
1001
ACAD
1000
DSTYLE
1002
{
1070
             279
1070
               2
1070
             340
1005
38
1070
             147
1040
5.0
1002
}
  0
DIMENSION
  5
17B
100
AcDbEntity
  8
notes
370
               5
390
0
  6
Continuous
 62
               7
100
AcDbDimension
  2
*D5
 10
-753.81250168217593
 20
255.73261760395417
 30
0.0
 11
-443.81250168217593
 21
255.73261760395417
 31
0.0
 71
               5
 72
               1
 41
1.0
 42
0.0
  3
tform線あり
100
AcDbAlignedDimension
 13
-133.81250168217593
 23
456.4022630591287
 33
0.0
 14
-753.81250168217593
 24
456.8626116511366
 34
0.0
100
AcDbRotatedDimension
1001
ACAD
1000
DSTYLE
1002
{
1070
             279
1070
               2
1070
             340
1005
38
1070
             147
1040
5.0
1002
}
  0
DIMENSION
  5
17C
100
AcDbEntity
  8
notes
370
               5
390
0
  6
Continuous
 62
               7
100
AcDbDimension
  2
*D6
 10
-892.8020001574223
 20
749.73457925419143
 30
0.0
 11
-892.8020001574223
 21
572.23457925419143
 31
0.0
 71
               5
 72
               1
 41
1.0
 42
0.0
  3
tform線あり
100
AcDbAlignedDimension
 13
-680.09817133315664
 23
394.73457925419143
 33
0.0
 14
-673.60200015742157
 24
749.73457925419143
 34
0.0
 50
90.0
100
AcDbRotatedDimension
1001
ACAD
1000
DSTYLE
1002
{
1070
             279
1070
               2
1070
             340
1005
38
1070
             147
1040
5.0
1002
}
  0
DIMENSION
  5
17D
100
AcDbEntity
  8
notes
370
               5
390
0
  6
Continuous
 62
               7
100
AcDbDimension
  2
*D7
 10
314.9799529834545
 20
839.73261760395235
 30
0.0
 11
479.9799529834545
 21
839.73261760395235
 31
0.0
 71
               5
 72
               1
 41
1.0
 42
0.0
  3
tform線あり
100
AcDbAlignedDimension
 13
644.9799529834545
 23
711.33815098518426
 33
0.0
 14
314.9799529834545
 24
711.33815098518426
 34
0.0
100
AcDbRotatedDimension
1001
ACAD
1000
DSTYLE
1002
{
1070
             279
1070
               2
1070
             340
1005
38
1070
             147
1040
5.0
1002
}
  0
DIMENSION
  5
17E
100
AcDbEntity
  8
notes
370
               5
390
0
  6
Continuous
 62
               7
100
AcDbDimension
  2
*D8
 10
744.9799529834545
 20
492.73261760395394
 30
0.0
 11
744.9799529834545
 21
602.73261760395326
 31
0.0
 71
               5
 72
               1
 41
1.0
 42
0.0
  3
tform線あり
100
AcDbAlignedDimension
 13
644.9799529834545
 23
712.73261760395235
 33
0.0
 14
644.9799529834545
 24
492.73261760395394
 34
0.0
 50
90.0
100
AcDbRotatedDimension
1001
ACAD
1000
DSTYLE
1002
{
1070
             279
1070
               2
1070
             340
1005
38
1070
             147
1040
5.0
1002
}
  0
DIMENSION
  5
17F
100
AcDbEntity
  8
notes
370
               5
390
0
  6
Continuous
 62
               7
100
AcDbDimension
  2
*D9
 10
744.9799529834545
 20
712.73261760395235
 30
0.0
 11
744.9799529834545
 21
751.23261760395235
 31
0.0
 71
               5
 72
               1
 41
1.0
 42
0.0
  3
tform線あり
100
AcDbAlignedDimension
 13
567.9799529834545
 23
789.73261760395235
 33
0.0
 14
644.9799529834545
 24
712.73261760395235
 34
0.0
 50
90.0
100
AcDbRotatedDimension
1001
ACAD
1000
DSTYLE
1002
{
1070
             279
1070
               2
1070
             340
1005
38
1070
             147
1040
5.0
1002
}
  0
DIMENSION
  5
180
100
AcDbEntity
  8
notes
370
               5
390
0
  6
Continuous
 62
               7
100
AcDbDimension
  2
*D10
 10
715.9799529834545
 20
348.73261760395394
 30
0.0
 11
597.9799529834545
 21
348.73261760395394
 31
0.0
 71
               5
 72
               1
 41
1.0
 42
0.0
  3
tform線あり
100
AcDbAlignedDimension
 13
479.9799529834545
 23
492.73261760395394
 33
0.0
 14
715.9799529834545
 24
448.73261760395394
 34
0.0
100
AcDbRotatedDimension
1001
ACAD
1000
DSTYLE
1002
{
1070
             279
1070
               2
1070
             340
1005
38
1070
             147
1040
5.0
1002
}
  0
DIMENSION
  5
181
100
AcDbEntity
  8
notes
370
               5
390
0
  6
Continuous
 62
               7
100
AcDbDimension
  2
*D11
 10
479.9799529834545
 20
348.73261760395394
 30
0.0
 11
361.9799529834545
 21
348.73261760395394
 31
0.0
 71
               5
 72
               1
 41
1.0
 42
0.0
  3
tform線あり
100
AcDbAlignedDimension
 13
243.9799529834545
 23
448.73261760395394
 33
0.0
 14
479.9799529834545
 24
492.73261760395394
 34
0.0
100
AcDbRotatedDimension
1001
ACAD
1000
DSTYLE
1002
{
1070
             279
1070
               2
1070
             340
1005
38
1070
             147
1040
5.0
1002
}
  0
DIMENSION
  5
182
100
AcDbEntity
  8
notes
370
               5
390
0
  6
Continuous
 62
               7
100
AcDbDimension
  2
*D12
 10
137.9799529834545
 20
454.73261760395394
 30
0.0
 11
137.9799529834545
 21
569.73261760395326
 31
0.0
 71
               5
 72
               1
 41
1.0
 42
0.0
  3
tform線あり
100
AcDbAlignedDimension
 13
237.9799529834545
 23
684.73261760395235
 33
0.0
 14
237.9799529834545
 24
454.73261760395394
 34
0.0
 50
90.0
100
AcDbRotatedDimension
1001
ACAD
1000
DSTYLE
1002
{
1070
             279
1070
               2
1070
             340
1005
38
1070
             147
1040
5.0
1002
}
  0
DIMENSION
  5
183
100
AcDbEntity
  8
notes
370
               5
390
0
  6
Continuous
 62
               7
100
AcDbDimension
  2
*D13
 10
137.9799529834545
 20
684.73261760395235
 30
0.0
 11
137.9799529834545
 21
737.23261760395235
 31
0.0
 71
               5
 72
               1
 41
1.0
 42
0.0
  3
tform線あり
100
AcDbAlignedDimension
 13
396.39799984257843
 23
789.73261760395235
 33
0.0
 14
237.9799529834545
 24
684.73261760395235
 34
0.0
 50
90.0
100
AcDbRotatedDimension
1001
ACAD
1000
DSTYLE
1002
{
1070
             279
1070
               2
1070
             340
1005
38
1070
             147
1040
5.0
1002
}
  0
DIMENSION
  5
184
100
AcDbEntity
  8
notes
370
               5
390
0
  6
Continuous
 62
               7
100
AcDbDimension
  2
*D14
 10
243.9799529834545
 20
298.73261760395394
 30
0.0
 11
479.9799529834545
 21
298.73261760395394
 31
0.0
 71
               5
 72
               1
 41
1.0
 42
0.0
  3
tform線あり
100
AcDbAlignedDimension
 13
715.9799529834545
 23
448.73261760395394
 33
0.0
 14
243.9799529834545
 24
448.73261760395394
 34
0.0
100
AcDbRotatedDimension
1001
ACAD
1000
DSTYLE
1002
{
1070
             279
1070
               2
1070
             340
1005
38
1070
             147
1040
5.0
1002
}
  0
DIMENSION
  5
185
100
AcDbEntity
  8
notes
370
               5
390
0
  6
Continuous
 62
               7
100
AcDbDimension
  2
*D15
 10
243.14300586876016
 20
678.79127772744914
 30
0.0
 11
336.39799984256751
 21
914.86261165113638
 31
0.0
 70
               3
 71
               5
 72
               1
 41
1.0
 42
0.0
  3
tform線あり
100
AcDbDiametricDimension
 15
244.81690009814884
 25
690.67395748045601
 35
0.0
 40
226.40211686273594
1001
ACAD
1000
DSTYLE
1002
{
1070
             289
1070
               0
1070
             342
1005
4B
1070
             340
1005
38
1070
              73
1070
               1
1070
              74
1070
               1
1070
              75
1070
               1
1070
              76
1070
               1
1070
               3
1000
(固定金具用4ヶ所)
1070
             174
1070
               0
1070
             147
1040
5.0
1002
}
  0
DIMENSION
  5
186
100
AcDbEntity
  8
notes
370
               5
390
0
  6
Continuous
 62
               7
100
AcDbDimension
  2
*D16
 10
479.93682741128214
 20
-691.18958027960684
 30
0.0
 11
588.68682741128214
 21
-691.18958027960684
 31
0.0
 71
               5
 72
               1
 41
1.0
 42
0.0
  3
tform線あり
100
AcDbAlignedDimension
 13
697.43682741128214
 23
-425.91440245867238
 33
0.0
 14
479.93682741128214
 24
-591.18958027960582
 34
0.0
100
AcDbRotatedDimension
1001
ACAD
1000
DSTYLE
1002
{
1070
             279
1070
               2
1070
             340
1005
38
1070
             147
1040
5.0
1002
}
  0
DIMENSION
  5
187
100
AcDbEntity
  8
notes
370
               5
390
0
  6
Continuous
 62
               7
100
AcDbDimension
  2
*D17
 10
-723.28756697237986
 20
-691.18958027960889
 30
0.0
 11
-443.28756697237986
 21
-691.18958027960889
 31
0.0
 71
               5
 72
               1
 41
1.0
 42
0.0
  3
tform線あり
100
AcDbAlignedDimension
 13
-163.28756697238168
 23
-556.18958027961651
 33
0.0
 14
-723.28756697237986
 24
-556.18958027961651
 34
0.0
100
AcDbRotatedDimension
1001
ACAD
1000
DSTYLE
1002
{
1070
             279
1070
               2
1070
             340
1005
38
1070
             147
1040
5.0
1002
}
  0
DIMENSION
  5
188
100
AcDbEntity
  8
notes
370
               5
390
0
  6
Continuous
 62
               7
100
AcDbDimension
  2
*D18
 10
319.99799984257879
 20
-741.18958027960684
 30
0.0
 11
479.99799984257879
 21
-741.18958027960684
 31
0.0
 71
               5
 72
               1
 41
1.0
 42
0.0
  3
tform線あり
100
AcDbAlignedDimension
 13
639.99799984257879
 23
-556.35102906470718
 33
0.0
 14
319.99799984257879
 24
-556.35102906470718
 34
0.0
100
AcDbRotatedDimension
1001
ACAD
1000
DSTYLE
1002
{
1070
             279
1070
               2
1070
             340
1005
38
1070
             147
1040
5.0
1002
}
  0
DIMENSION
  5
189
100
AcDbEntity
  8
notes
370
               5
390
0
  6
Continuous
 62
               7
100
AcDbDimension
  2
*D19
 10
7.1979998425777012
 20
-426.18958027959729
 30
0.0
 11
7.1979998425777012
 21
-508.68958027960309
 31
0.0
 71
               5
 72
               1
 41
1.0
 42
0.0
  3
tform線あり
100
AcDbAlignedDimension
 13
-407.84485548333214
 23
-591.18958027960889
 33
0.0
 14
-97.790491225921869
 24
-426.18958027959729
 34
0.0
 50
90.0
100
AcDbRotatedDimension
1001
ACAD
1000
DSTYLE
1002
{
1070
             279
1070
               2
1070
             340
1005
38
1070
             147
1040
5.0
1002
}
  0
DIMENSION
  5
18A
100
AcDbEntity
  8
notes
370
               5
390
0
  6
Continuous
 62
               7
100
AcDbDimension
  2
*D20
 10
796.22265047733345
 20
-426.18958027959548
 30
0.0
 11
796.22265047733345
 21
-491.18958027959638
 31
0.0
 71
               5
 72
               1
 41
1.0
 42
0.0
  3
tform線あり
100
AcDbAlignedDimension
 13
630.30778897821256
 23
-556.18958027959729
 33
0.0
 14
691.4857349980357
 24
-426.18958027959548
 34
0.0
 50
90.0
100
AcDbRotatedDimension
1001
ACAD
1000
DSTYLE
1002
{
1070
             279
1070
               2
1070
             340
1005
38
1070
             147
1040
5.0
1002
}
  0
DIMENSION
  5
18B
100
AcDbEntity
  8
notes
370
               5
390
0
  6
Continuous
 62
               7
100
AcDbDimension
  2
*D21
 10
796.22265047733345
 20
-556.18958027959729
 30
0.0
 11
801.22265047733345
 21
-597.1373883488634
 31
0.0
 70
             128
 71
               5
 72
               1
 41
1.0
 42
0.0
  3
tform線あり
100
AcDbAlignedDimension
 13
514.47995298252499
 23
-591.18958027960684
 33
0.0
 14
630.30778897821256
 24
-556.18958027959729
 34
0.0
 50
90.0
100
AcDbRotatedDimension
1001
ACAD
1000
DSTYLE
1002
{
1070
             279
1070
               2
1070
             340
1005
38
1070
             174
1070
               0
1070
             147
1040
5.0
1002
}
  0
DIMENSION
  5
18C
100
AcDbEntity
  8
notes
370
               5
390
0
  6
Continuous
 62
               7
100
AcDbDimension
  2
*D22
 10
488.32177504916035
 20
-426.1895802795982
 30
0.0
 11
493.32177504916035
 21
-415.1373883488634
 31
0.0
 70
             128
 71
               5
 72
               1
 41
1.0
 42
0.0
  3
tform線あり
100
AcDbAlignedDimension
 13
485.37396697989425
 23
-546.18958027959093
 33
0.0
 14
485.37396697989425
 24
-426.1895802795982
 34
0.0
 50
90.0
100
AcDbRotatedDimension
1001
ACAD
1000
DSTYLE
1002
{
1070
             279
1070
               2
1070
             340
1005
38
1070
               3
1000
<>(深さ)
1070
             174
1070
               0
1070
             147
1040
5.0
1002
}
  0
MTEXT
  5
18D
100
AcDbEntity
  8
notes
390
0
 62
               7
100
AcDbMText
 10
53.397999842578429
 20
177.46349738148092
 30
0.0
 40
24.432617187500004
 41
867.14183179549946
 71
               1
 72
               1
  1
※陶器製品には寸法公差があります。\P  洗面器の収め方をご確認の上、必ず現物を合わせて\P  固定金具の穴あけ、カウンターの切込を行ってください。
  7
ＭＳ ゴシック
 73
               1
 44
1.0437689845677123
  0
MTEXT
  5
18E
100
AcDbEntity
  8
notes
390
0
 62
               7
100
AcDbMText
 10
343.98411965012019
 20
1038.5380247385697
 30
0.0
 40
24.432617187500004
 41
0.0
 71
               1
 72
               1
  1
カウンター切込寸法
  7
ＭＳ ゴシック
 73
               1
 44
0.7828267384257843
  0
LINE
  5
18F
100
AcDbEntity
  8
ARJ70-0303
370
              15
390
0
  6
Continuous
 62
               7
100
AcDbLine
 10
268.08432435210671
 20
-426.18958027959548
 30
0.0
 11
690.98432435210634
 21
-426.1895802796073
 31
0.0
  0
LINE
  5
190
100
AcDbEntity
  8
ARJ70-0303
370
              15
390
0
  6
STYLE_02
 62
               7
100
AcDbLine
 10
515.93958445146745
 20
-556.1895802795982
 30
0.0
 11
443.12906425275833
 21
-556.1895802795982
 31
0.0
  0
SPLINE
  5
191
100
AcDbEntity
  8
ARJ70-0303
370
              15
390
0
  6
Continuous
 62
               7
100
AcDbSpline
210
0.0
220
0.0
230
1.0
 70
               8
 71
               2
 72
              19
 73
              16
 74
               0
 42
0.000001
 43
0.000001
 40
0.0
 40
0.0
 40
0.0
 40
1.0
 40
1.0
 40
2.0
 40
3.0
 40
4.0
 40
5.0
 40
6.0
 40
7.0
 40
8.0
 40
9.0
 40
10.0
 40
11.0
 40
11.0
 40
12.0
 40
12.0
 40
12.0
 10
-630.08519561126741
 20
380.28120695755183
 30
0.0
 10
-633.31709616776789
 20
381.07645772256819
 30
0.0
 10
-636.54899672426836
 20
381.87170848758456
 30
0.0
 10
-669.16870181497143
 20
391.757110584771
 30
0.0
 10
-718.14552182359694
 20
420.79642296105362
 30
0.0
 10
-757.86844371788902
 20
461.70228376216437
 30
0.0
 10
-783.67720853265928
 20
510.31106515650322
 30
0.0
 10
-794.07488798604027
 20
560.60960644469037
 30
0.0
 10
-791.55057204542391
 20
597.34300313494236
 30
0.0
 10
-783.67923084662471
 20
635.36244389168314
 30
0.0
 10
-757.7827295987081
 20
683.9524186084991
 30
0.0
 10
-718.02806556930227
 20
724.8062718555625
 30
0.0
 10
-669.07412224248401
 20
753.78792743962504
 30
0.0
 10
-636.54899672318788
 20
763.69070542754707
 30
0.0
 10
-633.31709616668377
 20
764.48595619254866
 30
0.0
 10
-630.08519561017602
 20
765.28120695755024
 30
0.0
  0
SPLINE
  5
192
100
AcDbEntity
  8
ARJ70-0303
370
              15
390
0
  6
Continuous
 62
               7
100
AcDbSpline
210
0.0
220
0.0
230
1.0
 70
               8
 71
               2
 72
              28
 73
              25
 74
               0
 42
0.000001
 43
0.000001
 40
0.0
 40
0.0
 40
0.0
 40
1.0
 40
1.0
 40
2.0
 40
3.0
 40
4.0
 40
5.0
 40
6.0
 40
7.0
 40
8.0
 40
9.0
 40
10.0
 40
11.0
 40
12.0
 40
13.0
 40
14.0
 40
15.0
 40
16.0
 40
17.0
 40
18.0
 40
19.0
 40
20.0
 40
20.0
 40
21.0
 40
21.0
 40
21.0
 10
-255.49577261808736
 20
379.78120695755683
 30
0.0
 10
-255.22644757171292
 20
379.84764998684159
 30
0.0
 10
-254.95712252533667
 20
379.91409301612634
 30
0.0
 10
-246.79751158763247
 20
381.71112268530896
 30
0.0
 10
-217.25925139829269
 20
392.15337442931627
 30
0.0
 10
-192.40409872747841
 20
405.30691507636038
 30
0.0
 10
-160.18093339792358
 20
426.33491131487995
 30
0.0
 10
-128.63326768971092
 20
462.01977561725857
 30
0.0
 10
-114.79096727803517
 20
485.36563610629514
 30
0.0
 10
-102.89632423257353
 20
510.5630951229241
 30
0.0
 10
-96.785242924670456
 20
534.12537263455829
 30
0.0
 10
-92.373212595030054
 20
559.99243638988014
 30
0.0
 10
-92.594500502804294
 20
578.27695037606804
 30
0.0
 10
-94.398576808700454
 20
597.36909612721797
 30
0.0
 10
-98.058652505473219
 20
617.54994342492705
 30
0.0
 10
-102.9722270720813
 20
635.85361533209925
 30
0.0
 10
-115.27048324701718
 20
661.06244206696147
 30
0.0
 10
-128.67695346616529
 20
683.5946125771934
 30
0.0
 10
-160.19361029267748
 20
719.1795053848532
 30
0.0
 10
-192.50242381588396
 20
740.2603581410699
 30
0.0
 10
-217.30491970200455
 20
753.33069413294106
 30
0.0
 10
-246.7525575102045
 20
763.73935714576783
 30
0.0
 10
-254.95712252646445
 20
765.648320898988
 30
0.0
 10
-255.2264475728407
 20
765.71476392827162
 30
0.0
 10
-255.49577261921513
 20
765.78120695755524
 30
0.0
  0
ARC
  5
193
100
AcDbEntity
  8
ARJ70-0303
370
              15
390
0
  6
Continuous
 62
               7
100
AcDbCircle
 10
-449.62722712469076
 20
1046.1291885084665
 30
0.0
 40
690.33324700587605
100
AcDbArc
 50
254.84643288510574
 51
270.56744032723986
  0
ARC
  5
194
100
AcDbEntity
  8
ARJ70-0303
370
              15
390
0
  6
Continuous
 62
               7
100
AcDbCircle
 10
-435.95374110466219
 20
1046.1291885084665
 30
0.0
 40
690.33324700587571
100
AcDbArc
 50
269.43255967275985
 51
285.15356711489392
  0
LINE
  5
195
100
AcDbEntity
  8
ARJ70-0303
370
              15
390
0
  6
Continuous
 62
               7
100
AcDbLine
 10
-97.790491225921869
 20
-426.18958027959729
 30
0.0
 11
-787.79047700158117
 21
-426.18958027959729
 31
0.0
  0
LINE
  5
196
100
AcDbEntity
  8
ARJ70-0303
370
              15
390
0
  6
STYLE_02
 62
               7
100
AcDbLine
 10
-407.81258568043086
 20
-556.18958027960548
 30
0.0
 11
-477.76838254708127
 21
-556.18958027959093
 31
0.0
  0
LINE
  5
197
100
AcDbEntity
  8
ARJ70-0303
370
              15
390
0
  6
STYLE_02
 62
               7
100
AcDbLine
 10
514.51222278544628
 20
-546.18958027959093
 30
0.0
 11
501.58869572168624
 21
-558.33491826586317
 31
0.0
  0
LINE
  5
198
100
AcDbEntity
  8
ARJ70-0303
370
              15
390
0
  6
STYLE_02
 62
               7
100
AcDbLine
 10
444.55642591877768
 20
-546.18958027960559
 30
0.0
 11
456.58869572168624
 21
-558.33491826586317
 31
0.0
  0
ARC
  5
199
100
AcDbEntity
  8
ARJ70-0303
370
              15
390
0
  6
Continuous
 62
               7
100
AcDbCircle
 10
268.08291370617553
 20
-431.18958027959991
 30
0.0
 40
5.0000000000005684
100
AcDbArc
 50
90.0
 51
198.66909157605994
  0
ARC
  5
19A
100
AcDbEntity
  8
ARJ70-0303
370
              15
390
0
  6
Continuous
 62
               7
100
AcDbCircle
 10
690.98573499803751
 20
-431.18958027959991
 30
0.0
 40
4.999999999998761
100
AcDbArc
 50
341.33090842393824
 51
90.0
  0
LINE
  5
19B
100
AcDbEntity
  8
ARJ70-0303
370
              15
390
0
  6
Continuous
 62
               7
100
AcDbLine
 10
-162.29340125513227
 20
-556.18958027961651
 30
0.0
 11
-723.28756697237986
 21
-556.18958027959729
 31
0.0
  0
LINE
  5
19C
100
AcDbEntity
  8
ARJ70-0303
370
              15
390
0
  6
Continuous
 62
               7
100
AcDbLine
 10
637.78432435210016
 20
-556.18958027959809
 30
0.0
 11
321.28432435210016
 21
-556.18958027959638
 31
0.0
  0
ARC
  5
19D
100
AcDbEntity
  8
ARJ70-0303
370
              15
390
0
  6
Continuous
 62
               7
100
AcDbCircle
 10
-787.79047700158117
 20
-431.1895802795982
 30
0.0
 40
5.0
100
AcDbArc
 50
90.0
 51
205.55228844530498
  0
ARC
  5
19E
100
AcDbEntity
  8
ARJ70-0303
370
              15
390
0
  6
Continuous
 62
               7
100
AcDbCircle
 10
-449.62722712469076
 20
99.433225407564123
 30
0.0
 40
690.33324700587571
100
AcDbArc
 50
89.432559672759965
 51
105.15356711489426
  0
ARC
  5
19F
100
AcDbEntity
  8
ARJ70-0303
370
              15
390
0
  6
Continuous
 62
               7
100
AcDbCircle
 10
-435.95374110466219
 20
99.433225407564123
 30
0.0
 40
690.33324700587593
100
AcDbArc
 50
74.846432885105912
 51
90.56744032724005
  0
CIRCLE
  5
1A0
100
AcDbEntity
  8
ARJ70-0303
370
              15
390
0
  6
Continuous
 62
               7
100
AcDbCircle
 10
-442.79048411468102
 20
572.78120695801522
 30
0.0
 40
22.5
  0
CIRCLE
  5
1A1
100
AcDbEntity
  8
ARJ70-0303
370
              15
390
0
  6
Continuous
 62
               7
100
AcDbCircle
 10
-442.79048411468102
 20
572.78120695801522
 30
0.0
 40
35.0
  0
ARC
  5
1A2
100
AcDbEntity
  8
ARJ70-0303
370
              15
390
0
  6
Continuous
 62
               7
100
AcDbCircle
 10
162.20983526799864
 20
22.09418278620501
 30
0.0
 40
1057.5999999999981
100
AcDbArc
 50
205.50791721930756
 51
213.14698427819573
  0
ARC
  5
1A3
100
AcDbEntity
  8
ARJ70-0303
370
              15
390
0
  6
Continuous
 62
               7
100
AcDbCircle
 10
-97.790491225921869
 20
-431.1895802795982
 30
0.0
 40
4.9999999999995985
100
AcDbArc
 50
334.44771155469857
 51
90.000000000000014
  0
ARC
  5
1A4
100
AcDbEntity
  8
ARJ70-0303
370
              15
390
0
  6
Continuous
 62
               7
100
AcDbCircle
 10
-1047.7908034956781
 20
22.094182785814837
 30
0.0
 40
1057.5999999999992
100
AcDbArc
 50
326.85301572180413
 51
334.49208278069244
  0
LINE
  5
1A5
100
AcDbEntity
  8
ARJ70-0303
370
              15
390
0
  6
STYLE_13
 62
               7
100
AcDbLine
 10
-132.79053529671182
 20
-426.1895802795982
 30
0.0
 11
-132.79053514067346
 21
-426.18958028801342
 31
0.0
  0
LINE
  5
1A6
100
AcDbEntity
  8
ARJ70-0303
370
              15
390
0
  6
Continuous
 62
               7
100
AcDbLine
 10
444.58869572168624
 20
-591.18958027960684
 30
0.0
 11
513.58869572167714
 21
-591.1895802796048
 31
0.0
  0
LINE
  5
1A7
100
AcDbEntity
  8
ARJ70-0303
370
              15
390
0
  6
STYLE_02
 62
               7
100
AcDbLine
 10
501.58869572168624
 20
-558.33491826586317
 30
0.0
 11
456.58869572168624
 21
-558.33491826586317
 31
0.0
  0
LINE
  5
1A8
100
AcDbEntity
  8
ARJ70-0303
370
              15
390
0
  6
STYLE_02
 62
               7
100
AcDbLine
 10
501.58869572168624
 20
-558.33491826586317
 30
0.0
 11
501.58869572167714
 21
-591.1895802796048
 31
0.0
  0
LINE
  5
1A9
100
AcDbEntity
  8
ARJ70-0303
370
              15
390
0
  6
STYLE_02
 62
               7
100
AcDbLine
 10
456.58869572168624
 20
-558.33491826586317
 30
0.0
 11
456.58869572168624
 21
-591.18958027960684
 31
0.0
  0
LINE
  5
1AA
100
AcDbEntity
  8
ARJ70-0303
370
              15
390
0
  6
Continuous
 62
               7
100
AcDbLine
 10
444.58869572168624
 20
-563.27263937398311
 30
0.0
 11
444.58869572168624
 21
-591.18958027960684
 31
0.0
  0
LINE
  5
1AB
100
AcDbEntity
  8
ARJ70-0303
370
              15
390
0
  6
Continuous
 62
               7
100
AcDbLine
 10
439.80854694512709
 20
-558.44757116432913
 30
0.0
 11
444.58869572168624
 21
-563.27263937398311
 31
0.0
  0
LINE
  5
1AC
100
AcDbEntity
  8
ARJ70-0303
370
              15
390
0
  6
Continuous
 62
               7
100
AcDbLine
 10
-407.84485548333214
 20
-591.18958027960889
 30
0.0
 11
-476.84485548333214
 21
-591.18958027960684
 31
0.0
  0
LINE
  5
1AD
100
AcDbEntity
  8
ARJ70-0303
370
              15
390
0
  6
Continuous
 62
               7
100
AcDbLine
 10
-476.84485548333214
 20
-563.52504790778517
 30
0.0
 11
-476.84485548333214
 21
-591.18958027960889
 31
0.0
  0
LINE
  5
1AE
100
AcDbEntity
  8
ARJ70-0303
370
              15
390
0
  6
Continuous
 62
               7
100
AcDbLine
 10
-407.84485548333214
 20
-563.27263937398527
 30
0.0
 11
-407.84485548333214
 21
-591.18958027960889
 31
0.0
  0
LINE
  5
1AF
100
AcDbEntity
  8
ARJ70-0303
370
              15
390
0
  6
Continuous
 62
               7
100
AcDbLine
 10
-403.43353589143226
 20
-558.81986626578805
 30
0.0
 11
-407.84485548333214
 21
-563.27263937398527
 31
0.0
  0
LINE
  5
1B0
100
AcDbEntity
  8
ARJ70-0303
370
              15
390
0
  6
Continuous
 62
               7
100
AcDbLine
 10
-481.81670195752122
 20
-558.85258074405021
 30
0.0
 11
-476.84485548333214
 21
-563.52504790778517
 31
0.0
  0
LINE
  5
1B1
100
AcDbEntity
  8
ARJ70-0303
370
              15
390
0
  6
STYLE_13
 62
               7
100
AcDbLine
 10
-477.76838254708127
 20
-546.18958027959093
 30
0.0
 11
-464.84485548333214
 21
-558.33491826586317
 31
0.0
  0
LINE
  5
1B2
100
AcDbEntity
  8
ARJ70-0303
370
              15
390
0
  6
STYLE_13
 62
               7
100
AcDbLine
 10
-407.81258568043086
 20
-546.18958027960559
 30
0.0
 11
-419.84485548332123
 21
-558.33491826586317
 31
0.0
  0
LINE
  5
1B3
100
AcDbEntity
  8
ARJ70-0303
370
              15
390
0
  6
STYLE_13
 62
               7
100
AcDbLine
 10
-464.84485548333214
 20
-558.33491826586317
 30
0.0
 11
-419.84485548332123
 21
-558.33491826586317
 31
0.0
  0
LINE
  5
1B4
100
AcDbEntity
  8
ARJ70-0303
370
              15
390
0
  6
STYLE_13
 62
               7
100
AcDbLine
 10
-464.84485548333214
 20
-558.33491826586317
 30
0.0
 11
-464.84485548333214
 21
-591.1895802796048
 31
0.0
  0
LINE
  5
1B5
100
AcDbEntity
  8
ARJ70-0303
370
              15
390
0
  6
STYLE_13
 62
               7
100
AcDbLine
 10
-419.84485548332123
 20
-558.33491826586317
 30
0.0
 11
-419.84485548332123
 21
-591.18958027960684
 31
0.0
  0
ARC
  5
1B6
100
AcDbEntity
  8
ARJ70-0303
370
              15
390
0
  6
Continuous
 62
               7
100
AcDbCircle
 10
-288.6451092316438
 20
-46.088818274188498
 30
0.0
 40
1057.599999999997
100
AcDbArc
 50
331.16301899315692
 51
338.55300156141095
  0
ARC
  5
1B7
100
AcDbEntity
  8
ARJ70-0303
370
              15
390
0
  6
Continuous
 62
               7
100
AcDbCircle
 10
1247.7137579358769
 20
-46.088818274188498
 30
0.0
 40
1057.599999999996
100
AcDbArc
 50
201.44699843858936
 51
208.83698100684322
  0
ARC
  5
1B8
100
AcDbEntity
  8
ARJ70-0303
370
              15
390
0
  6
Continuous
 62
               7
100
AcDbCircle
 10
-435.95374110466219
 20
98.933225407564123
 30
0.0
 40
650.33324700587525
100
AcDbArc
 50
74.846432885105997
 51
90.56744032724005
  0
ARC
  5
1B9
100
AcDbEntity
  8
ARJ70-0303
370
              15
390
0
  6
Continuous
 62
               7
100
AcDbCircle
 10
-449.62722712469076
 20
98.933225407564123
 30
0.0
 40
650.33324700587502
100
AcDbArc
 50
89.432559672759965
 51
105.15356711489416
  0
SPLINE
  5
1BA
100
AcDbEntity
  8
ARJ70-0303
370
              15
390
0
  6
Continuous
 62
               7
100
AcDbSpline
210
0.0
220
0.0
230
1.0
 70
               8
 71
               2
 72
              28
 73
              25
 74
               0
 42
0.000001
 43
0.000001
 40
0.0
 40
0.0
 40
0.0
 40
1.0
 40
1.0
 40
2.0
 40
3.0
 40
4.0
 40
5.0
 40
6.0
 40
7.0
 40
8.0
 40
9.0
 40
10.0
 40
11.0
 40
12.0
 40
13.0
 40
14.0
 40
15.0
 40
16.0
 40
17.0
 40
18.0
 40
19.0
 40
20.0
 40
20.0
 40
21.0
 40
21.0
 40
21.0
 10
-620.50523099596103
 20
419.13120695752968
 30
0.0
 10
-620.56965423391375
 20
419.14704767890339
 30
0.0
 10
-620.63407747186284
 20
419.1628884002771
 30
0.0
 10
-625.46908245394661
 20
420.31907089943911
 30
0.0
 10
-648.53382782210974
 20
427.47094737776047
 30
0.0
 10
-668.16961251060275
 20
437.53223925161069
 30
0.0
 10
-688.24955383037013
 20
450.11894825645686
 30
0.0
 10
-702.88031577645597
 20
462.62893890857026
 30
0.0
 10
-716.90621268614632
 20
476.66935474587581
 30
0.0
 10
-728.5564750169724
 20
492.80182089976756
 30
0.0
 10
-737.95219407595141
 20
508.84586460497826
 30
0.0
 10
-748.08290341524844
 20
534.7053783392214
 30
0.0
 10
-754.83217632669039
 20
560.01470774311679
 30
0.0
 10
-752.79282703765784
 20
585.36569511576045
 30
0.0
 10
-747.50399101415314
 20
612.18197186185489
 30
0.0
 10
-741.1183462843328
 20
629.52024009195384
 30
0.0
 10
-732.71085701812626
 20
646.73536958128307
 30
0.0
 10
-719.61076078378392
 20
665.15784067578807
 30
0.0
 10
-706.18838947625045
 20
680.65568666179297
 30
0.0
 10
-681.46765758409674
 20
700.1188441596405
 30
0.0
 10
-657.68681720881432
 20
714.92113247166662
 30
0.0
 10
-626.77797157178429
 20
724.90972178379161
 30
0.0
 10
-620.6263655178991
 20
726.40142176998143
 30
0.0
 10
-620.56579825648441
 20
726.41631436375474
 30
0.0
 10
-620.50523099506972
 20
726.43120695752805
 30
0.0
  0
ARC
  5
1BB
100
AcDbEntity
  8
ARJ70-0303
370
              15
390
0
  6
Continuous
 62
               7
100
AcDbCircle
 10
-449.62722712469076
 20
1046.6291885084665
 30
0.0
 40
650.33324700587571
100
AcDbArc
 50
254.84643288510586
 51
270.56744032723986
  0
ARC
  5
1BC
100
AcDbEntity
  8
ARJ70-0303
370
              15
390
0
  6
Continuous
 62
               7
100
AcDbCircle
 10
-435.95374110466219
 20
1046.6291885084665
 30
0.0
 40
650.33324700587502
100
AcDbArc
 50
269.43255967275979
 51
285.15356711489403
  0
SPLINE
  5
1BD
100
AcDbEntity
  8
ARJ70-0303
370
              15
390
0
  6
Continuous
 62
               7
100
AcDbSpline
210
0.0
220
0.0
230
1.0
 70
               8
 71
               2
 72
              28
 73
              25
 74
               0
 42
0.000001
 43
0.000001
 40
0.0
 40
0.0
 40
0.0
 40
1.0
 40
1.0
 40
2.0
 40
3.0
 40
4.0
 40
5.0
 40
6.0
 40
7.0
 40
8.0
 40
9.0
 40
10.0
 40
11.0
 40
12.0
 40
13.0
 40
14.0
 40
15.0
 40
16.0
 40
17.0
 40
18.0
 40
19.0
 40
20.0
 40
20.0
 40
21.0
 40
21.0
 40
21.0
 10
-265.07573723338101
 20
419.13120695753378
 30
0.0
 10
-265.0113139954301
 20
419.14704767890726
 30
0.0
 10
-264.94689075747738
 20
419.16288840028096
 30
0.0
 10
-260.11188577539724
 20
420.3190708994432
 30
0.0
 10
-237.04714040724139
 20
427.47094737776411
 30
0.0
 10
-217.41135571874474
 20
437.53223925161888
 30
0.0
 10
-197.33141439895917
 20
450.11894825646732
 30
0.0
 10
-182.70065245287697
 20
462.62893890858459
 30
0.0
 10
-168.67475554317207
 20
476.66935474589695
 30
0.0
 10
-157.02449321235872
 20
492.80182089978848
 30
0.0
 10
-147.62877415337789
 20
508.84586460500213
 30
0.0
 10
-137.49806481410815
 20
534.70537833925323
 30
0.0
 10
-130.74879190267166
 20
560.01470774315339
 30
0.0
 10
-132.78814119170056
 20
585.3656951158016
 30
0.0
 10
-138.07697721520162
 20
612.18197186189968
 30
0.0
 10
-144.46262194503834
 20
629.52024009199931
 30
0.0
 10
-152.87011121125943
 20
646.73536958132854
 30
0.0
 10
-165.97020744559995
 20
665.15784067583309
 30
0.0
 10
-179.39257875312614
 20
680.65568666183617
 30
0.0
 10
-204.11331064528895
 20
700.11884415967234
 30
0.0
 10
-227.89415102057865
 20
714.92113247168527
 30
0.0
 10
-258.80299665762141
 20
724.90972178379798
 30
0.0
 10
-264.95460271149386
 20
726.40142176998506
 30
0.0
 10
-265.01516997290673
 20
726.41631436375883
 30
0.0
 10
-265.07573723432142
 20
726.43120695753214
 30
0.0
  0
LINE
  5
1BE
100
AcDbEntity
  8
ARJ70-0303
370
              15
390
0
  6
Continuous
 62
               7
100
AcDbLine
 10
-265.95205409064147
 20
726.65351229782755
 30
0.0
 11
-265.07573723432142
 21
726.42679529732777
 31
0.0
  0
LINE
  5
1BF
100
AcDbEntity
  8
ARJ70-0303
370
              15
390
0
  6
Continuous
 62
               7
100
AcDbLine
 10
-620.50523099506972
 20
726.42679529731959
 30
0.0
 11
-619.62891413870966
 21
726.65351229782755
 31
0.0
  0
LINE
  5
1C0
100
AcDbEntity
  8
ARJ70-0303
370
              15
390
0
  6
Continuous
 62
               7
100
AcDbLine
 10
-620.50523099596103
 20
419.13561861773837
 30
0.0
 11
-619.62891413870966
 21
418.90890161820312
 31
0.0
  0
LINE
  5
1C1
100
AcDbEntity
  8
ARJ70-0303
370
              15
390
0
  6
Continuous
 62
               7
100
AcDbLine
 10
-265.07573723338101
 20
419.13561861773837
 30
0.0
 11
-265.95205409064147
 21
418.90890161820312
 31
0.0
  0
LINE
  5
1C2
100
AcDbEntity
  8
ARJ70-0303
370
              15
390
0
  6
Continuous
 62
               7
100
AcDbLine
 10
513.58869572167714
 20
-591.1895802796048
 30
0.0
 11
513.58869555853562
 21
-591.18958028966995
 31
0.0
  0
LINE
  5
1C3
100
AcDbEntity
  8
ARJ70-0303
370
              15
390
0
  6
STYLE_13
 62
               7
100
AcDbLine
 10
-477.76838254708127
 20
-546.18958027959093
 30
0.0
 11
-407.81258568043086
 21
-546.18958027960559
 31
0.0
  0
LINE
  5
1C4
100
AcDbEntity
  8
ARJ70-0303
370
              15
390
0
  6
STYLE_13
 62
               7
100
AcDbLine
 10
-477.76838254708127
 20
-546.1895802796065
 30
0.0
 11
-566.6866012665414
 21
-537.39415862543967
 31
0.0
  0
ARC
  5
1C5
100
AcDbEntity
  8
ARJ70-0303
370
              15
390
0
  6
STYLE_13
 62
               7
100
AcDbCircle
 10
-532.9517371377915
 20
-269.61072197893122
 30
0.0
 40
269.89999999999986
100
AcDbArc
 50
215.99914789150648
 51
262.81980819812645
  0
LINE
  5
1C6
100
AcDbEntity
  8
ARJ70-0303
370
              15
390
0
  6
STYLE_13
 62
               7
100
AcDbLine
 10
-407.81258568042176
 20
-546.1895802796065
 30
0.0
 11
-318.89436696096163
 21
-537.39415862543967
 31
0.0
  0
ARC
  5
1C7
100
AcDbEntity
  8
ARJ70-0303
370
              15
390
0
  6
STYLE_13
 62
               7
100
AcDbCircle
 10
-352.62923108971154
 20
-269.61072197893122
 30
0.0
 40
269.89999999999975
100
AcDbArc
 50
277.18019180187321
 51
324.00085210849295
  0
LINE
  5
1C8
100
AcDbEntity
  8
ARJ70-0303
370
              15
390
0
  6
Continuous
 62
               7
100
AcDbLine
 10
-481.81670195751212
 20
-558.85258074406408
 30
0.0
 11
-508.73857870878237
 21
-556.18958027960355
 31
0.0
  0
LINE
  5
1C9
100
AcDbEntity
  8
ARJ70-0303
370
              15
390
0
  6
Continuous
 62
               7
100
AcDbLine
 10
-403.76426626999091
 20
-558.85258074406408
 30
0.0
 11
-376.84238951872067
 21
-556.18958027960355
 31
0.0
  0
LINE
  5
1CA
100
AcDbEntity
  8
ARJ70-0303
370
              15
390
0
  6
STYLE_02
 62
               7
100
AcDbLine
 10
514.51222278544628
 20
-546.18958027959093
 30
0.0
 11
444.55642591878677
 21
-546.18958027959718
 31
0.0
  0
ARC
  5
1CB
100
AcDbEntity
  8
ARJ70-0303
370
              15
390
0
  6
STYLE_13
 62
               7
100
AcDbCircle
 10
477.19792033570775
 20
-358.05430226749309
 30
0.0
 40
191.7999999999995
100
AcDbArc
 50
281.21831902341842
 51
338.18429349507466
  0
ARC
  5
1CC
100
AcDbEntity
  8
ARJ70-0303
370
              15
390
0
  6
STYLE_13
 62
               7
100
AcDbCircle
 10
481.87072836851621
 20
-358.05430226749309
 30
0.0
 40
191.80000000000118
100
AcDbArc
 50
201.81570650492515
 51
258.78168097658158
  0
ARC
  5
1CD
100
AcDbEntity
  8
ARJ70-0303
370
              15
390
0
  6
Continuous
 62
               7
100
AcDbCircle
 10
495.32022823872467
 20
-300.92376227366481
 30
0.0
 40
263.47850157519895
100
AcDbArc
 50
255.65692817477117
 51
257.84869065106403
  0
LINE
  5
1CE
100
AcDbEntity
  8
ARJ70-0303
370
              15
390
0
  6
Continuous
 62
               7
100
AcDbLine
 10
513.58869572168624
 20
-588.18958027961389
 30
0.0
 11
513.58869572168624
 21
-591.18958027961287
 31
0.0
  0
ARC
  5
1CF
100
AcDbEntity
  8
ARJ70-0303
370
              15
390
0
  6
Continuous
 62
               7
100
AcDbCircle
 10
505.20153337794727
 20
-442.4736710876407
 30
0.0
 40
145.93215598133645
100
AcDbArc
 50
273.11954035983626
 51
308.80912231347412
  0
ARC
  5
1D0
100
AcDbEntity
  8
ARJ70-0303
370
              15
390
0
  6
STYLE_13
 62
               7
100
AcDbCircle
 10
-755.3529119329105
 20
-431.1895802795982
 30
0.0
 40
4.9999999999981624
100
AcDbArc
 50
35.999147891521432
 51
90.0
  0
ARC
  5
1D1
100
AcDbEntity
  8
ARJ70-0303
370
              15
390
0
  6
STYLE_13
 62
               7
100
AcDbCircle
 10
-130.22805629459071
 20
-431.1895802795982
 30
0.0
 40
5.0
100
AcDbArc
 50
90.0
 51
144.00085210848766
  0
ARC
  5
1D2
100
AcDbEntity
  8
ARJ70-0303
370
              15
390
0
  6
STYLE_13
 62
               7
100
AcDbCircle
 10
659.90388934082694
 20
-431.1895802795965
 30
0.0
 40
5.0000000000007958
100
AcDbArc
 50
90.0
 51
158.18429349507812
  0
ARC
  5
1D3
100
AcDbEntity
  8
ARJ70-0303
370
              15
390
0
  6
STYLE_13
 62
               7
100
AcDbCircle
 10
299.16475936338793
 20
-431.18958027959445
 30
0.0
 40
4.999999999999253
100
AcDbArc
 50
21.815706504935708
 51
90.0
  0
SPLINE
  5
1D4
100
AcDbEntity
  8
ARJ70-0303
370
               5
390
0
  6
STYLE_13
 62
               7
100
AcDbSpline
210
0.0
220
0.0
230
1.0
 70
               8
 71
               2
 72
              19
 73
              16
 74
               0
 42
0.000001
 43
0.000001
 40
0.0
 40
0.0
 40
0.0
 40
1.0
 40
1.0
 40
2.0
 40
3.0
 40
4.0
 40
5.0
 40
6.0
 40
7.0
 40
8.0
 40
9.0
 40
10.0
 40
11.0
 40
11.0
 40
12.0
 40
12.0
 40
12.0
 10
292.68524148594588
 20
379.79975532143021
 30
0.0
 10
289.4533409294454
 20
380.59699504635273
 30
0.0
 10
286.22144037294311
 20
381.39423477127525
 30
0.0
 10
253.60173528224004
 20
391.30436072827183
 30
0.0
 10
204.62491527361453
 20
420.41630180302377
 30
0.0
 10
164.90199337932427
 20
461.42447010340561
 30
0.0
 10
139.09322856455037
 20
510.15482436700245
 30
0.0
 10
128.69554911116938
 20
560.57916469413908
 30
0.0
 10
131.21986505178756
 20
597.40443335289388
 30
0.0
 10
139.09120625058677
 20
635.51896253538416
 30
0.0
 10
164.98770749850337
 20
684.23046308506491
 30
0.0
 10
204.7423715279092
 20
725.18649375803852
 30
0.0
 10
253.69631485472564
 20
754.24063383819703
 30
0.0
 10
286.22144037402359
 20
764.16817914385638
 30
0.0
 10
289.45334093052952
 20
764.96541886876412
 30
0.0
 10
292.68524148703546
 20
765.76265859367186
 30
0.0
  0
SPLINE
  5
1D5
100
AcDbEntity
  8
ARJ70-0303
370
               5
390
0
  6
STYLE_13
 62
               7
100
AcDbSpline
210
0.0
220
0.0
230
1.0
 70
               8
 71
               2
 72
              28
 73
              25
 74
               0
 42
0.000001
 43
0.000001
 40
0.0
 40
0.0
 40
0.0
 40
1.0
 40
1.0
 40
2.0
 40
3.0
 40
4.0
 40
5.0
 40
6.0
 40
7.0
 40
8.0
 40
9.0
 40
10.0
 40
11.0
 40
12.0
 40
13.0
 40
14.0
 40
15.0
 40
16.0
 40
17.0
 40
18.0
 40
19.0
 40
20.0
 40
20.0
 40
21.0
 40
21.0
 40
21.0
 10
667.27466447912411
 20
379.79975532143021
 30
0.0
 10
667.54398952550036
 20
379.86619196517358
 30
0.0
 10
667.8133145718748
 20
379.93262860891696
 30
0.0
 10
675.972925509579
 20
381.72948557364248
 30
0.0
 10
705.51118569891878
 20
392.17073375969653
 30
0.0
 10
730.36633836973306
 20
405.32301027897824
 30
0.0
 10
762.58950369928789
 20
426.34898561114665
 30
0.0
 10
794.13716940750055
 20
462.03042040136029
 30
0.0
 10
807.9794698191763
 20
485.3740372245145
 30
0.0
 10
819.87411286463794
 20
510.56907462643608
 30
0.0
 10
825.98519417254101
 20
534.12908767331896
 30
0.0
 10
830.39722450218142
 20
559.99366546122724
 30
0.0
 10
830.17593659440718
 20
578.27642220483108
 30
0.0
 10
828.37186028851102
 20
597.36673309553294
 30
0.0
 10
824.71178459173825
 20
617.54564090257395
 30
0.0
 10
819.79821002513017
 20
635.84755372598056
 30
0.0
 10
807.49995385019429
 20
661.05395775363468
 30
0.0
 10
794.09348363104618
 20
683.58396279807675
 30
0.0
 10
762.57682680453399
 20
719.1654357013831
 30
0.0
 10
730.26801328132751
 20
740.24426247144629
 30
0.0
 10
705.46551739520692
 20
753.31334233198095
 30
0.0
 10
676.01787958700697
 20
763.7210050149165
 30
0.0
 10
667.81331457074702
 20
765.62978530619739
 30
0.0
 10
667.54398952437259
 20
765.69622194993963
 30
0.0
 10
667.27466447799634
 20
765.76265859368186
 30
0.0
  0
ARC
  5
1D6
100
AcDbEntity
  8
ARJ70-0303
370
               5
390
0
  6
STYLE_13
 62
               7
100
AcDbCircle
 10
473.14320997252071
 20
1046.1291885084665
 30
0.0
 40
690.33324700587548
100
AcDbArc
 50
254.84643288510588
 51
270.56744032723986
  0
ARC
  5
1D7
100
AcDbEntity
  8
ARJ70-0303
370
               5
390
0
  6
STYLE_13
 62
               7
100
AcDbCircle
 10
486.81669599254928
 20
1046.1291885084665
 30
0.0
 40
690.33324700587571
100
AcDbArc
 50
269.43255967275985
 51
285.15356711489392
  0
ARC
  5
1D8
100
AcDbEntity
  8
ARJ70-0303
370
               5
390
0
  6
STYLE_13
 62
               7
100
AcDbCircle
 10
473.14320997252071
 20
99.433225407564123
 30
0.0
 40
690.33324700587571
100
AcDbArc
 50
89.432559672759965
 51
105.15356711489412
  0
ARC
  5
1D9
100
AcDbEntity
  8
ARJ70-0303
370
               5
390
0
  6
STYLE_13
 62
               7
100
AcDbCircle
 10
486.81669599254928
 20
99.433225407564123
 30
0.0
 40
690.33324700587593
100
AcDbArc
 50
74.846432885105912
 51
90.56744032724005
  0
CIRCLE
  5
1DA
100
AcDbEntity
  8
ARJ70-0303
370
               5
390
0
  6
STYLE_13
 62
               7
100
AcDbCircle
 10
479.97995298253045
 20
572.78120695801522
 30
0.0
 40
22.5
  0
POLYLINE
  5
1DB
100
AcDbEntity
  8
ARJ70-0303
370
              15
390
0
  6
Continuous
 62
               7
100
AcDb2dPolyline
 66
               1
 10
0.0
 20
0.0
 30
0.0
 70
               1
 75
               5
  0
VERTEX
  5
1DC
100
AcDbEntity
  8
ARJ70-0303
370
              15
390
0
  6
Continuous
 62
               7
100
AcDbVertex
100
AcDb2dVertex
 10
314.9799529834545
 20
712.73261760395235
 30
0.0
  0
VERTEX
  5
1DD
100
AcDbEntity
  8
ARJ70-0303
370
              15
390
0
  6
Continuous
 62
               7
100
AcDbVertex
100
AcDb2dVertex
 10
644.9799529834545
 20
712.73261760395235
 30
0.0
  0
VERTEX
  5
1DE
100
AcDbEntity
  8
ARJ70-0303
370
              15
390
0
  6
Continuous
 62
               7
100
AcDbVertex
100
AcDb2dVertex
 10
644.9799529834545
 20
492.73261760395394
 30
0.0
  0
VERTEX
  5
1DF
100
AcDbEntity
  8
ARJ70-0303
370
              15
390
0
  6
Continuous
 62
               7
100
AcDbVertex
100
AcDb2dVertex
 10
314.9799529834545
 20
492.73261760395394
 30
0.0
  0
SEQEND
  5
1E0
100
AcDbEntity
  8
ARJ70-0303
370
              15
390
0
  6
Continuous
 62
               7
  0
CIRCLE
  5
1E1
100
AcDbEntity
  8
ARJ70-0303
370
              15
390
0
  6
Continuous
 62
               7
100
AcDbCircle
 10
715.9799529834545
 20
684.73261760395235
 30
0.0
 40
6.0
  0
CIRCLE
  5
1E2
100
AcDbEntity
  8
ARJ70-0303
370
              15
390
0
  6
Continuous
 62
               7
100
AcDbCircle
 10
715.9799529834545
 20
454.73261760395394
 30
0.0
 40
6.0
  0
CIRCLE
  5
1E3
100
AcDbEntity
  8
ARJ70-0303
370
              15
390
0
  6
Continuous
 62
               7
100
AcDbCircle
 10
243.9799529834545
 20
684.73261760395235
 30
0.0
 40
6.0
  0
CIRCLE
  5
1E4
100
AcDbEntity
  8
ARJ70-0303
370
              15
390
0
  6
Continuous
 62
               7
100
AcDbCircle
 10
243.9799529834545
 20
454.73261760395394
 30
0.0
 40
6.0
  0
ENDSEC
  0
SECTION
  2
OBJECTS
  0
DICTIONARY
  5
19
100
AcDbDictionary
280
               0
281
               1
  3
ACAD_GROUP
350
1A
  3
ACAD_MLINESTYLE
350
1B
  3
ACAD_LAYOUT
350
1E
  3
ACAD_PLOTSETTINGS
350
22
  3
ACAD_PLOTSTYLENAME
350
1F
  0
DICTIONARY
  5
1A
102
{ACAD_REACTORS
330
19
102
}
100
AcDbDictionary
280
               0
281
               1
  0
DICTIONARY
  5
1B
102
{ACAD_REACTORS
330
19
102
}
100
AcDbDictionary
280
               0
281
               1
  3
Standard
350
1C
  0
MLINESTYLE
  5
1C
102
{ACAD_REACTORS
330
1B
102
}
100
AcDbMlineStyle
  2
Standard
 70
               0
  3

 62
               0
 51
90.0
 52
90.0
 71
               2
 49
0.5
 62
             256
  6
ByLayer
 49
-0.5
 62
             256
  6
ByLayer
  0
ACDBDICTIONARYWDFLT
  5
1F
102
{ACAD_REACTORS
330
19
102
}
100
AcDbDictionary
281
               1
  3
Normal
350
1D
100
AcDbDictionaryWithDefault
340
1D
  0
ACDBPLACEHOLDER
  5
1D
102
{ACAD_REACTORS
330
1F
102
}
  0
LAYOUT
  5
20
102
{ACAD_REACTORS
330
1E
102
}
100
AcDbPlotSettings
  1

  2

  4

  6

 40
0.0
 41
0.0
 42
0.0
 43
0.0
 44
0.0
 45
0.0
 46
0.0
 47
0.0
 48
0.0
 49
0.0
140
0.0
141
0.0
142
1.0
143
1.0
 70
            1024
 72
               0
 73
               0
 74
               0
  7

 75
               0
147
1.0
148
0.0
149
0.0
100
AcDbLayout
  1
Model
 70
               0
 71
               0
 10
0.0
 20
0.0
 11
0.0
 21
0.0
 12
0.0
 22
0.0
 32
0.0
 14
0.0
 24
0.0
 34
0.0
 15
0.0
 25
0.0
 35
0.0
146
0.0
 13
0.0
 23
0.0
 33
0.0
 16
0.0
 26
0.0
 36
0.0
 17
0.0
 27
0.0
 37
0.0
 76
               0
330
A
331
0
345
0
346
0
  0
LAYOUT
  5
21
102
{ACAD_REACTORS
330
1E
102
}
100
AcDbPlotSettings
  1

  2

  4

  6

 40
0.0
 41
0.0
 42
0.0
 43
0.0
 44
0.0
 45
0.0
 46
0.0
 47
0.0
 48
0.0
 49
0.0
140
0.0
141
0.0
142
1.0
143
1.0
 70
               0
 72
               0
 73
               0
 74
               0
  7

 75
               0
147
1.0
148
0.0
149
0.0
100
AcDbLayout
  1
Layout1
 70
               0
 71
               0
 10
0.0
 20
0.0
 11
0.0
 21
0.0
 12
0.0
 22
0.0
 32
0.0
 14
0.0
 24
0.0
 34
0.0
 15
0.0
 25
0.0
 35
0.0
146
0.0
 13
0.0
 23
0.0
 33
0.0
 16
0.0
 26
0.0
 36
0.0
 17
0.0
 27
0.0
 37
0.0
 76
               0
330
B
331
0
345
0
346
0
  0
DICTIONARY
  5
1E
102
{ACAD_REACTORS
330
19
102
}
100
AcDbDictionary
280
               0
281
               1
  3
Layout1
350
21
  3
Model
350
20
  0
DICTIONARY
  5
22
102
{ACAD_REACTORS
330
19
102
}
100
AcDbDictionary
280
               0
281
               1
  0
ENDSEC
  0
EOF
